  0
SECTION
  2
HEADER
  9
$ACADVER
  1
AC1014
  9
$ACADMAINTVER
 70
     9
  9
$DWGCODEPAGE
  3
ANSI_932
  9
$INSBASE
 10
0.0
 20
0.0
 30
0.0
  9
$EXTMIN
 10
25.00000000000978
 20
9.9999999999999
 30
0.0
  9
$EXTMAX
 10
410.0000000000101
 20
286.9999999999972
 30
0.0
  9
$LIMMIN
 10
0.0
 20
0.0
  9
$LIMMAX
 10
420.0
 20
297.0
  9
$ORTHOMODE
 70
     0
  9
$REGENMODE
 70
     1
  9
$FILLMODE
 70
     1
  9
$QTEXTMODE
 70
     0
  9
$MIRRTEXT
 70
     1
  9
$DRAGMODE
 70
     2
  9
$LTSCALE
 40
1.0
  9
$OSMODE
 70
    37
  9
$ATTMODE
 70
     1
  9
$TEXTSIZE
 40
2.5
  9
$TRACEWID
 40
1.0
  9
$TEXTSTYLE
  7
STANDARD
  9
$CLAYER
  8
図
  9
$CELTYPE
  6
BYLAYER
  9
$CECOLOR
 62
   256
  9
$CELTSCALE
 40
1.0
  9
$DELOBJ
 70
     1
  9
$DISPSILH
 70
     0
  9
$DIMSCALE
 40
1.0
  9
$DIMASZ
 40
2.5
  9
$DIMEXO
 40
0.625
  9
$DIMDLI
 40
3.75
  9
$DIMRND
 40
0.0
  9
$DIMDLE
 40
0.0
  9
$DIMEXE
 40
1.25
  9
$DIMTP
 40
0.0
  9
$DIMTM
 40
0.0
  9
$DIMTXT
 40
2.5
  9
$DIMCEN
 40
2.5
  9
$DIMTSZ
 40
0.0
  9
$DIMTOL
 70
     0
  9
$DIMLIM
 70
     0
  9
$DIMTIH
 70
     0
  9
$DIMTOH
 70
     0
  9
$DIMSE1
 70
     0
  9
$DIMSE2
 70
     0
  9
$DIMTAD
 70
     1
  9
$DIMZIN
 70
     8
  9
$DIMBLK
  1

  9
$DIMASO
 70
     1
  9
$DIMSHO
 70
     1
  9
$DIMPOST
  1

  9
$DIMAPOST
  1

  9
$DIMALT
 70
     0
  9
$DIMALTD
 70
     3
  9
$DIMALTF
 40
0.03937007874016
  9
$DIMLFAC
 40
1.0
  9
$DIMTOFL
 70
     1
  9
$DIMTVP
 40
0.0
  9
$DIMTIX
 70
     0
  9
$DIMSOXD
 70
     0
  9
$DIMSAH
 70
     0
  9
$DIMBLK1
  1

  9
$DIMBLK2
  1

  9
$DIMSTYLE
  2
ISO-25
  9
$DIMCLRD
 70
     0
  9
$DIMCLRE
 70
     0
  9
$DIMCLRT
 70
     0
  9
$DIMTFAC
 40
1.0
  9
$DIMGAP
 40
0.625
  9
$DIMJUST
 70
     0
  9
$DIMSD1
 70
     0
  9
$DIMSD2
 70
     0
  9
$DIMTOLJ
 70
     0
  9
$DIMTZIN
 70
     8
  9
$DIMALTZ
 70
     0
  9
$DIMALTTZ
 70
     0
  9
$DIMFIT
 70
     3
  9
$DIMUPT
 70
     0
  9
$DIMUNIT
 70
     2
  9
$DIMDEC
 70
     2
  9
$DIMTDEC
 70
     2
  9
$DIMALTU
 70
     2
  9
$DIMALTTD
 70
     3
  9
$DIMTXSTY
  7
STANDARD
  9
$DIMAUNIT
 70
     0
  9
$LUNITS
 70
     2
  9
$LUPREC
 70
     4
  9
$SKETCHINC
 40
1.0
  9
$FILLETRAD
 40
10.0
  9
$AUNITS
 70
     0
  9
$AUPREC
 70
     0
  9
$MENU
  1
.
  9
$ELEVATION
 40
0.0
  9
$PELEVATION
 40
0.0
  9
$THICKNESS
 40
0.0
  9
$LIMCHECK
 70
     0
  9
$CHAMFERA
 40
10.0
  9
$CHAMFERB
 40
10.0
  9
$CHAMFERC
 40
20.0
  9
$CHAMFERD
 40
0.0
  9
$SKPOLY
 70
     0
  9
$TDCREATE
 40
2460594.400511435
  9
$TDUPDATE
 40
2460594.400511771
  9
$TDINDWG
 40
0.0000000116
  9
$TDUSRTIMER
 40
0.0000000116
  9
$USRTIMER
 70
     1
  9
$ANGBASE
 50
0.0
  9
$ANGDIR
 70
     0
  9
$PDMODE
 70
     0
  9
$PDSIZE
 40
0.0
  9
$PLINEWID
 40
0.0
  9
$COORDS
 70
     1
  9
$SPLFRAME
 70
     0
  9
$SPLINETYPE
 70
     6
  9
$SPLINESEGS
 70
     8
  9
$ATTDIA
 70
     0
  9
$ATTREQ
 70
     1
  9
$HANDLING
 70
     1
  9
$HANDSEED
  5
449
  9
$SURFTAB1
 70
     6
  9
$SURFTAB2
 70
     6
  9
$SURFTYPE
 70
     6
  9
$SURFU
 70
     6
  9
$SURFV
 70
     6
  9
$UCSNAME
  2

  9
$UCSORG
 10
0.0
 20
0.0
 30
0.0
  9
$UCSXDIR
 10
1.0
 20
0.0
 30
0.0
  9
$UCSYDIR
 10
0.0
 20
1.0
 30
0.0
  9
$PUCSNAME
  2

  9
$PUCSORG
 10
0.0
 20
0.0
 30
0.0
  9
$PUCSXDIR
 10
1.0
 20
0.0
 30
0.0
  9
$PUCSYDIR
 10
0.0
 20
1.0
 30
0.0
  9
$USERI1
 70
     0
  9
$USERI2
 70
     0
  9
$USERI3
 70
     0
  9
$USERI4
 70
     0
  9
$USERI5
 70
     0
  9
$USERR1
 40
0.0
  9
$USERR2
 40
0.0
  9
$USERR3
 40
0.0
  9
$USERR4
 40
0.0
  9
$USERR5
 40
0.0
  9
$WORLDVIEW
 70
     1
  9
$SHADEDGE
 70
     3
  9
$SHADEDIF
 70
    70
  9
$TILEMODE
 70
     1
  9
$MAXACTVP
 70
    64
  9
$PINSBASE
 10
0.0
 20
0.0
 30
0.0
  9
$PLIMCHECK
 70
     0
  9
$PEXTMIN
 10
1.000000000000000E+20
 20
1.000000000000000E+20
 30
1.000000000000000E+20
  9
$PEXTMAX
 10
-1.000000000000000E+20
 20
-1.000000000000000E+20
 30
-1.000000000000000E+20
  9
$PLIMMIN
 10
0.0
 20
0.0
  9
$PLIMMAX
 10
420.0
 20
297.0
  9
$UNITMODE
 70
     0
  9
$VISRETAIN
 70
     1
  9
$PLINEGEN
 70
     0
  9
$PSLTSCALE
 70
     1
  9
$TREEDEPTH
 70
  3020
  9
$PICKSTYLE
 70
     1
  9
$CMLSTYLE
  2
STANDARD
  9
$CMLJUST
 70
     0
  9
$CMLSCALE
 40
20.0
  9
$PROXYGRAPHICS
 70
     1
  9
$MEASUREMENT
 70
     1
  0
ENDSEC
  0
SECTION
  2
CLASSES
  0
CLASS
  1
ACDBDICTIONARYWDFLT
  2
AcDbDictionaryWithDefault
  3
ObjectDBX Classes
 90
        0
280
     0
281
     0
  0
CLASS
  1
VISUALSTYLE
  2
AcDbVisualStyle
  3
ObjectDBX Classes
 90
     4095
280
     0
281
     0
  0
CLASS
  1
MATERIAL
  2
AcDbMaterial
  3
ObjectDBX Classes
 90
     1153
280
     0
281
     0
  0
CLASS
  1
SUN
  2
AcDbSun
  3
SCENEOE
 90
     1024
280
     0
281
     0
  0
CLASS
  1
DICTIONARYVAR
  2
AcDbDictionaryVar
  3
ObjectDBX Classes
 90
        0
280
     0
281
     0
  0
CLASS
  1
XRECORD
  2
AcDbXrecord
  3
AutoCAD 2000
 90
        0
280
     0
281
     0
  0
CLASS
  1
LWPOLYLINE
  2
AcDbPolyline
  3
AutoCAD 2000
 90
        0
280
     0
281
     1
  0
CLASS
  1
HATCH
  2
AcDbHatch
  3
AutoCAD 2000
 90
        0
280
     0
281
     1
  0
CLASS
  1
ACDBPLACEHOLDER
  2
AcDbPlaceHolder
  3
ObjectDBX Classes
 90
        0
280
     0
281
     0
  0
CLASS
  1
LAYOUT
  2
AcDbLayout
  3
ObjectDBX Classes
 90
        0
280
     0
281
     0
  0
ENDSEC
  0
SECTION
  2
TABLES
  0
TABLE
  2
VPORT
  5
8
330
0
100
AcDbSymbolTable
 70
     1
  0
VPORT
  5
29
330
8
100
AcDbSymbolTableRecord
100
AcDbViewportTableRecord
  2
*ACTIVE
 70
     0
 10
0.0
 20
0.0
 11
1.0
 21
1.0
 12
1087.50000000005
 22
742.4999999999926
 13
0.0
 23
0.0
 14
10.0
 24
10.0
 15
10.0
 25
10.0
 16
0.0
 26
0.0
 36
1.0
 17
0.0
 27
0.0
 37
0.0
 40
1384.999999999986
 41
1.389891696750917
 42
50.0
 43
0.0
 44
0.0
 50
0.0
 51
0.0
 71
     0
 72
  1000
 73
     1
 74
     3
 75
     0
 76
     0
 77
     0
 78
     0
  0
ENDTAB
  0
TABLE
  2
LTYPE
  5
5
330
0
100
AcDbSymbolTable
 70
     7
  0
LTYPE
  5
14
330
5
100
AcDbSymbolTableRecord
100
AcDbLinetypeTableRecord
  2
BYBLOCK
 70
     0
  3

 72
    65
 73
     0
 40
0.0
  0
LTYPE
  5
15
330
5
100
AcDbSymbolTableRecord
100
AcDbLinetypeTableRecord
  2
BYLAYER
 70
     0
  3

 72
    65
 73
     0
 40
0.0
  0
LTYPE
  5
16
330
5
100
AcDbSymbolTableRecord
100
AcDbLinetypeTableRecord
  2
CONTINUOUS
 70
     0
  3
Solid line
 72
    65
 73
     0
 40
0.0
  0
LTYPE
  5
40
330
5
100
AcDbSymbolTableRecord
100
AcDbLinetypeTableRecord
  2
EXLTYPE1
 70
     0
  3
破線
 72
    65
 73
     2
 40
3.0
 49
2.0
 74
     0
 49
-1.0
 74
     0
  0
LTYPE
  5
41
330
5
100
AcDbSymbolTableRecord
100
AcDbLinetypeTableRecord
  2
EXLTYPE2
 70
     0
  3
点線
 72
    65
 73
     2
 40
2.0
 49
1.0
 74
     0
 49
-1.0
 74
     0
  0
LTYPE
  5
42
330
5
100
AcDbSymbolTableRecord
100
AcDbLinetypeTableRecord
  2
EXLTYPE3
 70
     0
  3
一点鎖線
 72
    65
 73
     4
 40
10.0
 49
7.0
 74
     0
 49
-1.0
 74
     0
 49
1.0
 74
     0
 49
-1.0
 74
     0
  0
LTYPE
  5
43
330
5
100
AcDbSymbolTableRecord
100
AcDbLinetypeTableRecord
  2
EXLTYPE4
 70
     0
  3
二点鎖線
 72
    65
 73
     6
 40
12.0
 49
7.0
 74
     0
 49
-1.0
 74
     0
 49
1.0
 74
     0
 49
-1.0
 74
     0
 49
1.0
 74
     0
 49
-1.0
 74
     0
  0
LTYPE
  5
44
330
5
100
AcDbSymbolTableRecord
100
AcDbLinetypeTableRecord
  2
EXLTYPE5
 70
     0
  3
三点鎖線
 72
    65
 73
     8
 40
37.0
 49
30.0
 74
     0
 49
-1.0
 74
     0
 49
1.0
 74
     0
 49
-1.0
 74
     0
 49
1.0
 74
     0
 49
-1.0
 74
     0
 49
1.0
 74
     0
 49
-1.0
 74
     0
  0
LTYPE
  5
45
330
5
100
AcDbSymbolTableRecord
100
AcDbLinetypeTableRecord
  2
EXLTYPE6
 70
     0
  3
四点鎖線
 72
    65
 73
    10
 40
39.0
 49
30.0
 74
     0
 49
-1.0
 74
     0
 49
1.0
 74
     0
 49
-1.0
 74
     0
 49
1.0
 74
     0
 49
-1.0
 74
     0
 49
1.0
 74
     0
 49
-1.0
 74
     0
 49
1.0
 74
     0
 49
-1.0
 74
     0
  0
ENDTAB
  0
TABLE
  2
LAYER
  5
2
330
0
100
AcDbSymbolTable
 70
     4
  0
LAYER
  5
10
330
2
100
AcDbSymbolTableRecord
100
AcDbLayerTableRecord
  2
0
 70
     0
 62
     7
  6
CONTINUOUS
  0
LAYER
  5
48
330
2
100
AcDbSymbolTableRecord
100
AcDbLayerTableRecord
  2
枠_表
 70
     0
 62
     6
  6
CONTINUOUS
  0
LAYER
  5
49
330
2
100
AcDbSymbolTableRecord
100
AcDbLayerTableRecord
  2
図
 70
     0
 62
     7
  6
CONTINUOUS
  0
LAYER
  5
148
330
2
100
AcDbSymbolTableRecord
100
AcDbLayerTableRecord
  2
DEFPOINTS
 70
     0
 62
     7
  6
CONTINUOUS
  0
ENDTAB
  0
TABLE
  2
STYLE
  5
3
330
0
100
AcDbSymbolTable
 70
     6
  0
STYLE
  5
11
330
3
100
AcDbSymbolTableRecord
100
AcDbTextStyleTableRecord
  2
STANDARD
 70
     0
 40
0.0
 41
1.0
 50
0.0
 71
     0
 42
2.5
  3
monotxt
  4
extfont
  0
STYLE
  5
46
330
3
100
AcDbSymbolTableRecord
100
AcDbTextStyleTableRecord
  2
EXCADSTD
 70
     0
 40
0.0
 41
1.0
 50
0.0
 71
     0
 42
0.2
  3
monotxt
  4
extfont
  0
STYLE
  5
47
330
3
100
AcDbSymbolTableRecord
100
AcDbTextStyleTableRecord
  2
EXCADVERT
 70
     4
 40
0.0
 41
1.0
 50
0.0
 71
     0
 42
0.286885
  3
monotxt
  4
extfont
  0
STYLE
  5
10B
330
3
100
AcDbSymbolTableRecord
100
AcDbTextStyleTableRecord
  2
EXCADTTF1
 70
     0
 40
0.0
 41
1.0
 50
0.0
 71
     0
 42
0.2
  3
MSGOTHIC.TTC
  4

1001
ACAD
1000
MS Gothic
1071
    32817
  0
STYLE
  5
146
330
3
100
AcDbSymbolTableRecord
100
AcDbTextStyleTableRecord
  2
EXCADDIM1
 70
     0
 40
0.0
 41
0.95
 50
0.0
 71
     0
 42
0.2
  3
monotxt
  4
extfont
  0
STYLE
  5
157
330
3
100
AcDbSymbolTableRecord
100
AcDbTextStyleTableRecord
  2
EXCADDIM2
 70
     0
 40
0.0
 41
0.84
 50
0.0
 71
     0
 42
0.2
  3
monotxt
  4
extfont
  0
ENDTAB
  0
TABLE
  2
VIEW
  5
6
330
0
100
AcDbSymbolTable
 70
     0
  0
ENDTAB
  0
TABLE
  2
UCS
  5
7
330
0
100
AcDbSymbolTable
 70
     0
  0
ENDTAB
  0
TABLE
  2
APPID
  5
9
330
0
100
AcDbSymbolTable
 70
     1
  0
APPID
  5
12
330
9
100
AcDbSymbolTableRecord
100
AcDbRegAppTableRecord
  2
ACAD
 70
     0
  0
ENDTAB
  0
TABLE
  2
DIMSTYLE
  5
A
330
0
100
AcDbSymbolTable
 70
     1
  0
DIMSTYLE
105
27
102
{ACAD_REACTORS
330
147
330
158
330
165
330
171
330
17F
330
18C
330
19B
330
1AA
330
1B7
330
1C4
330
1D3
330
1E0
330
1ED
330
1FA
330
207
330
214
330
221
330
22E
330
23D
330
24A
330
257
330
403
330
410
102
}
330
A
100
AcDbSymbolTableRecord
100
AcDbDimStyleTableRecord
  2
ISO-25
 70
     0
  3

  4

  5

  6

  7

 40
1.0
 41
2.5
 42
0.625
 43
3.75
 44
1.25
 45
0.0
 46
0.0
 47
0.0
 48
0.0
140
2.5
141
2.5
142
0.0
143
0.03937007874016
144
1.0
145
0.0
146
1.0
147
0.625
 71
     0
 72
     0
 73
     0
 74
     0
 75
     0
 76
     0
 77
     1
 78
     8
170
     0
171
     3
172
     1
173
     0
174
     0
175
     0
176
     0
177
     0
178
     0
270
     2
271
     2
272
     2
273
     2
274
     3
340
11
275
     0
280
     0
281
     0
282
     0
283
     0
284
     8
285
     0
286
     0
287
     5
288
     0
  0
ENDTAB
  0
TABLE
  2
BLOCK_RECORD
  5
1
330
0
100
AcDbSymbolTable
 70
    38
  0
BLOCK_RECORD
  5
1F
330
1
100
AcDbSymbolTableRecord
100
AcDbBlockTableRecord
  2
*MODEL_SPACE
  0
BLOCK_RECORD
  5
1B
330
1
100
AcDbSymbolTableRecord
100
AcDbBlockTableRecord
  2
*PAPER_SPACE
  0
BLOCK_RECORD
  5
4A
330
1
100
AcDbSymbolTableRecord
100
AcDbBlockTableRecord
  2
EX_NORM
  0
BLOCK_RECORD
  5
4D
330
1
100
AcDbSymbolTableRecord
100
AcDbBlockTableRecord
  2
EX_BNORM
  0
BLOCK_RECORD
  5
50
330
1
100
AcDbSymbolTableRecord
100
AcDbBlockTableRecord
  2
EX_BCIR
  0
BLOCK_RECORD
  5
53
330
1
100
AcDbSymbolTableRecord
100
AcDbBlockTableRecord
  2
EX_RCIVIL
  0
BLOCK_RECORD
  5
56
330
1
100
AcDbSymbolTableRecord
100
AcDbBlockTableRecord
  2
EX_SLANT
  0
BLOCK_RECORD
  5
59
330
1
100
AcDbSymbolTableRecord
100
AcDbBlockTableRecord
  2
EX_NONE
  0
BLOCK_RECORD
  5
5C
330
1
100
AcDbSymbolTableRecord
100
AcDbBlockTableRecord
  2
EX_CIVIL
  0
BLOCK_RECORD
  5
5F
330
1
100
AcDbSymbolTableRecord
100
AcDbBlockTableRecord
  2
EX_WCIR
  0
BLOCK_RECORD
  5
62
330
1
100
AcDbSymbolTableRecord
100
AcDbBlockTableRecord
  2
EX_WCIR2
  0
BLOCK_RECORD
  5
65
330
1
100
AcDbSymbolTableRecord
100
AcDbBlockTableRecord
  2
EX_WNORM
  0
BLOCK_RECORD
  5
68
330
1
100
AcDbSymbolTableRecord
100
AcDbBlockTableRecord
  2
EX_NNORM
  0
BLOCK_RECORD
  5
6B
330
1
100
AcDbSymbolTableRecord
100
AcDbBlockTableRecord
  2
EX_BBOX
  0
BLOCK_RECORD
  5
6E
330
1
100
AcDbSymbolTableRecord
100
AcDbBlockTableRecord
  2
EX_WBOX
  0
BLOCK_RECORD
  5
71
330
1
100
AcDbSymbolTableRecord
100
AcDbBlockTableRecord
  2
EX_INTEGRAL
  0
BLOCK_RECORD
  5
149
330
1
100
AcDbSymbolTableRecord
100
AcDbBlockTableRecord
  2
*D15
  0
BLOCK_RECORD
  5
159
330
1
100
AcDbSymbolTableRecord
100
AcDbBlockTableRecord
  2
*D16
  0
BLOCK_RECORD
  5
166
330
1
100
AcDbSymbolTableRecord
100
AcDbBlockTableRecord
  2
*D17
  0
BLOCK_RECORD
  5
172
330
1
100
AcDbSymbolTableRecord
100
AcDbBlockTableRecord
  2
*D18
  0
BLOCK_RECORD
  5
180
330
1
100
AcDbSymbolTableRecord
100
AcDbBlockTableRecord
  2
*D19
  0
BLOCK_RECORD
  5
18D
330
1
100
AcDbSymbolTableRecord
100
AcDbBlockTableRecord
  2
*D20
  0
BLOCK_RECORD
  5
19C
330
1
100
AcDbSymbolTableRecord
100
AcDbBlockTableRecord
  2
*D21
  0
BLOCK_RECORD
  5
1AB
330
1
100
AcDbSymbolTableRecord
100
AcDbBlockTableRecord
  2
*D22
  0
BLOCK_RECORD
  5
1B8
330
1
100
AcDbSymbolTableRecord
100
AcDbBlockTableRecord
  2
*D23
  0
BLOCK_RECORD
  5
1C5
330
1
100
AcDbSymbolTableRecord
100
AcDbBlockTableRecord
  2
*D24
  0
BLOCK_RECORD
  5
1D4
330
1
100
AcDbSymbolTableRecord
100
AcDbBlockTableRecord
  2
*D25
  0
BLOCK_RECORD
  5
1E1
330
1
100
AcDbSymbolTableRecord
100
AcDbBlockTableRecord
  2
*D26
  0
BLOCK_RECORD
  5
1EE
330
1
100
AcDbSymbolTableRecord
100
AcDbBlockTableRecord
  2
*D27
  0
BLOCK_RECORD
  5
1FB
330
1
100
AcDbSymbolTableRecord
100
AcDbBlockTableRecord
  2
*D28
  0
BLOCK_RECORD
  5
208
330
1
100
AcDbSymbolTableRecord
100
AcDbBlockTableRecord
  2
*D29
  0
BLOCK_RECORD
  5
215
330
1
100
AcDbSymbolTableRecord
100
AcDbBlockTableRecord
  2
*D30
  0
BLOCK_RECORD
  5
222
330
1
100
AcDbSymbolTableRecord
100
AcDbBlockTableRecord
  2
*D31
  0
BLOCK_RECORD
  5
22F
330
1
100
AcDbSymbolTableRecord
100
AcDbBlockTableRecord
  2
*D32
  0
BLOCK_RECORD
  5
23E
330
1
100
AcDbSymbolTableRecord
100
AcDbBlockTableRecord
  2
*D33
  0
BLOCK_RECORD
  5
24B
330
1
100
AcDbSymbolTableRecord
100
AcDbBlockTableRecord
  2
*D34
  0
BLOCK_RECORD
  5
258
330
1
100
AcDbSymbolTableRecord
100
AcDbBlockTableRecord
  2
*D35
  0
BLOCK_RECORD
  5
404
330
1
100
AcDbSymbolTableRecord
100
AcDbBlockTableRecord
  2
*D36
  0
BLOCK_RECORD
  5
411
330
1
100
AcDbSymbolTableRecord
100
AcDbBlockTableRecord
  2
*D37
  0
ENDTAB
  0
ENDSEC
  0
SECTION
  2
BLOCKS
  0
BLOCK
  5
20
330
1F
100
AcDbEntity
  8
0
100
AcDbBlockBegin
  2
*MODEL_SPACE
 70
     0
 10
0.0
 20
0.0
 30
0.0
  3
*MODEL_SPACE
  1

  0
ENDBLK
  5
21
330
1F
100
AcDbEntity
  8
0
100
AcDbBlockEnd
  0
BLOCK
  5
1C
330
1B
100
AcDbEntity
 67
     1
  8
0
100
AcDbBlockBegin
  2
*PAPER_SPACE
 70
     0
 10
0.0
 20
0.0
 30
0.0
  3
*PAPER_SPACE
  1

  0
ENDBLK
  5
1D
330
1B
100
AcDbEntity
 67
     1
  8
0
100
AcDbBlockEnd
  0
BLOCK
  5
4B
330
4A
100
AcDbEntity
  8
0
100
AcDbBlockBegin
  2
EX_NORM
 70
     0
 10
0.0
 20
0.0
 30
0.0
  3
EX_NORM
  1

  0
LINE
  5
74
330
4A
100
AcDbEntity
  8
0
  6
CONTINUOUS
 62
     0
100
AcDbLine
 10
0.0
 20
0.0
 30
0.0
 11
-1.0
 21
0.0
 31
0.0
  0
LINE
  5
75
330
4A
100
AcDbEntity
  8
0
  6
CONTINUOUS
 62
     0
100
AcDbLine
 10
0.0
 20
0.0
 30
0.0
 11
-1.0
 21
0.166666667
 31
0.0
  0
LINE
  5
76
330
4A
100
AcDbEntity
  8
0
  6
CONTINUOUS
 62
     0
100
AcDbLine
 10
0.0
 20
0.0
 30
0.0
 11
-1.0
 21
-0.166666667
 31
0.0
  0
ENDBLK
  5
4C
330
4A
100
AcDbEntity
  8
0
100
AcDbBlockEnd
  0
BLOCK
  5
4E
330
4D
100
AcDbEntity
  8
0
100
AcDbBlockBegin
  2
EX_BNORM
 70
     0
 10
0.0
 20
0.0
 30
0.0
  3
EX_BNORM
  1

  0
LINE
  5
77
330
4D
100
AcDbEntity
  8
0
  6
CONTINUOUS
 62
     0
100
AcDbLine
 10
0.0
 20
0.0
 30
0.0
 11
-1.0
 21
0.0
 31
0.0
  0
LINE
  5
78
330
4D
100
AcDbEntity
  8
0
  6
CONTINUOUS
 62
     0
100
AcDbLine
 10
0.0
 20
0.0
 30
0.0
 11
-1.0
 21
0.166666667
 31
0.0
  0
LINE
  5
79
330
4D
100
AcDbEntity
  8
0
  6
CONTINUOUS
 62
     0
100
AcDbLine
 10
0.0
 20
0.0
 30
0.0
 11
-1.0
 21
-0.166666667
 31
0.0
  0
LINE
  5
7A
330
4D
100
AcDbEntity
  8
0
  6
CONTINUOUS
 62
     0
100
AcDbLine
 10
0.0
 20
0.0
 30
0.0
 11
-1.0
 21
0.083333333
 31
0.0
  0
LINE
  5
7B
330
4D
100
AcDbEntity
  8
0
  6
CONTINUOUS
 62
     0
100
AcDbLine
 10
0.0
 20
0.0
 30
0.0
 11
-1.0
 21
-0.083333333
 31
0.0
  0
LINE
  5
7C
330
4D
100
AcDbEntity
  8
0
  6
CONTINUOUS
 62
     0
100
AcDbLine
 10
-1.0
 20
0.166666667
 30
0.0
 11
-1.0
 21
-0.166666667
 31
0.0
  0
ENDBLK
  5
4F
330
4D
100
AcDbEntity
  8
0
100
AcDbBlockEnd
  0
BLOCK
  5
51
330
50
100
AcDbEntity
  8
0
100
AcDbBlockBegin
  2
EX_BCIR
 70
     0
 10
0.0
 20
0.0
 30
0.0
  3
EX_BCIR
  1

  0
LINE
  5
7D
330
50
100
AcDbEntity
  8
0
  6
CONTINUOUS
 62
     0
100
AcDbLine
 10
0.0
 20
0.0
 30
0.0
 11
-1.0
 21
0.0
 31
0.0
  0
CIRCLE
  5
7E
330
50
100
AcDbEntity
  8
0
  6
CONTINUOUS
 62
     0
100
AcDbCircle
 10
0.0
 20
0.0
 30
0.0
 40
0.5
  0
CIRCLE
  5
7F
330
50
100
AcDbEntity
  8
0
  6
CONTINUOUS
 62
     0
100
AcDbCircle
 10
0.0
 20
0.0
 30
0.0
 40
0.25
  0
ENDBLK
  5
52
330
50
100
AcDbEntity
  8
0
100
AcDbBlockEnd
  0
BLOCK
  5
54
330
53
100
AcDbEntity
  8
0
100
AcDbBlockBegin
  2
EX_RCIVIL
 70
     0
 10
0.0
 20
0.0
 30
0.0
  3
EX_RCIVIL
  1

  0
LINE
  5
80
330
53
100
AcDbEntity
  8
0
  6
CONTINUOUS
 62
     0
100
AcDbLine
 10
0.0
 20
0.0
 30
0.0
 11
-1.0
 21
0.0
 31
0.0
  0
LINE
  5
81
330
53
100
AcDbEntity
  8
0
  6
CONTINUOUS
 62
     0
100
AcDbLine
 10
-1.0
 20
-0.25
 30
0.0
 11
0.0
 21
-0.25
 31
0.0
  0
LINE
  5
82
330
53
100
AcDbEntity
  8
0
  6
CONTINUOUS
 62
     0
100
AcDbLine
 10
-1.0
 20
-0.125
 30
0.0
 11
0.0
 21
-0.125
 31
0.0
  0
ENDBLK
  5
55
330
53
100
AcDbEntity
  8
0
100
AcDbBlockEnd
  0
BLOCK
  5
57
330
56
100
AcDbEntity
  8
0
100
AcDbBlockBegin
  2
EX_SLANT
 70
     0
 10
0.0
 20
0.0
 30
0.0
  3
EX_SLANT
  1

  0
LINE
  5
83
330
56
100
AcDbEntity
  8
0
  6
CONTINUOUS
 62
     0
100
AcDbLine
 10
0.0
 20
0.0
 30
0.0
 11
-1.0
 21
0.0
 31
0.0
  0
LINE
  5
84
330
56
100
AcDbEntity
  8
0
  6
CONTINUOUS
 62
     0
100
AcDbLine
 10
0.707106781
 20
0.707106781
 30
0.0
 11
-0.707106781
 21
-0.707106781
 31
0.0
  0
ENDBLK
  5
58
330
56
100
AcDbEntity
  8
0
100
AcDbBlockEnd
  0
BLOCK
  5
5A
330
59
100
AcDbEntity
  8
0
100
AcDbBlockBegin
  2
EX_NONE
 70
     0
 10
0.0
 20
0.0
 30
0.0
  3
EX_NONE
  1

  0
LINE
  5
85
330
59
100
AcDbEntity
  8
0
  6
CONTINUOUS
 62
     0
100
AcDbLine
 10
0.0
 20
0.0
 30
0.0
 11
-1.0
 21
0.0
 31
0.0
  0
ENDBLK
  5
5B
330
59
100
AcDbEntity
  8
0
100
AcDbBlockEnd
  0
BLOCK
  5
5D
330
5C
100
AcDbEntity
  8
0
100
AcDbBlockBegin
  2
EX_CIVIL
 70
     0
 10
0.0
 20
0.0
 30
0.0
  3
EX_CIVIL
  1

  0
LINE
  5
86
330
5C
100
AcDbEntity
  8
0
  6
CONTINUOUS
 62
     0
100
AcDbLine
 10
0.0
 20
0.0
 30
0.0
 11
-1.0
 21
0.0
 31
0.0
  0
LINE
  5
87
330
5C
100
AcDbEntity
  8
0
  6
CONTINUOUS
 62
     0
100
AcDbLine
 10
-1.0
 20
0.25
 30
0.0
 11
0.0
 21
0.25
 31
0.0
  0
LINE
  5
88
330
5C
100
AcDbEntity
  8
0
  6
CONTINUOUS
 62
     0
100
AcDbLine
 10
-1.0
 20
0.125
 30
0.0
 11
0.0
 21
0.125
 31
0.0
  0
ENDBLK
  5
5E
330
5C
100
AcDbEntity
  8
0
100
AcDbBlockEnd
  0
BLOCK
  5
60
330
5F
100
AcDbEntity
  8
0
100
AcDbBlockBegin
  2
EX_WCIR
 70
     0
 10
0.0
 20
0.0
 30
0.0
  3
EX_WCIR
  1

  0
LINE
  5
89
330
5F
100
AcDbEntity
  8
0
  6
CONTINUOUS
 62
     0
100
AcDbLine
 10
0.0
 20
0.0
 30
0.0
 11
-1.0
 21
0.0
 31
0.0
  0
CIRCLE
  5
8A
330
5F
100
AcDbEntity
  8
0
  6
CONTINUOUS
 62
     0
100
AcDbCircle
 10
0.0
 20
0.0
 30
0.0
 40
0.5
  0
ENDBLK
  5
61
330
5F
100
AcDbEntity
  8
0
100
AcDbBlockEnd
  0
BLOCK
  5
63
330
62
100
AcDbEntity
  8
0
100
AcDbBlockBegin
  2
EX_WCIR2
 70
     0
 10
0.0
 20
0.0
 30
0.0
  3
EX_WCIR2
  1

  0
LINE
  5
8B
330
62
100
AcDbEntity
  8
0
  6
CONTINUOUS
 62
     0
100
AcDbLine
 10
-0.5
 20
0.0
 30
0.0
 11
-1.0
 21
0.0
 31
0.0
  0
CIRCLE
  5
8C
330
62
100
AcDbEntity
  8
0
  6
CONTINUOUS
 62
     0
100
AcDbCircle
 10
0.0
 20
0.0
 30
0.0
 40
0.5
  0
ENDBLK
  5
64
330
62
100
AcDbEntity
  8
0
100
AcDbBlockEnd
  0
BLOCK
  5
66
330
65
100
AcDbEntity
  8
0
100
AcDbBlockBegin
  2
EX_WNORM
 70
     0
 10
0.0
 20
0.0
 30
0.0
  3
EX_WNORM
  1

  0
LINE
  5
8D
330
65
100
AcDbEntity
  8
0
  6
CONTINUOUS
 62
     0
100
AcDbLine
 10
-1.0
 20
0.0
 30
0.0
 11
-1.0
 21
0.0
 31
0.0
  0
LINE
  5
8E
330
65
100
AcDbEntity
  8
0
  6
CONTINUOUS
 62
     0
100
AcDbLine
 10
0.0
 20
0.0
 30
0.0
 11
-1.0
 21
0.166666667
 31
0.0
  0
LINE
  5
8F
330
65
100
AcDbEntity
  8
0
  6
CONTINUOUS
 62
     0
100
AcDbLine
 10
0.0
 20
0.0
 30
0.0
 11
-1.0
 21
-0.166666667
 31
0.0
  0
LINE
  5
90
330
65
100
AcDbEntity
  8
0
  6
CONTINUOUS
 62
     0
100
AcDbLine
 10
-1.0
 20
0.166666667
 30
0.0
 11
-1.0
 21
-0.166666667
 31
0.0
  0
ENDBLK
  5
67
330
65
100
AcDbEntity
  8
0
100
AcDbBlockEnd
  0
BLOCK
  5
69
330
68
100
AcDbEntity
  8
0
100
AcDbBlockBegin
  2
EX_NNORM
 70
     0
 10
0.0
 20
0.0
 30
0.0
  3
EX_NNORM
  1

  0
LINE
  5
91
330
68
100
AcDbEntity
  8
0
  6
CONTINUOUS
 62
     0
100
AcDbLine
 10
0.0
 20
0.0
 30
0.0
 11
-1.0
 21
0.0
 31
0.0
  0
LINE
  5
92
330
68
100
AcDbEntity
  8
0
  6
CONTINUOUS
 62
     0
100
AcDbLine
 10
0.0
 20
0.0
 30
0.0
 11
-1.0
 21
0.166666667
 31
0.0
  0
LINE
  5
93
330
68
100
AcDbEntity
  8
0
  6
CONTINUOUS
 62
     0
100
AcDbLine
 10
0.0
 20
0.0
 30
0.0
 11
-1.0
 21
-0.166666667
 31
0.0
  0
LINE
  5
94
330
68
100
AcDbEntity
  8
0
  6
CONTINUOUS
 62
     0
100
AcDbLine
 10
-1.0
 20
0.166666667
 30
0.0
 11
-1.0
 21
-0.166666667
 31
0.0
  0
ENDBLK
  5
6A
330
68
100
AcDbEntity
  8
0
100
AcDbBlockEnd
  0
BLOCK
  5
6C
330
6B
100
AcDbEntity
  8
0
100
AcDbBlockBegin
  2
EX_BBOX
 70
     0
 10
0.0
 20
0.0
 30
0.0
  3
EX_BBOX
  1

  0
LINE
  5
95
330
6B
100
AcDbEntity
  8
0
  6
CONTINUOUS
 62
     0
100
AcDbLine
 10
0.0
 20
0.0
 30
0.0
 11
-1.0
 21
0.0
 31
0.0
  0
LINE
  5
96
330
6B
100
AcDbEntity
  8
0
  6
CONTINUOUS
 62
     0
100
AcDbLine
 10
-0.5
 20
0.5
 30
0.0
 11
0.5
 21
0.5
 31
0.0
  0
LINE
  5
97
330
6B
100
AcDbEntity
  8
0
  6
CONTINUOUS
 62
     0
100
AcDbLine
 10
0.5
 20
0.5
 30
0.0
 11
0.5
 21
-0.5
 31
0.0
  0
LINE
  5
98
330
6B
100
AcDbEntity
  8
0
  6
CONTINUOUS
 62
     0
100
AcDbLine
 10
0.5
 20
-0.5
 30
0.0
 11
-0.5
 21
-0.5
 31
0.0
  0
LINE
  5
99
330
6B
100
AcDbEntity
  8
0
  6
CONTINUOUS
 62
     0
100
AcDbLine
 10
-0.5
 20
-0.5
 30
0.0
 11
-0.5
 21
0.5
 31
0.0
  0
LINE
  5
9A
330
6B
100
AcDbEntity
  8
0
  6
CONTINUOUS
 62
     0
100
AcDbLine
 10
-0.25
 20
0.25
 30
0.0
 11
0.25
 21
0.25
 31
0.0
  0
LINE
  5
9B
330
6B
100
AcDbEntity
  8
0
  6
CONTINUOUS
 62
     0
100
AcDbLine
 10
0.25
 20
0.25
 30
0.0
 11
0.25
 21
-0.25
 31
0.0
  0
LINE
  5
9C
330
6B
100
AcDbEntity
  8
0
  6
CONTINUOUS
 62
     0
100
AcDbLine
 10
0.25
 20
-0.25
 30
0.0
 11
-0.25
 21
-0.25
 31
0.0
  0
LINE
  5
9D
330
6B
100
AcDbEntity
  8
0
  6
CONTINUOUS
 62
     0
100
AcDbLine
 10
-0.25
 20
-0.25
 30
0.0
 11
-0.25
 21
0.25
 31
0.0
  0
ENDBLK
  5
6D
330
6B
100
AcDbEntity
  8
0
100
AcDbBlockEnd
  0
BLOCK
  5
6F
330
6E
100
AcDbEntity
  8
0
100
AcDbBlockBegin
  2
EX_WBOX
 70
     0
 10
0.0
 20
0.0
 30
0.0
  3
EX_WBOX
  1

  0
LINE
  5
9E
330
6E
100
AcDbEntity
  8
0
  6
CONTINUOUS
 62
     0
100
AcDbLine
 10
-0.5
 20
0.0
 30
0.0
 11
-1.0
 21
0.0
 31
0.0
  0
LINE
  5
9F
330
6E
100
AcDbEntity
  8
0
  6
CONTINUOUS
 62
     0
100
AcDbLine
 10
-0.5
 20
0.5
 30
0.0
 11
0.5
 21
0.5
 31
0.0
  0
LINE
  5
A0
330
6E
100
AcDbEntity
  8
0
  6
CONTINUOUS
 62
     0
100
AcDbLine
 10
0.5
 20
0.5
 30
0.0
 11
0.5
 21
-0.5
 31
0.0
  0
LINE
  5
A1
330
6E
100
AcDbEntity
  8
0
  6
CONTINUOUS
 62
     0
100
AcDbLine
 10
0.5
 20
-0.5
 30
0.0
 11
-0.5
 21
-0.5
 31
0.0
  0
LINE
  5
A2
330
6E
100
AcDbEntity
  8
0
  6
CONTINUOUS
 62
     0
100
AcDbLine
 10
-0.5
 20
-0.5
 30
0.0
 11
-0.5
 21
0.5
 31
0.0
  0
ENDBLK
  5
70
330
6E
100
AcDbEntity
  8
0
100
AcDbBlockEnd
  0
BLOCK
  5
72
330
71
100
AcDbEntity
  8
0
100
AcDbBlockBegin
  2
EX_INTEGRAL
 70
     0
 10
0.0
 20
0.0
 30
0.0
  3
EX_INTEGRAL
  1

  0
LINE
  5
A3
330
71
100
AcDbEntity
  8
0
  6
CONTINUOUS
 62
     0
100
AcDbLine
 10
0.0
 20
0.0
 30
0.0
 11
-1.0
 21
0.0
 31
0.0
  0
ARC
  5
A4
330
71
100
AcDbEntity
  8
0
  6
CONTINUOUS
 62
     0
100
AcDbCircle
 10
0.542115
 20
0.164992
 30
0.0
 40
0.56667
100
AcDbArc
 50
73.07249033629006
 51
196.9275130221199
  0
ARC
  5
A5
330
71
100
AcDbEntity
  8
0
  6
CONTINUOUS
 62
     0
100
AcDbCircle
 10
-0.542115
 20
-0.164992
 30
0.0
 40
0.56667
100
AcDbArc
 50
253.0724869220464
 51
16.9275130559125
  0
ENDBLK
  5
73
330
71
100
AcDbEntity
  8
0
100
AcDbBlockEnd
  0
BLOCK
  5
14A
330
149
100
AcDbEntity
  8
0
100
AcDbBlockBegin
  2
*D15
 70
     1
 10
0.0
 20
0.0
 30
0.0
  3
*D15
  1

  0
LINE
  5
14C
330
149
100
AcDbEntity
  8
図
  6
CONTINUOUS
 62
     3
100
AcDbLine
 10
1297.0
 20
863.6046984901068
 30
0.0
 11
1297.0
 21
901.10469849011
 31
0.0
  0
LINE
  5
14D
330
149
100
AcDbEntity
  8
図
  6
CONTINUOUS
 62
     3
100
AcDbLine
 10
1317.0
 20
863.6046984901068
 30
0.0
 11
1317.0
 21
901.10469849011
 31
0.0
  0
LINE
  5
14E
330
149
100
AcDbEntity
  8
図
  6
CONTINUOUS
 62
     3
100
AcDbLine
 10
1297.0
 20
896.10469849011
 30
0.0
 11
1317.0
 21
896.10469849011
 31
0.0
  0
LINE
  5
14F
330
149
100
AcDbEntity
  8
図
  6
CONTINUOUS
 62
     3
100
AcDbLine
 10
1282.0
 20
896.10469849011
 30
0.0
 11
1267.0
 21
896.10469849011
 31
0.0
  0
LINE
  5
150
330
149
100
AcDbEntity
  8
図
  6
CONTINUOUS
 62
     3
100
AcDbLine
 10
1332.0
 20
896.10469849011
 30
0.0
 11
1347.0
 21
896.10469849011
 31
0.0
  0
INSERT
  5
151
330
149
100
AcDbEntity
  8
図
 62
     3
100
AcDbBlockReference
  2
EX_NORM
 10
1297.0
 20
896.10469849011
 30
0.0
 41
15.0
 42
15.0
 43
15.0
  0
INSERT
  5
152
330
149
100
AcDbEntity
  8
図
 62
     3
100
AcDbBlockReference
  2
EX_NORM
 10
1317.0
 20
896.10469849011
 30
0.0
 41
15.0
 42
15.0
 43
15.0
 50
180.0
  0
MTEXT
  5
153
330
149
100
AcDbEntity
  8
図
 62
     2
100
AcDbMText
 10
1307.0
 20
907.6046985497146
 30
0.0
 40
20.0
 41
0.0
 71
     5
 72
     1
  1
20
  7
EXCADDIM1
  0
POINT
  5
154
330
149
100
AcDbEntity
  8
DEFPOINTS
 62
     0
100
AcDbPoint
 10
1297.0
 20
861.1046984901068
 30
0.0
  0
POINT
  5
155
330
149
100
AcDbEntity
  8
DEFPOINTS
 62
     0
100
AcDbPoint
 10
1317.0
 20
861.1046984901068
 30
0.0
  0
POINT
  5
156
330
149
100
AcDbEntity
  8
DEFPOINTS
 62
     0
100
AcDbPoint
 10
1317.0
 20
896.10469849011
 30
0.0
  0
ENDBLK
  5
14B
330
149
100
AcDbEntity
  8
0
100
AcDbBlockEnd
  0
BLOCK
  5
15A
330
159
100
AcDbEntity
  8
0
100
AcDbBlockBegin
  2
*D16
 70
     1
 10
0.0
 20
0.0
 30
0.0
  3
*D16
  1

  0
LINE
  5
15C
330
159
100
AcDbEntity
  8
図
  6
CONTINUOUS
 62
     3
100
AcDbLine
 10
471.1011061565999
 20
346.8046984901071
 30
0.0
 11
471.1011061565999
 21
238.10469849011
 31
0.0
  0
LINE
  5
15D
330
159
100
AcDbEntity
  8
図
  6
CONTINUOUS
 62
     3
100
AcDbLine
 10
651.1011061565998
 20
350.2046984901071
 30
0.0
 11
651.1011061565998
 21
238.10469849011
 31
0.0
  0
LINE
  5
15E
330
159
100
AcDbEntity
  8
図
  6
CONTINUOUS
 62
     3
100
AcDbLine
 10
486.1011061565999
 20
248.10469849011
 30
0.0
 11
636.1011061565998
 21
248.10469849011
 31
0.0
  0
INSERT
  5
15F
330
159
100
AcDbEntity
  8
図
 62
     3
100
AcDbBlockReference
  2
EX_NORM
 10
471.1011061565999
 20
248.10469849011
 30
0.0
 41
15.0
 42
15.0
 43
15.0
 50
180.0
  0
INSERT
  5
160
330
159
100
AcDbEntity
  8
図
 62
     3
100
AcDbBlockReference
  2
EX_NORM
 10
651.1011061565998
 20
248.10469849011
 30
0.0
 41
15.0
 42
15.0
 43
15.0
  0
MTEXT
  5
161
330
159
100
AcDbEntity
  8
図
 62
     2
100
AcDbMText
 10
561.1011061565998
 20
259.6046985497146
 30
0.0
 40
20.0
 41
0.0
 71
     5
 72
     1
  1
180
  7
EXCADDIM2
  0
POINT
  5
162
330
159
100
AcDbEntity
  8
DEFPOINTS
 62
     0
100
AcDbPoint
 10
471.1011061565999
 20
349.3046984901071
 30
0.0
  0
POINT
  5
163
330
159
100
AcDbEntity
  8
DEFPOINTS
 62
     0
100
AcDbPoint
 10
651.1011061565998
 20
352.7046984901071
 30
0.0
  0
POINT
  5
164
330
159
100
AcDbEntity
  8
DEFPOINTS
 62
     0
100
AcDbPoint
 10
651.1011061565998
 20
248.10469849011
 30
0.0
  0
ENDBLK
  5
15B
330
159
100
AcDbEntity
  8
0
100
AcDbBlockEnd
  0
BLOCK
  5
167
330
166
100
AcDbEntity
  8
0
100
AcDbBlockBegin
  2
*D17
 70
     1
 10
0.0
 20
0.0
 30
0.0
  3
*D17
  1

  0
LINE
  5
169
330
166
100
AcDbEntity
  8
図
  6
CONTINUOUS
 62
     3
100
AcDbLine
 10
420.1011062162047
 20
1290.1046984901
 30
0.0
 11
394.2
 21
1290.1046984901
 31
0.0
  0
LINE
  5
16A
330
166
100
AcDbEntity
  8
図
  6
CONTINUOUS
 62
     3
100
AcDbLine
 10
399.2
 20
1275.1046984901
 30
0.0
 11
399.2
 21
1260.1046984901
 31
0.0
  0
INSERT
  5
16B
330
166
100
AcDbEntity
  8
図
 62
     3
100
AcDbBlockReference
  2
EX_NORM
 10
399.2
 20
1290.1046984901
 30
0.0
 41
15.0
 42
15.0
 43
15.0
 50
90.0
  0
INSERT
  5
16C
330
166
100
AcDbEntity
  8
図
 62
     3
100
AcDbBlockReference
  2
EX_NORM
 10
399.2
 20
1245.1046984901
 30
0.0
 41
15.0
 42
15.0
 43
15.0
 50
270.0
  0
MTEXT
  5
16D
330
166
100
AcDbEntity
  8
図
 62
     2
100
AcDbMText
 10
387.4500000298024
 20
1267.6046984901
 30
0.0
 40
20.0
 41
0.0
 71
     5
 72
     1
  1
45
  7
EXCADDIM2
 11
0.0
 21
1.0
 31
0.0
  0
POINT
  5
16E
330
166
100
AcDbEntity
  8
DEFPOINTS
 62
     0
100
AcDbPoint
 10
423.6011061566001
 20
1290.1046984901
 30
0.0
  0
POINT
  5
16F
330
166
100
AcDbEntity
  8
DEFPOINTS
 62
     0
100
AcDbPoint
 10
414.0000000000001
 20
1245.1046984901
 30
0.0
  0
POINT
  5
170
330
166
100
AcDbEntity
  8
DEFPOINTS
 62
     0
100
AcDbPoint
 10
399.2
 20
1245.1046984901
 30
0.0
  0
ENDBLK
  5
168
330
166
100
AcDbEntity
  8
0
100
AcDbBlockEnd
  0
BLOCK
  5
173
330
172
100
AcDbEntity
  8
0
100
AcDbBlockBegin
  2
*D18
 70
     1
 10
0.0
 20
0.0
 30
0.0
  3
*D18
  1

  0
LINE
  5
175
330
172
100
AcDbEntity
  8
図
  6
CONTINUOUS
 62
     3
100
AcDbLine
 10
576.1011061566
 20
1151.604698549705
 30
0.0
 11
576.1011061566
 21
1048.0
 31
0.0
  0
LINE
  5
176
330
172
100
AcDbEntity
  8
図
  6
CONTINUOUS
 62
     3
100
AcDbLine
 10
576.1011061566
 20
1053.0
 30
0.0
 11
601.1011061566
 21
1053.0
 31
0.0
  0
LINE
  5
177
330
172
100
AcDbEntity
  8
図
  6
CONTINUOUS
 62
     3
100
AcDbLine
 10
561.1011061566
 20
1053.0
 30
0.0
 11
546.1011061566
 21
1053.0
 31
0.0
  0
LINE
  5
178
330
172
100
AcDbEntity
  8
図
  6
CONTINUOUS
 62
     3
100
AcDbLine
 10
616.1011061566
 20
1053.0
 30
0.0
 11
631.1011061566
 21
1053.0
 31
0.0
  0
INSERT
  5
179
330
172
100
AcDbEntity
  8
図
 62
     3
100
AcDbBlockReference
  2
EX_NORM
 10
576.1011061566
 20
1053.0
 30
0.0
 41
15.0
 42
15.0
 43
15.0
  0
INSERT
  5
17A
330
172
100
AcDbEntity
  8
図
 62
     3
100
AcDbBlockReference
  2
EX_NORM
 10
601.1011061566
 20
1053.0
 30
0.0
 41
15.0
 42
15.0
 43
15.0
 50
180.0
  0
MTEXT
  5
17B
330
172
100
AcDbEntity
  8
図
 62
     2
100
AcDbMText
 10
543.6011061566
 20
1064.749999970198
 30
0.0
 40
20.0
 41
0.0
 71
     5
 72
     1
  1
25
  7
EXCADDIM2
  0
POINT
  5
17C
330
172
100
AcDbEntity
  8
DEFPOINTS
 62
     0
100
AcDbPoint
 10
576.1011061566
 20
1155.1046984901
 30
0.0
  0
POINT
  5
17D
330
172
100
AcDbEntity
  8
DEFPOINTS
 62
     0
100
AcDbPoint
 10
601.1011061566
 20
1095.1046984901
 30
0.0
  0
POINT
  5
17E
330
172
100
AcDbEntity
  8
DEFPOINTS
 62
     0
100
AcDbPoint
 10
601.1011061566
 20
1053.0
 30
0.0
  0
ENDBLK
  5
174
330
172
100
AcDbEntity
  8
0
100
AcDbBlockEnd
  0
BLOCK
  5
181
330
180
100
AcDbEntity
  8
0
100
AcDbBlockBegin
  2
*D19
 70
     1
 10
0.0
 20
0.0
 30
0.0
  3
*D19
  1

  0
LINE
  5
183
330
180
100
AcDbEntity
  8
図
  6
CONTINUOUS
 62
     3
100
AcDbLine
 10
782.1011060969954
 20
1290.1046984901
 30
0.0
 11
852.5
 21
1290.1046984901
 31
0.0
  0
LINE
  5
184
330
180
100
AcDbEntity
  8
図
  6
CONTINUOUS
 62
     3
100
AcDbLine
 10
604.6011060969954
 20
1095.1046984901
 30
0.0
 11
852.5
 21
1095.1046984901
 31
0.0
  0
LINE
  5
185
330
180
100
AcDbEntity
  8
図
  6
CONTINUOUS
 62
     3
100
AcDbLine
 10
847.5
 20
1275.1046984901
 30
0.0
 11
847.5
 21
1110.1046984901
 31
0.0
  0
INSERT
  5
186
330
180
100
AcDbEntity
  8
図
 62
     3
100
AcDbBlockReference
  2
EX_NORM
 10
847.5
 20
1290.1046984901
 30
0.0
 41
15.0
 42
15.0
 43
15.0
 50
90.0
  0
INSERT
  5
187
330
180
100
AcDbEntity
  8
図
 62
     3
100
AcDbBlockReference
  2
EX_NORM
 10
847.5
 20
1095.1046984901
 30
0.0
 41
15.0
 42
15.0
 43
15.0
 50
270.0
  0
MTEXT
  5
188
330
180
100
AcDbEntity
  8
図
 62
     2
100
AcDbMText
 10
835.7500000298028
 20
1192.6046984901
 30
0.0
 40
20.0
 41
0.0
 71
     5
 72
     1
  1
195
  7
EXCADDIM2
 11
0.0
 21
1.0
 31
0.0
  0
POINT
  5
189
330
180
100
AcDbEntity
  8
DEFPOINTS
 62
     0
100
AcDbPoint
 10
778.6011061566
 20
1290.1046984901
 30
0.0
  0
POINT
  5
18A
330
180
100
AcDbEntity
  8
DEFPOINTS
 62
     0
100
AcDbPoint
 10
601.1011061566
 20
1095.1046984901
 30
0.0
  0
POINT
  5
18B
330
180
100
AcDbEntity
  8
DEFPOINTS
 62
     0
100
AcDbPoint
 10
847.5
 20
1095.1046984901
 30
0.0
  0
ENDBLK
  5
182
330
180
100
AcDbEntity
  8
0
100
AcDbBlockEnd
  0
BLOCK
  5
18E
330
18D
100
AcDbEntity
  8
0
100
AcDbBlockBegin
  2
*D20
 70
     1
 10
0.0
 20
0.0
 30
0.0
  3
*D20
  1

  0
LINE
  5
190
330
18D
100
AcDbEntity
  8
図
  6
CONTINUOUS
 62
     3
100
AcDbLine
 10
776.6938247592554
 20
861.10469849011
 30
0.0
 11
817.8511061565998
 21
861.10469849011
 31
0.0
  0
LINE
  5
191
330
18D
100
AcDbEntity
  8
図
  6
CONTINUOUS
 62
     3
100
AcDbLine
 10
765.3011060969953
 20
836.10469849011
 30
0.0
 11
817.8511061565998
 21
836.10469849011
 31
0.0
  0
LINE
  5
192
330
18D
100
AcDbEntity
  8
図
  6
CONTINUOUS
 62
     3
100
AcDbLine
 10
812.8511061565998
 20
861.10469849011
 30
0.0
 11
812.8511061565998
 21
836.10469849011
 31
0.0
  0
LINE
  5
193
330
18D
100
AcDbEntity
  8
図
  6
CONTINUOUS
 62
     3
100
AcDbLine
 10
812.8511061565998
 20
876.10469849011
 30
0.0
 11
812.8511061565998
 21
891.10469849011
 31
0.0
  0
LINE
  5
194
330
18D
100
AcDbEntity
  8
図
  6
CONTINUOUS
 62
     3
100
AcDbLine
 10
812.8511061565998
 20
821.10469849011
 30
0.0
 11
812.8511061565998
 21
806.10469849011
 31
0.0
  0
INSERT
  5
195
330
18D
100
AcDbEntity
  8
図
 62
     3
100
AcDbBlockReference
  2
EX_NORM
 10
812.8511061565998
 20
861.10469849011
 30
0.0
 41
15.0
 42
15.0
 43
15.0
 50
270.0
  0
INSERT
  5
196
330
18D
100
AcDbEntity
  8
図
 62
     3
100
AcDbBlockReference
  2
EX_NORM
 10
812.8511061565998
 20
836.10469849011
 30
0.0
 41
15.0
 42
15.0
 43
15.0
 50
90.0
  0
MTEXT
  5
197
330
18D
100
AcDbEntity
  8
図
 62
     2
100
AcDbMText
 10
801.1011061864035
 20
893.6046984901093
 30
0.0
 40
20.0
 41
0.0
 71
     5
 72
     1
  1
25
  7
EXCADDIM2
 11
0.0
 21
1.0
 31
0.0
  0
POINT
  5
198
330
18D
100
AcDbEntity
  8
DEFPOINTS
 62
     0
100
AcDbPoint
 10
773.1938248188601
 20
861.10469849011
 30
0.0
  0
POINT
  5
199
330
18D
100
AcDbEntity
  8
DEFPOINTS
 62
     0
100
AcDbPoint
 10
761.8011061566
 20
836.10469849011
 30
0.0
  0
POINT
  5
19A
330
18D
100
AcDbEntity
  8
DEFPOINTS
 62
     0
100
AcDbPoint
 10
812.8511061565998
 20
836.10469849011
 30
0.0
  0
ENDBLK
  5
18F
330
18D
100
AcDbEntity
  8
0
100
AcDbBlockEnd
  0
BLOCK
  5
19D
330
19C
100
AcDbEntity
  8
0
100
AcDbBlockBegin
  2
*D21
 70
     1
 10
0.0
 20
0.0
 30
0.0
  3
*D21
  1

  0
LINE
  5
19F
330
19C
100
AcDbEntity
  8
図
  6
CONTINUOUS
 62
     3
100
AcDbLine
 10
454.0651746355047
 20
691.10469849011
 30
0.0
 11
394.1999999999881
 21
691.10469849011
 31
0.0
  0
LINE
  5
1A0
330
19C
100
AcDbEntity
  8
図
  6
CONTINUOUS
 62
     3
100
AcDbLine
 10
432.8355417791246
 20
681.10469849011
 30
0.0
 11
394.1999999999881
 21
681.10469849011
 31
0.0
  0
LINE
  5
1A1
330
19C
100
AcDbEntity
  8
図
  6
CONTINUOUS
 62
     3
100
AcDbLine
 10
399.1999999999881
 20
691.10469849011
 30
0.0
 11
399.1999999999881
 21
681.10469849011
 31
0.0
  0
LINE
  5
1A2
330
19C
100
AcDbEntity
  8
図
  6
CONTINUOUS
 62
     3
100
AcDbLine
 10
399.1999999999881
 20
706.10469849011
 30
0.0
 11
399.1999999999881
 21
721.10469849011
 31
0.0
  0
LINE
  5
1A3
330
19C
100
AcDbEntity
  8
図
  6
CONTINUOUS
 62
     3
100
AcDbLine
 10
399.1999999999881
 20
666.10469849011
 30
0.0
 11
399.1999999999881
 21
651.10469849011
 31
0.0
  0
INSERT
  5
1A4
330
19C
100
AcDbEntity
  8
図
 62
     3
100
AcDbBlockReference
  2
EX_NORM
 10
399.1999999999881
 20
691.10469849011
 30
0.0
 41
15.0
 42
15.0
 43
15.0
 50
270.0
  0
INSERT
  5
1A5
330
19C
100
AcDbEntity
  8
図
 62
     3
100
AcDbBlockReference
  2
EX_NORM
 10
399.1999999999881
 20
681.10469849011
 30
0.0
 41
15.0
 42
15.0
 43
15.0
 50
90.0
  0
MTEXT
  5
1A6
330
19C
100
AcDbEntity
  8
図
 62
     2
100
AcDbMText
 10
387.4500000297892
 20
648.6046984901104
 30
0.0
 40
20.0
 41
0.0
 71
     5
 72
     1
  1
10
  7
EXCADDIM2
 11
0.0
 21
1.0
 31
0.0
  0
POINT
  5
1A7
330
19C
100
AcDbEntity
  8
DEFPOINTS
 62
     0
100
AcDbPoint
 10
457.5651745759001
 20
691.10469849011
 30
0.0
  0
POINT
  5
1A8
330
19C
100
AcDbEntity
  8
DEFPOINTS
 62
     0
100
AcDbPoint
 10
436.33554171952
 20
681.10469849011
 30
0.0
  0
POINT
  5
1A9
330
19C
100
AcDbEntity
  8
DEFPOINTS
 62
     0
100
AcDbPoint
 10
399.1999999999881
 20
681.10469849011
 30
0.0
  0
ENDBLK
  5
19E
330
19C
100
AcDbEntity
  8
0
100
AcDbBlockEnd
  0
BLOCK
  5
1AC
330
1AB
100
AcDbEntity
  8
0
100
AcDbBlockBegin
  2
*D22
 70
     1
 10
0.0
 20
0.0
 30
0.0
  3
*D22
  1

  0
LINE
  5
1AE
330
1AB
100
AcDbEntity
  8
図
  6
CONTINUOUS
 62
     3
100
AcDbLine
 10
425.00948728547
 20
860.6984913910953
 30
0.0
 11
425.00948728547
 21
936.10469849011
 31
0.0
  0
LINE
  5
1AF
330
1AB
100
AcDbEntity
  8
図
  6
CONTINUOUS
 62
     3
100
AcDbLine
 10
777.19272502773
 20
860.6984913910953
 30
0.0
 11
777.19272502773
 21
936.10469849011
 31
0.0
  0
LINE
  5
1B0
330
1AB
100
AcDbEntity
  8
図
  6
CONTINUOUS
 62
     3
100
AcDbLine
 10
440.00948728547
 20
931.10469849011
 30
0.0
 11
762.19272502773
 21
931.10469849011
 31
0.0
  0
INSERT
  5
1B1
330
1AB
100
AcDbEntity
  8
図
 62
     3
100
AcDbBlockReference
  2
EX_NORM
 10
425.00948728547
 20
931.10469849011
 30
0.0
 41
15.0
 42
15.0
 43
15.0
 50
180.0
  0
INSERT
  5
1B2
330
1AB
100
AcDbEntity
  8
図
 62
     3
100
AcDbBlockReference
  2
EX_NORM
 10
777.19272502773
 20
931.10469849011
 30
0.0
 41
15.0
 42
15.0
 43
15.0
  0
MTEXT
  5
1B3
330
1AB
100
AcDbEntity
  8
図
 62
     2
100
AcDbMText
 10
601.1011061566
 20
942.8546984603076
 30
0.0
 40
20.0
 41
0.0
 71
     5
 72
     1
  1
352
  7
EXCADDIM2
  0
POINT
  5
1B4
330
1AB
100
AcDbEntity
  8
DEFPOINTS
 62
     0
100
AcDbPoint
 10
425.00948728547
 20
857.1984914507
 30
0.0
  0
POINT
  5
1B5
330
1AB
100
AcDbEntity
  8
DEFPOINTS
 62
     0
100
AcDbPoint
 10
777.19272502773
 20
857.1984914507
 30
0.0
  0
POINT
  5
1B6
330
1AB
100
AcDbEntity
  8
DEFPOINTS
 62
     0
100
AcDbPoint
 10
777.19272502773
 20
931.10469849011
 30
0.0
  0
ENDBLK
  5
1AD
330
1AB
100
AcDbEntity
  8
0
100
AcDbBlockEnd
  0
BLOCK
  5
1B9
330
1B8
100
AcDbEntity
  8
0
100
AcDbBlockBegin
  2
*D23
 70
     1
 10
0.0
 20
0.0
 30
0.0
  3
*D23
  1

  0
LINE
  5
1BB
330
1B8
100
AcDbEntity
  8
図
  6
CONTINUOUS
 62
     3
100
AcDbLine
 10
451.1011061566001
 20
852.2046984305053
 30
0.0
 11
451.1011061566001
 21
901.10469849011
 31
0.0
  0
LINE
  5
1BC
330
1B8
100
AcDbEntity
  8
図
  6
CONTINUOUS
 62
     3
100
AcDbLine
 10
751.1011061566
 20
849.7046984305053
 30
0.0
 11
751.1011061566
 21
901.10469849011
 31
0.0
  0
LINE
  5
1BD
330
1B8
100
AcDbEntity
  8
図
  6
CONTINUOUS
 62
     3
100
AcDbLine
 10
466.1011061566001
 20
896.10469849011
 30
0.0
 11
736.1011061566
 21
896.10469849011
 31
0.0
  0
INSERT
  5
1BE
330
1B8
100
AcDbEntity
  8
図
 62
     3
100
AcDbBlockReference
  2
EX_NORM
 10
451.1011061566001
 20
896.10469849011
 30
0.0
 41
15.0
 42
15.0
 43
15.0
 50
180.0
  0
INSERT
  5
1BF
330
1B8
100
AcDbEntity
  8
図
 62
     3
100
AcDbBlockReference
  2
EX_NORM
 10
751.1011061566
 20
896.10469849011
 30
0.0
 41
15.0
 42
15.0
 43
15.0
  0
MTEXT
  5
1C0
330
1B8
100
AcDbEntity
  8
図
 62
     2
100
AcDbMText
 10
601.1011061566
 20
907.8546984603076
 30
0.0
 40
20.0
 41
0.0
 71
     5
 72
     1
  1
300
  7
EXCADDIM2
  0
POINT
  5
1C1
330
1B8
100
AcDbEntity
  8
DEFPOINTS
 62
     0
100
AcDbPoint
 10
451.1011061566001
 20
848.70469849011
 30
0.0
  0
POINT
  5
1C2
330
1B8
100
AcDbEntity
  8
DEFPOINTS
 62
     0
100
AcDbPoint
 10
751.1011061566
 20
846.20469849011
 30
0.0
  0
POINT
  5
1C3
330
1B8
100
AcDbEntity
  8
DEFPOINTS
 62
     0
100
AcDbPoint
 10
751.1011061566
 20
896.10469849011
 30
0.0
  0
ENDBLK
  5
1BA
330
1B8
100
AcDbEntity
  8
0
100
AcDbBlockEnd
  0
BLOCK
  5
1C6
330
1C5
100
AcDbEntity
  8
0
100
AcDbBlockBegin
  2
*D24
 70
     1
 10
0.0
 20
0.0
 30
0.0
  3
*D24
  1

  0
LINE
  5
1C8
330
1C5
100
AcDbEntity
  8
図
  6
CONTINUOUS
 62
     3
100
AcDbLine
 10
699.9868771689721
 20
799.2168875026285
 30
0.0
 11
698.9129490978656
 21
829.970163754633
 31
0.0
  0
LINE
  5
1C9
330
1C5
100
AcDbEntity
  8
図
  6
CONTINUOUS
 62
     3
100
AcDbLine
 10
725.971038671472
 20
800.1242744168885
 30
0.0
 11
724.8971106003655
 21
830.8775506688932
 31
0.0
  0
LINE
  5
1CA
330
1C5
100
AcDbEntity
  8
図
  6
CONTINUOUS
 62
     3
100
AcDbLine
 10
699.0874465813772
 20
824.9732096195374
 30
0.0
 11
725.0716080838771
 21
825.8805965337976
 31
0.0
  0
LINE
  5
1CB
330
1C5
100
AcDbEntity
  8
図
  6
CONTINUOUS
 62
     3
100
AcDbLine
 10
684.0965841760907
 20
824.4497171690027
 30
0.0
 11
669.1057217708042
 21
823.926224718468
 31
0.0
  0
LINE
  5
1CC
330
1C5
100
AcDbEntity
  8
図
  6
CONTINUOUS
 62
     3
100
AcDbLine
 10
740.0624704891636
 20
826.4040889843324
 30
0.0
 11
755.0533328944501
 21
826.9275814348671
 31
0.0
  0
INSERT
  5
1CD
330
1C5
100
AcDbEntity
  8
図
 62
     3
100
AcDbBlockReference
  2
EX_NORM
 10
699.0874465813772
 20
824.9732096195374
 30
0.0
 41
15.0
 42
15.0
 43
15.0
 50
1.999999999989113
  0
INSERT
  5
1CE
330
1C5
100
AcDbEntity
  8
図
 62
     3
100
AcDbBlockReference
  2
EX_NORM
 10
725.0716080838771
 20
825.8805965337976
 30
0.0
 41
15.0
 42
15.0
 43
15.0
 50
181.9999999999891
  0
MTEXT
  5
1CF
330
1C5
100
AcDbEntity
  8
図
 62
     2
100
AcDbMText
 10
711.6694582474156
 20
837.1697452643579
 30
0.0
 40
20.0
 41
0.0
 71
     5
 72
     1
  1
%%c26
  7
EXCADDIM2
 11
0.9993908270191023
 21
0.03489949670231108
 31
0.0
  0
POINT
  5
1D0
330
1C5
100
AcDbEntity
  8
DEFPOINTS
 62
     0
100
AcDbPoint
 10
700.10902540535
 20
795.71901966763
 30
0.0
  0
POINT
  5
1D1
330
1C5
100
AcDbEntity
  8
DEFPOINTS
 62
     0
100
AcDbPoint
 10
726.0931869078499
 20
796.62640658189
 30
0.0
  0
POINT
  5
1D2
330
1C5
100
AcDbEntity
  8
DEFPOINTS
 62
     0
100
AcDbPoint
 10
725.0716080838771
 20
825.8805965337976
 30
0.0
  0
ENDBLK
  5
1C7
330
1C5
100
AcDbEntity
  8
0
100
AcDbBlockEnd
  0
BLOCK
  5
1D5
330
1D4
100
AcDbEntity
  8
0
100
AcDbBlockBegin
  2
*D25
 70
     1
 10
0.0
 20
0.0
 30
0.0
  3
*D25
  1

  0
LINE
  5
1D7
330
1D4
100
AcDbEntity
  8
図
  6
CONTINUOUS
 62
     3
100
AcDbLine
 10
791.6011060969954
 20
393.10469849011
 30
0.0
 11
817.8511061565999
 21
393.10469849011
 31
0.0
  0
LINE
  5
1D8
330
1D4
100
AcDbEntity
  8
図
  6
CONTINUOUS
 62
     3
100
AcDbLine
 10
782.1011060969954
 20
318.10469849011
 30
0.0
 11
817.8511061565999
 21
318.10469849011
 31
0.0
  0
LINE
  5
1D9
330
1D4
100
AcDbEntity
  8
図
  6
CONTINUOUS
 62
     3
100
AcDbLine
 10
812.8511061565999
 20
378.10469849011
 30
0.0
 11
812.8511061565999
 21
333.10469849011
 31
0.0
  0
INSERT
  5
1DA
330
1D4
100
AcDbEntity
  8
図
 62
     3
100
AcDbBlockReference
  2
EX_NORM
 10
812.8511061565999
 20
393.10469849011
 30
0.0
 41
15.0
 42
15.0
 43
15.0
 50
90.0
  0
INSERT
  5
1DB
330
1D4
100
AcDbEntity
  8
図
 62
     3
100
AcDbBlockReference
  2
EX_NORM
 10
812.8511061565999
 20
318.10469849011
 30
0.0
 41
15.0
 42
15.0
 43
15.0
 50
270.0
  0
MTEXT
  5
1DC
330
1D4
100
AcDbEntity
  8
図
 62
     2
100
AcDbMText
 10
801.1011061864025
 20
355.6046984901099
 30
0.0
 40
20.0
 41
0.0
 71
     5
 72
     1
  1
75
  7
EXCADDIM2
 11
0.0
 21
1.0
 31
0.0
  0
POINT
  5
1DD
330
1D4
100
AcDbEntity
  8
DEFPOINTS
 62
     0
100
AcDbPoint
 10
788.1011061566
 20
393.10469849011
 30
0.0
  0
POINT
  5
1DE
330
1D4
100
AcDbEntity
  8
DEFPOINTS
 62
     0
100
AcDbPoint
 10
778.6011061566
 20
318.10469849011
 30
0.0
  0
POINT
  5
1DF
330
1D4
100
AcDbEntity
  8
DEFPOINTS
 62
     0
100
AcDbPoint
 10
812.8511061565999
 20
318.10469849011
 30
0.0
  0
ENDBLK
  5
1D6
330
1D4
100
AcDbEntity
  8
0
100
AcDbBlockEnd
  0
BLOCK
  5
1E2
330
1E1
100
AcDbEntity
  8
0
100
AcDbBlockBegin
  2
*D26
 70
     1
 10
0.0
 20
0.0
 30
0.0
  3
*D26
  1

  0
LINE
  5
1E4
330
1E1
100
AcDbEntity
  8
図
  6
CONTINUOUS
 62
     3
100
AcDbLine
 10
457.4011062162047
 20
363.10469849011
 30
0.0
 11
394.1999999999894
 21
363.10469849011
 31
0.0
  0
LINE
  5
1E5
330
1E1
100
AcDbEntity
  8
図
  6
CONTINUOUS
 62
     3
100
AcDbLine
 10
420.1011062162047
 20
318.10469849011
 30
0.0
 11
394.1999999999894
 21
318.10469849011
 31
0.0
  0
LINE
  5
1E6
330
1E1
100
AcDbEntity
  8
図
  6
CONTINUOUS
 62
     3
100
AcDbLine
 10
399.1999999999894
 20
348.10469849011
 30
0.0
 11
399.1999999999894
 21
333.10469849011
 31
0.0
  0
INSERT
  5
1E7
330
1E1
100
AcDbEntity
  8
図
 62
     3
100
AcDbBlockReference
  2
EX_NORM
 10
399.1999999999894
 20
363.10469849011
 30
0.0
 41
15.0
 42
15.0
 43
15.0
 50
90.0
  0
INSERT
  5
1E8
330
1E1
100
AcDbEntity
  8
図
 62
     3
100
AcDbBlockReference
  2
EX_NORM
 10
399.1999999999894
 20
318.10469849011
 30
0.0
 41
15.0
 42
15.0
 43
15.0
 50
270.0
  0
MTEXT
  5
1E9
330
1E1
100
AcDbEntity
  8
図
 62
     2
100
AcDbMText
 10
387.4500000297918
 20
340.60469849011
 30
0.0
 40
20.0
 41
0.0
 71
     5
 72
     1
  1
45
  7
EXCADDIM2
 11
0.0
 21
1.0
 31
0.0
  0
POINT
  5
1EA
330
1E1
100
AcDbEntity
  8
DEFPOINTS
 62
     0
100
AcDbPoint
 10
460.9011061566
 20
363.10469849011
 30
0.0
  0
POINT
  5
1EB
330
1E1
100
AcDbEntity
  8
DEFPOINTS
 62
     0
100
AcDbPoint
 10
423.6011061566001
 20
318.10469849011
 30
0.0
  0
POINT
  5
1EC
330
1E1
100
AcDbEntity
  8
DEFPOINTS
 62
     0
100
AcDbPoint
 10
399.1999999999894
 20
318.10469849011
 30
0.0
  0
ENDBLK
  5
1E3
330
1E1
100
AcDbEntity
  8
0
100
AcDbBlockEnd
  0
BLOCK
  5
1EF
330
1EE
100
AcDbEntity
  8
0
100
AcDbBlockBegin
  2
*D27
 70
     1
 10
0.0
 20
0.0
 30
0.0
  3
*D27
  1

  0
LINE
  5
1F1
330
1EE
100
AcDbEntity
  8
図
  6
CONTINUOUS
 62
     3
100
AcDbLine
 10
431.1011061566001
 20
314.6046985497147
 30
0.0
 11
431.1011061566001
 21
202.0
 31
0.0
  0
LINE
  5
1F2
330
1EE
100
AcDbEntity
  8
図
  6
CONTINUOUS
 62
     3
100
AcDbLine
 10
771.1011061566
 20
314.6046985497147
 30
0.0
 11
771.1011061566
 21
202.0
 31
0.0
  0
LINE
  5
1F3
330
1EE
100
AcDbEntity
  8
図
  6
CONTINUOUS
 62
     3
100
AcDbLine
 10
446.1011061566001
 20
207.0
 30
0.0
 11
756.1011061566
 21
207.0
 31
0.0
  0
INSERT
  5
1F4
330
1EE
100
AcDbEntity
  8
図
 62
     3
100
AcDbBlockReference
  2
EX_NORM
 10
431.1011061566001
 20
207.0
 30
0.0
 41
15.0
 42
15.0
 43
15.0
 50
180.0
  0
INSERT
  5
1F5
330
1EE
100
AcDbEntity
  8
図
 62
     3
100
AcDbBlockReference
  2
EX_NORM
 10
771.1011061566
 20
207.0
 30
0.0
 41
15.0
 42
15.0
 43
15.0
  0
MTEXT
  5
1F6
330
1EE
100
AcDbEntity
  8
図
 62
     2
100
AcDbMText
 10
601.1011061566
 20
218.7499999701977
 30
0.0
 40
20.0
 41
0.0
 71
     5
 72
     1
  1
340
  7
EXCADDIM2
  0
POINT
  5
1F7
330
1EE
100
AcDbEntity
  8
DEFPOINTS
 62
     0
100
AcDbPoint
 10
431.1011061566001
 20
318.10469849011
 30
0.0
  0
POINT
  5
1F8
330
1EE
100
AcDbEntity
  8
DEFPOINTS
 62
     0
100
AcDbPoint
 10
771.1011061566
 20
318.10469849011
 30
0.0
  0
POINT
  5
1F9
330
1EE
100
AcDbEntity
  8
DEFPOINTS
 62
     0
100
AcDbPoint
 10
771.1011061566
 20
207.0
 30
0.0
  0
ENDBLK
  5
1F0
330
1EE
100
AcDbEntity
  8
0
100
AcDbBlockEnd
  0
BLOCK
  5
1FC
330
1FB
100
AcDbEntity
  8
0
100
AcDbBlockBegin
  2
*D28
 70
     1
 10
0.0
 20
0.0
 30
0.0
  3
*D28
  1

  0
LINE
  5
1FE
330
1FB
100
AcDbEntity
  8
図
  6
CONTINUOUS
 62
     3
100
AcDbLine
 10
601.1011061566
 20
296.6046985497147
 30
0.0
 11
601.1011061566
 21
276.4999999999999
 31
0.0
  0
LINE
  5
1FF
330
1FB
100
AcDbEntity
  8
図
  6
CONTINUOUS
 62
     3
100
AcDbLine
 10
651.1011061566
 20
349.2046985497146
 30
0.0
 11
651.1011061566
 21
276.4999999999999
 31
0.0
  0
LINE
  5
200
330
1FB
100
AcDbEntity
  8
図
  6
CONTINUOUS
 62
     3
100
AcDbLine
 10
616.1011061566
 20
281.4999999999999
 30
0.0
 11
636.1011061566
 21
281.4999999999999
 31
0.0
  0
INSERT
  5
201
330
1FB
100
AcDbEntity
  8
図
 62
     3
100
AcDbBlockReference
  2
EX_NORM
 10
601.1011061566
 20
281.4999999999999
 30
0.0
 41
15.0
 42
15.0
 43
15.0
 50
180.0
  0
INSERT
  5
202
330
1FB
100
AcDbEntity
  8
図
 62
     3
100
AcDbBlockReference
  2
EX_NORM
 10
651.1011061566
 20
281.4999999999999
 30
0.0
 41
15.0
 42
15.0
 43
15.0
  0
MTEXT
  5
203
330
1FB
100
AcDbEntity
  8
図
 62
     2
100
AcDbMText
 10
626.1011061566
 20
293.2499999701976
 30
0.0
 40
20.0
 41
0.0
 71
     5
 72
     1
  1
50
  7
EXCADDIM2
  0
POINT
  5
204
330
1FB
100
AcDbEntity
  8
DEFPOINTS
 62
     0
100
AcDbPoint
 10
601.1011061566
 20
300.10469849011
 30
0.0
  0
POINT
  5
205
330
1FB
100
AcDbEntity
  8
DEFPOINTS
 62
     0
100
AcDbPoint
 10
651.1011061566
 20
352.70469849011
 30
0.0
  0
POINT
  5
206
330
1FB
100
AcDbEntity
  8
DEFPOINTS
 62
     0
100
AcDbPoint
 10
651.1011061566
 20
281.4999999999999
 30
0.0
  0
ENDBLK
  5
1FD
330
1FB
100
AcDbEntity
  8
0
100
AcDbBlockEnd
  0
BLOCK
  5
209
330
208
100
AcDbEntity
  8
0
100
AcDbBlockBegin
  2
*D29
 70
     1
 10
0.0
 20
0.0
 30
0.0
  3
*D29
  1

  0
LINE
  5
20B
330
208
100
AcDbEntity
  8
図
  6
CONTINUOUS
 62
     3
100
AcDbLine
 10
1320.499999940395
 20
861.10469849011
 30
0.0
 11
1363.499999999999
 21
861.10469849011
 31
0.0
  0
LINE
  5
20C
330
208
100
AcDbEntity
  8
図
  6
CONTINUOUS
 62
     3
100
AcDbLine
 10
1320.499999940395
 20
681.10469849011
 30
0.0
 11
1363.499999999999
 21
681.10469849011
 31
0.0
  0
LINE
  5
20D
330
208
100
AcDbEntity
  8
図
  6
CONTINUOUS
 62
     3
100
AcDbLine
 10
1358.5
 20
846.10469849011
 30
0.0
 11
1358.5
 21
696.10469849011
 31
0.0
  0
INSERT
  5
20E
330
208
100
AcDbEntity
  8
図
 62
     3
100
AcDbBlockReference
  2
EX_NORM
 10
1358.5
 20
861.10469849011
 30
0.0
 41
15.0
 42
15.0
 43
15.0
 50
90.0
  0
INSERT
  5
20F
330
208
100
AcDbEntity
  8
図
 62
     3
100
AcDbBlockReference
  2
EX_NORM
 10
1358.5
 20
681.10469849011
 30
0.0
 41
15.0
 42
15.0
 43
15.0
 50
270.0
  0
MTEXT
  5
210
330
208
100
AcDbEntity
  8
図
 62
     2
100
AcDbMText
 10
1346.750000029802
 20
771.10469849011
 30
0.0
 40
20.0
 41
0.0
 71
     5
 72
     1
  1
180
  7
EXCADDIM2
 11
0.0
 21
1.0
 31
0.0
  0
POINT
  5
211
330
208
100
AcDbEntity
  8
DEFPOINTS
 62
     0
100
AcDbPoint
 10
1317.0
 20
861.10469849011
 30
0.0
  0
POINT
  5
212
330
208
100
AcDbEntity
  8
DEFPOINTS
 62
     0
100
AcDbPoint
 10
1317.0
 20
681.10469849011
 30
0.0
  0
POINT
  5
213
330
208
100
AcDbEntity
  8
DEFPOINTS
 62
     0
100
AcDbPoint
 10
1358.5
 20
681.10469849011
 30
0.0
  0
ENDBLK
  5
20A
330
208
100
AcDbEntity
  8
0
100
AcDbBlockEnd
  0
BLOCK
  5
216
330
215
100
AcDbEntity
  8
0
100
AcDbBlockBegin
  2
*D30
 70
     1
 10
0.0
 20
0.0
 30
0.0
  3
*D30
  1

  0
LINE
  5
218
330
215
100
AcDbEntity
  8
図
  6
CONTINUOUS
 62
     3
100
AcDbLine
 10
1117.644748563005
 20
801.10469849011
 30
0.0
 11
1094.5
 21
801.10469849011
 31
0.0
  0
LINE
  5
219
330
215
100
AcDbEntity
  8
図
  6
CONTINUOUS
 62
     3
100
AcDbLine
 10
1143.495472633305
 20
681.12380437437
 30
0.0
 11
1094.5
 21
681.12380437437
 31
0.0
  0
LINE
  5
21A
330
215
100
AcDbEntity
  8
図
  6
CONTINUOUS
 62
     3
100
AcDbLine
 10
1099.5
 20
786.10469849011
 30
0.0
 11
1099.5
 21
696.12380437437
 31
0.0
  0
INSERT
  5
21B
330
215
100
AcDbEntity
  8
図
 62
     3
100
AcDbBlockReference
  2
EX_NORM
 10
1099.5
 20
801.10469849011
 30
0.0
 41
15.0
 42
15.0
 43
15.0
 50
90.0
  0
INSERT
  5
21C
330
215
100
AcDbEntity
  8
図
 62
     3
100
AcDbBlockReference
  2
EX_NORM
 10
1099.5
 20
681.12380437437
 30
0.0
 41
15.0
 42
15.0
 43
15.0
 50
270.0
  0
MTEXT
  5
21D
330
215
100
AcDbEntity
  8
図
 62
     2
100
AcDbMText
 10
1087.750000029802
 20
741.11425143224
 30
0.0
 40
20.0
 41
0.0
 71
     5
 72
     1
  1
120
  7
EXCADDIM2
 11
0.0
 21
1.0
 31
0.0
  0
POINT
  5
21E
330
215
100
AcDbEntity
  8
DEFPOINTS
 62
     0
100
AcDbPoint
 10
1121.1447485034
 20
801.10469849011
 30
0.0
  0
POINT
  5
21F
330
215
100
AcDbEntity
  8
DEFPOINTS
 62
     0
100
AcDbPoint
 10
1146.9954725737
 20
681.12380437437
 30
0.0
  0
POINT
  5
220
330
215
100
AcDbEntity
  8
DEFPOINTS
 62
     0
100
AcDbPoint
 10
1099.5
 20
681.12380437437
 30
0.0
  0
ENDBLK
  5
217
330
215
100
AcDbEntity
  8
0
100
AcDbBlockEnd
  0
BLOCK
  5
223
330
222
100
AcDbEntity
  8
0
100
AcDbBlockBegin
  2
*D31
 70
     1
 10
0.0
 20
0.0
 30
0.0
  3
*D31
  1

  0
LINE
  5
225
330
222
100
AcDbEntity
  8
図
  6
CONTINUOUS
 62
     3
100
AcDbLine
 10
1147.1
 20
676.6500000596046
 30
0.0
 11
1147.1
 21
636.5
 31
0.0
  0
LINE
  5
226
330
222
100
AcDbEntity
  8
図
  6
CONTINUOUS
 62
     3
100
AcDbLine
 10
1317.0
 20
677.6046985497146
 30
0.0
 11
1317.0
 21
636.5
 31
0.0
  0
LINE
  5
227
330
222
100
AcDbEntity
  8
図
  6
CONTINUOUS
 62
     3
100
AcDbLine
 10
1162.1
 20
641.5
 30
0.0
 11
1302.0
 21
641.5
 31
0.0
  0
INSERT
  5
228
330
222
100
AcDbEntity
  8
図
 62
     3
100
AcDbBlockReference
  2
EX_NORM
 10
1147.1
 20
641.5
 30
0.0
 41
15.0
 42
15.0
 43
15.0
 50
180.0
  0
INSERT
  5
229
330
222
100
AcDbEntity
  8
図
 62
     3
100
AcDbBlockReference
  2
EX_NORM
 10
1317.0
 20
641.5
 30
0.0
 41
15.0
 42
15.0
 43
15.0
  0
MTEXT
  5
22A
330
222
100
AcDbEntity
  8
図
 62
     2
100
AcDbMText
 10
1232.05
 20
653.2499999701977
 30
0.0
 40
20.0
 41
0.0
 71
     5
 72
     1
  1
170
  7
EXCADDIM2
  0
POINT
  5
22B
330
222
100
AcDbEntity
  8
DEFPOINTS
 62
     0
100
AcDbPoint
 10
1147.1
 20
680.15
 30
0.0
  0
POINT
  5
22C
330
222
100
AcDbEntity
  8
DEFPOINTS
 62
     0
100
AcDbPoint
 10
1317.0
 20
681.10469849011
 30
0.0
  0
POINT
  5
22D
330
222
100
AcDbEntity
  8
DEFPOINTS
 62
     0
100
AcDbPoint
 10
1317.0
 20
641.5
 30
0.0
  0
ENDBLK
  5
224
330
222
100
AcDbEntity
  8
0
100
AcDbBlockEnd
  0
BLOCK
  5
230
330
22F
100
AcDbEntity
  8
0
100
AcDbBlockBegin
  2
*D32
 70
     1
 10
0.0
 20
0.0
 30
0.0
  3
*D32
  1

  0
LINE
  5
232
330
22F
100
AcDbEntity
  8
図
  6
CONTINUOUS
 62
     3
100
AcDbLine
 10
1649.101106216205
 20
704.1046984901099
 30
0.0
 11
1642.6
 21
704.1046984901099
 31
0.0
  0
LINE
  5
233
330
22F
100
AcDbEntity
  8
図
  6
CONTINUOUS
 62
     3
100
AcDbLine
 10
1652.281573400105
 20
686.10469849011
 30
0.0
 11
1642.6
 21
686.10469849011
 31
0.0
  0
LINE
  5
234
330
22F
100
AcDbEntity
  8
図
  6
CONTINUOUS
 62
     3
100
AcDbLine
 10
1647.6
 20
704.1046984901099
 30
0.0
 11
1647.6
 21
686.10469849011
 31
0.0
  0
LINE
  5
235
330
22F
100
AcDbEntity
  8
図
  6
CONTINUOUS
 62
     3
100
AcDbLine
 10
1647.6
 20
719.1046984901099
 30
0.0
 11
1647.6
 21
734.1046984901099
 31
0.0
  0
LINE
  5
236
330
22F
100
AcDbEntity
  8
図
  6
CONTINUOUS
 62
     3
100
AcDbLine
 10
1647.6
 20
671.10469849011
 30
0.0
 11
1647.6
 21
656.10469849011
 31
0.0
  0
INSERT
  5
237
330
22F
100
AcDbEntity
  8
図
 62
     3
100
AcDbBlockReference
  2
EX_NORM
 10
1647.6
 20
704.1046984901099
 30
0.0
 41
15.0
 42
15.0
 43
15.0
 50
270.0
  0
INSERT
  5
238
330
22F
100
AcDbEntity
  8
図
 62
     3
100
AcDbBlockReference
  2
EX_NORM
 10
1647.6
 20
686.10469849011
 30
0.0
 41
15.0
 42
15.0
 43
15.0
 50
90.0
  0
MTEXT
  5
239
330
22F
100
AcDbEntity
  8
図
 62
     2
100
AcDbMText
 10
1635.850000029802
 20
653.6046984901096
 30
0.0
 40
20.0
 41
0.0
 71
     5
 72
     1
  1
18
  7
EXCADDIM2
 11
0.0
 21
1.0
 31
0.0
  0
POINT
  5
23A
330
22F
100
AcDbEntity
  8
DEFPOINTS
 62
     0
100
AcDbPoint
 10
1652.6011061566
 20
704.1046984901099
 30
0.0
  0
POINT
  5
23B
330
22F
100
AcDbEntity
  8
DEFPOINTS
 62
     0
100
AcDbPoint
 10
1655.7815733405
 20
686.10469849011
 30
0.0
  0
POINT
  5
23C
330
22F
100
AcDbEntity
  8
DEFPOINTS
 62
     0
100
AcDbPoint
 10
1647.6
 20
686.10469849011
 30
0.0
  0
ENDBLK
  5
231
330
22F
100
AcDbEntity
  8
0
100
AcDbBlockEnd
  0
BLOCK
  5
23F
330
23E
100
AcDbEntity
  8
0
100
AcDbBlockBegin
  2
*D33
 70
     1
 10
0.0
 20
0.0
 30
0.0
  3
*D33
  1

  0
LINE
  5
241
330
23E
100
AcDbEntity
  8
図
  6
CONTINUOUS
 62
     3
100
AcDbLine
 10
1662.1011061566
 20
698.1046984305053
 30
0.0
 11
1662.1011061566
 21
743.5
 31
0.0
  0
LINE
  5
242
330
23E
100
AcDbEntity
  8
図
  6
CONTINUOUS
 62
     3
100
AcDbLine
 10
1704.1011061566
 20
698.1046984305053
 30
0.0
 11
1704.1011061566
 21
743.5
 31
0.0
  0
LINE
  5
243
330
23E
100
AcDbEntity
  8
図
  6
CONTINUOUS
 62
     3
100
AcDbLine
 10
1677.1011061566
 20
738.5
 30
0.0
 11
1689.1011061566
 21
738.5
 31
0.0
  0
INSERT
  5
244
330
23E
100
AcDbEntity
  8
図
 62
     3
100
AcDbBlockReference
  2
EX_NORM
 10
1662.1011061566
 20
738.5
 30
0.0
 41
15.0
 42
15.0
 43
15.0
 50
180.0
  0
INSERT
  5
245
330
23E
100
AcDbEntity
  8
図
 62
     3
100
AcDbBlockReference
  2
EX_NORM
 10
1704.1011061566
 20
738.5
 30
0.0
 41
15.0
 42
15.0
 43
15.0
  0
MTEXT
  5
246
330
23E
100
AcDbEntity
  8
図
 62
     2
100
AcDbMText
 10
1683.1011061566
 20
750.2499999701977
 30
0.0
 40
20.0
 41
0.0
 71
     5
 72
     1
  1
%%c41
  7
EXCADDIM2
  0
POINT
  5
247
330
23E
100
AcDbEntity
  8
DEFPOINTS
 62
     0
100
AcDbPoint
 10
1662.1011061566
 20
694.60469849011
 30
0.0
  0
POINT
  5
248
330
23E
100
AcDbEntity
  8
DEFPOINTS
 62
     0
100
AcDbPoint
 10
1704.1011061566
 20
694.60469849011
 30
0.0
  0
POINT
  5
249
330
23E
100
AcDbEntity
  8
DEFPOINTS
 62
     0
100
AcDbPoint
 10
1704.1011061566
 20
738.5
 30
0.0
  0
ENDBLK
  5
240
330
23E
100
AcDbEntity
  8
0
100
AcDbBlockEnd
  0
BLOCK
  5
24C
330
24B
100
AcDbEntity
  8
0
100
AcDbBlockBegin
  2
*D34
 70
     1
 10
0.0
 20
0.0
 30
0.0
  3
*D34
  1

  0
LINE
  5
24E
330
24B
100
AcDbEntity
  8
図
  6
CONTINUOUS
 62
     3
100
AcDbLine
 10
1652.6011061566
 20
707.6046984305052
 30
0.0
 11
1652.6011061566
 21
772.5
 31
0.0
  0
LINE
  5
24F
330
24B
100
AcDbEntity
  8
図
  6
CONTINUOUS
 62
     3
100
AcDbLine
 10
1713.6011061566
 20
707.6046984305052
 30
0.0
 11
1713.6011061566
 21
772.5
 31
0.0
  0
LINE
  5
250
330
24B
100
AcDbEntity
  8
図
  6
CONTINUOUS
 62
     3
100
AcDbLine
 10
1667.6011061566
 20
767.5
 30
0.0
 11
1698.6011061566
 21
767.5
 31
0.0
  0
INSERT
  5
251
330
24B
100
AcDbEntity
  8
図
 62
     3
100
AcDbBlockReference
  2
EX_NORM
 10
1652.6011061566
 20
767.5
 30
0.0
 41
15.0
 42
15.0
 43
15.0
 50
180.0
  0
INSERT
  5
252
330
24B
100
AcDbEntity
  8
図
 62
     3
100
AcDbBlockReference
  2
EX_NORM
 10
1713.6011061566
 20
767.5
 30
0.0
 41
15.0
 42
15.0
 43
15.0
  0
MTEXT
  5
253
330
24B
100
AcDbEntity
  8
図
 62
     2
100
AcDbMText
 10
1683.1011061566
 20
779.2499999701977
 30
0.0
 40
20.0
 41
0.0
 71
     5
 72
     1
  1
%%c61
  7
EXCADDIM2
  0
POINT
  5
254
330
24B
100
AcDbEntity
  8
DEFPOINTS
 62
     0
100
AcDbPoint
 10
1652.6011061566
 20
704.1046984901099
 30
0.0
  0
POINT
  5
255
330
24B
100
AcDbEntity
  8
DEFPOINTS
 62
     0
100
AcDbPoint
 10
1713.6011061566
 20
704.1046984901099
 30
0.0
  0
POINT
  5
256
330
24B
100
AcDbEntity
  8
DEFPOINTS
 62
     0
100
AcDbPoint
 10
1713.6011061566
 20
767.5
 30
0.0
  0
ENDBLK
  5
24D
330
24B
100
AcDbEntity
  8
0
100
AcDbBlockEnd
  0
BLOCK
  5
259
330
258
100
AcDbEntity
  8
0
100
AcDbBlockBegin
  2
*D35
 70
     1
 10
0.0
 20
0.0
 30
0.0
  3
*D35
  1

  0
LINE
  5
25B
330
258
100
AcDbEntity
  8
図
  6
CONTINUOUS
 62
     3
100
AcDbLine
 10
1716.075979848606
 20
706.5795721821133
 30
0.0
 11
1798.954615505259
 21
789.4582078387698
 31
0.0
  0
LINE
  5
25C
330
258
100
AcDbEntity
  8
図
  6
CONTINUOUS
 62
     3
100
AcDbLine
 10
1650.126232464594
 20
706.5795721821129
 30
0.0
 11
1567.247596807938
 21
789.4582078387652
 31
0.0
  0
ARC
  5
25D
330
258
100
AcDbEntity
  8
図
  6
CONTINUOUS
 62
     3
100
AcDbCircle
 10
1683.101106156601
 20
673.6046984901069
 30
0.0
 40
158.8416041693939
100
AcDbArc
 50
50.41266477656251
 51
129.5873352234397
  0
INSERT
  5
25E
330
258
100
AcDbEntity
  8
図
 62
     3
100
AcDbBlockReference
  2
EX_NORM
 10
1795.419081599326
 20
785.922673932837
 30
0.0
 41
15.0
 42
15.0
 43
15.0
 50
317.7063323882819
  0
INSERT
  5
25F
330
258
100
AcDbEntity
  8
図
 62
     3
100
AcDbBlockReference
  2
EX_NORM
 10
1570.783130713871
 20
785.9226739328326
 30
0.0
 41
15.0
 42
15.0
 43
15.0
 50
222.2936676117204
  0
MTEXT
  5
260
330
258
100
AcDbEntity
  8
図
 62
     2
100
AcDbMText
 10
1683.101106156569
 20
844.1963026296985
 30
0.0
 40
20.0
 41
0.0
 71
     5
 72
     1
  1
90%%d
  7
EXCADDIM2
  0
POINT
  5
261
330
258
100
AcDbEntity
  8
DEFPOINTS
 62
     0
100
AcDbPoint
 10
1683.101106156601
 20
673.6046984901069
 30
0.0
  0
POINT
  5
262
330
258
100
AcDbEntity
  8
DEFPOINTS
 62
     0
100
AcDbPoint
 10
1713.6011061566
 20
704.1046984901072
 30
0.0
  0
POINT
  5
263
330
258
100
AcDbEntity
  8
DEFPOINTS
 62
     0
100
AcDbPoint
 10
1652.6011061566
 20
704.1046984901069
 30
0.0
  0
POINT
  5
264
330
258
100
AcDbEntity
  8
DEFPOINTS
 62
     0
100
AcDbPoint
 10
1724.212338470273
 20
827.0339062465106
 30
0.0
  0
ENDBLK
  5
25A
330
258
100
AcDbEntity
  8
0
100
AcDbBlockEnd
  0
BLOCK
  5
405
330
404
100
AcDbEntity
  8
0
100
AcDbBlockBegin
  2
*D36
 70
     1
 10
0.0
 20
0.0
 30
0.0
  3
*D36
  1

  0
LINE
  5
407
330
404
100
AcDbEntity
  8
図
  6
CONTINUOUS
 62
     3
100
AcDbLine
 10
423.6011061566001
 20
1293.604698430495
 30
0.0
 11
423.6011061566001
 21
1344.5
 31
0.0
  0
LINE
  5
408
330
404
100
AcDbEntity
  8
図
  6
CONTINUOUS
 62
     3
100
AcDbLine
 10
778.6011061566
 20
1293.604698430495
 30
0.0
 11
778.6011061566
 21
1344.5
 31
0.0
  0
LINE
  5
409
330
404
100
AcDbEntity
  8
図
  6
CONTINUOUS
 62
     3
100
AcDbLine
 10
438.6011061566001
 20
1339.5
 30
0.0
 11
763.6011061566
 21
1339.5
 31
0.0
  0
INSERT
  5
40A
330
404
100
AcDbEntity
  8
図
 62
     3
100
AcDbBlockReference
  2
EX_NORM
 10
423.6011061566001
 20
1339.5
 30
0.0
 41
15.0
 42
15.0
 43
15.0
 50
180.0
  0
INSERT
  5
40B
330
404
100
AcDbEntity
  8
図
 62
     3
100
AcDbBlockReference
  2
EX_NORM
 10
778.6011061566
 20
1339.5
 30
0.0
 41
15.0
 42
15.0
 43
15.0
  0
MTEXT
  5
40C
330
404
100
AcDbEntity
  8
図
 62
     2
100
AcDbMText
 10
601.1011061566
 20
1351.249999970198
 30
0.0
 40
20.0
 41
0.0
 71
     5
 72
     1
  1
355
  7
EXCADDIM2
  0
POINT
  5
40D
330
404
100
AcDbEntity
  8
DEFPOINTS
 62
     0
100
AcDbPoint
 10
423.6011061566001
 20
1290.1046984901
 30
0.0
  0
POINT
  5
40E
330
404
100
AcDbEntity
  8
DEFPOINTS
 62
     0
100
AcDbPoint
 10
778.6011061566
 20
1290.1046984901
 30
0.0
  0
POINT
  5
40F
330
404
100
AcDbEntity
  8
DEFPOINTS
 62
     0
100
AcDbPoint
 10
778.6011061566
 20
1339.5
 30
0.0
  0
ENDBLK
  5
406
330
404
100
AcDbEntity
  8
0
100
AcDbBlockEnd
  0
BLOCK
  5
412
330
411
100
AcDbEntity
  8
0
100
AcDbBlockBegin
  2
*D37
 70
     1
 10
0.0
 20
0.0
 30
0.0
  3
*D37
  1

  0
LINE
  5
414
330
411
100
AcDbEntity
  8
図
  6
CONTINUOUS
 62
     3
100
AcDbLine
 10
713.1011061566
 20
1188.604698549705
 30
0.0
 11
713.1011061566
 21
1048.0
 31
0.0
  0
LINE
  5
415
330
411
100
AcDbEntity
  8
図
  6
CONTINUOUS
 62
     3
100
AcDbLine
 10
616.1011061566
 20
1053.0
 30
0.0
 11
698.1011061566
 21
1053.0
 31
0.0
  0
INSERT
  5
416
330
411
100
AcDbEntity
  8
図
 62
     3
100
AcDbBlockReference
  2
EX_NORM
 10
601.1011061566
 20
1053.0
 30
0.0
 41
15.0
 42
15.0
 43
15.0
 50
180.0
  0
INSERT
  5
417
330
411
100
AcDbEntity
  8
図
 62
     3
100
AcDbBlockReference
  2
EX_NORM
 10
713.1011061566
 20
1053.0
 30
0.0
 41
15.0
 42
15.0
 43
15.0
  0
MTEXT
  5
418
330
411
100
AcDbEntity
  8
図
 62
     2
100
AcDbMText
 10
657.1011061565999
 20
1064.749999970198
 30
0.0
 40
20.0
 41
0.0
 71
     5
 72
     1
  1
112
  7
EXCADDIM2
  0
POINT
  5
419
330
411
100
AcDbEntity
  8
DEFPOINTS
 62
     0
100
AcDbPoint
 10
601.1011061566
 20
1053.0
 30
0.0
  0
POINT
  5
41A
330
411
100
AcDbEntity
  8
DEFPOINTS
 62
     0
100
AcDbPoint
 10
713.1011061566
 20
1192.1046984901
 30
0.0
  0
POINT
  5
41B
330
411
100
AcDbEntity
  8
DEFPOINTS
 62
     0
100
AcDbPoint
 10
713.1011061566
 20
1053.0
 30
0.0
  0
ENDBLK
  5
413
330
411
100
AcDbEntity
  8
0
100
AcDbBlockEnd
  0
ENDSEC
  0
SECTION
  2
ENTITIES
  0
ARC
  5
A6
330
1F
100
AcDbEntity
  8
0
  6
CONTINUOUS
 62
     3
100
AcDbCircle
 10
1436.134266206276
 20
73.30836444634365
 30
0.0
 40
8.83341757663532
100
AcDbArc
 50
88.77000393305703
 51
128.9068631829044
  0
ARC
  5
A7
330
1F
100
AcDbEntity
  8
0
  6
CONTINUOUS
 62
     3
100
AcDbCircle
 10
1436.535313630139
 20
77.00958129866514
 30
0.0
 40
5.134520375572949
100
AcDbArc
 50
4.148222840814693
 51
92.36000944257292
  0
ARC
  5
A8
330
1F
100
AcDbEntity
  8
0
  6
CONTINUOUS
 62
     3
100
AcDbCircle
 10
1668.325067919355
 20
70.46619219658591
 30
0.0
 40
226.7741327932831
100
AcDbArc
 50
178.2526643324597
 51
180.6439560401927
  0
ARC
  5
A9
330
1F
100
AcDbEntity
  8
0
  6
CONTINUOUS
 62
     3
100
AcDbCircle
 10
1443.091199472301
 20
67.9151464390232
 30
0.0
 40
1.525943415536945
100
AcDbArc
 50
179.9117548191414
 51
236.1065985968857
  0
ARC
  5
AA
330
1F
100
AcDbEntity
  8
0
  6
CONTINUOUS
 62
     3
100
AcDbCircle
 10
1442.912103922898
 20
68.00305943705392
 30
0.0
 40
1.5120242956824
100
AcDbArc
 50
243.6191685566582
 51
297.5097757939563
  0
LINE
  5
AB
330
1F
100
AcDbEntity
  8
0
  6
CONTINUOUS
 62
     3
100
AcDbLine
 10
1443.610507866625
 20
65.87562164876971
 30
0.0
 11
1443.610507866625
 21
66.66199664876972
 31
0.0
  0
LINE
  5
AC
330
1F
100
AcDbEntity
  8
0
  6
CONTINUOUS
 62
     3
100
AcDbLine
 10
1440.954382866625
 20
65.5482466487697
 30
0.0
 11
1442.041132866625
 21
65.5482466487697
 31
0.0
  0
ARC
  5
AD
330
1F
100
AcDbEntity
  8
0
  6
CONTINUOUS
 62
     3
100
AcDbCircle
 10
1441.94979459728
 20
69.8232256411509
 30
0.0
 40
4.28270310010447
100
AcDbArc
 50
271.2220539293239
 51
292.8159509797653
  0
ARC
  5
AE
330
1F
100
AcDbEntity
  8
0
  6
CONTINUOUS
 62
     3
100
AcDbCircle
 10
1441.146886754073
 20
67.668372826431
 30
0.0
 40
2.12884775310199
100
AcDbArc
 50
217.4081478714985
 51
264.8118660441384
  0
ARC
  5
AF
330
1F
100
AcDbEntity
  8
0
  6
CONTINUOUS
 62
     3
100
AcDbCircle
 10
1441.415778027916
 20
67.82462971328589
 30
0.0
 40
2.43767567004861
100
AcDbArc
 50
187.1167640402297
 51
216.4860549324747
  0
ARC
  5
B0
330
1F
100
AcDbEntity
  8
0
  6
CONTINUOUS
 62
     3
100
AcDbCircle
 10
1433.83065229335
 20
71.97670131284067
 30
0.0
 40
6.821199600519659
100
AcDbArc
 50
275.2158792069686
 51
319.2336424873511
  0
LINE
  5
B1
330
1F
100
AcDbEntity
  8
0
  6
CONTINUOUS
 62
     3
100
AcDbLine
 10
1433.080507866625
 20
65.18374664876976
 30
0.0
 11
1434.450757866625
 21
65.18374664876976
 31
0.0
  0
ARC
  5
B2
330
1F
100
AcDbEntity
  8
0
  6
CONTINUOUS
 62
     3
100
AcDbCircle
 10
1433.146406536838
 20
68.34817471936984
 30
0.0
 40
3.16511416045893
100
AcDbArc
 50
252.3384873625213
 51
268.8069976857606
  0
ARC
  5
B3
330
1F
100
AcDbEntity
  8
0
  6
CONTINUOUS
 62
     3
100
AcDbCircle
 10
1433.228147651844
 20
69.40555523862922
 30
0.0
 40
4.204478288781829
100
AcDbArc
 50
224.289750990011
 51
255.6505938786759
  0
ARC
  5
B4
330
1F
100
AcDbEntity
  8
0
  6
CONTINUOUS
 62
     3
100
AcDbCircle
 10
1433.045766645775
 20
69.20075107864244
 30
0.0
 40
3.93096173563145
100
AcDbArc
 50
185.9586126338419
 51
224.0091989319859
  0
ARC
  5
B5
330
1F
100
AcDbEntity
  8
0
  6
CONTINUOUS
 62
     3
100
AcDbCircle
 10
1433.4537509285
 20
69.38793562738668
 30
0.0
 40
4.358546862943345
100
AcDbArc
 50
164.8589457925044
 51
187.8495628504518
  0
ARC
  5
B6
330
1F
100
AcDbEntity
  8
0
  6
CONTINUOUS
 62
     3
100
AcDbCircle
 10
1432.698618951507
 20
69.81831662503947
 30
0.0
 40
3.52397685278961
100
AcDbArc
 50
129.8344892359069
 51
168.4089447024628
  0
ARC
  5
B7
330
1F
100
AcDbEntity
  8
0
  6
CONTINUOUS
 62
     3
100
AcDbCircle
 10
1434.548506933789
 20
67.4804240741429
 30
0.0
 40
6.504683084924599
100
AcDbArc
 50
102.0988446293839
 51
129.1556705448828
  0
ARC
  5
B8
330
1F
100
AcDbEntity
  8
0
  6
CONTINUOUS
 62
     3
100
AcDbCircle
 10
1423.426504999289
 20
136.5601014887599
 30
0.0
 40
63.47412046851909
100
AcDbArc
 50
278.8438342053764
 51
282.6649181367123
  0
ARC
  5
B9
330
1F
100
AcDbEntity
  8
0
  6
CONTINUOUS
 62
     3
100
AcDbCircle
 10
1436.171652505545
 20
79.8203681344368
 30
0.0
 40
5.32056667636392
100
AcDbArc
 50
282.7195832898965
 51
295.6781112778079
  0
ARC
  5
BA
330
1F
100
AcDbEntity
  8
0
  6
CONTINUOUS
 62
     3
100
AcDbCircle
 10
1438.161547783667
 20
75.8255666252138
 30
0.0
 40
0.860294141140655
100
AcDbArc
 50
291.5204897073511
 51
349.3445900274031
  0
ARC
  5
BB
330
1F
100
AcDbEntity
  8
0
  6
CONTINUOUS
 62
     3
100
AcDbCircle
 10
1432.502693678328
 20
76.46149351875565
 30
0.0
 40
6.552718755094605
100
AcDbArc
 50
353.0315250986587
 51
7.839947970678348
  0
ARC
  5
BC
330
1F
100
AcDbEntity
  8
0
  6
CONTINUOUS
 62
     3
100
AcDbCircle
 10
1435.464170640884
 20
77.13709430767041
 30
0.0
 40
3.53673269313001
100
AcDbArc
 50
3.537639967999379
 51
74.8013566619203
  0
ARC
  5
BD
330
1F
100
AcDbEntity
  8
0
  6
CONTINUOUS
 62
     3
100
AcDbCircle
 10
1435.239954789915
 20
75.4691915256504
 30
0.0
 40
5.209763673321151
100
AcDbArc
 50
77.23143261361693
 51
105.203415964315
  0
ARC
  5
BE
330
1F
100
AcDbEntity
  8
0
  6
CONTINUOUS
 62
     3
100
AcDbCircle
 10
1434.912680885149
 20
76.14450959289361
 30
0.0
 40
4.474405525883595
100
AcDbArc
 50
103.4267945469744
 51
150.3242613737993
  0
LINE
  5
BF
330
1F
100
AcDbEntity
  8
0
  6
CONTINUOUS
 62
     3
100
AcDbLine
 10
1430.586382866625
 20
80.18224664876975
 30
0.0
 11
1430.586382866625
 21
78.35974664876974
 31
0.0
  0
ARC
  5
C0
330
1F
100
AcDbEntity
  8
0
  6
CONTINUOUS
 62
     3
100
AcDbCircle
 10
1383.071978261353
 20
67.86713809613887
 30
0.0
 40
34.83507524900299
100
AcDbArc
 50
353.1274757312911
 51
357.106204490141
  0
ARC
  5
C1
330
1F
100
AcDbEntity
  8
0
  6
CONTINUOUS
 62
     3
100
AcDbCircle
 10
1170.669276061466
 20
79.75986679194133
 30
0.0
 40
247.5700215199504
100
AcDbArc
 50
356.8390243485978
 51
2.971133813187157
  0
ARC
  5
C2
330
1F
100
AcDbEntity
  8
0
  6
CONTINUOUS
 62
     3
100
AcDbCircle
 10
1414.046369324801
 20
64.67037592364515
 30
0.0
 40
3.738845927653165
100
AcDbArc
 50
314.592391474832
 51
344.9374073189123
  0
ARC
  5
C3
330
1F
100
AcDbEntity
  8
0
  6
CONTINUOUS
 62
     3
100
AcDbCircle
 10
1412.917364484272
 20
66.83799297229893
 30
0.0
 40
6.117335001950124
100
AcDbArc
 50
288.1715191042997
 51
307.8537826235693
  0
LINE
  5
C4
330
1F
100
AcDbEntity
  8
0
  6
CONTINUOUS
 62
     3
100
AcDbLine
 10
1415.442757866625
 20
59.14587164876973
 30
0.0
 11
1414.825132866625
 21
61.02574664876973
 31
0.0
  0
ARC
  5
C5
330
1F
100
AcDbEntity
  8
0
  6
CONTINUOUS
 62
     3
100
AcDbCircle
 10
1414.047787493333
 20
70.36115764576881
 30
0.0
 40
11.30170705410681
100
AcDbArc
 50
277.0901027239701
 51
290.9134154817058
  0
ARC
  5
C6
330
1F
100
AcDbEntity
  8
0
  6
CONTINUOUS
 62
     3
100
AcDbCircle
 10
1415.694866394274
 20
67.96917593134104
 30
0.0
 40
8.506973440980575
100
AcDbArc
 50
286.2966123578915
 51
329.973223283839
  0
ARC
  5
C7
330
1F
100
AcDbEntity
  8
0
  6
CONTINUOUS
 62
     3
100
AcDbCircle
 10
1412.744968089531
 20
68.48156784400416
 30
0.0
 40
11.36437631557155
100
AcDbArc
 50
335.1860595856123
 51
1.308075913059364
  0
ARC
  5
C8
330
1F
100
AcDbEntity
  8
0
  6
CONTINUOUS
 62
     3
100
AcDbCircle
 10
1748.771265706717
 20
77.14801804754174
 30
0.0
 40
324.7737122341802
100
AcDbArc
 50
177.2695926307304
 51
181.4833117237826
  0
ARC
  5
C9
330
1F
100
AcDbEntity
  8
0
  6
CONTINUOUS
 62
     3
100
AcDbCircle
 10
1421.045410006113
 20
114.3708785261106
 30
0.0
 40
22.00379416745233
100
AcDbArc
 50
261.7986203004403
 51
278.6803384946418
  0
ARC
  5
CA
330
1F
100
AcDbEntity
  8
0
  6
CONTINUOUS
 62
     3
100
AcDbCircle
 10
1433.302804967686
 20
93.87506905802479
 30
0.0
 40
20.68203407347008
100
AcDbArc
 50
278.4088456599976
 51
286.1851416003176
  0
ARC
  5
CB
330
1F
100
AcDbEntity
  8
0
  6
CONTINUOUS
 62
     3
100
AcDbCircle
 10
1437.783032587885
 20
63.91594313339834
 30
0.0
 40
9.610328930776038
100
AcDbArc
 50
98.71271710191789
 51
115.2874718053599
  0
ARC
  5
CC
330
1F
100
AcDbEntity
  8
0
  6
CONTINUOUS
 62
     3
100
AcDbCircle
 10
1435.035093341892
 20
69.79037395235851
 30
0.0
 40
3.125097167285265
100
AcDbArc
 50
115.7403688633493
 51
172.5491744442191
  0
LINE
  5
CD
330
1F
100
AcDbEntity
  8
0
  6
CONTINUOUS
 62
     3
100
AcDbLine
 10
1431.936382866625
 20
70.19562164876974
 30
0.0
 11
1431.936382866625
 21
69.21687164876973
 31
0.0
  0
ARC
  5
CE
330
1F
100
AcDbEntity
  8
0
  6
CONTINUOUS
 62
     3
100
AcDbCircle
 10
1434.847982674437
 20
69.37306900488858
 30
0.0
 40
2.915786524234985
100
AcDbArc
 50
183.0707787095794
 51
263.4402016072427
  0
LINE
  5
CF
330
1F
100
AcDbEntity
  8
0
  6
CONTINUOUS
 62
     3
100
AcDbLine
 10
1434.514882866625
 20
66.47637164876976
 30
0.0
 11
1435.382257866625
 21
66.47637164876976
 31
0.0
  0
ARC
  5
D0
330
1F
100
AcDbEntity
  8
0
  6
CONTINUOUS
 62
     3
100
AcDbCircle
 10
1434.662234538296
 20
71.39182447650984
 30
0.0
 40
4.967908019989579
100
AcDbArc
 50
278.3335103000368
 51
329.1221464187299
  0
ARC
  5
D1
330
1F
100
AcDbEntity
  8
0
  6
CONTINUOUS
 62
     3
100
AcDbCircle
 10
-10205.50771108868
 20
390.6632622793909
 30
0.0
 40
11648.88000630296
100
AcDbArc
 50
358.4169008257799
 51
358.4423418242109
  0
ARC
  5
D2
330
1F
100
AcDbEntity
  8
0
  6
CONTINUOUS
 62
     3
100
AcDbCircle
 10
1448.790439003466
 20
45.75346272558489
 30
0.0
 40
19.84454547209248
100
AcDbArc
 50
85.07099551674689
 51
93.91830029343228
  0
ARC
  5
D3
330
1F
100
AcDbEntity
  8
0
  6
CONTINUOUS
 62
     3
100
AcDbCircle
 10
1487.204428947552
 20
69.95750735049003
 30
0.0
 40
36.97560496557463
100
AcDbArc
 50
179.8977458165987
 51
186.8855675734268
  0
ARC
  5
D4
330
1F
100
AcDbEntity
  8
0
  6
CONTINUOUS
 62
     3
100
AcDbCircle
 10
1455.78308611832
 20
75.53976125690231
 30
0.0
 40
5.541994781590654
100
AcDbArc
 50
134.9787476233347
 51
181.2369872983282
  0
ARC
  5
D5
330
1F
100
AcDbEntity
  8
0
  6
CONTINUOUS
 62
     3
100
AcDbCircle
 10
1454.505007260276
 20
76.11831365693392
 30
0.0
 40
4.258225285235015
100
AcDbArc
 50
42.91644474042847
 51
128.3015542351336
  0
ARC
  5
D6
330
1F
100
AcDbEntity
  8
0
  6
CONTINUOUS
 62
     3
100
AcDbCircle
 10
1452.972370228426
 20
76.01575694107703
 30
0.0
 40
5.53586253872077
100
AcDbArc
 50
359.2495022237244
 51
32.84055016678327
  0
ARC
  5
D7
330
1F
100
AcDbEntity
  8
0
  6
CONTINUOUS
 62
     3
100
AcDbCircle
 10
1376.058668932487
 20
71.88756689412254
 30
0.0
 40
82.5487783334294
100
AcDbArc
 50
355.5862454873798
 51
2.816115806820253
  0
ARC
  5
D8
330
1F
100
AcDbEntity
  8
0
  6
CONTINUOUS
 62
     3
100
AcDbCircle
 10
1459.788570366625
 20
49.80076309613833
 30
0.0
 40
15.79846626063372
100
AcDbArc
 50
84.82155189294139
 51
95.17844810705873
  0
ARC
  5
D9
330
1F
100
AcDbEntity
  8
0
  6
CONTINUOUS
 62
     3
100
AcDbCircle
 10
1542.828816830849
 20
69.45336873695611
 30
0.0
 40
81.70832899269108
100
AcDbArc
 50
176.2131780319488
 51
182.7488833337936
  0
ARC
  5
DA
330
1F
100
AcDbEntity
  8
0
  6
CONTINUOUS
 62
     3
100
AcDbCircle
 10
1430.595680060503
 20
75.66578874060647
 30
0.0
 40
30.71404543933479
100
AcDbArc
 50
358.4775281223095
 51
2.117232414210064
  0
ARC
  5
DB
330
1F
100
AcDbEntity
  8
0
  6
CONTINUOUS
 62
     3
100
AcDbCircle
 10
1455.395275767241
 20
76.81429712257562
 30
0.0
 40
5.89349825730295
100
AcDbArc
 50
359.8658335690532
 51
34.49363429411157
  0
ARC
  5
DC
330
1F
100
AcDbEntity
  8
0
  6
CONTINUOUS
 62
     3
100
AcDbCircle
 10
1456.386202870688
 20
77.46023323989911
 30
0.0
 40
4.7110718777777
100
AcDbArc
 50
34.84393737091607
 51
92.5207065423111
  0
ARC
  5
DD
330
1F
100
AcDbEntity
  8
0
  6
CONTINUOUS
 62
     3
100
AcDbCircle
 10
1455.877053450128
 20
75.46379944092952
 30
0.0
 40
6.709744983286299
100
AcDbArc
 50
87.42068310381028
 51
147.4361518966862
  0
ARC
  5
DE
330
1F
100
AcDbEntity
  8
0
  6
CONTINUOUS
 62
     3
100
AcDbCircle
 10
1469.028736369808
 20
79.53928406915205
 30
0.0
 40
18.8123275022909
100
AcDbArc
 50
172.9875214416311
 51
181.4134392789641
  0
ARC
  5
DF
330
1F
100
AcDbEntity
  8
0
  6
CONTINUOUS
 62
     3
100
AcDbCircle
 10
1448.854142493062
 20
87.61034399072369
 30
0.0
 40
5.966746792730079
100
AcDbArc
 50
255.9341994177206
 51
284.5896440601899
  0
ARC
  5
E0
330
1F
100
AcDbEntity
  8
0
  6
CONTINUOUS
 62
     3
100
AcDbCircle
 10
1345.55884943358
 20
73.49690293358674
 30
0.0
 40
102.1848903065536
100
AcDbArc
 50
355.5405243117485
 51
4.673398698656258
  0
LINE
  5
E1
330
1F
100
AcDbEntity
  8
0
  6
CONTINUOUS
 62
     3
100
AcDbLine
 10
1450.242382866625
 20
75.42012164876974
 30
0.0
 11
1450.242382866625
 21
70.02349664876971
 31
0.0
  0
CIRCLE
  5
E2
330
1F
100
AcDbEntity
  8
0
  6
CONTINUOUS
 62
     3
100
AcDbCircle
 10
1468.642757019168
 20
87.79177334368498
 30
0.0
 40
1.786167233384945
  0
ARC
  5
E3
330
1F
100
AcDbEntity
  8
0
  6
CONTINUOUS
 62
     3
100
AcDbCircle
 10
1468.572803801386
 20
88.2666237179033
 30
0.0
 40
6.596142744201035
100
AcDbArc
 50
256.6209501743446
 51
283.9984576255729
  0
ARC
  5
E4
330
1F
100
AcDbEntity
  8
0
  6
CONTINUOUS
 62
     3
100
AcDbCircle
 10
1468.707204468566
 20
32.899020920616
 30
0.0
 40
32.66429742625544
100
AcDbArc
 50
87.46575055044718
 51
92.90832285102188
  0
ARC
  5
E5
330
1F
100
AcDbEntity
  8
0
  6
CONTINUOUS
 62
     3
100
AcDbCircle
 10
1571.627023589778
 20
73.59405028696888
 30
0.0
 40
101.79531952945
100
AcDbArc
 50
175.3387608397566
 51
184.5428594926176
  0
ARC
  5
E6
330
1F
100
AcDbEntity
  8
0
  6
CONTINUOUS
 62
     3
100
AcDbCircle
 10
1356.345028768193
 20
73.66248963831127
 30
0.0
 40
111.0038042517906
100
AcDbArc
 50
355.7940354718673
 51
4.229650257234378
  0
ARC
  5
E7
330
1F
100
AcDbEntity
  8
0
  6
CONTINUOUS
 62
     3
100
AcDbCircle
 10
1641.322226616407
 20
487.0148716482096
 30
0.0
 40
435.1400114481578
100
AcDbArc
 50
248.6422112053103
 51
248.8567777804232
  0
ARC
  5
E8
330
1F
100
AcDbEntity
  8
0
  6
CONTINUOUS
 62
     3
100
AcDbCircle
 10
1480.927141423028
 20
77.08315191819707
 30
0.0
 40
5.054539337960785
100
AcDbArc
 50
67.66151957087348
 51
88.69073168448988
  0
ARC
  5
E9
330
1F
100
AcDbEntity
  8
0
  6
CONTINUOUS
 62
     3
100
AcDbCircle
 10
1480.385552214195
 20
75.54895489687988
 30
0.0
 40
6.599874326837624
100
AcDbArc
 50
92.38301574576484
 51
114.9635286746436
  0
ARC
  5
EA
330
1F
100
AcDbEntity
  8
0
  6
CONTINUOUS
 62
     3
100
AcDbCircle
 10
1479.89817483998
 20
77.10046455509273
 30
0.0
 40
4.99216280154595
100
AcDbArc
 50
117.4083995939977
 51
176.1964688215695
  0
ARC
  5
EB
330
1F
100
AcDbEntity
  8
0
  6
CONTINUOUS
 62
     3
100
AcDbCircle
 10
1478.2799628963
 20
76.6096384537758
 30
0.0
 40
3.346863029528055
100
AcDbArc
 50
181.2393899443581
 51
226.5942921332421
  0
ARC
  5
EC
330
1F
100
AcDbEntity
  8
0
  6
CONTINUOUS
 62
     3
100
AcDbCircle
 10
1480.263407289975
 20
78.61982055033363
 30
0.0
 40
6.170504753897835
100
AcDbArc
 50
226.0402388947521
 51
253.1776672992999
  0
ARC
  5
ED
330
1F
100
AcDbEntity
  8
0
  6
CONTINUOUS
 62
     3
100
AcDbCircle
 10
1475.085744591521
 20
58.47285708775982
 30
0.0
 40
14.63889206986377
100
AcDbArc
 50
63.49050203733571
 51
76.60259219849584
  0
ARC
  5
EE
330
1F
100
AcDbEntity
  8
0
  6
CONTINUOUS
 62
     3
100
AcDbCircle
 10
1480.654002292683
 20
69.49231127165768
 30
0.0
 40
2.29355076109507
100
AcDbArc
 50
6.53892419415897
 51
65.09756080693691
  0
ARC
  5
EF
330
1F
100
AcDbEntity
  8
0
  6
CONTINUOUS
 62
     3
100
AcDbCircle
 10
1480.017888872325
 20
69.35011818785765
 30
0.0
 40
2.97197745938338
100
AcDbArc
 50
270.8867385422408
 51
352.7925382056677
  0
ARC
  5
F0
330
1F
100
AcDbEntity
  8
0
  6
CONTINUOUS
 62
     3
100
AcDbCircle
 10
1479.818052161743
 20
70.83293198886844
 30
0.0
 40
4.490020177312635
100
AcDbArc
 50
207.7689879465537
 51
262.7817283832026
  0
ARC
  5
F1
330
1F
100
AcDbEntity
  8
0
  6
CONTINUOUS
 62
     3
100
AcDbCircle
 10
1478.896502729638
 20
73.90782884055074
 30
0.0
 40
8.766381578900099
100
AcDbArc
 50
241.8829576087176
 51
265.9354096935781
  0
ARC
  5
F2
330
1F
100
AcDbEntity
  8
0
  6
CONTINUOUS
 62
     3
100
AcDbCircle
 10
1479.733194323378
 20
70.83462335590174
 30
0.0
 40
5.672575290903224
100
AcDbArc
 50
271.2948770866743
 51
348.6654156292868
  0
ARC
  5
F3
330
1F
100
AcDbEntity
  8
0
  6
CONTINUOUS
 62
     3
100
AcDbCircle
 10
1481.602286064597
 20
70.7608629265782
 30
0.0
 40
3.73122537864803
100
AcDbArc
 50
6.154262763177246
 51
76.17509904255616
  0
ARC
  5
F4
330
1F
100
AcDbEntity
  8
0
  6
CONTINUOUS
 62
     3
100
AcDbCircle
 10
1488.769233484603
 20
100.4679655251749
 30
0.0
 40
26.8282212925834
100
AcDbArc
 50
249.6420733479936
 51
256.4727051201885
  0
ARC
  5
F5
330
1F
100
AcDbEntity
  8
0
  6
CONTINUOUS
 62
     3
100
AcDbCircle
 10
1480.536067619372
 20
78.6569320883301
 30
0.0
 40
3.51781853668592
100
AcDbArc
 50
210.9501336849607
 51
251.7794729821079
  0
ARC
  5
F6
330
1F
100
AcDbEntity
  8
0
  6
CONTINUOUS
 62
     3
100
AcDbCircle
 10
1484.151570366631
 20
79.1911591487716
 30
0.0
 40
7.034259686467
100
AcDbArc
 50
193.4375782160214
 51
199.459638038058
  0
ARC
  5
F7
330
1F
100
AcDbEntity
  8
0
  6
CONTINUOUS
 62
     3
100
AcDbCircle
 10
1480.017548243026
 20
78.13374973539538
 30
0.0
 40
2.678069655519655
100
AcDbArc
 50
92.11404364449162
 51
173.4175047026091
  0
ARC
  5
F8
330
1F
100
AcDbEntity
  8
0
  6
CONTINUOUS
 62
     3
100
AcDbCircle
 10
1480.207366956375
 20
77.77146181458278
 30
0.0
 40
3.062932150511265
100
AcDbArc
 50
17.92452211681263
 51
85.16543319077402
  0
LINE
  5
F9
330
1F
100
AcDbEntity
  8
0
  6
CONTINUOUS
 62
     3
100
AcDbLine
 10
1481.042632866625
 20
82.13637164876971
 30
0.0
 11
1480.111132866625
 21
82.13637164876971
 31
0.0
  0
LINE
  5
FA
330
1F
100
AcDbEntity
  8
0
  6
CONTINUOUS
 62
     3
100
AcDbLine
 10
1479.253882866625
 20
66.3784966487697
 30
0.0
 11
1480.063882866625
 21
66.3784966487697
 31
0.0
  0
LINE
  5
FB
330
1F
100
AcDbEntity
  8
0
  6
CONTINUOUS
 62
     3
100
AcDbLine
 10
1475.845132866625
 20
68.74099664876974
 30
0.0
 11
1475.406382866625
 21
68.74099664876974
 31
0.0
  0
LINE
  5
FC
330
1F
100
AcDbEntity
  8
0
  6
CONTINUOUS
 62
     3
100
AcDbLine
 10
1478.275132866625
 20
65.16349664876972
 30
0.0
 11
1479.861382866625
 21
65.16349664876972
 31
0.0
  0
HATCH
  5
FD
330
1F
100
AcDbEntity
  8
0
  6
CONTINUOUS
 62
     3
100
AcDbHatch
 10
0.0
 20
0.0
 30
0.0
210
0.0
220
0.0
230
1.0
  2
SOLID
 70
     1
 71
     1
 91
        1
 92
        3
 72
     1
 73
     1
 93
       10
 10
1417.862632866625
 20
66.10849664876974
 42
-0.017362223501556
 10
1417.906507866625
 20
92.5921216487698
 42
-0.0267627618865285
 10
1417.906507866625
 20
92.59212164876976
 42
0.0737939047395297
 10
1424.366257866625
 20
92.61912164876946
 42
0.0183878899657109
 10
1424.106382866625
 20
68.74099664876972
 42
-0.1144749489451909
 10
1423.060132866625
 20
63.71224664876976
 42
-0.1929163439413163
 10
1418.082007866625
 20
59.80399664876974
 42
-0.0603888289562337
 10
1415.442757866625
 20
59.14587164876973
 42
0.0
 10
1414.825132866625
 20
61.02574664876971
 42
0.0860918333465722
 10
1416.671257866625
 20
62.00787164876972
 42
0.1331843103855141
 97
        0
 75
     0
 76
     1
 98
        1
 10
0.0
 20
0.0
  0
HATCH
  5
FE
330
1F
100
AcDbEntity
  8
0
  6
CONTINUOUS
 62
     3
100
AcDbHatch
 10
0.0
 20
0.0
 30
0.0
210
0.0
220
0.0
230
1.0
  2
SOLID
 70
     1
 71
     1
 91
        1
 92
        3
 72
     1
 73
     1
 93
       16
 10
1447.434382866625
 20
65.55162164876972
 42
-0.0386228372648426
 10
1447.404007866625
 20
81.82249664876976
 42
-0.0398707891902887
 10
1450.357132866625
 20
81.83599664876972
 42
-0.1256886216044368
 10
1450.222132866625
 20
79.07524664876976
 42
-0.0367815758121429
 10
1450.222132866625
 20
79.07524664876975
 42
-0.268021535028829
 10
1456.179007866625
 20
82.16674664876976
 42
-0.2571134422124888
 10
1460.252632866625
 20
80.15187164876977
 42
-0.1522526366014298
 10
1461.288757866625
 20
76.80049664876972
 42
-0.0158825412051521
 10
1461.214507866625
 20
65.5347466487698
 42
-0.0285251271418421
 10
1458.362632866625
 20
65.53474664876974
 42
-0.0452212723224612
 10
1458.507757866625
 20
75.94324664876974
 42
-0.0315567291532142
 10
1457.623507866625
 20
79.0178716487697
 42
-0.1476272403790709
 10
1451.865757866625
 20
79.45999664876975
 42
-0.3908144705745794
 10
1450.242382866625
 20
75.42012164876974
 42
-0.2046259928850854
 10
1450.242382866625
 20
75.42012164876974
 42
0.0
 10
1450.495507866625
 20
65.52462164876974
 42
-0.0304995761723369
 97
        0
 75
     0
 76
     1
 98
        1
 10
0.0
 20
0.0
  0
HATCH
  5
FF
330
1F
100
AcDbEntity
  8
0
  6
CONTINUOUS
 62
     3
100
AcDbHatch
 10
0.0
 20
0.0
 30
0.0
210
0.0
220
0.0
230
1.0
  2
SOLID
 70
     1
 71
     1
 91
        2
 92
        1
 93
        1
 72
     2
 10
1468.642757019168
 20
87.79177334368498
 40
1.786167233384942
 50
0.0
 51
360.0
 73
     1
 97
        0
 92
        3
 72
     1
 73
     1
 93
        3
 10
1467.046507866625
 20
81.84949664876974
 42
0.1200283885712921
 10
1470.151507866625
 20
65.53137164876966
 42
-0.0401820615762149
 10
1467.049882866625
 20
65.52124664876973
 42
-0.0237521668114666
 97
        0
 75
     0
 76
     1
 98
        1
 10
0.0
 20
0.0
  0
LINE
  5
100
330
1F
100
AcDbEntity
  8
0
  6
CONTINUOUS
 62
     3
100
AcDbLine
 10
1430.586382866625
 20
78.35974664876974
 30
0.0
 11
1431.025132866625
 21
78.35974664876974
 31
0.0
  0
ARC
  5
101
330
1F
100
AcDbEntity
  8
0
  6
CONTINUOUS
 62
     3
100
AcDbCircle
 10
1469.767206566047
 20
68.78898797824948
 30
0.0
 40
5.63976870039419
100
AcDbArc
 50
332.3987521421788
 51
359.5124385477116
  0
LINE
  5
102
330
1F
100
AcDbEntity
  8
0
  6
CONTINUOUS
 62
     3
100
AcDbLine
 10
1482.932632866625
 20
69.7534966487697
 30
0.0
 11
1482.966382866625
 21
68.97724664876971
 31
0.0
  0
LINE
  5
103
330
1F
100
AcDbEntity
  8
0
  6
CONTINUOUS
 62
     3
100
AcDbLine
 10
1485.312007866625
 20
71.16087164876974
 30
0.0
 11
1485.295132866625
 21
69.71974664876974
 31
0.0
  0
LINE
  5
104
330
1F
100
AcDbEntity
  8
0
  6
CONTINUOUS
 62
     3
100
AcDbLine
 10
1477.357132866625
 20
78.44074664876975
 30
0.0
 11
1477.309882866625
 21
77.55649664876974
 31
0.0
  0
LINE
  5
105
330
1F
100
AcDbEntity
  8
0
  6
CONTINUOUS
 62
     3
100
AcDbLine
 10
1474.917007866625
 20
77.43162164876975
 30
0.0
 11
1474.933882866625
 21
76.53724664878074
 31
0.0
  0
LINE
  5
106
330
1F
100
AcDbEntity
  8
0
  6
CONTINUOUS
 62
     3
100
AcDbLine
 10
1479.918757866625
 20
80.80999664876974
 30
0.0
 11
1480.465507866625
 21
80.82349664876975
 31
0.0
  0
LINE
  5
107
330
1F
100
AcDbEntity
  8
0
  6
CONTINUOUS
 62
     3
100
AcDbLine
 10
1483.121632866625
 20
78.71412164876973
 30
0.0
 11
1483.548546743365
 21
78.71412164876973
 31
0.0
  0
ARC
  5
108
330
1F
100
AcDbEntity
  8
0
  6
CONTINUOUS
 62
     3
100
AcDbCircle
 10
1492.921240534435
 20
76.95097187537415
 30
0.0
 40
9.537090018689154
100
AcDbArc
 50
153.7591918158497
 51
169.3462759801917
  0
HATCH
  5
109
330
1F
100
AcDbEntity
  8
0
  6
CONTINUOUS
 62
     3
100
AcDbHatch
 10
0.0
 20
0.0
 30
0.0
210
0.0
220
0.0
230
1.0
  2
SOLID
 70
     1
 71
     1
 91
        1
 92
        3
 72
     1
 73
     1
 93
       30
 10
1484.367007866624
 20
81.16774664877005
 42
-0.0009362235736497
 10
1484.367007866625
 20
81.1677466487697
 42
0.0681165430304653
 10
1483.548546743365
 20
78.71412164876973
 42
0.0
 10
1480.465507866625
 20
80.82349664876976
 42
-0.302112590907374
 10
1480.465507866625
 20
80.82349664876975
 42
0.0
 10
1477.357132866625
 20
78.4407466487697
 42
-0.3704245237568778
 10
1477.357132866625
 20
78.44074664876975
 42
0.0
 10
1477.519132866625
 20
76.84774664876976
 42
-0.0262822419456939
 10
1479.436132866625
 20
75.31549664876972
 42
-0.180060563604375
 10
1482.493882866625
 20
74.38399664876971
 42
-0.0298130817160724
 10
1482.493882866625
 20
74.38399664876974
 42
-0.3153987453686078
 10
1485.312007866625
 20
71.16087164876974
 42
0.0
 10
1485.295132866625
 20
69.71974664876974
 42
-0.3510306079065168
 10
1479.861382866625
 20
65.16349664876972
 42
0.0
 10
1478.275132866625
 20
65.16349664876975
 42
-0.1053356344842436
 10
1474.765132866625
 20
66.17599664876974
 42
0.1188608286962634
 10
1475.406382866625
 20
68.74099664876974
 42
0.0
 10
1479.253882866625
 20
66.37849664876968
 42
-0.2447573632916039
 10
1479.253882866625
 20
66.3784966487697
 42
0.0
 10
1482.966382866625
 20
68.97724664876972
 42
-0.3734162676407277
 10
1482.966382866625
 20
68.97724664876971
 42
0.0
 10
1481.619757866625
 20
71.57262164876971
 42
-0.261219770190848
 10
1478.477632866625
 20
72.71337164876975
 42
-0.0572747914118363
 10
1478.477632866625
 20
72.71337164876968
 42
-0.1189658875692221
 10
1475.980132866625
 20
74.17812164876975
 42
-0.2005226878639636
 10
1474.933882866625
 20
76.53724664878074
 42
0.0
 10
1474.917007866625
 20
77.4316216487697
 42
-0.2622894489606957
 10
1477.600132866625
 20
81.53224664876973
 42
-0.0988461274137808
 10
1480.111132866625
 20
82.13637164876971
 42
0.0
 10
1481.042632866625
 20
82.13637164876975
 42
-0.0920156312561188
 97
        0
 75
     0
 76
     1
 98
        1
 10
0.0
 20
0.0
  0
HATCH
  5
10A
330
1F
100
AcDbEntity
  8
0
  6
CONTINUOUS
 62
     3
100
AcDbHatch
 10
0.0
 20
0.0
 30
0.0
210
0.0
220
0.0
230
1.0
  2
SOLID
 70
     1
 71
     1
 91
        2
 92
        3
 72
     1
 73
     1
 93
       27
 10
1430.586382866625
 20
80.18224664876972
 42
-0.1769427732109284
 10
1430.586382866625
 20
80.18224664876975
 42
0.0
 10
1430.586382866625
 20
78.35974664876974
 42
0.0
 10
1431.025132866625
 20
78.35974664876971
 42
-0.207533601427307
 10
1433.873711394785
 20
80.49661795645173
 42
-0.1226604740888933
 10
1436.391382866625
 20
80.55012164876972
 42
-0.3213715781137954
 10
1438.994164011104
 20
77.35532571892324
 42
-0.064704004662446
 10
1439.007007866625
 20
75.66649664876971
 42
-0.257798906330806
 10
1438.477132866625
 20
75.02524664876971
 42
-0.056602577721096
 10
1437.343132866625
 20
74.6303716487698
 42
-0.0166741689362636
 10
1433.185132866625
 20
73.8406216487697
 42
0.1186092302783404
 10
1430.441257866625
 20
72.52437164876976
 42
0.1699204224386695
 10
1429.246507866625
 20
70.52637164876975
 42
0.1006533494296199
 10
1429.136043339791
 20
68.79267775478563
 42
0.1675695228968024
 10
1430.218507866625
 20
66.46962164876976
 42
0.1376980079804242
 10
1432.186132866625
 20
65.33224664876974
 42
0.0719813663796923
 10
1433.080507866625
 20
65.18374664876976
 42
0.0
 10
1434.450757866625
 20
65.18374664876974
 42
0.1944607457809085
 10
1438.996882866625
 20
67.5226216487697
 42
0.1288538183665954
 10
1439.455882866625
 20
66.3751216487697
 42
0.2098387395261546
 10
1440.954382866625
 20
65.5482466487697
 42
0.0
 10
1442.041132866625
 20
65.54149664876974
 42
0.0945009641609563
 10
1443.610507866625
 20
65.87562164876971
 42
0.0
 10
1443.610507866625
 20
66.66199664876976
 42
-0.2395739894657535
 10
1442.240257866625
 20
66.64849664876972
 42
-0.2502312110031057
 10
1441.565257866625
 20
67.91749664877
 42
-0.0104343570771765
 10
1441.656382866625
 20
77.38099664876971
 42
0.4051015674140716
 97
        0
 92
        3
 72
     1
 73
     1
 93
        8
 10
1439.067757866625
 20
74.01274664876972
 42
-0.0339435190873666
 10
1439.067757866625
 20
74.01274664876405
 42
-0.0001110072973599
 10
1438.926007866625
 20
68.84224664876973
 42
-0.2253076310552528
 10
1435.382257866625
 20
66.47637164876976
 42
0.0
 10
1434.514882866625
 20
66.47637164876974
 42
-0.3657967558150132
 10
1431.936382866625
 20
69.21687164876973
 42
0.0
 10
1431.936382866625
 20
70.19562164876976
 42
-0.2530797830369341
 10
1433.677882866625
 20
72.60537164876972
 42
-0.0724473624720066
 97
        0
 75
     0
 76
     1
 98
        1
 10
0.0
 20
0.0
  0
TEXT
  5
10C
330
1F
100
AcDbEntity
  8
0
  6
CONTINUOUS
 62
     2
100
AcDbText
 10
1493.000000000001
 20
62.4999999999995
 30
0.0
 40
17.25
  1
ジャニス工業株式会社
 41
1.025641025641025
  7
EXCADTTF1
 72
     5
 11
1723.000000000001
 21
62.4999999999995
 31
0.0
100
AcDbText
  0
LINE
  5
10D
330
1F
100
AcDbEntity
  8
枠_表
  6
CONTINUOUS
 62
     7
100
AcDbLine
 10
125.0000000000489
 20
49.99999999999957
 30
0.0
 11
2050.00000000003
 21
49.99999999999957
 31
0.0
  0
LINE
  5
10E
330
1F
100
AcDbEntity
  8
枠_表
  6
CONTINUOUS
 62
     7
100
AcDbLine
 10
2050.00000000003
 20
49.99999999999957
 30
0.0
 11
2050.00000000003
 21
1434.999999999986
 31
0.0
  0
LINE
  5
10F
330
1F
100
AcDbEntity
  8
枠_表
  6
CONTINUOUS
 62
     7
100
AcDbLine
 10
125.0000000000489
 20
49.99999999999957
 30
0.0
 11
125.0000000000489
 21
1434.999999999986
 31
0.0
  0
LINE
  5
110
330
1F
100
AcDbEntity
  8
枠_表
  6
CONTINUOUS
 62
     6
100
AcDbLine
 10
1902.22549035005
 20
163.3608801499995
 30
0.0
 11
1933.78714190005
 21
195.4764098499995
 31
0.0
  0
LINE
  5
111
330
1F
100
AcDbEntity
  8
枠_表
  6
CONTINUOUS
 62
     6
100
AcDbLine
 10
2050.00000000005
 20
207.4999999999995
 30
0.0
 11
1885.00000000005
 21
207.4999999999995
 31
0.0
  0
LINE
  5
112
330
1F
100
AcDbEntity
  8
枠_表
  6
CONTINUOUS
 62
     6
100
AcDbLine
 10
1948.75000000005
 20
232.4999999999995
 30
0.0
 11
1948.75000000005
 21
149.9999999999995
 31
0.0
  0
LINE
  5
113
330
1F
100
AcDbEntity
  8
枠_表
  6
CONTINUOUS
 62
     6
100
AcDbLine
 10
1885.00000000005
 20
232.4999999999995
 30
0.0
 11
1885.00000000005
 21
149.9999999999995
 31
0.0
  0
LINE
  5
114
330
1F
100
AcDbEntity
  8
枠_表
  6
CONTINUOUS
 62
     6
100
AcDbLine
 10
1370.00000000005
 20
99.9999999999995
 30
0.0
 11
2050.00000000005
 21
99.9999999999995
 31
0.0
  0
LINE
  5
115
330
1F
100
AcDbEntity
  8
枠_表
  6
CONTINUOUS
 62
     6
100
AcDbLine
 10
1395.00000000005
 20
149.9999999999995
 30
0.0
 11
1395.00000000005
 21
99.9999999999995
 31
0.0
  0
TEXT
  5
116
330
1F
100
AcDbEntity
  8
枠_表
  6
CONTINUOUS
 62
     2
100
AcDbText
 10
1894.35000000005
 20
182.0499999999995
 30
0.0
 40
20.0
  1
１
 41
1.12
  7
EXCADSTD
 72
     5
 11
1910.35000000005
 21
182.0499999999995
 31
0.0
100
AcDbText
  0
TEXT
  5
117
330
1F
100
AcDbEntity
  8
枠_表
  6
CONTINUOUS
 62
     2
100
AcDbText
 10
1957.224999910643
 20
167.4999999999995
 30
0.0
 40
22.5
  1
第３角法
 41
1.210628019323672
  7
EXCADSTD
 72
     5
 11
2046.724999910643
 21
167.4999999999995
 31
0.0
100
AcDbText
  0
TEXT
  5
118
330
1F
100
AcDbEntity
  8
枠_表
  6
CONTINUOUS
 62
     2
100
AcDbText
 10
1383.95000000005
 20
146.2499999999995
 30
0.0
 40
16.22727272727273
  1
品名
  7
EXCADVERT
 72
     3
 11
1383.95000000005
 21
103.7499999999995
 31
0.0
100
AcDbText
  0
LINE
  5
119
330
1F
100
AcDbEntity
  8
枠_表
  6
CONTINUOUS
 62
     6
100
AcDbLine
 10
1781.25000000005
 20
49.9999999999995
 30
0.0
 11
1781.25000000005
 21
149.9999999999995
 31
0.0
  0
LINE
  5
11A
330
1F
100
AcDbEntity
  8
枠_表
  6
CONTINUOUS
 62
     7
100
AcDbLine
 10
1370.00000000005
 20
232.4999999999995
 30
0.0
 11
1370.00000000005
 21
49.9999999999995
 31
0.0
  0
LINE
  5
11B
330
1F
100
AcDbEntity
  8
枠_表
  6
CONTINUOUS
 62
     6
100
AcDbLine
 10
2050.00000000005
 20
149.9999999999995
 30
0.0
 11
1370.00000000005
 21
149.9999999999995
 31
0.0
  0
LINE
  5
11C
330
1F
100
AcDbEntity
  8
枠_表
  6
CONTINUOUS
 62
     6
100
AcDbLine
 10
1395.00000000005
 20
232.4999999999995
 30
0.0
 11
1395.00000000005
 21
149.9999999999995
 31
0.0
  0
LINE
  5
11D
330
1F
100
AcDbEntity
  8
枠_表
  6
CONTINUOUS
 62
     6
100
AcDbLine
 10
1756.25000000005
 20
149.9999999999995
 30
0.0
 11
1756.25000000005
 21
49.9999999999995
 31
0.0
  0
TEXT
  5
11E
330
1F
100
AcDbEntity
  8
枠_表
  6
CONTINUOUS
 62
     2
100
AcDbText
 10
1895.62500000005
 20
209.9999999999995
 30
0.0
 40
20.0
  1
尺度
 41
1.239493181818183
  7
EXCADSTD
 72
     5
 11
1934.58050000005
 21
209.9999999999995
 31
0.0
100
AcDbText
  0
TEXT
  5
11F
330
1F
100
AcDbEntity
  8
枠_表
  6
CONTINUOUS
 62
     2
100
AcDbText
 10
1967.47500000005
 20
209.9999999999995
 30
0.0
 40
20.0
  1
投影法
 41
1.338235294117647
  7
EXCADSTD
 72
     5
 11
2032.47500000005
 21
209.9999999999995
 31
0.0
100
AcDbText
  0
TEXT
  5
120
330
1F
100
AcDbEntity
  8
枠_表
  6
CONTINUOUS
 62
     2
100
AcDbText
 10
1770.20000000005
 20
146.2499999999995
 30
0.0
 40
16.22727272727273
  1
品番
  7
EXCADVERT
 72
     3
 11
1770.20000000005
 21
103.7499999999995
 31
0.0
100
AcDbText
  0
TEXT
  5
121
330
1F
100
AcDbEntity
  8
枠_表
  6
CONTINUOUS
 62
     2
100
AcDbText
 10
1770.20000000005
 20
96.2499999999995
 30
0.0
 40
16.22727272727273
  1
図番
  7
EXCADVERT
 72
     3
 11
1770.20000000005
 21
53.7499999999995
 31
0.0
100
AcDbText
  0
TEXT
  5
122
330
1F
100
AcDbEntity
  8
枠_表
  6
CONTINUOUS
 62
     2
100
AcDbText
 10
1383.70000000005
 20
222.4999999999995
 30
0.0
 40
23.86363636363636
  1
設計
  7
EXCADVERT
 72
     3
 11
1383.70000000005
 21
159.9999999999995
 31
0.0
100
AcDbText
  0
LINE
  5
123
330
1F
100
AcDbEntity
  8
枠_表
  6
CONTINUOUS
 62
     7
100
AcDbLine
 10
1370.00000000005
 20
232.4999999999995
 30
0.0
 11
2050.00000000005
 21
232.4999999999995
 31
0.0
  0
CIRCLE
  5
124
330
1F
100
AcDbEntity
  8
枠_表
  6
CONTINUOUS
 62
     6
100
AcDbCircle
 10
1421.20065825616
 20
165.7081139146295
 30
0.0
 40
0.5000001
  0
CIRCLE
  5
125
330
1F
100
AcDbEntity
  8
枠_表
  6
CONTINUOUS
 62
     6
100
AcDbCircle
 10
1446.89934174394
 20
165.7081139146295
 30
0.0
 40
0.5000001
  0
LINE
  5
126
330
1F
100
AcDbEntity
  8
枠_表
  6
CONTINUOUS
 62
     6
100
AcDbLine
 10
1498.00000000005
 20
232.4999999999995
 30
0.0
 11
1498.00000000005
 21
149.9999999999995
 31
0.0
  0
CIRCLE
  5
127
330
1F
100
AcDbEntity
  8
枠_表
  6
CONTINUOUS
 62
     6
100
AcDbCircle
 10
1524.20065825616
 20
165.7081139146295
 30
0.0
 40
0.5000001
  0
CIRCLE
  5
128
330
1F
100
AcDbEntity
  8
枠_表
  6
CONTINUOUS
 62
     6
100
AcDbCircle
 10
1549.89934174394
 20
165.7081139146295
 30
0.0
 40
0.5000001
  0
TEXT
  5
129
330
1F
100
AcDbEntity
  8
枠_表
  6
CONTINUOUS
 62
     2
100
AcDbText
 10
1486.70000000005
 20
222.4999999999995
 30
0.0
 40
23.86363636363636
  1
製図
  7
EXCADVERT
 72
     3
 11
1486.70000000005
 21
159.9999999999995
 31
0.0
100
AcDbText
  0
LINE
  5
12A
330
1F
100
AcDbEntity
  8
枠_表
  6
CONTINUOUS
 62
     6
100
AcDbLine
 10
1679.00000000005
 20
232.4999999999995
 30
0.0
 11
1679.00000000005
 21
149.9999999999995
 31
0.0
  0
LINE
  5
12B
330
1F
100
AcDbEntity
  8
枠_表
  6
CONTINUOUS
 62
     6
100
AcDbLine
 10
1473.00000000005
 20
232.4999999999995
 30
0.0
 11
1473.00000000005
 21
149.9999999999996
 31
0.0
  0
LINE
  5
12C
330
1F
100
AcDbEntity
  8
枠_表
  6
CONTINUOUS
 62
     6
100
AcDbLine
 10
1807.00000000005
 20
232.4999999999995
 30
0.0
 11
1807.00000000005
 21
149.9999999999995
 31
0.0
  0
LINE
  5
12D
330
1F
100
AcDbEntity
  8
枠_表
  6
CONTINUOUS
 62
     6
100
AcDbLine
 10
1782.00000000005
 20
232.4999999999995
 30
0.0
 11
1782.00000000005
 21
149.9999999999995
 31
0.0
  0
TEXT
  5
12E
330
1F
100
AcDbEntity
  8
枠_表
  6
CONTINUOUS
 62
     2
100
AcDbText
 10
1795.70000000005
 20
222.4999999999995
 30
0.0
 40
23.86363636363636
  1
承認
  7
EXCADVERT
 72
     3
 11
1795.70000000005
 21
159.9999999999995
 31
0.0
100
AcDbText
  0
LINE
  5
12F
330
1F
100
AcDbEntity
  8
枠_表
  6
CONTINUOUS
 62
     6
100
AcDbLine
 10
1704.00000000005
 20
232.4999999999995
 30
0.0
 11
1704.00000000005
 21
149.9999999999995
 31
0.0
  0
LINE
  5
130
330
1F
100
AcDbEntity
  8
枠_表
  6
CONTINUOUS
 62
     6
100
AcDbLine
 10
1679.00000000005
 20
232.4999999999995
 30
0.0
 11
1679.00000000005
 21
149.9999999999995
 31
0.0
  0
TEXT
  5
131
330
1F
100
AcDbEntity
  8
枠_表
  6
CONTINUOUS
 62
     2
100
AcDbText
 10
1692.70000000005
 20
222.4999999999995
 30
0.0
 40
23.86363636363636
  1
検図
  7
EXCADVERT
 72
     3
 11
1692.70000000005
 21
159.9999999999995
 31
0.0
100
AcDbText
  0
LINE
  5
132
330
1F
100
AcDbEntity
  8
枠_表
  6
CONTINUOUS
 62
     6
100
AcDbLine
 10
1601.00000000005
 20
232.4999999999995
 30
0.0
 11
1601.00000000005
 21
149.9999999999995
 31
0.0
  0
CIRCLE
  5
133
330
1F
100
AcDbEntity
  8
枠_表
  6
CONTINUOUS
 62
     6
100
AcDbCircle
 10
1627.20065825616
 20
165.7081139146295
 30
0.0
 40
0.5000001
  0
CIRCLE
  5
134
330
1F
100
AcDbEntity
  8
枠_表
  6
CONTINUOUS
 62
     6
100
AcDbCircle
 10
1652.89934174394
 20
165.7081139146295
 30
0.0
 40
0.5000001
  0
LINE
  5
135
330
1F
100
AcDbEntity
  8
枠_表
  6
CONTINUOUS
 62
     6
100
AcDbLine
 10
1576.00000000005
 20
232.4999999999995
 30
0.0
 11
1576.00000000005
 21
149.9999999999996
 31
0.0
  0
LINE
  5
136
330
1F
100
AcDbEntity
  8
枠_表
  6
CONTINUOUS
 62
     6
100
AcDbLine
 10
1679.00000000005
 20
232.4999999999995
 30
0.0
 11
1679.00000000005
 21
149.9999999999995
 31
0.0
  0
TEXT
  5
137
330
1F
100
AcDbEntity
  8
枠_表
  6
CONTINUOUS
 62
     2
100
AcDbText
 10
1589.70000000005
 20
222.4999999999995
 30
0.0
 40
23.86363636363636
  1
写図
  7
EXCADVERT
 72
     3
 11
1589.70000000005
 21
159.9999999999995
 31
0.0
100
AcDbText
  0
LINE
  5
138
330
1F
100
AcDbEntity
  8
枠_表
  6
CONTINUOUS
 62
     7
100
AcDbLine
 10
125.0000000000489
 20
1434.999999999986
 30
0.0
 11
2050.00000000003
 21
1434.999999999986
 31
0.0
  0
TEXT
  5
139
330
1F
100
AcDbEntity
  8
枠_表
  6
CONTINUOUS
 62
     2
100
AcDbText
 10
1859.063685364953
 20
109.6227412613356
 30
0.0
 40
30.0
  1
Ｌ３５３
 41
1.065217391304348
  7
EXCADSTD
 72
     5
 11
1964.063685364953
 21
109.6227412613356
 31
0.0
100
AcDbText
  0
TEXT
  5
13A
330
1F
100
AcDbEntity
  8
枠_表
  6
CONTINUOUS
 62
     2
100
AcDbText
 10
1517.124999880841
 20
188.7499999999995
 30
0.0
 40
25.0
  1
風穴
 41
1.073255278289966
  7
EXCADSTD
 72
     5
 11
1559.288600099376
 21
188.7499999999995
 31
0.0
100
AcDbText
  0
TEXT
  5
13B
330
1F
100
AcDbEntity
  8
枠_表
  6
CONTINUOUS
 62
     2
100
AcDbText
 10
1620.124999880841
 20
188.7499999999995
 30
0.0
 40
25.0
  1
岩田
 41
1.073255278289966
  7
EXCADSTD
 72
     5
 11
1662.288600099375
 21
188.7499999999995
 31
0.0
100
AcDbText
  0
TEXT
  5
13C
330
1F
100
AcDbEntity
  8
枠_表
  6
CONTINUOUS
 62
     6
100
AcDbText
 10
1602.29705810005
 20
155.6250365999995
 30
0.0
 40
20.0
  1
'20
 41
0.4962819414893638
  7
EXCADSTD
 72
     5
 11
1624.51158310005
 21
155.6250365999995
 31
0.0
100
AcDbText
  0
TEXT
  5
13D
330
1F
100
AcDbEntity
  8
枠_表
  6
CONTINUOUS
 62
     6
100
AcDbText
 10
1630.89705810005
 20
155.9250365999995
 30
0.0
 40
20.0
  1
12
 41
0.4199999999999987
  7
EXCADSTD
 72
     5
 11
1645.69705810005
 21
155.9250365999995
 31
0.0
100
AcDbText
  0
TEXT
  5
13E
330
1F
100
AcDbEntity
  8
枠_表
  6
CONTINUOUS
 62
     6
100
AcDbText
 10
1656.277941989457
 20
155.6250365999995
 30
0.0
 40
20.0
  1
15
 41
0.4199999999999987
  7
EXCADSTD
 72
     5
 11
1671.077941989457
 21
155.6250365999995
 31
0.0
100
AcDbText
  0
TEXT
  5
13F
330
1F
100
AcDbEntity
  8
枠_表
  6
CONTINUOUS
 62
     6
100
AcDbText
 10
1531.522058070248
 20
155.9250365999995
 30
0.0
 40
20.0
  1
8
 41
0.4516544117647059
  7
EXCADSTD
 72
     5
 11
1538.834558070248
 21
155.9250365999995
 31
0.0
100
AcDbText
  0
TEXT
  5
140
330
1F
100
AcDbEntity
  8
枠_表
  6
CONTINUOUS
 62
     6
100
AcDbText
 10
1553.277941989458
 20
155.6250365999995
 30
0.0
 40
20.0
  1
26
 41
0.4199999999999987
  7
EXCADSTD
 72
     5
 11
1568.077941989457
 21
155.6250365999995
 31
0.0
100
AcDbText
  0
TEXT
  5
141
330
1F
100
AcDbEntity
  8
枠_表
  6
CONTINUOUS
 62
     2
100
AcDbText
 10
1922.65000000005
 20
157.5499999999994
 30
0.0
 40
20.0
  1
５
 41
1.12
  7
EXCADSTD
 72
     5
 11
1938.65000000005
 21
157.5499999999994
 31
0.0
100
AcDbText
  0
TEXT
  5
142
330
1F
100
AcDbEntity
  8
枠_表
  6
CONTINUOUS
 62
     2
100
AcDbText
 10
1869.063685364953
 20
59.62274126133508
 30
0.0
 40
30.0
  1
参考図
 41
1.166666666666667
  7
EXCADSTD
 72
     5
 11
1954.063685364953
 21
59.62274126133508
 31
0.0
100
AcDbText
  0
TEXT
  5
143
330
1F
100
AcDbEntity
  8
枠_表
  6
CONTINUOUS
 62
     6
100
AcDbText
 10
1499.29705810005
 20
155.6250365999995
 30
0.0
 40
20.0
  1
'05
 41
0.4962819414893638
  7
EXCADSTD
 72
     5
 11
1521.51158310005
 21
155.6250365999995
 31
0.0
100
AcDbText
  0
TEXT
  5
144
330
1F
100
AcDbEntity
  8
枠_表
  6
CONTINUOUS
 62
     2
100
AcDbText
 10
1581.500000268271
 20
109.2999999999995
 30
0.0
 40
30.0
  1
手洗器
 41
1.166666666666667
  7
EXCADSTD
 72
     5
 11
1666.500000268271
 21
109.2999999999995
 31
0.0
100
AcDbText
  0
TEXT
  5
145
330
1F
100
AcDbEntity
  8
枠_表
  6
CONTINUOUS
 62
     2
100
AcDbText
 10
1401.000000000005
 20
126.0
 30
0.0
 40
20.0
  1
３５５×１９５
 41
0.9902439024390244
  7
EXCADSTD
 72
     5
 11
1517.000000000005
 21
126.0
 31
0.0
100
AcDbText
  0
DIMENSION
  5
147
330
1F
100
AcDbEntity
  8
図
  6
CONTINUOUS
 62
     3
100
AcDbDimension
  2
*D15
 10
1317.0
 20
896.10469849011
 30
0.0
 11
1307.0
 21
907.6046985497146
 31
0.0
 70
   160
  3
ISO-25
100
AcDbAlignedDimension
 13
1297.0
 23
861.1046984901068
 33
0.0
 14
1317.0
 24
861.1046984901068
 34
0.0
100
AcDbRotatedDimension
1001
ACAD
1000
DSTYLE
1002
{
1070
   270
1070
     2
1070
     6
1000
EX_NORM
1070
     7
1000
EX_NORM
1070
    41
1040
15.0
1070
    42
1040
2.5
1070
    44
1040
5.0
1070
    73
1070
     0
1070
    74
1070
     0
1070
    75
1070
     0
1070
    76
1070
     0
1070
    77
1070
     1
1070
    78
1070
     8
1070
   140
1040
20.0
1070
   147
1040
0.0
1070
   173
1070
     1
1070
   176
1070
     3
1070
   177
1070
     3
1070
   178
1070
     2
1070
   271
1070
     2
1070
   277
1070
     2
1070
   279
1070
     2
1070
   280
1070
     0
1070
   287
1070
     5
1070
   340
1005
146
1002
}
  0
DIMENSION
  5
158
330
1F
100
AcDbEntity
  8
図
  6
CONTINUOUS
 62
     3
100
AcDbDimension
  2
*D16
 10
651.1011061565998
 20
248.10469849011
 30
0.0
 11
561.1011061565998
 21
259.6046985497146
 31
0.0
 70
   160
  3
ISO-25
100
AcDbAlignedDimension
 13
471.1011061565999
 23
349.3046984901071
 33
0.0
 14
651.1011061565998
 24
352.7046984901071
 34
0.0
100
AcDbRotatedDimension
1001
ACAD
1000
DSTYLE
1002
{
1070
   270
1070
     2
1070
     6
1000
EX_NORM
1070
     7
1000
EX_NORM
1070
    41
1040
15.0
1070
    42
1040
2.5
1070
    44
1040
10.0
1070
    73
1070
     0
1070
    74
1070
     0
1070
    75
1070
     0
1070
    76
1070
     0
1070
    77
1070
     1
1070
    78
1070
     8
1070
   140
1040
20.0
1070
   147
1040
0.0
1070
   173
1070
     1
1070
   176
1070
     3
1070
   177
1070
     3
1070
   178
1070
     2
1070
   271
1070
     2
1070
   277
1070
     2
1070
   279
1070
     2
1070
   280
1070
     0
1070
   287
1070
     5
1070
   340
1005
157
1002
}
  0
DIMENSION
  5
165
330
1F
100
AcDbEntity
  8
図
  6
CONTINUOUS
 62
     3
100
AcDbDimension
  2
*D17
 10
399.2
 20
1245.1046984901
 30
0.0
 11
387.4500000298024
 21
1267.6046984901
 31
0.0
 70
   160
  3
ISO-25
100
AcDbAlignedDimension
 13
423.6011061566001
 23
1290.1046984901
 33
0.0
 14
414.0000000000001
 24
1245.1046984901
 34
0.0
 50
90.0
100
AcDbRotatedDimension
1001
ACAD
1000
DSTYLE
1002
{
1070
   270
1070
     2
1070
     6
1000
EX_NORM
1070
     7
1000
EX_NORM
1070
    41
1040
15.0
1070
    42
1040
3.499999940395355
1070
    44
1040
5.0
1070
    73
1070
     0
1070
    74
1070
     0
1070
    75
1070
     0
1070
    76
1070
     1
1070
    77
1070
     1
1070
    78
1070
     0
1070
   140
1040
20.0
1070
   147
1040
0.0
1070
   173
1070
     1
1070
   176
1070
     3
1070
   177
1070
     3
1070
   178
1070
     2
1070
   271
1070
     0
1070
   277
1070
     2
1070
   279
1070
     2
1070
   280
1070
     0
1070
   287
1070
     5
1070
   340
1005
157
1002
}
  0
DIMENSION
  5
171
330
1F
100
AcDbEntity
  8
図
  6
CONTINUOUS
 62
     3
100
AcDbDimension
  2
*D18
 10
601.1011061566
 20
1053.0
 30
0.0
 11
543.6011061566
 21
1064.749999970198
 31
0.0
 70
   160
  3
ISO-25
100
AcDbAlignedDimension
 13
576.1011061566
 23
1155.1046984901
 33
0.0
 14
601.1011061566
 24
1095.1046984901
 34
0.0
100
AcDbRotatedDimension
1001
ACAD
1000
DSTYLE
1002
{
1070
   270
1070
     2
1070
     6
1000
EX_NORM
1070
     7
1000
EX_NORM
1070
    41
1040
15.0
1070
    42
1040
3.499999940395355
1070
    44
1040
5.0
1070
    73
1070
     0
1070
    74
1070
     0
1070
    75
1070
     0
1070
    76
1070
     1
1070
    77
1070
     1
1070
    78
1070
     0
1070
   140
1040
20.0
1070
   147
1040
0.0
1070
   173
1070
     1
1070
   176
1070
     3
1070
   177
1070
     3
1070
   178
1070
     2
1070
   271
1070
     0
1070
   277
1070
     2
1070
   279
1070
     2
1070
   280
1070
     1
1070
   287
1070
     5
1070
   340
1005
157
1002
}
  0
DIMENSION
  5
17F
330
1F
100
AcDbEntity
  8
図
  6
CONTINUOUS
 62
     3
100
AcDbDimension
  2
*D19
 10
847.5
 20
1095.1046984901
 30
0.0
 11
835.7500000298028
 21
1192.6046984901
 31
0.0
 70
   160
  3
ISO-25
100
AcDbAlignedDimension
 13
778.6011061566
 23
1290.1046984901
 33
0.0
 14
601.1011061566
 24
1095.1046984901
 34
0.0
 50
90.0
100
AcDbRotatedDimension
1001
ACAD
1000
DSTYLE
1002
{
1070
   270
1070
     2
1070
     6
1000
EX_NORM
1070
     7
1000
EX_NORM
1070
    41
1040
15.0
1070
    42
1040
3.499999940395355
1070
    44
1040
5.0
1070
    73
1070
     0
1070
    74
1070
     0
1070
    75
1070
     0
1070
    76
1070
     0
1070
    77
1070
     1
1070
    78
1070
     0
1070
   140
1040
20.0
1070
   147
1040
0.0
1070
   173
1070
     1
1070
   176
1070
     3
1070
   177
1070
     3
1070
   178
1070
     2
1070
   271
1070
     0
1070
   277
1070
     2
1070
   279
1070
     2
1070
   280
1070
     0
1070
   287
1070
     5
1070
   340
1005
157
1002
}
  0
DIMENSION
  5
18C
330
1F
100
AcDbEntity
  8
図
  6
CONTINUOUS
 62
     3
100
AcDbDimension
  2
*D20
 10
812.8511061565998
 20
836.10469849011
 30
0.0
 11
801.1011061864035
 21
893.6046984901093
 31
0.0
 70
   160
  3
ISO-25
100
AcDbAlignedDimension
 13
773.1938248188601
 23
861.10469849011
 33
0.0
 14
761.8011061566
 24
836.10469849011
 34
0.0
 50
90.0
100
AcDbRotatedDimension
1001
ACAD
1000
DSTYLE
1002
{
1070
   270
1070
     2
1070
     6
1000
EX_NORM
1070
     7
1000
EX_NORM
1070
    41
1040
15.0
1070
    42
1040
3.499999940395355
1070
    44
1040
5.0
1070
    73
1070
     0
1070
    74
1070
     0
1070
    75
1070
     0
1070
    76
1070
     0
1070
    77
1070
     1
1070
    78
1070
     0
1070
   140
1040
20.0
1070
   147
1040
0.0
1070
   173
1070
     1
1070
   176
1070
     3
1070
   177
1070
     3
1070
   178
1070
     2
1070
   271
1070
     0
1070
   277
1070
     2
1070
   279
1070
     2
1070
   280
1070
     1
1070
   287
1070
     5
1070
   340
1005
157
1002
}
  0
DIMENSION
  5
19B
330
1F
100
AcDbEntity
  8
図
  6
CONTINUOUS
 62
     3
100
AcDbDimension
  2
*D21
 10
399.1999999999881
 20
681.10469849011
 30
0.0
 11
387.4500000297892
 21
648.6046984901104
 31
0.0
 70
   160
  3
ISO-25
100
AcDbAlignedDimension
 13
457.5651745759001
 23
691.10469849011
 33
0.0
 14
436.33554171952
 24
681.10469849011
 34
0.0
 50
90.0
100
AcDbRotatedDimension
1001
ACAD
1000
DSTYLE
1002
{
1070
   270
1070
     2
1070
     6
1000
EX_NORM
1070
     7
1000
EX_NORM
1070
    41
1040
15.0
1070
    42
1040
3.499999940395355
1070
    44
1040
5.0
1070
    73
1070
     0
1070
    74
1070
     0
1070
    75
1070
     0
1070
    76
1070
     0
1070
    77
1070
     1
1070
    78
1070
     0
1070
   140
1040
20.0
1070
   147
1040
0.0
1070
   173
1070
     1
1070
   176
1070
     3
1070
   177
1070
     3
1070
   178
1070
     2
1070
   271
1070
     0
1070
   277
1070
     2
1070
   279
1070
     2
1070
   280
1070
     2
1070
   287
1070
     5
1070
   340
1005
157
1002
}
  0
DIMENSION
  5
1AA
330
1F
100
AcDbEntity
  8
図
  6
CONTINUOUS
 62
     3
100
AcDbDimension
  2
*D22
 10
777.19272502773
 20
931.10469849011
 30
0.0
 11
601.1011061566
 21
942.8546984603076
 31
0.0
 70
   160
  3
ISO-25
100
AcDbAlignedDimension
 13
425.00948728547
 23
857.1984914507
 33
0.0
 14
777.19272502773
 24
857.1984914507
 34
0.0
100
AcDbRotatedDimension
1001
ACAD
1000
DSTYLE
1002
{
1070
   270
1070
     2
1070
     6
1000
EX_NORM
1070
     7
1000
EX_NORM
1070
    41
1040
15.0
1070
    42
1040
3.499999940395355
1070
    44
1040
5.0
1070
    73
1070
     0
1070
    74
1070
     0
1070
    75
1070
     0
1070
    76
1070
     0
1070
    77
1070
     1
1070
    78
1070
     0
1070
   140
1040
20.0
1070
   147
1040
0.0
1070
   173
1070
     1
1070
   176
1070
     3
1070
   177
1070
     3
1070
   178
1070
     2
1070
   271
1070
     0
1070
   277
1070
     2
1070
   279
1070
     2
1070
   280
1070
     0
1070
   287
1070
     5
1070
   340
1005
157
1002
}
  0
DIMENSION
  5
1B7
330
1F
100
AcDbEntity
  8
図
  6
CONTINUOUS
 62
     3
100
AcDbDimension
  2
*D23
 10
751.1011061566
 20
896.10469849011
 30
0.0
 11
601.1011061566
 21
907.8546984603076
 31
0.0
 70
   160
  3
ISO-25
100
AcDbAlignedDimension
 13
451.1011061566001
 23
848.70469849011
 33
0.0
 14
751.1011061566
 24
846.20469849011
 34
0.0
100
AcDbRotatedDimension
1001
ACAD
1000
DSTYLE
1002
{
1070
   270
1070
     2
1070
     6
1000
EX_NORM
1070
     7
1000
EX_NORM
1070
    41
1040
15.0
1070
    42
1040
3.499999940395355
1070
    44
1040
5.0
1070
    73
1070
     0
1070
    74
1070
     0
1070
    75
1070
     0
1070
    76
1070
     0
1070
    77
1070
     1
1070
    78
1070
     0
1070
   140
1040
20.0
1070
   147
1040
0.0
1070
   173
1070
     1
1070
   176
1070
     3
1070
   177
1070
     3
1070
   178
1070
     2
1070
   271
1070
     0
1070
   277
1070
     2
1070
   279
1070
     2
1070
   280
1070
     0
1070
   287
1070
     5
1070
   340
1005
157
1002
}
  0
DIMENSION
  5
1C4
330
1F
100
AcDbEntity
  8
図
  6
CONTINUOUS
 62
     3
100
AcDbDimension
  2
*D24
 10
725.0716080838771
 20
825.8805965337976
 30
0.0
 11
711.6694582474156
 21
837.1697452643579
 31
0.0
 70
   160
  1
%%c26
  3
ISO-25
100
AcDbAlignedDimension
 13
700.10902540535
 23
795.71901966763
 33
0.0
 14
726.0931869078499
 24
796.62640658189
 34
0.0
 50
181.9999999999891
100
AcDbRotatedDimension
1001
ACAD
1000
DSTYLE
1002
{
1070
   270
1070
     2
1070
     6
1000
EX_NORM
1070
     7
1000
EX_NORM
1070
    41
1040
15.0
1070
    42
1040
3.499999940395313
1070
    44
1040
4.999999999999988
1070
    73
1070
     0
1070
    74
1070
     0
1070
    75
1070
     0
1070
    76
1070
     0
1070
    77
1070
     1
1070
    78
1070
     0
1070
   140
1040
20.0
1070
   147
1040
0.0
1070
   173
1070
     1
1070
   176
1070
     3
1070
   177
1070
     3
1070
   178
1070
     2
1070
   271
1070
     0
1070
   277
1070
     2
1070
   279
1070
     2
1070
   280
1070
     0
1070
   287
1070
     5
1070
   340
1005
157
1002
}
  0
DIMENSION
  5
1D3
330
1F
100
AcDbEntity
  8
図
  6
CONTINUOUS
 62
     3
100
AcDbDimension
  2
*D25
 10
812.8511061565999
 20
318.10469849011
 30
0.0
 11
801.1011061864025
 21
355.6046984901099
 31
0.0
 70
   160
  3
ISO-25
100
AcDbAlignedDimension
 13
788.1011061566
 23
393.10469849011
 33
0.0
 14
778.6011061566
 24
318.10469849011
 34
0.0
 50
90.0
100
AcDbRotatedDimension
1001
ACAD
1000
DSTYLE
1002
{
1070
   270
1070
     2
1070
     6
1000
EX_NORM
1070
     7
1000
EX_NORM
1070
    41
1040
15.0
1070
    42
1040
3.499999940395355
1070
    44
1040
5.0
1070
    73
1070
     0
1070
    74
1070
     0
1070
    75
1070
     0
1070
    76
1070
     0
1070
    77
1070
     1
1070
    78
1070
     0
1070
   140
1040
20.0
1070
   147
1040
0.0
1070
   173
1070
     1
1070
   176
1070
     3
1070
   177
1070
     3
1070
   178
1070
     2
1070
   271
1070
     0
1070
   277
1070
     2
1070
   279
1070
     2
1070
   280
1070
     0
1070
   287
1070
     5
1070
   340
1005
157
1002
}
  0
DIMENSION
  5
1E0
330
1F
100
AcDbEntity
  8
図
  6
CONTINUOUS
 62
     3
100
AcDbDimension
  2
*D26
 10
399.1999999999894
 20
318.10469849011
 30
0.0
 11
387.4500000297918
 21
340.60469849011
 31
0.0
 70
   160
  3
ISO-25
100
AcDbAlignedDimension
 13
460.9011061566
 23
363.10469849011
 33
0.0
 14
423.6011061566001
 24
318.10469849011
 34
0.0
 50
90.0
100
AcDbRotatedDimension
1001
ACAD
1000
DSTYLE
1002
{
1070
   270
1070
     2
1070
     6
1000
EX_NORM
1070
     7
1000
EX_NORM
1070
    41
1040
15.0
1070
    42
1040
3.499999940395355
1070
    44
1040
5.0
1070
    73
1070
     0
1070
    74
1070
     0
1070
    75
1070
     0
1070
    76
1070
     0
1070
    77
1070
     1
1070
    78
1070
     0
1070
   140
1040
20.0
1070
   147
1040
0.0
1070
   173
1070
     1
1070
   176
1070
     3
1070
   177
1070
     3
1070
   178
1070
     2
1070
   271
1070
     0
1070
   277
1070
     2
1070
   279
1070
     2
1070
   280
1070
     0
1070
   287
1070
     5
1070
   340
1005
157
1002
}
  0
DIMENSION
  5
1ED
330
1F
100
AcDbEntity
  8
図
  6
CONTINUOUS
 62
     3
100
AcDbDimension
  2
*D27
 10
771.1011061566
 20
207.0
 30
0.0
 11
601.1011061566
 21
218.7499999701977
 31
0.0
 70
   160
  3
ISO-25
100
AcDbAlignedDimension
 13
431.1011061566001
 23
318.10469849011
 33
0.0
 14
771.1011061566
 24
318.10469849011
 34
0.0
100
AcDbRotatedDimension
1001
ACAD
1000
DSTYLE
1002
{
1070
   270
1070
     2
1070
     6
1000
EX_NORM
1070
     7
1000
EX_NORM
1070
    41
1040
15.0
1070
    42
1040
3.499999940395355
1070
    44
1040
5.0
1070
    73
1070
     0
1070
    74
1070
     0
1070
    75
1070
     0
1070
    76
1070
     0
1070
    77
1070
     1
1070
    78
1070
     0
1070
   140
1040
20.0
1070
   147
1040
0.0
1070
   173
1070
     1
1070
   176
1070
     3
1070
   177
1070
     3
1070
   178
1070
     2
1070
   271
1070
     0
1070
   277
1070
     2
1070
   279
1070
     2
1070
   280
1070
     0
1070
   287
1070
     5
1070
   340
1005
157
1002
}
  0
DIMENSION
  5
1FA
330
1F
100
AcDbEntity
  8
図
  6
CONTINUOUS
 62
     3
100
AcDbDimension
  2
*D28
 10
651.1011061566
 20
281.4999999999999
 30
0.0
 11
626.1011061566
 21
293.2499999701976
 31
0.0
 70
   160
  3
ISO-25
100
AcDbAlignedDimension
 13
601.1011061566
 23
300.10469849011
 33
0.0
 14
651.1011061566
 24
352.70469849011
 34
0.0
100
AcDbRotatedDimension
1001
ACAD
1000
DSTYLE
1002
{
1070
   270
1070
     2
1070
     6
1000
EX_NORM
1070
     7
1000
EX_NORM
1070
    41
1040
15.0
1070
    42
1040
3.499999940395355
1070
    44
1040
5.0
1070
    73
1070
     0
1070
    74
1070
     0
1070
    75
1070
     0
1070
    76
1070
     0
1070
    77
1070
     1
1070
    78
1070
     0
1070
   140
1040
20.0
1070
   147
1040
0.0
1070
   173
1070
     1
1070
   176
1070
     3
1070
   177
1070
     3
1070
   178
1070
     2
1070
   271
1070
     0
1070
   277
1070
     2
1070
   279
1070
     2
1070
   280
1070
     0
1070
   287
1070
     5
1070
   340
1005
157
1002
}
  0
DIMENSION
  5
207
330
1F
100
AcDbEntity
  8
図
  6
CONTINUOUS
 62
     3
100
AcDbDimension
  2
*D29
 10
1358.5
 20
681.10469849011
 30
0.0
 11
1346.750000029802
 21
771.10469849011
 31
0.0
 70
   160
  3
ISO-25
100
AcDbAlignedDimension
 13
1317.0
 23
861.10469849011
 33
0.0
 14
1317.0
 24
681.10469849011
 34
0.0
 50
90.0
100
AcDbRotatedDimension
1001
ACAD
1000
DSTYLE
1002
{
1070
   270
1070
     2
1070
     6
1000
EX_NORM
1070
     7
1000
EX_NORM
1070
    41
1040
15.0
1070
    42
1040
3.499999940395355
1070
    44
1040
4.999999999999545
1070
    73
1070
     0
1070
    74
1070
     0
1070
    75
1070
     0
1070
    76
1070
     0
1070
    77
1070
     1
1070
    78
1070
     0
1070
   140
1040
20.0
1070
   147
1040
0.0
1070
   173
1070
     1
1070
   176
1070
     3
1070
   177
1070
     3
1070
   178
1070
     2
1070
   271
1070
     0
1070
   277
1070
     2
1070
   279
1070
     2
1070
   280
1070
     0
1070
   287
1070
     5
1070
   340
1005
157
1002
}
  0
DIMENSION
  5
214
330
1F
100
AcDbEntity
  8
図
  6
CONTINUOUS
 62
     3
100
AcDbDimension
  2
*D30
 10
1099.5
 20
681.12380437437
 30
0.0
 11
1087.750000029802
 21
741.11425143224
 31
0.0
 70
   160
  3
ISO-25
100
AcDbAlignedDimension
 13
1121.1447485034
 23
801.10469849011
 33
0.0
 14
1146.9954725737
 24
681.12380437437
 34
0.0
 50
90.0
100
AcDbRotatedDimension
1001
ACAD
1000
DSTYLE
1002
{
1070
   270
1070
     2
1070
     6
1000
EX_NORM
1070
     7
1000
EX_NORM
1070
    41
1040
15.0
1070
    42
1040
3.499999940395355
1070
    44
1040
5.0
1070
    73
1070
     0
1070
    74
1070
     0
1070
    75
1070
     0
1070
    76
1070
     0
1070
    77
1070
     1
1070
    78
1070
     0
1070
   140
1040
20.0
1070
   147
1040
0.0
1070
   173
1070
     1
1070
   176
1070
     3
1070
   177
1070
     3
1070
   178
1070
     2
1070
   271
1070
     0
1070
   277
1070
     2
1070
   279
1070
     2
1070
   280
1070
     0
1070
   287
1070
     5
1070
   340
1005
157
1002
}
  0
DIMENSION
  5
221
330
1F
100
AcDbEntity
  8
図
  6
CONTINUOUS
 62
     3
100
AcDbDimension
  2
*D31
 10
1317.0
 20
641.5
 30
0.0
 11
1232.05
 21
653.2499999701977
 31
0.0
 70
   160
  3
ISO-25
100
AcDbAlignedDimension
 13
1147.1
 23
680.15
 33
0.0
 14
1317.0
 24
681.10469849011
 34
0.0
100
AcDbRotatedDimension
1001
ACAD
1000
DSTYLE
1002
{
1070
   270
1070
     2
1070
     6
1000
EX_NORM
1070
     7
1000
EX_NORM
1070
    41
1040
15.0
1070
    42
1040
3.499999940395355
1070
    44
1040
5.0
1070
    73
1070
     0
1070
    74
1070
     0
1070
    75
1070
     0
1070
    76
1070
     0
1070
    77
1070
     1
1070
    78
1070
     0
1070
   140
1040
20.0
1070
   147
1040
0.0
1070
   173
1070
     1
1070
   176
1070
     3
1070
   177
1070
     3
1070
   178
1070
     2
1070
   271
1070
     0
1070
   277
1070
     2
1070
   279
1070
     2
1070
   280
1070
     0
1070
   287
1070
     5
1070
   340
1005
157
1002
}
  0
DIMENSION
  5
22E
330
1F
100
AcDbEntity
  8
図
  6
CONTINUOUS
 62
     3
100
AcDbDimension
  2
*D32
 10
1647.6
 20
686.10469849011
 30
0.0
 11
1635.850000029802
 21
653.6046984901096
 31
0.0
 70
   160
  3
ISO-25
100
AcDbAlignedDimension
 13
1652.6011061566
 23
704.1046984901099
 33
0.0
 14
1655.7815733405
 24
686.10469849011
 34
0.0
 50
90.0
100
AcDbRotatedDimension
1001
ACAD
1000
DSTYLE
1002
{
1070
   270
1070
     2
1070
     6
1000
EX_NORM
1070
     7
1000
EX_NORM
1070
    41
1040
15.0
1070
    42
1040
3.499999940395355
1070
    44
1040
5.0
1070
    73
1070
     0
1070
    74
1070
     0
1070
    75
1070
     0
1070
    76
1070
     0
1070
    77
1070
     1
1070
    78
1070
     0
1070
   140
1040
20.0
1070
   147
1040
0.0
1070
   173
1070
     1
1070
   176
1070
     3
1070
   177
1070
     3
1070
   178
1070
     2
1070
   271
1070
     0
1070
   277
1070
     2
1070
   279
1070
     2
1070
   280
1070
     2
1070
   287
1070
     5
1070
   340
1005
157
1002
}
  0
DIMENSION
  5
23D
330
1F
100
AcDbEntity
  8
図
  6
CONTINUOUS
 62
     3
100
AcDbDimension
  2
*D33
 10
1704.1011061566
 20
738.5
 30
0.0
 11
1683.1011061566
 21
750.2499999701977
 31
0.0
 70
   160
  1
%%c41
  3
ISO-25
100
AcDbAlignedDimension
 13
1662.1011061566
 23
694.60469849011
 33
0.0
 14
1704.1011061566
 24
694.60469849011
 34
0.0
100
AcDbRotatedDimension
1001
ACAD
1000
DSTYLE
1002
{
1070
   270
1070
     2
1070
     6
1000
EX_NORM
1070
     7
1000
EX_NORM
1070
    41
1040
15.0
1070
    42
1040
3.499999940395355
1070
    44
1040
5.0
1070
    73
1070
     0
1070
    74
1070
     0
1070
    75
1070
     0
1070
    76
1070
     0
1070
    77
1070
     1
1070
    78
1070
     0
1070
   140
1040
20.0
1070
   147
1040
0.0
1070
   173
1070
     1
1070
   176
1070
     3
1070
   177
1070
     3
1070
   178
1070
     2
1070
   271
1070
     0
1070
   277
1070
     2
1070
   279
1070
     2
1070
   280
1070
     0
1070
   287
1070
     5
1070
   340
1005
157
1002
}
  0
DIMENSION
  5
24A
330
1F
100
AcDbEntity
  8
図
  6
CONTINUOUS
 62
     3
100
AcDbDimension
  2
*D34
 10
1713.6011061566
 20
767.5
 30
0.0
 11
1683.1011061566
 21
779.2499999701977
 31
0.0
 70
   160
  1
%%c61
  3
ISO-25
100
AcDbAlignedDimension
 13
1652.6011061566
 23
704.1046984901099
 33
0.0
 14
1713.6011061566
 24
704.1046984901099
 34
0.0
100
AcDbRotatedDimension
1001
ACAD
1000
DSTYLE
1002
{
1070
   270
1070
     2
1070
     6
1000
EX_NORM
1070
     7
1000
EX_NORM
1070
    41
1040
15.0
1070
    42
1040
3.499999940395355
1070
    44
1040
5.0
1070
    73
1070
     0
1070
    74
1070
     0
1070
    75
1070
     0
1070
    76
1070
     0
1070
    77
1070
     1
1070
    78
1070
     0
1070
   140
1040
20.0
1070
   147
1040
0.0
1070
   173
1070
     1
1070
   176
1070
     3
1070
   177
1070
     3
1070
   178
1070
     2
1070
   271
1070
     0
1070
   277
1070
     2
1070
   279
1070
     2
1070
   280
1070
     0
1070
   287
1070
     5
1070
   340
1005
157
1002
}
  0
DIMENSION
  5
257
330
1F
100
AcDbEntity
  8
図
  6
CONTINUOUS
 62
     3
100
AcDbDimension
  2
*D35
 10
1724.212338470273
 20
827.0339062465106
 30
0.0
 11
1683.101106156569
 21
844.1963026296985
 31
0.0
 70
   165
  3
ISO-25
100
AcDb3PointAngularDimension
 13
1713.6011061566
 23
704.1046984901072
 33
0.0
 14
1652.6011061566
 24
704.1046984901069
 34
0.0
 15
1683.101106156601
 25
673.6046984901069
 35
0.0
1001
ACAD
1000
DSTYLE
1002
{
1070
   270
1070
     2
1070
     6
1000
EX_NORM
1070
     7
1000
EX_NORM
1070
    41
1040
15.0
1070
    42
1040
3.499999940395319
1070
    44
1040
4.99999999999996
1070
    73
1070
     0
1070
    74
1070
     0
1070
    75
1070
     0
1070
    76
1070
     0
1070
    77
1070
     1
1070
    78
1070
     0
1070
   140
1040
20.0
1070
   147
1040
0.0
1070
   173
1070
     1
1070
   176
1070
     3
1070
   177
1070
     3
1070
   178
1070
     2
1070
   271
1070
     0
1070
   277
1070
     2
1070
   279
1070
     2
1070
   280
1070
     0
1070
   287
1070
     5
1070
   340
1005
157
1002
}
  0
TEXT
  5
265
330
1F
100
AcDbEntity
  8
図
  6
CONTINUOUS
 62
     2
100
AcDbText
 10
329.0000002384186
 20
405.2499999701977
 30
0.0
 40
20.0
  1
２－φ１４
 41
1.013793103448276
  7
EXCADSTD
 72
     5
 11
413.0000002384186
 21
405.2499999701977
 31
0.0
100
AcDbText
  0
LEADER
  5
266
330
1F
100
AcDbEntity
  8
図
  6
CONTINUOUS
 62
     3
100
AcDbLeader
  3
ISO-25
 76
     3
 10
467.35
 20
368.5
 30
0.0
 10
413.0
 20
403.5
 30
0.0
 10
324.5
 20
403.5
 30
0.0
1001
ACAD
1000
DSTYLE
1002
{
1070
     5
1000
EX_NORM
1070
    41
1040
15.0
1070
   341
1005
4A
1002
}
  0
LEADER
  5
267
330
1F
100
AcDbEntity
  8
図
  6
CONTINUOUS
 62
     3
100
AcDbLeader
  3
ISO-25
 76
     3
 10
448.7930958424101
 20
838.735874727
 30
0.0
 10
403.94345887103
 20
864.6298247054801
 30
0.0
 10
331.4
 20
864.6298247054801
 30
0.0
1001
ACAD
1000
DSTYLE
1002
{
1070
     5
1000
EX_NORM
1070
    41
1040
15.0
1070
   341
1005
4A
1002
}
  0
TEXT
  5
268
330
1F
100
AcDbEntity
  8
図
  6
CONTINUOUS
 62
     2
100
AcDbText
 10
335.9434590498441
 20
866.3798246756778
 30
0.0
 40
20.0
  1
２－φ７
 41
1.034782608695652
  7
EXCADSTD
 72
     5
 11
403.9434590498441
 21
866.3798246756778
 31
0.0
100
AcDbText
  0
POLYLINE
  5
269
330
1F
100
AcDbEntity
  8
図
  6
CONTINUOUS
 62
     6
100
AcDb2dPolyline
 66
     1
 10
0.0
 20
0.0
 30
0.0
 70
   128
  0
VERTEX
  5
26A
330
269
100
AcDbEntity
  8
図
  6
CONTINUOUS
 62
     6
100
AcDbVertex
100
AcDb2dVertex
 10
601.1011061565999
 20
1311.8770184901
 30
0.0
  0
VERTEX
  5
26B
330
269
100
AcDbEntity
  8
図
  6
CONTINUOUS
 62
     6
100
AcDbVertex
100
AcDb2dVertex
 10
629.5239061566
 20
1311.8770184901
 30
0.0
  0
SEQEND
  5
26C
330
269
100
AcDbEntity
  8
図
  6
CONTINUOUS
 62
     6
  0
LINE
  5
26D
330
1F
100
AcDbEntity
  8
図
  6
CONTINUOUS
 62
     6
100
AcDbLine
 10
618.6011061565999
 20
1314.793685156767
 30
0.0
 11
601.1011061565999
 21
1311.8770184901
 31
0.0
  0
LINE
  5
26E
330
1F
100
AcDbEntity
  8
図
  6
CONTINUOUS
 62
     6
100
AcDbLine
 10
601.1011061565999
 20
1311.8770184901
 30
0.0
 11
618.6011061565999
 21
1308.960351823433
 31
0.0
  0
TEXT
  5
26F
330
1F
100
AcDbEntity
  8
図
  6
CONTINUOUS
 62
     2
100
AcDbText
 10
558.6011061565997
 20
1196.0835607302
 30
0.0
 40
20.0
  1
Ｏ
 41
1.26
  7
EXCADSTD
 72
     5
 11
576.6011061565997
 21
1196.0835607302
 31
0.0
100
AcDbText
  0
LINE
  5
270
330
1F
100
AcDbEntity
  8
図
  6
CONTINUOUS
 62
     3
100
AcDbLine
 10
799.6793739066
 20
1215.1046984901
 30
0.0
 11
804.2087071958941
 21
1198.200996530041
 31
0.0
  0
LINE
  5
271
330
1F
100
AcDbEntity
  8
図
  6
CONTINUOUS
 62
     3
100
AcDbLine
 10
799.6793739066
 20
1215.1046984901
 30
0.0
 11
799.6793739066
 21
1190.104698490114
 31
0.0
  0
LINE
  5
272
330
1F
100
AcDbEntity
  8
図
  6
CONTINUOUS
 62
     3
100
AcDbLine
 10
799.6793739066
 20
1215.1046984901
 30
0.0
 11
795.1500406173058
 21
1198.200996530041
 31
0.0
  0
POLYLINE
  5
273
330
1F
100
AcDbEntity
  8
図
  6
CONTINUOUS
 62
     6
100
AcDb2dPolyline
 66
     1
 10
0.0
 20
0.0
 30
0.0
 70
   128
  0
VERTEX
  5
274
330
273
100
AcDbEntity
  8
図
  6
CONTINUOUS
 62
     6
100
AcDbVertex
100
AcDb2dVertex
 10
601.1011061565999
 20
1035.7046984901
 30
0.0
  0
VERTEX
  5
275
330
273
100
AcDbEntity
  8
図
  6
CONTINUOUS
 62
     6
100
AcDbVertex
100
AcDb2dVertex
 10
629.5239061566
 20
1035.7046984901
 30
0.0
  0
SEQEND
  5
276
330
273
100
AcDbEntity
  8
図
  6
CONTINUOUS
 62
     6
  0
LINE
  5
277
330
1F
100
AcDbEntity
  8
図
  6
CONTINUOUS
 62
     6
100
AcDbLine
 10
618.6011061565999
 20
1038.621365156767
 30
0.0
 11
601.1011061565999
 21
1035.7046984901
 31
0.0
  0
LINE
  5
278
330
1F
100
AcDbEntity
  8
図
  6
CONTINUOUS
 62
     6
100
AcDbLine
 10
601.1011061565999
 20
1035.7046984901
 30
0.0
 11
618.6011061565999
 21
1032.788031823433
 31
0.0
  0
LINE
  5
279
330
1F
100
AcDbEntity
  8
図
  6
CONTINUOUS
 62
     3
100
AcDbLine
 10
362.6282677499999
 20
1245.1046984901
 30
0.0
 11
362.6282677499999
 21
1220.104698490114
 31
0.0
  0
LINE
  5
27A
330
1F
100
AcDbEntity
  8
図
  6
CONTINUOUS
 62
     3
100
AcDbLine
 10
362.6282677499999
 20
1245.1046984901
 30
0.0
 11
358.0989344607057
 21
1228.200996530041
 31
0.0
  0
LINE
  5
27B
330
1F
100
AcDbEntity
  8
図
  6
CONTINUOUS
 62
     3
100
AcDbLine
 10
362.6282677499999
 20
1245.1046984901
 30
0.0
 11
367.1576010392941
 21
1228.200996530041
 31
0.0
  0
LINE
  5
27C
330
1F
100
AcDbEntity
  8
図
  6
CONTINUOUS
 62
     4
100
AcDbLine
 10
616.1011061565998
 20
1259.736523204207
 30
0.0
 11
662.1011061565998
 21
1265.909089773507
 31
0.0
  0
LINE
  5
27D
330
1F
100
AcDbEntity
  8
図
  6
CONTINUOUS
 62
     4
100
AcDbLine
 10
672.1011061565998
 20
1255.909089773507
 30
0.0
 11
626.1011061565998
 21
1249.736523204207
 31
0.0
  0
LINE
  5
27E
330
1F
100
AcDbEntity
  8
図
  6
CONTINUOUS
 62
     4
100
AcDbLine
 10
616.1011061565996
 20
1259.736523204207
 30
0.0
 11
506.1011061566005
 21
1259.736523204207
 31
0.0
  0
LINE
  5
27F
330
1F
100
AcDbEntity
  8
図
  6
CONTINUOUS
 62
     4
100
AcDbLine
 10
441.6011061566
 20
1265.909089773507
 30
0.0
 11
506.1011061565999
 21
1259.736523204207
 31
0.0
  0
LINE
  5
280
330
1F
100
AcDbEntity
  8
図
  6
CONTINUOUS
 62
     4
100
AcDbLine
 10
431.6011061566
 20
1255.909089773507
 30
0.0
 11
496.1011061565999
 21
1249.736523204207
 31
0.0
  0
LINE
  5
281
330
1F
100
AcDbEntity
  8
図
  6
CONTINUOUS
 62
     4
100
AcDbLine
 10
431.6011061566
 20
1118.222282576857
 30
0.0
 11
496.1011061565999
 21
1165.104698490107
 31
0.0
  0
LINE
  5
282
330
1F
100
AcDbEntity
  8
図
  6
CONTINUOUS
 62
     4
100
AcDbLine
 10
443.12623178474
 20
1106.231682327877
 30
0.0
 11
506.1011061565999
 21
1155.104698490107
 31
0.0
  0
ARC
  5
283
330
1F
100
AcDbEntity
  8
図
  6
CONTINUOUS
 62
     4
100
AcDbCircle
 10
616.1011061565998
 20
1165.104698490107
 30
0.0
 40
10.0
100
AcDbArc
 50
270.0000000000002
 51
0.0
  0
LINE
  5
284
330
1F
100
AcDbEntity
  8
図
  6
CONTINUOUS
 62
     4
100
AcDbLine
 10
616.1011061565998
 20
1155.104698490107
 30
0.0
 11
506.1011061566005
 21
1155.104698490107
 31
0.0
  0
ARC
  5
285
330
1F
100
AcDbEntity
  8
図
  6
CONTINUOUS
 62
     4
100
AcDbCircle
 10
506.1011061566005
 20
1165.104698490107
 30
0.0
 40
10.0
100
AcDbArc
 50
180.0
 51
270.0000000000002
  0
LINE
  5
286
330
1F
100
AcDbEntity
  8
図
  6
CONTINUOUS
 62
     4
100
AcDbLine
 10
672.1011061565998
 20
1113.571953428227
 30
0.0
 11
626.1011061565998
 21
1165.104698490107
 31
0.0
  0
LINE
  5
287
330
1F
100
AcDbEntity
  8
図
  6
CONTINUOUS
 62
     4
100
AcDbLine
 10
616.1011061565998
 20
1155.104698490107
 30
0.0
 11
662.2542955086798
 21
1103.573126845957
 31
0.0
  0
ARC
  5
288
330
1F
100
AcDbEntity
  8
図
  6
CONTINUOUS
 62
     4
100
AcDbCircle
 10
616.1011061565996
 20
1249.736523204207
 30
0.0
 40
10.0
100
AcDbArc
 50
0.0
 51
90.00000000000001
  0
LINE
  5
289
330
1F
100
AcDbEntity
  8
図
  6
CONTINUOUS
 62
     4
100
AcDbLine
 10
626.1011061565998
 20
1165.104698490107
 30
0.0
 11
626.1011061565998
 21
1249.736523204207
 31
0.0
  0
LINE
  5
28A
330
1F
100
AcDbEntity
  8
図
  6
CONTINUOUS
 62
     4
100
AcDbLine
 10
496.1011061566005
 20
1249.736523204207
 30
0.0
 11
496.1011061566005
 21
1165.104698490107
 31
0.0
  0
ARC
  5
28B
330
1F
100
AcDbEntity
  8
図
  6
CONTINUOUS
 62
     4
100
AcDbCircle
 10
506.1011061566005
 20
1249.736523204207
 30
0.0
 40
10.0
100
AcDbArc
 50
90.00000000000001
 51
180.0
  0
LINE
  5
28C
330
1F
100
AcDbEntity
  8
図
  6
CONTINUOUS
 62
     2
100
AcDbLine
 10
350.0500000000001
 20
1245.1046984901
 30
0.0
 11
375.7999999999997
 21
1245.1046984901
 31
0.0
  0
LINE
  5
28D
330
1F
100
AcDbEntity
  8
図
  6
CONTINUOUS
 62
     4
100
AcDbLine
 10
761.1011061565998
 20
488.104698490107
 30
0.0
 11
759.3925634430299
 21
509.9714481516569
 31
0.0
  0
LINE
  5
28E
330
1F
100
AcDbEntity
  8
図
  6
CONTINUOUS
 62
     4
100
AcDbLine
 10
778.6011061565998
 20
489.9871144033569
 30
0.0
 11
771.1011061565998
 21
478.104698490107
 31
0.0
  0
LINE
  5
28F
330
1F
100
AcDbEntity
  8
図
  6
CONTINUOUS
 62
     4
100
AcDbLine
 10
441.1011061565999
 20
488.104698490107
 30
0.0
 11
442.8096488701699
 21
509.9714481516569
 31
0.0
  0
LINE
  5
290
330
1F
100
AcDbEntity
  8
図
  6
CONTINUOUS
 62
     4
100
AcDbLine
 10
423.6011061565999
 20
489.9871144033569
 30
0.0
 11
431.1011061565999
 21
478.104698490107
 31
0.0
  0
CIRCLE
  5
291
330
1F
100
AcDbEntity
  8
図
  6
CONTINUOUS
 62
     7
100
AcDbCircle
 10
576.1011061565998
 20
1215.104698490107
 30
0.0
 40
30.50000000000002
  0
CIRCLE
  5
292
330
1F
100
AcDbEntity
  8
図
  6
CONTINUOUS
 62
     7
100
AcDbCircle
 10
576.1011061565998
 20
1215.104698490107
 30
0.0
 40
20.50000000000002
  0
LINE
  5
293
330
1F
100
AcDbEntity
  8
図
  6
CONTINUOUS
 62
     7
100
AcDbLine
 10
576.1011061565998
 20
1259.736523204207
 30
0.0
 11
581.1011061565998
 21
1259.736523204207
 31
0.0
  0
LINE
  5
294
330
1F
100
AcDbEntity
  8
図
  6
CONTINUOUS
 62
     7
100
AcDbLine
 10
425.1011061565999
 20
1274.104698490107
 30
0.0
 11
425.1011061565999
 21
1290.104698490107
 31
0.0
  0
ARC
  5
295
330
1F
100
AcDbEntity
  8
図
  6
CONTINUOUS
 62
     7
100
AcDbCircle
 10
427.6011061565999
 20
1274.104698490107
 30
0.0
 40
4.0
100
AcDbArc
 50
180.0
 51
270.0000000000002
  0
ARC
  5
296
330
1F
100
AcDbEntity
  8
図
  6
CONTINUOUS
 62
     7
100
AcDbCircle
 10
429.1011061566
 20
1274.104698490107
 30
0.0
 40
4.0
100
AcDbArc
 50
180.0
 51
270.0000000000002
  0
LINE
  5
297
330
1F
100
AcDbEntity
  8
図
  6
CONTINUOUS
 62
     7
100
AcDbLine
 10
423.6011061565999
 20
1290.104698490107
 30
0.0
 11
778.6011061566002
 21
1290.104698490107
 31
0.0
  0
LINE
  5
298
330
1F
100
AcDbEntity
  8
図
  6
CONTINUOUS
 62
     7
100
AcDbLine
 10
777.1011061565998
 20
1274.104698490107
 30
0.0
 11
777.1011061565998
 21
1290.104698490107
 31
0.0
  0
ARC
  5
299
330
1F
100
AcDbEntity
  8
図
  6
CONTINUOUS
 62
     7
100
AcDbCircle
 10
774.6011061565998
 20
1274.104698490107
 30
0.0
 40
4.0
100
AcDbArc
 50
270.0000000000002
 51
0.0
  0
ARC
  5
29A
330
1F
100
AcDbEntity
  8
図
  6
CONTINUOUS
 62
     7
100
AcDbCircle
 10
773.1011061566
 20
1274.104698490107
 30
0.0
 40
4.0
100
AcDbArc
 50
270.0000000000002
 51
0.0
  0
LINE
  5
29B
330
1F
100
AcDbEntity
  8
図
  6
CONTINUOUS
 62
     7
100
AcDbLine
 10
427.6011061565999
 20
1270.104698490107
 30
0.0
 11
774.6011061565998
 21
1270.104698490107
 31
0.0
  0
CIRCLE
  5
29C
330
1F
100
AcDbEntity
  8
図
  6
CONTINUOUS
 62
     7
100
AcDbCircle
 10
713.1011061566
 20
1215.104698490107
 30
0.0
 40
13.00000000000001
  0
LINE
  5
29D
330
1F
100
AcDbEntity
  8
図
  6
CONTINUOUS
 62
     7
100
AcDbLine
 10
423.6011061565999
 20
1290.104698490107
 30
0.0
 11
423.6011061565999
 21
1118.22228257686
 31
0.0
  0
LINE
  5
29E
330
1F
100
AcDbEntity
  8
図
  6
CONTINUOUS
 62
     7
100
AcDbLine
 10
778.6011061565998
 20
1290.104698490107
 30
0.0
 11
778.6011061565998
 21
1118.22228257686
 31
0.0
  0
ARC
  5
29F
330
1F
100
AcDbEntity
  8
図
  6
CONTINUOUS
 62
     7
100
AcDbCircle
 10
441.6011061566
 20
1255.909089773507
 30
0.0
 40
10.0
100
AcDbArc
 50
90.00000000000001
 51
180.0
  0
LINE
  5
2A0
330
1F
100
AcDbEntity
  8
図
  6
CONTINUOUS
 62
     7
100
AcDbLine
 10
431.6011061566
 20
1255.909089773507
 30
0.0
 11
431.6011061566
 21
1118.22228257686
 31
0.0
  0
ARC
  5
2A1
330
1F
100
AcDbEntity
  8
図
  6
CONTINUOUS
 62
     7
100
AcDbCircle
 10
443.601106156599
 20
1118.22228257686
 30
0.0
 40
12.00000000000001
100
AcDbArc
 50
180.0
 51
267.7320496888569
  0
ARC
  5
2A2
330
1F
100
AcDbEntity
  8
図
  6
CONTINUOUS
 62
     7
100
AcDbCircle
 10
443.601106156599
 20
1118.22228257686
 30
0.0
 40
20.0
100
AcDbArc
 50
180.0
 51
267.7320496888576
  0
ARC
  5
2A3
330
1F
100
AcDbEntity
  8
図
  6
CONTINUOUS
 62
     7
100
AcDbCircle
 10
601.1011061565998
 20
5095.104698490111
 30
0.0
 40
3992.000000000003
100
AcDbArc
 50
267.7320496888586
 51
272.2679503111416
  0
ARC
  5
2A4
330
1F
100
AcDbEntity
  8
図
  6
CONTINUOUS
 62
     7
100
AcDbCircle
 10
601.1011061565998
 20
5095.104698490111
 30
0.0
 40
4000.000000000002
100
AcDbArc
 50
267.7320496888586
 51
272.2679503111416
  0
ARC
  5
2A5
330
1F
100
AcDbEntity
  8
図
  6
CONTINUOUS
 62
     7
100
AcDbCircle
 10
758.6011061565993
 20
1118.22228257686
 30
0.0
 40
12.00000000000001
100
AcDbArc
 50
272.267950311142
 51
0.0
  0
ARC
  5
2A6
330
1F
100
AcDbEntity
  8
図
  6
CONTINUOUS
 62
     7
100
AcDbCircle
 10
758.6011061565993
 20
1118.22228257686
 30
0.0
 40
20.0
100
AcDbArc
 50
272.2679503111423
 51
0.0
  0
ARC
  5
2A7
330
1F
100
AcDbEntity
  8
図
  6
CONTINUOUS
 62
     7
100
AcDbCircle
 10
662.1011061565989
 20
1113.571953428228
 30
0.0
 40
10.0
100
AcDbArc
 50
270.8777446663842
 51
0.0
  0
ARC
  5
2A8
330
1F
100
AcDbEntity
  8
図
  6
CONTINUOUS
 62
     7
100
AcDbCircle
 10
662.1011061565998
 20
1255.909089773507
 30
0.0
 40
10.0
100
AcDbArc
 50
0.0
 51
90.00000000000001
  0
LINE
  5
2A9
330
1F
100
AcDbEntity
  8
図
  6
CONTINUOUS
 62
     7
100
AcDbLine
 10
672.1011061565998
 20
1113.571953428228
 30
0.0
 11
672.1011061565998
 21
1255.909089773507
 31
0.0
  0
ARC
  5
2AA
330
1F
100
AcDbEntity
  8
図
  6
CONTINUOUS
 62
     7
100
AcDbCircle
 10
760.6011061566
 20
1255.909089773507
 30
0.0
 40
10.0
100
AcDbArc
 50
0.0
 51
90.00000000000001
  0
LINE
  5
2AB
330
1F
100
AcDbEntity
  8
図
  6
CONTINUOUS
 62
     7
100
AcDbLine
 10
770.6011061566
 20
1255.909089773507
 30
0.0
 11
770.6011061566
 21
1118.22228257686
 31
0.0
  0
LINE
  5
2AC
330
1F
100
AcDbEntity
  8
図
  6
CONTINUOUS
 62
     7
100
AcDbLine
 10
576.1011061565998
 20
1259.736523204207
 30
0.0
 11
576.1011061565998
 21
1254.736523204207
 31
0.0
  0
LINE
  5
2AD
330
1F
100
AcDbEntity
  8
図
  6
CONTINUOUS
 62
     7
100
AcDbLine
 10
601.1011061565998
 20
1259.736523204207
 30
0.0
 11
596.1011061565998
 21
1259.736523204207
 31
0.0
  0
LINE
  5
2AE
330
1F
100
AcDbEntity
  8
図
  6
CONTINUOUS
 62
     7
100
AcDbLine
 10
601.1011061565998
 20
1259.736523204207
 30
0.0
 11
601.1011061565998
 21
1264.736523204207
 31
0.0
  0
LINE
  5
2AF
330
1F
100
AcDbEntity
  8
図
  6
CONTINUOUS
 62
     7
100
AcDbLine
 10
483.543016401337
 20
689.1046984901097
 30
0.0
 11
454.1010729607601
 21
689.1046984901101
 31
0.0
  0
ARC
  5
2B0
330
1F
100
AcDbEntity
  8
図
  6
CONTINUOUS
 62
     7
100
AcDbCircle
 10
483.543016401337
 20
686.1046984901096
 30
0.0
 40
3.000000000000003
100
AcDbArc
 50
5.191654837999438
 51
90.00000000000001
  0
ARC
  5
2B1
330
1F
100
AcDbEntity
  8
図
  6
CONTINUOUS
 62
     7
100
AcDbCircle
 10
497.277538636953
 20
686.1046984901096
 30
0.0
 40
3.000000000000003
100
AcDbArc
 50
90.00000000000001
 51
178.0000000000051
  0
LINE
  5
2B2
330
1F
100
AcDbEntity
  8
図
  6
CONTINUOUS
 62
     7
100
AcDbLine
 10
497.277538636953
 20
689.1046984901097
 30
0.0
 11
546.2478974771516
 21
689.1046984901097
 31
0.0
  0
LINE
  5
2B3
330
1F
100
AcDbEntity
  8
図
  6
CONTINUOUS
 62
     7
100
AcDbLine
 10
605.9543148360484
 20
689.1046984901097
 30
0.0
 11
625.924640480407
 21
689.1046984901097
 31
0.0
  0
ARC
  5
2B4
330
1F
100
AcDbEntity
  8
図
  6
CONTINUOUS
 62
     7
100
AcDbCircle
 10
625.924640480407
 20
686.1046984901096
 30
0.0
 40
3.000000000000003
100
AcDbArc
 50
2.000000000020993
 51
90.00000000000001
  0
LINE
  5
2B5
330
1F
100
AcDbEntity
  8
図
  6
CONTINUOUS
 62
     7
100
AcDbLine
 10
628.999966804127
 20
683.9999999999998
 30
0.0
 11
628.9228129614644
 21
686.2093969802182
 31
0.0
  0
ARC
  5
2B6
330
1F
100
AcDbEntity
  8
図
  6
CONTINUOUS
 62
     7
100
AcDbCircle
 10
631.998139285184
 20
684.1046984901097
 30
0.0
 40
3.000000000000003
100
AcDbArc
 50
182.000000000021
 51
270.0000000000002
  0
LINE
  5
2B7
330
1F
100
AcDbEntity
  8
図
  6
CONTINUOUS
 62
     7
100
AcDbLine
 10
631.9981392851801
 20
681.1046984901119
 30
0.0
 11
633.45272630515
 21
681.1046984901151
 31
0.0
  0
ARC
  5
2B8
330
1F
100
AcDbEntity
  8
図
  6
CONTINUOUS
 62
     7
100
AcDbCircle
 10
633.4527263051466
 20
684.1046984901097
 30
0.0
 40
3.000000000000003
100
AcDbArc
 50
270.0000000000002
 51
352.8749836511261
  0
LINE
  5
2B9
330
1F
100
AcDbEntity
  8
図
  6
CONTINUOUS
 62
     7
100
AcDbLine
 10
636.7725859862285
 20
686.4768026938801
 30
0.0
 11
636.429559935285
 21
683.7325942863404
 31
0.0
  0
ARC
  5
2BA
330
1F
100
AcDbEntity
  8
図
  6
CONTINUOUS
 62
     7
100
AcDbCircle
 10
639.749419616372
 20
686.1046984901096
 30
0.0
 40
3.000000000000003
100
AcDbArc
 50
90.00000000000001
 51
172.874983651091
  0
ARC
  5
2BB
330
1F
100
AcDbEntity
  8
図
  6
CONTINUOUS
 62
     7
100
AcDbCircle
 10
662.452726305148
 20
686.1046984901096
 30
0.0
 40
3.000000000000003
100
AcDbArc
 50
7.125016348902575
 51
90.00000000000001
  0
LINE
  5
2BC
330
1F
100
AcDbEntity
  8
図
  6
CONTINUOUS
 62
     7
100
AcDbLine
 10
665.4295599352789
 20
686.4768026938784
 30
0.0
 11
665.7725859862338
 21
683.7325942863401
 31
0.0
  0
ARC
  5
2BD
330
1F
100
AcDbEntity
  8
図
  6
CONTINUOUS
 62
     7
100
AcDbCircle
 10
668.7494196163667
 20
684.1046984901097
 30
0.0
 40
3.000000000000003
100
AcDbArc
 50
187.125016349012
 51
270.0000000000002
  0
LINE
  5
2BE
330
1F
100
AcDbEntity
  8
図
  6
CONTINUOUS
 62
     7
100
AcDbLine
 10
668.74941961637
 20
681.1046984901
 30
0.0
 11
670.2040066363401
 21
681.1046984901096
 31
0.0
  0
ARC
  5
2BF
330
1F
100
AcDbEntity
  8
図
  6
CONTINUOUS
 62
     7
100
AcDbCircle
 10
670.2040066363389
 20
684.1046984901097
 30
0.0
 40
3.000000000000003
100
AcDbArc
 50
270.0000000000002
 51
358.0000000000007
  0
LINE
  5
2C0
330
1F
100
AcDbEntity
  8
図
  6
CONTINUOUS
 62
     7
100
AcDbLine
 10
673.2793329600634
 20
686.209396980372
 30
0.0
 11
673.202179117396
 21
684.0
 31
0.0
  0
ARC
  5
2C1
330
1F
100
AcDbEntity
  8
図
  6
CONTINUOUS
 62
     7
100
AcDbCircle
 10
676.2775054411208
 20
686.1046984902642
 30
0.0
 40
3.000000000000003
100
AcDbArc
 50
90.00000000000001
 51
177.9999999999943
  0
LINE
  5
2C2
330
1F
100
AcDbEntity
  8
図
  6
CONTINUOUS
 62
     7
100
AcDbLine
 10
676.2775054411208
 20
689.1046984902704
 30
0.0
 11
754.9981724810203
 21
689.1046984901038
 31
0.0
  0
LINE
  5
2C3
330
1F
100
AcDbEntity
  8
図
  6
CONTINUOUS
 62
     7
100
AcDbLine
 10
429.0083874943433
 20
861.1046984901068
 30
0.0
 11
773.1938248188565
 21
861.1046984901068
 31
0.0
  0
LINE
  5
2C4
330
1F
100
AcDbEntity
  8
図
  6
CONTINUOUS
 62
     7
100
AcDbLine
 10
425.0094872854679
 20
857.198491450697
 30
0.0
 11
423.6022059477245
 21
797.1984914506978
 31
0.0
  0
ARC
  5
2C5
330
1F
100
AcDbEntity
  8
図
  6
CONTINUOUS
 62
     7
100
AcDbCircle
 10
429.0083874943433
 20
857.1046984901069
 30
0.0
 40
4.0
100
AcDbArc
 50
90.00000000000001
 51
178.6563916595597
  0
LINE
  5
2C6
330
1F
100
AcDbEntity
  8
図
  6
CONTINUOUS
 62
     7
100
AcDbLine
 10
777.1927250277322
 20
857.198491450697
 30
0.0
 11
778.6000063654755
 21
797.1984914506978
 31
0.0
  0
ARC
  5
2C7
330
1F
100
AcDbEntity
  8
図
  6
CONTINUOUS
 62
     7
100
AcDbCircle
 10
773.1938248188565
 20
857.1046984901069
 30
0.0
 40
4.0
100
AcDbArc
 50
1.343608340440408
 51
90.00000000000001
  0
CIRCLE
  5
2C8
330
1F
100
AcDbEntity
  8
図
  6
CONTINUOUS
 62
     7
100
AcDbCircle
 10
451.1011061565999
 20
836.1046984901071
 30
0.0
 40
3.500000000000002
  0
CIRCLE
  5
2C9
330
1F
100
AcDbEntity
  8
図
  6
CONTINUOUS
 62
     7
100
AcDbCircle
 10
751.1011061565998
 20
836.1046984901071
 30
0.0
 40
3.500000000000002
  0
LINE
  5
2CA
330
1F
100
AcDbEntity
  8
図
  6
CONTINUOUS
 62
     7
100
AcDbLine
 10
751.9999999999595
 20
692.0000000000001
 30
0.0
 11
748.766256156161
 21
784.6023077630781
 31
0.0
  0
LINE
  5
2CB
330
1F
100
AcDbEntity
  8
図
  6
CONTINUOUS
 62
     7
100
AcDbLine
 10
423.6094591737038
 20
796.8463298311434
 30
0.0
 11
430.7983738896708
 21
685.7817376663999
 31
0.0
  0
LINE
  5
2CC
330
1F
100
AcDbEntity
  8
図
  6
CONTINUOUS
 62
     7
100
AcDbLine
 10
431.3055082183001
 20
786.3190818283837
 30
0.0
 11
437.2152066341574
 21
695.0176447817018
 31
0.0
  0
ARC
  5
2CD
330
1F
100
AcDbEntity
  8
図
  6
CONTINUOUS
 62
     7
100
AcDbCircle
 10
1260.994962079927
 20
1356.989223110365
 30
0.0
 40
1007.000000000001
100
AcDbArc
 50
214.520649645017
 51
219.8928479427325
  0
ARC
  5
2CE
330
1F
100
AcDbEntity
  8
図
  6
CONTINUOUS
 62
     7
100
AcDbCircle
 10
1260.994962079927
 20
1356.989223110365
 30
0.0
 40
1000.000000000001
100
AcDbArc
 50
213.8937046932467
 51
219.8928479427323
  0
ARC
  5
2CF
330
1F
100
AcDbEntity
  8
図
  6
CONTINUOUS
 62
     7
100
AcDbCircle
 10
427.6011061565999
 20
797.1046984901099
 30
0.0
 40
4.0
100
AcDbArc
 50
33.89370469325148
 51
183.703436694258
  0
ARC
  5
2D0
330
1F
100
AcDbEntity
  8
図
  6
CONTINUOUS
 62
     7
100
AcDbCircle
 10
-221.8452640260153
 20
1242.914909097459
 30
0.0
 40
1007.000000000001
100
AcDbArc
 50
328.1648554308288
 51
332.2506452047674
  0
ARC
  5
2D1
330
1F
100
AcDbEntity
  8
図
  6
CONTINUOUS
 62
     7
100
AcDbCircle
 10
-221.8452640260153
 20
1242.914909097459
 30
0.0
 40
1000.000000000001
100
AcDbArc
 50
328.1648554308288
 51
333.2378606000024
  0
ARC
  5
2D2
330
1F
100
AcDbEntity
  8
図
  6
CONTINUOUS
 62
     7
100
AcDbCircle
 10
674.6098301009142
 20
790.8261299689804
 30
0.0
 40
4.0
100
AcDbArc
 50
91.99999999999545
 51
153.2378606000027
  0
LINE
  5
2D3
330
1F
100
AcDbEntity
  8
図
  6
CONTINUOUS
 62
     7
100
AcDbLine
 10
768.4957061450111
 20
798.1071351820432
 30
0.0
 11
674.4702321141001
 21
794.8236932770567
 31
0.0
  0
ARC
  5
2D4
330
1F
100
AcDbEntity
  8
図
  6
CONTINUOUS
 62
     7
100
AcDbCircle
 10
679.6260970510134
 20
781.9958159721645
 30
0.0
 40
3.000000000000003
100
AcDbArc
 50
91.99999999999929
 51
178.0000000000007
  0
LINE
  5
2D5
330
1F
100
AcDbEntity
  8
図
  6
CONTINUOUS
 62
     7
100
AcDbLine
 10
700.1090254053522
 20
795.7190196676273
 30
0.0
 11
700.4580203723772
 21
785.7251113974365
 31
0.0
  0
LINE
  5
2D6
330
1F
100
AcDbEntity
  8
図
  6
CONTINUOUS
 62
     7
100
AcDbLine
 10
726.0931869078479
 20
796.6264065818924
 30
0.0
 11
726.442181874873
 21
786.6324983117016
 31
0.0
  0
ARC
  5
2D7
330
1F
100
AcDbEntity
  8
図
  6
CONTINUOUS
 62
     7
100
AcDbCircle
 10
745.7747825368887
 20
784.3057789701994
 30
0.0
 40
3.000000000000003
100
AcDbArc
 50
2.000000000005868
 51
92.00000000000571
  0
ARC
  5
2D8
330
1F
100
AcDbEntity
  8
図
  6
CONTINUOUS
 62
     7
100
AcDbCircle
 10
745.7747825368887
 20
784.3057789701994
 30
0.0
 40
10.00000000000001
100
AcDbArc
 50
2.000000000000997
 51
38.86989764584832
  0
LINE
  5
2D9
330
1F
100
AcDbEntity
  8
図
  6
CONTINUOUS
 62
     7
100
AcDbLine
 10
753.5605121728261
 20
790.5813199059345
 30
0.0
 11
768.7400026219286
 21
791.1113993929099
 31
0.0
  0
ARC
  5
2DA
330
1F
100
AcDbEntity
  8
図
  6
CONTINUOUS
 62
     7
100
AcDbCircle
 10
768.3561081582016
 20
802.1046984901099
 30
0.0
 40
11.0
100
AcDbArc
 50
270.0000000000002
 51
285.1515675273768
  0
LINE
  5
2DB
330
1F
100
AcDbEntity
  8
図
  6
CONTINUOUS
 62
     7
100
AcDbLine
 10
765.0067000781112
 20
695.3219119050189
 30
0.0
 11
771.2312150161683
 21
791.4870829124353
 31
0.0
  0
LINE
  5
2DC
330
1F
100
AcDbEntity
  8
図
  6
CONTINUOUS
 62
     7
100
AcDbLine
 10
755.7686908070793
 20
784.6547739372245
 30
0.0
 11
758.861464645099
 21
696.0893189649173
 31
0.0
  0
LINE
  5
2DD
330
1F
100
AcDbEntity
  8
図
  6
CONTINUOUS
 62
     7
100
AcDbLine
 10
778.5927531394959
 20
796.8463298311434
 30
0.0
 11
771.4038384235295
 21
685.7817376663999
 31
0.0
  0
ARC
  5
2DE
330
1F
100
AcDbEntity
  8
図
  6
CONTINUOUS
 62
     7
100
AcDbCircle
 10
768.3561081582016
 20
802.1046984901099
 30
0.0
 40
4.0
100
AcDbArc
 50
270.0000000000002
 51
321.317812546511
  0
ARC
  5
2DF
330
1F
100
AcDbEntity
  8
図
  6
CONTINUOUS
 62
     7
100
AcDbCircle
 10
774.6011061565998
 20
797.1046984901099
 30
0.0
 40
4.0
100
AcDbArc
 50
356.296563305742
 51
141.3178125465091
  0
LINE
  5
2E0
330
1F
100
AcDbEntity
  8
図
  6
CONTINUOUS
 62
     7
100
AcDbLine
 10
679.5213985609098
 20
784.9939884532223
 30
0.0
 11
745.6700840467809
 21
787.3039514512569
 31
0.0
  0
LINE
  5
2E1
330
1F
100
AcDbEntity
  8
図
  6
CONTINUOUS
 62
     7
100
AcDbLine
 10
669.3425668062744
 20
774.0511227197533
 30
0.0
 11
666.6206176930446
 21
696.1046984901095
 31
0.0
  0
LINE
  5
2E2
330
1F
100
AcDbEntity
  8
図
  6
CONTINUOUS
 62
     7
100
AcDbLine
 10
545.6011061566003
 20
704.1046984901097
 30
0.0
 11
606.6011061566
 21
704.1046984901097
 31
0.0
  0
LINE
  5
2E3
330
1F
100
AcDbEntity
  8
図
  6
CONTINUOUS
 62
     7
100
AcDbLine
 10
555.1011061566012
 20
694.6046984901085
 30
0.0
 11
545.6011061566
 21
704.1046984901097
 31
0.0
  0
LINE
  5
2E4
330
1F
100
AcDbEntity
  8
図
  6
CONTINUOUS
 62
     7
100
AcDbLine
 10
597.1011061565996
 20
694.6046984901093
 30
0.0
 11
606.6011061566003
 21
704.1046984901097
 31
0.0
  0
LINE
  5
2E5
330
1F
100
AcDbEntity
  8
図
  6
CONTINUOUS
 62
     7
100
AcDbLine
 10
555.1011061566
 20
694.6046984901099
 30
0.0
 11
597.1011061566
 21
694.6046984901099
 31
0.0
  0
LINE
  5
2E6
330
1F
100
AcDbEntity
  8
図
  6
CONTINUOUS
 62
     7
100
AcDbLine
 10
555.1011061566
 20
694.6046984901099
 30
0.0
 11
555.6011061566
 21
686.1046984901096
 31
0.0
  0
LINE
  5
2E7
330
1F
100
AcDbEntity
  8
図
  6
CONTINUOUS
 62
     7
100
AcDbLine
 10
597.1011061565996
 20
694.6046984901099
 30
0.0
 11
596.6011061565996
 21
686.1046984901096
 31
0.0
  0
ARC
  5
2E8
330
1F
100
AcDbEntity
  8
図
  6
CONTINUOUS
 62
     7
100
AcDbCircle
 10
603.4206389727226
 20
688.1046984901095
 30
0.0
 40
2.0
100
AcDbArc
 50
270.0000000000002
 51
350.0762107258795
  0
ARC
  5
2E9
330
1F
100
AcDbEntity
  8
図
  6
CONTINUOUS
 62
     7
100
AcDbCircle
 10
610.2417024324002
 20
686.5320913303108
 30
0.0
 40
5.0
100
AcDbArc
 50
135.0000000000037
 51
167.0172221033887
  0
ARC
  5
2EA
330
1F
100
AcDbEntity
  8
図
  6
CONTINUOUS
 62
     7
100
AcDbCircle
 10
541.9605098807999
 20
686.5320913303108
 30
0.0
 40
5.0
100
AcDbArc
 50
12.98277789661123
 51
44.99999999999632
  0
LINE
  5
2EB
330
1F
100
AcDbEntity
  8
図
  6
CONTINUOUS
 62
     7
100
AcDbLine
 10
540.7595374618882
 20
694.804131561088
 30
0.0
 11
545.4960437867339
 21
690.0676252362435
 31
0.0
  0
LINE
  5
2EC
330
1F
100
AcDbEntity
  8
図
  6
CONTINUOUS
 62
     7
100
AcDbLine
 10
548.78157334048
 20
686.10469849011
 30
0.0
 11
603.4206389727201
 21
686.1046984901096
 31
0.0
  0
ARC
  5
2ED
330
1F
100
AcDbEntity
  8
図
  6
CONTINUOUS
 62
     7
100
AcDbCircle
 10
623.6029887332963
 20
695.2806892594094
 30
0.0
 40
5.0
100
AcDbArc
 50
1.999999999971032
 51
114.1132539676477
  0
LINE
  5
2EE
330
1F
100
AcDbEntity
  8
図
  6
CONTINUOUS
 62
     7
100
AcDbLine
 10
628.7182765717682
 20
692.0665528410799
 30
0.0
 11
628.599942868394
 21
695.45518674292
 31
0.0
  0
LINE
  5
2EF
330
1F
100
AcDbEntity
  8
図
  6
CONTINUOUS
 62
     7
100
AcDbLine
 10
612.3688562814393
 20
695.7303129912157
 30
0.0
 11
621.5602806774903
 21
699.8443877374793
 31
0.0
  0
ARC
  5
2F0
330
1F
100
AcDbEntity
  8
図
  6
CONTINUOUS
 62
     7
100
AcDbCircle
 10
499.6583308342339
 20
696.9742501697868
 30
0.0
 40
5.0
100
AcDbArc
 50
80.00000000000007
 51
178.0000000000067
  0
LINE
  5
2F1
330
1F
100
AcDbEntity
  8
図
  6
CONTINUOUS
 62
     7
100
AcDbLine
 10
540.7595374618893
 20
694.8041315610863
 30
0.0
 11
500.5265717225686
 21
701.8982889348481
 31
0.0
  0
ARC
  5
2F2
330
1F
100
AcDbEntity
  8
図
  6
CONTINUOUS
 62
     7
100
AcDbCircle
 10
499.6583308342339
 20
696.9742501697868
 30
0.0
 40
12.00000000000001
100
AcDbArc
 50
121.8980583928099
 51
177.999999999986
  0
LINE
  5
2F3
330
1F
100
AcDbEntity
  8
図
  6
CONTINUOUS
 62
     7
100
AcDbLine
 10
545.6011061566007
 20
704.1046984901143
 30
0.0
 11
499.6857164258832
 21
712.2008205293857
 31
0.0
  0
LINE
  5
2F4
330
1F
100
AcDbEntity
  8
図
  6
CONTINUOUS
 62
     7
100
AcDbLine
 10
494.202212313234
 20
683.9999999999998
 30
0.0
 11
494.6613766991384
 21
697.1487476532988
 31
0.0
  0
LINE
  5
2F5
330
1F
100
AcDbEntity
  8
図
  6
CONTINUOUS
 62
     7
100
AcDbLine
 10
606.6011061566101
 20
704.10469849012
 30
0.0
 11
623.313763566743
 21
711.5852715581573
 31
0.0
  0
ARC
  5
2F6
330
1F
100
AcDbEntity
  8
図
  6
CONTINUOUS
 62
     7
100
AcDbCircle
 10
754.9981724810171
 20
692.1046984901099
 30
0.0
 40
3.000000000000003
100
AcDbArc
 50
181.9999999999993
 51
270.0000000000002
  0
ARC
  5
2F7
330
1F
100
AcDbEntity
  8
図
  6
CONTINUOUS
 62
     7
100
AcDbCircle
 10
441.749452812212
 20
686.10469849011
 30
0.0
 40
3.000000000000003
100
AcDbArc
 50
90.00000000000001
 51
172.8749836511039
  0
ARC
  5
2F8
330
1F
100
AcDbEntity
  8
図
  6
CONTINUOUS
 62
     7
100
AcDbCircle
 10
435.7879326182911
 20
686.1046984901096
 30
0.0
 40
5.0
100
AcDbArc
 50
183.7034366942188
 51
270.0000000000002
  0
ARC
  5
2F9
330
1F
100
AcDbEntity
  8
図
  6
CONTINUOUS
 62
     7
100
AcDbCircle
 10
436.3355417195219
 20
683.1046984901095
 30
0.0
 40
2.0
100
AcDbArc
 50
270.0000000000002
 51
352.8749836512071
  0
ARC
  5
2FA
330
1F
100
AcDbEntity
  8
図
  6
CONTINUOUS
 62
     7
100
AcDbCircle
 10
441.749452812212
 20
686.10469849011
 30
0.0
 40
10.00000000000001
100
AcDbArc
 50
90.00000000000001
 51
116.9636170964983
  0
ARC
  5
2FB
330
1F
100
AcDbEntity
  8
図
  6
CONTINUOUS
 62
     7
100
AcDbCircle
 10
491.2040398321765
 20
684.1046984901097
 30
0.0
 40
3.000000000000003
100
AcDbArc
 50
270.0000000000002
 51
358.0000000000072
  0
ARC
  5
2FC
330
1F
100
AcDbEntity
  8
図
  6
CONTINUOUS
 62
     7
100
AcDbCircle
 10
501.4221982025528
 20
722.0488980595078
 30
0.0
 40
17.0
100
AcDbArc
 50
219.8928479427341
 51
241.3400172786153
  0
ARC
  5
2FD
330
1F
100
AcDbEntity
  8
図
  6
CONTINUOUS
 62
     7
100
AcDbCircle
 10
501.4221982025528
 20
722.0488980595078
 30
0.0
 40
10.0
100
AcDbArc
 50
219.8928479427314
 51
260.0000000000204
  0
ARC
  5
2FE
330
1F
100
AcDbEntity
  8
図
  6
CONTINUOUS
 62
     7
100
AcDbCircle
 10
619.2283474551218
 20
720.7126685142938
 30
0.0
 40
17.0
100
AcDbArc
 50
302.2048360954344
 51
328.1648554308306
  0
ARC
  5
2FF
330
1F
100
AcDbEntity
  8
図
  6
CONTINUOUS
 62
     7
100
AcDbCircle
 10
619.2283474551218
 20
720.7126685142938
 30
0.0
 40
10.0
100
AcDbArc
 50
294.1132539676552
 51
328.1648554308288
  0
ARC
  5
300
330
1F
100
AcDbEntity
  8
図
  6
CONTINUOUS
 62
     7
100
AcDbCircle
 10
761.3355417195254
 20
687.1046984901081
 30
0.0
 40
9.0
100
AcDbArc
 50
65.92660890587607
 51
90.00000000000001
  0
ARC
  5
301
330
1F
100
AcDbEntity
  8
図
  6
CONTINUOUS
 62
     7
100
AcDbCircle
 10
765.8666705936758
 20
683.1046984901095
 30
0.0
 40
2.0
100
AcDbArc
 50
187.1250163488582
 51
270.0000000000002
  0
ARC
  5
302
330
1F
100
AcDbEntity
  8
図
  6
CONTINUOUS
 62
     7
100
AcDbCircle
 10
766.414279694909
 20
686.1046984901096
 30
0.0
 40
5.0
100
AcDbArc
 50
270.0000000000002
 51
356.2965633057812
  0
LINE
  5
303
330
1F
100
AcDbEntity
  8
図
  6
CONTINUOUS
 62
     7
100
AcDbLine
 10
758.8609275802452
 20
696.1046984901011
 30
0.0
 11
761.3355417195254
 21
696.1046984901011
 31
0.0
  0
ARC
  5
304
330
1F
100
AcDbEntity
  8
図
  6
CONTINUOUS
 62
     7
100
AcDbCircle
 10
760.4527595009878
 20
686.1046984901039
 30
0.0
 40
3.000000000000003
100
AcDbArc
 50
7.125016348957235
 51
90.00000000000001
  0
LINE
  5
305
330
1F
100
AcDbEntity
  8
図
  6
CONTINUOUS
 62
     7
100
AcDbLine
 10
763.772619182073
 20
683.7325942863401
 30
0.0
 11
763.4295931311283
 21
686.4768026938744
 31
0.0
  0
LINE
  5
306
330
1F
100
AcDbEntity
  8
図
  6
CONTINUOUS
 62
     7
100
AcDbLine
 10
754.9981724810171
 20
689.1046984901038
 30
0.0
 11
760.4527595009878
 21
689.1046984901038
 31
0.0
  0
ARC
  5
307
330
1F
100
AcDbEntity
  8
図
  6
CONTINUOUS
 62
     7
100
AcDbCircle
 10
489.7494528122119
 20
684.1046984901097
 30
0.0
 40
3.000000000000003
100
AcDbArc
 50
185.1916548379996
 51
270.0000000000002
  0
ARC
  5
308
330
1F
100
AcDbEntity
  8
図
  6
CONTINUOUS
 62
     7
100
AcDbCircle
 10
457.5651745758977
 20
689.1046984901095
 30
0.0
 40
2.0
100
AcDbArc
 50
90.00000000000001
 51
149.9999999999922
  0
ARC
  5
309
330
1F
100
AcDbEntity
  8
図
  6
CONTINUOUS
 62
     7
100
AcDbCircle
 10
483.3612958526655
 20
688.1046984901095
 30
0.0
 40
3.000000000000003
100
AcDbArc
 50
5.191654837999438
 51
90.00000000000001
  0
ARC
  5
30A
330
1F
100
AcDbEntity
  8
図
  6
CONTINUOUS
 62
     7
100
AcDbCircle
 10
454.1010729607601
 20
691.1046984901096
 30
0.0
 40
2.0
100
AcDbArc
 50
270.0000000000002
 51
330.0000000000039
  0
LINE
  5
30B
330
1F
100
AcDbEntity
  8
図
  6
CONTINUOUS
 62
     7
100
AcDbLine
 10
486.7617600459978
 20
683.8332359057406
 30
0.0
 11
486.3489886188796
 21
688.3761610744787
 31
0.0
  0
LINE
  5
30C
330
1F
100
AcDbEntity
  8
図
  6
CONTINUOUS
 62
     7
100
AcDbLine
 10
457.5651745758977
 20
691.1046984901096
 30
0.0
 11
483.3612958526655
 21
691.1046984901096
 31
0.0
  0
ARC
  5
30D
330
1F
100
AcDbEntity
  8
図
  6
CONTINUOUS
 62
     7
100
AcDbCircle
 10
483.3612958526655
 20
688.1046984901095
 30
0.0
 40
10.00000000000001
100
AcDbArc
 50
64.54451651435875
 51
90.00000000000001
  0
LINE
  5
30E
330
1F
100
AcDbEntity
  8
図
  6
CONTINUOUS
 62
     7
100
AcDbLine
 10
487.6656409100051
 20
697.3930441302152
 30
0.0
 11
487.6566369632155
 21
697.1352048294028
 31
0.0
  0
ARC
  5
30F
330
1F
100
AcDbEntity
  8
図
  6
CONTINUOUS
 62
     7
100
AcDbCircle
 10
457.5651745758977
 20
689.1046984901095
 30
0.0
 40
9.0
100
AcDbArc
 50
90.00000000000001
 51
128.9424412689723
  0
LINE
  5
310
330
1F
100
AcDbEntity
  8
図
  6
CONTINUOUS
 62
     7
100
AcDbLine
 10
457.5651745758977
 20
698.1046984901095
 30
0.0
 11
483.3612958526655
 21
698.1046984901095
 31
0.0
  0
LINE
  5
311
330
1F
100
AcDbEntity
  8
図
  6
CONTINUOUS
 62
     7
100
AcDbLine
 10
441.749452812212
 20
696.1046984901102
 30
0.0
 11
451.9083203264065
 21
696.1046984901102
 31
0.0
  0
LINE
  5
312
330
1F
100
AcDbEntity
  8
図
  6
CONTINUOUS
 62
     7
100
AcDbLine
 10
464.1011061566001
 20
691.1046984901096
 30
0.0
 11
464.1011061566001
 21
698.1046984901095
 31
0.0
  0
LINE
  5
313
330
1F
100
AcDbEntity
  8
図
  6
CONTINUOUS
 62
     7
100
AcDbLine
 10
478.1011061566001
 20
691.1046984901096
 30
0.0
 11
478.1011061566001
 21
698.1046984901095
 31
0.0
  0
ARC
  5
314
330
1F
100
AcDbEntity
  8
図
  6
CONTINUOUS
 62
     7
100
AcDbCircle
 10
631.7187731292478
 20
692.1046984901099
 30
0.0
 40
3.000000000000003
100
AcDbArc
 50
182.0000000000146
 51
270.0000000000002
  0
ARC
  5
315
330
1F
100
AcDbEntity
  8
図
  6
CONTINUOUS
 62
     7
100
AcDbCircle
 10
670.4833727922729
 20
692.1046984901059
 30
0.0
 40
3.000000000000003
100
AcDbArc
 50
270.0000000000002
 51
358.0000000000007
  0
LINE
  5
316
330
1F
100
AcDbEntity
  8
図
  6
CONTINUOUS
 62
     7
100
AcDbLine
 10
631.7187731292478
 20
689.1046984901103
 30
0.0
 11
670.4833727922729
 21
689.1046984901103
 31
0.0
  0
ARC
  5
317
330
1F
100
AcDbEntity
  8
図
  6
CONTINUOUS
 62
     7
100
AcDbCircle
 10
623.6029887332963
 20
695.2806892594094
 30
0.0
 40
12.00000000000001
100
AcDbArc
 50
3.93745273442442
 51
66.95118944380876
  0
LINE
  5
318
330
1F
100
AcDbEntity
  8
図
  6
CONTINUOUS
 62
     7
100
AcDbLine
 10
635.5746640040228
 20
696.1046984901094
 30
0.0
 11
666.6206176930447
 21
696.1046984901094
 31
0.0
  0
LINE
  5
319
330
1F
100
AcDbEntity
  8
図
  6
CONTINUOUS
 62
     7
100
AcDbLine
 10
765.86667059368
 20
681.104698490106
 30
0.0
 11
766.414279694909
 21
681.1046984901096
 31
0.0
  0
LINE
  5
31A
330
1F
100
AcDbEntity
  8
図
  6
CONTINUOUS
 62
     7
100
AcDbLine
 10
435.7879326182911
 20
681.1046984901096
 30
0.0
 11
436.3355417195201
 21
681.1046984901102
 31
0.0
  0
LINE
  5
31B
330
1F
100
AcDbEntity
  8
図
  6
CONTINUOUS
 62
     7
100
AcDbLine
 10
438.7726191820709
 20
686.4768026938776
 30
0.0
 11
438.3200974729455
 21
682.856629020928
 31
0.0
  0
LINE
  5
31C
330
1F
100
AcDbEntity
  8
図
  6
CONTINUOUS
 62
     7
100
AcDbLine
 10
489.74945281221
 20
681.1046984901096
 30
0.0
 11
491.2040398321801
 21
681.1046984901147
 31
0.0
  0
LINE
  5
31D
330
1F
100
AcDbEntity
  8
図
  6
CONTINUOUS
 62
     7
100
AcDbLine
 10
612.3688562814393
 20
695.7303129912157
 30
0.0
 11
606.706168526467
 21
690.067625236243
 31
0.0
  0
LINE
  5
31E
330
1F
100
AcDbEntity
  8
図
  6
CONTINUOUS
 62
     7
100
AcDbLine
 10
628.7206006481906
 20
692.0000000000016
 30
0.0
 11
628.7182765717682
 21
692.0665528410799
 31
0.0
  0
LINE
  5
31F
330
1F
100
AcDbEntity
  8
図
  6
CONTINUOUS
 62
     7
100
AcDbLine
 10
454.1010729607601
 20
689.1046984901101
 30
0.0
 11
441.749452812212
 21
689.1046984901097
 31
0.0
  0
LINE
  5
320
330
1F
100
AcDbEntity
  8
図
  6
CONTINUOUS
 62
     7
100
AcDbLine
 10
676.6279245699561
 20
782.1005144622723
 30
0.0
 11
673.4815452733299
 21
691.9999999999984
 31
0.0
  0
ARC
  5
321
330
1F
100
AcDbEntity
  8
図
  6
CONTINUOUS
 62
     7
100
AcDbCircle
 10
548.7815733404775
 20
688.1046984901095
 30
0.0
 40
2.0
100
AcDbArc
 50
192.9827778966126
 51
270.0000000000002
  0
LINE
  5
322
330
1F
100
AcDbEntity
  8
図
  6
CONTINUOUS
 62
     7
100
AcDbLine
 10
706.73585492013
 20
448.1046984901068
 30
0.0
 11
718.6682565278398
 21
448.1046984901068
 31
0.0
  0
LINE
  5
323
330
1F
100
AcDbEntity
  8
図
  6
CONTINUOUS
 62
     7
100
AcDbLine
 10
706.73585492013
 20
353.104698490107
 30
0.0
 11
718.6682565278398
 21
353.104698490107
 31
0.0
  0
LINE
  5
324
330
1F
100
AcDbEntity
  8
図
  6
CONTINUOUS
 62
     7
100
AcDbLine
 10
676.73585492013
 20
418.1046984901068
 30
0.0
 11
676.73585492013
 21
383.104698490107
 31
0.0
  0
ARC
  5
325
330
1F
100
AcDbEntity
  8
図
  6
CONTINUOUS
 62
     7
100
AcDbCircle
 10
706.73585492013
 20
383.104698490107
 30
0.0
 40
30.00000000000002
100
AcDbArc
 50
180.0
 51
270.0000000000002
  0
ARC
  5
326
330
1F
100
AcDbEntity
  8
図
  6
CONTINUOUS
 62
     7
100
AcDbCircle
 10
718.6682565278398
 20
383.104698490107
 30
0.0
 40
30.00000000000002
100
AcDbArc
 50
270.0000000000002
 51
0.0
  0
LINE
  5
327
330
1F
100
AcDbEntity
  8
図
  6
CONTINUOUS
 62
     7
100
AcDbLine
 10
748.6682565278398
 20
418.1046984901068
 30
0.0
 11
748.6682565278398
 21
383.104698490107
 31
0.0
  0
ARC
  5
328
330
1F
100
AcDbEntity
  8
図
  6
CONTINUOUS
 62
     7
100
AcDbCircle
 10
718.6682565278398
 20
418.1046984901068
 30
0.0
 40
30.00000000000002
100
AcDbArc
 50
0.0
 51
90.00000000000001
  0
ARC
  5
329
330
1F
100
AcDbEntity
  8
図
  6
CONTINUOUS
 62
     7
100
AcDbCircle
 10
706.73585492013
 20
418.1046984901068
 30
0.0
 40
30.00000000000002
100
AcDbArc
 50
90.00000000000001
 51
180.0
  0
ARC
  5
32A
330
1F
100
AcDbEntity
  8
図
  6
CONTINUOUS
 62
     7
100
AcDbCircle
 10
651.10107296076
 20
368.1046984901069
 30
0.0
 40
15.00000000000001
100
AcDbArc
 50
90.00000000000001
 51
180.0
  0
ARC
  5
32B
330
1F
100
AcDbEntity
  8
図
  6
CONTINUOUS
 62
     7
100
AcDbCircle
 10
651.1010729607598
 20
368.1046984901069
 30
0.0
 40
15.00000000000001
100
AcDbArc
 50
0.0
 51
90.00000000000001
  0
ARC
  5
32C
330
1F
100
AcDbEntity
  8
図
  6
CONTINUOUS
 62
     7
100
AcDbCircle
 10
651.10107296076
 20
358.104698490107
 30
0.0
 40
15.00000000000001
100
AcDbArc
 50
180.0
 51
270.0000000000002
  0
ARC
  5
32D
330
1F
100
AcDbEntity
  8
図
  6
CONTINUOUS
 62
     7
100
AcDbCircle
 10
651.1010729607598
 20
358.104698490107
 30
0.0
 40
15.00000000000001
100
AcDbArc
 50
270.0000000000002
 51
0.0
  0
LINE
  5
32E
330
1F
100
AcDbEntity
  8
図
  6
CONTINUOUS
 62
     7
100
AcDbLine
 10
486.1010729607601
 20
368.104698490107
 30
0.0
 11
486.1010729607601
 21
358.104698490107
 31
0.0
  0
ARC
  5
32F
330
1F
100
AcDbEntity
  8
図
  6
CONTINUOUS
 62
     7
100
AcDbCircle
 10
471.1010729607601
 20
358.104698490107
 30
0.0
 40
15.00000000000001
100
AcDbArc
 50
270.0000000000002
 51
0.0
  0
ARC
  5
330
330
1F
100
AcDbEntity
  8
図
  6
CONTINUOUS
 62
     7
100
AcDbCircle
 10
471.1010729607601
 20
368.1046984901069
 30
0.0
 40
15.00000000000001
100
AcDbArc
 50
0.0
 51
90.00000000000001
  0
ARC
  5
331
330
1F
100
AcDbEntity
  8
図
  6
CONTINUOUS
 62
     7
100
AcDbCircle
 10
471.1010729607601
 20
368.1046984901069
 30
0.0
 40
15.00000000000001
100
AcDbArc
 50
90.00000000000001
 51
180.0
  0
LINE
  5
332
330
1F
100
AcDbEntity
  8
図
  6
CONTINUOUS
 62
     7
100
AcDbLine
 10
456.1010729607601
 20
368.104698490107
 30
0.0
 11
456.1010729607601
 21
358.104698490107
 31
0.0
  0
ARC
  5
333
330
1F
100
AcDbEntity
  8
図
  6
CONTINUOUS
 62
     7
100
AcDbCircle
 10
471.1010729607601
 20
358.104698490107
 30
0.0
 40
15.00000000000001
100
AcDbArc
 50
180.0
 51
270.0000000000002
  0
ARC
  5
334
330
1F
100
AcDbEntity
  8
図
  6
CONTINUOUS
 62
     7
100
AcDbCircle
 10
676.1010729607598
 20
346.104698490107
 30
0.0
 40
3.000000000000003
100
AcDbArc
 50
180.0
 51
270.0000000000002
  0
LINE
  5
335
330
1F
100
AcDbEntity
  8
図
  6
CONTINUOUS
 62
     7
100
AcDbLine
 10
673.1010729607599
 20
438.104698490107
 30
0.0
 11
673.1010729607599
 21
385.104698490107
 31
0.0
  0
LINE
  5
336
330
1F
100
AcDbEntity
  8
図
  6
CONTINUOUS
 62
     7
100
AcDbLine
 10
749.1011061565999
 20
343.104698490107
 30
0.0
 11
676.1010729607598
 21
343.104698490107
 31
0.0
  0
ARC
  5
337
330
1F
100
AcDbEntity
  8
図
  6
CONTINUOUS
 62
     7
100
AcDbCircle
 10
749.1011061565999
 20
346.104698490107
 30
0.0
 40
3.000000000000003
100
AcDbArc
 50
270.0000000000002
 51
0.0
  0
LINE
  5
338
330
1F
100
AcDbEntity
  8
図
  6
CONTINUOUS
 62
     7
100
AcDbLine
 10
752.1011061565998
 20
455.1046984901068
 30
0.0
 11
752.1011061565998
 21
346.104698490107
 31
0.0
  0
ARC
  5
339
330
1F
100
AcDbEntity
  8
図
  6
CONTINUOUS
 62
     7
100
AcDbCircle
 10
749.1011061565999
 20
455.1046984901068
 30
0.0
 40
3.000000000000003
100
AcDbArc
 50
0.0
 51
90.00000000000001
  0
LINE
  5
33A
330
1F
100
AcDbEntity
  8
図
  6
CONTINUOUS
 62
     7
100
AcDbLine
 10
749.1011061565999
 20
458.1046984901069
 30
0.0
 11
676.1010729607598
 21
458.1046984901069
 31
0.0
  0
ARC
  5
33B
330
1F
100
AcDbEntity
  8
図
  6
CONTINUOUS
 62
     7
100
AcDbCircle
 10
676.1010729607598
 20
455.1046984901068
 30
0.0
 40
3.000000000000003
100
AcDbArc
 50
90.00000000000001
 51
180.0
  0
LINE
  5
33C
330
1F
100
AcDbEntity
  8
図
  6
CONTINUOUS
 62
     7
100
AcDbLine
 10
487.1011061565998
 20
385.104698490107
 30
0.0
 11
487.1011061565998
 21
321.1046984901072
 31
0.0
  0
ARC
  5
33D
330
1F
100
AcDbEntity
  8
図
  6
CONTINUOUS
 62
     7
100
AcDbCircle
 10
491.1011061565996
 20
385.104698490107
 30
0.0
 40
3.000000000000003
100
AcDbArc
 50
0.0
 51
90.00000000000001
  0
LINE
  5
33E
330
1F
100
AcDbEntity
  8
図
  6
CONTINUOUS
 62
     7
100
AcDbLine
 10
490.1011061565999
 20
388.104698490107
 30
0.0
 11
491.1011061565996
 21
388.104698490107
 31
0.0
  0
ARC
  5
33F
330
1F
100
AcDbEntity
  8
図
  6
CONTINUOUS
 62
     7
100
AcDbCircle
 10
490.1011061565999
 20
385.104698490107
 30
0.0
 40
3.000000000000003
100
AcDbArc
 50
90.00000000000001
 51
180.0
  0
ARC
  5
340
330
1F
100
AcDbEntity
  8
図
  6
CONTINUOUS
 62
     7
100
AcDbCircle
 10
491.1011061565996
 20
321.1046984901072
 30
0.0
 40
3.000000000000003
100
AcDbArc
 50
270.0000000000002
 51
0.0
  0
ARC
  5
341
330
1F
100
AcDbEntity
  8
図
  6
CONTINUOUS
 62
     7
100
AcDbCircle
 10
490.1011061565999
 20
321.1046984901072
 30
0.0
 40
3.000000000000003
100
AcDbArc
 50
180.0
 51
270.0000000000002
  0
LINE
  5
342
330
1F
100
AcDbEntity
  8
図
  6
CONTINUOUS
 62
     7
100
AcDbLine
 10
494.1011061565998
 20
438.10469849011
 30
0.0
 11
494.1011061565998
 21
321.1046984901101
 31
0.0
  0
ARC
  5
343
330
1F
100
AcDbEntity
  8
図
  6
CONTINUOUS
 62
     7
100
AcDbCircle
 10
497.1011061565998
 20
455.104698490107
 30
0.0
 40
10.00000000000001
100
AcDbArc
 50
90.00000000000001
 51
180.0
  0
LINE
  5
344
330
1F
100
AcDbEntity
  8
図
  6
CONTINUOUS
 62
     7
100
AcDbLine
 10
504.1011061565994
 20
465.104698490107
 30
0.0
 11
497.1011061565998
 21
465.104698490107
 31
0.0
  0
LINE
  5
345
330
1F
100
AcDbEntity
  8
図
  6
CONTINUOUS
 62
     7
100
AcDbLine
 10
487.1011061565998
 20
455.104698490107
 30
0.0
 11
487.1011061565998
 21
438.1046984901069
 31
0.0
  0
ARC
  5
346
330
1F
100
AcDbEntity
  8
図
  6
CONTINUOUS
 62
     7
100
AcDbCircle
 10
490.1011061565999
 20
438.1046984901069
 30
0.0
 40
3.000000000000003
100
AcDbArc
 50
180.0
 51
270.0000000000002
  0
LINE
  5
347
330
1F
100
AcDbEntity
  8
図
  6
CONTINUOUS
 62
     7
100
AcDbLine
 10
490.1011061565999
 20
435.1046984901069
 30
0.0
 11
491.1011061565996
 21
435.1046984901069
 31
0.0
  0
ARC
  5
348
330
1F
100
AcDbEntity
  8
図
  6
CONTINUOUS
 62
     7
100
AcDbCircle
 10
491.1011061565996
 20
438.1046984901069
 30
0.0
 40
3.000000000000003
100
AcDbArc
 50
270.0000000000002
 51
0.0
  0
ARC
  5
349
330
1F
100
AcDbEntity
  8
図
  6
CONTINUOUS
 62
     7
100
AcDbCircle
 10
504.1011061565994
 20
462.1046984901071
 30
0.0
 40
3.000000000000003
100
AcDbArc
 50
0.0
 51
90.00000000000001
  0
LINE
  5
34A
330
1F
100
AcDbEntity
  8
図
  6
CONTINUOUS
 62
     7
100
AcDbLine
 10
507.1011061565995
 20
462.1046984901071
 30
0.0
 11
507.1011061565995
 21
461.1046984901068
 31
0.0
  0
ARC
  5
34B
330
1F
100
AcDbEntity
  8
図
  6
CONTINUOUS
 62
     7
100
AcDbCircle
 10
504.1011061565994
 20
461.1046984901068
 30
0.0
 40
3.000000000000003
100
AcDbArc
 50
270.0000000000002
 51
0.0
  0
ARC
  5
34C
330
1F
100
AcDbEntity
  8
図
  6
CONTINUOUS
 62
     7
100
AcDbCircle
 10
497.1011061565999
 20
455.10469849011
 30
0.0
 40
3.000000000000003
100
AcDbArc
 50
90.00000000000001
 51
180.0
  0
LINE
  5
34D
330
1F
100
AcDbEntity
  8
図
  6
CONTINUOUS
 62
     7
100
AcDbLine
 10
494.1011061565998
 20
455.10469849011
 30
0.0
 11
494.1011061565998
 21
438.1046984901099
 31
0.0
  0
LINE
  5
34E
330
1F
100
AcDbEntity
  8
図
  6
CONTINUOUS
 62
     7
100
AcDbLine
 10
626.10107296076
 20
458.1046984901097
 30
0.0
 11
497.1011061565999
 21
458.1046984901097
 31
0.0
  0
ARC
  5
34F
330
1F
100
AcDbEntity
  8
図
  6
CONTINUOUS
 62
     7
100
AcDbCircle
 10
626.10107296076
 20
455.1046984901097
 30
0.0
 40
3.000000000000003
100
AcDbArc
 50
0.0
 51
90.00000000000001
  0
LINE
  5
350
330
1F
100
AcDbEntity
  8
図
  6
CONTINUOUS
 62
     7
100
AcDbLine
 10
629.10107296076
 20
455.1046984901097
 30
0.0
 11
629.10107296076
 21
321.10469849011
 31
0.0
  0
ARC
  5
351
330
1F
100
AcDbEntity
  8
図
  6
CONTINUOUS
 62
     7
100
AcDbCircle
 10
633.1010729607599
 20
385.104698490107
 30
0.0
 40
3.000000000000003
100
AcDbArc
 50
0.0
 51
90.00000000000001
  0
LINE
  5
352
330
1F
100
AcDbEntity
  8
図
  6
CONTINUOUS
 62
     7
100
AcDbLine
 10
632.10107296076
 20
388.104698490107
 30
0.0
 11
633.1010729607599
 21
388.104698490107
 31
0.0
  0
ARC
  5
353
330
1F
100
AcDbEntity
  8
図
  6
CONTINUOUS
 62
     7
100
AcDbCircle
 10
632.10107296076
 20
385.104698490107
 30
0.0
 40
3.000000000000003
100
AcDbArc
 50
90.00000000000001
 51
180.0
  0
LINE
  5
354
330
1F
100
AcDbEntity
  8
図
  6
CONTINUOUS
 62
     7
100
AcDbLine
 10
636.10107296076
 20
385.104698490107
 30
0.0
 11
636.10107296076
 21
321.104698490107
 31
0.0
  0
ARC
  5
355
330
1F
100
AcDbEntity
  8
図
  6
CONTINUOUS
 62
     7
100
AcDbCircle
 10
632.10107296076
 20
321.104698490107
 30
0.0
 40
3.000000000000003
100
AcDbArc
 50
180.0
 51
270.0000000000002
  0
ARC
  5
356
330
1F
100
AcDbEntity
  8
図
  6
CONTINUOUS
 62
     7
100
AcDbCircle
 10
633.1010729607599
 20
321.104698490107
 30
0.0
 40
3.000000000000003
100
AcDbArc
 50
270.0000000000002
 51
0.0
  0
ARC
  5
357
330
1F
100
AcDbEntity
  8
図
  6
CONTINUOUS
 62
     7
100
AcDbCircle
 10
663.1010729607599
 20
455.1046984901068
 30
0.0
 40
3.000000000000003
100
AcDbArc
 50
0.0
 51
90.00000000000001
  0
ARC
  5
358
330
1F
100
AcDbEntity
  8
図
  6
CONTINUOUS
 62
     7
100
AcDbCircle
 10
663.1010729607599
 20
455.1046984901068
 30
0.0
 40
10.00000000000001
100
AcDbArc
 50
0.0
 51
90.00000000000001
  0
LINE
  5
359
330
1F
100
AcDbEntity
  8
図
  6
CONTINUOUS
 62
     7
100
AcDbLine
 10
663.1010729607599
 20
465.104698490107
 30
0.0
 11
656.10107296076
 21
465.104698490107
 31
0.0
  0
ARC
  5
35A
330
1F
100
AcDbEntity
  8
図
  6
CONTINUOUS
 62
     7
100
AcDbCircle
 10
656.10107296076
 20
462.1046984901071
 30
0.0
 40
3.000000000000003
100
AcDbArc
 50
90.00000000000001
 51
180.0
  0
LINE
  5
35B
330
1F
100
AcDbEntity
  8
図
  6
CONTINUOUS
 62
     7
100
AcDbLine
 10
653.1010729607602
 20
462.1046984901071
 30
0.0
 11
653.1010729607602
 21
461.1046984901068
 31
0.0
  0
LINE
  5
35C
330
1F
100
AcDbEntity
  8
図
  6
CONTINUOUS
 62
     7
100
AcDbLine
 10
663.1010729607599
 20
458.1046984901069
 30
0.0
 11
656.10107296076
 21
458.1046984901069
 31
0.0
  0
ARC
  5
35D
330
1F
100
AcDbEntity
  8
図
  6
CONTINUOUS
 62
     7
100
AcDbCircle
 10
656.10107296076
 20
461.1046984901068
 30
0.0
 40
3.000000000000003
100
AcDbArc
 50
180.0
 51
270.0000000000002
  0
LINE
  5
35E
330
1F
100
AcDbEntity
  8
図
  6
CONTINUOUS
 62
     7
100
AcDbLine
 10
666.1010729607598
 20
455.1046984901068
 30
0.0
 11
666.1010729607598
 21
438.104698490107
 31
0.0
  0
ARC
  5
35F
330
1F
100
AcDbEntity
  8
図
  6
CONTINUOUS
 62
     7
100
AcDbCircle
 10
669.1010729607599
 20
438.104698490107
 30
0.0
 40
3.000000000000003
100
AcDbArc
 50
180.0
 51
270.0000000000002
  0
LINE
  5
360
330
1F
100
AcDbEntity
  8
図
  6
CONTINUOUS
 62
     7
100
AcDbLine
 10
669.1010729607599
 20
435.104698490107
 30
0.0
 11
670.1010729607598
 21
435.104698490107
 31
0.0
  0
LINE
  5
361
330
1F
100
AcDbEntity
  8
図
  6
CONTINUOUS
 62
     7
100
AcDbLine
 10
673.1010729607599
 20
455.1046984901068
 30
0.0
 11
673.1010729607599
 21
438.104698490107
 31
0.0
  0
ARC
  5
362
330
1F
100
AcDbEntity
  8
図
  6
CONTINUOUS
 62
     7
100
AcDbCircle
 10
670.1010729607598
 20
438.104698490107
 30
0.0
 40
3.000000000000003
100
AcDbArc
 50
270.0000000000002
 51
0.0
  0
LINE
  5
363
330
1F
100
AcDbEntity
  8
図
  6
CONTINUOUS
 62
     7
100
AcDbLine
 10
666.1010729607598
 20
385.104698490107
 30
0.0
 11
666.1010729607598
 21
321.104698490107
 31
0.0
  0
LINE
  5
364
330
1F
100
AcDbEntity
  8
図
  6
CONTINUOUS
 62
     7
100
AcDbLine
 10
673.1010729607599
 20
385.104698490107
 30
0.0
 11
673.1010729607599
 21
321.104698490107
 31
0.0
  0
ARC
  5
365
330
1F
100
AcDbEntity
  8
図
  6
CONTINUOUS
 62
     7
100
AcDbCircle
 10
670.1010729607598
 20
385.104698490107
 30
0.0
 40
3.000000000000003
100
AcDbArc
 50
0.0
 51
90.00000000000001
  0
LINE
  5
366
330
1F
100
AcDbEntity
  8
図
  6
CONTINUOUS
 62
     7
100
AcDbLine
 10
669.1010729607599
 20
388.104698490107
 30
0.0
 11
670.1010729607598
 21
388.104698490107
 31
0.0
  0
ARC
  5
367
330
1F
100
AcDbEntity
  8
図
  6
CONTINUOUS
 62
     7
100
AcDbCircle
 10
669.1010729607599
 20
385.104698490107
 30
0.0
 40
3.000000000000003
100
AcDbArc
 50
90.00000000000001
 51
180.0
  0
ARC
  5
368
330
1F
100
AcDbEntity
  8
図
  6
CONTINUOUS
 62
     7
100
AcDbCircle
 10
669.1010729607599
 20
321.104698490107
 30
0.0
 40
3.000000000000003
100
AcDbArc
 50
180.0
 51
270.0000000000002
  0
ARC
  5
369
330
1F
100
AcDbEntity
  8
図
  6
CONTINUOUS
 62
     7
100
AcDbCircle
 10
670.1010729607598
 20
321.104698490107
 30
0.0
 40
3.000000000000003
100
AcDbArc
 50
270.0000000000002
 51
0.0
  0
CIRCLE
  5
36A
330
1F
100
AcDbEntity
  8
図
  6
CONTINUOUS
 62
     7
100
AcDbCircle
 10
576.1011061565998
 20
393.104698490107
 30
0.0
 40
20.99999999999995
  0
CIRCLE
  5
36B
330
1F
100
AcDbEntity
  8
図
  6
CONTINUOUS
 62
     7
100
AcDbCircle
 10
576.1011061565998
 20
393.104698490107
 30
0.0
 40
29.00000000001003
  0
CIRCLE
  5
36C
330
1F
100
AcDbEntity
  8
図
  6
CONTINUOUS
 62
     7
100
AcDbCircle
 10
471.1011061565999
 20
363.104698490107
 30
0.0
 40
7.000000000000006
  0
CIRCLE
  5
36D
330
1F
100
AcDbEntity
  8
図
  6
CONTINUOUS
 62
     7
100
AcDbCircle
 10
651.1011061565998
 20
363.104698490107
 30
0.0
 40
7.000000000000004
  0
LINE
  5
36E
330
1F
100
AcDbEntity
  8
図
  6
CONTINUOUS
 62
     7
100
AcDbLine
 10
423.6011061565999
 20
318.1046984901072
 30
0.0
 11
776.1011061565998
 21
318.1046984901068
 31
0.0
  0
LINE
  5
36F
330
1F
100
AcDbEntity
  8
図
  6
CONTINUOUS
 62
     7
100
AcDbLine
 10
673.0997729607598
 20
318.1046984901068
 30
0.0
 11
778.6011061565998
 21
318.104698490107
 31
0.0
  0
CIRCLE
  5
370
330
1F
100
AcDbEntity
  8
図
  6
CONTINUOUS
 62
     7
100
AcDbCircle
 10
713.1011061566
 20
393.104698490107
 30
0.0
 40
13.00000000000001
  0
LINE
  5
371
330
1F
100
AcDbEntity
  8
図
  6
CONTINUOUS
 62
     7
100
AcDbLine
 10
423.6011061565999
 20
489.9871144033539
 30
0.0
 11
423.6011061565999
 21
318.1046984901068
 31
0.0
  0
LINE
  5
372
330
1F
100
AcDbEntity
  8
図
  6
CONTINUOUS
 62
     7
100
AcDbLine
 10
438.1011061566001
 20
477.1046984901068
 30
0.0
 11
438.1011061566001
 21
318.1046984901072
 31
0.0
  0
LINE
  5
373
330
1F
100
AcDbEntity
  8
図
  6
CONTINUOUS
 62
     7
100
AcDbLine
 10
441.1011061565999
 20
480.1046984901068
 30
0.0
 11
761.1011061565998
 21
480.1046984901068
 31
0.0
  0
ARC
  5
374
330
1F
100
AcDbEntity
  8
図
  6
CONTINUOUS
 62
     7
100
AcDbCircle
 10
441.1011061565999
 20
478.1046984901069
 30
0.0
 40
10.0
100
AcDbArc
 50
90.00000000000001
 51
180.0
  0
ARC
  5
375
330
1F
100
AcDbEntity
  8
図
  6
CONTINUOUS
 62
     7
100
AcDbCircle
 10
441.1011061565999
 20
477.1046984901068
 30
0.0
 40
3.000000000000003
100
AcDbArc
 50
90.00000000000001
 51
180.0
  0
ARC
  5
376
330
1F
100
AcDbEntity
  8
図
  6
CONTINUOUS
 62
     7
100
AcDbCircle
 10
443.6011061566007
 20
489.9871144033539
 30
0.0
 40
20.0
100
AcDbArc
 50
92.2679503111417
 51
180.0
  0
ARC
  5
377
330
1F
100
AcDbEntity
  8
図
  6
CONTINUOUS
 62
     7
100
AcDbCircle
 10
601.1011061565996
 20
-3486.895301509898
 30
0.0
 40
4000.000000000002
100
AcDbArc
 50
87.73204968885858
 51
92.26795031114158
  0
LINE
  5
378
330
1F
100
AcDbEntity
  8
図
  6
CONTINUOUS
 62
     7
100
AcDbLine
 10
764.1011061565997
 20
477.1046984901068
 30
0.0
 11
764.1011061565997
 21
318.1046984901072
 31
0.0
  0
LINE
  5
379
330
1F
100
AcDbEntity
  8
図
  6
CONTINUOUS
 62
     7
100
AcDbLine
 10
778.6011061565998
 20
489.9871144033539
 30
0.0
 11
778.6011061565998
 21
318.104698490107
 31
0.0
  0
ARC
  5
37A
330
1F
100
AcDbEntity
  8
図
  6
CONTINUOUS
 62
     7
100
AcDbCircle
 10
761.1011061565998
 20
478.1046984901069
 30
0.0
 40
10.0
100
AcDbArc
 50
0.0
 51
90.00000000000001
  0
ARC
  5
37B
330
1F
100
AcDbEntity
  8
図
  6
CONTINUOUS
 62
     7
100
AcDbCircle
 10
761.1011061565998
 20
477.1046984901068
 30
0.0
 40
3.000000000000003
100
AcDbArc
 50
0.0
 51
90.00000000000001
  0
ARC
  5
37C
330
1F
100
AcDbEntity
  8
図
  6
CONTINUOUS
 62
     7
100
AcDbCircle
 10
758.601106156601
 20
489.9871144033539
 30
0.0
 40
20.0
100
AcDbArc
 50
0.0
 51
87.73204968885811
  0
LINE
  5
37D
330
1F
100
AcDbEntity
  8
図
  6
CONTINUOUS
 62
     7
100
AcDbLine
 10
431.1011061565999
 20
478.1046984901069
 30
0.0
 11
431.1011061565999
 21
318.1046984901068
 31
0.0
  0
LINE
  5
37E
330
1F
100
AcDbEntity
  8
図
  6
CONTINUOUS
 62
     7
100
AcDbLine
 10
771.1011061565998
 20
478.1046984901069
 30
0.0
 11
771.1011061565998
 21
318.1046984901068
 31
0.0
  0
LINE
  5
37F
330
1F
100
AcDbEntity
  8
図
  6
CONTINUOUS
 62
     7
100
AcDbLine
 10
441.1011061565999
 20
488.1046984901069
 30
0.0
 11
761.1011061565998
 21
488.1046984901069
 31
0.0
  0
LINE
  5
380
330
1F
100
AcDbEntity
  8
図
  6
CONTINUOUS
 62
     2
100
AcDbLine
 10
601.1011061565999
 20
1301.8770184901
 30
0.0
 11
601.1011061565999
 21
1321.8770184901
 31
0.0
  0
LINE
  5
381
330
1F
100
AcDbEntity
  8
図
  6
CONTINUOUS
 62
     2
100
AcDbLine
 10
787.1011061566
 20
1215.1046984901
 30
0.0
 11
812.8511061565997
 21
1215.1046984901
 31
0.0
  0
LINE
  5
382
330
1F
100
AcDbEntity
  8
図
  6
CONTINUOUS
 62
     2
100
AcDbLine
 10
601.1011061565999
 20
1025.7046984901
 30
0.0
 11
601.1011061565999
 21
1045.7046984901
 31
0.0
  0
LINE
  5
383
330
1F
100
AcDbEntity
  8
図
  6
CONTINUOUS
 62
     6
100
AcDbLine
 10
530.19062215658
 20
593.2093969802198
 30
0.0
 11
680.0
 21
593.2093969802198
 31
0.0
  0
TEXT
  5
384
330
1F
100
AcDbEntity
  8
図
  6
CONTINUOUS
 62
     2
100
AcDbText
 10
530.1906221565803
 20
597.2093969802197
 30
0.0
 40
20.0
  1
Ａ－Ｏ－Ａ断面図
 41
1.131914893617021
  7
EXCADSTD
 72
     5
 11
682.1906221565803
 21
597.2093969802197
 31
0.0
100
AcDbText
  0
LINE
  5
385
330
1F
100
AcDbEntity
  8
図
  6
EXLTYPE3
 62
     6
100
AcDbLine
 10
576.1011061565998
 20
1259.736523204207
 30
0.0
 11
576.1011061565998
 21
1155.104698490107
 31
0.0
  0
LINE
  5
386
330
1F
100
AcDbEntity
  8
図
  6
EXLTYPE3
 62
     6
100
AcDbLine
 10
713.1011061566
 20
1192.104698490106
 30
0.0
 11
713.1011061566
 21
1238.104698490107
 31
0.0
  0
LINE
  5
387
330
1F
100
AcDbEntity
  8
図
  6
EXLTYPE3
 62
     6
100
AcDbLine
 10
601.1011061565998
 20
1301.8770184901
 30
0.0
 11
601.1011061565998
 21
1045.7046984901
 31
0.0
  0
LINE
  5
388
330
1F
100
AcDbEntity
  8
図
  6
EXLTYPE3
 62
     6
100
AcDbLine
 10
496.1011061566001
 20
1215.104698490107
 30
0.0
 11
787.1011061565998
 21
1215.104698490107
 31
0.0
  0
LINE
  5
389
330
1F
100
AcDbEntity
  8
図
  6
EXLTYPE3
 62
     6
100
AcDbLine
 10
496.1011061566001
 20
1240.1046984901
 30
0.0
 11
496.1011061566001
 21
1215.1046984901
 31
0.0
  0
LINE
  5
38A
330
1F
100
AcDbEntity
  8
図
  6
EXLTYPE3
 62
     6
100
AcDbLine
 10
496.1011061566001
 20
1245.1046984901
 30
0.0
 11
375.8
 21
1245.1046984901
 31
0.0
  0
LINE
  5
38B
330
1F
100
AcDbEntity
  8
図
  6
EXLTYPE3
 62
     6
100
AcDbLine
 10
601.1011061565998
 20
881.1046984901071
 30
0.0
 11
601.1011061565998
 21
666.7046984901069
 31
0.0
  0
CIRCLE
  5
38C
330
1F
100
AcDbEntity
  8
図
  6
CONTINUOUS
 62
     6
100
AcDbCircle
 10
451.1011061565999
 20
836.1046984901071
 30
0.0
 40
6.000000000000006
  0
LINE
  5
38D
330
1F
100
AcDbEntity
  8
図
  6
EXLTYPE3
 62
     6
100
AcDbLine
 10
440.4011061566002
 20
836.1046984901068
 30
0.0
 11
462.9011061566002
 21
836.1046984901068
 31
0.0
  0
LINE
  5
38E
330
1F
100
AcDbEntity
  8
図
  6
EXLTYPE3
 62
     6
100
AcDbLine
 10
451.1011061566005
 20
846.204698490107
 30
0.0
 11
451.1011061566005
 21
825.5046984901071
 31
0.0
  0
CIRCLE
  5
38F
330
1F
100
AcDbEntity
  8
図
  6
CONTINUOUS
 62
     6
100
AcDbCircle
 10
751.1011061565998
 20
836.1046984901071
 30
0.0
 40
6.000000000000006
  0
LINE
  5
390
330
1F
100
AcDbEntity
  8
図
  6
EXLTYPE3
 62
     6
100
AcDbLine
 10
761.8011061566001
 20
836.1046984901068
 30
0.0
 11
739.3011061566001
 21
836.1046984901068
 31
0.0
  0
LINE
  5
391
330
1F
100
AcDbEntity
  8
図
  6
EXLTYPE3
 62
     6
100
AcDbLine
 10
751.1011061565998
 20
846.204698490107
 30
0.0
 11
751.1011061565998
 21
825.5046984901071
 31
0.0
  0
LINE
  5
392
330
1F
100
AcDbEntity
  8
図
  6
EXLTYPE3
 62
     6
100
AcDbLine
 10
576.1011061566
 20
722.10469849011
 30
0.0
 11
576.1011061566
 21
659.1046984901099
 31
0.0
  0
LINE
  5
393
330
1F
100
AcDbEntity
  8
図
  6
EXLTYPE3
 62
     6
100
AcDbLine
 10
576.1011061566
 20
722.1046984901099
 30
0.0
 11
576.1011061566
 21
659.1046984901097
 31
0.0
  0
LINE
  5
394
330
1F
100
AcDbEntity
  8
図
  6
EXLTYPE3
 62
     6
100
AcDbLine
 10
651.1011061566003
 20
705.0046984901101
 30
0.0
 11
651.1011061566003
 21
665.6046984901099
 31
0.0
  0
LINE
  5
395
330
1F
100
AcDbEntity
  8
図
  6
EXLTYPE3
 62
     6
100
AcDbLine
 10
471.1011061565998
 20
668.1046984901099
 30
0.0
 11
471.1011061565998
 21
709.1046984901097
 31
0.0
  0
LINE
  5
396
330
1F
100
AcDbEntity
  8
図
  6
EXLTYPE3
 62
     6
100
AcDbLine
 10
576.1011061565998
 20
433.1046984901069
 30
0.0
 11
576.1011061565998
 21
350.104698490107
 31
0.0
  0
LINE
  5
397
330
1F
100
AcDbEntity
  8
図
  6
EXLTYPE3
 62
     6
100
AcDbLine
 10
471.1011061565999
 20
375.5046984901069
 30
0.0
 11
471.1011061565999
 21
349.3046984901071
 31
0.0
  0
LINE
  5
398
330
1F
100
AcDbEntity
  8
図
  6
EXLTYPE3
 62
     6
100
AcDbLine
 10
601.1011061565998
 20
533.104698490107
 30
0.0
 11
601.1011061565998
 21
300.104698490107
 31
0.0
  0
LINE
  5
399
330
1F
100
AcDbEntity
  8
図
  6
EXLTYPE3
 62
     6
100
AcDbLine
 10
526.1011061565998
 20
393.104698490107
 30
0.0
 11
788.1011061566
 21
393.104698490107
 31
0.0
  0
LINE
  5
39A
330
1F
100
AcDbEntity
  8
図
  6
EXLTYPE3
 62
     6
100
AcDbLine
 10
651.1011061565998
 20
372.4046984901071
 30
0.0
 11
651.1011061565998
 21
352.7046984901069
 31
0.0
  0
LINE
  5
39B
330
1F
100
AcDbEntity
  8
図
  6
EXLTYPE3
 62
     6
100
AcDbLine
 10
460.9011061565998
 20
363.104698490107
 30
0.0
 11
662.1011061565998
 21
363.104698490107
 31
0.0
  0
LINE
  5
39C
330
1F
100
AcDbEntity
  8
図
  6
EXLTYPE3
 62
     6
100
AcDbLine
 10
713.1011061566
 20
416.1046984901075
 30
0.0
 11
713.1011061566
 21
370.104698490107
 31
0.0
  0
TEXT
  5
39D
330
1F
100
AcDbEntity
  8
図
  6
CONTINUOUS
 62
     2
100
AcDbText
 10
632.0437541566
 20
1024.504698490101
 30
0.0
 40
25.0
  1
Ｂ
 41
1.12
  7
EXCADSTD
 72
     5
 11
652.0437541566
 21
1024.504698490101
 31
0.0
100
AcDbText
  0
TEXT
  5
39E
330
1F
100
AcDbEntity
  8
図
  6
CONTINUOUS
 62
     2
100
AcDbText
 10
632.0437541566
 20
1300.677018490101
 30
0.0
 40
25.0
  1
Ｂ
 41
1.12
  7
EXCADSTD
 72
     5
 11
652.0437541566
 21
1300.677018490101
 31
0.0
100
AcDbText
  0
TEXT
  5
39F
330
1F
100
AcDbEntity
  8
図
  6
CONTINUOUS
 62
     2
100
AcDbText
 10
352.9282677499999
 20
1193.0257372401
 30
0.0
 40
25.0
  1
Ａ
 41
1.12
  7
EXCADSTD
 72
     5
 11
372.9282677499999
 21
1193.0257372401
 31
0.0
100
AcDbText
  0
TEXT
  5
3A0
330
1F
100
AcDbEntity
  8
図
  6
CONTINUOUS
 62
     2
100
AcDbText
 10
789.9793739065999
 20
1163.0257372401
 30
0.0
 40
25.0
  1
Ａ
 41
1.12
  7
EXCADSTD
 72
     5
 11
809.9793739065999
 21
1163.0257372401
 31
0.0
100
AcDbText
  0
LINE
  5
3A1
330
1F
100
AcDbEntity
  8
図
  6
CONTINUOUS
 62
     2
100
AcDbLine
 10
496.1011061566035
 20
1215.1046984901
 30
0.0
 11
496.1011061566035
 21
1220.1046984901
 31
0.0
  0
LINE
  5
3A2
330
1F
100
AcDbEntity
  8
図
  6
CONTINUOUS
 62
     2
100
AcDbLine
 10
496.1011061566035
 20
1215.1046984901
 30
0.0
 11
501.1011061566035
 21
1215.1046984901
 31
0.0
  0
LINE
  5
3A3
330
1F
100
AcDbEntity
  8
図
  6
CONTINUOUS
 62
     2
100
AcDbLine
 10
496.1011061566035
 20
1245.1046984901
 30
0.0
 11
496.1011061566035
 21
1240.1046984901
 31
0.0
  0
LINE
  5
3A4
330
1F
100
AcDbEntity
  8
図
  6
CONTINUOUS
 62
     2
100
AcDbLine
 10
496.1011061566035
 20
1245.1046984901
 30
0.0
 11
491.1011061566035
 21
1245.1046984901
 31
0.0
  0
LINE
  5
3A5
330
1F
100
AcDbEntity
  8
図
  6
EXLTYPE3
 62
     6
100
AcDbLine
 10
712.5612455845319
 20
811.6322972039563
 30
0.0
 11
714.0343860541467
 21
769.4470735947584
 31
0.0
  0
LINE
  5
3A6
330
1F
100
AcDbEntity
  8
図
  6
CONTINUOUS
 62
     7
100
AcDbLine
 10
1317.0
 20
861.1046984901067
 30
0.0
 11
1317.0
 21
681.1046984901068
 31
0.0
  0
ARC
  5
3A7
330
1F
100
AcDbEntity
  8
図
  6
CONTINUOUS
 62
     7
100
AcDbCircle
 10
1289.074330938831
 20
805.1046984901069
 30
0.0
 40
4.0
100
AcDbArc
 50
270.0000000000002
 51
356.0000000000003
  0
ARC
  5
3A8
330
1F
100
AcDbEntity
  8
図
  6
CONTINUOUS
 62
     7
100
AcDbCircle
 10
1150.956306401607
 20
686.1046984901068
 30
0.0
 40
5.0
100
AcDbArc
 50
193.2557641055714
 51
270.0000000000002
  0
ARC
  5
3A9
330
1F
100
AcDbEntity
  8
図
  6
CONTINUOUS
 62
     7
100
AcDbCircle
 10
1126.0
 20
797.1046984901068
 30
0.0
 40
4.0
100
AcDbArc
 50
90.00000000000001
 51
191.0795890467525
  0
LINE
  5
3AA
330
1F
100
AcDbEntity
  8
図
  6
CONTINUOUS
 62
     7
100
AcDbLine
 10
1150.9563064016
 20
681.1046984901068
 30
0.0
 11
1317.0
 21
681.1046984901068
 31
0.0
  0
ARC
  5
3AB
330
1F
100
AcDbEntity
  8
図
  6
CONTINUOUS
 62
     7
100
AcDbCircle
 10
1766.101106156599
 20
760.1046984900861
 30
0.0
 40
10.0
100
AcDbArc
 50
143.13010235415
 51
180.0
  0
LINE
  5
3AC
330
1F
100
AcDbEntity
  8
図
  6
CONTINUOUS
 62
     7
100
AcDbLine
 10
1756.101106156599
 20
690.104698490107
 30
0.0
 11
1756.1011061566
 21
760.104698490087
 31
0.0
  0
ARC
  5
3AD
330
1F
100
AcDbEntity
  8
図
  6
CONTINUOUS
 62
     7
100
AcDbCircle
 10
1755.101106156599
 20
690.104698490107
 30
0.0
 40
1.0
100
AcDbArc
 50
270.0000000000002
 51
0.0
  0
ARC
  5
3AE
330
1F
100
AcDbEntity
  8
図
  6
CONTINUOUS
 62
     7
100
AcDbCircle
 10
1607.452759500988
 20
686.1046984901096
 30
0.0
 40
3.000000000000003
100
AcDbArc
 50
7.125016348902289
 51
90.00000000000001
  0
LINE
  5
3AF
330
1F
100
AcDbEntity
  8
図
  6
CONTINUOUS
 62
     7
100
AcDbLine
 10
1610.42959313113
 20
686.4768026938799
 30
0.0
 11
1610.772619182075
 21
683.7325942863404
 31
0.0
  0
ARC
  5
3B0
330
1F
100
AcDbEntity
  8
図
  6
CONTINUOUS
 62
     7
100
AcDbCircle
 10
1613.749452812212
 20
684.1046984901097
 30
0.0
 40
3.000000000000003
100
AcDbArc
 50
187.1250163488851
 51
270.0000000000002
  0
ARC
  5
3B1
330
1F
100
AcDbEntity
  8
図
  6
CONTINUOUS
 62
     7
100
AcDbCircle
 10
1615.204039832178
 20
684.1046984901097
 30
0.0
 40
3.000000000000003
100
AcDbArc
 50
270.0000000000002
 51
358.0000000000072
  0
LINE
  5
3B2
330
1F
100
AcDbEntity
  8
図
  6
CONTINUOUS
 62
     7
100
AcDbLine
 10
1618.202212313233
 20
683.9999999999998
 30
0.0
 11
1618.279366155895
 21
686.2093969802174
 31
0.0
  0
ARC
  5
3B3
330
1F
100
AcDbEntity
  8
図
  6
CONTINUOUS
 62
     7
100
AcDbCircle
 10
1621.277538636953
 20
686.1046984901096
 30
0.0
 40
3.000000000000003
100
AcDbArc
 50
90.00000000000001
 51
177.9999999999942
  0
LINE
  5
3B4
330
1F
100
AcDbEntity
  8
図
  6
CONTINUOUS
 62
     7
100
AcDbLine
 10
1621.277538636953
 20
689.1046984901097
 30
0.0
 11
1653.247897477152
 21
689.1046984901097
 31
0.0
  0
ARC
  5
3B5
330
1F
100
AcDbEntity
  8
図
  6
CONTINUOUS
 62
     7
100
AcDbCircle
 10
1638.452759500989
 20
684.1046984901097
 30
0.0
 40
3.000000000000003
100
AcDbArc
 50
270.0000000000002
 51
352.8749836511087
  0
ARC
  5
3B6
330
1F
100
AcDbEntity
  8
図
  6
CONTINUOUS
 62
     7
100
AcDbCircle
 10
1644.749452812212
 20
686.1046984901096
 30
0.0
 40
3.000000000000003
100
AcDbArc
 50
90.00000000000001
 51
172.8749836510977
  0
LINE
  5
3B7
330
1F
100
AcDbEntity
  8
図
  6
CONTINUOUS
 62
     7
100
AcDbLine
 10
1641.772619182072
 20
686.4768026938796
 30
0.0
 11
1641.42959313113
 21
683.7325942863426
 31
0.0
  0
LINE
  5
3B8
330
1F
100
AcDbEntity
  8
図
  6
CONTINUOUS
 62
     7
100
AcDbLine
 10
1687.4761061566
 20
686.1046984901096
 30
0.0
 11
1687.772619182071
 21
683.7325942863421
 31
0.0
  0
ARC
  5
3B9
330
1F
100
AcDbEntity
  8
図
  6
CONTINUOUS
 62
     7
100
AcDbCircle
 10
1690.749452812212
 20
684.1046984901097
 30
0.0
 40
3.000000000000003
100
AcDbArc
 50
187.1250163489023
 51
270.0000000000002
  0
LINE
  5
3BA
330
1F
100
AcDbEntity
  8
図
  6
CONTINUOUS
 62
     7
100
AcDbLine
 10
1712.954314836048
 20
689.1046984901097
 30
0.0
 11
1737.9295500306
 21
689.1046984901097
 31
0.0
  0
LINE
  5
3BB
330
1F
100
AcDbEntity
  8
図
  6
CONTINUOUS
 62
     7
100
AcDbLine
 10
1758.1011061566
 20
861.1046984901068
 30
0.0
 11
1758.1011061566
 21
681.1046984901069
 31
0.0
  0
ARC
  5
3BC
330
1F
100
AcDbEntity
  8
図
  6
CONTINUOUS
 62
     7
100
AcDbCircle
 10
1750.223802276382
 20
848.104698490107
 30
0.0
 40
3.000000000000003
100
AcDbArc
 50
90.00000000000001
 51
175.9999999999971
  0
LINE
  5
3BD
330
1F
100
AcDbEntity
  8
図
  6
CONTINUOUS
 62
     7
100
AcDbLine
 10
1750.22380227638
 20
851.1046984901083
 30
0.0
 11
1758.1011061566
 21
851.1046984901068
 31
0.0
  0
LINE
  5
3BE
330
1F
100
AcDbEntity
  8
図
  6
CONTINUOUS
 62
     7
100
AcDbLine
 10
1652.6011061566
 20
704.104698490107
 30
0.0
 11
1713.6011061566
 21
704.104698490107
 31
0.0
  0
LINE
  5
3BF
330
1F
100
AcDbEntity
  8
図
  6
CONTINUOUS
 62
     7
100
AcDbLine
 10
1741.831166501144
 20
861.1046984901068
 30
0.0
 11
1758.1011061566
 21
861.1046984901068
 31
0.0
  0
LINE
  5
3C0
330
1F
100
AcDbEntity
  8
図
  6
CONTINUOUS
 62
     7
100
AcDbLine
 10
1662.101106156601
 20
694.6046984901058
 30
0.0
 11
1652.6011061566
 21
704.104698490107
 31
0.0
  0
LINE
  5
3C1
330
1F
100
AcDbEntity
  8
図
  6
CONTINUOUS
 62
     7
100
AcDbLine
 10
1704.1011061566
 20
694.6046984901064
 30
0.0
 11
1713.6011061566
 21
704.104698490107
 31
0.0
  0
LINE
  5
3C2
330
1F
100
AcDbEntity
  8
図
  6
CONTINUOUS
 62
     7
100
AcDbLine
 10
1735.073605274902
 20
717.4603096057328
 30
0.0
 11
1740.944744728599
 21
801.421515479665
 31
0.0
  0
LINE
  5
3C3
330
1F
100
AcDbEntity
  8
図
  6
CONTINUOUS
 62
     7
100
AcDbLine
 10
1747.231110125603
 20
848.3139679113369
 30
0.0
 11
1744.701580763412
 21
812.1400127161031
 31
0.0
  0
ARC
  5
3C4
330
1F
100
AcDbEntity
  8
図
  6
CONTINUOUS
 62
     7
100
AcDbCircle
 10
1718.115016420485
 20
718.6461696593831
 30
0.0
 40
10.0
100
AcDbArc
 50
301.7005655841462
 51
355.9999999999998
  0
ARC
  5
3C5
330
1F
100
AcDbEntity
  8
図
  6
CONTINUOUS
 62
     7
100
AcDbCircle
 10
1741.831166501144
 20
857.1046984901069
 30
0.0
 40
4.0
100
AcDbArc
 50
90.00000000000001
 51
175.9999999999987
  0
LINE
  5
3C6
330
1F
100
AcDbEntity
  8
図
  6
CONTINUOUS
 62
     7
100
AcDbLine
 10
1662.1011061566
 20
694.604698490107
 30
0.0
 11
1662.6011061566
 21
686.1046984901069
 31
0.0
  0
ARC
  5
3C7
330
1F
100
AcDbEntity
  8
図
  6
CONTINUOUS
 62
     7
100
AcDbCircle
 10
1730.175437095431
 20
805.1046984901069
 30
0.0
 40
4.0
100
AcDbArc
 50
270.0000000000002
 51
356.0000000000003
  0
LINE
  5
3C8
330
1F
100
AcDbEntity
  8
図
  6
CONTINUOUS
 62
     7
100
AcDbLine
 10
1704.1011061566
 20
694.604698490107
 30
0.0
 11
1703.6011061566
 21
686.1046984901069
 31
0.0
  0
LINE
  5
3C9
330
1F
100
AcDbEntity
  8
図
  6
CONTINUOUS
 62
     7
100
AcDbLine
 10
1662.1011061566
 20
694.604698490107
 30
0.0
 11
1704.1011061566
 21
694.604698490107
 31
0.0
  0
ARC
  5
3CA
330
1F
100
AcDbEntity
  8
図
  6
CONTINUOUS
 62
     7
100
AcDbCircle
 10
1718.115016420485
 20
718.6461696593831
 30
0.0
 40
17.0
100
AcDbArc
 50
315.895756605302
 51
356.0000000000003
  0
ARC
  5
3CB
330
1F
100
AcDbEntity
  8
図
  6
CONTINUOUS
 62
     7
100
AcDbCircle
 10
1623.660093350684
 20
697.0247220372227
 30
0.0
 40
5.0
100
AcDbArc
 50
73.51805826524026
 51
177.9999999999756
  0
ARC
  5
3CC
330
1F
100
AcDbEntity
  8
図
  6
CONTINUOUS
 62
     7
100
AcDbCircle
 10
1754.677221266011
 20
811.4424479786618
 30
0.0
 40
10.0
100
AcDbArc
 50
176.000000000001
 51
265.0000000000004
  0
ARC
  5
3CD
330
1F
100
AcDbEntity
  8
図
  6
CONTINUOUS
 62
     7
100
AcDbCircle
 10
1754.677221266011
 20
811.4424479786618
 30
0.0
 40
17.0
100
AcDbArc
 50
216.1191668984061
 51
257.8565668680893
  0
LINE
  5
3CE
330
1F
100
AcDbEntity
  8
図
  6
CONTINUOUS
 62
     7
100
AcDbLine
 10
1758.101106156598
 20
801.1046984900844
 30
0.0
 11
1753.805663838534
 21
801.4805009977443
 31
0.0
  0
ARC
  5
3CF
330
1F
100
AcDbEntity
  8
図
  6
CONTINUOUS
 62
     7
100
AcDbCircle
 10
1655.781573340477
 20
688.1046984901068
 30
0.0
 40
2.0
100
AcDbArc
 50
189.9237892741265
 51
270.0000000000002
  0
ARC
  5
3D0
330
1F
100
AcDbEntity
  8
図
  6
CONTINUOUS
 62
     7
100
AcDbCircle
 10
1648.9605098808
 20
686.5320913303079
 30
0.0
 40
5.0
100
AcDbArc
 50
12.98277789661284
 51
44.99999999999815
  0
ARC
  5
3D1
330
1F
100
AcDbEntity
  8
図
  6
CONTINUOUS
 62
     7
100
AcDbCircle
 10
1710.420638972722
 20
688.1046984901068
 30
0.0
 40
2.0
100
AcDbArc
 50
270.0000000000002
 51
350.0762107258736
  0
ARC
  5
3D2
330
1F
100
AcDbEntity
  8
図
  6
CONTINUOUS
 62
     7
100
AcDbCircle
 10
1717.2417024324
 20
686.5320913303079
 30
0.0
 40
5.0
100
AcDbArc
 50
135.0000000000019
 51
167.0172221033872
  0
LINE
  5
3D3
330
1F
100
AcDbEntity
  8
図
  6
CONTINUOUS
 62
     7
100
AcDbLine
 10
1625.078659017961
 20
701.81926804781
 30
0.0
 11
1647.327047031441
 21
695.2366219915325
 31
0.0
  0
LINE
  5
3D4
330
1F
100
AcDbEntity
  8
図
  6
CONTINUOUS
 62
     7
100
AcDbLine
 10
1713.6011061566
 20
704.104698490117
 30
0.0
 11
1723.369816917115
 21
710.1381104364746
 31
0.0
  0
LINE
  5
3D5
330
1F
100
AcDbEntity
  8
図
  6
CONTINUOUS
 62
     7
100
AcDbLine
 10
1737.840910300105
 20
857.3837243850835
 30
0.0
 11
1728.090656923084
 21
717.9486049219381
 31
0.0
  0
LINE
  5
3D6
330
1F
100
AcDbEntity
  8
図
  6
CONTINUOUS
 62
     7
100
AcDbLine
 10
1626.533280834112
 20
711.8174041230262
 30
0.0
 11
1652.6011061566
 21
704.104698490117
 31
0.0
  0
LINE
  5
3D7
330
1F
100
AcDbEntity
  8
図
  6
CONTINUOUS
 62
     7
100
AcDbLine
 10
1567.1011061566
 20
801.1046984901068
 30
0.0
 11
1730.1754370954
 21
801.1046984901066
 31
0.0
  0
ARC
  5
3D8
330
1F
100
AcDbEntity
  8
図
  6
CONTINUOUS
 62
     7
100
AcDbCircle
 10
1598.749452812212
 20
686.1046984901069
 30
0.0
 40
3.000000000000003
100
AcDbArc
 50
90.00000000000001
 51
172.8749836510977
  0
LINE
  5
3D9
330
1F
100
AcDbEntity
  8
図
  6
CONTINUOUS
 62
     7
100
AcDbLine
 10
1595.772619182072
 20
686.4768026938768
 30
0.0
 11
1595.320097472954
 21
682.8566290209287
 31
0.0
  0
ARC
  5
3DA
330
1F
100
AcDbEntity
  8
図
  6
CONTINUOUS
 62
     7
100
AcDbCircle
 10
4507.259217705661
 20
1372.853149718815
 30
0.0
 40
3000.000000000002
100
AcDbArc
 50
191.0795890467543
 51
193.2557641055712
  0
ARC
  5
3DB
330
1F
100
AcDbEntity
  8
図
  6
CONTINUOUS
 62
     7
100
AcDbCircle
 10
1567.1011061566
 20
797.1046984901069
 30
0.0
 40
4.0
100
AcDbArc
 50
28.45009126960615
 51
191.0795890467628
  0
ARC
  5
3DC
330
1F
100
AcDbEntity
  8
図
  6
CONTINUOUS
 62
     7
100
AcDbCircle
 10
2449.850454510513
 20
1275.40333739758
 30
0.0
 40
1000.000000000001
100
AcDbArc
 50
208.4500912696764
 51
214.0276396795057
  0
ARC
  5
3DD
330
1F
100
AcDbEntity
  8
図
  6
CONTINUOUS
 62
     7
100
AcDbCircle
 10
4507.259217705661
 20
1372.853149718815
 30
0.0
 40
2993.000000000002
100
AcDbArc
 50
191.447513074563
 51
193.1701932293648
  0
ARC
  5
3DE
330
1F
100
AcDbEntity
  8
図
  6
CONTINUOUS
 62
     7
100
AcDbCircle
 10
2449.850454510513
 20
1275.40333739758
 30
0.0
 40
1007.000000000001
100
AcDbArc
 50
209.5458291968354
 51
214.0276396795057
  0
ARC
  5
3DF
330
1F
100
AcDbEntity
  8
図
  6
CONTINUOUS
 62
     7
100
AcDbCircle
 10
1629.370412168669
 20
721.4064961441969
 30
0.0
 40
17.0
100
AcDbArc
 50
214.0276396795063
 51
231.8883382407388
  0
ARC
  5
3E0
330
1F
100
AcDbEntity
  8
図
  6
CONTINUOUS
 62
     7
100
AcDbCircle
 10
1629.370412168669
 20
721.4064961441969
 30
0.0
 40
10.0
100
AcDbArc
 50
214.0276396795057
 51
253.5180582652052
  0
ARC
  5
3E1
330
1F
100
AcDbEntity
  8
図
  6
CONTINUOUS
 62
     7
100
AcDbCircle
 10
1601.749452812212
 20
686.1046984901069
 30
0.0
 40
10.00000000000001
100
AcDbArc
 50
90.00000000000001
 51
151.2473835560481
  0
ARC
  5
3E2
330
1F
100
AcDbEntity
  8
図
  6
CONTINUOUS
 62
     7
100
AcDbCircle
 10
1592.057412558207
 20
686.1046984901069
 30
0.0
 40
5.0
100
AcDbArc
 50
193.2557641055721
 51
270.0000000000002
  0
ARC
  5
3E3
330
1F
100
AcDbEntity
  8
図
  6
CONTINUOUS
 62
     7
100
AcDbCircle
 10
1593.335541719526
 20
683.1046984901068
 30
0.0
 40
2.0
100
AcDbArc
 50
270.0000000000002
 51
352.8749836510692
  0
LINE
  5
3E4
330
1F
100
AcDbEntity
  8
図
  6
CONTINUOUS
 62
     7
100
AcDbLine
 10
1719.847804970029
 20
696.2092616798024
 30
0.0
 11
1725.254503772788
 21
699.5485806489766
 31
0.0
  0
LINE
  5
3E5
330
1F
100
AcDbEntity
  8
図
  6
CONTINUOUS
 62
     7
100
AcDbLine
 10
1751.1011061566
 20
794.8228390565409
 30
0.0
 11
1751.1011061566
 21
696.1046984901068
 31
0.0
  0
ARC
  5
3E6
330
1F
100
AcDbEntity
  8
図
  6
CONTINUOUS
 62
     7
100
AcDbCircle
 10
1727.608436018413
 20
695.1256500274585
 30
0.0
 40
12.00000000000001
100
AcDbArc
 50
4.679813759046558
 51
76.92923729126436
  0
ARC
  5
3E7
330
1F
100
AcDbEntity
  8
図
  6
CONTINUOUS
 62
     7
100
AcDbCircle
 10
1727.881904021074
 20
695.2945510374977
 30
0.0
 40
5.0
100
AcDbArc
 50
1.999999999999737
 51
121.7005655841695
  0
ARC
  5
3E8
330
1F
100
AcDbEntity
  8
図
  6
CONTINUOUS
 62
     7
100
AcDbCircle
 10
1737.9295500306
 20
694.104698490107
 30
0.0
 40
5.0
100
AcDbArc
 50
182.0000000000219
 51
270.0000000000002
  0
LINE
  5
3E9
330
1F
100
AcDbEntity
  8
図
  6
CONTINUOUS
 62
     7
100
AcDbLine
 10
1739.5684303373
 20
696.1046984901068
 30
0.0
 11
1751.1011061566
 21
696.1046984901068
 31
0.0
  0
LINE
  5
3EA
330
1F
100
AcDbEntity
  8
図
  6
CONTINUOUS
 62
     7
100
AcDbLine
 10
1732.932595895505
 20
693.9302010065973
 30
0.0
 11
1732.87885815617
 21
695.4690485210122
 31
0.0
  0
LINE
  5
3EB
330
1F
100
AcDbEntity
  8
図
  6
CONTINUOUS
 62
     7
100
AcDbLine
 10
1737.9295500306
 20
689.104698490107
 30
0.0
 11
1758.1011061566
 21
689.104698490107
 31
0.0
  0
LINE
  5
3EC
330
1F
100
AcDbEntity
  8
図
  6
CONTINUOUS
 62
     7
100
AcDbLine
 10
1719.847804970029
 20
696.2092616798024
 30
0.0
 11
1713.706168526467
 21
690.0676252362405
 31
0.0
  0
LINE
  5
3ED
330
1F
100
AcDbEntity
  8
図
  6
CONTINUOUS
 62
     7
100
AcDbLine
 10
1655.781573340477
 20
686.1046984901069
 30
0.0
 11
1710.420638972722
 21
686.1046984901069
 31
0.0
  0
LINE
  5
3EE
330
1F
100
AcDbEntity
  8
図
  6
CONTINUOUS
 62
     7
100
AcDbLine
 10
1647.327047031441
 20
695.2366219915325
 30
0.0
 11
1652.496043786733
 21
690.0676252362407
 31
0.0
  0
LINE
  5
3EF
330
1F
100
AcDbEntity
  8
図
  6
CONTINUOUS
 62
     7
100
AcDbLine
 10
1592.05741255821
 20
681.1046984901069
 30
0.0
 11
1758.1011061566
 21
681.1046984901069
 31
0.0
  0
LINE
  5
3F0
330
1F
100
AcDbEntity
  8
図
  6
CONTINUOUS
 62
     7
100
AcDbLine
 10
1601.749452812212
 20
696.1046984901069
 30
0.0
 11
1611.695413803251
 21
696.1046984901069
 31
0.0
  0
ARC
  5
3F1
330
1F
100
AcDbEntity
  8
図
  6
CONTINUOUS
 62
     7
100
AcDbCircle
 10
1623.660093350684
 20
697.0247220372227
 30
0.0
 40
12.00000000000001
100
AcDbArc
 50
113.4845111309562
 51
184.3971038083399
  0
LINE
  5
3F2
330
1F
100
AcDbEntity
  8
図
  6
CONTINUOUS
 62
     7
100
AcDbLine
 10
1598.749452812212
 20
689.1046984901067
 30
0.0
 11
1615.48340598811
 21
689.1046984901067
 31
0.0
  0
LINE
  5
3F3
330
1F
100
AcDbEntity
  8
図
  6
CONTINUOUS
 62
     7
100
AcDbLine
 10
1618.481578469168
 20
691.999999999999
 30
0.0
 11
1618.663139215588
 21
697.1992195207355
 31
0.0
  0
ARC
  5
3F4
330
1F
100
AcDbEntity
  8
図
  6
CONTINUOUS
 62
     7
100
AcDbCircle
 10
1615.48340598811
 20
692.1046984901066
 30
0.0
 40
3.000000000000003
100
AcDbArc
 50
270.0000000000002
 51
357.9999999999989
  0
LINE
  5
3F5
330
1F
100
AcDbEntity
  8
図
  6
CONTINUOUS
 62
     6
100
AcDbLine
 10
1150.519621380317
 20
681.12380437437
 30
0.0
 11
1146.9954725737
 21
681.12380437437
 31
0.0
  0
ARC
  5
3F6
330
1F
100
AcDbEntity
  8
図
  6
CONTINUOUS
 62
     6
100
AcDbCircle
 10
4066.158111549062
 20
1372.853149718815
 30
0.0
 40
3000.000000000002
100
AcDbArc
 50
193.2557641055712
 51
193.3310120423974
  0
LINE
  5
3F7
330
1F
100
AcDbEntity
  8
図
  6
CONTINUOUS
 62
     7
100
AcDbLine
 10
1126.0
 20
801.1046984901068
 30
0.0
 11
1289.0743309388
 21
801.1046984901066
 31
0.0
  0
ARC
  5
3F8
330
1F
100
AcDbEntity
  8
図
  6
CONTINUOUS
 62
     7
100
AcDbCircle
 10
4066.158111549062
 20
1372.853149718815
 30
0.0
 40
3000.000000000002
100
AcDbArc
 50
191.0795890467544
 51
193.2557641055712
  0
LINE
  5
3F9
330
1F
100
AcDbEntity
  8
図
  6
CONTINUOUS
 62
     6
100
AcDbLine
 10
1121.144748503389
 20
801.1046984901068
 30
0.0
 11
1126.0
 21
801.1046984901068
 31
0.0
  0
ARC
  5
3FA
330
1F
100
AcDbEntity
  8
図
  6
CONTINUOUS
 62
     6
100
AcDbCircle
 10
4066.158111549062
 20
1372.853149718815
 30
0.0
 40
3000.000000000002
100
AcDbArc
 50
190.9867986826675
 51
191.0795890467544
  0
ARC
  5
3FB
330
1F
100
AcDbEntity
  8
図
  6
CONTINUOUS
 62
     7
100
AcDbCircle
 10
1300.730060344544
 20
857.1046984901068
 30
0.0
 40
4.0
100
AcDbArc
 50
90.00000000000001
 51
176.0000000000525
  0
LINE
  5
3FC
330
1F
100
AcDbEntity
  8
図
  6
CONTINUOUS
 62
     7
100
AcDbLine
 10
1296.739804143504
 20
857.3837243850832
 30
0.0
 11
1293.064587139871
 21
804.8256725951302
 31
0.0
  0
LINE
  5
3FD
330
1F
100
AcDbEntity
  8
図
  6
CONTINUOUS
 62
     7
100
AcDbLine
 10
1300.665
 20
861.1046984901097
 30
0.0
 11
1317.0
 21
861.1046984901067
 31
0.0
  0
LINE
  5
3FE
330
1F
100
AcDbEntity
  8
図
  6
CONTINUOUS
 62
     6
100
AcDbLine
 10
1296.999999999993
 20
861.1046984901067
 30
0.0
 11
1300.7300603445
 21
861.1046984901114
 31
0.0
  0
LINE
  5
3FF
330
1F
100
AcDbEntity
  8
図
  6
CONTINUOUS
 62
     6
100
AcDbLine
 10
1296.999999999993
 20
861.1046984901067
 30
0.0
 11
1296.739804143504
 21
857.3837243850837
 31
0.0
  0
LINE
  5
400
330
1F
100
AcDbEntity
  8
図
  6
CONTINUOUS
 62
     6
100
AcDbLine
 10
1603.6007381566
 20
593.2093969802203
 30
0.0
 11
1754.5
 21
593.2093969802203
 31
0.0
  0
TEXT
  5
401
330
1F
100
AcDbEntity
  8
図
  6
CONTINUOUS
 62
     2
100
AcDbText
 10
1605.10073815658
 20
599.7093969802203
 30
0.0
 40
20.0
  1
Ｂ－Ｏ－Ｂ断面図
 41
1.131914893617021
  7
EXCADSTD
 72
     5
 11
1757.10073815658
 21
599.7093969802203
 31
0.0
100
AcDbText
  0
LINE
  5
402
330
1F
100
AcDbEntity
  8
図
  6
EXLTYPE3
 62
     6
100
AcDbLine
 10
1683.1011061566
 20
710.404698490107
 30
0.0
 11
1683.1011061566
 21
675.7046984901069
 31
0.0
  0
DIMENSION
  5
403
330
1F
100
AcDbEntity
  8
図
  6
CONTINUOUS
 62
     3
100
AcDbDimension
  2
*D36
 10
778.6011061566
 20
1339.5
 30
0.0
 11
601.1011061566
 21
1351.249999970198
 31
0.0
 70
   160
  3
ISO-25
100
AcDbAlignedDimension
 13
423.6011061566001
 23
1290.1046984901
 33
0.0
 14
778.6011061566
 24
1290.1046984901
 34
0.0
100
AcDbRotatedDimension
1001
ACAD
1000
DSTYLE
1002
{
1070
   270
1070
     2
1070
     6
1000
EX_NORM
1070
     7
1000
EX_NORM
1070
    41
1040
15.0
1070
    42
1040
3.499999940395355
1070
    44
1040
5.0
1070
    73
1070
     0
1070
    74
1070
     0
1070
    75
1070
     0
1070
    76
1070
     0
1070
    77
1070
     1
1070
    78
1070
     0
1070
   140
1040
20.0
1070
   147
1040
0.0
1070
   173
1070
     1
1070
   176
1070
     3
1070
   177
1070
     3
1070
   178
1070
     2
1070
   271
1070
     0
1070
   277
1070
     2
1070
   279
1070
     2
1070
   280
1070
     0
1070
   287
1070
     5
1070
   340
1005
157
1002
}
  0
DIMENSION
  5
410
330
1F
100
AcDbEntity
  8
図
  6
CONTINUOUS
 62
     3
100
AcDbDimension
  2
*D37
 10
713.1011061566
 20
1053.0
 30
0.0
 11
657.1011061565999
 21
1064.749999970198
 31
0.0
 70
   160
  3
ISO-25
100
AcDbAlignedDimension
 13
601.1011061566
 23
1053.0
 33
0.0
 14
713.1011061566
 24
1192.1046984901
 34
0.0
100
AcDbRotatedDimension
1001
ACAD
1000
DSTYLE
1002
{
1070
   270
1070
     2
1070
     6
1000
EX_NORM
1070
     7
1000
EX_NORM
1070
    41
1040
15.0
1070
    42
1040
3.499999940395355
1070
    44
1040
5.0
1070
    73
1070
     0
1070
    74
1070
     0
1070
    75
1070
     1
1070
    76
1070
     0
1070
    77
1070
     1
1070
    78
1070
     0
1070
   140
1040
20.0
1070
   147
1040
0.0
1070
   173
1070
     1
1070
   176
1070
     3
1070
   177
1070
     3
1070
   178
1070
     2
1070
   271
1070
     0
1070
   277
1070
     2
1070
   279
1070
     2
1070
   280
1070
     0
1070
   287
1070
     5
1070
   340
1005
157
1002
}
  0
ENDSEC
  0
SECTION
  2
OBJECTS
  0
DICTIONARY
  5
C
330
0
100
AcDbDictionary
  3
ACAD_GROUP
350
D
  3
ACAD_LAYOUT
350
1A
  3
ACAD_MATERIAL
350
3B
  3
ACAD_MLEADERSTYLE
350
43E
  3
ACAD_MLINESTYLE
350
17
  3
ACAD_PLOTSETTINGS
350
19
  3
ACAD_VISUALSTYLE
350
2A
  3
ACDBHEADERROUNDTRIPXREC
350
41C
  3
ACDBVARIABLEDICTIONARY
350
43C
  0
DICTIONARY
  5
D
102
{ACAD_REACTORS
330
C
102
}
330
C
100
AcDbDictionary
  0
DICTIONARY
  5
1A
102
{ACAD_REACTORS
330
C
102
}
330
C
100
AcDbDictionary
  0
DICTIONARY
  5
3B
102
{ACAD_REACTORS
330
C
102
}
330
C
100
AcDbDictionary
  3
BYBLOCK
350
3D
  3
BYLAYER
350
3C
  3
GLOBAL
350
3E
  0
DICTIONARY
  5
43E
102
{ACAD_REACTORS
330
C
102
}
330
C
100
AcDbDictionary
  0
DICTIONARY
  5
17
102
{ACAD_REACTORS
330
C
102
}
330
C
100
AcDbDictionary
  3
STANDARD
350
18
  0
DICTIONARY
  5
19
102
{ACAD_REACTORS
330
C
102
}
330
C
100
AcDbDictionary
  0
DICTIONARY
  5
2A
102
{ACAD_REACTORS
330
C
102
}
330
C
100
AcDbDictionary
  3
2DWIREFRAME
350
2F
  3
3D_HIDDEN
350
31
  3
3DWIREFRAME
350
30
  3
BASIC
350
32
  3
BRIGHTEN
350
36
  3
COLORCHANGE
350
3A
  3
CONCEPTUAL
350
34
  3
DIM
350
35
  3
FACEPATTERN
350
39
  3
FLAT
350
2B
  3
FLATWITHEDGES
350
2C
  3
GOURAUD
350
2D
  3
GOURAUDWITHEDGES
350
2E
  3
LINEPATTERN
350
38
  3
REALISTIC
350
33
  3
THICKEN
350
37
  0
DICTIONARY
  5
41C
102
{ACAD_REACTORS
330
C
102
}
330
C
100
AcDbDictionary
  3
CEPSNTYPE
350
425
  3
DIMSTYLEDATA
350
43B
  3
FINGERPRINTGUID
350
426
  3
HYPERLINKBASE
350
41F
  3
INSUNITS
350
424
  3
LAYOUTDICT
350
421
  3
LWETCUNION
350
423
  3
PLOTSETDICT
350
422
  3
PSVPSCALE
350
428
  3
PUCSBASE
350
42B
  3
PUCSORGBACK
350
431
  3
PUCSORGBOTTOM
350
42D
  3
PUCSORGFRONT
350
430
  3
PUCSORGLEFT
350
42E
  3
PUCSORGRIGHT
350
42F
  3
PUCSORGTOP
350
42C
  3
PUCSORTHOREF
350
429
  3
PUCSORTHOVIEW
350
42A
  3
STYLESHEET
350
420
  3
TSTACKALIGN
350
41D
  3
TSTACKSIZE
350
41E
  3
UCSBASE
350
434
  3
UCSORGBACK
350
43A
  3
UCSORGBOTTOM
350
436
  3
UCSORGFRONT
350
439
  3
UCSORGLEFT
350
437
  3
UCSORGRIGHT
350
438
  3
UCSORGTOP
350
435
  3
UCSORTHOREF
350
432
  3
UCSORTHOVIEW
350
433
  3
VERSIONGUID
350
427
  0
DICTIONARY
  5
43C
102
{ACAD_REACTORS
330
C
102
}
330
C
100
AcDbDictionary
  3
DIMASSOC
350
441
  3
HIDETEXT
350
442
  3
PSOLHEIGHT
350
440
  3
PSOLWIDTH
350
43F
  0
MATERIAL
  5
3D
102
{ACAD_REACTORS
330
3B
102
}
102
{ACAD_XDICTIONARY
360
445
102
}
330
3B
100
AcDbMaterial
  1
ByBlock
  0
MATERIAL
  5
3C
102
{ACAD_REACTORS
330
3B
102
}
102
{ACAD_XDICTIONARY
360
443
102
}
330
3B
100
AcDbMaterial
  1
ByLayer
  0
MATERIAL
  5
3E
102
{ACAD_REACTORS
330
3B
102
}
102
{ACAD_XDICTIONARY
360
447
102
}
330
3B
100
AcDbMaterial
  1
Global
  0
MLINESTYLE
  5
18
102
{ACAD_REACTORS
330
17
102
}
330
17
100
AcDbMlineStyle
  2
Standard
 70
     0
  3

 62
   256
 51
90.0
 52
90.0
 71
     2
 49
0.5
 62
   256
  6
BYLAYER
 49
-0.5
 62
   256
  6
BYLAYER
  0
ACAD_PROXY_OBJECT
  5
2F
102
{ACAD_REACTORS
330
2A
102
}
330
2A
100
AcDbProxyObject
 90
      499
 91
      501
 93
      436
310
42CC9915DA5C99599C985B595049028333333333333E3BF0000000000000FB0107901411070040501600405405064090741402480A0340
1001
ACAD
1000
AcDbSavedByObjectVersion
1070
     0
  0
ACAD_PROXY_OBJECT
  5
31
102
{ACAD_REACTORS
330
2A
102
}
330
2A
100
AcDbProxyObject
 90
      499
 91
      501
 93
      500
310
424CD108121A5919195B90640502408333333333333E3BF0000000000000FB01079024090700405020000000000001110200405405064090740C02480A0340
1001
ACAD
1000
AcDbSavedByObjectVersion
1070
     0
  0
ACAD_PROXY_OBJECT
  5
30
102
{ACAD_REACTORS
330
2A
102
}
330
2A
100
AcDbProxyObject
 90
      499
 91
      501
 93
      436
310
42CCD915DA5C99599C985B595059028333333333333E3BF0000000000000FB0107901411070040501600405405064090741402480A0340
1001
ACAD
1000
AcDbSavedByObjectVersion
1070
     0
  0
ACAD_PROXY_OBJECT
  5
32
102
{ACAD_REACTORS
330
2A
102
}
330
2A
100
AcDbProxyObject
 90
      499
 91
      501
 93
      388
310
4150985CDA58D07406404333333333333E3BF0000000000000FB0107A41107004050150841D405064090741402480A0350
1001
ACAD
1000
AcDbSavedByObjectVersion
1070
     0
  0
ACAD_PROXY_OBJECT
  5
36
102
{ACAD_REACTORS
330
2A
102
}
330
2A
100
AcDbProxyObject
 90
      499
 91
      501
 93
      428
310
42109C9A59DA1D195B90C409028333333333333E3BF0000000000000FB010790141107004050150841D405064090741402480A029950
1001
ACAD
1000
AcDbSavedByObjectVersion
1070
     0
  0
ACAD_PROXY_OBJECT
  5
3A
102
{ACAD_REACTORS
330
2A
102
}
330
2A
100
AcDbProxyObject
 90
      499
 91
      501
 93
      452
310
42D0DBDB1BDC90DA185B99D95104090240C333333333333E3BF0000000000000FB0108901411070040501508421405064090741402480A0350
1001
ACAD
1000
AcDbSavedByObjectVersion
1070
     0
  0
ACAD_PROXY_OBJECT
  5
34
102
{ACAD_REACTORS
330
2A
102
}
330
2A
100
AcDbProxyObject
 90
      499
 91
      501
 93
      500
310
4290DBDB98D95C1D1D585B10940D028333333333333E3BF0000000000000FB0107902409070040501000000000000111010841D405064090740C02480A0340
1001
ACAD
1000
AcDbSavedByObjectVersion
1070
     0
  0
ACAD_PROXY_OBJECT
  5
35
102
{ACAD_REACTORS
330
2A
102
}
330
2A
100
AcDbProxyObject
 90
      499
 91
      501
 93
      412
310
40D11A5B50B409028333333333333E3BF0000000000000FB010790141107004050150841D405064090741402480A02677FFFFFD0
1001
ACAD
1000
AcDbSavedByObjectVersion
1070
     0
  0
ACAD_PROXY_OBJECT
  5
39
102
{ACAD_REACTORS
330
2A
102
}
330
2A
100
AcDbProxyObject
 90
      499
 91
      501
 93
      444
310
42D19858D95C185D1D195C9B90F409028333333333333E3BF0000000000000FB010790141107004050150841D405064090741402480A0350
1001
ACAD
1000
AcDbSavedByObjectVersion
1070
     0
  0
ACAD_PROXY_OBJECT
  5
2B
102
{ACAD_REACTORS
330
2A
102
}
330
2A
100
AcDbProxyObject
 90
      499
 91
      501
 93
      388
310
41119B185D240901404333333333333E3BF0000000000000F9010740A41107004050150841D405064090741402480A1B50
1001
ACAD
1000
AcDbSavedByObjectVersion
1070
     0
  0
ACAD_PROXY_OBJECT
  5
2C
102
{ACAD_REACTORS
330
2A
102
}
330
2A
100
AcDbProxyObject
 90
      499
 91
      501
 93
      476
310
43519B185D15DA5D1A115919D95CD0140901404333333333333E3BF0000000000000F9010740901411070040501600405405064090741402480A1B50
1001
ACAD
1000
AcDbSavedByObjectVersion
1070
     0
  0
ACAD_PROXY_OBJECT
  5
2D
102
{ACAD_REACTORS
330
2A
102
}
330
2A
100
AcDbProxyObject
 90
      499
 91
      501
 93
      412
310
41D1DBDD5C985D5910240902404333333333333E3BF0000000000000F9010740A411070040501641D405064090741402480A1B50
1001
ACAD
1000
AcDbSavedByObjectVersion
1070
     0
  0
ACAD_PROXY_OBJECT
  5
2E
102
{ACAD_REACTORS
330
2A
102
}
330
2A
100
AcDbProxyObject
 90
      499
 91
      501
 93
      500
310
4411DBDD5C985D5915DA5D1A115919D95CD0340902404333333333333E3BF0000000000000F9010740901411070040501600405405064090741402480A1B50
1001
ACAD
1000
AcDbSavedByObjectVersion
1070
     0
  0
ACAD_PROXY_OBJECT
  5
38
102
{ACAD_REACTORS
330
2A
102
}
330
2A
100
AcDbProxyObject
 90
      499
 91
      501
 93
      444
310
42D31A5B995C185D1D195C9B90E409028333333333333E3BF0000000000000FB010790141107004050750841D405064090741402483A0350
1001
ACAD
1000
AcDbSavedByObjectVersion
1070
     0
  0
ACAD_PROXY_OBJECT
  5
33
102
{ACAD_REACTORS
330
2A
102
}
330
2A
100
AcDbProxyObject
 90
      499
 91
      501
 93
      420
310
425499585B1A5CDD1A58D08409028333333333333E3BF0000000000000FB01079019070040501508421405064090741402480A1B40
1001
ACAD
1000
AcDbSavedByObjectVersion
1070
     0
  0
ACAD_PROXY_OBJECT
  5
37
102
{ACAD_REACTORS
330
2A
102
}
330
2A
100
AcDbProxyObject
 90
      499
 91
      501
 93
      412
310
41D51A1A58DAD95B90D409028333333333333E3BF0000000000000FB010790141107004050150C41D405064090741402480A0350
1001
ACAD
1000
AcDbSavedByObjectVersion
1070
     0
  0
XRECORD
  5
425
102
{ACAD_REACTORS
330
41C
102
}
330
41C
100
AcDbXrecord
 90
        0
  0
XRECORD
  5
43B
102
{ACAD_REACTORS
330
41C
102
}
330
41C
100
AcDbXrecord
1000
DSTYLE
1002
{
1070
   340
340
11
1002
}
  0
XRECORD
  5
426
102
{ACAD_REACTORS
330
41C
102
}
330
41C
100
AcDbXrecord
  1
{8CC05CA8-6ADE-4E93-B78B-CA24D51C75FF}
  0
XRECORD
  5
41F
102
{ACAD_REACTORS
330
41C
102
}
330
41C
100
AcDbXrecord
  1

  0
XRECORD
  5
424
102
{ACAD_REACTORS
330
41C
102
}
330
41C
100
AcDbXrecord
 90
        4
  0
XRECORD
  5
421
102
{ACAD_REACTORS
330
41C
102
}
330
41C
100
AcDbXrecord
340
1A
  0
XRECORD
  5
423
102
{ACAD_REACTORS
330
41C
102
}
330
41C
100
AcDbXrecord
 90
    10781
  0
XRECORD
  5
422
102
{ACAD_REACTORS
330
41C
102
}
330
41C
100
AcDbXrecord
340
19
  0
XRECORD
  5
428
102
{ACAD_REACTORS
330
41C
102
}
330
41C
100
AcDbXrecord
 40
0.0
  0
XRECORD
  5
42B
102
{ACAD_REACTORS
330
41C
102
}
330
41C
100
AcDbXrecord
340
0
  0
XRECORD
  5
431
102
{ACAD_REACTORS
330
41C
102
}
330
41C
100
AcDbXrecord
 10
0.0
 20
0.0
 30
0.0
  0
XRECORD
  5
42D
102
{ACAD_REACTORS
330
41C
102
}
330
41C
100
AcDbXrecord
 10
0.0
 20
0.0
 30
0.0
  0
XRECORD
  5
430
102
{ACAD_REACTORS
330
41C
102
}
330
41C
100
AcDbXrecord
 10
0.0
 20
0.0
 30
0.0
  0
XRECORD
  5
42E
102
{ACAD_REACTORS
330
41C
102
}
330
41C
100
AcDbXrecord
 10
0.0
 20
0.0
 30
0.0
  0
XRECORD
  5
42F
102
{ACAD_REACTORS
330
41C
102
}
330
41C
100
AcDbXrecord
 10
0.0
 20
0.0
 30
0.0
  0
XRECORD
  5
42C
102
{ACAD_REACTORS
330
41C
102
}
330
41C
100
AcDbXrecord
 10
0.0
 20
0.0
 30
0.0
  0
XRECORD
  5
429
102
{ACAD_REACTORS
330
41C
102
}
330
41C
100
AcDbXrecord
340
0
  0
XRECORD
  5
42A
102
{ACAD_REACTORS
330
41C
102
}
330
41C
100
AcDbXrecord
 70
     0
  0
XRECORD
  5
420
102
{ACAD_REACTORS
330
41C
102
}
330
41C
100
AcDbXrecord
  1

  0
XRECORD
  5
41D
102
{ACAD_REACTORS
330
41C
102
}
330
41C
100
AcDbXrecord
 90
        1
  0
XRECORD
  5
41E
102
{ACAD_REACTORS
330
41C
102
}
330
41C
100
AcDbXrecord
 90
       70
  0
XRECORD
  5
434
102
{ACAD_REACTORS
330
41C
102
}
330
41C
100
AcDbXrecord
340
0
  0
XRECORD
  5
43A
102
{ACAD_REACTORS
330
41C
102
}
330
41C
100
AcDbXrecord
 10
0.0
 20
0.0
 30
0.0
  0
XRECORD
  5
436
102
{ACAD_REACTORS
330
41C
102
}
330
41C
100
AcDbXrecord
 10
0.0
 20
0.0
 30
0.0
  0
XRECORD
  5
439
102
{ACAD_REACTORS
330
41C
102
}
330
41C
100
AcDbXrecord
 10
0.0
 20
0.0
 30
0.0
  0
XRECORD
  5
437
102
{ACAD_REACTORS
330
41C
102
}
330
41C
100
AcDbXrecord
 10
0.0
 20
0.0
 30
0.0
  0
XRECORD
  5
438
102
{ACAD_REACTORS
330
41C
102
}
330
41C
100
AcDbXrecord
 10
0.0
 20
0.0
 30
0.0
  0
XRECORD
  5
435
102
{ACAD_REACTORS
330
41C
102
}
330
41C
100
AcDbXrecord
 10
0.0
 20
0.0
 30
0.0
  0
XRECORD
  5
432
102
{ACAD_REACTORS
330
41C
102
}
330
41C
100
AcDbXrecord
340
0
  0
XRECORD
  5
433
102
{ACAD_REACTORS
330
41C
102
}
330
41C
100
AcDbXrecord
 70
     0
  0
XRECORD
  5
427
102
{ACAD_REACTORS
330
41C
102
}
330
41C
100
AcDbXrecord
  1
{FAEB1C32-E019-11D5-929B-00C0DF256EC4}
  0
DICTIONARYVAR
  5
441
102
{ACAD_REACTORS
330
43C
102
}
330
43C
100
DictionaryVariables
280
     0
  1
2
  0
DICTIONARYVAR
  5
442
102
{ACAD_REACTORS
330
43C
102
}
330
43C
100
DictionaryVariables
280
     0
  1
1
  0
DICTIONARYVAR
  5
440
102
{ACAD_REACTORS
330
43C
102
}
330
43C
100
DictionaryVariables
280
     0
  1
80.000000
  0
DICTIONARYVAR
  5
43F
102
{ACAD_REACTORS
330
43C
102
}
330
43C
100
DictionaryVariables
280
     0
  1
5.000000
  0
DICTIONARY
  5
445
330
3D
100
AcDbDictionary
280
     1
  3
ACAD_XREC_ROUNDTRIP
360
446
  0
DICTIONARY
  5
443
330
3C
100
AcDbDictionary
280
     1
  3
ACAD_XREC_ROUNDTRIP
360
444
  0
DICTIONARY
  5
447
330
3E
100
AcDbDictionary
280
     1
  3
ACAD_XREC_ROUNDTRIP
360
448
  0
XRECORD
  5
446
102
{ACAD_REACTORS
330
445
102
}
330
445
100
AcDbXrecord
102
MATERIAL
148
0.0
149
0.0
149
0.0
 93
        0
 94
      127
282
     0
 72
     1
 77
     1
171
     1
175
     1
179
     1
273
     0
  0
XRECORD
  5
444
102
{ACAD_REACTORS
330
443
102
}
330
443
100
AcDbXrecord
102
MATERIAL
148
0.0
149
0.0
149
0.0
 93
        0
 94
      127
282
     0
 72
     1
 77
     1
171
     1
175
     1
179
     1
273
     0
  0
XRECORD
  5
448
102
{ACAD_REACTORS
330
447
102
}
330
447
100
AcDbXrecord
102
MATERIAL
148
0.0
149
0.0
149
0.0
 93
        0
 94
      127
282
     0
 72
     1
 77
     1
171
     1
175
     1
179
     1
273
     0
  0
ENDSEC
  0
EOF
