  0
SECTION
  2
HEADER
  9
$ACADVER
  1
AC1014
  9
$ACADMAINTVER
 70
     9
  9
$DWGCODEPAGE
  3
ANSI_932
  9
$INSBASE
 10
0.0
 20
0.0
 30
0.0
  9
$EXTMIN
 10
6.000000000000247
 20
10.39999999999591
 30
0.0
  9
$EXTMAX
 10
404.9
 20
287.3999999999932
 30
0.0
  9
$LIMMIN
 10
0.0
 20
0.0
  9
$LIMMAX
 10
420.0
 20
297.0
  9
$ORTHOMODE
 70
     0
  9
$REGENMODE
 70
     1
  9
$FILLMODE
 70
     1
  9
$QTEXTMODE
 70
     0
  9
$MIRRTEXT
 70
     1
  9
$DRAGMODE
 70
     2
  9
$LTSCALE
 40
1.0
  9
$OSMODE
 70
    37
  9
$ATTMODE
 70
     1
  9
$TEXTSIZE
 40
2.5
  9
$TRACEWID
 40
1.0
  9
$TEXTSTYLE
  7
STANDARD
  9
$CLAYER
  8
承認図
  9
$CELTYPE
  6
BYLAYER
  9
$CECOLOR
 62
   256
  9
$CELTSCALE
 40
1.0
  9
$DELOBJ
 70
     1
  9
$DISPSILH
 70
     0
  9
$DIMSCALE
 40
1.0
  9
$DIMASZ
 40
2.5
  9
$DIMEXO
 40
0.625
  9
$DIMDLI
 40
3.75
  9
$DIMRND
 40
0.0
  9
$DIMDLE
 40
0.0
  9
$DIMEXE
 40
1.25
  9
$DIMTP
 40
0.0
  9
$DIMTM
 40
0.0
  9
$DIMTXT
 40
2.5
  9
$DIMCEN
 40
2.5
  9
$DIMTSZ
 40
0.0
  9
$DIMTOL
 70
     0
  9
$DIMLIM
 70
     0
  9
$DIMTIH
 70
     0
  9
$DIMTOH
 70
     0
  9
$DIMSE1
 70
     0
  9
$DIMSE2
 70
     0
  9
$DIMTAD
 70
     1
  9
$DIMZIN
 70
     8
  9
$DIMBLK
  1

  9
$DIMASO
 70
     1
  9
$DIMSHO
 70
     1
  9
$DIMPOST
  1

  9
$DIMAPOST
  1

  9
$DIMALT
 70
     0
  9
$DIMALTD
 70
     3
  9
$DIMALTF
 40
0.03937007874016
  9
$DIMLFAC
 40
1.0
  9
$DIMTOFL
 70
     1
  9
$DIMTVP
 40
0.0
  9
$DIMTIX
 70
     0
  9
$DIMSOXD
 70
     0
  9
$DIMSAH
 70
     0
  9
$DIMBLK1
  1

  9
$DIMBLK2
  1

  9
$DIMSTYLE
  2
ISO-25
  9
$DIMCLRD
 70
     0
  9
$DIMCLRE
 70
     0
  9
$DIMCLRT
 70
     0
  9
$DIMTFAC
 40
1.0
  9
$DIMGAP
 40
0.625
  9
$DIMJUST
 70
     0
  9
$DIMSD1
 70
     0
  9
$DIMSD2
 70
     0
  9
$DIMTOLJ
 70
     0
  9
$DIMTZIN
 70
     8
  9
$DIMALTZ
 70
     0
  9
$DIMALTTZ
 70
     0
  9
$DIMFIT
 70
     3
  9
$DIMUPT
 70
     0
  9
$DIMUNIT
 70
     2
  9
$DIMDEC
 70
     2
  9
$DIMTDEC
 70
     2
  9
$DIMALTU
 70
     2
  9
$DIMALTTD
 70
     3
  9
$DIMTXSTY
  7
STANDARD
  9
$DIMAUNIT
 70
     0
  9
$LUNITS
 70
     2
  9
$LUPREC
 70
     4
  9
$SKETCHINC
 40
1.0
  9
$FILLETRAD
 40
10.0
  9
$AUNITS
 70
     0
  9
$AUPREC
 70
     0
  9
$MENU
  1
.
  9
$ELEVATION
 40
0.0
  9
$PELEVATION
 40
0.0
  9
$THICKNESS
 40
0.0
  9
$LIMCHECK
 70
     0
  9
$CHAMFERA
 40
10.0
  9
$CHAMFERB
 40
10.0
  9
$CHAMFERC
 40
20.0
  9
$CHAMFERD
 40
0.0
  9
$SKPOLY
 70
     0
  9
$TDCREATE
 40
2460556.636432512
  9
$TDUPDATE
 40
2460556.63643287
  9
$TDINDWG
 40
0.0000000116
  9
$TDUSRTIMER
 40
0.0000000116
  9
$USRTIMER
 70
     1
  9
$ANGBASE
 50
0.0
  9
$ANGDIR
 70
     0
  9
$PDMODE
 70
     0
  9
$PDSIZE
 40
0.0
  9
$PLINEWID
 40
0.0
  9
$COORDS
 70
     1
  9
$SPLFRAME
 70
     0
  9
$SPLINETYPE
 70
     6
  9
$SPLINESEGS
 70
     8
  9
$ATTDIA
 70
     0
  9
$ATTREQ
 70
     1
  9
$HANDLING
 70
     1
  9
$HANDSEED
  5
394
  9
$SURFTAB1
 70
     6
  9
$SURFTAB2
 70
     6
  9
$SURFTYPE
 70
     6
  9
$SURFU
 70
     6
  9
$SURFV
 70
     6
  9
$UCSNAME
  2

  9
$UCSORG
 10
0.0
 20
0.0
 30
0.0
  9
$UCSXDIR
 10
1.0
 20
0.0
 30
0.0
  9
$UCSYDIR
 10
0.0
 20
1.0
 30
0.0
  9
$PUCSNAME
  2

  9
$PUCSORG
 10
0.0
 20
0.0
 30
0.0
  9
$PUCSXDIR
 10
1.0
 20
0.0
 30
0.0
  9
$PUCSYDIR
 10
0.0
 20
1.0
 30
0.0
  9
$USERI1
 70
     0
  9
$USERI2
 70
     0
  9
$USERI3
 70
     0
  9
$USERI4
 70
     0
  9
$USERI5
 70
     0
  9
$USERR1
 40
0.0
  9
$USERR2
 40
0.0
  9
$USERR3
 40
0.0
  9
$USERR4
 40
0.0
  9
$USERR5
 40
0.0
  9
$WORLDVIEW
 70
     1
  9
$SHADEDGE
 70
     3
  9
$SHADEDIF
 70
    70
  9
$TILEMODE
 70
     1
  9
$MAXACTVP
 70
    64
  9
$PINSBASE
 10
0.0
 20
0.0
 30
0.0
  9
$PLIMCHECK
 70
     0
  9
$PEXTMIN
 10
1.000000000000000E+20
 20
1.000000000000000E+20
 30
1.000000000000000E+20
  9
$PEXTMAX
 10
-1.000000000000000E+20
 20
-1.000000000000000E+20
 30
-1.000000000000000E+20
  9
$PLIMMIN
 10
0.0
 20
0.0
  9
$PLIMMAX
 10
420.0
 20
297.0
  9
$UNITMODE
 70
     0
  9
$VISRETAIN
 70
     1
  9
$PLINEGEN
 70
     0
  9
$PSLTSCALE
 70
     1
  9
$TREEDEPTH
 70
  3020
  9
$PICKSTYLE
 70
     1
  9
$CMLSTYLE
  2
STANDARD
  9
$CMLJUST
 70
     0
  9
$CMLSCALE
 40
20.0
  9
$PROXYGRAPHICS
 70
     1
  9
$MEASUREMENT
 70
     1
  0
ENDSEC
  0
SECTION
  2
CLASSES
  0
CLASS
  1
ACDBDICTIONARYWDFLT
  2
AcDbDictionaryWithDefault
  3
ObjectDBX Classes
 90
        0
280
     0
281
     0
  0
CLASS
  1
VISUALSTYLE
  2
AcDbVisualStyle
  3
ObjectDBX Classes
 90
     4095
280
     0
281
     0
  0
CLASS
  1
MATERIAL
  2
AcDbMaterial
  3
ObjectDBX Classes
 90
     1153
280
     0
281
     0
  0
CLASS
  1
SUN
  2
AcDbSun
  3
SCENEOE
 90
     1024
280
     0
281
     0
  0
CLASS
  1
DICTIONARYVAR
  2
AcDbDictionaryVar
  3
ObjectDBX Classes
 90
        0
280
     0
281
     0
  0
CLASS
  1
XRECORD
  2
AcDbXrecord
  3
AutoCAD 2000
 90
        0
280
     0
281
     0
  0
CLASS
  1
LWPOLYLINE
  2
AcDbPolyline
  3
AutoCAD 2000
 90
        0
280
     0
281
     1
  0
CLASS
  1
HATCH
  2
AcDbHatch
  3
AutoCAD 2000
 90
        0
280
     0
281
     1
  0
CLASS
  1
ACDBPLACEHOLDER
  2
AcDbPlaceHolder
  3
ObjectDBX Classes
 90
        0
280
     0
281
     0
  0
CLASS
  1
LAYOUT
  2
AcDbLayout
  3
ObjectDBX Classes
 90
        0
280
     0
281
     0
  0
ENDSEC
  0
SECTION
  2
TABLES
  0
TABLE
  2
VPORT
  5
8
330
0
100
AcDbSymbolTable
 70
     1
  0
VPORT
  5
29
330
8
100
AcDbSymbolTableRecord
100
AcDbViewportTableRecord
  2
*ACTIVE
 70
     0
 10
0.0
 20
0.0
 11
1.0
 21
1.0
 12
1027.250000000001
 22
744.4999999999726
 13
0.0
 23
0.0
 14
10.0
 24
10.0
 15
10.0
 25
10.0
 16
0.0
 26
0.0
 36
1.0
 17
0.0
 27
0.0
 37
0.0
 40
1384.999999999986
 41
1.440072202166078
 42
50.0
 43
0.0
 44
0.0
 50
0.0
 51
0.0
 71
     0
 72
  1000
 73
     1
 74
     3
 75
     0
 76
     0
 77
     0
 78
     0
  0
ENDTAB
  0
TABLE
  2
LTYPE
  5
5
330
0
100
AcDbSymbolTable
 70
     9
  0
LTYPE
  5
14
330
5
100
AcDbSymbolTableRecord
100
AcDbLinetypeTableRecord
  2
BYBLOCK
 70
     0
  3

 72
    65
 73
     0
 40
0.0
  0
LTYPE
  5
15
330
5
100
AcDbSymbolTableRecord
100
AcDbLinetypeTableRecord
  2
BYLAYER
 70
     0
  3

 72
    65
 73
     0
 40
0.0
  0
LTYPE
  5
16
330
5
100
AcDbSymbolTableRecord
100
AcDbLinetypeTableRecord
  2
CONTINUOUS
 70
     0
  3
Solid line
 72
    65
 73
     0
 40
0.0
  0
LTYPE
  5
40
330
5
100
AcDbSymbolTableRecord
100
AcDbLinetypeTableRecord
  2
EXLTYPE1
 70
     0
  3
破線
 72
    65
 73
     2
 40
3.0
 49
2.0
 74
     0
 49
-1.0
 74
     0
  0
LTYPE
  5
41
330
5
100
AcDbSymbolTableRecord
100
AcDbLinetypeTableRecord
  2
EXLTYPE2
 70
     0
  3
点線
 72
    65
 73
     2
 40
2.0
 49
1.0
 74
     0
 49
-1.0
 74
     0
  0
LTYPE
  5
42
330
5
100
AcDbSymbolTableRecord
100
AcDbLinetypeTableRecord
  2
EXLTYPE3
 70
     0
  3
一点鎖線
 72
    65
 73
     4
 40
10.0
 49
7.0
 74
     0
 49
-1.0
 74
     0
 49
1.0
 74
     0
 49
-1.0
 74
     0
  0
LTYPE
  5
43
330
5
100
AcDbSymbolTableRecord
100
AcDbLinetypeTableRecord
  2
EXLTYPE4
 70
     0
  3
二点鎖線
 72
    65
 73
     6
 40
12.0
 49
7.0
 74
     0
 49
-1.0
 74
     0
 49
1.0
 74
     0
 49
-1.0
 74
     0
 49
1.0
 74
     0
 49
-1.0
 74
     0
  0
LTYPE
  5
44
330
5
100
AcDbSymbolTableRecord
100
AcDbLinetypeTableRecord
  2
EXLTYPE5
 70
     0
  3
三点鎖線
 72
    65
 73
     8
 40
37.0
 49
30.0
 74
     0
 49
-1.0
 74
     0
 49
1.0
 74
     0
 49
-1.0
 74
     0
 49
1.0
 74
     0
 49
-1.0
 74
     0
 49
1.0
 74
     0
 49
-1.0
 74
     0
  0
LTYPE
  5
45
330
5
100
AcDbSymbolTableRecord
100
AcDbLinetypeTableRecord
  2
EXLTYPE6
 70
     0
  3
四点鎖線
 72
    65
 73
    10
 40
39.0
 49
30.0
 74
     0
 49
-1.0
 74
     0
 49
1.0
 74
     0
 49
-1.0
 74
     0
 49
1.0
 74
     0
 49
-1.0
 74
     0
 49
1.0
 74
     0
 49
-1.0
 74
     0
 49
1.0
 74
     0
 49
-1.0
 74
     0
  0
LTYPE
  5
46
330
5
100
AcDbSymbolTableRecord
100
AcDbLinetypeTableRecord
  2
EXLTYPE7
 70
     0
  3
破線2
 72
    65
 73
     2
 40
3.0
 49
2.0
 74
     0
 49
-1.0
 74
     0
  0
LTYPE
  5
47
330
5
100
AcDbSymbolTableRecord
100
AcDbLinetypeTableRecord
  2
EXLTYPE8
 70
     0
  3
破線4
 72
    65
 73
     2
 40
0.75
 49
0.25
 74
     0
 49
-0.5
 74
     0
  0
ENDTAB
  0
TABLE
  2
LAYER
  5
2
330
0
100
AcDbSymbolTable
 70
     6
  0
LAYER
  5
10
330
2
100
AcDbSymbolTableRecord
100
AcDbLayerTableRecord
  2
0
 70
     0
 62
     7
  6
CONTINUOUS
  0
LAYER
  5
4A
330
2
100
AcDbSymbolTableRecord
100
AcDbLayerTableRecord
  2
図枠
 70
     0
 62
     7
  6
CONTINUOUS
  0
LAYER
  5
4B
330
2
100
AcDbSymbolTableRecord
100
AcDbLayerTableRecord
  2
承認図
 70
     0
 62
     7
  6
CONTINUOUS
  0
LAYER
  5
4C
330
2
100
AcDbSymbolTableRecord
100
AcDbLayerTableRecord
  2
承認図寸法
 70
     0
 62
     7
  6
CONTINUOUS
  0
LAYER
  5
4D
330
2
100
AcDbSymbolTableRecord
100
AcDbLayerTableRecord
  2
穴径詳細図
 70
     0
 62
     7
  6
CONTINUOUS
  0
LAYER
  5
27B
330
2
100
AcDbSymbolTableRecord
100
AcDbLayerTableRecord
  2
DEFPOINTS
 70
     0
 62
     7
  6
CONTINUOUS
  0
ENDTAB
  0
TABLE
  2
STYLE
  5
3
330
0
100
AcDbSymbolTable
 70
     5
  0
STYLE
  5
11
330
3
100
AcDbSymbolTableRecord
100
AcDbTextStyleTableRecord
  2
STANDARD
 70
     0
 40
0.0
 41
1.0
 50
0.0
 71
     0
 42
2.5
  3
monotxt
  4
extfont
  0
STYLE
  5
48
330
3
100
AcDbSymbolTableRecord
100
AcDbTextStyleTableRecord
  2
EXCADSTD
 70
     0
 40
0.0
 41
1.0
 50
0.0
 71
     0
 42
0.2
  3
monotxt
  4
extfont
  0
STYLE
  5
49
330
3
100
AcDbSymbolTableRecord
100
AcDbTextStyleTableRecord
  2
EXCADVERT
 70
     4
 40
0.0
 41
1.0
 50
0.0
 71
     0
 42
0.286885
  3
monotxt
  4
extfont
  0
STYLE
  5
114
330
3
100
AcDbSymbolTableRecord
100
AcDbTextStyleTableRecord
  2
EXCADTTF1
 70
     0
 40
0.0
 41
1.0
 50
0.0
 71
     0
 42
0.2
  3
MSGOTHIC.TTC
  4

1001
ACAD
1000
MS Gothic
1071
    32817
  0
STYLE
  5
279
330
3
100
AcDbSymbolTableRecord
100
AcDbTextStyleTableRecord
  2
EXCADDIM1
 70
     0
 40
0.0
 41
0.84
 50
0.0
 71
     0
 42
0.2
  3
monotxt
  4
extfont
  0
ENDTAB
  0
TABLE
  2
VIEW
  5
6
330
0
100
AcDbSymbolTable
 70
     0
  0
ENDTAB
  0
TABLE
  2
UCS
  5
7
330
0
100
AcDbSymbolTable
 70
     0
  0
ENDTAB
  0
TABLE
  2
APPID
  5
9
330
0
100
AcDbSymbolTable
 70
     1
  0
APPID
  5
12
330
9
100
AcDbSymbolTableRecord
100
AcDbRegAppTableRecord
  2
ACAD
 70
     0
  0
ENDTAB
  0
TABLE
  2
DIMSTYLE
  5
A
330
0
100
AcDbSymbolTable
 70
     1
  0
DIMSTYLE
105
27
102
{ACAD_REACTORS
330
27A
330
288
330
295
330
2A5
330
2B2
330
2BF
330
2CC
330
2D9
330
2E6
330
2F5
330
302
330
31C
330
329
330
336
330
343
102
}
330
A
100
AcDbSymbolTableRecord
100
AcDbDimStyleTableRecord
  2
ISO-25
 70
     0
  3

  4

  5

  6

  7

 40
1.0
 41
2.5
 42
0.625
 43
3.75
 44
1.25
 45
0.0
 46
0.0
 47
0.0
 48
0.0
140
2.5
141
2.5
142
0.0
143
0.03937007874016
144
1.0
145
0.0
146
1.0
147
0.625
 71
     0
 72
     0
 73
     0
 74
     0
 75
     0
 76
     0
 77
     1
 78
     8
170
     0
171
     3
172
     1
173
     0
174
     0
175
     0
176
     0
177
     0
178
     0
270
     2
271
     2
272
     2
273
     2
274
     3
340
11
275
     0
280
     0
281
     0
282
     0
283
     0
284
     8
285
     0
286
     0
287
     5
288
     0
  0
ENDTAB
  0
TABLE
  2
BLOCK_RECORD
  5
1
330
0
100
AcDbSymbolTable
 70
    30
  0
BLOCK_RECORD
  5
1F
330
1
100
AcDbSymbolTableRecord
100
AcDbBlockTableRecord
  2
*MODEL_SPACE
  0
BLOCK_RECORD
  5
1B
330
1
100
AcDbSymbolTableRecord
100
AcDbBlockTableRecord
  2
*PAPER_SPACE
  0
BLOCK_RECORD
  5
4E
330
1
100
AcDbSymbolTableRecord
100
AcDbBlockTableRecord
  2
EX_NORM
  0
BLOCK_RECORD
  5
51
330
1
100
AcDbSymbolTableRecord
100
AcDbBlockTableRecord
  2
EX_BNORM
  0
BLOCK_RECORD
  5
54
330
1
100
AcDbSymbolTableRecord
100
AcDbBlockTableRecord
  2
EX_BCIR
  0
BLOCK_RECORD
  5
57
330
1
100
AcDbSymbolTableRecord
100
AcDbBlockTableRecord
  2
EX_RCIVIL
  0
BLOCK_RECORD
  5
5A
330
1
100
AcDbSymbolTableRecord
100
AcDbBlockTableRecord
  2
EX_SLANT
  0
BLOCK_RECORD
  5
5D
330
1
100
AcDbSymbolTableRecord
100
AcDbBlockTableRecord
  2
EX_NONE
  0
BLOCK_RECORD
  5
60
330
1
100
AcDbSymbolTableRecord
100
AcDbBlockTableRecord
  2
EX_CIVIL
  0
BLOCK_RECORD
  5
63
330
1
100
AcDbSymbolTableRecord
100
AcDbBlockTableRecord
  2
EX_WCIR
  0
BLOCK_RECORD
  5
66
330
1
100
AcDbSymbolTableRecord
100
AcDbBlockTableRecord
  2
EX_WCIR2
  0
BLOCK_RECORD
  5
69
330
1
100
AcDbSymbolTableRecord
100
AcDbBlockTableRecord
  2
EX_WNORM
  0
BLOCK_RECORD
  5
6C
330
1
100
AcDbSymbolTableRecord
100
AcDbBlockTableRecord
  2
EX_NNORM
  0
BLOCK_RECORD
  5
6F
330
1
100
AcDbSymbolTableRecord
100
AcDbBlockTableRecord
  2
EX_BBOX
  0
BLOCK_RECORD
  5
72
330
1
100
AcDbSymbolTableRecord
100
AcDbBlockTableRecord
  2
EX_WBOX
  0
BLOCK_RECORD
  5
75
330
1
100
AcDbSymbolTableRecord
100
AcDbBlockTableRecord
  2
EX_INTEGRAL
  0
BLOCK_RECORD
  5
27C
330
1
100
AcDbSymbolTableRecord
100
AcDbBlockTableRecord
  2
*D15
  0
BLOCK_RECORD
  5
289
330
1
100
AcDbSymbolTableRecord
100
AcDbBlockTableRecord
  2
*D16
  0
BLOCK_RECORD
  5
296
330
1
100
AcDbSymbolTableRecord
100
AcDbBlockTableRecord
  2
*D17
  0
BLOCK_RECORD
  5
2A6
330
1
100
AcDbSymbolTableRecord
100
AcDbBlockTableRecord
  2
*D18
  0
BLOCK_RECORD
  5
2B3
330
1
100
AcDbSymbolTableRecord
100
AcDbBlockTableRecord
  2
*D19
  0
BLOCK_RECORD
  5
2C0
330
1
100
AcDbSymbolTableRecord
100
AcDbBlockTableRecord
  2
*D20
  0
BLOCK_RECORD
  5
2CD
330
1
100
AcDbSymbolTableRecord
100
AcDbBlockTableRecord
  2
*D21
  0
BLOCK_RECORD
  5
2DA
330
1
100
AcDbSymbolTableRecord
100
AcDbBlockTableRecord
  2
*D22
  0
BLOCK_RECORD
  5
2E7
330
1
100
AcDbSymbolTableRecord
100
AcDbBlockTableRecord
  2
*D23
  0
BLOCK_RECORD
  5
2F6
330
1
100
AcDbSymbolTableRecord
100
AcDbBlockTableRecord
  2
*D24
  0
BLOCK_RECORD
  5
303
330
1
100
AcDbSymbolTableRecord
100
AcDbBlockTableRecord
  2
*D25
  0
BLOCK_RECORD
  5
31D
330
1
100
AcDbSymbolTableRecord
100
AcDbBlockTableRecord
  2
*D26
  0
BLOCK_RECORD
  5
32A
330
1
100
AcDbSymbolTableRecord
100
AcDbBlockTableRecord
  2
*D27
  0
BLOCK_RECORD
  5
337
330
1
100
AcDbSymbolTableRecord
100
AcDbBlockTableRecord
  2
*D28
  0
BLOCK_RECORD
  5
344
330
1
100
AcDbSymbolTableRecord
100
AcDbBlockTableRecord
  2
*D29
  0
ENDTAB
  0
ENDSEC
  0
SECTION
  2
BLOCKS
  0
BLOCK
  5
20
330
1F
100
AcDbEntity
  8
0
100
AcDbBlockBegin
  2
*MODEL_SPACE
 70
     0
 10
0.0
 20
0.0
 30
0.0
  3
*MODEL_SPACE
  1

  0
ENDBLK
  5
21
330
1F
100
AcDbEntity
  8
0
100
AcDbBlockEnd
  0
BLOCK
  5
1C
330
1B
100
AcDbEntity
 67
     1
  8
0
100
AcDbBlockBegin
  2
*PAPER_SPACE
 70
     0
 10
0.0
 20
0.0
 30
0.0
  3
*PAPER_SPACE
  1

  0
ENDBLK
  5
1D
330
1B
100
AcDbEntity
 67
     1
  8
0
100
AcDbBlockEnd
  0
BLOCK
  5
4F
330
4E
100
AcDbEntity
  8
0
100
AcDbBlockBegin
  2
EX_NORM
 70
     0
 10
0.0
 20
0.0
 30
0.0
  3
EX_NORM
  1

  0
LINE
  5
78
330
4E
100
AcDbEntity
  8
0
  6
CONTINUOUS
 62
     0
100
AcDbLine
 10
0.0
 20
0.0
 30
0.0
 11
-1.0
 21
0.0
 31
0.0
  0
LINE
  5
79
330
4E
100
AcDbEntity
  8
0
  6
CONTINUOUS
 62
     0
100
AcDbLine
 10
0.0
 20
0.0
 30
0.0
 11
-1.0
 21
0.166666667
 31
0.0
  0
LINE
  5
7A
330
4E
100
AcDbEntity
  8
0
  6
CONTINUOUS
 62
     0
100
AcDbLine
 10
0.0
 20
0.0
 30
0.0
 11
-1.0
 21
-0.166666667
 31
0.0
  0
ENDBLK
  5
50
330
4E
100
AcDbEntity
  8
0
100
AcDbBlockEnd
  0
BLOCK
  5
52
330
51
100
AcDbEntity
  8
0
100
AcDbBlockBegin
  2
EX_BNORM
 70
     0
 10
0.0
 20
0.0
 30
0.0
  3
EX_BNORM
  1

  0
LINE
  5
7B
330
51
100
AcDbEntity
  8
0
  6
CONTINUOUS
 62
     0
100
AcDbLine
 10
0.0
 20
0.0
 30
0.0
 11
-1.0
 21
0.0
 31
0.0
  0
LINE
  5
7C
330
51
100
AcDbEntity
  8
0
  6
CONTINUOUS
 62
     0
100
AcDbLine
 10
0.0
 20
0.0
 30
0.0
 11
-1.0
 21
0.166666667
 31
0.0
  0
LINE
  5
7D
330
51
100
AcDbEntity
  8
0
  6
CONTINUOUS
 62
     0
100
AcDbLine
 10
0.0
 20
0.0
 30
0.0
 11
-1.0
 21
-0.166666667
 31
0.0
  0
LINE
  5
7E
330
51
100
AcDbEntity
  8
0
  6
CONTINUOUS
 62
     0
100
AcDbLine
 10
0.0
 20
0.0
 30
0.0
 11
-1.0
 21
0.083333333
 31
0.0
  0
LINE
  5
7F
330
51
100
AcDbEntity
  8
0
  6
CONTINUOUS
 62
     0
100
AcDbLine
 10
0.0
 20
0.0
 30
0.0
 11
-1.0
 21
-0.083333333
 31
0.0
  0
LINE
  5
80
330
51
100
AcDbEntity
  8
0
  6
CONTINUOUS
 62
     0
100
AcDbLine
 10
-1.0
 20
0.166666667
 30
0.0
 11
-1.0
 21
-0.166666667
 31
0.0
  0
ENDBLK
  5
53
330
51
100
AcDbEntity
  8
0
100
AcDbBlockEnd
  0
BLOCK
  5
55
330
54
100
AcDbEntity
  8
0
100
AcDbBlockBegin
  2
EX_BCIR
 70
     0
 10
0.0
 20
0.0
 30
0.0
  3
EX_BCIR
  1

  0
LINE
  5
81
330
54
100
AcDbEntity
  8
0
  6
CONTINUOUS
 62
     0
100
AcDbLine
 10
0.0
 20
0.0
 30
0.0
 11
-1.0
 21
0.0
 31
0.0
  0
CIRCLE
  5
82
330
54
100
AcDbEntity
  8
0
  6
CONTINUOUS
 62
     0
100
AcDbCircle
 10
0.0
 20
0.0
 30
0.0
 40
0.5
  0
CIRCLE
  5
83
330
54
100
AcDbEntity
  8
0
  6
CONTINUOUS
 62
     0
100
AcDbCircle
 10
0.0
 20
0.0
 30
0.0
 40
0.25
  0
ENDBLK
  5
56
330
54
100
AcDbEntity
  8
0
100
AcDbBlockEnd
  0
BLOCK
  5
58
330
57
100
AcDbEntity
  8
0
100
AcDbBlockBegin
  2
EX_RCIVIL
 70
     0
 10
0.0
 20
0.0
 30
0.0
  3
EX_RCIVIL
  1

  0
LINE
  5
84
330
57
100
AcDbEntity
  8
0
  6
CONTINUOUS
 62
     0
100
AcDbLine
 10
0.0
 20
0.0
 30
0.0
 11
-1.0
 21
0.0
 31
0.0
  0
LINE
  5
85
330
57
100
AcDbEntity
  8
0
  6
CONTINUOUS
 62
     0
100
AcDbLine
 10
-1.0
 20
-0.25
 30
0.0
 11
0.0
 21
-0.25
 31
0.0
  0
LINE
  5
86
330
57
100
AcDbEntity
  8
0
  6
CONTINUOUS
 62
     0
100
AcDbLine
 10
-1.0
 20
-0.125
 30
0.0
 11
0.0
 21
-0.125
 31
0.0
  0
ENDBLK
  5
59
330
57
100
AcDbEntity
  8
0
100
AcDbBlockEnd
  0
BLOCK
  5
5B
330
5A
100
AcDbEntity
  8
0
100
AcDbBlockBegin
  2
EX_SLANT
 70
     0
 10
0.0
 20
0.0
 30
0.0
  3
EX_SLANT
  1

  0
LINE
  5
87
330
5A
100
AcDbEntity
  8
0
  6
CONTINUOUS
 62
     0
100
AcDbLine
 10
0.0
 20
0.0
 30
0.0
 11
-1.0
 21
0.0
 31
0.0
  0
LINE
  5
88
330
5A
100
AcDbEntity
  8
0
  6
CONTINUOUS
 62
     0
100
AcDbLine
 10
0.707106781
 20
0.707106781
 30
0.0
 11
-0.707106781
 21
-0.707106781
 31
0.0
  0
ENDBLK
  5
5C
330
5A
100
AcDbEntity
  8
0
100
AcDbBlockEnd
  0
BLOCK
  5
5E
330
5D
100
AcDbEntity
  8
0
100
AcDbBlockBegin
  2
EX_NONE
 70
     0
 10
0.0
 20
0.0
 30
0.0
  3
EX_NONE
  1

  0
LINE
  5
89
330
5D
100
AcDbEntity
  8
0
  6
CONTINUOUS
 62
     0
100
AcDbLine
 10
0.0
 20
0.0
 30
0.0
 11
-1.0
 21
0.0
 31
0.0
  0
ENDBLK
  5
5F
330
5D
100
AcDbEntity
  8
0
100
AcDbBlockEnd
  0
BLOCK
  5
61
330
60
100
AcDbEntity
  8
0
100
AcDbBlockBegin
  2
EX_CIVIL
 70
     0
 10
0.0
 20
0.0
 30
0.0
  3
EX_CIVIL
  1

  0
LINE
  5
8A
330
60
100
AcDbEntity
  8
0
  6
CONTINUOUS
 62
     0
100
AcDbLine
 10
0.0
 20
0.0
 30
0.0
 11
-1.0
 21
0.0
 31
0.0
  0
LINE
  5
8B
330
60
100
AcDbEntity
  8
0
  6
CONTINUOUS
 62
     0
100
AcDbLine
 10
-1.0
 20
0.25
 30
0.0
 11
0.0
 21
0.25
 31
0.0
  0
LINE
  5
8C
330
60
100
AcDbEntity
  8
0
  6
CONTINUOUS
 62
     0
100
AcDbLine
 10
-1.0
 20
0.125
 30
0.0
 11
0.0
 21
0.125
 31
0.0
  0
ENDBLK
  5
62
330
60
100
AcDbEntity
  8
0
100
AcDbBlockEnd
  0
BLOCK
  5
64
330
63
100
AcDbEntity
  8
0
100
AcDbBlockBegin
  2
EX_WCIR
 70
     0
 10
0.0
 20
0.0
 30
0.0
  3
EX_WCIR
  1

  0
LINE
  5
8D
330
63
100
AcDbEntity
  8
0
  6
CONTINUOUS
 62
     0
100
AcDbLine
 10
0.0
 20
0.0
 30
0.0
 11
-1.0
 21
0.0
 31
0.0
  0
CIRCLE
  5
8E
330
63
100
AcDbEntity
  8
0
  6
CONTINUOUS
 62
     0
100
AcDbCircle
 10
0.0
 20
0.0
 30
0.0
 40
0.5
  0
ENDBLK
  5
65
330
63
100
AcDbEntity
  8
0
100
AcDbBlockEnd
  0
BLOCK
  5
67
330
66
100
AcDbEntity
  8
0
100
AcDbBlockBegin
  2
EX_WCIR2
 70
     0
 10
0.0
 20
0.0
 30
0.0
  3
EX_WCIR2
  1

  0
LINE
  5
8F
330
66
100
AcDbEntity
  8
0
  6
CONTINUOUS
 62
     0
100
AcDbLine
 10
-0.5
 20
0.0
 30
0.0
 11
-1.0
 21
0.0
 31
0.0
  0
CIRCLE
  5
90
330
66
100
AcDbEntity
  8
0
  6
CONTINUOUS
 62
     0
100
AcDbCircle
 10
0.0
 20
0.0
 30
0.0
 40
0.5
  0
ENDBLK
  5
68
330
66
100
AcDbEntity
  8
0
100
AcDbBlockEnd
  0
BLOCK
  5
6A
330
69
100
AcDbEntity
  8
0
100
AcDbBlockBegin
  2
EX_WNORM
 70
     0
 10
0.0
 20
0.0
 30
0.0
  3
EX_WNORM
  1

  0
LINE
  5
91
330
69
100
AcDbEntity
  8
0
  6
CONTINUOUS
 62
     0
100
AcDbLine
 10
-1.0
 20
0.0
 30
0.0
 11
-1.0
 21
0.0
 31
0.0
  0
LINE
  5
92
330
69
100
AcDbEntity
  8
0
  6
CONTINUOUS
 62
     0
100
AcDbLine
 10
0.0
 20
0.0
 30
0.0
 11
-1.0
 21
0.166666667
 31
0.0
  0
LINE
  5
93
330
69
100
AcDbEntity
  8
0
  6
CONTINUOUS
 62
     0
100
AcDbLine
 10
0.0
 20
0.0
 30
0.0
 11
-1.0
 21
-0.166666667
 31
0.0
  0
LINE
  5
94
330
69
100
AcDbEntity
  8
0
  6
CONTINUOUS
 62
     0
100
AcDbLine
 10
-1.0
 20
0.166666667
 30
0.0
 11
-1.0
 21
-0.166666667
 31
0.0
  0
ENDBLK
  5
6B
330
69
100
AcDbEntity
  8
0
100
AcDbBlockEnd
  0
BLOCK
  5
6D
330
6C
100
AcDbEntity
  8
0
100
AcDbBlockBegin
  2
EX_NNORM
 70
     0
 10
0.0
 20
0.0
 30
0.0
  3
EX_NNORM
  1

  0
LINE
  5
95
330
6C
100
AcDbEntity
  8
0
  6
CONTINUOUS
 62
     0
100
AcDbLine
 10
0.0
 20
0.0
 30
0.0
 11
-1.0
 21
0.0
 31
0.0
  0
LINE
  5
96
330
6C
100
AcDbEntity
  8
0
  6
CONTINUOUS
 62
     0
100
AcDbLine
 10
0.0
 20
0.0
 30
0.0
 11
-1.0
 21
0.166666667
 31
0.0
  0
LINE
  5
97
330
6C
100
AcDbEntity
  8
0
  6
CONTINUOUS
 62
     0
100
AcDbLine
 10
0.0
 20
0.0
 30
0.0
 11
-1.0
 21
-0.166666667
 31
0.0
  0
LINE
  5
98
330
6C
100
AcDbEntity
  8
0
  6
CONTINUOUS
 62
     0
100
AcDbLine
 10
-1.0
 20
0.166666667
 30
0.0
 11
-1.0
 21
-0.166666667
 31
0.0
  0
ENDBLK
  5
6E
330
6C
100
AcDbEntity
  8
0
100
AcDbBlockEnd
  0
BLOCK
  5
70
330
6F
100
AcDbEntity
  8
0
100
AcDbBlockBegin
  2
EX_BBOX
 70
     0
 10
0.0
 20
0.0
 30
0.0
  3
EX_BBOX
  1

  0
LINE
  5
99
330
6F
100
AcDbEntity
  8
0
  6
CONTINUOUS
 62
     0
100
AcDbLine
 10
0.0
 20
0.0
 30
0.0
 11
-1.0
 21
0.0
 31
0.0
  0
LINE
  5
9A
330
6F
100
AcDbEntity
  8
0
  6
CONTINUOUS
 62
     0
100
AcDbLine
 10
-0.5
 20
0.5
 30
0.0
 11
0.5
 21
0.5
 31
0.0
  0
LINE
  5
9B
330
6F
100
AcDbEntity
  8
0
  6
CONTINUOUS
 62
     0
100
AcDbLine
 10
0.5
 20
0.5
 30
0.0
 11
0.5
 21
-0.5
 31
0.0
  0
LINE
  5
9C
330
6F
100
AcDbEntity
  8
0
  6
CONTINUOUS
 62
     0
100
AcDbLine
 10
0.5
 20
-0.5
 30
0.0
 11
-0.5
 21
-0.5
 31
0.0
  0
LINE
  5
9D
330
6F
100
AcDbEntity
  8
0
  6
CONTINUOUS
 62
     0
100
AcDbLine
 10
-0.5
 20
-0.5
 30
0.0
 11
-0.5
 21
0.5
 31
0.0
  0
LINE
  5
9E
330
6F
100
AcDbEntity
  8
0
  6
CONTINUOUS
 62
     0
100
AcDbLine
 10
-0.25
 20
0.25
 30
0.0
 11
0.25
 21
0.25
 31
0.0
  0
LINE
  5
9F
330
6F
100
AcDbEntity
  8
0
  6
CONTINUOUS
 62
     0
100
AcDbLine
 10
0.25
 20
0.25
 30
0.0
 11
0.25
 21
-0.25
 31
0.0
  0
LINE
  5
A0
330
6F
100
AcDbEntity
  8
0
  6
CONTINUOUS
 62
     0
100
AcDbLine
 10
0.25
 20
-0.25
 30
0.0
 11
-0.25
 21
-0.25
 31
0.0
  0
LINE
  5
A1
330
6F
100
AcDbEntity
  8
0
  6
CONTINUOUS
 62
     0
100
AcDbLine
 10
-0.25
 20
-0.25
 30
0.0
 11
-0.25
 21
0.25
 31
0.0
  0
ENDBLK
  5
71
330
6F
100
AcDbEntity
  8
0
100
AcDbBlockEnd
  0
BLOCK
  5
73
330
72
100
AcDbEntity
  8
0
100
AcDbBlockBegin
  2
EX_WBOX
 70
     0
 10
0.0
 20
0.0
 30
0.0
  3
EX_WBOX
  1

  0
LINE
  5
A2
330
72
100
AcDbEntity
  8
0
  6
CONTINUOUS
 62
     0
100
AcDbLine
 10
-0.5
 20
0.0
 30
0.0
 11
-1.0
 21
0.0
 31
0.0
  0
LINE
  5
A3
330
72
100
AcDbEntity
  8
0
  6
CONTINUOUS
 62
     0
100
AcDbLine
 10
-0.5
 20
0.5
 30
0.0
 11
0.5
 21
0.5
 31
0.0
  0
LINE
  5
A4
330
72
100
AcDbEntity
  8
0
  6
CONTINUOUS
 62
     0
100
AcDbLine
 10
0.5
 20
0.5
 30
0.0
 11
0.5
 21
-0.5
 31
0.0
  0
LINE
  5
A5
330
72
100
AcDbEntity
  8
0
  6
CONTINUOUS
 62
     0
100
AcDbLine
 10
0.5
 20
-0.5
 30
0.0
 11
-0.5
 21
-0.5
 31
0.0
  0
LINE
  5
A6
330
72
100
AcDbEntity
  8
0
  6
CONTINUOUS
 62
     0
100
AcDbLine
 10
-0.5
 20
-0.5
 30
0.0
 11
-0.5
 21
0.5
 31
0.0
  0
ENDBLK
  5
74
330
72
100
AcDbEntity
  8
0
100
AcDbBlockEnd
  0
BLOCK
  5
76
330
75
100
AcDbEntity
  8
0
100
AcDbBlockBegin
  2
EX_INTEGRAL
 70
     0
 10
0.0
 20
0.0
 30
0.0
  3
EX_INTEGRAL
  1

  0
LINE
  5
A7
330
75
100
AcDbEntity
  8
0
  6
CONTINUOUS
 62
     0
100
AcDbLine
 10
0.0
 20
0.0
 30
0.0
 11
-1.0
 21
0.0
 31
0.0
  0
ARC
  5
A8
330
75
100
AcDbEntity
  8
0
  6
CONTINUOUS
 62
     0
100
AcDbCircle
 10
0.542115
 20
0.164992
 30
0.0
 40
0.56667
100
AcDbArc
 50
73.07249033629006
 51
196.9275130221199
  0
ARC
  5
A9
330
75
100
AcDbEntity
  8
0
  6
CONTINUOUS
 62
     0
100
AcDbCircle
 10
-0.542115
 20
-0.164992
 30
0.0
 40
0.56667
100
AcDbArc
 50
253.0724869220464
 51
16.9275130559125
  0
ENDBLK
  5
77
330
75
100
AcDbEntity
  8
0
100
AcDbBlockEnd
  0
BLOCK
  5
27D
330
27C
100
AcDbEntity
  8
0
100
AcDbBlockBegin
  2
*D15
 70
     1
 10
0.0
 20
0.0
 30
0.0
  3
*D15
  1

  0
LINE
  5
27F
330
27C
100
AcDbEntity
  8
承認図寸法
  6
CONTINUOUS
 62
     3
100
AcDbLine
 10
684.6011061566
 20
1076.6046984901
 30
0.0
 11
684.6011061566
 21
1207.5
 31
0.0
  0
LINE
  5
280
330
27C
100
AcDbEntity
  8
承認図寸法
  6
CONTINUOUS
 62
     3
100
AcDbLine
 10
547.6011061566
 20
1176.5
 30
0.0
 11
547.6011061566
 21
1207.5
 31
0.0
  0
LINE
  5
281
330
27C
100
AcDbEntity
  8
承認図寸法
  6
CONTINUOUS
 62
     3
100
AcDbLine
 10
669.6011061566
 20
1202.5
 30
0.0
 11
562.6011061566
 21
1202.5
 31
0.0
  0
INSERT
  5
282
330
27C
100
AcDbEntity
  8
承認図寸法
 62
     3
100
AcDbBlockReference
  2
EX_NORM
 10
684.6011061566
 20
1202.5
 30
0.0
 41
15.0
 42
15.0
 43
15.0
  0
INSERT
  5
283
330
27C
100
AcDbEntity
  8
承認図寸法
 62
     3
100
AcDbBlockReference
  2
EX_NORM
 10
547.6011061566
 20
1202.5
 30
0.0
 41
15.0
 42
15.0
 43
15.0
 50
180.0
  0
MTEXT
  5
284
330
27C
100
AcDbEntity
  8
承認図寸法
 62
     2
100
AcDbMText
 10
616.1011061566
 20
1214.000000059605
 30
0.0
 40
20.0
 41
0.0
 71
     5
 72
     1
  1
137
  7
EXCADDIM1
  0
POINT
  5
285
330
27C
100
AcDbEntity
  8
DEFPOINTS
 62
     0
100
AcDbPoint
 10
684.6011061566
 20
1074.1046984901
 30
0.0
  0
POINT
  5
286
330
27C
100
AcDbEntity
  8
DEFPOINTS
 62
     0
100
AcDbPoint
 10
547.6011061566
 20
1174.0
 30
0.0
  0
POINT
  5
287
330
27C
100
AcDbEntity
  8
DEFPOINTS
 62
     0
100
AcDbPoint
 10
547.6011061566
 20
1202.5
 30
0.0
  0
ENDBLK
  5
27E
330
27C
100
AcDbEntity
  8
0
100
AcDbBlockEnd
  0
BLOCK
  5
28A
330
289
100
AcDbEntity
  8
0
100
AcDbBlockBegin
  2
*D16
 70
     1
 10
0.0
 20
0.0
 30
0.0
  3
*D16
  1

  0
LINE
  5
28C
330
289
100
AcDbEntity
  8
承認図寸法
  6
CONTINUOUS
 62
     3
100
AcDbLine
 10
345.1011061566
 20
799.1046984901101
 30
0.0
 11
270.0
 21
799.1046984901101
 31
0.0
  0
LINE
  5
28D
330
289
100
AcDbEntity
  8
承認図寸法
  6
CONTINUOUS
 62
     3
100
AcDbLine
 10
348.1011061566001
 20
679.1046984901099
 30
0.0
 11
270.0
 21
679.1046984901099
 31
0.0
  0
LINE
  5
28E
330
289
100
AcDbEntity
  8
承認図寸法
  6
CONTINUOUS
 62
     3
100
AcDbLine
 10
275.0
 20
784.1046984901101
 30
0.0
 11
275.0
 21
694.1046984901099
 31
0.0
  0
INSERT
  5
28F
330
289
100
AcDbEntity
  8
承認図寸法
 62
     3
100
AcDbBlockReference
  2
EX_NORM
 10
275.0
 20
799.1046984901101
 30
0.0
 41
15.0
 42
15.0
 43
15.0
 50
90.0
  0
INSERT
  5
290
330
289
100
AcDbEntity
  8
承認図寸法
 62
     3
100
AcDbBlockReference
  2
EX_NORM
 10
275.0
 20
679.1046984901099
 30
0.0
 41
15.0
 42
15.0
 43
15.0
 50
270.0
  0
MTEXT
  5
291
330
289
100
AcDbEntity
  8
承認図寸法
 62
     2
100
AcDbMText
 10
263.4999999403955
 20
739.1046984901101
 30
0.0
 40
20.0
 41
0.0
 71
     5
 72
     1
  1
120
  7
EXCADDIM1
 11
0.0
 21
1.0
 31
0.0
  0
POINT
  5
292
330
289
100
AcDbEntity
  8
DEFPOINTS
 62
     0
100
AcDbPoint
 10
347.6011061566
 20
799.1046984901101
 30
0.0
  0
POINT
  5
293
330
289
100
AcDbEntity
  8
DEFPOINTS
 62
     0
100
AcDbPoint
 10
350.6011061566001
 20
679.1046984901099
 30
0.0
  0
POINT
  5
294
330
289
100
AcDbEntity
  8
DEFPOINTS
 62
     0
100
AcDbPoint
 10
275.0
 20
679.1046984901099
 30
0.0
  0
ENDBLK
  5
28B
330
289
100
AcDbEntity
  8
0
100
AcDbBlockEnd
  0
BLOCK
  5
297
330
296
100
AcDbEntity
  8
0
100
AcDbBlockBegin
  2
*D17
 70
     1
 10
0.0
 20
0.0
 30
0.0
  3
*D17
  1

  0
LINE
  5
299
330
296
100
AcDbEntity
  8
承認図寸法
  6
CONTINUOUS
 62
     3
100
AcDbLine
 10
347.6011061565998
 20
1154.104698490107
 30
0.0
 11
347.6011061565998
 21
1249.0
 31
0.0
  0
LINE
  5
29A
330
296
100
AcDbEntity
  8
承認図寸法
  6
CONTINUOUS
 62
     3
100
AcDbLine
 10
747.6011061566005
 20
1154.104698490107
 30
0.0
 11
747.6011061566005
 21
1249.0
 31
0.0
  0
LINE
  5
29B
330
296
100
AcDbEntity
  8
承認図寸法
  6
CONTINUOUS
 62
     3
100
AcDbLine
 10
362.6011061565998
 20
1244.0
 30
0.0
 11
732.6011061566005
 21
1244.0
 31
0.0
  0
INSERT
  5
29C
330
296
100
AcDbEntity
  8
承認図寸法
 62
     3
100
AcDbBlockReference
  2
EX_NORM
 10
347.6011061565998
 20
1244.0
 30
0.0
 41
15.0
 42
15.0
 43
15.0
 50
180.0
  0
INSERT
  5
29D
330
296
100
AcDbEntity
  8
承認図寸法
 62
     3
100
AcDbBlockReference
  2
EX_NORM
 10
747.6011061566005
 20
1244.0
 30
0.0
 41
15.0
 42
15.0
 43
15.0
  0
MTEXT
  5
29E
330
296
100
AcDbEntity
  8
承認図寸法
 62
     2
100
AcDbMText
 10
547.6011061566002
 20
1255.500000059605
 30
0.0
 40
20.0
 41
0.0
 71
     5
 72
     1
  1
400
  7
EXCADDIM1
  0
POINT
  5
29F
330
296
100
AcDbEntity
  8
DEFPOINTS
 62
     0
100
AcDbPoint
 10
347.6011061565998
 20
1151.604698490107
 30
0.0
  0
POINT
  5
2A0
330
296
100
AcDbEntity
  8
DEFPOINTS
 62
     0
100
AcDbPoint
 10
747.6011061566005
 20
1151.604698490107
 30
0.0
  0
POINT
  5
2A1
330
296
100
AcDbEntity
  8
DEFPOINTS
 62
     0
100
AcDbPoint
 10
747.6011061566005
 20
1244.0
 30
0.0
  0
ENDBLK
  5
298
330
296
100
AcDbEntity
  8
0
100
AcDbBlockEnd
  0
BLOCK
  5
2A7
330
2A6
100
AcDbEntity
  8
0
100
AcDbBlockBegin
  2
*D18
 70
     1
 10
0.0
 20
0.0
 30
0.0
  3
*D18
  1

  0
LINE
  5
2A9
330
2A6
100
AcDbEntity
  8
承認図寸法
  6
CONTINUOUS
 62
     3
100
AcDbLine
 10
350.1011061566
 20
1151.6046984901
 30
0.0
 11
270.0
 21
1151.6046984901
 31
0.0
  0
LINE
  5
2AA
330
2A6
100
AcDbEntity
  8
承認図寸法
  6
CONTINUOUS
 62
     3
100
AcDbLine
 10
350.1011061566
 20
951.6046984901101
 30
0.0
 11
270.0
 21
951.6046984901101
 31
0.0
  0
LINE
  5
2AB
330
2A6
100
AcDbEntity
  8
承認図寸法
  6
CONTINUOUS
 62
     3
100
AcDbLine
 10
275.0
 20
1136.6046984901
 30
0.0
 11
275.0
 21
966.6046984901101
 31
0.0
  0
INSERT
  5
2AC
330
2A6
100
AcDbEntity
  8
承認図寸法
 62
     3
100
AcDbBlockReference
  2
EX_NORM
 10
275.0
 20
1151.6046984901
 30
0.0
 41
15.0
 42
15.0
 43
15.0
 50
90.0
  0
INSERT
  5
2AD
330
2A6
100
AcDbEntity
  8
承認図寸法
 62
     3
100
AcDbBlockReference
  2
EX_NORM
 10
275.0
 20
951.6046984901101
 30
0.0
 41
15.0
 42
15.0
 43
15.0
 50
270.0
  0
MTEXT
  5
2AE
330
2A6
100
AcDbEntity
  8
承認図寸法
 62
     2
100
AcDbMText
 10
263.4999999403954
 20
1051.604698490105
 30
0.0
 40
20.0
 41
0.0
 71
     5
 72
     1
  1
200
  7
EXCADDIM1
 11
0.0
 21
1.0
 31
0.0
  0
POINT
  5
2AF
330
2A6
100
AcDbEntity
  8
DEFPOINTS
 62
     0
100
AcDbPoint
 10
352.6011061566
 20
1151.6046984901
 30
0.0
  0
POINT
  5
2B0
330
2A6
100
AcDbEntity
  8
DEFPOINTS
 62
     0
100
AcDbPoint
 10
352.6011061566
 20
951.6046984901101
 30
0.0
  0
POINT
  5
2B1
330
2A6
100
AcDbEntity
  8
DEFPOINTS
 62
     0
100
AcDbPoint
 10
275.0
 20
951.6046984901101
 30
0.0
  0
ENDBLK
  5
2A8
330
2A6
100
AcDbEntity
  8
0
100
AcDbBlockEnd
  0
BLOCK
  5
2B4
330
2B3
100
AcDbEntity
  8
0
100
AcDbBlockBegin
  2
*D19
 70
     1
 10
0.0
 20
0.0
 30
0.0
  3
*D19
  1

  0
LINE
  5
2B6
330
2B3
100
AcDbEntity
  8
承認図寸法
  6
CONTINUOUS
 62
     3
100
AcDbLine
 10
762.0
 20
1051.6046984901
 30
0.0
 11
829.5
 21
1051.6046984901
 31
0.0
  0
LINE
  5
2B7
330
2B3
100
AcDbEntity
  8
承認図寸法
  6
CONTINUOUS
 62
     3
100
AcDbLine
 10
745.1011061566
 20
1151.6046984901
 30
0.0
 11
829.5
 21
1151.6046984901
 31
0.0
  0
LINE
  5
2B8
330
2B3
100
AcDbEntity
  8
承認図寸法
  6
CONTINUOUS
 62
     3
100
AcDbLine
 10
824.5
 20
1066.6046984901
 30
0.0
 11
824.5
 21
1136.6046984901
 31
0.0
  0
INSERT
  5
2B9
330
2B3
100
AcDbEntity
  8
承認図寸法
 62
     3
100
AcDbBlockReference
  2
EX_NORM
 10
824.5
 20
1051.6046984901
 30
0.0
 41
15.0
 42
15.0
 43
15.0
 50
270.0
  0
INSERT
  5
2BA
330
2B3
100
AcDbEntity
  8
承認図寸法
 62
     3
100
AcDbBlockReference
  2
EX_NORM
 10
824.5
 20
1151.6046984901
 30
0.0
 41
15.0
 42
15.0
 43
15.0
 50
90.0
  0
MTEXT
  5
2BB
330
2B3
100
AcDbEntity
  8
承認図寸法
 62
     2
100
AcDbMText
 10
812.9999999403954
 20
1101.6046984901
 30
0.0
 40
20.0
 41
0.0
 71
     5
 72
     1
  1
100
  7
EXCADDIM1
 11
0.0
 21
1.0
 31
0.0
  0
POINT
  5
2BC
330
2B3
100
AcDbEntity
  8
DEFPOINTS
 62
     0
100
AcDbPoint
 10
759.5
 20
1051.6046984901
 30
0.0
  0
POINT
  5
2BD
330
2B3
100
AcDbEntity
  8
DEFPOINTS
 62
     0
100
AcDbPoint
 10
742.6011061566
 20
1151.6046984901
 30
0.0
  0
POINT
  5
2BE
330
2B3
100
AcDbEntity
  8
DEFPOINTS
 62
     0
100
AcDbPoint
 10
824.5
 20
1151.6046984901
 30
0.0
  0
ENDBLK
  5
2B5
330
2B3
100
AcDbEntity
  8
0
100
AcDbBlockEnd
  0
BLOCK
  5
2C1
330
2C0
100
AcDbEntity
  8
0
100
AcDbBlockBegin
  2
*D20
 70
     1
 10
0.0
 20
0.0
 30
0.0
  3
*D20
  1

  0
LINE
  5
2C3
330
2C0
100
AcDbEntity
  8
承認図寸法
  6
CONTINUOUS
 62
     3
100
AcDbLine
 10
350.6011061566001
 20
676.6046984901099
 30
0.0
 11
350.6011061566001
 21
635.0
 31
0.0
  0
LINE
  5
2C4
330
2C0
100
AcDbEntity
  8
承認図寸法
  6
CONTINUOUS
 62
     3
100
AcDbLine
 10
744.6011061566
 20
676.6046984901099
 30
0.0
 11
744.6011061566
 21
635.0
 31
0.0
  0
LINE
  5
2C5
330
2C0
100
AcDbEntity
  8
承認図寸法
  6
CONTINUOUS
 62
     3
100
AcDbLine
 10
365.6011061566001
 20
640.0
 30
0.0
 11
729.6011061566
 21
640.0
 31
0.0
  0
INSERT
  5
2C6
330
2C0
100
AcDbEntity
  8
承認図寸法
 62
     3
100
AcDbBlockReference
  2
EX_NORM
 10
350.6011061566001
 20
640.0
 30
0.0
 41
15.0
 42
15.0
 43
15.0
 50
180.0
  0
INSERT
  5
2C7
330
2C0
100
AcDbEntity
  8
承認図寸法
 62
     3
100
AcDbBlockReference
  2
EX_NORM
 10
744.6011061566
 20
640.0
 30
0.0
 41
15.0
 42
15.0
 43
15.0
  0
MTEXT
  5
2C8
330
2C0
100
AcDbEntity
  8
承認図寸法
 62
     2
100
AcDbMText
 10
547.6011061566002
 20
651.5000000596046
 30
0.0
 40
20.0
 41
0.0
 71
     5
 72
     1
  1
（394）
  7
EXCADDIM1
  0
POINT
  5
2C9
330
2C0
100
AcDbEntity
  8
DEFPOINTS
 62
     0
100
AcDbPoint
 10
350.6011061566001
 20
679.1046984901099
 30
0.0
  0
POINT
  5
2CA
330
2C0
100
AcDbEntity
  8
DEFPOINTS
 62
     0
100
AcDbPoint
 10
744.6011061566
 20
679.1046984901099
 30
0.0
  0
POINT
  5
2CB
330
2C0
100
AcDbEntity
  8
DEFPOINTS
 62
     0
100
AcDbPoint
 10
744.6011061566
 20
640.0
 30
0.0
  0
ENDBLK
  5
2C2
330
2C0
100
AcDbEntity
  8
0
100
AcDbBlockEnd
  0
BLOCK
  5
2CE
330
2CD
100
AcDbEntity
  8
0
100
AcDbBlockBegin
  2
*D21
 70
     1
 10
0.0
 20
0.0
 30
0.0
  3
*D21
  1

  0
LINE
  5
2D0
330
2CD
100
AcDbEntity
  8
承認図寸法
  6
CONTINUOUS
 62
     3
100
AcDbLine
 10
1393.5
 20
801.6046984901101
 30
0.0
 11
1393.5
 21
828.0000000000001
 31
0.0
  0
LINE
  5
2D1
330
2CD
100
AcDbEntity
  8
承認図寸法
  6
CONTINUOUS
 62
     3
100
AcDbLine
 10
1193.5
 20
801.6046984901101
 30
0.0
 11
1193.5
 21
828.0000000000001
 31
0.0
  0
LINE
  5
2D2
330
2CD
100
AcDbEntity
  8
承認図寸法
  6
CONTINUOUS
 62
     3
100
AcDbLine
 10
1378.5
 20
823.0000000000001
 30
0.0
 11
1208.5
 21
823.0000000000001
 31
0.0
  0
INSERT
  5
2D3
330
2CD
100
AcDbEntity
  8
承認図寸法
 62
     3
100
AcDbBlockReference
  2
EX_NORM
 10
1393.5
 20
823.0000000000001
 30
0.0
 41
15.0
 42
15.0
 43
15.0
  0
INSERT
  5
2D4
330
2CD
100
AcDbEntity
  8
承認図寸法
 62
     3
100
AcDbBlockReference
  2
EX_NORM
 10
1193.5
 20
823.0000000000001
 30
0.0
 41
15.0
 42
15.0
 43
15.0
 50
180.0
  0
MTEXT
  5
2D5
330
2CD
100
AcDbEntity
  8
承認図寸法
 62
     2
100
AcDbMText
 10
1293.5
 20
834.5000000596048
 30
0.0
 40
20.0
 41
0.0
 71
     5
 72
     1
  1
200
  7
EXCADDIM1
  0
POINT
  5
2D6
330
2CD
100
AcDbEntity
  8
DEFPOINTS
 62
     0
100
AcDbPoint
 10
1393.5
 20
799.1046984901101
 30
0.0
  0
POINT
  5
2D7
330
2CD
100
AcDbEntity
  8
DEFPOINTS
 62
     0
100
AcDbPoint
 10
1193.5
 20
799.1046984901101
 30
0.0
  0
POINT
  5
2D8
330
2CD
100
AcDbEntity
  8
DEFPOINTS
 62
     0
100
AcDbPoint
 10
1193.5
 20
823.0000000000001
 30
0.0
  0
ENDBLK
  5
2CF
330
2CD
100
AcDbEntity
  8
0
100
AcDbBlockEnd
  0
BLOCK
  5
2DB
330
2DA
100
AcDbEntity
  8
0
100
AcDbBlockBegin
  2
*D22
 70
     1
 10
0.0
 20
0.0
 30
0.0
  3
*D22
  1

  0
LINE
  5
2DD
330
2DA
100
AcDbEntity
  8
承認図寸法
  6
CONTINUOUS
 62
     3
100
AcDbLine
 10
1196.5
 20
676.6046984901
 30
0.0
 11
1196.5
 21
641.0
 31
0.0
  0
LINE
  5
2DE
330
2DA
100
AcDbEntity
  8
承認図寸法
  6
CONTINUOUS
 62
     3
100
AcDbLine
 10
1390.5
 20
676.6046984901
 30
0.0
 11
1390.5
 21
641.0
 31
0.0
  0
LINE
  5
2DF
330
2DA
100
AcDbEntity
  8
承認図寸法
  6
CONTINUOUS
 62
     3
100
AcDbLine
 10
1211.5
 20
646.0
 30
0.0
 11
1375.5
 21
646.0
 31
0.0
  0
INSERT
  5
2E0
330
2DA
100
AcDbEntity
  8
承認図寸法
 62
     3
100
AcDbBlockReference
  2
EX_NORM
 10
1196.5
 20
646.0
 30
0.0
 41
15.0
 42
15.0
 43
15.0
 50
180.0
  0
INSERT
  5
2E1
330
2DA
100
AcDbEntity
  8
承認図寸法
 62
     3
100
AcDbBlockReference
  2
EX_NORM
 10
1390.5
 20
646.0
 30
0.0
 41
15.0
 42
15.0
 43
15.0
  0
MTEXT
  5
2E2
330
2DA
100
AcDbEntity
  8
承認図寸法
 62
     2
100
AcDbMText
 10
1293.5
 20
657.5000000596046
 30
0.0
 40
20.0
 41
0.0
 71
     5
 72
     1
  1
（194）
  7
EXCADDIM1
  0
POINT
  5
2E3
330
2DA
100
AcDbEntity
  8
DEFPOINTS
 62
     0
100
AcDbPoint
 10
1196.5
 20
679.1046984901
 30
0.0
  0
POINT
  5
2E4
330
2DA
100
AcDbEntity
  8
DEFPOINTS
 62
     0
100
AcDbPoint
 10
1390.5
 20
679.1046984901
 30
0.0
  0
POINT
  5
2E5
330
2DA
100
AcDbEntity
  8
DEFPOINTS
 62
     0
100
AcDbPoint
 10
1390.5
 20
646.0
 30
0.0
  0
ENDBLK
  5
2DC
330
2DA
100
AcDbEntity
  8
0
100
AcDbBlockEnd
  0
BLOCK
  5
2E8
330
2E7
100
AcDbEntity
  8
0
100
AcDbBlockBegin
  2
*D23
 70
     1
 10
0.0
 20
0.0
 30
0.0
  3
*D23
  1

  0
LINE
  5
2EA
330
2E7
100
AcDbEntity
  8
承認図寸法
  6
CONTINUOUS
 62
     3
100
AcDbLine
 10
547.6011061566
 20
413.60469849012
 30
0.0
 11
547.6011061566
 21
289.0
 31
0.0
  0
LINE
  5
2EB
330
2E7
100
AcDbEntity
  8
承認図寸法
  6
CONTINUOUS
 62
     3
100
AcDbLine
 10
617.6011061566
 20
330.0
 30
0.0
 11
617.6011061566
 21
289.0
 31
0.0
  0
LINE
  5
2EC
330
2E7
100
AcDbEntity
  8
承認図寸法
  6
CONTINUOUS
 62
     3
100
AcDbLine
 10
562.6011061566
 20
294.0
 30
0.0
 11
602.6011061566
 21
294.0
 31
0.0
  0
INSERT
  5
2ED
330
2E7
100
AcDbEntity
  8
承認図寸法
 62
     3
100
AcDbBlockReference
  2
EX_NORM
 10
547.6011061566
 20
294.0
 30
0.0
 41
15.0
 42
15.0
 43
15.0
 50
180.0
  0
INSERT
  5
2EE
330
2E7
100
AcDbEntity
  8
承認図寸法
 62
     3
100
AcDbBlockReference
  2
EX_NORM
 10
617.6011061566
 20
294.0
 30
0.0
 41
15.0
 42
15.0
 43
15.0
  0
MTEXT
  5
2EF
330
2E7
100
AcDbEntity
  8
承認図寸法
 62
     2
100
AcDbMText
 10
582.6011061566
 20
305.5000000596046
 30
0.0
 40
20.0
 41
0.0
 71
     5
 72
     1
  1
70
  7
EXCADDIM1
  0
POINT
  5
2F0
330
2E7
100
AcDbEntity
  8
DEFPOINTS
 62
     0
100
AcDbPoint
 10
547.6011061566
 20
416.10469849012
 30
0.0
  0
POINT
  5
2F1
330
2E7
100
AcDbEntity
  8
DEFPOINTS
 62
     0
100
AcDbPoint
 10
617.6011061566
 20
332.5
 30
0.0
  0
POINT
  5
2F2
330
2E7
100
AcDbEntity
  8
DEFPOINTS
 62
     0
100
AcDbPoint
 10
617.6011061566
 20
294.0
 30
0.0
  0
ENDBLK
  5
2E9
330
2E7
100
AcDbEntity
  8
0
100
AcDbBlockEnd
  0
BLOCK
  5
2F7
330
2F6
100
AcDbEntity
  8
0
100
AcDbBlockBegin
  2
*D24
 70
     1
 10
0.0
 20
0.0
 30
0.0
  3
*D24
  1

  0
LINE
  5
2F9
330
2F6
100
AcDbEntity
  8
承認図寸法
  6
CONTINUOUS
 62
     3
100
AcDbLine
 10
350.1011061566
 20
551.60469849012
 30
0.0
 11
270.0
 21
551.60469849012
 31
0.0
  0
LINE
  5
2FA
330
2F6
100
AcDbEntity
  8
承認図寸法
  6
CONTINUOUS
 62
     3
100
AcDbLine
 10
328.0
 20
451.60469849012
 30
0.0
 11
270.0
 21
451.60469849012
 31
0.0
  0
LINE
  5
2FB
330
2F6
100
AcDbEntity
  8
承認図寸法
  6
CONTINUOUS
 62
     3
100
AcDbLine
 10
275.0
 20
536.60469849012
 30
0.0
 11
275.0
 21
466.60469849012
 31
0.0
  0
INSERT
  5
2FC
330
2F6
100
AcDbEntity
  8
承認図寸法
 62
     3
100
AcDbBlockReference
  2
EX_NORM
 10
275.0
 20
551.60469849012
 30
0.0
 41
15.0
 42
15.0
 43
15.0
 50
90.0
  0
INSERT
  5
2FD
330
2F6
100
AcDbEntity
  8
承認図寸法
 62
     3
100
AcDbBlockReference
  2
EX_NORM
 10
275.0
 20
451.60469849012
 30
0.0
 41
15.0
 42
15.0
 43
15.0
 50
270.0
  0
MTEXT
  5
2FE
330
2F6
100
AcDbEntity
  8
承認図寸法
 62
     2
100
AcDbMText
 10
263.4999999403954
 20
501.60469849012
 30
0.0
 40
20.0
 41
0.0
 71
     5
 72
     1
  1
100
  7
EXCADDIM1
 11
0.0
 21
1.0
 31
0.0
  0
POINT
  5
2FF
330
2F6
100
AcDbEntity
  8
DEFPOINTS
 62
     0
100
AcDbPoint
 10
352.6011061566
 20
551.60469849012
 30
0.0
  0
POINT
  5
300
330
2F6
100
AcDbEntity
  8
DEFPOINTS
 62
     0
100
AcDbPoint
 10
330.5
 20
451.60469849012
 30
0.0
  0
POINT
  5
301
330
2F6
100
AcDbEntity
  8
DEFPOINTS
 62
     0
100
AcDbPoint
 10
275.0
 20
451.60469849012
 30
0.0
  0
ENDBLK
  5
2F8
330
2F6
100
AcDbEntity
  8
0
100
AcDbBlockEnd
  0
BLOCK
  5
304
330
303
100
AcDbEntity
  8
0
100
AcDbBlockBegin
  2
*D25
 70
     1
 10
0.0
 20
0.0
 30
0.0
  3
*D25
  1

  0
LINE
  5
306
330
303
100
AcDbEntity
  8
承認図寸法
  6
CONTINUOUS
 62
     3
100
AcDbLine
 10
402.6011061565999
 20
339.5
 30
0.0
 11
402.6011061565999
 21
289.0
 31
0.0
  0
LINE
  5
307
330
303
100
AcDbEntity
  8
承認図寸法
  6
CONTINUOUS
 62
     3
100
AcDbLine
 10
417.6011061565999
 20
294.0
 30
0.0
 11
532.6011061566
 21
294.0
 31
0.0
  0
INSERT
  5
308
330
303
100
AcDbEntity
  8
承認図寸法
 62
     3
100
AcDbBlockReference
  2
EX_NORM
 10
402.6011061565999
 20
294.0
 30
0.0
 41
15.0
 42
15.0
 43
15.0
 50
180.0
  0
INSERT
  5
309
330
303
100
AcDbEntity
  8
承認図寸法
 62
     3
100
AcDbBlockReference
  2
EX_NORM
 10
547.6011061566
 20
294.0
 30
0.0
 41
15.0
 42
15.0
 43
15.0
  0
MTEXT
  5
30A
330
303
100
AcDbEntity
  8
承認図寸法
 62
     2
100
AcDbMText
 10
475.1011061566
 20
305.5000000596046
 30
0.0
 40
20.0
 41
0.0
 71
     5
 72
     1
  1
145
  7
EXCADDIM1
  0
POINT
  5
30B
330
303
100
AcDbEntity
  8
DEFPOINTS
 62
     0
100
AcDbPoint
 10
402.6011061565999
 20
342.0
 30
0.0
  0
POINT
  5
30C
330
303
100
AcDbEntity
  8
DEFPOINTS
 62
     0
100
AcDbPoint
 10
547.6011061566
 20
294.0
 30
0.0
  0
POINT
  5
30D
330
303
100
AcDbEntity
  8
DEFPOINTS
 62
     0
100
AcDbPoint
 10
547.6011061566
 20
294.0
 30
0.0
  0
ENDBLK
  5
305
330
303
100
AcDbEntity
  8
0
100
AcDbBlockEnd
  0
BLOCK
  5
31E
330
31D
100
AcDbEntity
  8
0
100
AcDbBlockBegin
  2
*D26
 70
     1
 10
0.0
 20
0.0
 30
0.0
  3
*D26
  1

  0
LINE
  5
320
330
31D
100
AcDbEntity
  8
穴径詳細図
  6
CONTINUOUS
 62
     3
100
AcDbLine
 10
1224.2527653915
 20
1066.51174616567
 30
0.0
 11
1224.2527653915
 21
1145.5
 31
0.0
  0
LINE
  5
321
330
31D
100
AcDbEntity
  8
穴径詳細図
  6
CONTINUOUS
 62
     3
100
AcDbLine
 10
1381.752765391498
 20
1066.51174616567
 30
0.0
 11
1381.752765391498
 21
1145.5
 31
0.0
  0
LINE
  5
322
330
31D
100
AcDbEntity
  8
穴径詳細図
  6
CONTINUOUS
 62
     3
100
AcDbLine
 10
1239.2527653915
 20
1140.5
 30
0.0
 11
1366.752765391498
 21
1140.5
 31
0.0
  0
INSERT
  5
323
330
31D
100
AcDbEntity
  8
穴径詳細図
 62
     3
100
AcDbBlockReference
  2
EX_NORM
 10
1224.2527653915
 20
1140.5
 30
0.0
 41
15.0
 42
15.0
 43
15.0
 50
180.0
  0
INSERT
  5
324
330
31D
100
AcDbEntity
  8
穴径詳細図
 62
     3
100
AcDbBlockReference
  2
EX_NORM
 10
1381.752765391498
 20
1140.5
 30
0.0
 41
15.0
 42
15.0
 43
15.0
  0
MTEXT
  5
325
330
31D
100
AcDbEntity
  8
穴径詳細図
 62
     2
100
AcDbMText
 10
1303.002765391499
 20
1152.249999970198
 30
0.0
 40
20.0
 41
0.0
 71
     5
 72
     1
  1
（%%c63）
  7
EXCADDIM1
  0
POINT
  5
326
330
31D
100
AcDbEntity
  8
DEFPOINTS
 62
     0
100
AcDbPoint
 10
1224.2527653915
 20
1063.011746225275
 30
0.0
  0
POINT
  5
327
330
31D
100
AcDbEntity
  8
DEFPOINTS
 62
     0
100
AcDbPoint
 10
1381.752765391498
 20
1063.011746225275
 30
0.0
  0
POINT
  5
328
330
31D
100
AcDbEntity
  8
DEFPOINTS
 62
     0
100
AcDbPoint
 10
1381.752765391498
 20
1140.5
 30
0.0
  0
ENDBLK
  5
31F
330
31D
100
AcDbEntity
  8
0
100
AcDbBlockEnd
  0
BLOCK
  5
32B
330
32A
100
AcDbEntity
  8
0
100
AcDbBlockBegin
  2
*D27
 70
     1
 10
0.0
 20
0.0
 30
0.0
  3
*D27
  1

  0
LINE
  5
32D
330
32A
100
AcDbEntity
  8
穴径詳細図
  6
CONTINUOUS
 62
     3
100
AcDbLine
 10
1250.5027653915
 20
1037.761746165671
 30
0.0
 11
1250.5027653915
 21
1106.0
 31
0.0
  0
LINE
  5
32E
330
32A
100
AcDbEntity
  8
穴径詳細図
  6
CONTINUOUS
 62
     3
100
AcDbLine
 10
1355.502765391498
 20
1037.761746165671
 30
0.0
 11
1355.502765391498
 21
1106.0
 31
0.0
  0
LINE
  5
32F
330
32A
100
AcDbEntity
  8
穴径詳細図
  6
CONTINUOUS
 62
     3
100
AcDbLine
 10
1265.5027653915
 20
1101.0
 30
0.0
 11
1340.502765391498
 21
1101.0
 31
0.0
  0
INSERT
  5
330
330
32A
100
AcDbEntity
  8
穴径詳細図
 62
     3
100
AcDbBlockReference
  2
EX_NORM
 10
1250.5027653915
 20
1101.0
 30
0.0
 41
15.0
 42
15.0
 43
15.0
 50
180.0
  0
INSERT
  5
331
330
32A
100
AcDbEntity
  8
穴径詳細図
 62
     3
100
AcDbBlockReference
  2
EX_NORM
 10
1355.502765391498
 20
1101.0
 30
0.0
 41
15.0
 42
15.0
 43
15.0
  0
MTEXT
  5
332
330
32A
100
AcDbEntity
  8
穴径詳細図
 62
     2
100
AcDbMText
 10
1303.002765391499
 20
1112.749999970197
 30
0.0
 40
20.0
 41
0.0
 71
     5
 72
     1
  1
（%%c42）
  7
EXCADDIM1
  0
POINT
  5
333
330
32A
100
AcDbEntity
  8
DEFPOINTS
 62
     0
100
AcDbPoint
 10
1250.5027653915
 20
1034.261746225275
 30
0.0
  0
POINT
  5
334
330
32A
100
AcDbEntity
  8
DEFPOINTS
 62
     0
100
AcDbPoint
 10
1355.502765391498
 20
1034.261746225275
 30
0.0
  0
POINT
  5
335
330
32A
100
AcDbEntity
  8
DEFPOINTS
 62
     0
100
AcDbPoint
 10
1355.502765391498
 20
1101.0
 30
0.0
  0
ENDBLK
  5
32C
330
32A
100
AcDbEntity
  8
0
100
AcDbBlockEnd
  0
BLOCK
  5
338
330
337
100
AcDbEntity
  8
0
100
AcDbBlockBegin
  2
*D28
 70
     1
 10
0.0
 20
0.0
 30
0.0
  3
*D28
  1

  0
LINE
  5
33A
330
337
100
AcDbEntity
  8
穴径詳細図
  6
CONTINUOUS
 62
     3
100
AcDbLine
 10
1251.7527653915
 20
1014.51174628488
 30
0.0
 11
1251.7527653915
 21
962.9999999999999
 31
0.0
  0
LINE
  5
33B
330
337
100
AcDbEntity
  8
穴径詳細図
  6
CONTINUOUS
 62
     3
100
AcDbLine
 10
1354.2527653915
 20
1014.51174628488
 30
0.0
 11
1354.2527653915
 21
962.9999999999999
 31
0.0
  0
LINE
  5
33C
330
337
100
AcDbEntity
  8
穴径詳細図
  6
CONTINUOUS
 62
     3
100
AcDbLine
 10
1266.7527653915
 20
967.9999999999999
 30
0.0
 11
1339.2527653915
 21
967.9999999999999
 31
0.0
  0
INSERT
  5
33D
330
337
100
AcDbEntity
  8
穴径詳細図
 62
     3
100
AcDbBlockReference
  2
EX_NORM
 10
1251.7527653915
 20
967.9999999999999
 30
0.0
 41
15.0
 42
15.0
 43
15.0
 50
180.0
  0
INSERT
  5
33E
330
337
100
AcDbEntity
  8
穴径詳細図
 62
     3
100
AcDbBlockReference
  2
EX_NORM
 10
1354.2527653915
 20
967.9999999999999
 30
0.0
 41
15.0
 42
15.0
 43
15.0
  0
MTEXT
  5
33F
330
337
100
AcDbEntity
  8
穴径詳細図
 62
     2
100
AcDbMText
 10
1303.0027653915
 20
979.7499999701976
 30
0.0
 40
20.0
 41
0.0
 71
     5
 72
     1
  1
%%c41
  7
EXCADDIM1
  0
POINT
  5
340
330
337
100
AcDbEntity
  8
DEFPOINTS
 62
     0
100
AcDbPoint
 10
1251.7527653915
 20
1018.011746225275
 30
0.0
  0
POINT
  5
341
330
337
100
AcDbEntity
  8
DEFPOINTS
 62
     0
100
AcDbPoint
 10
1354.2527653915
 20
1018.011746225275
 30
0.0
  0
POINT
  5
342
330
337
100
AcDbEntity
  8
DEFPOINTS
 62
     0
100
AcDbPoint
 10
1354.2527653915
 20
967.9999999999999
 30
0.0
  0
ENDBLK
  5
339
330
337
100
AcDbEntity
  8
0
100
AcDbBlockEnd
  0
BLOCK
  5
345
330
344
100
AcDbEntity
  8
0
100
AcDbBlockBegin
  2
*D29
 70
     1
 10
0.0
 20
0.0
 30
0.0
  3
*D29
  1

  0
LINE
  5
347
330
344
100
AcDbEntity
  8
穴径詳細図
  6
CONTINUOUS
 62
     3
100
AcDbLine
 10
1231.203933410804
 20
1018.011746225275
 30
0.0
 11
1136.0
 21
1018.011746225275
 31
0.0
  0
LINE
  5
348
330
344
100
AcDbEntity
  8
穴径詳細図
  6
CONTINUOUS
 62
     3
100
AcDbLine
 10
1220.752765451105
 20
1063.011746225275
 30
0.0
 11
1136.0
 21
1063.011746225275
 31
0.0
  0
LINE
  5
349
330
344
100
AcDbEntity
  8
穴径詳細図
  6
CONTINUOUS
 62
     3
100
AcDbLine
 10
1141.0
 20
1033.011746225275
 30
0.0
 11
1141.0
 21
1048.011746225275
 31
0.0
  0
INSERT
  5
34A
330
344
100
AcDbEntity
  8
穴径詳細図
 62
     3
100
AcDbBlockReference
  2
EX_NORM
 10
1141.0
 20
1018.011746225275
 30
0.0
 41
15.0
 42
15.0
 43
15.0
 50
270.0
  0
INSERT
  5
34B
330
344
100
AcDbEntity
  8
穴径詳細図
 62
     3
100
AcDbBlockReference
  2
EX_NORM
 10
1141.0
 20
1063.011746225275
 30
0.0
 41
15.0
 42
15.0
 43
15.0
 50
90.0
  0
MTEXT
  5
34C
330
344
100
AcDbEntity
  8
穴径詳細図
 62
     2
100
AcDbMText
 10
1129.250000029802
 20
1040.511746225275
 30
0.0
 40
20.0
 41
0.0
 71
     5
 72
     1
  1
18
  7
EXCADDIM1
 11
0.0
 21
1.0
 31
0.0
  0
POINT
  5
34D
330
344
100
AcDbEntity
  8
DEFPOINTS
 62
     0
100
AcDbPoint
 10
1234.7039333512
 20
1018.011746225275
 30
0.0
  0
POINT
  5
34E
330
344
100
AcDbEntity
  8
DEFPOINTS
 62
     0
100
AcDbPoint
 10
1224.2527653915
 20
1063.011746225275
 30
0.0
  0
POINT
  5
34F
330
344
100
AcDbEntity
  8
DEFPOINTS
 62
     0
100
AcDbPoint
 10
1141.0
 20
1063.011746225275
 30
0.0
  0
ENDBLK
  5
346
330
344
100
AcDbEntity
  8
0
100
AcDbBlockEnd
  0
ENDSEC
  0
SECTION
  2
ENTITIES
  0
LINE
  5
AA
330
1F
100
AcDbEntity
  8
図枠
  6
CONTINUOUS
 62
     6
100
AcDbLine
 10
883.5000000000002
 20
75.99999999999994
 30
0.0
 11
1334.5
 21
75.99999999999994
 31
0.0
  0
TEXT
  5
AB
330
1F
100
AcDbEntity
  8
図枠
  6
CONTINUOUS
 62
     2
100
AcDbText
 10
886.0000000000002
 20
79.35000000000002
 30
0.0
 40
20.0
  1
注１．外観・寸法・性能及び品質は、別途定める製品規格による。
 41
0.8877094972067033
  7
EXCADSTD
 72
     5
 11
1340.0
 21
79.35000000000002
 31
0.0
100
AcDbText
  0
LINE
  5
AC
330
1F
100
AcDbEntity
  8
図枠
  6
CONTINUOUS
 62
     6
100
AcDbLine
 10
883.5000000000002
 20
104.35
 30
0.0
 11
1153.0
 21
104.35
 31
0.0
  0
TEXT
  5
AD
330
1F
100
AcDbEntity
  8
図枠
  6
CONTINUOUS
 62
     2
100
AcDbText
 10
886.0000000000002
 20
107.7000000000001
 30
0.0
 40
20.0
  1
注２．(　)内寸法は参考寸法を表わす。
 41
0.8564954682779456
  7
EXCADSTD
 72
     5
 11
1156.0
 21
107.7000000000001
 31
0.0
100
AcDbText
  0
LINE
  5
AE
330
1F
100
AcDbEntity
  8
図枠
  6
CONTINUOUS
 62
     7
100
AcDbLine
 10
99.49999999999883
 20
51.99999999997956
 30
0.0
 11
2024.49999999998
 21
51.99999999997956
 31
0.0
  0
ARC
  5
AF
330
1F
100
AcDbEntity
  8
図枠
  6
CONTINUOUS
 62
     3
100
AcDbCircle
 10
1410.634266206226
 20
75.30836444632385
 30
0.0
 40
8.83341757663532
100
AcDbArc
 50
88.77000393305703
 51
128.9068631829044
  0
ARC
  5
B0
330
1F
100
AcDbEntity
  8
図枠
  6
CONTINUOUS
 62
     3
100
AcDbCircle
 10
1411.035313630089
 20
79.00958129864492
 30
0.0
 40
5.134520375572949
100
AcDbArc
 50
4.148222840814693
 51
92.36000944257292
  0
ARC
  5
B1
330
1F
100
AcDbEntity
  8
図枠
  6
CONTINUOUS
 62
     3
100
AcDbCircle
 10
1642.825067919305
 20
72.4661921965658
 30
0.0
 40
226.7741327932831
100
AcDbArc
 50
178.2526643324597
 51
180.6439560401927
  0
ARC
  5
B2
330
1F
100
AcDbEntity
  8
図枠
  6
CONTINUOUS
 62
     3
100
AcDbCircle
 10
1417.591199472252
 20
69.91514643900317
 30
0.0
 40
1.525943415536945
100
AcDbArc
 50
179.9117548191414
 51
236.1065985968857
  0
ARC
  5
B3
330
1F
100
AcDbEntity
  8
図枠
  6
CONTINUOUS
 62
     3
100
AcDbCircle
 10
1417.412103922848
 20
70.00305943703395
 30
0.0
 40
1.5120242956824
100
AcDbArc
 50
243.6191685566582
 51
297.5097757939563
  0
LINE
  5
B4
330
1F
100
AcDbEntity
  8
図枠
  6
CONTINUOUS
 62
     3
100
AcDbLine
 10
1418.110507866575
 20
67.87562164874956
 30
0.0
 11
1418.110507866575
 21
68.66199664874969
 31
0.0
  0
LINE
  5
B5
330
1F
100
AcDbEntity
  8
図枠
  6
CONTINUOUS
 62
     3
100
AcDbLine
 10
1415.454382866575
 20
67.5482466487496
 30
0.0
 11
1416.541132866575
 21
67.5482466487496
 31
0.0
  0
ARC
  5
B6
330
1F
100
AcDbEntity
  8
図枠
  6
CONTINUOUS
 62
     3
100
AcDbCircle
 10
1416.44979459723
 20
71.82322564113079
 30
0.0
 40
4.28270310010447
100
AcDbArc
 50
271.2220539293239
 51
292.8159509797653
  0
ARC
  5
B7
330
1F
100
AcDbEntity
  8
図枠
  6
CONTINUOUS
 62
     3
100
AcDbCircle
 10
1415.646886754023
 20
69.66837282641123
 30
0.0
 40
2.12884775310199
100
AcDbArc
 50
217.4081478714985
 51
264.8118660441384
  0
ARC
  5
B8
330
1F
100
AcDbEntity
  8
図枠
  6
CONTINUOUS
 62
     3
100
AcDbCircle
 10
1415.915778027866
 20
69.82462971326598
 30
0.0
 40
2.43767567004861
100
AcDbArc
 50
187.1167640402297
 51
216.4860549324747
  0
ARC
  5
B9
330
1F
100
AcDbEntity
  8
図枠
  6
CONTINUOUS
 62
     3
100
AcDbCircle
 10
1408.330652293301
 20
73.97670131282055
 30
0.0
 40
6.821199600519659
100
AcDbArc
 50
275.2158792069686
 51
319.2336424873511
  0
LINE
  5
BA
330
1F
100
AcDbEntity
  8
図枠
  6
CONTINUOUS
 62
     3
100
AcDbLine
 10
1407.580507866575
 20
67.18374664874958
 30
0.0
 11
1408.950757866575
 21
67.18374664874958
 31
0.0
  0
ARC
  5
BB
330
1F
100
AcDbEntity
  8
図枠
  6
CONTINUOUS
 62
     3
100
AcDbCircle
 10
1407.646406536787
 20
70.34817471934971
 30
0.0
 40
3.16511416045893
100
AcDbArc
 50
252.3384873625213
 51
268.8069976857606
  0
ARC
  5
BC
330
1F
100
AcDbEntity
  8
図枠
  6
CONTINUOUS
 62
     3
100
AcDbCircle
 10
1407.728147651794
 20
71.40555523860897
 30
0.0
 40
4.204478288781829
100
AcDbArc
 50
224.289750990011
 51
255.6505938786759
  0
ARC
  5
BD
330
1F
100
AcDbEntity
  8
図枠
  6
CONTINUOUS
 62
     3
100
AcDbCircle
 10
1407.545766645725
 20
71.20075107862263
 30
0.0
 40
3.93096173563145
100
AcDbArc
 50
185.9586126338419
 51
224.0091989319859
  0
ARC
  5
BE
330
1F
100
AcDbEntity
  8
図枠
  6
CONTINUOUS
 62
     3
100
AcDbCircle
 10
1407.95375092845
 20
71.38793562736694
 30
0.0
 40
4.358546862943345
100
AcDbArc
 50
164.8589457925044
 51
187.8495628504518
  0
ARC
  5
BF
330
1F
100
AcDbEntity
  8
図枠
  6
CONTINUOUS
 62
     3
100
AcDbCircle
 10
1407.198618951457
 20
71.81831662501921
 30
0.0
 40
3.52397685278961
100
AcDbArc
 50
129.8344892359069
 51
168.4089447024628
  0
ARC
  5
C0
330
1F
100
AcDbEntity
  8
図枠
  6
CONTINUOUS
 62
     3
100
AcDbCircle
 10
1409.048506933739
 20
69.48042407412302
 30
0.0
 40
6.504683084924599
100
AcDbArc
 50
102.0988446293839
 51
129.1556705448828
  0
ARC
  5
C1
330
1F
100
AcDbEntity
  8
図枠
  6
CONTINUOUS
 62
     3
100
AcDbCircle
 10
1397.926504999239
 20
138.5601014887398
 30
0.0
 40
63.47412046851909
100
AcDbArc
 50
278.8438342053764
 51
282.6649181367123
  0
ARC
  5
C2
330
1F
100
AcDbEntity
  8
図枠
  6
CONTINUOUS
 62
     3
100
AcDbCircle
 10
1410.671652505495
 20
81.82036813441655
 30
0.0
 40
5.32056667636392
100
AcDbArc
 50
282.7195832898965
 51
295.6781112778079
  0
ARC
  5
C3
330
1F
100
AcDbEntity
  8
図枠
  6
CONTINUOUS
 62
     3
100
AcDbCircle
 10
1412.661547783617
 20
77.82556662519383
 30
0.0
 40
0.860294141140655
100
AcDbArc
 50
291.5204897073511
 51
349.3445900274031
  0
ARC
  5
C4
330
1F
100
AcDbEntity
  8
図枠
  6
CONTINUOUS
 62
     3
100
AcDbCircle
 10
1407.002693678278
 20
78.46149351873592
 30
0.0
 40
6.552718755094605
100
AcDbArc
 50
353.0315250986587
 51
7.839947970678348
  0
ARC
  5
C5
330
1F
100
AcDbEntity
  8
図枠
  6
CONTINUOUS
 62
     3
100
AcDbCircle
 10
1409.964170640834
 20
79.13709430765053
 30
0.0
 40
3.53673269313001
100
AcDbArc
 50
3.537639967999379
 51
74.8013566619203
  0
ARC
  5
C6
330
1F
100
AcDbEntity
  8
図枠
  6
CONTINUOUS
 62
     3
100
AcDbCircle
 10
1409.739954789865
 20
77.46919152563024
 30
0.0
 40
5.209763673321151
100
AcDbArc
 50
77.23143261361693
 51
105.203415964315
  0
ARC
  5
C7
330
1F
100
AcDbEntity
  8
図枠
  6
CONTINUOUS
 62
     3
100
AcDbCircle
 10
1409.412680885099
 20
78.14450959287356
 30
0.0
 40
4.474405525883595
100
AcDbArc
 50
103.4267945469744
 51
150.3242613737993
  0
LINE
  5
C8
330
1F
100
AcDbEntity
  8
図枠
  6
CONTINUOUS
 62
     3
100
AcDbLine
 10
1405.086382866575
 20
82.18224664874995
 30
0.0
 11
1405.086382866575
 21
80.35974664874985
 31
0.0
  0
ARC
  5
C9
330
1F
100
AcDbEntity
  8
図枠
  6
CONTINUOUS
 62
     3
100
AcDbCircle
 10
1357.571978261303
 20
69.86713809611913
 30
0.0
 40
34.83507524900299
100
AcDbArc
 50
353.1274757312911
 51
357.106204490141
  0
ARC
  5
CA
330
1F
100
AcDbEntity
  8
図枠
  6
CONTINUOUS
 62
     3
100
AcDbCircle
 10
1145.169276061416
 20
81.7598667919215
 30
0.0
 40
247.5700215199504
100
AcDbArc
 50
356.8390243485978
 51
2.971133813187157
  0
ARC
  5
CB
330
1F
100
AcDbEntity
  8
図枠
  6
CONTINUOUS
 62
     3
100
AcDbCircle
 10
1388.546369324751
 20
66.6703759236249
 30
0.0
 40
3.738845927653165
100
AcDbArc
 50
314.592391474832
 51
344.9374073189123
  0
ARC
  5
CC
330
1F
100
AcDbEntity
  8
図枠
  6
CONTINUOUS
 62
     3
100
AcDbCircle
 10
1387.417364484222
 20
68.83799297227895
 30
0.0
 40
6.117335001950124
100
AcDbArc
 50
288.1715191042997
 51
307.8537826235693
  0
LINE
  5
CD
330
1F
100
AcDbEntity
  8
図枠
  6
CONTINUOUS
 62
     3
100
AcDbLine
 10
1389.942757866575
 20
61.14587164874948
 30
0.0
 11
1389.325132866575
 21
63.02574664874967
 31
0.0
  0
ARC
  5
CE
330
1F
100
AcDbEntity
  8
図枠
  6
CONTINUOUS
 62
     3
100
AcDbCircle
 10
1388.547787493283
 20
72.36115764574905
 30
0.0
 40
11.30170705410681
100
AcDbArc
 50
277.0901027239701
 51
290.9134154817058
  0
ARC
  5
CF
330
1F
100
AcDbEntity
  8
図枠
  6
CONTINUOUS
 62
     3
100
AcDbCircle
 10
1390.194866394224
 20
69.96917593132096
 30
0.0
 40
8.506973440980575
100
AcDbArc
 50
286.2966123578915
 51
329.973223283839
  0
ARC
  5
D0
330
1F
100
AcDbEntity
  8
図枠
  6
CONTINUOUS
 62
     3
100
AcDbCircle
 10
1387.244968089481
 20
70.48156784398444
 30
0.0
 40
11.36437631557155
100
AcDbArc
 50
335.1860595856123
 51
1.308075913059364
  0
ARC
  5
D1
330
1F
100
AcDbEntity
  8
図枠
  6
CONTINUOUS
 62
     3
100
AcDbCircle
 10
1723.271265706667
 20
79.14801804752202
 30
0.0
 40
324.7737122341802
100
AcDbArc
 50
177.2695926307304
 51
181.4833117237826
  0
ARC
  5
D2
330
1F
100
AcDbEntity
  8
図枠
  6
CONTINUOUS
 62
     3
100
AcDbCircle
 10
1395.545410006063
 20
116.3708785260907
 30
0.0
 40
22.00379416745233
100
AcDbArc
 50
261.7986203004403
 51
278.6803384946418
  0
ARC
  5
D3
330
1F
100
AcDbEntity
  8
図枠
  6
CONTINUOUS
 62
     3
100
AcDbCircle
 10
1407.802804967636
 20
95.87506905800481
 30
0.0
 40
20.68203407347008
100
AcDbArc
 50
278.4088456599976
 51
286.1851416003176
  0
ARC
  5
D4
330
1F
100
AcDbEntity
  8
図枠
  6
CONTINUOUS
 62
     3
100
AcDbCircle
 10
1412.283032587835
 20
65.91594313337808
 30
0.0
 40
9.610328930776038
100
AcDbArc
 50
98.71271710191789
 51
115.2874718053599
  0
ARC
  5
D5
330
1F
100
AcDbEntity
  8
図枠
  6
CONTINUOUS
 62
     3
100
AcDbCircle
 10
1409.535093341842
 20
71.79037395233834
 30
0.0
 40
3.125097167285265
100
AcDbArc
 50
115.7403688633493
 51
172.5491744442191
  0
LINE
  5
D6
330
1F
100
AcDbEntity
  8
図枠
  6
CONTINUOUS
 62
     3
100
AcDbLine
 10
1406.436382866575
 20
72.19562164874972
 30
0.0
 11
1406.436382866575
 21
71.21687164874984
 31
0.0
  0
ARC
  5
D7
330
1F
100
AcDbEntity
  8
図枠
  6
CONTINUOUS
 62
     3
100
AcDbCircle
 10
1409.347982674387
 20
71.37306900486877
 30
0.0
 40
2.915786524234985
100
AcDbArc
 50
183.0707787095794
 51
263.4402016072427
  0
LINE
  5
D8
330
1F
100
AcDbEntity
  8
図枠
  6
CONTINUOUS
 62
     3
100
AcDbLine
 10
1409.014882866575
 20
68.47637164874996
 30
0.0
 11
1409.882257866575
 21
68.47637164874996
 31
0.0
  0
ARC
  5
D9
330
1F
100
AcDbEntity
  8
図枠
  6
CONTINUOUS
 62
     3
100
AcDbCircle
 10
1409.162234538246
 20
73.3918244764898
 30
0.0
 40
4.967908019989579
100
AcDbArc
 50
278.3335103000368
 51
329.1221464187299
  0
ARC
  5
DA
330
1F
100
AcDbEntity
  8
図枠
  6
CONTINUOUS
 62
     3
100
AcDbCircle
 10
-10231.00771108873
 20
392.663262279371
 30
0.0
 40
11648.88000630296
100
AcDbArc
 50
358.4169008257799
 51
358.4423418242109
  0
ARC
  5
DB
330
1F
100
AcDbEntity
  8
図枠
  6
CONTINUOUS
 62
     3
100
AcDbCircle
 10
1423.290439003416
 20
47.7534627255649
 30
0.0
 40
19.84454547209248
100
AcDbArc
 50
85.07099551674689
 51
93.91830029343228
  0
ARC
  5
DC
330
1F
100
AcDbEntity
  8
図枠
  6
CONTINUOUS
 62
     3
100
AcDbCircle
 10
1461.704428947502
 20
71.95750735047014
 30
0.0
 40
36.97560496557463
100
AcDbArc
 50
179.8977458165987
 51
186.8855675734268
  0
ARC
  5
DD
330
1F
100
AcDbEntity
  8
図枠
  6
CONTINUOUS
 62
     3
100
AcDbCircle
 10
1430.28308611827
 20
77.53976125688226
 30
0.0
 40
5.541994781590654
100
AcDbArc
 50
134.9787476233347
 51
181.2369872983282
  0
ARC
  5
DE
330
1F
100
AcDbEntity
  8
図枠
  6
CONTINUOUS
 62
     3
100
AcDbCircle
 10
1429.005007260227
 20
78.1183136569139
 30
0.0
 40
4.258225285235015
100
AcDbArc
 50
42.91644474042847
 51
128.3015542351336
  0
ARC
  5
DF
330
1F
100
AcDbEntity
  8
図枠
  6
CONTINUOUS
 62
     3
100
AcDbCircle
 10
1427.472370228376
 20
78.01575694105694
 30
0.0
 40
5.53586253872077
100
AcDbArc
 50
359.2495022237244
 51
32.84055016678327
  0
ARC
  5
E0
330
1F
100
AcDbEntity
  8
図枠
  6
CONTINUOUS
 62
     3
100
AcDbCircle
 10
1350.558668932437
 20
73.88756689410243
 30
0.0
 40
82.5487783334294
100
AcDbArc
 50
355.5862454873798
 51
2.816115806820253
  0
ARC
  5
E1
330
1F
100
AcDbEntity
  8
図枠
  6
CONTINUOUS
 62
     3
100
AcDbCircle
 10
1434.288570366575
 20
51.80076309611835
 30
0.0
 40
15.79846626063372
100
AcDbArc
 50
84.82155189294139
 51
95.17844810705873
  0
ARC
  5
E2
330
1F
100
AcDbEntity
  8
図枠
  6
CONTINUOUS
 62
     3
100
AcDbCircle
 10
1517.328816830799
 20
71.45336873693637
 30
0.0
 40
81.70832899269108
100
AcDbArc
 50
176.2131780319488
 51
182.7488833337936
  0
ARC
  5
E3
330
1F
100
AcDbEntity
  8
図枠
  6
CONTINUOUS
 62
     3
100
AcDbCircle
 10
1405.095680060453
 20
77.66578874058624
 30
0.0
 40
30.71404543933479
100
AcDbArc
 50
358.4775281223095
 51
2.117232414210064
  0
ARC
  5
E4
330
1F
100
AcDbEntity
  8
図枠
  6
CONTINUOUS
 62
     3
100
AcDbCircle
 10
1429.895275767191
 20
78.81429712255581
 30
0.0
 40
5.89349825730295
100
AcDbArc
 50
359.8658335690532
 51
34.49363429411157
  0
ARC
  5
E5
330
1F
100
AcDbEntity
  8
図枠
  6
CONTINUOUS
 62
     3
100
AcDbCircle
 10
1430.886202870638
 20
79.46023323987916
 30
0.0
 40
4.7110718777777
100
AcDbArc
 50
34.84393737091607
 51
92.5207065423111
  0
ARC
  5
E6
330
1F
100
AcDbEntity
  8
図枠
  6
CONTINUOUS
 62
     3
100
AcDbCircle
 10
1430.377053450077
 20
77.46379944090975
 30
0.0
 40
6.709744983286299
100
AcDbArc
 50
87.42068310381028
 51
147.4361518966862
  0
ARC
  5
E7
330
1F
100
AcDbEntity
  8
図枠
  6
CONTINUOUS
 62
     3
100
AcDbCircle
 10
1443.528736369758
 20
81.53928406913181
 30
0.0
 40
18.8123275022909
100
AcDbArc
 50
172.9875214416311
 51
181.4134392789641
  0
ARC
  5
E8
330
1F
100
AcDbEntity
  8
図枠
  6
CONTINUOUS
 62
     3
100
AcDbCircle
 10
1423.354142493012
 20
89.61034399070357
 30
0.0
 40
5.966746792730079
100
AcDbArc
 50
255.9341994177206
 51
284.5896440601899
  0
ARC
  5
E9
330
1F
100
AcDbEntity
  8
図枠
  6
CONTINUOUS
 62
     3
100
AcDbCircle
 10
1320.05884943353
 20
75.49690293356676
 30
0.0
 40
102.1848903065536
100
AcDbArc
 50
355.5405243117485
 51
4.673398698656258
  0
LINE
  5
EA
330
1F
100
AcDbEntity
  8
図枠
  6
CONTINUOUS
 62
     3
100
AcDbLine
 10
1424.742382866575
 20
77.42012164874964
 30
0.0
 11
1424.742382866575
 21
72.02349664874944
 31
0.0
  0
CIRCLE
  5
EB
330
1F
100
AcDbEntity
  8
図枠
  6
CONTINUOUS
 62
     3
100
AcDbCircle
 10
1443.142757019118
 20
89.79177334366526
 30
0.0
 40
1.786167233384945
  0
ARC
  5
EC
330
1F
100
AcDbEntity
  8
図枠
  6
CONTINUOUS
 62
     3
100
AcDbCircle
 10
1443.072803801336
 20
90.26662371788305
 30
0.0
 40
6.596142744201035
100
AcDbArc
 50
256.6209501743446
 51
283.9984576255729
  0
ARC
  5
ED
330
1F
100
AcDbEntity
  8
図枠
  6
CONTINUOUS
 62
     3
100
AcDbCircle
 10
1443.207204468516
 20
34.89902092059609
 30
0.0
 40
32.66429742625544
100
AcDbArc
 50
87.46575055044718
 51
92.90832285102188
  0
ARC
  5
EE
330
1F
100
AcDbEntity
  8
図枠
  6
CONTINUOUS
 62
     3
100
AcDbCircle
 10
1546.127023589728
 20
75.59405028694883
 30
0.0
 40
101.79531952945
100
AcDbArc
 50
175.3387608397566
 51
184.5428594926176
  0
ARC
  5
EF
330
1F
100
AcDbEntity
  8
図枠
  6
CONTINUOUS
 62
     3
100
AcDbCircle
 10
1330.845028768143
 20
75.66248963829153
 30
0.0
 40
111.0038042517906
100
AcDbArc
 50
355.7940354718673
 51
4.229650257234378
  0
ARC
  5
F0
330
1F
100
AcDbEntity
  8
図枠
  6
CONTINUOUS
 62
     3
100
AcDbCircle
 10
1615.822226616357
 20
489.0148716481896
 30
0.0
 40
435.1400114481578
100
AcDbArc
 50
248.6422112053103
 51
248.8567777804232
  0
ARC
  5
F1
330
1F
100
AcDbEntity
  8
図枠
  6
CONTINUOUS
 62
     3
100
AcDbCircle
 10
1455.427141422978
 20
79.08315191817692
 30
0.0
 40
5.054539337960785
100
AcDbArc
 50
67.66151957087348
 51
88.69073168448988
  0
ARC
  5
F2
330
1F
100
AcDbEntity
  8
図枠
  6
CONTINUOUS
 62
     3
100
AcDbCircle
 10
1454.885552214145
 20
77.54895489685978
 30
0.0
 40
6.599874326837624
100
AcDbArc
 50
92.38301574576484
 51
114.9635286746436
  0
ARC
  5
F3
330
1F
100
AcDbEntity
  8
図枠
  6
CONTINUOUS
 62
     3
100
AcDbCircle
 10
1454.39817483993
 20
79.1004645550727
 30
0.0
 40
4.99216280154595
100
AcDbArc
 50
117.4083995939977
 51
176.1964688215695
  0
ARC
  5
F4
330
1F
100
AcDbEntity
  8
図枠
  6
CONTINUOUS
 62
     3
100
AcDbCircle
 10
1452.77996289625
 20
78.60963845375593
 30
0.0
 40
3.346863029528055
100
AcDbArc
 50
181.2393899443581
 51
226.5942921332421
  0
ARC
  5
F5
330
1F
100
AcDbEntity
  8
図枠
  6
CONTINUOUS
 62
     3
100
AcDbCircle
 10
1454.763407289925
 20
80.61982055031379
 30
0.0
 40
6.170504753897835
100
AcDbArc
 50
226.0402388947521
 51
253.1776672992999
  0
ARC
  5
F6
330
1F
100
AcDbEntity
  8
図枠
  6
CONTINUOUS
 62
     3
100
AcDbCircle
 10
1449.585744591471
 20
60.47285708773998
 30
0.0
 40
14.63889206986377
100
AcDbArc
 50
63.49050203733571
 51
76.60259219849584
  0
ARC
  5
F7
330
1F
100
AcDbEntity
  8
図枠
  6
CONTINUOUS
 62
     3
100
AcDbCircle
 10
1455.154002292633
 20
71.49231127163787
 30
0.0
 40
2.29355076109507
100
AcDbArc
 50
6.53892419415897
 51
65.09756080693691
  0
ARC
  5
F8
330
1F
100
AcDbEntity
  8
図枠
  6
CONTINUOUS
 62
     3
100
AcDbCircle
 10
1454.517888872275
 20
71.35011818783781
 30
0.0
 40
2.97197745938338
100
AcDbArc
 50
270.8867385422408
 51
352.7925382056677
  0
ARC
  5
F9
330
1F
100
AcDbEntity
  8
図枠
  6
CONTINUOUS
 62
     3
100
AcDbCircle
 10
1454.318052161693
 20
72.83293198884863
 30
0.0
 40
4.490020177312635
100
AcDbArc
 50
207.7689879465537
 51
262.7817283832026
  0
ARC
  5
FA
330
1F
100
AcDbEntity
  8
図枠
  6
CONTINUOUS
 62
     3
100
AcDbCircle
 10
1453.396502729588
 20
75.9078288405307
 30
0.0
 40
8.766381578900099
100
AcDbArc
 50
241.8829576087176
 51
265.9354096935781
  0
ARC
  5
FB
330
1F
100
AcDbEntity
  8
図枠
  6
CONTINUOUS
 62
     3
100
AcDbCircle
 10
1454.233194323328
 20
72.83462335588197
 30
0.0
 40
5.672575290903224
100
AcDbArc
 50
271.2948770866743
 51
348.6654156292868
  0
ARC
  5
FC
330
1F
100
AcDbEntity
  8
図枠
  6
CONTINUOUS
 62
     3
100
AcDbCircle
 10
1456.102286064547
 20
72.76086292655819
 30
0.0
 40
3.73122537864803
100
AcDbArc
 50
6.154262763177246
 51
76.17509904255616
  0
ARC
  5
FD
330
1F
100
AcDbEntity
  8
図枠
  6
CONTINUOUS
 62
     3
100
AcDbCircle
 10
1463.269233484553
 20
102.4679655251551
 30
0.0
 40
26.8282212925834
100
AcDbArc
 50
249.6420733479936
 51
256.4727051201885
  0
ARC
  5
FE
330
1F
100
AcDbEntity
  8
図枠
  6
CONTINUOUS
 62
     3
100
AcDbCircle
 10
1455.036067619322
 20
80.65693208831036
 30
0.0
 40
3.51781853668592
100
AcDbArc
 50
210.9501336849607
 51
251.7794729821079
  0
ARC
  5
FF
330
1F
100
AcDbEntity
  8
図枠
  6
CONTINUOUS
 62
     3
100
AcDbCircle
 10
1458.651570366581
 20
81.19115914875138
 30
0.0
 40
7.034259686467
100
AcDbArc
 50
193.4375782160214
 51
199.459638038058
  0
ARC
  5
100
330
1F
100
AcDbEntity
  8
図枠
  6
CONTINUOUS
 62
     3
100
AcDbCircle
 10
1454.517548242976
 20
80.13374973537523
 30
0.0
 40
2.678069655519655
100
AcDbArc
 50
92.11404364449162
 51
173.4175047026091
  0
ARC
  5
101
330
1F
100
AcDbEntity
  8
図枠
  6
CONTINUOUS
 62
     3
100
AcDbCircle
 10
1454.707366956325
 20
79.77146181456263
 30
0.0
 40
3.062932150511265
100
AcDbArc
 50
17.92452211681263
 51
85.16543319077402
  0
LINE
  5
102
330
1F
100
AcDbEntity
  8
図枠
  6
CONTINUOUS
 62
     3
100
AcDbLine
 10
1455.542632866575
 20
84.1363716487497
 30
0.0
 11
1454.611132866575
 21
84.1363716487497
 31
0.0
  0
LINE
  5
103
330
1F
100
AcDbEntity
  8
図枠
  6
CONTINUOUS
 62
     3
100
AcDbLine
 10
1453.753882866575
 20
68.3784966487498
 30
0.0
 11
1454.563882866575
 21
68.3784966487498
 31
0.0
  0
LINE
  5
104
330
1F
100
AcDbEntity
  8
図枠
  6
CONTINUOUS
 62
     3
100
AcDbLine
 10
1450.345132866575
 20
70.74099664874964
 30
0.0
 11
1449.906382866575
 21
70.74099664874964
 31
0.0
  0
LINE
  5
105
330
1F
100
AcDbEntity
  8
図枠
  6
CONTINUOUS
 62
     3
100
AcDbLine
 10
1452.775132866575
 20
67.16349664874954
 30
0.0
 11
1454.361382866575
 21
67.16349664874954
 31
0.0
  0
HATCH
  5
106
330
1F
100
AcDbEntity
  8
図枠
  6
CONTINUOUS
 62
     3
100
AcDbHatch
 10
0.0
 20
0.0
 30
0.0
210
0.0
220
0.0
230
1.0
  2
SOLID
 70
     1
 71
     1
 91
        1
 92
        3
 72
     1
 73
     1
 93
       10
 10
1392.362632866575
 20
68.10849664875
 42
-0.017362223501556
 10
1392.406507866575
 20
94.59212164874997
 42
-0.0267627618865285
 10
1392.406507866575
 20
94.59212164874984
 42
0.0737939047395297
 10
1398.866257866575
 20
94.61912164874974
 42
0.0183878899657109
 10
1398.606382866575
 20
70.74099664875
 42
-0.1144749489451909
 10
1397.560132866575
 20
65.71224664874968
 42
-0.1929163439413163
 10
1392.582007866575
 20
61.80399664874997
 42
-0.0603888289562337
 10
1389.942757866575
 20
61.14587164874948
 42
0.0
 10
1389.325132866574
 20
63.02574664874973
 42
0.0860918333465722
 10
1391.171257866575
 20
64.00787164874947
 42
0.1331843103855141
 97
        0
 75
     0
 76
     1
 98
        1
 10
0.0
 20
0.0
  0
HATCH
  5
107
330
1F
100
AcDbEntity
  8
図枠
  6
CONTINUOUS
 62
     3
100
AcDbHatch
 10
0.0
 20
0.0
 30
0.0
210
0.0
220
0.0
230
1.0
  2
SOLID
 70
     1
 71
     1
 91
        1
 92
        3
 72
     1
 73
     1
 93
       16
 10
1421.934382866575
 20
67.55162164874973
 42
-0.0386228372648426
 10
1421.904007866575
 20
83.82249664874978
 42
-0.0398707891902887
 10
1424.857132866575
 20
83.8359966487496
 42
-0.1256886216044368
 10
1424.722132866575
 20
81.07524664874953
 42
-0.0367815758121429
 10
1424.722132866575
 20
81.07524664874998
 42
-0.268021535028829
 10
1430.679007866575
 20
84.16674664874981
 42
-0.2571134422124888
 10
1434.752632866575
 20
82.15187164874996
 42
-0.1522526366014298
 10
1435.788757866575
 20
78.80049664874949
 42
-0.0158825412051521
 10
1435.714507866575
 20
67.53474664875006
 42
-0.0285251271418421
 10
1432.862632866575
 20
67.53474664874975
 42
-0.0452212723224612
 10
1433.007757866575
 20
77.94324664874964
 42
-0.0315567291532142
 10
1432.123507866575
 20
81.0178716487496
 42
-0.1476272403790709
 10
1426.365757866575
 20
81.45999664874972
 42
-0.3908144705745794
 10
1424.742382866575
 20
77.42012164874969
 42
-0.2046259928850854
 10
1424.742382866575
 20
77.42012164874964
 42
0.0
 10
1424.995507866575
 20
67.52462164874984
 42
-0.0304995761723369
 97
        0
 75
     0
 76
     1
 98
        1
 10
0.0
 20
0.0
  0
HATCH
  5
108
330
1F
100
AcDbEntity
  8
図枠
  6
CONTINUOUS
 62
     3
100
AcDbHatch
 10
0.0
 20
0.0
 30
0.0
210
0.0
220
0.0
230
1.0
  2
SOLID
 70
     1
 71
     1
 91
        2
 92
        1
 93
        1
 72
     2
 10
1443.142757019118
 20
89.79177334366526
 40
1.786167233384942
 50
0.0
 51
360.0
 73
     1
 97
        0
 92
        3
 72
     1
 73
     1
 93
        3
 10
1441.546507866575
 20
83.8494966487495
 42
0.1200283885712921
 10
1444.651507866575
 20
67.53137164874961
 42
-0.0401820615762149
 10
1441.549882866575
 20
67.52124664874981
 42
-0.0237521668114666
 97
        0
 75
     0
 76
     1
 98
        1
 10
0.0
 20
0.0
  0
LINE
  5
109
330
1F
100
AcDbEntity
  8
図枠
  6
CONTINUOUS
 62
     3
100
AcDbLine
 10
1405.086382866575
 20
80.35974664874985
 30
0.0
 11
1405.525132866575
 21
80.35974664874985
 31
0.0
  0
ARC
  5
10A
330
1F
100
AcDbEntity
  8
図枠
  6
CONTINUOUS
 62
     3
100
AcDbCircle
 10
1444.267206565997
 20
70.78898797822958
 30
0.0
 40
5.63976870039419
100
AcDbArc
 50
332.3987521421788
 51
359.5124385477116
  0
LINE
  5
10B
330
1F
100
AcDbEntity
  8
図枠
  6
CONTINUOUS
 62
     3
100
AcDbLine
 10
1457.432632866575
 20
71.75349664874958
 30
0.0
 11
1457.466382866575
 21
70.97724664874946
 31
0.0
  0
LINE
  5
10C
330
1F
100
AcDbEntity
  8
図枠
  6
CONTINUOUS
 62
     3
100
AcDbLine
 10
1459.812007866575
 20
73.16087164874958
 30
0.0
 11
1459.795132866574
 21
71.71974664874952
 31
0.0
  0
LINE
  5
10D
330
1F
100
AcDbEntity
  8
図枠
  6
CONTINUOUS
 62
     3
100
AcDbLine
 10
1451.857132866575
 20
80.44074664874998
 30
0.0
 11
1451.809882866575
 21
79.55649664874969
 31
0.0
  0
LINE
  5
10E
330
1F
100
AcDbEntity
  8
図枠
  6
CONTINUOUS
 62
     3
100
AcDbLine
 10
1449.417007866575
 20
79.43162164874948
 30
0.0
 11
1449.433882866575
 21
78.53724664876054
 31
0.0
  0
LINE
  5
10F
330
1F
100
AcDbEntity
  8
図枠
  6
CONTINUOUS
 62
     3
100
AcDbLine
 10
1454.418757866575
 20
82.80999664874983
 30
0.0
 11
1454.965507866575
 21
82.82349664874985
 31
0.0
  0
LINE
  5
110
330
1F
100
AcDbEntity
  8
図枠
  6
CONTINUOUS
 62
     3
100
AcDbLine
 10
1457.621632866575
 20
80.71412164874985
 30
0.0
 11
1458.048546743315
 21
80.71412164874985
 31
0.0
  0
ARC
  5
111
330
1F
100
AcDbEntity
  8
図枠
  6
CONTINUOUS
 62
     3
100
AcDbCircle
 10
1467.421240534385
 20
78.95097187535399
 30
0.0
 40
9.537090018689154
100
AcDbArc
 50
153.7591918158497
 51
169.3462759801917
  0
HATCH
  5
112
330
1F
100
AcDbEntity
  8
図枠
  6
CONTINUOUS
 62
     3
100
AcDbHatch
 10
0.0
 20
0.0
 30
0.0
210
0.0
220
0.0
230
1.0
  2
SOLID
 70
     1
 71
     1
 91
        1
 92
        3
 72
     1
 73
     1
 93
       30
 10
1458.867007866575
 20
83.16774664875004
 42
-0.0009362235736497
 10
1458.867007866575
 20
83.16774664874953
 42
0.0681165430304653
 10
1458.048546743315
 20
80.71412164874985
 42
0.0
 10
1454.965507866575
 20
82.82349664874961
 42
-0.302112590907374
 10
1454.965507866575
 20
82.82349664874985
 42
0.0
 10
1451.857132866575
 20
80.44074664874955
 42
-0.3704245237568778
 10
1451.857132866575
 20
80.44074664874998
 42
0.0
 10
1452.019132866575
 20
78.84774664874953
 42
-0.0262822419456939
 10
1453.936132866575
 20
77.31549664874998
 42
-0.180060563604375
 10
1456.993882866575
 20
76.3839966487499
 42
-0.0298130817160724
 10
1456.993882866575
 20
76.38399664874973
 42
-0.3153987453686078
 10
1459.812007866575
 20
73.16087164874958
 42
0.0
 10
1459.795132866575
 20
71.71974664874998
 42
-0.3510306079065168
 10
1454.361382866575
 20
67.16349664874954
 42
0.0
 10
1452.775132866574
 20
67.16349664874971
 42
-0.1053356344842436
 10
1449.265132866575
 20
68.17599664874984
 42
0.1188608286962634
 10
1449.906382866575
 20
70.74099664874964
 42
0.0
 10
1453.753882866575
 20
68.37849664874987
 42
-0.2447573632916039
 10
1453.753882866575
 20
68.3784966487498
 42
0.0
 10
1457.466382866575
 20
70.97724664874988
 42
-0.3734162676407277
 10
1457.466382866575
 20
70.97724664874946
 42
0.0
 10
1456.119757866575
 20
73.5726216487499
 42
-0.261219770190848
 10
1452.977632866574
 20
74.71337164874991
 42
-0.0572747914118363
 10
1452.977632866575
 20
74.71337164874984
 42
-0.1189658875692221
 10
1450.480132866575
 20
76.17812164874988
 42
-0.2005226878639636
 10
1449.433882866575
 20
78.53724664876054
 42
0.0
 10
1449.417007866575
 20
79.43162164874968
 42
-0.2622894489606957
 10
1452.100132866575
 20
83.53224664874963
 42
-0.0988461274137808
 10
1454.611132866575
 20
84.1363716487497
 42
0.0
 10
1455.542632866575
 20
84.1363716487496
 42
-0.0920156312561188
 97
        0
 75
     0
 76
     1
 98
        1
 10
0.0
 20
0.0
  0
HATCH
  5
113
330
1F
100
AcDbEntity
  8
図枠
  6
CONTINUOUS
 62
     3
100
AcDbHatch
 10
0.0
 20
0.0
 30
0.0
210
0.0
220
0.0
230
1.0
  2
SOLID
 70
     1
 71
     1
 91
        2
 92
        3
 72
     1
 73
     1
 93
       27
 10
1405.086382866575
 20
82.18224664874992
 42
-0.1769427732109284
 10
1405.086382866575
 20
82.18224664874995
 42
0.0
 10
1405.086382866575
 20
80.35974664874985
 42
0.0
 10
1405.525132866575
 20
80.35974664874966
 42
-0.207533601427307
 10
1408.373711394735
 20
82.49661795643156
 42
-0.1226604740888933
 10
1410.891382866575
 20
82.55012164874984
 42
-0.3213715781137954
 10
1413.494164011054
 20
79.35532571890352
 42
-0.064704004662446
 10
1413.507007866575
 20
77.66649664874974
 42
-0.257798906330806
 10
1412.977132866575
 20
77.02524664874946
 42
-0.056602577721096
 10
1411.843132866575
 20
76.63037164874964
 42
-0.0166741689362636
 10
1407.685132866575
 20
75.84062164874982
 42
0.1186092302783404
 10
1404.941257866575
 20
74.5243716487495
 42
0.1699204224386695
 10
1403.746507866575
 20
72.52637164875001
 42
0.1006533494296199
 10
1403.636043339741
 20
70.79267775476582
 42
0.1675695228968024
 10
1404.718507866575
 20
68.46962164874951
 42
0.1376980079804242
 10
1406.686132866575
 20
67.33224664874962
 42
0.0719813663796923
 10
1407.580507866575
 20
67.18374664874958
 42
0.0
 10
1408.950757866575
 20
67.18374664874962
 42
0.1944607457809085
 10
1413.496882866575
 20
69.5226216487498
 42
0.1288538183665954
 10
1413.955882866575
 20
68.37512164874994
 42
0.2098387395261546
 10
1415.454382866575
 20
67.5482466487496
 42
0.0
 10
1416.541132866575
 20
67.54149664874963
 42
0.0945009641609563
 10
1418.110507866575
 20
67.87562164874956
 42
0.0
 10
1418.110507866575
 20
68.66199664874979
 42
-0.2395739894657535
 10
1416.740257866575
 20
68.64849664874968
 42
-0.2502312110031057
 10
1416.065257866575
 20
69.91749664874989
 42
-0.0104343570771765
 10
1416.156382866575
 20
79.38099664874949
 42
0.4051015674140716
 97
        0
 92
        3
 72
     1
 73
     1
 93
        8
 10
1413.567757866575
 20
76.01274664874974
 42
-0.0339435190873666
 10
1413.567757866576
 20
76.01274664874416
 42
-0.0001110072973599
 10
1413.426007866575
 20
70.8422466487497
 42
-0.2253076310552528
 10
1409.882257866575
 20
68.47637164874996
 42
0.0
 10
1409.014882866575
 20
68.47637164874993
 42
-0.3657967558150132
 10
1406.436382866575
 20
71.21687164874984
 42
0.0
 10
1406.436382866575
 20
72.1956216487496
 42
-0.2530797830369341
 10
1408.177882866575
 20
74.60537164874947
 42
-0.0724473624720066
 97
        0
 75
     0
 76
     1
 98
        1
 10
0.0
 20
0.0
  0
TEXT
  5
115
330
1F
100
AcDbEntity
  8
図枠
  6
CONTINUOUS
 62
     2
100
AcDbText
 10
1467.499999999951
 20
64.49999999997934
 30
0.0
 40
17.25
  1
ジャニス工業株式会社
 41
1.025641025641025
  7
EXCADTTF1
 72
     5
 11
1697.499999999951
 21
64.49999999997934
 31
0.0
100
AcDbText
  0
LINE
  5
116
330
1F
100
AcDbEntity
  8
図枠
  6
CONTINUOUS
 62
     6
100
AcDbLine
 10
1876.72549035
 20
165.3608801499793
 30
0.0
 11
1908.287141900001
 21
197.4764098499796
 31
0.0
  0
LINE
  5
117
330
1F
100
AcDbEntity
  8
図枠
  6
CONTINUOUS
 62
     6
100
AcDbLine
 10
2024.5
 20
209.4999999999794
 30
0.0
 11
1859.5
 21
209.4999999999794
 31
0.0
  0
LINE
  5
118
330
1F
100
AcDbEntity
  8
図枠
  6
CONTINUOUS
 62
     6
100
AcDbLine
 10
1923.25
 20
234.4999999999794
 30
0.0
 11
1923.25
 21
151.9999999999796
 31
0.0
  0
LINE
  5
119
330
1F
100
AcDbEntity
  8
図枠
  6
CONTINUOUS
 62
     6
100
AcDbLine
 10
1859.5
 20
234.4999999999794
 30
0.0
 11
1859.5
 21
151.9999999999796
 31
0.0
  0
LINE
  5
11A
330
1F
100
AcDbEntity
  8
図枠
  6
CONTINUOUS
 62
     6
100
AcDbLine
 10
1344.5
 20
101.9999999999796
 30
0.0
 11
2024.5
 21
101.9999999999796
 31
0.0
  0
LINE
  5
11B
330
1F
100
AcDbEntity
  8
図枠
  6
CONTINUOUS
 62
     6
100
AcDbLine
 10
1369.5
 20
151.9999999999796
 30
0.0
 11
1369.5
 21
101.9999999999796
 31
0.0
  0
TEXT
  5
11C
330
1F
100
AcDbEntity
  8
図枠
  6
CONTINUOUS
 62
     2
100
AcDbText
 10
1868.85
 20
184.0499999999794
 30
0.0
 40
20.0
  1
１
 41
1.12
  7
EXCADSTD
 72
     5
 11
1884.85
 21
184.0499999999794
 31
0.0
100
AcDbText
  0
TEXT
  5
11D
330
1F
100
AcDbEntity
  8
図枠
  6
CONTINUOUS
 62
     2
100
AcDbText
 10
1931.724999910594
 20
169.4999999999796
 30
0.0
 40
22.5
  1
第３角法
 41
1.210628019323672
  7
EXCADSTD
 72
     5
 11
2021.224999910594
 21
169.4999999999796
 31
0.0
100
AcDbText
  0
TEXT
  5
11E
330
1F
100
AcDbEntity
  8
図枠
  6
CONTINUOUS
 62
     2
100
AcDbText
 10
1358.45
 20
148.2499999999796
 30
0.0
 40
16.22727272727273
  1
品名
  7
EXCADVERT
 72
     3
 11
1358.45
 21
105.7499999999796
 31
0.0
100
AcDbText
  0
LINE
  5
11F
330
1F
100
AcDbEntity
  8
図枠
  6
CONTINUOUS
 62
     6
100
AcDbLine
 10
1755.75
 20
51.99999999997956
 30
0.0
 11
1755.75
 21
151.9999999999796
 31
0.0
  0
LINE
  5
120
330
1F
100
AcDbEntity
  8
図枠
  6
CONTINUOUS
 62
     7
100
AcDbLine
 10
1344.5
 20
234.4999999999794
 30
0.0
 11
1344.5
 21
51.99999999997956
 31
0.0
  0
LINE
  5
121
330
1F
100
AcDbEntity
  8
図枠
  6
CONTINUOUS
 62
     6
100
AcDbLine
 10
2024.5
 20
151.9999999999796
 30
0.0
 11
1344.5
 21
151.9999999999796
 31
0.0
  0
LINE
  5
122
330
1F
100
AcDbEntity
  8
図枠
  6
CONTINUOUS
 62
     6
100
AcDbLine
 10
1369.5
 20
234.4999999999794
 30
0.0
 11
1369.5
 21
151.9999999999796
 31
0.0
  0
LINE
  5
123
330
1F
100
AcDbEntity
  8
図枠
  6
CONTINUOUS
 62
     6
100
AcDbLine
 10
1730.75
 20
151.9999999999796
 30
0.0
 11
1730.75
 21
51.99999999997956
 31
0.0
  0
TEXT
  5
124
330
1F
100
AcDbEntity
  8
図枠
  6
CONTINUOUS
 62
     2
100
AcDbText
 10
1870.125
 20
211.9999999999794
 30
0.0
 40
20.0
  1
尺度
 41
1.239493181818183
  7
EXCADSTD
 72
     5
 11
1909.0805
 21
211.9999999999794
 31
0.0
100
AcDbText
  0
TEXT
  5
125
330
1F
100
AcDbEntity
  8
図枠
  6
CONTINUOUS
 62
     2
100
AcDbText
 10
1941.975
 20
211.9999999999794
 30
0.0
 40
20.0
  1
投影法
 41
1.338235294117647
  7
EXCADSTD
 72
     5
 11
2006.975
 21
211.9999999999794
 31
0.0
100
AcDbText
  0
TEXT
  5
126
330
1F
100
AcDbEntity
  8
図枠
  6
CONTINUOUS
 62
     2
100
AcDbText
 10
1744.700000000001
 20
148.2499999999796
 30
0.0
 40
16.22727272727273
  1
品番
  7
EXCADVERT
 72
     3
 11
1744.700000000001
 21
105.7499999999796
 31
0.0
100
AcDbText
  0
TEXT
  5
127
330
1F
100
AcDbEntity
  8
図枠
  6
CONTINUOUS
 62
     2
100
AcDbText
 10
1744.700000000001
 20
98.24999999997956
 30
0.0
 40
16.22727272727273
  1
図番
  7
EXCADVERT
 72
     3
 11
1744.700000000001
 21
55.74999999997956
 31
0.0
100
AcDbText
  0
TEXT
  5
128
330
1F
100
AcDbEntity
  8
図枠
  6
CONTINUOUS
 62
     2
100
AcDbText
 10
1358.2
 20
224.4999999999796
 30
0.0
 40
23.86363636363636
  1
設計
  7
EXCADVERT
 72
     3
 11
1358.2
 21
161.9999999999796
 31
0.0
100
AcDbText
  0
LINE
  5
129
330
1F
100
AcDbEntity
  8
図枠
  6
CONTINUOUS
 62
     7
100
AcDbLine
 10
1344.5
 20
234.4999999999794
 30
0.0
 11
2024.5
 21
234.4999999999794
 31
0.0
  0
CIRCLE
  5
12A
330
1F
100
AcDbEntity
  8
図枠
  6
CONTINUOUS
 62
     6
100
AcDbCircle
 10
1395.70065825611
 20
167.7081139146095
 30
0.0
 40
0.5000001
  0
CIRCLE
  5
12B
330
1F
100
AcDbEntity
  8
図枠
  6
CONTINUOUS
 62
     6
100
AcDbCircle
 10
1421.39934174389
 20
167.7081139146095
 30
0.0
 40
0.5000001
  0
LINE
  5
12C
330
1F
100
AcDbEntity
  8
図枠
  6
CONTINUOUS
 62
     6
100
AcDbLine
 10
1472.5
 20
234.4999999999794
 30
0.0
 11
1472.5
 21
151.9999999999796
 31
0.0
  0
CIRCLE
  5
12D
330
1F
100
AcDbEntity
  8
図枠
  6
CONTINUOUS
 62
     6
100
AcDbCircle
 10
1498.70065825611
 20
167.7081139146095
 30
0.0
 40
0.5000001
  0
CIRCLE
  5
12E
330
1F
100
AcDbEntity
  8
図枠
  6
CONTINUOUS
 62
     6
100
AcDbCircle
 10
1524.39934174389
 20
167.7081139146095
 30
0.0
 40
0.5000001
  0
TEXT
  5
12F
330
1F
100
AcDbEntity
  8
図枠
  6
CONTINUOUS
 62
     2
100
AcDbText
 10
1461.2
 20
224.4999999999796
 30
0.0
 40
23.86363636363636
  1
製図
  7
EXCADVERT
 72
     3
 11
1461.2
 21
161.9999999999796
 31
0.0
100
AcDbText
  0
LINE
  5
130
330
1F
100
AcDbEntity
  8
図枠
  6
CONTINUOUS
 62
     6
100
AcDbLine
 10
1447.5
 20
234.4999999999794
 30
0.0
 11
1447.5
 21
151.9999999999796
 31
0.0
  0
LINE
  5
131
330
1F
100
AcDbEntity
  8
図枠
  6
CONTINUOUS
 62
     6
100
AcDbLine
 10
1781.5
 20
234.4999999999794
 30
0.0
 11
1781.5
 21
151.9999999999796
 31
0.0
  0
LINE
  5
132
330
1F
100
AcDbEntity
  8
図枠
  6
CONTINUOUS
 62
     6
100
AcDbLine
 10
1756.5
 20
234.4999999999794
 30
0.0
 11
1756.5
 21
151.9999999999796
 31
0.0
  0
TEXT
  5
133
330
1F
100
AcDbEntity
  8
図枠
  6
CONTINUOUS
 62
     2
100
AcDbText
 10
1770.2
 20
224.4999999999796
 30
0.0
 40
23.86363636363636
  1
承認
  7
EXCADVERT
 72
     3
 11
1770.2
 21
161.9999999999796
 31
0.0
100
AcDbText
  0
LINE
  5
134
330
1F
100
AcDbEntity
  8
図枠
  6
CONTINUOUS
 62
     6
100
AcDbLine
 10
1678.5
 20
234.4999999999794
 30
0.0
 11
1678.5
 21
151.9999999999796
 31
0.0
  0
TEXT
  5
135
330
1F
100
AcDbEntity
  8
図枠
  6
CONTINUOUS
 62
     2
100
AcDbText
 10
1667.2
 20
224.4999999999796
 30
0.0
 40
23.86363636363636
  1
検図
  7
EXCADVERT
 72
     3
 11
1667.2
 21
161.9999999999796
 31
0.0
100
AcDbText
  0
LINE
  5
136
330
1F
100
AcDbEntity
  8
図枠
  6
CONTINUOUS
 62
     6
100
AcDbLine
 10
1575.5
 20
234.4999999999794
 30
0.0
 11
1575.5
 21
151.9999999999796
 31
0.0
  0
CIRCLE
  5
137
330
1F
100
AcDbEntity
  8
図枠
  6
CONTINUOUS
 62
     6
100
AcDbCircle
 10
1601.70065825611
 20
167.7081139146095
 30
0.0
 40
0.5000001
  0
CIRCLE
  5
138
330
1F
100
AcDbEntity
  8
図枠
  6
CONTINUOUS
 62
     6
100
AcDbCircle
 10
1627.39934174389
 20
167.7081139146095
 30
0.0
 40
0.5000001
  0
LINE
  5
139
330
1F
100
AcDbEntity
  8
図枠
  6
CONTINUOUS
 62
     6
100
AcDbLine
 10
1550.5
 20
234.4999999999794
 30
0.0
 11
1550.5
 21
151.9999999999796
 31
0.0
  0
LINE
  5
13A
330
1F
100
AcDbEntity
  8
図枠
  6
CONTINUOUS
 62
     6
100
AcDbLine
 10
1653.5
 20
234.4999999999794
 30
0.0
 11
1653.5
 21
151.9999999999796
 31
0.0
  0
TEXT
  5
13B
330
1F
100
AcDbEntity
  8
図枠
  6
CONTINUOUS
 62
     2
100
AcDbText
 10
1564.2
 20
224.4999999999796
 30
0.0
 40
23.86363636363636
  1
写図
  7
EXCADVERT
 72
     3
 11
1564.2
 21
161.9999999999796
 31
0.0
100
AcDbText
  0
TEXT
  5
13C
330
1F
100
AcDbEntity
  8
図枠
  6
CONTINUOUS
 62
     2
100
AcDbText
 10
1897.15
 20
159.5499999999795
 30
0.0
 40
20.0
  1
５
 41
1.12
  7
EXCADSTD
 72
     5
 11
1913.15
 21
159.5499999999795
 31
0.0
100
AcDbText
  0
TEXT
  5
13D
330
1F
100
AcDbEntity
  8
図枠
  6
CONTINUOUS
 62
     2
100
AcDbText
 10
1843.563685364903
 20
61.62274126131493
 30
0.0
 40
30.0
  1
参考図
 41
1.166666666666667
  7
EXCADSTD
 72
     5
 11
1928.563685364903
 21
61.62274126131493
 31
0.0
100
AcDbText
  0
TEXT
  5
13E
330
1F
100
AcDbEntity
  8
図枠
  6
CONTINUOUS
 62
     2
100
AcDbText
 10
1556.000000268221
 20
111.2999999999796
 30
0.0
 40
30.0
  1
手洗器
 41
1.166666666666667
  7
EXCADSTD
 72
     5
 11
1641.000000268221
 21
111.2999999999796
 31
0.0
100
AcDbText
  0
TEXT
  5
13F
330
1F
100
AcDbEntity
  8
図枠
  6
CONTINUOUS
 62
     6
100
AcDbText
 10
1473.7970581
 20
157.6250365999796
 30
0.0
 40
20.0
  1
'24
 41
0.4859427343750021
  7
EXCADSTD
 72
     5
 11
1496.011583100001
 21
157.6250365999796
 31
0.0
100
AcDbText
  0
TEXT
  5
140
330
1F
100
AcDbEntity
  8
図枠
  6
CONTINUOUS
 62
     6
100
AcDbText
 10
1506.022058070198
 20
157.9250365999793
 30
0.0
 40
20.0
  1
6
 41
0.4516544117647059
  7
EXCADSTD
 72
     5
 11
1513.334558070198
 21
157.9250365999793
 31
0.0
100
AcDbText
  0
TEXT
  5
141
330
1F
100
AcDbEntity
  8
図枠
  6
CONTINUOUS
 62
     2
100
AcDbText
 10
1594.624999880791
 20
190.7499999999794
 30
0.0
 40
25.0
  1
川野
 41
1.073255278289966
  7
EXCADSTD
 72
     5
 11
1636.788600099325
 21
190.7499999999794
 31
0.0
100
AcDbText
  0
TEXT
  5
142
330
1F
100
AcDbEntity
  8
図枠
  6
CONTINUOUS
 62
     6
100
AcDbText
 10
1576.7970581
 20
157.6250365999796
 30
0.0
 40
20.0
  1
'24
 41
0.4859427343750021
  7
EXCADSTD
 72
     5
 11
1599.0115831
 21
157.6250365999796
 31
0.0
100
AcDbText
  0
TEXT
  5
143
330
1F
100
AcDbEntity
  8
図枠
  6
CONTINUOUS
 62
     6
100
AcDbText
 10
1609.022058070197
 20
157.9250365999793
 30
0.0
 40
20.0
  1
8
 41
0.4516544117647059
  7
EXCADSTD
 72
     5
 11
1616.334558070197
 21
157.9250365999793
 31
0.0
100
AcDbText
  0
TEXT
  5
144
330
1F
100
AcDbEntity
  8
図枠
  6
CONTINUOUS
 62
     6
100
AcDbText
 10
1630.777941989407
 20
157.6250365999796
 30
0.0
 40
20.0
  1
29
 41
0.4316666666666654
  7
EXCADSTD
 72
     5
 11
1645.577941989407
 21
157.6250365999796
 31
0.0
100
AcDbText
  0
LINE
  5
145
330
1F
100
AcDbEntity
  8
図枠
  6
CONTINUOUS
 62
     7
100
AcDbLine
 10
2024.49999999998
 20
51.99999999997956
 30
0.0
 11
2024.49999999998
 21
1436.999999999966
 31
0.0
  0
LINE
  5
146
330
1F
100
AcDbEntity
  8
図枠
  6
CONTINUOUS
 62
     7
100
AcDbLine
 10
99.49999999999883
 20
1436.999999999966
 30
0.0
 11
2024.49999999998
 21
1436.999999999966
 31
0.0
  0
LINE
  5
147
330
1F
100
AcDbEntity
  8
図枠
  6
CONTINUOUS
 62
     7
100
AcDbLine
 10
99.49999999999883
 20
51.99999999997956
 30
0.0
 11
99.49999999999883
 21
1436.999999999966
 31
0.0
  0
LINE
  5
148
330
1F
100
AcDbEntity
  8
図枠
  6
CONTINUOUS
 62
     7
100
AcDbLine
 10
30.00000000000119
 20
744.5000000000008
 30
0.0
 11
99.50000000000163
 21
744.5000000000008
 31
0.0
  0
TEXT
  5
149
330
1F
100
AcDbEntity
  8
図枠
  6
CONTINUOUS
 62
     6
100
AcDbText
 10
1527.777941989408
 20
157.6250365999796
 30
0.0
 40
20.0
  1
18
 41
0.4199999999999987
  7
EXCADSTD
 72
     5
 11
1542.577941989407
 21
157.6250365999796
 31
0.0
100
AcDbText
  0
TEXT
  5
14A
330
1F
100
AcDbEntity
  8
図枠
  6
CONTINUOUS
 62
     2
100
AcDbText
 10
1491.624999880791
 20
190.7499999999794
 30
0.0
 40
25.0
  1
川野
 41
1.073255278289966
  7
EXCADSTD
 72
     5
 11
1533.788600099326
 21
190.7499999999794
 31
0.0
100
AcDbText
  0
TEXT
  5
14B
330
1F
100
AcDbEntity
  8
図枠
  6
CONTINUOUS
 62
     2
100
AcDbText
 10
1616.625000357628
 20
180.9499999999794
 30
0.0
 40
15.0
  1
（沙）
 41
1.015686248330509
  7
EXCADSTD
 72
     5
 11
1653.624999403954
 21
180.9499999999794
 31
0.0
100
AcDbText
  0
TEXT
  5
14C
330
1F
100
AcDbEntity
  8
図枠
  6
CONTINUOUS
 62
     2
100
AcDbText
 10
1375.499999999955
 20
127.9999999999798
 30
0.0
 40
20.0
  1
４００×２００
 41
0.9902439024390244
  7
EXCADSTD
 72
     5
 11
1491.499999999955
 21
127.9999999999798
 31
0.0
100
AcDbText
  0
TEXT
  5
14D
330
1F
100
AcDbEntity
  8
図枠
  6
CONTINUOUS
 62
     2
100
AcDbText
 10
1833.563685364903
 20
111.6227412613155
 30
0.0
 40
30.0
  1
Ｌ４０７
 41
1.065217391304348
  7
EXCADSTD
 72
     5
 11
1938.563685364903
 21
111.6227412613155
 31
0.0
100
AcDbText
  0
ARC
  5
14E
330
1F
100
AcDbEntity
  8
承認図
  6
CONTINUOUS
 62
     7
100
AcDbCircle
 10
373.6011061565998
 20
392.1046984901209
 30
0.0
 40
10.0
100
AcDbArc
 50
180.0
 51
270.0
  0
ARC
  5
14F
330
1F
100
AcDbEntity
  8
承認図
  6
CONTINUOUS
 62
     7
100
AcDbCircle
 10
417.1011061565995
 20
392.1046984901209
 30
0.0
 40
10.0
100
AcDbArc
 50
270.0
 51
0.0
  0
ARC
  5
150
330
1F
100
AcDbEntity
  8
承認図
  6
CONTINUOUS
 62
     7
100
AcDbCircle
 10
445.1011061565999
 20
392.1046984901209
 30
0.0
 40
10.0
100
AcDbArc
 50
180.0000000000003
 51
270.0
  0
ARC
  5
151
330
1F
100
AcDbEntity
  8
承認図
  6
CONTINUOUS
 62
     7
100
AcDbCircle
 10
417.1011061565994
 20
511.1046984901186
 30
0.0
 40
10.0
100
AcDbArc
 50
0.0
 51
89.99999999999969
  0
ARC
  5
152
330
1F
100
AcDbEntity
  8
承認図
  6
CONTINUOUS
 62
     7
100
AcDbCircle
 10
445.1011061565991
 20
511.1046984901182
 30
0.0
 40
10.0
100
AcDbArc
 50
89.99999999999969
 51
180.0000000000003
  0
ARC
  5
153
330
1F
100
AcDbEntity
  8
承認図
  6
CONTINUOUS
 62
     7
100
AcDbCircle
 10
707.6011061566
 20
506.1046984901172
 30
0.0
 40
15.0
100
AcDbArc
 50
0.0
 51
90.00000000000044
  0
ARC
  5
154
330
1F
100
AcDbEntity
  8
承認図
  6
CONTINUOUS
 62
     7
100
AcDbCircle
 10
699.6011061566
 20
481.1046984901168
 30
0.0
 40
15.0
100
AcDbArc
 50
0.0
 51
90.00000000000001
  0
ARC
  5
155
330
1F
100
AcDbEntity
  8
承認図
  6
CONTINUOUS
 62
     7
100
AcDbCircle
 10
654.6011061565995
 20
506.1046984901168
 30
0.0
 40
15.0
100
AcDbArc
 50
90.00000000000044
 51
180.0000000000002
  0
ARC
  5
156
330
1F
100
AcDbEntity
  8
承認図
  6
CONTINUOUS
 62
     7
100
AcDbCircle
 10
659.6011061565995
 20
481.1046984901168
 30
0.0
 40
15.0
100
AcDbArc
 50
90.00000000000001
 51
180.0
  0
ARC
  5
157
330
1F
100
AcDbEntity
  8
承認図
  6
CONTINUOUS
 62
     7
100
AcDbCircle
 10
654.6011061565999
 20
397.1046984901227
 30
0.0
 40
15.0
100
AcDbArc
 50
180.0000000000002
 51
270.0
  0
ARC
  5
158
330
1F
100
AcDbEntity
  8
承認図
  6
CONTINUOUS
 62
     7
100
AcDbCircle
 10
707.6011061566002
 20
397.1046984901227
 30
0.0
 40
15.0
100
AcDbArc
 50
270.0
 51
0.0
  0
ARC
  5
159
330
1F
100
AcDbEntity
  8
承認図
  6
CONTINUOUS
 62
     7
100
AcDbCircle
 10
621.6011061566003
 20
392.1046984901222
 30
0.0
 40
10.0
100
AcDbArc
 50
269.9999999999993
 51
0.0
  0
ARC
  5
15A
330
1F
100
AcDbEntity
  8
承認図
  6
CONTINUOUS
 62
     7
100
AcDbCircle
 10
612.6011061566003
 20
392.1046984901222
 30
0.0
 40
10.0
100
AcDbArc
 50
179.9999999999994
 51
269.9999999999993
  0
ARC
  5
15B
330
1F
100
AcDbEntity
  8
承認図
  6
CONTINUOUS
 62
     7
100
AcDbCircle
 10
621.6011061566014
 20
511.1046984901168
 30
0.0
 40
10.0
100
AcDbArc
 50
0.0
 51
89.9999999999987
  0
ARC
  5
15C
330
1F
100
AcDbEntity
  8
承認図
  6
CONTINUOUS
 62
     7
100
AcDbCircle
 10
612.6011061566028
 20
511.1046984901172
 30
0.0
 40
10.0
100
AcDbArc
 50
89.9999999999987
 51
179.9999999999994
  0
ARC
  5
15D
330
1F
100
AcDbEntity
  8
承認図
  6
CONTINUOUS
 62
     7
100
AcDbCircle
 10
584.6011061566006
 20
511.1046984901172
 30
0.0
 40
10.0
100
AcDbArc
 50
0.0
 51
89.99999999999935
  0
ARC
  5
15E
330
1F
100
AcDbEntity
  8
承認図
  6
CONTINUOUS
 62
     7
100
AcDbCircle
 10
584.6011061566
 20
392.1046984901213
 30
0.0
 40
10.0
100
AcDbArc
 50
270.0
 51
0.0
  0
LINE
  5
15F
330
1F
100
AcDbEntity
  8
承認図
  6
CONTINUOUS
 62
     7
100
AcDbLine
 10
417.1011061565995
 20
382.1046984901209
 30
0.0
 11
373.6011061565998
 21
382.1046984901209
 31
0.0
  0
LINE
  5
160
330
1F
100
AcDbEntity
  8
承認図
  6
CONTINUOUS
 62
     7
100
AcDbLine
 10
584.6011061566
 20
382.1046984901213
 30
0.0
 11
445.1011061565999
 21
382.1046984901209
 31
0.0
  0
LINE
  5
161
330
1F
100
AcDbEntity
  8
承認図
  6
CONTINUOUS
 62
     7
100
AcDbLine
 10
722.6011061566
 20
506.1046984901172
 30
0.0
 11
722.6011061566
 21
397.1046984901227
 31
0.0
  0
LINE
  5
162
330
1F
100
AcDbEntity
  8
承認図
  6
CONTINUOUS
 62
     7
100
AcDbLine
 10
707.6011061566
 20
521.1046984901172
 30
0.0
 11
654.6011061565995
 21
521.1046984901168
 31
0.0
  0
LINE
  5
163
330
1F
100
AcDbEntity
  8
承認図
  6
CONTINUOUS
 62
     7
100
AcDbLine
 10
659.6011061565995
 20
496.1046984901168
 30
0.0
 11
699.6011061566
 21
496.1046984901168
 31
0.0
  0
LINE
  5
164
330
1F
100
AcDbEntity
  8
承認図
  6
CONTINUOUS
 62
     7
100
AcDbLine
 10
621.6011061566016
 20
521.1046984901168
 30
0.0
 11
612.601106156603
 21
521.1046984901168
 31
0.0
  0
LINE
  5
165
330
1F
100
AcDbEntity
  8
承認図
  6
CONTINUOUS
 62
     7
100
AcDbLine
 10
584.6011061566006
 20
521.1046984901172
 30
0.0
 11
445.1011061565993
 21
521.1046984901182
 31
0.0
  0
LINE
  5
166
330
1F
100
AcDbEntity
  8
承認図
  6
CONTINUOUS
 62
     7
100
AcDbLine
 10
714.6011061566
 20
481.1046984901168
 30
0.0
 11
714.6011061566
 21
422.10469849011
 31
0.0
  0
ARC
  5
167
330
1F
100
AcDbEntity
  8
承認図
  6
CONTINUOUS
 62
     7
100
AcDbCircle
 10
699.6011061566
 20
422.10469849011
 30
0.0
 40
15.0
100
AcDbArc
 50
270.0
 51
0.0
  0
LINE
  5
168
330
1F
100
AcDbEntity
  8
承認図
  6
CONTINUOUS
 62
     7
100
AcDbLine
 10
644.6011061565995
 20
481.1046984901168
 30
0.0
 11
644.6011061565995
 21
422.10469849011
 31
0.0
  0
LINE
  5
169
330
1F
100
AcDbEntity
  8
承認図
  6
CONTINUOUS
 62
     7
100
AcDbLine
 10
659.6011061565995
 20
407.10469849011
 30
0.0
 11
699.6011061566
 21
407.10469849011
 31
0.0
  0
ARC
  5
16A
330
1F
100
AcDbEntity
  8
承認図
  6
CONTINUOUS
 62
     7
100
AcDbCircle
 10
659.6011061565995
 20
422.10469849011
 30
0.0
 40
15.0
100
AcDbArc
 50
180.0
 51
270.0
  0
CIRCLE
  5
16B
330
1F
100
AcDbEntity
  8
承認図
  6
CONTINUOUS
 62
     7
100
AcDbCircle
 10
547.6011061565996
 20
451.6046984901168
 30
0.0
 40
20.50000000000002
  0
CIRCLE
  5
16C
330
1F
100
AcDbEntity
  8
承認図
  6
CONTINUOUS
 62
     7
100
AcDbCircle
 10
547.6011061565996
 20
451.6046984901168
 30
0.0
 40
30.50000000000002
  0
CIRCLE
  5
16D
330
1F
100
AcDbEntity
  8
承認図
  6
CONTINUOUS
 62
     7
100
AcDbCircle
 10
402.6011061565999
 20
451.60469849012
 30
0.0
 40
7.0
  0
CIRCLE
  5
16E
330
1F
100
AcDbEntity
  8
承認図
  6
CONTINUOUS
 62
     7
100
AcDbCircle
 10
684.6011061565995
 20
451.6046984901168
 30
0.0
 40
13.00000000000001
  0
CIRCLE
  5
16F
330
1F
100
AcDbEntity
  8
承認図
  6
CONTINUOUS
 62
     7
100
AcDbCircle
 10
547.6011061565996
 20
1051.604698490107
 30
0.0
 40
20.50000000000002
  0
CIRCLE
  5
170
330
1F
100
AcDbEntity
  8
承認図
  6
CONTINUOUS
 62
     7
100
AcDbCircle
 10
684.6011061565995
 20
1051.604698490107
 30
0.0
 40
13.00000000000001
  0
LINE
  5
171
330
1F
100
AcDbEntity
  8
承認図
  6
CONTINUOUS
 62
     7
100
AcDbLine
 10
352.6011061566
 20
1151.604698490107
 30
0.0
 11
742.6011061566
 21
1151.604698490107
 31
0.0
  0
ARC
  5
172
330
1F
100
AcDbEntity
  8
承認図
  6
CONTINUOUS
 62
     7
100
AcDbCircle
 10
352.6011061565997
 20
1146.604698490107
 30
0.0
 40
5.0
100
AcDbArc
 50
90.00000000000001
 51
180.0
  0
ARC
  5
173
330
1F
100
AcDbEntity
  8
承認図
  6
CONTINUOUS
 62
     7
100
AcDbCircle
 10
742.6011061565996
 20
1146.604698490107
 30
0.0
 40
5.0
100
AcDbArc
 50
0.0
 51
90.00000000000001
  0
ARC
  5
174
330
1F
100
AcDbEntity
  8
承認図
  6
CONTINUOUS
 62
     7
100
AcDbCircle
 10
382.6011061565996
 20
1116.604698490107
 30
0.0
 40
20.0
100
AcDbArc
 50
90.00000000000001
 51
180.0
  0
LINE
  5
175
330
1F
100
AcDbEntity
  8
承認図
  6
CONTINUOUS
 62
     7
100
AcDbLine
 10
621.1011061565996
 20
1136.604698490107
 30
0.0
 11
382.6011061565996
 21
1136.604698490107
 31
0.0
  0
ARC
  5
176
330
1F
100
AcDbEntity
  8
承認図
  6
CONTINUOUS
 62
     7
100
AcDbCircle
 10
621.1011061565996
 20
1116.604698490107
 30
0.0
 40
20.0
100
AcDbArc
 50
0.0
 51
90.00000000000001
  0
LINE
  5
177
330
1F
100
AcDbEntity
  8
承認図
  6
CONTINUOUS
 62
     7
100
AcDbLine
 10
352.6011061566
 20
951.6046984901072
 30
0.0
 11
742.6011061566
 21
951.6046984901072
 31
0.0
  0
ARC
  5
178
330
1F
100
AcDbEntity
  8
承認図
  6
CONTINUOUS
 62
     7
100
AcDbCircle
 10
352.6011061565996
 20
956.6046984901101
 30
0.0
 40
5.0
100
AcDbArc
 50
180.0
 51
270.0
  0
ARC
  5
179
330
1F
100
AcDbEntity
  8
承認図
  6
CONTINUOUS
 62
     7
100
AcDbCircle
 10
742.6011061565996
 20
956.6046984901101
 30
0.0
 40
5.0
100
AcDbArc
 50
270.0
 51
0.0
  0
ARC
  5
17A
330
1F
100
AcDbEntity
  8
承認図
  6
CONTINUOUS
 62
     7
100
AcDbCircle
 10
382.6011061565996
 20
986.6046984901101
 30
0.0
 40
20.0
100
AcDbArc
 50
180.0
 51
270.0
  0
LINE
  5
17B
330
1F
100
AcDbEntity
  8
承認図
  6
CONTINUOUS
 62
     7
100
AcDbLine
 10
382.6011061565996
 20
966.6046984901101
 30
0.0
 11
621.1011061565996
 21
966.6046984901101
 31
0.0
  0
ARC
  5
17C
330
1F
100
AcDbEntity
  8
承認図
  6
CONTINUOUS
 62
     7
100
AcDbCircle
 10
621.1011061565996
 20
986.6046984901101
 30
0.0
 40
20.0
100
AcDbArc
 50
270.0
 51
0.0
  0
LINE
  5
17D
330
1F
100
AcDbEntity
  8
承認図
  6
CONTINUOUS
 62
     7
100
AcDbLine
 10
347.6011061565997
 20
1146.604698490107
 30
0.0
 11
347.6011061565997
 21
956.6046984901101
 31
0.0
  0
LINE
  5
17E
330
1F
100
AcDbEntity
  8
承認図
  6
CONTINUOUS
 62
     7
100
AcDbLine
 10
362.6011061565996
 20
1116.604698490107
 30
0.0
 11
362.6011061565996
 21
986.6046984901101
 31
0.0
  0
LINE
  5
17F
330
1F
100
AcDbEntity
  8
承認図
  6
CONTINUOUS
 62
     7
100
AcDbLine
 10
747.6011061565996
 20
1146.604698490107
 30
0.0
 11
747.6011061565996
 21
956.6046984901101
 31
0.0
  0
LINE
  5
180
330
1F
100
AcDbEntity
  8
承認図
  6
CONTINUOUS
 62
     7
100
AcDbLine
 10
641.1011061565996
 20
986.6046984901101
 30
0.0
 11
641.1011061565996
 21
1116.604698490107
 31
0.0
  0
ARC
  5
181
330
1F
100
AcDbEntity
  8
承認図
  6
CONTINUOUS
 62
     7
100
AcDbCircle
 10
352.6011061565999
 20
546.6046984901172
 30
0.0
 40
5.0
100
AcDbArc
 50
90.00000000000001
 51
180.0
  0
ARC
  5
182
330
1F
100
AcDbEntity
  8
承認図
  6
CONTINUOUS
 62
     7
100
AcDbCircle
 10
742.601106156599
 20
546.6046984901172
 30
0.0
 40
5.0
100
AcDbArc
 50
0.0
 51
90.00000000000001
  0
ARC
  5
183
330
1F
100
AcDbEntity
  8
承認図
  6
CONTINUOUS
 62
     7
100
AcDbCircle
 10
352.6011061565999
 20
356.6046984901228
 30
0.0
 40
5.0
100
AcDbArc
 50
180.0
 51
270.0
  0
ARC
  5
184
330
1F
100
AcDbEntity
  8
承認図
  6
CONTINUOUS
 62
     7
100
AcDbCircle
 10
742.601106156599
 20
356.6046984901229
 30
0.0
 40
5.0
100
AcDbArc
 50
270.0
 51
0.0
  0
ARC
  5
185
330
1F
100
AcDbEntity
  8
承認図
  6
CONTINUOUS
 62
     7
100
AcDbCircle
 10
739.6011061565991
 20
543.6046984901172
 30
0.0
 40
5.0
100
AcDbArc
 50
0.0
 51
90.00000000000001
  0
ARC
  5
186
330
1F
100
AcDbEntity
  8
承認図
  6
CONTINUOUS
 62
     7
100
AcDbCircle
 10
739.6011061565991
 20
359.6046984901229
 30
0.0
 40
5.0
100
AcDbArc
 50
270.0
 51
0.0
  0
ARC
  5
187
330
1F
100
AcDbEntity
  8
承認図
  6
CONTINUOUS
 62
     7
100
AcDbCircle
 10
355.6011061565999
 20
359.6046984901229
 30
0.0
 40
5.0
100
AcDbArc
 50
180.0
 51
270.0
  0
ARC
  5
188
330
1F
100
AcDbEntity
  8
承認図
  6
CONTINUOUS
 62
     7
100
AcDbCircle
 10
355.6011061565999
 20
543.6046984901172
 30
0.0
 40
5.0
100
AcDbArc
 50
90.00000000000001
 51
180.0
  0
ARC
  5
189
330
1F
100
AcDbEntity
  8
承認図
  6
CONTINUOUS
 62
     7
100
AcDbCircle
 10
363.6011061565998
 20
535.6046984901182
 30
0.0
 40
5.0
100
AcDbArc
 50
89.99999999999935
 51
180.0
  0
CIRCLE
  5
18A
330
1F
100
AcDbEntity
  8
承認図
  6
CONTINUOUS
 62
     7
100
AcDbCircle
 10
367.1011061565998
 20
532.1046984901182
 30
0.0
 40
6.5
  0
ARC
  5
18B
330
1F
100
AcDbEntity
  8
承認図
  6
CONTINUOUS
 62
     7
100
AcDbCircle
 10
731.6011061565994
 20
535.60469849012
 30
0.0
 40
5.0
100
AcDbArc
 50
0.0
 51
90.00000000000001
  0
ARC
  5
18C
330
1F
100
AcDbEntity
  8
承認図
  6
CONTINUOUS
 62
     7
100
AcDbCircle
 10
363.6011061565998
 20
367.6046984901218
 30
0.0
 40
5.0
100
AcDbArc
 50
180.0
 51
270.0000000000007
  0
LINE
  5
18D
330
1F
100
AcDbEntity
  8
承認図
  6
CONTINUOUS
 62
     7
100
AcDbLine
 10
707.6011061566
 20
382.1046984901229
 30
0.0
 11
654.6011061565995
 21
382.1046984901233
 31
0.0
  0
LINE
  5
18E
330
1F
100
AcDbEntity
  8
承認図
  6
CONTINUOUS
 62
     7
100
AcDbLine
 10
621.6011061566016
 20
382.1046984901233
 30
0.0
 11
612.601106156603
 21
382.1046984901233
 31
0.0
  0
LINE
  5
18F
330
1F
100
AcDbEntity
  8
承認図
  6
CONTINUOUS
 62
     7
100
AcDbLine
 10
358.6011061565999
 20
535.6046984901182
 30
0.0
 11
358.6011061565997
 21
367.6046984901218
 31
0.0
  0
ARC
  5
190
330
1F
100
AcDbEntity
  8
承認図
  6
CONTINUOUS
 62
     7
100
AcDbCircle
 10
731.6011061565994
 20
367.6046984901201
 30
0.0
 40
5.0
100
AcDbArc
 50
270.0
 51
0.0
  0
LINE
  5
191
330
1F
100
AcDbEntity
  8
承認図
  6
CONTINUOUS
 62
     7
100
AcDbLine
 10
736.6011061565994
 20
367.6046984901201
 30
0.0
 11
736.6011061565994
 21
535.60469849012
 31
0.0
  0
ARC
  5
192
330
1F
100
AcDbEntity
  8
承認図
  6
CONTINUOUS
 62
     7
100
AcDbCircle
 10
440.1011061565993
 20
535.6046984901186
 30
0.0
 40
5.0
100
AcDbArc
 50
89.99999999999935
 51
180.0
  0
ARC
  5
193
330
1F
100
AcDbEntity
  8
承認図
  6
CONTINUOUS
 62
     7
100
AcDbCircle
 10
589.6011061566007
 20
535.6046984901172
 30
0.0
 40
5.0
100
AcDbArc
 50
0.0
 51
90.00000000000001
  0
ARC
  5
194
330
1F
100
AcDbEntity
  8
承認図
  6
CONTINUOUS
 62
     7
100
AcDbCircle
 10
607.6011061566031
 20
535.6046984901172
 30
0.0
 40
5.0
100
AcDbArc
 50
89.9999999999987
 51
179.9999999999987
  0
ARC
  5
195
330
1F
100
AcDbEntity
  8
承認図
  6
CONTINUOUS
 62
     7
100
AcDbCircle
 10
626.6011061566016
 20
535.6046984901168
 30
0.0
 40
5.0
100
AcDbArc
 50
0.0
 51
89.9999999999987
  0
ARC
  5
196
330
1F
100
AcDbEntity
  8
承認図
  6
CONTINUOUS
 62
     7
100
AcDbCircle
 10
644.6011061565993
 20
535.6046984901168
 30
0.0
 40
5.0
100
AcDbArc
 50
90.00000000000001
 51
180.0
  0
ARC
  5
197
330
1F
100
AcDbEntity
  8
承認図
  6
CONTINUOUS
 62
     7
100
AcDbCircle
 10
422.1011061566007
 20
535.6046984901172
 30
0.0
 40
5.0
100
AcDbArc
 50
0.0
 51
90.00000000000001
  0
LINE
  5
198
330
1F
100
AcDbEntity
  8
承認図
  6
CONTINUOUS
 62
     7
100
AcDbLine
 10
417.1011061565995
 20
521.1046984901186
 30
0.0
 11
363.6011061565998
 21
521.1046984901186
 31
0.0
  0
LINE
  5
199
330
1F
100
AcDbEntity
  8
承認図
  6
CONTINUOUS
 62
     7
100
AcDbLine
 10
363.6011061565998
 20
521.1046984901186
 30
0.0
 11
363.6011061565998
 21
392.1046984901209
 31
0.0
  0
ARC
  5
19A
330
1F
100
AcDbEntity
  8
承認図
  6
CONTINUOUS
 62
     7
100
AcDbCircle
 10
440.1011061565993
 20
367.6046984901215
 30
0.0
 40
5.0
100
AcDbArc
 50
180.0
 51
270.0000000000007
  0
ARC
  5
19B
330
1F
100
AcDbEntity
  8
承認図
  6
CONTINUOUS
 62
     7
100
AcDbCircle
 10
607.6011061566031
 20
367.6046984901228
 30
0.0
 40
5.0
100
AcDbArc
 50
180.0000000000013
 51
270.0000000000014
  0
ARC
  5
19C
330
1F
100
AcDbEntity
  8
承認図
  6
CONTINUOUS
 62
     7
100
AcDbCircle
 10
589.6011061566007
 20
367.6046984901228
 30
0.0
 40
5.0
100
AcDbArc
 50
270.0
 51
0.0
  0
ARC
  5
19D
330
1F
100
AcDbEntity
  8
承認図
  6
CONTINUOUS
 62
     7
100
AcDbCircle
 10
626.6011061566016
 20
367.6046984901233
 30
0.0
 40
5.0
100
AcDbArc
 50
270.0000000000014
 51
0.0
  0
ARC
  5
19E
330
1F
100
AcDbEntity
  8
承認図
  6
CONTINUOUS
 62
     7
100
AcDbCircle
 10
644.6011061565993
 20
367.6046984901233
 30
0.0
 40
5.0
100
AcDbArc
 50
180.0
 51
270.0
  0
LINE
  5
19F
330
1F
100
AcDbEntity
  8
承認図
  6
CONTINUOUS
 62
     7
100
AcDbLine
 10
435.1011061565993
 20
535.6046984901186
 30
0.0
 11
435.1011061565993
 21
367.6046984901215
 31
0.0
  0
LINE
  5
1A0
330
1F
100
AcDbEntity
  8
承認図
  6
CONTINUOUS
 62
     7
100
AcDbLine
 10
602.6011061566002
 20
367.6046984901229
 30
0.0
 11
602.6011061566018
 21
535.6046984901172
 31
0.0
  0
LINE
  5
1A1
330
1F
100
AcDbEntity
  8
承認図
  6
CONTINUOUS
 62
     7
100
AcDbLine
 10
631.6011061566
 20
367.6046984901232
 30
0.0
 11
631.6011061566018
 21
535.6046984901168
 31
0.0
  0
LINE
  5
1A2
330
1F
100
AcDbEntity
  8
承認図
  6
CONTINUOUS
 62
     7
100
AcDbLine
 10
639.6011061566
 20
367.6046984901233
 30
0.0
 11
639.6011061565997
 21
535.6046984901168
 31
0.0
  0
ARC
  5
1A3
330
1F
100
AcDbEntity
  8
承認図
  6
CONTINUOUS
 62
     7
100
AcDbCircle
 10
422.1011061566007
 20
367.6046984901228
 30
0.0
 40
5.0
100
AcDbArc
 50
270.0
 51
0.0
  0
LINE
  5
1A4
330
1F
100
AcDbEntity
  8
承認図
  6
CONTINUOUS
 62
     7
100
AcDbLine
 10
427.1011061565993
 20
535.6046984901172
 30
0.0
 11
427.1011061565993
 21
367.6046984901228
 31
0.0
  0
LINE
  5
1A5
330
1F
100
AcDbEntity
  8
承認図
  6
CONTINUOUS
 62
     7
100
AcDbLine
 10
731.6011061565994
 20
362.6046984901201
 30
0.0
 11
644.6011061565993
 21
362.6046984901201
 31
0.0
  0
LINE
  5
1A6
330
1F
100
AcDbEntity
  8
承認図
  6
CONTINUOUS
 62
     7
100
AcDbLine
 10
626.6011061566016
 20
362.6046984901201
 30
0.0
 11
607.6011061566031
 21
362.6046984901201
 31
0.0
  0
LINE
  5
1A7
330
1F
100
AcDbEntity
  8
承認図
  6
CONTINUOUS
 62
     7
100
AcDbLine
 10
589.6011061566007
 20
362.6046984901201
 30
0.0
 11
440.1011061565993
 21
362.6046984901201
 31
0.0
  0
LINE
  5
1A8
330
1F
100
AcDbEntity
  8
承認図
  6
CONTINUOUS
 62
     7
100
AcDbLine
 10
422.1011061566007
 20
362.6046984901201
 30
0.0
 11
363.6011061565998
 21
362.6046984901201
 31
0.0
  0
LINE
  5
1A9
330
1F
100
AcDbEntity
  8
承認図
  6
CONTINUOUS
 62
     7
100
AcDbLine
 10
422.1011061566007
 20
540.6046984901199
 30
0.0
 11
363.6011061565998
 21
540.6046984901199
 31
0.0
  0
LINE
  5
1AA
330
1F
100
AcDbEntity
  8
承認図
  6
CONTINUOUS
 62
     7
100
AcDbLine
 10
594.6011061566
 20
367.6046984901228
 30
0.0
 11
594.6011061566
 21
535.6046984901172
 31
0.0
  0
LINE
  5
1AB
330
1F
100
AcDbEntity
  8
承認図
  6
CONTINUOUS
 62
     7
100
AcDbLine
 10
589.6011061566007
 20
540.6046984901199
 30
0.0
 11
440.1011061565993
 21
540.6046984901199
 31
0.0
  0
LINE
  5
1AC
330
1F
100
AcDbEntity
  8
承認図
  6
CONTINUOUS
 62
     7
100
AcDbLine
 10
731.6011061565994
 20
540.60469849012
 30
0.0
 11
644.6011061565993
 21
540.6046984901199
 31
0.0
  0
LINE
  5
1AD
330
1F
100
AcDbEntity
  8
承認図
  6
CONTINUOUS
 62
     7
100
AcDbLine
 10
626.6011061566016
 20
540.6046984901199
 30
0.0
 11
607.6011061566031
 21
540.6046984901199
 31
0.0
  0
CIRCLE
  5
1AE
330
1F
100
AcDbEntity
  8
承認図
  6
CONTINUOUS
 62
     7
100
AcDbCircle
 10
547.6011061566
 20
1051.6046984901
 30
0.0
 40
31.5
  0
LINE
  5
1AF
330
1F
100
AcDbEntity
  8
承認図
  6
CONTINUOUS
 62
     7
100
AcDbLine
 10
352.6011061565999
 20
551.60469849012
 30
0.0
 11
742.601106156599
 21
551.60469849012
 31
0.0
  0
LINE
  5
1B0
330
1F
100
AcDbEntity
  8
承認図
  6
CONTINUOUS
 62
     7
100
AcDbLine
 10
739.6011061565991
 20
548.60469849012
 30
0.0
 11
355.6011061565999
 21
548.6046984901199
 31
0.0
  0
LINE
  5
1B1
330
1F
100
AcDbEntity
  8
承認図
  6
CONTINUOUS
 62
     7
100
AcDbLine
 10
744.6011061565995
 20
359.6046984901229
 30
0.0
 11
744.6011061565995
 21
543.6046984901172
 31
0.0
  0
LINE
  5
1B2
330
1F
100
AcDbEntity
  8
承認図
  6
CONTINUOUS
 62
     7
100
AcDbLine
 10
747.6011061565996
 20
546.6046984901172
 30
0.0
 11
747.6011061565996
 21
356.6046984901229
 31
0.0
  0
LINE
  5
1B3
330
1F
100
AcDbEntity
  8
承認図
  6
CONTINUOUS
 62
     7
100
AcDbLine
 10
350.6011061565999
 20
543.6046984901172
 30
0.0
 11
350.6011061565999
 21
359.6046984901229
 31
0.0
  0
LINE
  5
1B4
330
1F
100
AcDbEntity
  8
承認図
  6
CONTINUOUS
 62
     7
100
AcDbLine
 10
355.6011061565999
 20
354.60469849012
 30
0.0
 11
739.6011061565991
 21
354.60469849012
 31
0.0
  0
LINE
  5
1B5
330
1F
100
AcDbEntity
  8
承認図
  6
CONTINUOUS
 62
     7
100
AcDbLine
 10
352.6011061565999
 20
351.6046984901201
 30
0.0
 11
742.601106156599
 21
351.6046984901201
 31
0.0
  0
LINE
  5
1B6
330
1F
100
AcDbEntity
  8
承認図
  6
CONTINUOUS
 62
     7
100
AcDbLine
 10
347.6011061565999
 20
546.6046984901172
 30
0.0
 11
347.6011061565999
 21
356.6046984901228
 31
0.0
  0
LINE
  5
1B7
330
1F
100
AcDbEntity
  8
承認図
  6
CONTINUOUS
 62
     7
100
AcDbLine
 10
1599.1011061566
 20
702.1046984901071
 30
0.0
 11
1660.101106156601
 21
702.1046984901071
 31
0.0
  0
LINE
  5
1B8
330
1F
100
AcDbEntity
  8
承認図
  6
CONTINUOUS
 62
     7
100
AcDbLine
 10
1608.601106156601
 20
692.6046984901059
 30
0.0
 11
1599.1011061566
 21
702.1046984901071
 31
0.0
  0
LINE
  5
1B9
330
1F
100
AcDbEntity
  8
承認図
  6
CONTINUOUS
 62
     7
100
AcDbLine
 10
1608.6011061566
 20
692.6046984901072
 30
0.0
 11
1609.1011061566
 21
684.1046984901072
 31
0.0
  0
LINE
  5
1BA
330
1F
100
AcDbEntity
  8
承認図
  6
CONTINUOUS
 62
     7
100
AcDbLine
 10
1608.6011061566
 20
692.6046984901072
 30
0.0
 11
1650.601106156601
 21
692.6046984901072
 31
0.0
  0
LINE
  5
1BB
330
1F
100
AcDbEntity
  8
承認図
  6
CONTINUOUS
 62
     7
100
AcDbLine
 10
1602.281573340477
 20
684.1046984901072
 30
0.0
 11
1656.920638972722
 21
684.1046984901072
 31
0.0
  0
LINE
  5
1BC
330
1F
100
AcDbEntity
  8
承認図
  6
CONTINUOUS
 62
     7
100
AcDbLine
 10
1593.82704703144
 20
693.2366219915324
 30
0.0
 11
1598.996043786732
 21
688.0676252362404
 31
0.0
  0
ARC
  5
1BD
330
1F
100
AcDbEntity
  8
承認図
  6
CONTINUOUS
 62
     7
100
AcDbCircle
 10
1602.281573340477
 20
686.1046984901068
 30
0.0
 40
2.0
100
AcDbArc
 50
189.9237892741265
 51
270.0000000000002
  0
ARC
  5
1BE
330
1F
100
AcDbEntity
  8
承認図
  6
CONTINUOUS
 62
     7
100
AcDbCircle
 10
1595.4605098808
 20
684.532091330308
 30
0.0
 40
5.0
100
AcDbArc
 50
12.98277789661284
 51
44.99999999999815
  0
LINE
  5
1BF
330
1F
100
AcDbEntity
  8
承認図
  6
CONTINUOUS
 62
     7
100
AcDbLine
 10
747.6011061565996
 20
799.1046984901101
 30
0.0
 11
347.6011061565998
 21
799.1046984901101
 31
0.0
  0
ARC
  5
1C0
330
1F
100
AcDbEntity
  8
承認図
  6
CONTINUOUS
 62
     7
100
AcDbCircle
 10
420.3809529021448
 20
684.1046984901095
 30
0.0
 40
5.0
100
AcDbArc
 50
16.69924423399299
 51
90.00000000000001
  0
ARC
  5
1C1
330
1F
100
AcDbEntity
  8
承認図
  6
CONTINUOUS
 62
     7
100
AcDbCircle
 10
425.0130448548177
 20
679.1046984901099
 30
0.0
 40
2.0
100
AcDbArc
 50
16.69924423398955
 51
90.00000000000001
  0
ARC
  5
1C2
330
1F
100
AcDbEntity
  8
承認図
  6
CONTINUOUS
 62
     7
100
AcDbCircle
 10
437.2517170586871
 20
679.1046984901099
 30
0.0
 40
2.0
100
AcDbArc
 50
90.00000000000001
 51
158.4298766429912
  0
ARC
  5
1C3
330
1F
100
AcDbEntity
  8
承認図
  6
CONTINUOUS
 62
     7
100
AcDbCircle
 10
608.7001256701924
 20
684.1046984901099
 30
0.0
 40
5.0
100
AcDbArc
 50
90.00000000000001
 51
168.6900675259795
  0
ARC
  5
1C4
330
1F
100
AcDbEntity
  8
承認図
  6
CONTINUOUS
 62
     7
100
AcDbCircle
 10
625.5020866430073
 20
684.1046984901099
 30
0.0
 40
5.0
100
AcDbArc
 50
11.30993247402149
 51
90.00000000000001
  0
ARC
  5
1C5
330
1F
100
AcDbEntity
  8
承認図
  6
CONTINUOUS
 62
     7
100
AcDbCircle
 10
592.576853283219
 20
679.1046984901099
 30
0.0
 40
2.0
100
AcDbArc
 50
8.878128273819446
 51
90.00000000000001
  0
ARC
  5
1C6
330
1F
100
AcDbEntity
  8
承認図
  6
CONTINUOUS
 62
     7
100
AcDbCircle
 10
604.6407139620367
 20
679.1046984901099
 30
0.0
 40
2.0
100
AcDbArc
 50
90.00000000000001
 51
168.6900675259817
  0
ARC
  5
1C7
330
1F
100
AcDbEntity
  8
承認図
  6
CONTINUOUS
 62
     7
100
AcDbCircle
 10
629.561498351163
 20
679.1046984901099
 30
0.0
 40
2.0
100
AcDbArc
 50
11.30993247402023
 51
90.00000000000001
  0
ARC
  5
1C8
330
1F
100
AcDbEntity
  8
承認図
  6
CONTINUOUS
 62
     7
100
AcDbCircle
 10
641.6093536142714
 20
679.1046984901099
 30
0.0
 40
2.0
100
AcDbArc
 50
90.00000000000001
 51
174.8055710922679
  0
ARC
  5
1C9
330
1F
100
AcDbEntity
  8
承認図
  6
CONTINUOUS
 62
     7
100
AcDbCircle
 10
654.1671793462209
 20
784.1046984901101
 30
0.0
 40
5.0
100
AcDbArc
 50
90.00000000000001
 51
174.8055710922729
  0
ARC
  5
1CA
330
1F
100
AcDbEntity
  8
承認図
  6
CONTINUOUS
 62
     7
100
AcDbCircle
 10
709.9851316750062
 20
784.1046984901101
 30
0.0
 40
5.0
100
AcDbArc
 50
4.57392125989964
 51
90.00000000000001
  0
ARC
  5
1CB
330
1F
100
AcDbEntity
  8
承認図
  6
CONTINUOUS
 62
     7
100
AcDbCircle
 10
729.9866653271499
 20
697.10469849011
 30
0.0
 40
8.0
100
AcDbArc
 50
184.5739212599014
 51
270.0
  0
LINE
  5
1CC
330
1F
100
AcDbEntity
  8
承認図
  6
CONTINUOUS
 62
     7
100
AcDbLine
 10
425.1700843282507
 20
685.5414379179414
 30
0.0
 11
427.1011061566001
 21
679.1046984901099
 31
0.0
  0
LINE
  5
1CD
330
1F
100
AcDbEntity
  8
承認図
  6
CONTINUOUS
 62
     7
100
AcDbLine
 10
437.2517170586873
 20
681.10469849011
 30
0.0
 11
592.576853283219
 21
681.10469849011
 31
0.0
  0
LINE
  5
1CE
330
1F
100
AcDbEntity
  8
承認図
  6
CONTINUOUS
 62
     7
100
AcDbLine
 10
603.7972222917376
 20
685.0852791658011
 30
0.0
 11
602.6011061565996
 21
679.1046984901099
 31
0.0
  0
LINE
  5
1CF
330
1F
100
AcDbEntity
  8
承認図
  6
CONTINUOUS
 62
     7
100
AcDbLine
 10
608.7001256701924
 20
689.1046984901099
 30
0.0
 11
625.5020866430073
 21
689.1046984901099
 31
0.0
  0
LINE
  5
1D0
330
1F
100
AcDbEntity
  8
承認図
  6
CONTINUOUS
 62
     7
100
AcDbLine
 10
630.404990021462
 20
685.0852791658011
 30
0.0
 11
631.6011061566
 21
679.1046984901099
 31
0.0
  0
LINE
  5
1D1
330
1F
100
AcDbEntity
  8
承認図
  6
CONTINUOUS
 62
     7
100
AcDbLine
 10
604.6407139620367
 20
681.10469849011
 30
0.0
 11
629.561498351163
 21
681.10469849011
 31
0.0
  0
LINE
  5
1D2
330
1F
100
AcDbEntity
  8
承認図
  6
CONTINUOUS
 62
     7
100
AcDbLine
 10
649.1877133138823
 20
784.5573772203221
 30
0.0
 11
639.6011061566
 21
679.1046984901
 31
0.0
  0
LINE
  5
1D3
330
1F
100
AcDbEntity
  8
承認図
  6
CONTINUOUS
 62
     7
100
AcDbLine
 10
654.1671793462208
 20
789.1046984901101
 30
0.0
 11
709.9851316750062
 21
789.1046984901101
 31
0.0
  0
LINE
  5
1D4
330
1F
100
AcDbEntity
  8
承認図
  6
CONTINUOUS
 62
     7
100
AcDbLine
 10
722.6011061566
 20
689.1046984901099
 30
0.0
 11
714.9692080676871
 21
784.5034246015243
 31
0.0
  0
ARC
  5
1D5
330
1F
100
AcDbEntity
  8
承認図
  6
CONTINUOUS
 62
     7
100
AcDbCircle
 10
352.7440519120269
 20
794.1046984901104
 30
0.0
 40
5.0
100
AcDbArc
 50
90.00000000000001
 51
181.7133150476285
  0
ARC
  5
1D6
330
1F
100
AcDbEntity
  8
承認図
  6
CONTINUOUS
 62
     7
100
AcDbCircle
 10
742.4874413695787
 20
794.1046984901091
 30
0.0
 40
5.0
100
AcDbArc
 50
358.6632971505119
 51
90.00000000000001
  0
LINE
  5
1D7
330
1F
100
AcDbEntity
  8
承認図
  6
CONTINUOUS
 62
     7
100
AcDbLine
 10
990.9999999999989
 20
799.1046984901101
 30
0.0
 11
990.9999999999989
 21
789.0967016875602
 31
0.0
  0
ARC
  5
1D8
330
1F
100
AcDbEntity
  8
承認図
  6
CONTINUOUS
 62
     7
100
AcDbCircle
 10
963.4038063107162
 20
784.0967016875602
 30
0.0
 40
5.0
100
AcDbArc
 50
90.00000000000001
 51
165.9626783731977
  0
ARC
  5
1D9
330
1F
100
AcDbEntity
  8
承認図
  6
CONTINUOUS
 62
     7
100
AcDbCircle
 10
928.2539099028538
 20
697.1046984901
 30
0.0
 40
8.0
100
AcDbArc
 50
270.0
 51
345.9626783731973
  0
LINE
  5
1DA
330
1F
100
AcDbEntity
  8
承認図
  6
CONTINUOUS
 62
     7
100
AcDbLine
 10
958.5531166303247
 20
785.3094710904325
 30
0.0
 11
934.4999999999999
 21
689.1046984901
 31
0.0
  0
LINE
  5
1DB
330
1F
100
AcDbEntity
  8
承認図
  6
CONTINUOUS
 62
     7
100
AcDbLine
 10
963.4038063107162
 20
789.0967016875602
 30
0.0
 11
1044.596193689283
 21
789.0967016875602
 31
0.0
  0
ARC
  5
1DC
330
1F
100
AcDbEntity
  8
承認図
  6
CONTINUOUS
 62
     7
100
AcDbCircle
 10
1583.992889912658
 20
727.431809042268
 30
0.0
 40
20.0
100
AcDbArc
 50
192.8704319078316
 51
253.5180582652444
  0
LINE
  5
1DD
330
1F
100
AcDbEntity
  8
承認図
  6
CONTINUOUS
 62
     7
100
AcDbLine
 10
1593.827047031441
 20
693.2366219915316
 30
0.0
 11
1575.481495908989
 21
698.6645329787552
 31
0.0
  0
ARC
  5
1DE
330
1F
100
AcDbEntity
  8
承認図
  6
CONTINUOUS
 62
     7
100
AcDbCircle
 10
1583.992889912658
 20
727.431809042268
 30
0.0
 40
30.0
100
AcDbArc
 50
230.9700805602913
 51
253.5180582652444
  0
ARC
  5
1DF
330
1F
100
AcDbEntity
  8
承認図
  6
CONTINUOUS
 62
     7
100
AcDbCircle
 10
1568.466520210612
 20
696.0641211473117
 30
0.0
 40
5.0
100
AcDbArc
 50
63.66552279957136
 51
167.7468987406959
  0
ARC
  5
1E0
330
1F
100
AcDbEntity
  8
承認図
  6
CONTINUOUS
 62
     7
100
AcDbCircle
 10
1556.070438858796
 20
686.1046984901103
 30
0.0
 40
5.0
100
AcDbArc
 50
270.0
 51
347.7468987406962
  0
LINE
  5
1E1
330
1F
100
AcDbEntity
  8
承認図
  6
CONTINUOUS
 62
     7
100
AcDbLine
 10
1565.1011061566
 20
704.1272921729101
 30
0.0
 11
1560.956536961051
 21
685.0435456570339
 31
0.0
  0
ARC
  5
1E2
330
1F
100
AcDbEntity
  8
承認図
  6
CONTINUOUS
 62
     7
100
AcDbCircle
 10
360.042360006601
 20
794.1046984901101
 30
0.0
 40
5.0
100
AcDbArc
 50
35.79787716751188
 51
90.00000000000001
  0
ARC
  5
1E3
330
1F
100
AcDbEntity
  8
承認図
  6
CONTINUOUS
 62
     7
100
AcDbCircle
 10
645.9532553107415
 20
791.10469849011
 30
0.0
 40
8.0
100
AcDbArc
 50
90.00000000000001
 51
152.4751850307588
  0
ARC
  5
1E4
330
1F
100
AcDbEntity
  8
承認図
  6
CONTINUOUS
 62
     7
100
AcDbCircle
 10
520.2815733404777
 20
686.1046984901095
 30
0.0
 40
2.0
100
AcDbArc
 50
192.9827778966126
 51
270.0000000000002
  0
ARC
  5
1E5
330
1F
100
AcDbEntity
  8
承認図
  6
CONTINUOUS
 62
     7
100
AcDbCircle
 10
513.4605098807997
 20
684.5320913303108
 30
0.0
 40
5.0
100
AcDbArc
 50
12.98277789661123
 51
44.99999999999632
  0
LINE
  5
1E6
330
1F
100
AcDbEntity
  8
承認図
  6
CONTINUOUS
 62
     7
100
AcDbLine
 10
512.2595374618877
 20
692.8041315610881
 30
0.0
 11
516.9960437867339
 21
688.0676252362437
 31
0.0
  0
LINE
  5
1E7
330
1F
100
AcDbEntity
  8
承認図
  6
CONTINUOUS
 62
     7
100
AcDbLine
 10
520.2815733404796
 20
684.1046984901099
 30
0.0
 11
574.9206389727196
 21
684.1046984901095
 31
0.0
  0
ARC
  5
1E8
330
1F
100
AcDbEntity
  8
承認図
  6
CONTINUOUS
 62
     7
100
AcDbCircle
 10
574.9206389727224
 20
686.1046984901095
 30
0.0
 40
2.0
100
AcDbArc
 50
270.0000000000002
 51
350.0762107258795
  0
ARC
  5
1E9
330
1F
100
AcDbEntity
  8
承認図
  6
CONTINUOUS
 62
     7
100
AcDbCircle
 10
581.7417024324004
 20
684.5320913303108
 30
0.0
 40
5.0
100
AcDbArc
 50
135.0000000000037
 51
167.0172221033887
  0
LINE
  5
1EA
330
1F
100
AcDbEntity
  8
承認図
  6
CONTINUOUS
 62
     7
100
AcDbLine
 10
583.8688562814395
 20
693.7303129912156
 30
0.0
 11
578.2061685264671
 21
688.0676252362432
 31
0.0
  0
LINE
  5
1EB
330
1F
100
AcDbEntity
  8
承認図
  6
CONTINUOUS
 62
     7
100
AcDbLine
 10
671.6011061565991
 20
799.1126952926602
 30
0.0
 11
671.6011061565991
 21
789.1046984901101
 31
0.0
  0
LINE
  5
1EC
330
1F
100
AcDbEntity
  8
承認図
  6
CONTINUOUS
 62
     7
100
AcDbLine
 10
697.6011061566
 20
799.1126952926602
 30
0.0
 11
697.6011061566
 21
789.1046984901101
 31
0.0
  0
ARC
  5
1ED
330
1F
100
AcDbEntity
  8
承認図
  6
CONTINUOUS
 62
     7
100
AcDbCircle
 10
587.8185591920108
 20
690.1281454965929
 30
0.0
 40
5.0
100
AcDbArc
 50
8.878128273818643
 51
117.2685764936693
  0
ARC
  5
1EE
330
1F
100
AcDbEntity
  8
承認図
  6
CONTINUOUS
 62
     7
100
AcDbCircle
 10
558.038020803546
 20
747.9046072547621
 30
0.0
 40
60.0
100
AcDbArc
 50
295.539173409499
 51
297.2685764936693
  0
LINE
  5
1EF
330
1F
100
AcDbEntity
  8
承認図
  6
CONTINUOUS
 62
     7
100
AcDbLine
 10
592.7586534517261
 20
690.8998116842208
 30
0.0
 11
594.6011061565996
 21
679.1046984901099
 31
0.0
  0
ARC
  5
1F0
330
1F
100
AcDbEntity
  8
承認図
  6
CONTINUOUS
 62
     7
100
AcDbCircle
 10
466.1215604065183
 20
792.3278968209775
 30
0.0
 40
80.0
100
AcDbArc
 50
215.7978771675113
 51
259.999999999998
  0
ARC
  5
1F1
330
1F
100
AcDbEntity
  8
承認図
  6
CONTINUOUS
 62
     7
100
AcDbCircle
 10
466.1215604065183
 20
792.3278968209775
 30
0.0
 40
90.0
100
AcDbArc
 50
256.4932095824664
 51
259.9999999999997
  0
LINE
  5
1F2
330
1F
100
AcDbEntity
  8
承認図
  6
CONTINUOUS
 62
     7
100
AcDbLine
 10
512.2595374618895
 20
692.8041315610861
 30
0.0
 11
450.4932244164934
 21
703.6951990498751
 31
0.0
  0
LINE
  5
1F3
330
1F
100
AcDbEntity
  8
承認図
  6
CONTINUOUS
 62
     7
100
AcDbLine
 10
445.1011061566001
 20
704.8170946127497
 30
0.0
 11
435.1011061566001
 21
679.1046984901099
 31
0.0
  0
ARC
  5
1F4
330
1F
100
AcDbEntity
  8
承認図
  6
CONTINUOUS
 62
     7
100
AcDbCircle
 10
451.3974008759849
 20
693.4178410828504
 30
0.0
 40
10.0
100
AcDbArc
 50
81.53289336162133
 51
158.7480721458611
  0
LINE
  5
1F5
330
1F
100
AcDbEntity
  8
承認図
  6
CONTINUOUS
 62
     7
100
AcDbLine
 10
350.6011061566001
 20
679.1046984901099
 30
0.0
 11
347.6011061566
 21
799.1046984901101
 31
0.0
  0
LINE
  5
1F6
330
1F
100
AcDbEntity
  8
承認図
  6
CONTINUOUS
 62
     7
100
AcDbLine
 10
747.6011061566
 20
799.1046984901101
 30
0.0
 11
744.6011061566
 21
679.1046984901099
 31
0.0
  0
LINE
  5
1F7
330
1F
100
AcDbEntity
  8
承認図
  6
CONTINUOUS
 62
     7
100
AcDbLine
 10
350.6011061566001
 20
679.1046984901099
 30
0.0
 11
744.6011061566
 21
679.1046984901099
 31
0.0
  0
ARC
  5
1F8
330
1F
100
AcDbEntity
  8
承認図
  6
CONTINUOUS
 62
     7
100
AcDbCircle
 10
364.1260439671602
 20
684.1046984901095
 30
0.0
 40
5.0
100
AcDbArc
 50
90.00000000000001
 51
174.2894068624993
  0
ARC
  5
1F9
330
1F
100
AcDbEntity
  8
承認図
  6
CONTINUOUS
 62
     7
100
AcDbCircle
 10
360.611081280824
 20
679.1046984901099
 30
0.0
 40
2.0
100
AcDbArc
 50
90.00000000000001
 51
174.2894068625007
  0
LINE
  5
1FA
330
1F
100
AcDbEntity
  8
承認図
  6
CONTINUOUS
 62
     7
100
AcDbLine
 10
359.1508580161105
 20
684.6022170852143
 30
0.0
 11
358.6011061565998
 21
679.1046984901099
 31
0.0
  0
LINE
  5
1FB
330
1F
100
AcDbEntity
  8
承認図
  6
CONTINUOUS
 62
     7
100
AcDbLine
 10
364.1260439671602
 20
689.1046984901095
 30
0.0
 11
420.3809529021448
 21
689.1046984901095
 31
0.0
  0
LINE
  5
1FC
330
1F
100
AcDbEntity
  8
承認図
  6
CONTINUOUS
 62
     7
100
AcDbLine
 10
360.6110812808199
 20
681.10469849011
 30
0.0
 11
425.0130448548177
 21
681.10469849011
 31
0.0
  0
LINE
  5
1FD
330
1F
100
AcDbEntity
  8
承認図
  6
CONTINUOUS
 62
     7
100
AcDbLine
 10
735.6011061566
 20
689.1046984901099
 30
0.0
 11
736.6011061565999
 21
679.1046984901099
 31
0.0
  0
ARC
  5
1FE
330
1F
100
AcDbEntity
  8
承認図
  6
CONTINUOUS
 62
     7
100
AcDbCircle
 10
731.0761683460396
 20
684.1046984901099
 30
0.0
 40
5.0
100
AcDbArc
 50
5.710593137499412
 51
90.00000000000001
  0
ARC
  5
1FF
330
1F
100
AcDbEntity
  8
承認図
  6
CONTINUOUS
 62
     7
100
AcDbCircle
 10
734.5911310323758
 20
679.1046984901099
 30
0.0
 40
2.0
100
AcDbArc
 50
5.710593137505485
 51
90.00000000000001
  0
LINE
  5
200
330
1F
100
AcDbEntity
  8
承認図
  6
CONTINUOUS
 62
     7
100
AcDbLine
 10
641.6093536142714
 20
681.10469849011
 30
0.0
 11
734.5911310323758
 21
681.10469849011
 31
0.0
  0
LINE
  5
201
330
1F
100
AcDbEntity
  8
承認図
  6
CONTINUOUS
 62
     7
100
AcDbLine
 10
735.6011061566
 20
689.1046984901099
 30
0.0
 11
722.6011061566041
 21
689.1046984901099
 31
0.0
  0
LINE
  5
202
330
1F
100
AcDbEntity
  8
承認図
  6
CONTINUOUS
 62
     7
100
AcDbLine
 10
409.6011061565996
 20
689.1046984901095
 30
0.0
 11
409.6011061565996
 21
697.1046984901094
 31
0.0
  0
LINE
  5
203
330
1F
100
AcDbEntity
  8
承認図
  6
CONTINUOUS
 62
     7
100
AcDbLine
 10
395.6011061565997
 20
697.1046984901094
 30
0.0
 11
395.6011061565997
 21
689.1046984901095
 31
0.0
  0
ARC
  5
204
330
1F
100
AcDbEntity
  8
承認図
  6
CONTINUOUS
 62
     7
100
AcDbCircle
 10
1545.091180537024
 20
678.90569105207
 30
0.0
 40
2.0
100
AcDbArc
 50
90.00000000000001
 51
174.2894068625007
  0
LINE
  5
205
330
1F
100
AcDbEntity
  8
承認図
  6
CONTINUOUS
 62
     7
100
AcDbLine
 10
1543.101106156604
 20
679.1046984901119
 30
0.0
 11
1543.0812054128
 21
678.90569105207
 31
0.0
  0
LINE
  5
206
330
1F
100
AcDbEntity
  8
承認図
  6
CONTINUOUS
 62
     7
100
AcDbLine
 10
1556.070438858796
 20
681.1046984901103
 30
0.0
 11
1545.091180537
 21
681.1046984901103
 31
0.0
  0
ARC
  5
207
330
1F
100
AcDbEntity
  8
承認図
  6
CONTINUOUS
 62
     7
100
AcDbCircle
 10
909.1429457554267
 20
794.1046984901104
 30
0.0
 40
5.0
100
AcDbArc
 50
90.00000000000001
 51
181.713315047628
  0
LINE
  5
208
330
1F
100
AcDbEntity
  8
承認図
  6
CONTINUOUS
 62
     7
100
AcDbLine
 10
917.9999999999998
 20
689.1046984901
 30
0.0
 11
914.9999999999998
 21
679.1046984901
 31
0.0
  0
ARC
  5
209
330
1F
100
AcDbEntity
  8
承認図
  6
CONTINUOUS
 62
     7
100
AcDbCircle
 10
921.7201532544552
 20
684.1046984901
 30
0.0
 40
5.0
100
AcDbArc
 50
90.00000000000001
 51
163.3007557660061
  0
LINE
  5
20A
330
1F
100
AcDbEntity
  8
承認図
  6
CONTINUOUS
 62
     7
100
AcDbLine
 10
917.9999999999998
 20
689.1046984901
 30
0.0
 11
934.4999999999987
 21
689.1046984901
 31
0.0
  0
LINE
  5
20B
330
1F
100
AcDbEntity
  8
承認図
  6
CONTINUOUS
 62
     7
100
AcDbLine
 10
1017.000000000001
 20
799.1046984901101
 30
0.0
 11
1017.000000000001
 21
789.0967016875602
 31
0.0
  0
ARC
  5
20C
330
1F
100
AcDbEntity
  8
承認図
  6
CONTINUOUS
 62
     7
100
AcDbCircle
 10
1044.596193689284
 20
784.0967016875602
 30
0.0
 40
5.0
100
AcDbArc
 50
14.03732162680231
 51
90.00000000000001
  0
ARC
  5
20D
330
1F
100
AcDbEntity
  8
承認図
  6
CONTINUOUS
 62
     7
100
AcDbCircle
 10
1079.746090097146
 20
697.1046984901
 30
0.0
 40
8.0
100
AcDbArc
 50
194.0373216268027
 51
270.0
  0
LINE
  5
20E
330
1F
100
AcDbEntity
  8
承認図
  6
CONTINUOUS
 62
     7
100
AcDbLine
 10
1049.446883369675
 20
785.3094710904325
 30
0.0
 11
1073.5
 21
689.1046984901
 31
0.0
  0
ARC
  5
20F
330
1F
100
AcDbEntity
  8
承認図
  6
CONTINUOUS
 62
     7
100
AcDbCircle
 10
1098.857054244573
 20
794.1046984901104
 30
0.0
 40
5.0
100
AcDbArc
 50
358.286684952372
 51
90.00000000000001
  0
LINE
  5
210
330
1F
100
AcDbEntity
  8
承認図
  6
CONTINUOUS
 62
     7
100
AcDbLine
 10
1090.0
 20
689.1046984901
 30
0.0
 11
1093.0
 21
679.1046984901
 31
0.0
  0
ARC
  5
211
330
1F
100
AcDbEntity
  8
承認図
  6
CONTINUOUS
 62
     7
100
AcDbCircle
 10
1086.279846745545
 20
684.1046984901
 30
0.0
 40
5.0
100
AcDbArc
 50
16.69924423399384
 51
90.00000000000001
  0
LINE
  5
212
330
1F
100
AcDbEntity
  8
承認図
  6
CONTINUOUS
 62
     7
100
AcDbLine
 10
1090.0
 20
689.1046984901
 30
0.0
 11
1073.500000000001
 21
689.1046984901
 31
0.0
  0
LINE
  5
213
330
1F
100
AcDbEntity
  8
承認図
  6
CONTINUOUS
 62
     7
100
AcDbLine
 10
1104.0
 20
799.1046984901101
 30
0.0
 11
904.0
 21
799.1046984901101
 31
0.0
  0
LINE
  5
214
330
1F
100
AcDbEntity
  8
承認図
  6
CONTINUOUS
 62
     7
100
AcDbLine
 10
907.0
 20
679.1046984901
 30
0.0
 11
1101.0
 21
679.1046984901
 31
0.0
  0
ARC
  5
215
330
1F
100
AcDbEntity
  8
承認図
  6
CONTINUOUS
 62
     7
100
AcDbCircle
 10
1388.357054244573
 20
794.1046984901104
 30
0.0
 40
5.0
100
AcDbArc
 50
358.286684952372
 51
90.00000000000001
  0
ARC
  5
216
330
1F
100
AcDbEntity
  8
承認図
  6
CONTINUOUS
 62
     7
100
AcDbCircle
 10
1198.642945755426
 20
794.1046984901104
 30
0.0
 40
5.0
100
AcDbArc
 50
90.00000000000001
 51
181.713315047628
  0
ARC
  5
217
330
1F
100
AcDbEntity
  8
承認図
  6
CONTINUOUS
 62
     7
100
AcDbCircle
 10
1534.744051912027
 20
794.1046984901204
 30
0.0
 40
5.0
100
AcDbArc
 50
90.00000000000001
 51
181.713315047628
  0
LINE
  5
218
330
1F
100
AcDbEntity
  8
承認図
  6
CONTINUOUS
 62
     7
100
AcDbLine
 10
1532.6011061566
 20
679.1046984901099
 30
0.0
 11
1726.6011061566
 21
679.1046984901099
 31
0.0
  0
LINE
  5
219
330
1F
100
AcDbEntity
  8
承認図
  6
CONTINUOUS
 62
     7
100
AcDbLine
 10
1729.6011061566
 20
799.10469849012
 30
0.0
 11
1529.6011061566
 21
799.10469849012
 31
0.0
  0
LINE
  5
21A
330
1F
100
AcDbEntity
  8
承認図
  6
CONTINUOUS
 62
     7
100
AcDbLine
 10
1650.6011061566
 20
692.6046984901059
 30
0.0
 11
1660.101106156601
 21
702.1046984901071
 31
0.0
  0
LINE
  5
21B
330
1F
100
AcDbEntity
  8
承認図
  6
CONTINUOUS
 62
     7
100
AcDbLine
 10
1650.601106156602
 20
692.6046984901072
 30
0.0
 11
1650.101106156601
 21
684.1046984901072
 31
0.0
  0
LINE
  5
21C
330
1F
100
AcDbEntity
  8
承認図
  6
CONTINUOUS
 62
     7
100
AcDbLine
 10
1665.375165281761
 20
693.2366219915324
 30
0.0
 11
1660.206168526469
 21
688.0676252362404
 31
0.0
  0
ARC
  5
21D
330
1F
100
AcDbEntity
  8
承認図
  6
CONTINUOUS
 62
     7
100
AcDbCircle
 10
1656.920638972724
 20
686.1046984901068
 30
0.0
 40
2.0
100
AcDbArc
 50
270.0
 51
350.0762107258723
  0
ARC
  5
21E
330
1F
100
AcDbEntity
  8
承認図
  6
CONTINUOUS
 62
     7
100
AcDbCircle
 10
1663.741702432401
 20
684.532091330308
 30
0.0
 40
5.0
100
AcDbArc
 50
135.0000000000019
 51
167.0172221033872
  0
ARC
  5
21F
330
1F
100
AcDbEntity
  8
承認図
  6
CONTINUOUS
 62
     7
100
AcDbCircle
 10
1675.209322400543
 20
727.431809042268
 30
0.0
 40
20.0
100
AcDbArc
 50
286.4819417347555
 51
347.1295680921685
  0
LINE
  5
220
330
1F
100
AcDbEntity
  8
承認図
  6
CONTINUOUS
 62
     7
100
AcDbLine
 10
1665.37516528176
 20
693.2366219915316
 30
0.0
 11
1683.720716404213
 21
698.6645329787552
 31
0.0
  0
ARC
  5
221
330
1F
100
AcDbEntity
  8
承認図
  6
CONTINUOUS
 62
     7
100
AcDbCircle
 10
1675.209322400543
 20
727.431809042268
 30
0.0
 40
30.0
100
AcDbArc
 50
286.4819417347557
 51
309.0299194397086
  0
LINE
  5
222
330
1F
100
AcDbEntity
  8
承認図
  6
CONTINUOUS
 62
     7
100
AcDbLine
 10
1680.883585069656
 20
708.2536249999271
 30
0.0
 11
1660.101106156601
 21
702.1046984901168
 31
0.0
  0
ARC
  5
223
330
1F
100
AcDbEntity
  8
承認図
  6
CONTINUOUS
 62
     7
100
AcDbCircle
 10
1690.735692102589
 20
696.0641211473117
 30
0.0
 40
5.0
100
AcDbArc
 50
12.25310125930393
 51
116.3344772004286
  0
ARC
  5
224
330
1F
100
AcDbEntity
  8
承認図
  6
CONTINUOUS
 62
     7
100
AcDbCircle
 10
1703.131773454405
 20
686.1046984901103
 30
0.0
 40
5.0
100
AcDbArc
 50
192.253101259304
 51
270.0
  0
LINE
  5
225
330
1F
100
AcDbEntity
  8
承認図
  6
CONTINUOUS
 62
     7
100
AcDbLine
 10
1694.101106156601
 20
704.1272921729101
 30
0.0
 11
1698.24567535215
 21
685.0435456570339
 31
0.0
  0
ARC
  5
226
330
1F
100
AcDbEntity
  8
承認図
  6
CONTINUOUS
 62
     7
100
AcDbCircle
 10
1714.111031776177
 20
678.90569105207
 30
0.0
 40
2.0
100
AcDbArc
 50
5.710593137500272
 51
90.00000000000001
  0
LINE
  5
227
330
1F
100
AcDbEntity
  8
承認図
  6
CONTINUOUS
 62
     7
100
AcDbLine
 10
1716.101106156597
 20
679.1046984901119
 30
0.0
 11
1716.121006900401
 21
678.90569105207
 31
0.0
  0
LINE
  5
228
330
1F
100
AcDbEntity
  8
承認図
  6
CONTINUOUS
 62
     7
100
AcDbLine
 10
1703.131773454405
 20
681.1046984901103
 30
0.0
 11
1714.111031776201
 21
681.1046984901103
 31
0.0
  0
ARC
  5
229
330
1F
100
AcDbEntity
  8
承認図
  6
CONTINUOUS
 62
     7
100
AcDbCircle
 10
1724.458160401174
 20
794.1046984901204
 30
0.0
 40
5.0
100
AcDbArc
 50
358.286684952372
 51
90.00000000000001
  0
LINE
  5
22A
330
1F
100
AcDbEntity
  8
承認図
  6
CONTINUOUS
 62
     7
100
AcDbLine
 10
1196.5
 20
679.1046984901
 30
0.0
 11
1390.5
 21
679.1046984901
 31
0.0
  0
LINE
  5
22B
330
1F
100
AcDbEntity
  8
承認図
  6
CONTINUOUS
 62
     7
100
AcDbLine
 10
1393.5
 20
799.1046984901101
 30
0.0
 11
1193.5
 21
799.1046984901101
 31
0.0
  0
LINE
  5
22C
330
1F
100
AcDbEntity
  8
承認図
  6
CONTINUOUS
 62
     7
100
AcDbLine
 10
1567.494721614884
 20
711.4561014965083
 30
0.0
 11
1599.1011061566
 21
702.1046984901168
 31
0.0
  0
LINE
  5
22D
330
1F
100
AcDbEntity
  8
承認図
  6
CONTINUOUS
 62
     7
100
AcDbLine
 10
522.1196628576345
 20
695.5129459127867
 30
0.0
 11
516.1011061566003
 21
702.10469849011
 31
0.0
  0
LINE
  5
22E
330
1F
100
AcDbEntity
  8
承認図
  6
CONTINUOUS
 62
     7
100
AcDbLine
 10
522.1196628576301
 20
695.51294591279
 30
0.0
 11
573.0825494555681
 21
695.51294591279
 31
0.0
  0
ARC
  5
22F
330
1F
100
AcDbEntity
  8
承認図
  6
CONTINUOUS
 62
     7
100
AcDbCircle
 10
526.6011061566
 20
695.1046984901067
 30
0.0
 40
4.499999999996646
100
AcDbArc
 50
174.7948755950003
 51
270.0000000000015
  0
LINE
  5
230
330
1F
100
AcDbEntity
  8
承認図
  6
CONTINUOUS
 62
     7
100
AcDbLine
 10
526.6011061566003
 20
690.6046984901101
 30
0.0
 11
568.6011061565996
 21
690.6046984901101
 31
0.0
  0
LINE
  5
231
330
1F
100
AcDbEntity
  8
承認図
  6
CONTINUOUS
 62
     7
100
AcDbLine
 10
526.6011061566003
 20
690.60469849011
 30
0.0
 11
527.1011061566003
 21
684.1046984901099
 31
0.0
  0
LINE
  5
232
330
1F
100
AcDbEntity
  8
承認図
  6
CONTINUOUS
 62
     7
100
AcDbLine
 10
568.6011061565994
 20
690.60469849011
 30
0.0
 11
568.1011061565994
 21
684.1046984901099
 31
0.0
  0
ARC
  5
233
330
1F
100
AcDbEntity
  8
承認図
  6
CONTINUOUS
 62
     7
100
AcDbCircle
 10
568.6011061565996
 20
695.1046984901067
 30
0.0
 40
4.499999999996646
100
AcDbArc
 50
269.9999999999986
 51
5.205124404999668
  0
LINE
  5
234
330
1F
100
AcDbEntity
  8
承認図
  6
CONTINUOUS
 62
     7
100
AcDbLine
 10
573.0825494555652
 20
695.5129459127867
 30
0.0
 11
579.1011061565996
 21
702.10469849011
 31
0.0
  0
ARC
  5
235
330
1F
100
AcDbEntity
  8
承認図
  6
CONTINUOUS
 62
     7
100
AcDbCircle
 10
557.7256967945514
 20
747.3052723205919
 30
0.0
 40
50.0
100
AcDbArc
 50
295.3095270735224
 51
332.4751850307584
  0
LINE
  5
236
330
1F
100
AcDbEntity
  8
承認図
  6
CONTINUOUS
 62
     7
100
AcDbLine
 10
516.1011061566003
 20
702.10469849011
 30
0.0
 11
578.1011061565996
 21
702.10469849011
 31
0.0
  0
LINE
  5
237
330
1F
100
AcDbEntity
  8
承認図
  6
CONTINUOUS
 62
     7
100
AcDbLine
 10
364.0977874633913
 20
797.0293366117776
 30
0.0
 11
401.2347210978729
 21
745.5336868742964
 31
0.0
  0
LINE
  5
238
330
1F
100
AcDbEntity
  8
承認図
  6
CONTINUOUS
 62
     7
100
AcDbLine
 10
452.0192638345607
 20
713.5806731785115
 30
0.0
 11
516.1011061566
 21
702.10469849011
 31
0.0
  0
CIRCLE
  5
239
330
1F
100
AcDbEntity
  8
承認図
  6
CONTINUOUS
 62
     7
100
AcDbCircle
 10
617.6011061566
 20
451.60469849012
 30
0.0
 40
7.0
  0
LINE
  5
23A
330
1F
100
AcDbEntity
  8
承認図
  6
EXLTYPE3
 62
     6
100
AcDbLine
 10
330.5
 20
451.60469849012
 30
0.0
 11
752.6011061565996
 21
451.60469849012
 31
0.0
  0
LINE
  5
23B
330
1F
100
AcDbEntity
  8
承認図
  6
EXLTYPE3
 62
     6
100
AcDbLine
 10
547.6011061565996
 20
487.10469849012
 30
0.0
 11
547.6011061565996
 21
416.10469849012
 31
0.0
  0
LINE
  5
23C
330
1F
100
AcDbEntity
  8
承認図
  6
EXLTYPE3
 62
     6
100
AcDbLine
 10
402.6011061565997
 20
342.0
 30
0.0
 11
402.6011061565997
 21
500.5
 31
0.0
  0
LINE
  5
23D
330
1F
100
AcDbEntity
  8
承認図
  6
EXLTYPE3
 62
     6
100
AcDbLine
 10
684.6011061565995
 20
433.6046984901195
 30
0.0
 11
684.6011061565995
 21
469.6046984901204
 31
0.0
  0
LINE
  5
23E
330
1F
100
AcDbEntity
  8
承認図
  6
EXLTYPE3
 62
     6
100
AcDbLine
 10
759.5
 20
1051.604698490107
 30
0.0
 11
330.0
 21
1051.604698490107
 31
0.0
  0
LINE
  5
23F
330
1F
100
AcDbEntity
  8
承認図
  6
EXLTYPE3
 62
     6
100
AcDbLine
 10
547.6011061565996
 20
1171.5
 30
0.0
 11
547.6011061565996
 21
1014.104698490107
 31
0.0
  0
LINE
  5
240
330
1F
100
AcDbEntity
  8
承認図
  6
EXLTYPE3
 62
     6
100
AcDbLine
 10
684.6011061565995
 20
1029.75
 30
0.0
 11
684.6011061565995
 21
1074.104698490107
 31
0.0
  0
LINE
  5
241
330
1F
100
AcDbEntity
  8
承認図
  6
EXLTYPE3
 62
     6
100
AcDbLine
 10
1629.601106156601
 20
669.1046984901099
 30
0.0
 11
1629.601106156601
 21
809.1046984901101
 31
0.0
  0
LINE
  5
242
330
1F
100
AcDbEntity
  8
承認図
  6
EXLTYPE3
 62
     6
100
AcDbLine
 10
1004.0
 20
809.1046984901101
 30
0.0
 11
1004.0
 21
669.1046984901099
 31
0.0
  0
LINE
  5
243
330
1F
100
AcDbEntity
  8
承認図
  6
EXLTYPE3
 62
     6
100
AcDbLine
 10
1293.5
 20
809.1046984901101
 30
0.0
 11
1293.5
 21
669.1046984901099
 31
0.0
  0
ARC
  5
244
330
1F
100
AcDbEntity
  8
承認図
  6
CONTINUOUS
 62
     6
100
AcDbCircle
 10
369.1260439671602
 20
684.1046984901095
 30
0.0
 40
13.0
100
AcDbArc
 50
90.00000000000001
 51
123.1213381211361
  0
LINE
  5
245
330
1F
100
AcDbEntity
  8
承認図
  6
CONTINUOUS
 62
     6
100
AcDbLine
 10
420.3809529021448
 20
697.1046984901094
 30
0.0
 11
369.1260439671602
 21
697.1046984901094
 31
0.0
  0
LINE
  5
246
330
1F
100
AcDbEntity
  8
承認図
  6
CONTINUOUS
 62
     6
100
AcDbLine
 10
608.7001256701924
 20
697.10469849011
 30
0.0
 11
625.5020866430073
 21
697.10469849011
 31
0.0
  0
ARC
  5
247
330
1F
100
AcDbEntity
  8
承認図
  6
CONTINUOUS
 62
     6
100
AcDbCircle
 10
625.5020866430073
 20
684.1046984901099
 30
0.0
 40
13.0
100
AcDbArc
 50
56.69479306543405
 51
90.00000000000001
  0
LINE
  5
248
330
1F
100
AcDbEntity
  8
承認図
  6
CONTINUOUS
 62
     6
100
AcDbLine
 10
632.9888198284241
 20
694.7324370176788
 30
0.0
 11
640.8617139689718
 21
781.334272563799
 31
0.0
  0
LINE
  5
249
330
1F
100
AcDbEntity
  8
承認図
  6
CONTINUOUS
 62
     6
100
AcDbLine
 10
722.9437302959759
 20
785.1413863797876
 30
0.0
 11
729.9892336934037
 21
697.072593911937
 31
0.0
  0
ARC
  5
24A
330
1F
100
AcDbEntity
  8
承認図
  6
CONTINUOUS
 62
     6
100
AcDbCircle
 10
729.0761683460394
 20
684.1046984901099
 30
0.0
 40
13.0
100
AcDbArc
 50
60.13925846218368
 51
85.97246933475238
  0
LINE
  5
24B
330
1F
100
AcDbEntity
  8
承認図
  6
CONTINUOUS
 62
     6
100
AcDbLine
 10
720.9395828251096
 20
791.10469849011
 30
0.0
 11
739.4150461378867
 21
791.1046984901091
 31
0.0
  0
ARC
  5
24C
330
1F
100
AcDbEntity
  8
承認図
  6
CONTINUOUS
 62
     6
100
AcDbCircle
 10
709.9851316750062
 20
784.1046984901101
 30
0.0
 40
13.0
100
AcDbArc
 50
4.57392125989964
 51
32.57897039280726
  0
ARC
  5
24D
330
1F
100
AcDbEntity
  8
承認図
  6
CONTINUOUS
 62
     6
100
AcDbCircle
 10
-2251.697532344609
 20
863.9713084276605
 30
0.0
 40
2992.0
100
AcDbArc
 50
356.7697999553311
 51
358.604491301308
  0
ARC
  5
24E
330
1F
100
AcDbEntity
  8
承認図
  6
CONTINUOUS
 62
     6
100
AcDbCircle
 10
-2251.697532344609
 20
863.9713084276605
 30
0.0
 40
2992.0
100
AcDbArc
 50
358.7577292149072
 51
358.7610424541229
  0
LINE
  5
24F
330
1F
100
AcDbEntity
  8
承認図
  6
CONTINUOUS
 62
     6
100
AcDbLine
 10
1550.111081280824
 20
689.1046984901104
 30
0.0
 11
1553.652038480114
 21
689.1046984901104
 31
0.0
  0
ARC
  5
250
330
1F
100
AcDbEntity
  8
承認図
  6
CONTINUOUS
 62
     6
100
AcDbCircle
 10
1550.111081280824
 20
679.1046984901099
 30
0.0
 40
10.0
100
AcDbArc
 50
90.00000000000001
 51
107.2245931820396
  0
LINE
  5
251
330
1F
100
AcDbEntity
  8
承認図
  6
CONTINUOUS
 62
     6
100
AcDbLine
 10
1553.652038480114
 20
689.1046984901104
 30
0.0
 11
1555.76266514475
 21
698.8231185133109
 31
0.0
  0
ARC
  5
252
330
1F
100
AcDbEntity
  8
承認図
  6
CONTINUOUS
 62
     6
100
AcDbCircle
 10
1568.466520210612
 20
696.0641211473117
 30
0.0
 40
13.0
100
AcDbArc
 50
111.5730087837798
 51
167.746898740696
  0
ARC
  5
253
330
1F
100
AcDbEntity
  8
承認図
  6
CONTINUOUS
 62
     6
100
AcDbCircle
 10
1583.992889912658
 20
727.431809042268
 30
0.0
 40
28.0
100
AcDbArc
 50
192.8704319078315
 51
223.5124485424629
  0
ARC
  5
254
330
1F
100
AcDbEntity
  8
承認図
  6
CONTINUOUS
 62
     6
100
AcDbCircle
 10
3031.57569563902
 20
838.8030044556012
 30
0.0
 40
1492.0
100
AcDbArc
 50
181.7570922065992
 51
185.775713542149
  0
LINE
  5
255
330
1F
100
AcDbEntity
  8
承認図
  6
CONTINUOUS
 62
     6
100
AcDbLine
 10
1540.27722948822
 20
793.0549459583235
 30
0.0
 11
1556.696354213555
 21
721.1948916283832
 31
0.0
  0
LINE
  5
256
330
1F
100
AcDbEntity
  8
承認図
  6
CONTINUOUS
 62
     6
100
AcDbLine
 10
355.838333041092
 20
791.10469849011
 30
0.0
 11
358.5071123166022
 21
791.10469849011
 31
0.0
  0
ARC
  5
257
330
1F
100
AcDbEntity
  8
承認図
  6
CONTINUOUS
 62
     6
100
AcDbCircle
 10
1847.075695639019
 20
838.8030044556049
 30
0.0
 40
1492.0
100
AcDbArc
 50
181.8320223596133
 51
185.5312018699231
  0
LINE
  5
258
330
1F
100
AcDbEntity
  8
承認図
  6
CONTINUOUS
 62
     6
100
AcDbLine
 10
914.7372268844919
 20
791.10469849011
 30
0.0
 11
952.4544693072511
 21
791.10469849011
 31
0.0
  0
ARC
  5
259
330
1F
100
AcDbEntity
  8
承認図
  6
CONTINUOUS
 62
     6
100
AcDbCircle
 10
2405.97458948242
 20
838.8030044555912
 30
0.0
 40
1492.0
100
AcDbArc
 50
181.8320223596128
 51
185.5626796841701
  0
ARC
  5
25A
330
1F
100
AcDbEntity
  8
承認図
  6
CONTINUOUS
 62
     6
100
AcDbCircle
 10
929.2201532544552
 20
684.1046984901
 30
0.0
 40
13.0
100
AcDbArc
 50
94.30301330669026
 51
129.2169665567184
  0
LINE
  5
25B
330
1F
100
AcDbEntity
  8
承認図
  6
CONTINUOUS
 62
     6
100
AcDbLine
 10
950.7920131416984
 20
787.2499021350282
 30
0.0
 11
928.2447480339783
 21
697.0680539452227
 31
0.0
  0
ARC
  5
25C
330
1F
100
AcDbEntity
  8
承認図
  6
CONTINUOUS
 62
     6
100
AcDbCircle
 10
963.4038063107162
 20
784.0967016875602
 30
0.0
 40
13.0
100
AcDbArc
 50
147.3791936460261
 51
165.962678373198
  0
LINE
  5
25D
330
1F
100
AcDbEntity
  8
承認図
  6
EXLTYPE3
 62
     6
100
AcDbLine
 10
547.6011061565996
 20
707.1046984901094
 30
0.0
 11
547.6011061565996
 21
669.1046984901099
 31
0.0
  0
LINE
  5
25E
330
1F
100
AcDbEntity
  8
承認図
  6
CONTINUOUS
 62
     6
100
AcDbLine
 10
609.4730451921771
 20
721.1009085148312
 30
0.0
 11
640.8617139689716
 21
781.334272563799
 31
0.0
  0
ARC
  5
25F
330
1F
100
AcDbEntity
  8
承認図
  6
CONTINUOUS
 62
     6
100
AcDbCircle
 10
558.038020803546
 20
747.9046072547621
 30
0.0
 40
58.00000000000001
100
AcDbArc
 50
307.5043402970834
 51
332.4751850307583
  0
ARC
  5
260
330
1F
100
AcDbEntity
  8
承認図
  6
CONTINUOUS
 62
     6
100
AcDbCircle
 10
587.8185591920108
 20
690.1281454965929
 30
0.0
 40
13.0
100
AcDbArc
 50
17.20147153165415
 51
64.81958298674544
  0
ARC
  5
261
330
1F
100
AcDbEntity
  8
承認図
  6
CONTINUOUS
 62
     6
100
AcDbCircle
 10
608.7001256701924
 20
684.1046984901099
 30
0.0
 40
13.0
100
AcDbArc
 50
90.00000000000001
 51
130.6173101065505
  0
LINE
  5
262
330
1F
100
AcDbEntity
  8
承認図
  6
CONTINUOUS
 62
     6
100
AcDbLine
 10
358.5071123166022
 20
791.10469849011
 30
0.0
 11
394.7460371670079
 21
740.8542658796291
 31
0.0
  0
LINE
  5
263
330
1F
100
AcDbEntity
  8
承認図
  6
CONTINUOUS
 62
     6
100
AcDbLine
 10
445.1011061566003
 20
704.8170946127519
 30
0.0
 11
445.1011061566003
 21
710.0999999999999
 31
0.0
  0
ARC
  5
264
330
1F
100
AcDbEntity
  8
承認図
  6
CONTINUOUS
 62
     6
100
AcDbCircle
 10
420.3809529021448
 20
684.1046984901095
 30
0.0
 40
13.0
100
AcDbArc
 50
33.34368753542966
 51
90.00000000000001
  0
ARC
  5
265
330
1F
100
AcDbEntity
  8
承認図
  6
CONTINUOUS
 62
     6
100
AcDbCircle
 10
466.1215604065183
 20
792.3278968209775
 30
0.0
 40
88.0
100
AcDbArc
 50
215.7978771675113
 51
253.3314860286938
  0
LINE
  5
266
330
1F
100
AcDbEntity
  8
承認図
  6
CONTINUOUS
 62
     6
100
AcDbLine
 10
431.241003315057
 20
691.2502778948187
 30
0.0
 11
434.6214787501633
 21
699.9422902418496
 31
0.0
  0
ARC
  5
267
330
1F
100
AcDbEntity
  8
承認図
  6
CONTINUOUS
 62
     6
100
AcDbCircle
 10
451.3974008759849
 20
693.4178410828504
 30
0.0
 40
18.0
100
AcDbArc
 50
125.7529377893043
 51
158.7480721458612
  0
LINE
  5
268
330
1F
100
AcDbEntity
  8
承認図
  6
CONTINUOUS
 62
     6
100
AcDbLine
 10
1093.262773115508
 20
791.10469849011
 30
0.0
 11
1055.545530692749
 21
791.10469849011
 31
0.0
  0
ARC
  5
269
330
1F
100
AcDbEntity
  8
承認図
  6
CONTINUOUS
 62
     6
100
AcDbCircle
 10
-397.9745894824196
 20
838.8030044555916
 30
0.0
 40
1492.0
100
AcDbArc
 50
354.4373203158299
 51
358.1679776403873
  0
ARC
  5
26A
330
1F
100
AcDbEntity
  8
承認図
  6
CONTINUOUS
 62
     6
100
AcDbCircle
 10
1078.779846745545
 20
684.1046984901
 30
0.0
 40
13.0
100
AcDbArc
 50
50.783033443282
 51
85.69698669331025
  0
LINE
  5
26B
330
1F
100
AcDbEntity
  8
承認図
  6
CONTINUOUS
 62
     6
100
AcDbLine
 10
1057.207986858301
 20
787.2499021350282
 30
0.0
 11
1079.755251966021
 21
697.0680539452227
 31
0.0
  0
ARC
  5
26C
330
1F
100
AcDbEntity
  8
承認図
  6
CONTINUOUS
 62
     6
100
AcDbCircle
 10
1044.596193689284
 20
784.0967016875602
 30
0.0
 40
13.0
100
AcDbArc
 50
14.03732162680208
 51
32.62080635397422
  0
LINE
  5
26D
330
1F
100
AcDbEntity
  8
承認図
  6
CONTINUOUS
 62
     6
100
AcDbLine
 10
1709.091131032377
 20
689.1046984901104
 30
0.0
 11
1705.550173833087
 21
689.1046984901104
 31
0.0
  0
ARC
  5
26E
330
1F
100
AcDbEntity
  8
承認図
  6
CONTINUOUS
 62
     6
100
AcDbCircle
 10
1709.091131032377
 20
679.1046984901099
 30
0.0
 40
10.0
100
AcDbArc
 50
72.77540681796047
 51
90.00000000000001
  0
LINE
  5
26F
330
1F
100
AcDbEntity
  8
承認図
  6
CONTINUOUS
 62
     6
100
AcDbLine
 10
1705.550173833087
 20
689.1046984901104
 30
0.0
 11
1703.439547168451
 21
698.8231185133109
 31
0.0
  0
ARC
  5
270
330
1F
100
AcDbEntity
  8
承認図
  6
CONTINUOUS
 62
     6
100
AcDbCircle
 10
1690.735692102589
 20
696.0641211473117
 30
0.0
 40
13.0
100
AcDbArc
 50
12.25310125930398
 51
68.42699121622006
  0
ARC
  5
271
330
1F
100
AcDbEntity
  8
承認図
  6
CONTINUOUS
 62
     6
100
AcDbCircle
 10
1675.209322400543
 20
727.431809042268
 30
0.0
 40
28.0
100
AcDbArc
 50
316.4875514575371
 51
347.1295680921685
  0
ARC
  5
272
330
1F
100
AcDbEntity
  8
承認図
  6
CONTINUOUS
 62
     6
100
AcDbCircle
 10
227.6265166741814
 20
838.8030044556012
 30
0.0
 40
1492.0
100
AcDbArc
 50
354.224286457851
 51
358.2429077934008
  0
LINE
  5
273
330
1F
100
AcDbEntity
  8
承認図
  6
CONTINUOUS
 62
     6
100
AcDbLine
 10
1718.924982824981
 20
793.0549459583235
 30
0.0
 11
1702.505858099646
 21
721.1948916283832
 31
0.0
  0
LINE
  5
274
330
1F
100
AcDbEntity
  8
承認図
  6
EXLTYPE3
 62
     6
100
AcDbLine
 10
684.6011061566
 20
771.5
 30
0.0
 11
684.6011061566
 21
810.0
 31
0.0
  0
LINE
  5
275
330
1F
100
AcDbEntity
  8
承認図
  6
EXLTYPE3
 62
     6
100
AcDbLine
 10
617.6011061565997
 20
488.0
 30
0.0
 11
617.6011061565997
 21
332.5
 31
0.0
  0
LINE
  5
276
330
1F
100
AcDbEntity
  8
承認図
  6
CONTINUOUS
 62
     7
100
AcDbLine
 10
610.6011061565996
 20
689.1046984901099
 30
0.0
 11
610.6011061565996
 21
697.10469849011
 31
0.0
  0
LINE
  5
277
330
1F
100
AcDbEntity
  8
承認図
  6
CONTINUOUS
 62
     7
100
AcDbLine
 10
624.6011061565996
 20
697.10469849011
 30
0.0
 11
624.6011061565996
 21
689.1046984901099
 31
0.0
  0
LINE
  5
278
330
1F
100
AcDbEntity
  8
承認図
  6
CONTINUOUS
 62
     7
100
AcDbLine
 10
602.0662350606126
 20
724.1986354758242
 30
0.0
 11
638.8587691881719
 21
794.8017603852727
 31
0.0
  0
DIMENSION
  5
27A
330
1F
100
AcDbEntity
  8
承認図寸法
  6
CONTINUOUS
 62
     3
100
AcDbDimension
  2
*D15
 10
547.6011061566
 20
1202.5
 30
0.0
 11
616.1011061566
 21
1214.000000059605
 31
0.0
 70
   160
  3
ISO-25
100
AcDbAlignedDimension
 13
684.6011061566
 23
1074.1046984901
 33
0.0
 14
547.6011061566
 24
1174.0
 34
0.0
100
AcDbRotatedDimension
1001
ACAD
1000
DSTYLE
1002
{
1070
   270
1070
     2
1070
     6
1000
EX_NORM
1070
     7
1000
EX_NORM
1070
    41
1040
15.0
1070
    42
1040
2.5
1070
    44
1040
5.0
1070
    73
1070
     0
1070
    74
1070
     0
1070
    75
1070
     0
1070
    76
1070
     0
1070
    77
1070
     1
1070
    78
1070
     8
1070
   140
1040
20.0
1070
   147
1040
0.0
1070
   173
1070
     1
1070
   176
1070
     3
1070
   177
1070
     3
1070
   178
1070
     2
1070
   271
1070
     2
1070
   277
1070
     2
1070
   279
1070
     2
1070
   280
1070
     0
1070
   287
1070
     5
1070
   340
1005
279
1002
}
  0
DIMENSION
  5
288
330
1F
100
AcDbEntity
  8
承認図寸法
  6
CONTINUOUS
 62
     3
100
AcDbDimension
  2
*D16
 10
275.0
 20
679.1046984901099
 30
0.0
 11
263.4999999403955
 21
739.1046984901101
 31
0.0
 70
   160
  3
ISO-25
100
AcDbAlignedDimension
 13
347.6011061566
 23
799.1046984901101
 33
0.0
 14
350.6011061566001
 24
679.1046984901099
 34
0.0
 50
90.0
100
AcDbRotatedDimension
1001
ACAD
1000
DSTYLE
1002
{
1070
   270
1070
     2
1070
     6
1000
EX_NORM
1070
     7
1000
EX_NORM
1070
    41
1040
15.0
1070
    42
1040
2.5
1070
    44
1040
5.0
1070
    73
1070
     0
1070
    74
1070
     0
1070
    75
1070
     0
1070
    76
1070
     0
1070
    77
1070
     1
1070
    78
1070
     8
1070
   140
1040
20.0
1070
   147
1040
0.0
1070
   173
1070
     1
1070
   176
1070
     3
1070
   177
1070
     3
1070
   178
1070
     2
1070
   271
1070
     2
1070
   277
1070
     2
1070
   279
1070
     2
1070
   280
1070
     0
1070
   287
1070
     5
1070
   340
1005
279
1002
}
  0
DIMENSION
  5
295
330
1F
100
AcDbEntity
  8
承認図寸法
  6
CONTINUOUS
 62
     3
100
AcDbDimension
  2
*D17
 10
747.6011061566005
 20
1244.0
 30
0.0
 11
547.6011061566002
 21
1255.500000059605
 31
0.0
 70
   160
  1
400
  3
ISO-25
100
AcDbAlignedDimension
 13
347.6011061565998
 23
1151.604698490107
 33
0.0
 14
747.6011061566005
 24
1151.604698490107
 34
0.0
100
AcDbRotatedDimension
1001
ACAD
1000
DSTYLE
1002
{
1070
   270
1070
     2
1070
     6
1000
EX_NORM
1070
     7
1000
EX_NORM
1070
    41
1040
15.0
1070
    42
1040
2.5
1070
    44
1040
5.0
1070
    73
1070
     0
1070
    74
1070
     0
1070
    75
1070
     0
1070
    76
1070
     0
1070
    77
1070
     1
1070
    78
1070
     8
1070
   140
1040
20.0
1070
   147
1040
0.0
1070
   173
1070
     1
1070
   176
1070
     3
1070
   177
1070
     3
1070
   178
1070
     2
1070
   271
1070
     2
1070
   277
1070
     2
1070
   279
1070
     2
1070
   280
1070
     0
1070
   287
1070
     5
1070
   340
1005
279
1002
}
  0
TEXT
  5
2A2
330
1F
100
AcDbEntity
  8
承認図寸法
  6
CONTINUOUS
 62
     2
100
AcDbText
 10
695.3171566428335
 20
1061.455510330739
 30
0.0
 40
20.0
  1
φ
 50
36.67609721156054
 41
1.119999999999997
  7
EXCADSTD
 72
     5
 11
708.1495549329771
 21
1071.012160063942
 31
0.0
100
AcDbText
  0
TEXT
  5
2A3
330
1F
100
AcDbEntity
  8
承認図寸法
  6
CONTINUOUS
 62
     2
100
AcDbText
 10
709.3525922726781
 20
1071.908095976429
 30
0.0
 40
20.0
  1
２６
 50
36.67609721156101
 41
1.020759090909092
  7
EXCADSTD
 72
     5
 11
735.082352869309
 21
1091.069775982109
 31
0.0
100
AcDbText
  0
LEADER
  5
2A4
330
1F
100
AcDbEntity
  8
承認図寸法
  6
CONTINUOUS
 62
     3
100
AcDbLeader
  3
ISO-25
 76
     2
 10
695.0274297673411
 20
1059.369476398334
 30
0.0
 10
737.5
 20
1091.0
 30
0.0
1001
ACAD
1000
DSTYLE
1002
{
1070
     5
1000
EX_NORM
1070
    41
1040
15.0
1070
   341
1005
4E
1002
}
  0
DIMENSION
  5
2A5
330
1F
100
AcDbEntity
  8
承認図寸法
  6
CONTINUOUS
 62
     3
100
AcDbDimension
  2
*D18
 10
275.0
 20
951.6046984901101
 30
0.0
 11
263.4999999403954
 21
1051.604698490105
 31
0.0
 70
   160
  3
ISO-25
100
AcDbAlignedDimension
 13
352.6011061566
 23
1151.6046984901
 33
0.0
 14
352.6011061566
 24
951.6046984901101
 34
0.0
 50
90.0
100
AcDbRotatedDimension
1001
ACAD
1000
DSTYLE
1002
{
1070
   270
1070
     2
1070
     6
1000
EX_NORM
1070
     7
1000
EX_NORM
1070
    41
1040
15.0
1070
    42
1040
2.5
1070
    44
1040
5.0
1070
    73
1070
     0
1070
    74
1070
     0
1070
    75
1070
     0
1070
    76
1070
     0
1070
    77
1070
     1
1070
    78
1070
     8
1070
   140
1040
20.0
1070
   147
1040
0.0
1070
   173
1070
     1
1070
   176
1070
     3
1070
   177
1070
     3
1070
   178
1070
     2
1070
   271
1070
     2
1070
   277
1070
     2
1070
   279
1070
     2
1070
   280
1070
     0
1070
   287
1070
     5
1070
   340
1005
279
1002
}
  0
DIMENSION
  5
2B2
330
1F
100
AcDbEntity
  8
承認図寸法
  6
CONTINUOUS
 62
     3
100
AcDbDimension
  2
*D19
 10
824.5
 20
1151.6046984901
 30
0.0
 11
812.9999999403954
 21
1101.6046984901
 31
0.0
 70
   160
  3
ISO-25
100
AcDbAlignedDimension
 13
759.5
 23
1051.6046984901
 33
0.0
 14
742.6011061566
 24
1151.6046984901
 34
0.0
 50
90.0
100
AcDbRotatedDimension
1001
ACAD
1000
DSTYLE
1002
{
1070
   270
1070
     2
1070
     6
1000
EX_NORM
1070
     7
1000
EX_NORM
1070
    41
1040
15.0
1070
    42
1040
2.5
1070
    44
1040
5.0
1070
    73
1070
     0
1070
    74
1070
     0
1070
    75
1070
     0
1070
    76
1070
     0
1070
    77
1070
     1
1070
    78
1070
     8
1070
   140
1040
20.0
1070
   147
1040
0.0
1070
   173
1070
     1
1070
   176
1070
     3
1070
   177
1070
     3
1070
   178
1070
     2
1070
   271
1070
     2
1070
   277
1070
     2
1070
   279
1070
     2
1070
   280
1070
     0
1070
   287
1070
     5
1070
   340
1005
279
1002
}
  0
DIMENSION
  5
2BF
330
1F
100
AcDbEntity
  8
承認図寸法
  6
CONTINUOUS
 62
     3
100
AcDbDimension
  2
*D20
 10
744.6011061566
 20
640.0
 30
0.0
 11
547.6011061566002
 21
651.5000000596046
 31
0.0
 70
   160
  1
（394）
  3
ISO-25
100
AcDbAlignedDimension
 13
350.6011061566001
 23
679.1046984901099
 33
0.0
 14
744.6011061566
 24
679.1046984901099
 34
0.0
100
AcDbRotatedDimension
1001
ACAD
1000
DSTYLE
1002
{
1070
   270
1070
     2
1070
     6
1000
EX_NORM
1070
     7
1000
EX_NORM
1070
    41
1040
15.0
1070
    42
1040
2.5
1070
    44
1040
5.0
1070
    73
1070
     0
1070
    74
1070
     0
1070
    75
1070
     0
1070
    76
1070
     0
1070
    77
1070
     1
1070
    78
1070
     8
1070
   140
1040
20.0
1070
   147
1040
0.0
1070
   173
1070
     1
1070
   176
1070
     3
1070
   177
1070
     3
1070
   178
1070
     2
1070
   271
1070
     2
1070
   277
1070
     2
1070
   279
1070
     2
1070
   280
1070
     0
1070
   287
1070
     5
1070
   340
1005
279
1002
}
  0
DIMENSION
  5
2CC
330
1F
100
AcDbEntity
  8
承認図寸法
  6
CONTINUOUS
 62
     3
100
AcDbDimension
  2
*D21
 10
1193.5
 20
823.0000000000001
 30
0.0
 11
1293.5
 21
834.5000000596048
 31
0.0
 70
   160
  3
ISO-25
100
AcDbAlignedDimension
 13
1393.5
 23
799.1046984901101
 33
0.0
 14
1193.5
 24
799.1046984901101
 34
0.0
100
AcDbRotatedDimension
1001
ACAD
1000
DSTYLE
1002
{
1070
   270
1070
     2
1070
     6
1000
EX_NORM
1070
     7
1000
EX_NORM
1070
    41
1040
15.0
1070
    42
1040
2.5
1070
    44
1040
5.0
1070
    73
1070
     0
1070
    74
1070
     0
1070
    75
1070
     0
1070
    76
1070
     0
1070
    77
1070
     1
1070
    78
1070
     8
1070
   140
1040
20.0
1070
   147
1040
0.0
1070
   173
1070
     1
1070
   176
1070
     3
1070
   177
1070
     3
1070
   178
1070
     2
1070
   271
1070
     2
1070
   277
1070
     2
1070
   279
1070
     2
1070
   280
1070
     0
1070
   287
1070
     5
1070
   340
1005
279
1002
}
  0
DIMENSION
  5
2D9
330
1F
100
AcDbEntity
  8
承認図寸法
  6
CONTINUOUS
 62
     3
100
AcDbDimension
  2
*D22
 10
1390.5
 20
646.0
 30
0.0
 11
1293.5
 21
657.5000000596046
 31
0.0
 70
   160
  1
（194）
  3
ISO-25
100
AcDbAlignedDimension
 13
1196.5
 23
679.1046984901
 33
0.0
 14
1390.5
 24
679.1046984901
 34
0.0
100
AcDbRotatedDimension
1001
ACAD
1000
DSTYLE
1002
{
1070
   270
1070
     2
1070
     6
1000
EX_NORM
1070
     7
1000
EX_NORM
1070
    41
1040
15.0
1070
    42
1040
2.5
1070
    44
1040
5.0
1070
    73
1070
     0
1070
    74
1070
     0
1070
    75
1070
     0
1070
    76
1070
     0
1070
    77
1070
     1
1070
    78
1070
     8
1070
   140
1040
20.0
1070
   147
1040
0.0
1070
   173
1070
     1
1070
   176
1070
     3
1070
   177
1070
     3
1070
   178
1070
     2
1070
   271
1070
     2
1070
   277
1070
     2
1070
   279
1070
     2
1070
   280
1070
     0
1070
   287
1070
     5
1070
   340
1005
279
1002
}
  0
DIMENSION
  5
2E6
330
1F
100
AcDbEntity
  8
承認図寸法
  6
CONTINUOUS
 62
     3
100
AcDbDimension
  2
*D23
 10
617.6011061566
 20
294.0
 30
0.0
 11
582.6011061566
 21
305.5000000596046
 31
0.0
 70
   160
  3
ISO-25
100
AcDbAlignedDimension
 13
547.6011061566
 23
416.10469849012
 33
0.0
 14
617.6011061566
 24
332.5
 34
0.0
100
AcDbRotatedDimension
1001
ACAD
1000
DSTYLE
1002
{
1070
   270
1070
     2
1070
     6
1000
EX_NORM
1070
     7
1000
EX_NORM
1070
    41
1040
15.0
1070
    42
1040
2.5
1070
    44
1040
5.0
1070
    73
1070
     0
1070
    74
1070
     0
1070
    75
1070
     0
1070
    76
1070
     0
1070
    77
1070
     1
1070
    78
1070
     8
1070
   140
1040
20.0
1070
   147
1040
0.0
1070
   173
1070
     1
1070
   176
1070
     3
1070
   177
1070
     3
1070
   178
1070
     2
1070
   271
1070
     2
1070
   277
1070
     2
1070
   279
1070
     2
1070
   280
1070
     0
1070
   287
1070
     5
1070
   340
1005
279
1002
}
  0
LEADER
  5
2F3
330
1F
100
AcDbEntity
  8
承認図寸法
  6
CONTINUOUS
 62
     3
100
AcDbLeader
  3
ISO-25
 76
     3
 10
620.0697935457805
 20
445.054463183316
 30
0.0
 10
677.0
 20
294.0
 30
0.0
 10
754.5
 20
294.0
 30
0.0
1001
ACAD
1000
DSTYLE
1002
{
1070
     5
1000
EX_NORM
1070
    41
1040
15.0
1070
   341
1005
4E
1002
}
  0
TEXT
  5
2F4
330
1F
100
AcDbEntity
  8
承認図寸法
  6
CONTINUOUS
 62
     2
100
AcDbText
 10
675.75
 20
295.5
 30
0.0
 40
20.0
  1
２－φ１３
 41
0.9655172413793103
  7
EXCADSTD
 72
     5
 11
755.75
 21
295.5
 31
0.0
100
AcDbText
  0
DIMENSION
  5
2F5
330
1F
100
AcDbEntity
  8
承認図寸法
  6
CONTINUOUS
 62
     3
100
AcDbDimension
  2
*D24
 10
275.0
 20
451.60469849012
 30
0.0
 11
263.4999999403954
 21
501.60469849012
 31
0.0
 70
   160
  3
ISO-25
100
AcDbAlignedDimension
 13
352.6011061566
 23
551.60469849012
 33
0.0
 14
330.5
 24
451.60469849012
 34
0.0
 50
90.0
100
AcDbRotatedDimension
1001
ACAD
1000
DSTYLE
1002
{
1070
   270
1070
     2
1070
     6
1000
EX_NORM
1070
     7
1000
EX_NORM
1070
    41
1040
15.0
1070
    42
1040
2.5
1070
    44
1040
5.0
1070
    73
1070
     0
1070
    74
1070
     0
1070
    75
1070
     0
1070
    76
1070
     0
1070
    77
1070
     1
1070
    78
1070
     8
1070
   140
1040
20.0
1070
   147
1040
0.0
1070
   173
1070
     1
1070
   176
1070
     3
1070
   177
1070
     3
1070
   178
1070
     2
1070
   271
1070
     2
1070
   277
1070
     2
1070
   279
1070
     2
1070
   280
1070
     0
1070
   287
1070
     5
1070
   340
1005
279
1002
}
  0
DIMENSION
  5
302
330
1F
100
AcDbEntity
  8
承認図寸法
  6
CONTINUOUS
 62
     3
100
AcDbDimension
  2
*D25
 10
547.6011061566
 20
294.0
 30
0.0
 11
475.1011061566
 21
305.5000000596046
 31
0.0
 70
   160
  1
145
  3
ISO-25
100
AcDbAlignedDimension
 13
402.6011061565999
 23
342.0
 33
0.0
 14
547.6011061566
 24
294.0
 34
0.0
100
AcDbRotatedDimension
1001
ACAD
1000
DSTYLE
1002
{
1070
   270
1070
     2
1070
     6
1000
EX_NORM
1070
     7
1000
EX_NORM
1070
    41
1040
15.0
1070
    42
1040
2.5
1070
    44
1040
5.0
1070
    73
1070
     0
1070
    74
1070
     0
1070
    75
1070
     0
1070
    76
1070
     1
1070
    77
1070
     1
1070
    78
1070
     8
1070
   140
1040
20.0
1070
   147
1040
0.0
1070
   173
1070
     1
1070
   176
1070
     3
1070
   177
1070
     3
1070
   178
1070
     2
1070
   271
1070
     2
1070
   277
1070
     2
1070
   279
1070
     2
1070
   280
1070
     0
1070
   287
1070
     5
1070
   340
1005
279
1002
}
  0
LINE
  5
30E
330
1F
100
AcDbEntity
  8
承認図寸法
  6
CONTINUOUS
 62
     7
100
AcDbLine
 10
904.0
 20
799.1046984901101
 30
0.0
 11
907.0
 21
679.1046984901
 31
0.0
  0
LINE
  5
30F
330
1F
100
AcDbEntity
  8
承認図寸法
  6
CONTINUOUS
 62
     7
100
AcDbLine
 10
1104.0
 20
799.1046984901101
 30
0.0
 11
1101.0
 21
679.1046984901
 31
0.0
  0
LINE
  5
310
330
1F
100
AcDbEntity
  8
承認図寸法
  6
CONTINUOUS
 62
     7
100
AcDbLine
 10
1393.5
 20
799.1046984901101
 30
0.0
 11
1390.5
 21
679.1046984901
 31
0.0
  0
LINE
  5
311
330
1F
100
AcDbEntity
  8
承認図寸法
  6
CONTINUOUS
 62
     7
100
AcDbLine
 10
1193.5
 20
799.1046984901101
 30
0.0
 11
1196.5
 21
679.1046984901
 31
0.0
  0
LINE
  5
312
330
1F
100
AcDbEntity
  8
承認図寸法
  6
CONTINUOUS
 62
     7
100
AcDbLine
 10
1529.6011061566
 20
799.10469849012
 30
0.0
 11
1532.6011061566
 21
679.1046984901099
 31
0.0
  0
ARC
  5
313
330
1F
100
AcDbEntity
  8
承認図寸法
  6
CONTINUOUS
 62
     7
100
AcDbCircle
 10
1540.739348105801
 20
794.10469849012
 30
0.0
 40
5.0
100
AcDbArc
 50
14.63847754360849
 51
90.00000000000001
  0
LINE
  5
314
330
1F
100
AcDbEntity
  8
承認図寸法
  6
CONTINUOUS
 62
     7
100
AcDbLine
 10
1729.601106156601
 20
799.10469849012
 30
0.0
 11
1726.601106156601
 21
679.1046984901099
 31
0.0
  0
LINE
  5
315
330
1F
100
AcDbEntity
  8
承認図寸法
  6
CONTINUOUS
 62
     7
100
AcDbLine
 10
1714.601106156601
 20
799.10469849012
 30
0.0
 11
1694.560115853064
 21
722.3774255231917
 31
0.0
  0
ARC
  5
316
330
1F
100
AcDbEntity
  8
承認図寸法
  6
CONTINUOUS
 62
     7
100
AcDbCircle
 10
1718.4628642074
 20
794.10469849012
 30
0.0
 40
5.0
100
AcDbArc
 50
90.00000000000001
 51
165.3615224563909
  0
LINE
  5
317
330
1F
100
AcDbEntity
  8
承認図寸法
  6
CONTINUOUS
 62
     7
100
AcDbLine
 10
1544.6011061566
 20
799.10469849012
 30
0.0
 11
1567.494721614884
 21
711.4561014965083
 31
0.0
  0
LINE
  5
318
330
1F
100
AcDbEntity
  8
承認図寸法
  6
CONTINUOUS
 62
     6
100
AcDbLine
 10
420.6011061565999
 20
989.1046984901072
 30
0.0
 11
420.6011061565999
 21
1114.104698490107
 31
0.0
  0
LINE
  5
319
330
1F
100
AcDbEntity
  8
承認図寸法
  6
CONTINUOUS
 62
     6
100
AcDbLine
 10
595.1011061566
 20
989.1046984901072
 30
0.0
 11
595.1011061566
 21
1114.104698490107
 31
0.0
  0
LINE
  5
31A
330
1F
100
AcDbEntity
  8
承認図寸法
  6
CONTINUOUS
 62
     6
100
AcDbLine
 10
420.6011061566001
 20
1114.104698490107
 30
0.0
 11
595.1011061566
 21
1114.104698490107
 31
0.0
  0
LINE
  5
31B
330
1F
100
AcDbEntity
  8
承認図寸法
  6
CONTINUOUS
 62
     6
100
AcDbLine
 10
420.6011061565999
 20
989.1046984901072
 30
0.0
 11
595.1011061566
 21
989.1046984901072
 31
0.0
  0
DIMENSION
  5
31C
330
1F
100
AcDbEntity
  8
穴径詳細図
  6
CONTINUOUS
 62
     3
100
AcDbDimension
  2
*D26
 10
1381.752765391498
 20
1140.5
 30
0.0
 11
1303.002765391499
 21
1152.249999970198
 31
0.0
 70
   160
  1
（%%c63）
  3
ISO-25
100
AcDbAlignedDimension
 13
1224.2527653915
 23
1063.011746225275
 33
0.0
 14
1381.752765391498
 24
1063.011746225275
 34
0.0
100
AcDbRotatedDimension
1001
ACAD
1000
DSTYLE
1002
{
1070
   270
1070
     2
1070
     6
1000
EX_NORM
1070
     7
1000
EX_NORM
1070
    41
1040
15.0
1070
    42
1040
3.499999940395355
1070
    44
1040
5.0
1070
    73
1070
     0
1070
    74
1070
     0
1070
    75
1070
     0
1070
    76
1070
     0
1070
    77
1070
     1
1070
    78
1070
     8
1070
   140
1040
20.0
1070
   144
1040
0.4
1070
   147
1040
0.0
1070
   173
1070
     1
1070
   176
1070
     3
1070
   177
1070
     3
1070
   178
1070
     2
1070
   271
1070
     1
1070
   277
1070
     2
1070
   279
1070
     2
1070
   280
1070
     0
1070
   287
1070
     5
1070
   340
1005
279
1002
}
  0
DIMENSION
  5
329
330
1F
100
AcDbEntity
  8
穴径詳細図
  6
CONTINUOUS
 62
     3
100
AcDbDimension
  2
*D27
 10
1355.502765391498
 20
1101.0
 30
0.0
 11
1303.002765391499
 21
1112.749999970197
 31
0.0
 70
   160
  1
（%%c42）
  3
ISO-25
100
AcDbAlignedDimension
 13
1250.5027653915
 23
1034.261746225275
 33
0.0
 14
1355.502765391498
 24
1034.261746225275
 34
0.0
100
AcDbRotatedDimension
1001
ACAD
1000
DSTYLE
1002
{
1070
   270
1070
     2
1070
     6
1000
EX_NORM
1070
     7
1000
EX_NORM
1070
    41
1040
15.0
1070
    42
1040
3.499999940395355
1070
    44
1040
5.0
1070
    73
1070
     0
1070
    74
1070
     0
1070
    75
1070
     0
1070
    76
1070
     0
1070
    77
1070
     1
1070
    78
1070
     8
1070
   140
1040
20.0
1070
   144
1040
0.4
1070
   147
1040
0.0
1070
   173
1070
     1
1070
   176
1070
     3
1070
   177
1070
     3
1070
   178
1070
     2
1070
   271
1070
     1
1070
   277
1070
     2
1070
   279
1070
     2
1070
   280
1070
     0
1070
   287
1070
     5
1070
   340
1005
279
1002
}
  0
DIMENSION
  5
336
330
1F
100
AcDbEntity
  8
穴径詳細図
  6
CONTINUOUS
 62
     3
100
AcDbDimension
  2
*D28
 10
1354.2527653915
 20
967.9999999999999
 30
0.0
 11
1303.0027653915
 21
979.7499999701976
 31
0.0
 70
   160
  1
%%c41
  3
ISO-25
100
AcDbAlignedDimension
 13
1251.7527653915
 23
1018.011746225275
 33
0.0
 14
1354.2527653915
 24
1018.011746225275
 34
0.0
100
AcDbRotatedDimension
1001
ACAD
1000
DSTYLE
1002
{
1070
   270
1070
     2
1070
     6
1000
EX_NORM
1070
     7
1000
EX_NORM
1070
    41
1040
15.0
1070
    42
1040
3.499999940395355
1070
    44
1040
5.0
1070
    73
1070
     0
1070
    74
1070
     0
1070
    75
1070
     0
1070
    76
1070
     0
1070
    77
1070
     1
1070
    78
1070
     8
1070
   140
1040
20.0
1070
   144
1040
0.4
1070
   147
1040
0.0
1070
   173
1070
     1
1070
   176
1070
     3
1070
   177
1070
     3
1070
   178
1070
     2
1070
   271
1070
     1
1070
   277
1070
     2
1070
   279
1070
     2
1070
   280
1070
     0
1070
   287
1070
     5
1070
   340
1005
279
1002
}
  0
DIMENSION
  5
343
330
1F
100
AcDbEntity
  8
穴径詳細図
  6
CONTINUOUS
 62
     3
100
AcDbDimension
  2
*D29
 10
1141.0
 20
1063.011746225275
 30
0.0
 11
1129.250000029802
 21
1040.511746225275
 31
0.0
 70
   160
  3
ISO-25
100
AcDbAlignedDimension
 13
1234.7039333512
 23
1018.011746225275
 33
0.0
 14
1224.2527653915
 24
1063.011746225275
 34
0.0
 50
90.0
100
AcDbRotatedDimension
1001
ACAD
1000
DSTYLE
1002
{
1070
   270
1070
     2
1070
     6
1000
EX_NORM
1070
     7
1000
EX_NORM
1070
    41
1040
15.0
1070
    42
1040
3.499999940395355
1070
    44
1040
5.0
1070
    73
1070
     0
1070
    74
1070
     0
1070
    75
1070
     0
1070
    76
1070
     0
1070
    77
1070
     1
1070
    78
1070
     8
1070
   140
1040
20.0
1070
   144
1040
0.4
1070
   147
1040
0.0
1070
   173
1070
     1
1070
   176
1070
     3
1070
   177
1070
     3
1070
   178
1070
     2
1070
   271
1070
     1
1070
   277
1070
     2
1070
   279
1070
     2
1070
   280
1070
     0
1070
   287
1070
     5
1070
   340
1005
279
1002
}
  0
LINE
  5
350
330
1F
100
AcDbEntity
  8
穴径詳細図
  6
CONTINUOUS
 62
     7
100
AcDbLine
 10
1428.301501620475
 20
1032.750000000003
 30
0.0
 11
1428.29569142942
 21
1032.9163821027
 31
0.0
  0
ARC
  5
351
330
1F
100
AcDbEntity
  8
穴径詳細図
  6
CONTINUOUS
 62
     7
100
AcDbCircle
 10
1234.703933351194
 20
1023.011746225274
 30
0.0
 40
5.0
100
AcDbArc
 50
192.9827778966126
 51
270.0000000000002
  0
ARC
  5
352
330
1F
100
AcDbEntity
  8
穴径詳細図
  6
CONTINUOUS
 62
     7
100
AcDbCircle
 10
1217.651274701999
 20
1019.080228325777
 30
0.0
 40
12.5
100
AcDbArc
 50
12.98277789661123
 51
44.99999999999632
  0
LINE
  5
353
330
1F
100
AcDbEntity
  8
穴径詳細図
  6
CONTINUOUS
 62
     7
100
AcDbLine
 10
1214.648843654719
 20
1039.76032890272
 30
0.0
 11
1226.490109466835
 21
1027.919063090609
 31
0.0
  0
LINE
  5
354
330
1F
100
AcDbEntity
  8
穴径詳細図
  6
CONTINUOUS
 62
     7
100
AcDbLine
 10
1234.703933351199
 20
1018.011746225275
 30
0.0
 11
1371.301597431799
 21
1018.011746225274
 31
0.0
  0
ARC
  5
355
330
1F
100
AcDbEntity
  8
穴径詳細図
  6
CONTINUOUS
 62
     7
100
AcDbCircle
 10
1371.301597431806
 20
1023.011746225274
 30
0.0
 40
5.0
100
AcDbArc
 50
270.0000000000002
 51
350.0762107258795
  0
ARC
  5
356
330
1F
100
AcDbEntity
  8
穴径詳細図
  6
CONTINUOUS
 62
     7
100
AcDbCircle
 10
1388.354256081001
 20
1019.080228325777
 30
0.0
 40
12.5
100
AcDbArc
 50
135.0000000000037
 51
167.0172221033887
  0
LINE
  5
357
330
1F
100
AcDbEntity
  8
穴径詳細図
  6
CONTINUOUS
 62
     7
100
AcDbLine
 10
1393.672140703599
 20
1042.075782478039
 30
0.0
 11
1379.515421316168
 21
1027.919063090608
 31
0.0
  0
ARC
  5
358
330
1F
100
AcDbEntity
  8
穴径詳細図
  6
CONTINUOUS
 62
     7
100
AcDbCircle
 10
1329.095052008865
 20
1177.511518136905
 30
0.0
 40
150.0
100
AcDbArc
 50
295.539173409499
 51
297.2685764936693
  0
ARC
  5
359
330
1F
100
AcDbEntity
  8
穴径詳細図
  6
CONTINUOUS
 62
     7
100
AcDbCircle
 10
1403.546397980027
 20
1033.070363741482
 30
0.0
 40
12.5
100
AcDbArc
 50
79.01488010489676
 51
117.2685764936697
  0
LINE
  5
35A
330
1F
100
AcDbEntity
  8
穴径詳細図
  6
CONTINUOUS
 62
     7
100
AcDbLine
 10
1250.5027653915
 20
1034.261746225275
 30
0.0
 11
1251.7527653915
 21
1018.011746225275
 31
0.0
  0
LINE
  5
35B
330
1F
100
AcDbEntity
  8
穴径詳細図
  6
CONTINUOUS
 62
     7
100
AcDbLine
 10
1355.502765391498
 20
1034.261746225275
 30
0.0
 11
1354.252765391498
 21
1018.011746225275
 31
0.0
  0
LINE
  5
35C
330
1F
100
AcDbEntity
  8
穴径詳細図
  6
CONTINUOUS
 62
     7
100
AcDbLine
 10
1250.5027653915
 20
1034.261746225275
 30
0.0
 11
1355.502765391498
 21
1034.261746225275
 31
0.0
  0
ARC
  5
35D
330
1F
100
AcDbEntity
  8
穴径詳細図
  6
CONTINUOUS
 62
     7
100
AcDbCircle
 10
1250.5027653915
 20
1045.511746225267
 30
0.0
 40
11.24999999999162
100
AcDbArc
 50
174.7948755950003
 51
270.0000000000015
  0
ARC
  5
35E
330
1F
100
AcDbEntity
  8
穴径詳細図
  6
CONTINUOUS
 62
     7
100
AcDbCircle
 10
1355.502765391498
 20
1045.511746225267
 30
0.0
 40
11.24999999999162
100
AcDbArc
 50
269.9999999999986
 51
5.205124404999668
  0
LINE
  5
35F
330
1F
100
AcDbEntity
  8
穴径詳細図
  6
CONTINUOUS
 62
     7
100
AcDbLine
 10
1239.299157144085
 20
1046.532364781967
 30
0.0
 11
1224.2527653915
 21
1063.011746225275
 31
0.0
  0
LINE
  5
360
330
1F
100
AcDbEntity
  8
穴径詳細図
  6
CONTINUOUS
 62
     7
100
AcDbLine
 10
1366.706373638912
 20
1046.532364781967
 30
0.0
 11
1381.752765391498
 21
1063.011746225275
 31
0.0
  0
LINE
  5
361
330
1F
100
AcDbEntity
  8
穴径詳細図
  6
CONTINUOUS
 62
     7
100
AcDbLine
 10
1224.2527653915
 20
1063.011746225275
 30
0.0
 11
1381.752765391498
 21
1063.011746225275
 31
0.0
  0
LINE
  5
362
330
1F
100
AcDbEntity
  8
穴径詳細図
  6
CONTINUOUS
 62
     7
100
AcDbLine
 10
1239.299157144075
 20
1046.532364781975
 30
0.0
 11
1366.70637363892
 21
1046.532364781975
 31
0.0
  0
LINE
  5
363
330
1F
100
AcDbEntity
  8
穴径詳細図
  6
CONTINUOUS
 62
     7
100
AcDbLine
 10
1159.100608211982
 20
1074.679396211514
 30
0.0
 11
1224.2527653915
 21
1063.011746225275
 31
0.0
  0
LINE
  5
364
330
1F
100
AcDbEntity
  8
穴径詳細図
  6
CONTINUOUS
 62
     7
100
AcDbLine
 10
1214.648843654724
 20
1039.760328902716
 30
0.0
 11
1154.804080258856
 21
1050.312575343522
 31
0.0
  0
ARC
  5
365
330
1F
100
AcDbEntity
  8
穴径詳細図
  6
CONTINUOUS
 62
     7
100
AcDbCircle
 10
1328.314241986378
 20
1176.01318080148
 30
0.0
 40
125.0
100
AcDbArc
 50
295.3095270735225
 51
306.158538925469
  0
LINE
  5
366
330
1F
100
AcDbEntity
  8
穴径詳細図
  6
EXLTYPE3
 62
     6
100
AcDbLine
 10
1303.002765391499
 20
1075.511746225274
 30
0.0
 11
1303.002765391499
 21
1003.5
 31
0.0
  0
ENDSEC
  0
SECTION
  2
OBJECTS
  0
DICTIONARY
  5
C
330
0
100
AcDbDictionary
  3
ACAD_GROUP
350
D
  3
ACAD_LAYOUT
350
1A
  3
ACAD_MATERIAL
350
3B
  3
ACAD_MLEADERSTYLE
350
389
  3
ACAD_MLINESTYLE
350
17
  3
ACAD_PLOTSETTINGS
350
19
  3
ACAD_VISUALSTYLE
350
2A
  3
ACDBHEADERROUNDTRIPXREC
350
367
  3
ACDBVARIABLEDICTIONARY
350
387
  0
DICTIONARY
  5
D
102
{ACAD_REACTORS
330
C
102
}
330
C
100
AcDbDictionary
  0
DICTIONARY
  5
1A
102
{ACAD_REACTORS
330
C
102
}
330
C
100
AcDbDictionary
  0
DICTIONARY
  5
3B
102
{ACAD_REACTORS
330
C
102
}
330
C
100
AcDbDictionary
  3
BYBLOCK
350
3D
  3
BYLAYER
350
3C
  3
GLOBAL
350
3E
  0
DICTIONARY
  5
389
102
{ACAD_REACTORS
330
C
102
}
330
C
100
AcDbDictionary
  0
DICTIONARY
  5
17
102
{ACAD_REACTORS
330
C
102
}
330
C
100
AcDbDictionary
  3
STANDARD
350
18
  0
DICTIONARY
  5
19
102
{ACAD_REACTORS
330
C
102
}
330
C
100
AcDbDictionary
  0
DICTIONARY
  5
2A
102
{ACAD_REACTORS
330
C
102
}
330
C
100
AcDbDictionary
  3
2DWIREFRAME
350
2F
  3
3D_HIDDEN
350
31
  3
3DWIREFRAME
350
30
  3
BASIC
350
32
  3
BRIGHTEN
350
36
  3
COLORCHANGE
350
3A
  3
CONCEPTUAL
350
34
  3
DIM
350
35
  3
FACEPATTERN
350
39
  3
FLAT
350
2B
  3
FLATWITHEDGES
350
2C
  3
GOURAUD
350
2D
  3
GOURAUDWITHEDGES
350
2E
  3
LINEPATTERN
350
38
  3
REALISTIC
350
33
  3
THICKEN
350
37
  0
DICTIONARY
  5
367
102
{ACAD_REACTORS
330
C
102
}
330
C
100
AcDbDictionary
  3
CEPSNTYPE
350
370
  3
DIMSTYLEDATA
350
386
  3
FINGERPRINTGUID
350
371
  3
HYPERLINKBASE
350
36A
  3
INSUNITS
350
36F
  3
LAYOUTDICT
350
36C
  3
LWETCUNION
350
36E
  3
PLOTSETDICT
350
36D
  3
PSVPSCALE
350
373
  3
PUCSBASE
350
376
  3
PUCSORGBACK
350
37C
  3
PUCSORGBOTTOM
350
378
  3
PUCSORGFRONT
350
37B
  3
PUCSORGLEFT
350
379
  3
PUCSORGRIGHT
350
37A
  3
PUCSORGTOP
350
377
  3
PUCSORTHOREF
350
374
  3
PUCSORTHOVIEW
350
375
  3
STYLESHEET
350
36B
  3
TSTACKALIGN
350
368
  3
TSTACKSIZE
350
369
  3
UCSBASE
350
37F
  3
UCSORGBACK
350
385
  3
UCSORGBOTTOM
350
381
  3
UCSORGFRONT
350
384
  3
UCSORGLEFT
350
382
  3
UCSORGRIGHT
350
383
  3
UCSORGTOP
350
380
  3
UCSORTHOREF
350
37D
  3
UCSORTHOVIEW
350
37E
  3
VERSIONGUID
350
372
  0
DICTIONARY
  5
387
102
{ACAD_REACTORS
330
C
102
}
330
C
100
AcDbDictionary
  3
DIMASSOC
350
38C
  3
HIDETEXT
350
38D
  3
PSOLHEIGHT
350
38B
  3
PSOLWIDTH
350
38A
  0
MATERIAL
  5
3D
102
{ACAD_REACTORS
330
3B
102
}
102
{ACAD_XDICTIONARY
360
390
102
}
330
3B
100
AcDbMaterial
  1
ByBlock
  0
MATERIAL
  5
3C
102
{ACAD_REACTORS
330
3B
102
}
102
{ACAD_XDICTIONARY
360
38E
102
}
330
3B
100
AcDbMaterial
  1
ByLayer
  0
MATERIAL
  5
3E
102
{ACAD_REACTORS
330
3B
102
}
102
{ACAD_XDICTIONARY
360
392
102
}
330
3B
100
AcDbMaterial
  1
Global
  0
MLINESTYLE
  5
18
102
{ACAD_REACTORS
330
17
102
}
330
17
100
AcDbMlineStyle
  2
Standard
 70
     0
  3

 62
   256
 51
90.0
 52
90.0
 71
     2
 49
0.5
 62
   256
  6
BYLAYER
 49
-0.5
 62
   256
  6
BYLAYER
  0
ACAD_PROXY_OBJECT
  5
2F
102
{ACAD_REACTORS
330
2A
102
}
330
2A
100
AcDbProxyObject
 90
      499
 91
      501
 93
      436
310
42CC9915DA5C99599C985B595049028333333333333E3BF0000000000000FB0107901411070040501600405405064090741402480A0340
1001
ACAD
1000
AcDbSavedByObjectVersion
1070
     0
  0
ACAD_PROXY_OBJECT
  5
31
102
{ACAD_REACTORS
330
2A
102
}
330
2A
100
AcDbProxyObject
 90
      499
 91
      501
 93
      500
310
424CD108121A5919195B90640502408333333333333E3BF0000000000000FB01079024090700405020000000000001110200405405064090740C02480A0340
1001
ACAD
1000
AcDbSavedByObjectVersion
1070
     0
  0
ACAD_PROXY_OBJECT
  5
30
102
{ACAD_REACTORS
330
2A
102
}
330
2A
100
AcDbProxyObject
 90
      499
 91
      501
 93
      436
310
42CCD915DA5C99599C985B595059028333333333333E3BF0000000000000FB0107901411070040501600405405064090741402480A0340
1001
ACAD
1000
AcDbSavedByObjectVersion
1070
     0
  0
ACAD_PROXY_OBJECT
  5
32
102
{ACAD_REACTORS
330
2A
102
}
330
2A
100
AcDbProxyObject
 90
      499
 91
      501
 93
      388
310
4150985CDA58D07406404333333333333E3BF0000000000000FB0107A41107004050150841D405064090741402480A0350
1001
ACAD
1000
AcDbSavedByObjectVersion
1070
     0
  0
ACAD_PROXY_OBJECT
  5
36
102
{ACAD_REACTORS
330
2A
102
}
330
2A
100
AcDbProxyObject
 90
      499
 91
      501
 93
      428
310
42109C9A59DA1D195B90C409028333333333333E3BF0000000000000FB010790141107004050150841D405064090741402480A029950
1001
ACAD
1000
AcDbSavedByObjectVersion
1070
     0
  0
ACAD_PROXY_OBJECT
  5
3A
102
{ACAD_REACTORS
330
2A
102
}
330
2A
100
AcDbProxyObject
 90
      499
 91
      501
 93
      452
310
42D0DBDB1BDC90DA185B99D95104090240C333333333333E3BF0000000000000FB0108901411070040501508421405064090741402480A0350
1001
ACAD
1000
AcDbSavedByObjectVersion
1070
     0
  0
ACAD_PROXY_OBJECT
  5
34
102
{ACAD_REACTORS
330
2A
102
}
330
2A
100
AcDbProxyObject
 90
      499
 91
      501
 93
      500
310
4290DBDB98D95C1D1D585B10940D028333333333333E3BF0000000000000FB0107902409070040501000000000000111010841D405064090740C02480A0340
1001
ACAD
1000
AcDbSavedByObjectVersion
1070
     0
  0
ACAD_PROXY_OBJECT
  5
35
102
{ACAD_REACTORS
330
2A
102
}
330
2A
100
AcDbProxyObject
 90
      499
 91
      501
 93
      412
310
40D11A5B50B409028333333333333E3BF0000000000000FB010790141107004050150841D405064090741402480A02677FFFFFD0
1001
ACAD
1000
AcDbSavedByObjectVersion
1070
     0
  0
ACAD_PROXY_OBJECT
  5
39
102
{ACAD_REACTORS
330
2A
102
}
330
2A
100
AcDbProxyObject
 90
      499
 91
      501
 93
      444
310
42D19858D95C185D1D195C9B90F409028333333333333E3BF0000000000000FB010790141107004050150841D405064090741402480A0350
1001
ACAD
1000
AcDbSavedByObjectVersion
1070
     0
  0
ACAD_PROXY_OBJECT
  5
2B
102
{ACAD_REACTORS
330
2A
102
}
330
2A
100
AcDbProxyObject
 90
      499
 91
      501
 93
      388
310
41119B185D240901404333333333333E3BF0000000000000F9010740A41107004050150841D405064090741402480A1B50
1001
ACAD
1000
AcDbSavedByObjectVersion
1070
     0
  0
ACAD_PROXY_OBJECT
  5
2C
102
{ACAD_REACTORS
330
2A
102
}
330
2A
100
AcDbProxyObject
 90
      499
 91
      501
 93
      476
310
43519B185D15DA5D1A115919D95CD0140901404333333333333E3BF0000000000000F9010740901411070040501600405405064090741402480A1B50
1001
ACAD
1000
AcDbSavedByObjectVersion
1070
     0
  0
ACAD_PROXY_OBJECT
  5
2D
102
{ACAD_REACTORS
330
2A
102
}
330
2A
100
AcDbProxyObject
 90
      499
 91
      501
 93
      412
310
41D1DBDD5C985D5910240902404333333333333E3BF0000000000000F9010740A411070040501641D405064090741402480A1B50
1001
ACAD
1000
AcDbSavedByObjectVersion
1070
     0
  0
ACAD_PROXY_OBJECT
  5
2E
102
{ACAD_REACTORS
330
2A
102
}
330
2A
100
AcDbProxyObject
 90
      499
 91
      501
 93
      500
310
4411DBDD5C985D5915DA5D1A115919D95CD0340902404333333333333E3BF0000000000000F9010740901411070040501600405405064090741402480A1B50
1001
ACAD
1000
AcDbSavedByObjectVersion
1070
     0
  0
ACAD_PROXY_OBJECT
  5
38
102
{ACAD_REACTORS
330
2A
102
}
330
2A
100
AcDbProxyObject
 90
      499
 91
      501
 93
      444
310
42D31A5B995C185D1D195C9B90E409028333333333333E3BF0000000000000FB010790141107004050750841D405064090741402483A0350
1001
ACAD
1000
AcDbSavedByObjectVersion
1070
     0
  0
ACAD_PROXY_OBJECT
  5
33
102
{ACAD_REACTORS
330
2A
102
}
330
2A
100
AcDbProxyObject
 90
      499
 91
      501
 93
      420
310
425499585B1A5CDD1A58D08409028333333333333E3BF0000000000000FB01079019070040501508421405064090741402480A1B40
1001
ACAD
1000
AcDbSavedByObjectVersion
1070
     0
  0
ACAD_PROXY_OBJECT
  5
37
102
{ACAD_REACTORS
330
2A
102
}
330
2A
100
AcDbProxyObject
 90
      499
 91
      501
 93
      412
310
41D51A1A58DAD95B90D409028333333333333E3BF0000000000000FB010790141107004050150C41D405064090741402480A0350
1001
ACAD
1000
AcDbSavedByObjectVersion
1070
     0
  0
XRECORD
  5
370
102
{ACAD_REACTORS
330
367
102
}
330
367
100
AcDbXrecord
 90
        0
  0
XRECORD
  5
386
102
{ACAD_REACTORS
330
367
102
}
330
367
100
AcDbXrecord
1000
DSTYLE
1002
{
1070
   340
340
11
1002
}
  0
XRECORD
  5
371
102
{ACAD_REACTORS
330
367
102
}
330
367
100
AcDbXrecord
  1
{BD3F0045-7E14-45C0-8172-9EA481B6FB05}
  0
XRECORD
  5
36A
102
{ACAD_REACTORS
330
367
102
}
330
367
100
AcDbXrecord
  1

  0
XRECORD
  5
36F
102
{ACAD_REACTORS
330
367
102
}
330
367
100
AcDbXrecord
 90
        4
  0
XRECORD
  5
36C
102
{ACAD_REACTORS
330
367
102
}
330
367
100
AcDbXrecord
340
1A
  0
XRECORD
  5
36E
102
{ACAD_REACTORS
330
367
102
}
330
367
100
AcDbXrecord
 90
    10781
  0
XRECORD
  5
36D
102
{ACAD_REACTORS
330
367
102
}
330
367
100
AcDbXrecord
340
19
  0
XRECORD
  5
373
102
{ACAD_REACTORS
330
367
102
}
330
367
100
AcDbXrecord
 40
0.0
  0
XRECORD
  5
376
102
{ACAD_REACTORS
330
367
102
}
330
367
100
AcDbXrecord
340
0
  0
XRECORD
  5
37C
102
{ACAD_REACTORS
330
367
102
}
330
367
100
AcDbXrecord
 10
0.0
 20
0.0
 30
0.0
  0
XRECORD
  5
378
102
{ACAD_REACTORS
330
367
102
}
330
367
100
AcDbXrecord
 10
0.0
 20
0.0
 30
0.0
  0
XRECORD
  5
37B
102
{ACAD_REACTORS
330
367
102
}
330
367
100
AcDbXrecord
 10
0.0
 20
0.0
 30
0.0
  0
XRECORD
  5
379
102
{ACAD_REACTORS
330
367
102
}
330
367
100
AcDbXrecord
 10
0.0
 20
0.0
 30
0.0
  0
XRECORD
  5
37A
102
{ACAD_REACTORS
330
367
102
}
330
367
100
AcDbXrecord
 10
0.0
 20
0.0
 30
0.0
  0
XRECORD
  5
377
102
{ACAD_REACTORS
330
367
102
}
330
367
100
AcDbXrecord
 10
0.0
 20
0.0
 30
0.0
  0
XRECORD
  5
374
102
{ACAD_REACTORS
330
367
102
}
330
367
100
AcDbXrecord
340
0
  0
XRECORD
  5
375
102
{ACAD_REACTORS
330
367
102
}
330
367
100
AcDbXrecord
 70
     0
  0
XRECORD
  5
36B
102
{ACAD_REACTORS
330
367
102
}
330
367
100
AcDbXrecord
  1

  0
XRECORD
  5
368
102
{ACAD_REACTORS
330
367
102
}
330
367
100
AcDbXrecord
 90
        1
  0
XRECORD
  5
369
102
{ACAD_REACTORS
330
367
102
}
330
367
100
AcDbXrecord
 90
       70
  0
XRECORD
  5
37F
102
{ACAD_REACTORS
330
367
102
}
330
367
100
AcDbXrecord
340
0
  0
XRECORD
  5
385
102
{ACAD_REACTORS
330
367
102
}
330
367
100
AcDbXrecord
 10
0.0
 20
0.0
 30
0.0
  0
XRECORD
  5
381
102
{ACAD_REACTORS
330
367
102
}
330
367
100
AcDbXrecord
 10
0.0
 20
0.0
 30
0.0
  0
XRECORD
  5
384
102
{ACAD_REACTORS
330
367
102
}
330
367
100
AcDbXrecord
 10
0.0
 20
0.0
 30
0.0
  0
XRECORD
  5
382
102
{ACAD_REACTORS
330
367
102
}
330
367
100
AcDbXrecord
 10
0.0
 20
0.0
 30
0.0
  0
XRECORD
  5
383
102
{ACAD_REACTORS
330
367
102
}
330
367
100
AcDbXrecord
 10
0.0
 20
0.0
 30
0.0
  0
XRECORD
  5
380
102
{ACAD_REACTORS
330
367
102
}
330
367
100
AcDbXrecord
 10
0.0
 20
0.0
 30
0.0
  0
XRECORD
  5
37D
102
{ACAD_REACTORS
330
367
102
}
330
367
100
AcDbXrecord
340
0
  0
XRECORD
  5
37E
102
{ACAD_REACTORS
330
367
102
}
330
367
100
AcDbXrecord
 70
     0
  0
XRECORD
  5
372
102
{ACAD_REACTORS
330
367
102
}
330
367
100
AcDbXrecord
  1
{FAEB1C32-E019-11D5-929B-00C0DF256EC4}
  0
DICTIONARYVAR
  5
38C
102
{ACAD_REACTORS
330
387
102
}
330
387
100
DictionaryVariables
280
     0
  1
2
  0
DICTIONARYVAR
  5
38D
102
{ACAD_REACTORS
330
387
102
}
330
387
100
DictionaryVariables
280
     0
  1
1
  0
DICTIONARYVAR
  5
38B
102
{ACAD_REACTORS
330
387
102
}
330
387
100
DictionaryVariables
280
     0
  1
80.000000
  0
DICTIONARYVAR
  5
38A
102
{ACAD_REACTORS
330
387
102
}
330
387
100
DictionaryVariables
280
     0
  1
5.000000
  0
DICTIONARY
  5
390
330
3D
100
AcDbDictionary
280
     1
  3
ACAD_XREC_ROUNDTRIP
360
391
  0
DICTIONARY
  5
38E
330
3C
100
AcDbDictionary
280
     1
  3
ACAD_XREC_ROUNDTRIP
360
38F
  0
DICTIONARY
  5
392
330
3E
100
AcDbDictionary
280
     1
  3
ACAD_XREC_ROUNDTRIP
360
393
  0
XRECORD
  5
391
102
{ACAD_REACTORS
330
390
102
}
330
390
100
AcDbXrecord
102
MATERIAL
148
0.0
149
0.0
149
0.0
 93
        0
 94
      127
282
     0
 72
     1
 77
     1
171
     1
175
     1
179
     1
273
     0
  0
XRECORD
  5
38F
102
{ACAD_REACTORS
330
38E
102
}
330
38E
100
AcDbXrecord
102
MATERIAL
148
0.0
149
0.0
149
0.0
 93
        0
 94
      127
282
     0
 72
     1
 77
     1
171
     1
175
     1
179
     1
273
     0
  0
XRECORD
  5
393
102
{ACAD_REACTORS
330
392
102
}
330
392
100
AcDbXrecord
102
MATERIAL
148
0.0
149
0.0
149
0.0
 93
        0
 94
      127
282
     0
 72
     1
 77
     1
171
     1
175
     1
179
     1
273
     0
  0
ENDSEC
  0
EOF
