  0
SECTION
  2
HEADER
  9
$ACADVER
  1
AC1014
  9
$ACADMAINTVER
 70
     9
  9
$DWGCODEPAGE
  3
ANSI_932
  9
$INSBASE
 10
0.0
 20
0.0
 30
0.0
  9
$EXTMIN
 10
-0.6999999999999901
 20
13.5
 30
0.0
  9
$EXTMAX
 10
200.0
 20
288.5
 30
0.0
  9
$LIMMIN
 10
0.0
 20
0.0
  9
$LIMMAX
 10
210.0
 20
297.0
  9
$ORTHOMODE
 70
     0
  9
$REGENMODE
 70
     1
  9
$FILLMODE
 70
     1
  9
$QTEXTMODE
 70
     0
  9
$MIRRTEXT
 70
     1
  9
$DRAGMODE
 70
     2
  9
$LTSCALE
 40
1.0
  9
$OSMODE
 70
    37
  9
$ATTMODE
 70
     1
  9
$TEXTSIZE
 40
2.5
  9
$TRACEWID
 40
1.0
  9
$TEXTSTYLE
  7
STANDARD
  9
$CLAYER
  8
化粧台
  9
$CELTYPE
  6
BYLAYER
  9
$CECOLOR
 62
   256
  9
$CELTSCALE
 40
1.0
  9
$DELOBJ
 70
     1
  9
$DISPSILH
 70
     0
  9
$DIMSCALE
 40
1.0
  9
$DIMASZ
 40
2.5
  9
$DIMEXO
 40
0.625
  9
$DIMDLI
 40
3.75
  9
$DIMRND
 40
0.0
  9
$DIMDLE
 40
0.0
  9
$DIMEXE
 40
1.25
  9
$DIMTP
 40
0.0
  9
$DIMTM
 40
0.0
  9
$DIMTXT
 40
2.5
  9
$DIMCEN
 40
2.5
  9
$DIMTSZ
 40
0.0
  9
$DIMTOL
 70
     0
  9
$DIMLIM
 70
     0
  9
$DIMTIH
 70
     0
  9
$DIMTOH
 70
     0
  9
$DIMSE1
 70
     0
  9
$DIMSE2
 70
     0
  9
$DIMTAD
 70
     1
  9
$DIMZIN
 70
     8
  9
$DIMBLK
  1

  9
$DIMASO
 70
     1
  9
$DIMSHO
 70
     1
  9
$DIMPOST
  1

  9
$DIMAPOST
  1

  9
$DIMALT
 70
     0
  9
$DIMALTD
 70
     3
  9
$DIMALTF
 40
0.03937007874016
  9
$DIMLFAC
 40
1.0
  9
$DIMTOFL
 70
     1
  9
$DIMTVP
 40
0.0
  9
$DIMTIX
 70
     0
  9
$DIMSOXD
 70
     0
  9
$DIMSAH
 70
     0
  9
$DIMBLK1
  1

  9
$DIMBLK2
  1

  9
$DIMSTYLE
  2
ISO-25
  9
$DIMCLRD
 70
     0
  9
$DIMCLRE
 70
     0
  9
$DIMCLRT
 70
     0
  9
$DIMTFAC
 40
1.0
  9
$DIMGAP
 40
0.625
  9
$DIMJUST
 70
     0
  9
$DIMSD1
 70
     0
  9
$DIMSD2
 70
     0
  9
$DIMTOLJ
 70
     0
  9
$DIMTZIN
 70
     8
  9
$DIMALTZ
 70
     0
  9
$DIMALTTZ
 70
     0
  9
$DIMFIT
 70
     3
  9
$DIMUPT
 70
     0
  9
$DIMUNIT
 70
     2
  9
$DIMDEC
 70
     2
  9
$DIMTDEC
 70
     2
  9
$DIMALTU
 70
     2
  9
$DIMALTTD
 70
     3
  9
$DIMTXSTY
  7
STANDARD
  9
$DIMAUNIT
 70
     0
  9
$LUNITS
 70
     2
  9
$LUPREC
 70
     4
  9
$SKETCHINC
 40
1.0
  9
$FILLETRAD
 40
10.0
  9
$AUNITS
 70
     0
  9
$AUPREC
 70
     0
  9
$MENU
  1
.
  9
$ELEVATION
 40
0.0
  9
$PELEVATION
 40
0.0
  9
$THICKNESS
 40
0.0
  9
$LIMCHECK
 70
     0
  9
$CHAMFERA
 40
10.0
  9
$CHAMFERB
 40
10.0
  9
$CHAMFERC
 40
20.0
  9
$CHAMFERD
 40
0.0
  9
$SKPOLY
 70
     0
  9
$TDCREATE
 40
2460594.492208287
  9
$TDUPDATE
 40
2460594.492208657
  9
$TDINDWG
 40
0.0000000116
  9
$TDUSRTIMER
 40
0.0000000116
  9
$USRTIMER
 70
     1
  9
$ANGBASE
 50
0.0
  9
$ANGDIR
 70
     0
  9
$PDMODE
 70
     0
  9
$PDSIZE
 40
0.0
  9
$PLINEWID
 40
0.0
  9
$COORDS
 70
     1
  9
$SPLFRAME
 70
     0
  9
$SPLINETYPE
 70
     6
  9
$SPLINESEGS
 70
     8
  9
$ATTDIA
 70
     0
  9
$ATTREQ
 70
     1
  9
$HANDLING
 70
     1
  9
$HANDSEED
  5
225
  9
$SURFTAB1
 70
     6
  9
$SURFTAB2
 70
     6
  9
$SURFTYPE
 70
     6
  9
$SURFU
 70
     6
  9
$SURFV
 70
     6
  9
$UCSNAME
  2

  9
$UCSORG
 10
0.0
 20
0.0
 30
0.0
  9
$UCSXDIR
 10
1.0
 20
0.0
 30
0.0
  9
$UCSYDIR
 10
0.0
 20
1.0
 30
0.0
  9
$PUCSNAME
  2

  9
$PUCSORG
 10
0.0
 20
0.0
 30
0.0
  9
$PUCSXDIR
 10
1.0
 20
0.0
 30
0.0
  9
$PUCSYDIR
 10
0.0
 20
1.0
 30
0.0
  9
$USERI1
 70
     0
  9
$USERI2
 70
     0
  9
$USERI3
 70
     0
  9
$USERI4
 70
     0
  9
$USERI5
 70
     0
  9
$USERR1
 40
0.0
  9
$USERR2
 40
0.0
  9
$USERR3
 40
0.0
  9
$USERR4
 40
0.0
  9
$USERR5
 40
0.0
  9
$WORLDVIEW
 70
     1
  9
$SHADEDGE
 70
     3
  9
$SHADEDIF
 70
    70
  9
$TILEMODE
 70
     1
  9
$MAXACTVP
 70
    64
  9
$PINSBASE
 10
0.0
 20
0.0
 30
0.0
  9
$PLIMCHECK
 70
     0
  9
$PEXTMIN
 10
1.000000000000000E+20
 20
1.000000000000000E+20
 30
1.000000000000000E+20
  9
$PEXTMAX
 10
-1.000000000000000E+20
 20
-1.000000000000000E+20
 30
-1.000000000000000E+20
  9
$PLIMMIN
 10
0.0
 20
0.0
  9
$PLIMMAX
 10
420.0
 20
297.0
  9
$UNITMODE
 70
     0
  9
$VISRETAIN
 70
     1
  9
$PLINEGEN
 70
     0
  9
$PSLTSCALE
 70
     1
  9
$TREEDEPTH
 70
  3020
  9
$PICKSTYLE
 70
     1
  9
$CMLSTYLE
  2
STANDARD
  9
$CMLJUST
 70
     0
  9
$CMLSCALE
 40
20.0
  9
$PROXYGRAPHICS
 70
     1
  9
$MEASUREMENT
 70
     1
  0
ENDSEC
  0
SECTION
  2
CLASSES
  0
CLASS
  1
ACDBDICTIONARYWDFLT
  2
AcDbDictionaryWithDefault
  3
ObjectDBX Classes
 90
        0
280
     0
281
     0
  0
CLASS
  1
VISUALSTYLE
  2
AcDbVisualStyle
  3
ObjectDBX Classes
 90
     4095
280
     0
281
     0
  0
CLASS
  1
MATERIAL
  2
AcDbMaterial
  3
ObjectDBX Classes
 90
     1153
280
     0
281
     0
  0
CLASS
  1
SUN
  2
AcDbSun
  3
SCENEOE
 90
     1024
280
     0
281
     0
  0
CLASS
  1
DICTIONARYVAR
  2
AcDbDictionaryVar
  3
ObjectDBX Classes
 90
        0
280
     0
281
     0
  0
CLASS
  1
XRECORD
  2
AcDbXrecord
  3
AutoCAD 2000
 90
        0
280
     0
281
     0
  0
CLASS
  1
LWPOLYLINE
  2
AcDbPolyline
  3
AutoCAD 2000
 90
        0
280
     0
281
     1
  0
CLASS
  1
HATCH
  2
AcDbHatch
  3
AutoCAD 2000
 90
        0
280
     0
281
     1
  0
CLASS
  1
ACDBPLACEHOLDER
  2
AcDbPlaceHolder
  3
ObjectDBX Classes
 90
        0
280
     0
281
     0
  0
CLASS
  1
LAYOUT
  2
AcDbLayout
  3
ObjectDBX Classes
 90
        0
280
     0
281
     0
  0
ENDSEC
  0
SECTION
  2
TABLES
  0
TABLE
  2
VPORT
  5
8
330
0
100
AcDbSymbolTable
 70
     1
  0
VPORT
  5
29
330
8
100
AcDbSymbolTableRecord
100
AcDbViewportTableRecord
  2
*ACTIVE
 70
     0
 10
0.0
 20
0.0
 11
1.0
 21
1.0
 12
996.5000000000001
 22
1510.0
 13
0.0
 23
0.0
 14
10.0
 24
10.0
 15
10.0
 25
10.0
 16
0.0
 26
0.0
 36
1.0
 17
0.0
 27
0.0
 37
0.0
 40
2750.0
 41
0.7298181818181818
 42
50.0
 43
0.0
 44
0.0
 50
0.0
 51
0.0
 71
     0
 72
  1000
 73
     1
 74
     3
 75
     0
 76
     0
 77
     0
 78
     0
  0
ENDTAB
  0
TABLE
  2
LTYPE
  5
5
330
0
100
AcDbSymbolTable
 70
     7
  0
LTYPE
  5
14
330
5
100
AcDbSymbolTableRecord
100
AcDbLinetypeTableRecord
  2
BYBLOCK
 70
     0
  3

 72
    65
 73
     0
 40
0.0
  0
LTYPE
  5
15
330
5
100
AcDbSymbolTableRecord
100
AcDbLinetypeTableRecord
  2
BYLAYER
 70
     0
  3

 72
    65
 73
     0
 40
0.0
  0
LTYPE
  5
16
330
5
100
AcDbSymbolTableRecord
100
AcDbLinetypeTableRecord
  2
CONTINUOUS
 70
     0
  3
Solid line
 72
    65
 73
     0
 40
0.0
  0
LTYPE
  5
40
330
5
100
AcDbSymbolTableRecord
100
AcDbLinetypeTableRecord
  2
EXLTYPE1
 70
     0
  3
破線
 72
    65
 73
     2
 40
3.0
 49
2.0
 74
     0
 49
-1.0
 74
     0
  0
LTYPE
  5
41
330
5
100
AcDbSymbolTableRecord
100
AcDbLinetypeTableRecord
  2
EXLTYPE2
 70
     0
  3
点線
 72
    65
 73
     2
 40
2.0
 49
1.0
 74
     0
 49
-1.0
 74
     0
  0
LTYPE
  5
42
330
5
100
AcDbSymbolTableRecord
100
AcDbLinetypeTableRecord
  2
EXLTYPE3
 70
     0
  3
一点鎖線
 72
    65
 73
     4
 40
10.0
 49
7.0
 74
     0
 49
-1.0
 74
     0
 49
1.0
 74
     0
 49
-1.0
 74
     0
  0
LTYPE
  5
43
330
5
100
AcDbSymbolTableRecord
100
AcDbLinetypeTableRecord
  2
EXLTYPE4
 70
     0
  3
二点鎖線
 72
    65
 73
     6
 40
12.0
 49
7.0
 74
     0
 49
-1.0
 74
     0
 49
1.0
 74
     0
 49
-1.0
 74
     0
 49
1.0
 74
     0
 49
-1.0
 74
     0
  0
LTYPE
  5
44
330
5
100
AcDbSymbolTableRecord
100
AcDbLinetypeTableRecord
  2
EXLTYPE5
 70
     0
  3
三点鎖線
 72
    65
 73
     8
 40
37.0
 49
30.0
 74
     0
 49
-1.0
 74
     0
 49
1.0
 74
     0
 49
-1.0
 74
     0
 49
1.0
 74
     0
 49
-1.0
 74
     0
 49
1.0
 74
     0
 49
-1.0
 74
     0
  0
LTYPE
  5
45
330
5
100
AcDbSymbolTableRecord
100
AcDbLinetypeTableRecord
  2
EXLTYPE6
 70
     0
  3
四点鎖線
 72
    65
 73
    10
 40
39.0
 49
30.0
 74
     0
 49
-1.0
 74
     0
 49
1.0
 74
     0
 49
-1.0
 74
     0
 49
1.0
 74
     0
 49
-1.0
 74
     0
 49
1.0
 74
     0
 49
-1.0
 74
     0
 49
1.0
 74
     0
 49
-1.0
 74
     0
  0
ENDTAB
  0
TABLE
  2
LAYER
  5
2
330
0
100
AcDbSymbolTable
 70
     7
  0
LAYER
  5
10
330
2
100
AcDbSymbolTableRecord
100
AcDbLayerTableRecord
  2
0
 70
     0
 62
     7
  6
CONTINUOUS
  0
LAYER
  5
48
330
2
100
AcDbSymbolTableRecord
100
AcDbLayerTableRecord
  2
枠_表
 70
     0
 62
     7
  6
CONTINUOUS
  0
LAYER
  5
49
330
2
100
AcDbSymbolTableRecord
100
AcDbLayerTableRecord
  2
化粧台
 70
     0
 62
     7
  6
CONTINUOUS
  0
LAYER
  5
4A
330
2
100
AcDbSymbolTableRecord
100
AcDbLayerTableRecord
  2
鏡台
 70
     0
 62
     7
  6
CONTINUOUS
  0
LAYER
  5
4B
330
2
100
AcDbSymbolTableRecord
100
AcDbLayerTableRecord
  2
付属金具
 70
     0
 62
     7
  6
CONTINUOUS
  0
LAYER
  5
4C
330
2
100
AcDbSymbolTableRecord
100
AcDbLayerTableRecord
  2
寸法
 70
     0
 62
     7
  6
CONTINUOUS
  0
LAYER
  5
16C
330
2
100
AcDbSymbolTableRecord
100
AcDbLayerTableRecord
  2
DEFPOINTS
 70
     0
 62
     7
  6
CONTINUOUS
  0
ENDTAB
  0
TABLE
  2
STYLE
  5
3
330
0
100
AcDbSymbolTable
 70
     5
  0
STYLE
  5
11
330
3
100
AcDbSymbolTableRecord
100
AcDbTextStyleTableRecord
  2
STANDARD
 70
     0
 40
0.0
 41
1.0
 50
0.0
 71
     0
 42
2.5
  3
monotxt
  4
extfont
  0
STYLE
  5
46
330
3
100
AcDbSymbolTableRecord
100
AcDbTextStyleTableRecord
  2
EXCADSTD
 70
     0
 40
0.0
 41
1.0
 50
0.0
 71
     0
 42
0.2
  3
monotxt
  4
extfont
  0
STYLE
  5
47
330
3
100
AcDbSymbolTableRecord
100
AcDbTextStyleTableRecord
  2
EXCADVERT
 70
     4
 40
0.0
 41
1.0
 50
0.0
 71
     0
 42
0.286885
  3
monotxt
  4
extfont
  0
STYLE
  5
D2
330
3
100
AcDbSymbolTableRecord
100
AcDbTextStyleTableRecord
  2
EXCADTTF1
 70
     0
 40
0.0
 41
1.0
 50
0.0
 71
     0
 42
0.2
  3
MSGOTHIC.TTC
  4

1001
ACAD
1000
MS Gothic
1071
    32817
  0
STYLE
  5
16A
330
3
100
AcDbSymbolTableRecord
100
AcDbTextStyleTableRecord
  2
EXCADDIM1
 70
     0
 40
0.0
 41
0.84
 50
0.0
 71
     0
 42
0.2
  3
monotxt
  4
extfont
  0
ENDTAB
  0
TABLE
  2
VIEW
  5
6
330
0
100
AcDbSymbolTable
 70
     0
  0
ENDTAB
  0
TABLE
  2
UCS
  5
7
330
0
100
AcDbSymbolTable
 70
     0
  0
ENDTAB
  0
TABLE
  2
APPID
  5
9
330
0
100
AcDbSymbolTable
 70
     1
  0
APPID
  5
12
330
9
100
AcDbSymbolTableRecord
100
AcDbRegAppTableRecord
  2
ACAD
 70
     0
  0
ENDTAB
  0
TABLE
  2
DIMSTYLE
  5
A
330
0
100
AcDbSymbolTable
 70
     1
  0
DIMSTYLE
105
27
102
{ACAD_REACTORS
330
16B
330
179
330
186
330
193
330
1A0
330
1AD
330
1BA
330
1C7
330
1D4
330
1E3
102
}
330
A
100
AcDbSymbolTableRecord
100
AcDbDimStyleTableRecord
  2
ISO-25
 70
     0
  3

  4

  5

  6

  7

 40
1.0
 41
2.5
 42
0.625
 43
3.75
 44
1.25
 45
0.0
 46
0.0
 47
0.0
 48
0.0
140
2.5
141
2.5
142
0.0
143
0.03937007874016
144
1.0
145
0.0
146
1.0
147
0.625
 71
     0
 72
     0
 73
     0
 74
     0
 75
     0
 76
     0
 77
     1
 78
     8
170
     0
171
     3
172
     1
173
     0
174
     0
175
     0
176
     0
177
     0
178
     0
270
     2
271
     2
272
     2
273
     2
274
     3
340
11
275
     0
280
     0
281
     0
282
     0
283
     0
284
     8
285
     0
286
     0
287
     5
288
     0
  0
ENDTAB
  0
TABLE
  2
BLOCK_RECORD
  5
1
330
0
100
AcDbSymbolTable
 70
    25
  0
BLOCK_RECORD
  5
1F
330
1
100
AcDbSymbolTableRecord
100
AcDbBlockTableRecord
  2
*MODEL_SPACE
  0
BLOCK_RECORD
  5
1B
330
1
100
AcDbSymbolTableRecord
100
AcDbBlockTableRecord
  2
*PAPER_SPACE
  0
BLOCK_RECORD
  5
4D
330
1
100
AcDbSymbolTableRecord
100
AcDbBlockTableRecord
  2
EX_NORM
  0
BLOCK_RECORD
  5
50
330
1
100
AcDbSymbolTableRecord
100
AcDbBlockTableRecord
  2
EX_BNORM
  0
BLOCK_RECORD
  5
53
330
1
100
AcDbSymbolTableRecord
100
AcDbBlockTableRecord
  2
EX_BCIR
  0
BLOCK_RECORD
  5
56
330
1
100
AcDbSymbolTableRecord
100
AcDbBlockTableRecord
  2
EX_RCIVIL
  0
BLOCK_RECORD
  5
59
330
1
100
AcDbSymbolTableRecord
100
AcDbBlockTableRecord
  2
EX_SLANT
  0
BLOCK_RECORD
  5
5C
330
1
100
AcDbSymbolTableRecord
100
AcDbBlockTableRecord
  2
EX_NONE
  0
BLOCK_RECORD
  5
5F
330
1
100
AcDbSymbolTableRecord
100
AcDbBlockTableRecord
  2
EX_CIVIL
  0
BLOCK_RECORD
  5
62
330
1
100
AcDbSymbolTableRecord
100
AcDbBlockTableRecord
  2
EX_WCIR
  0
BLOCK_RECORD
  5
65
330
1
100
AcDbSymbolTableRecord
100
AcDbBlockTableRecord
  2
EX_WCIR2
  0
BLOCK_RECORD
  5
68
330
1
100
AcDbSymbolTableRecord
100
AcDbBlockTableRecord
  2
EX_WNORM
  0
BLOCK_RECORD
  5
6B
330
1
100
AcDbSymbolTableRecord
100
AcDbBlockTableRecord
  2
EX_NNORM
  0
BLOCK_RECORD
  5
6E
330
1
100
AcDbSymbolTableRecord
100
AcDbBlockTableRecord
  2
EX_BBOX
  0
BLOCK_RECORD
  5
71
330
1
100
AcDbSymbolTableRecord
100
AcDbBlockTableRecord
  2
EX_WBOX
  0
BLOCK_RECORD
  5
74
330
1
100
AcDbSymbolTableRecord
100
AcDbBlockTableRecord
  2
EX_INTEGRAL
  0
BLOCK_RECORD
  5
16D
330
1
100
AcDbSymbolTableRecord
100
AcDbBlockTableRecord
  2
*D15
  0
BLOCK_RECORD
  5
17A
330
1
100
AcDbSymbolTableRecord
100
AcDbBlockTableRecord
  2
*D16
  0
BLOCK_RECORD
  5
187
330
1
100
AcDbSymbolTableRecord
100
AcDbBlockTableRecord
  2
*D17
  0
BLOCK_RECORD
  5
194
330
1
100
AcDbSymbolTableRecord
100
AcDbBlockTableRecord
  2
*D18
  0
BLOCK_RECORD
  5
1A1
330
1
100
AcDbSymbolTableRecord
100
AcDbBlockTableRecord
  2
*D19
  0
BLOCK_RECORD
  5
1AE
330
1
100
AcDbSymbolTableRecord
100
AcDbBlockTableRecord
  2
*D20
  0
BLOCK_RECORD
  5
1BB
330
1
100
AcDbSymbolTableRecord
100
AcDbBlockTableRecord
  2
*D21
  0
BLOCK_RECORD
  5
1C8
330
1
100
AcDbSymbolTableRecord
100
AcDbBlockTableRecord
  2
*D22
  0
BLOCK_RECORD
  5
1D5
330
1
100
AcDbSymbolTableRecord
100
AcDbBlockTableRecord
  2
*D23
  0
BLOCK_RECORD
  5
1E4
330
1
100
AcDbSymbolTableRecord
100
AcDbBlockTableRecord
  2
*D24
  0
ENDTAB
  0
ENDSEC
  0
SECTION
  2
BLOCKS
  0
BLOCK
  5
20
330
1F
100
AcDbEntity
  8
0
100
AcDbBlockBegin
  2
*MODEL_SPACE
 70
     0
 10
0.0
 20
0.0
 30
0.0
  3
*MODEL_SPACE
  1

  0
ENDBLK
  5
21
330
1F
100
AcDbEntity
  8
0
100
AcDbBlockEnd
  0
BLOCK
  5
1C
330
1B
100
AcDbEntity
 67
     1
  8
0
100
AcDbBlockBegin
  2
*PAPER_SPACE
 70
     0
 10
0.0
 20
0.0
 30
0.0
  3
*PAPER_SPACE
  1

  0
ENDBLK
  5
1D
330
1B
100
AcDbEntity
 67
     1
  8
0
100
AcDbBlockEnd
  0
BLOCK
  5
4E
330
4D
100
AcDbEntity
  8
0
100
AcDbBlockBegin
  2
EX_NORM
 70
     0
 10
0.0
 20
0.0
 30
0.0
  3
EX_NORM
  1

  0
LINE
  5
77
330
4D
100
AcDbEntity
  8
0
  6
CONTINUOUS
 62
     0
100
AcDbLine
 10
0.0
 20
0.0
 30
0.0
 11
-1.0
 21
0.0
 31
0.0
  0
LINE
  5
78
330
4D
100
AcDbEntity
  8
0
  6
CONTINUOUS
 62
     0
100
AcDbLine
 10
0.0
 20
0.0
 30
0.0
 11
-1.0
 21
0.166666667
 31
0.0
  0
LINE
  5
79
330
4D
100
AcDbEntity
  8
0
  6
CONTINUOUS
 62
     0
100
AcDbLine
 10
0.0
 20
0.0
 30
0.0
 11
-1.0
 21
-0.166666667
 31
0.0
  0
ENDBLK
  5
4F
330
4D
100
AcDbEntity
  8
0
100
AcDbBlockEnd
  0
BLOCK
  5
51
330
50
100
AcDbEntity
  8
0
100
AcDbBlockBegin
  2
EX_BNORM
 70
     0
 10
0.0
 20
0.0
 30
0.0
  3
EX_BNORM
  1

  0
LINE
  5
7A
330
50
100
AcDbEntity
  8
0
  6
CONTINUOUS
 62
     0
100
AcDbLine
 10
0.0
 20
0.0
 30
0.0
 11
-1.0
 21
0.0
 31
0.0
  0
LINE
  5
7B
330
50
100
AcDbEntity
  8
0
  6
CONTINUOUS
 62
     0
100
AcDbLine
 10
0.0
 20
0.0
 30
0.0
 11
-1.0
 21
0.166666667
 31
0.0
  0
LINE
  5
7C
330
50
100
AcDbEntity
  8
0
  6
CONTINUOUS
 62
     0
100
AcDbLine
 10
0.0
 20
0.0
 30
0.0
 11
-1.0
 21
-0.166666667
 31
0.0
  0
LINE
  5
7D
330
50
100
AcDbEntity
  8
0
  6
CONTINUOUS
 62
     0
100
AcDbLine
 10
0.0
 20
0.0
 30
0.0
 11
-1.0
 21
0.083333333
 31
0.0
  0
LINE
  5
7E
330
50
100
AcDbEntity
  8
0
  6
CONTINUOUS
 62
     0
100
AcDbLine
 10
0.0
 20
0.0
 30
0.0
 11
-1.0
 21
-0.083333333
 31
0.0
  0
LINE
  5
7F
330
50
100
AcDbEntity
  8
0
  6
CONTINUOUS
 62
     0
100
AcDbLine
 10
-1.0
 20
0.166666667
 30
0.0
 11
-1.0
 21
-0.166666667
 31
0.0
  0
ENDBLK
  5
52
330
50
100
AcDbEntity
  8
0
100
AcDbBlockEnd
  0
BLOCK
  5
54
330
53
100
AcDbEntity
  8
0
100
AcDbBlockBegin
  2
EX_BCIR
 70
     0
 10
0.0
 20
0.0
 30
0.0
  3
EX_BCIR
  1

  0
LINE
  5
80
330
53
100
AcDbEntity
  8
0
  6
CONTINUOUS
 62
     0
100
AcDbLine
 10
0.0
 20
0.0
 30
0.0
 11
-1.0
 21
0.0
 31
0.0
  0
CIRCLE
  5
81
330
53
100
AcDbEntity
  8
0
  6
CONTINUOUS
 62
     0
100
AcDbCircle
 10
0.0
 20
0.0
 30
0.0
 40
0.5
  0
CIRCLE
  5
82
330
53
100
AcDbEntity
  8
0
  6
CONTINUOUS
 62
     0
100
AcDbCircle
 10
0.0
 20
0.0
 30
0.0
 40
0.25
  0
ENDBLK
  5
55
330
53
100
AcDbEntity
  8
0
100
AcDbBlockEnd
  0
BLOCK
  5
57
330
56
100
AcDbEntity
  8
0
100
AcDbBlockBegin
  2
EX_RCIVIL
 70
     0
 10
0.0
 20
0.0
 30
0.0
  3
EX_RCIVIL
  1

  0
LINE
  5
83
330
56
100
AcDbEntity
  8
0
  6
CONTINUOUS
 62
     0
100
AcDbLine
 10
0.0
 20
0.0
 30
0.0
 11
-1.0
 21
0.0
 31
0.0
  0
LINE
  5
84
330
56
100
AcDbEntity
  8
0
  6
CONTINUOUS
 62
     0
100
AcDbLine
 10
-1.0
 20
-0.25
 30
0.0
 11
0.0
 21
-0.25
 31
0.0
  0
LINE
  5
85
330
56
100
AcDbEntity
  8
0
  6
CONTINUOUS
 62
     0
100
AcDbLine
 10
-1.0
 20
-0.125
 30
0.0
 11
0.0
 21
-0.125
 31
0.0
  0
ENDBLK
  5
58
330
56
100
AcDbEntity
  8
0
100
AcDbBlockEnd
  0
BLOCK
  5
5A
330
59
100
AcDbEntity
  8
0
100
AcDbBlockBegin
  2
EX_SLANT
 70
     0
 10
0.0
 20
0.0
 30
0.0
  3
EX_SLANT
  1

  0
LINE
  5
86
330
59
100
AcDbEntity
  8
0
  6
CONTINUOUS
 62
     0
100
AcDbLine
 10
0.0
 20
0.0
 30
0.0
 11
-1.0
 21
0.0
 31
0.0
  0
LINE
  5
87
330
59
100
AcDbEntity
  8
0
  6
CONTINUOUS
 62
     0
100
AcDbLine
 10
0.707106781
 20
0.707106781
 30
0.0
 11
-0.707106781
 21
-0.707106781
 31
0.0
  0
ENDBLK
  5
5B
330
59
100
AcDbEntity
  8
0
100
AcDbBlockEnd
  0
BLOCK
  5
5D
330
5C
100
AcDbEntity
  8
0
100
AcDbBlockBegin
  2
EX_NONE
 70
     0
 10
0.0
 20
0.0
 30
0.0
  3
EX_NONE
  1

  0
LINE
  5
88
330
5C
100
AcDbEntity
  8
0
  6
CONTINUOUS
 62
     0
100
AcDbLine
 10
0.0
 20
0.0
 30
0.0
 11
-1.0
 21
0.0
 31
0.0
  0
ENDBLK
  5
5E
330
5C
100
AcDbEntity
  8
0
100
AcDbBlockEnd
  0
BLOCK
  5
60
330
5F
100
AcDbEntity
  8
0
100
AcDbBlockBegin
  2
EX_CIVIL
 70
     0
 10
0.0
 20
0.0
 30
0.0
  3
EX_CIVIL
  1

  0
LINE
  5
89
330
5F
100
AcDbEntity
  8
0
  6
CONTINUOUS
 62
     0
100
AcDbLine
 10
0.0
 20
0.0
 30
0.0
 11
-1.0
 21
0.0
 31
0.0
  0
LINE
  5
8A
330
5F
100
AcDbEntity
  8
0
  6
CONTINUOUS
 62
     0
100
AcDbLine
 10
-1.0
 20
0.25
 30
0.0
 11
0.0
 21
0.25
 31
0.0
  0
LINE
  5
8B
330
5F
100
AcDbEntity
  8
0
  6
CONTINUOUS
 62
     0
100
AcDbLine
 10
-1.0
 20
0.125
 30
0.0
 11
0.0
 21
0.125
 31
0.0
  0
ENDBLK
  5
61
330
5F
100
AcDbEntity
  8
0
100
AcDbBlockEnd
  0
BLOCK
  5
63
330
62
100
AcDbEntity
  8
0
100
AcDbBlockBegin
  2
EX_WCIR
 70
     0
 10
0.0
 20
0.0
 30
0.0
  3
EX_WCIR
  1

  0
LINE
  5
8C
330
62
100
AcDbEntity
  8
0
  6
CONTINUOUS
 62
     0
100
AcDbLine
 10
0.0
 20
0.0
 30
0.0
 11
-1.0
 21
0.0
 31
0.0
  0
CIRCLE
  5
8D
330
62
100
AcDbEntity
  8
0
  6
CONTINUOUS
 62
     0
100
AcDbCircle
 10
0.0
 20
0.0
 30
0.0
 40
0.5
  0
ENDBLK
  5
64
330
62
100
AcDbEntity
  8
0
100
AcDbBlockEnd
  0
BLOCK
  5
66
330
65
100
AcDbEntity
  8
0
100
AcDbBlockBegin
  2
EX_WCIR2
 70
     0
 10
0.0
 20
0.0
 30
0.0
  3
EX_WCIR2
  1

  0
LINE
  5
8E
330
65
100
AcDbEntity
  8
0
  6
CONTINUOUS
 62
     0
100
AcDbLine
 10
-0.5
 20
0.0
 30
0.0
 11
-1.0
 21
0.0
 31
0.0
  0
CIRCLE
  5
8F
330
65
100
AcDbEntity
  8
0
  6
CONTINUOUS
 62
     0
100
AcDbCircle
 10
0.0
 20
0.0
 30
0.0
 40
0.5
  0
ENDBLK
  5
67
330
65
100
AcDbEntity
  8
0
100
AcDbBlockEnd
  0
BLOCK
  5
69
330
68
100
AcDbEntity
  8
0
100
AcDbBlockBegin
  2
EX_WNORM
 70
     0
 10
0.0
 20
0.0
 30
0.0
  3
EX_WNORM
  1

  0
LINE
  5
90
330
68
100
AcDbEntity
  8
0
  6
CONTINUOUS
 62
     0
100
AcDbLine
 10
-1.0
 20
0.0
 30
0.0
 11
-1.0
 21
0.0
 31
0.0
  0
LINE
  5
91
330
68
100
AcDbEntity
  8
0
  6
CONTINUOUS
 62
     0
100
AcDbLine
 10
0.0
 20
0.0
 30
0.0
 11
-1.0
 21
0.166666667
 31
0.0
  0
LINE
  5
92
330
68
100
AcDbEntity
  8
0
  6
CONTINUOUS
 62
     0
100
AcDbLine
 10
0.0
 20
0.0
 30
0.0
 11
-1.0
 21
-0.166666667
 31
0.0
  0
LINE
  5
93
330
68
100
AcDbEntity
  8
0
  6
CONTINUOUS
 62
     0
100
AcDbLine
 10
-1.0
 20
0.166666667
 30
0.0
 11
-1.0
 21
-0.166666667
 31
0.0
  0
ENDBLK
  5
6A
330
68
100
AcDbEntity
  8
0
100
AcDbBlockEnd
  0
BLOCK
  5
6C
330
6B
100
AcDbEntity
  8
0
100
AcDbBlockBegin
  2
EX_NNORM
 70
     0
 10
0.0
 20
0.0
 30
0.0
  3
EX_NNORM
  1

  0
LINE
  5
94
330
6B
100
AcDbEntity
  8
0
  6
CONTINUOUS
 62
     0
100
AcDbLine
 10
0.0
 20
0.0
 30
0.0
 11
-1.0
 21
0.0
 31
0.0
  0
LINE
  5
95
330
6B
100
AcDbEntity
  8
0
  6
CONTINUOUS
 62
     0
100
AcDbLine
 10
0.0
 20
0.0
 30
0.0
 11
-1.0
 21
0.166666667
 31
0.0
  0
LINE
  5
96
330
6B
100
AcDbEntity
  8
0
  6
CONTINUOUS
 62
     0
100
AcDbLine
 10
0.0
 20
0.0
 30
0.0
 11
-1.0
 21
-0.166666667
 31
0.0
  0
LINE
  5
97
330
6B
100
AcDbEntity
  8
0
  6
CONTINUOUS
 62
     0
100
AcDbLine
 10
-1.0
 20
0.166666667
 30
0.0
 11
-1.0
 21
-0.166666667
 31
0.0
  0
ENDBLK
  5
6D
330
6B
100
AcDbEntity
  8
0
100
AcDbBlockEnd
  0
BLOCK
  5
6F
330
6E
100
AcDbEntity
  8
0
100
AcDbBlockBegin
  2
EX_BBOX
 70
     0
 10
0.0
 20
0.0
 30
0.0
  3
EX_BBOX
  1

  0
LINE
  5
98
330
6E
100
AcDbEntity
  8
0
  6
CONTINUOUS
 62
     0
100
AcDbLine
 10
0.0
 20
0.0
 30
0.0
 11
-1.0
 21
0.0
 31
0.0
  0
LINE
  5
99
330
6E
100
AcDbEntity
  8
0
  6
CONTINUOUS
 62
     0
100
AcDbLine
 10
-0.5
 20
0.5
 30
0.0
 11
0.5
 21
0.5
 31
0.0
  0
LINE
  5
9A
330
6E
100
AcDbEntity
  8
0
  6
CONTINUOUS
 62
     0
100
AcDbLine
 10
0.5
 20
0.5
 30
0.0
 11
0.5
 21
-0.5
 31
0.0
  0
LINE
  5
9B
330
6E
100
AcDbEntity
  8
0
  6
CONTINUOUS
 62
     0
100
AcDbLine
 10
0.5
 20
-0.5
 30
0.0
 11
-0.5
 21
-0.5
 31
0.0
  0
LINE
  5
9C
330
6E
100
AcDbEntity
  8
0
  6
CONTINUOUS
 62
     0
100
AcDbLine
 10
-0.5
 20
-0.5
 30
0.0
 11
-0.5
 21
0.5
 31
0.0
  0
LINE
  5
9D
330
6E
100
AcDbEntity
  8
0
  6
CONTINUOUS
 62
     0
100
AcDbLine
 10
-0.25
 20
0.25
 30
0.0
 11
0.25
 21
0.25
 31
0.0
  0
LINE
  5
9E
330
6E
100
AcDbEntity
  8
0
  6
CONTINUOUS
 62
     0
100
AcDbLine
 10
0.25
 20
0.25
 30
0.0
 11
0.25
 21
-0.25
 31
0.0
  0
LINE
  5
9F
330
6E
100
AcDbEntity
  8
0
  6
CONTINUOUS
 62
     0
100
AcDbLine
 10
0.25
 20
-0.25
 30
0.0
 11
-0.25
 21
-0.25
 31
0.0
  0
LINE
  5
A0
330
6E
100
AcDbEntity
  8
0
  6
CONTINUOUS
 62
     0
100
AcDbLine
 10
-0.25
 20
-0.25
 30
0.0
 11
-0.25
 21
0.25
 31
0.0
  0
ENDBLK
  5
70
330
6E
100
AcDbEntity
  8
0
100
AcDbBlockEnd
  0
BLOCK
  5
72
330
71
100
AcDbEntity
  8
0
100
AcDbBlockBegin
  2
EX_WBOX
 70
     0
 10
0.0
 20
0.0
 30
0.0
  3
EX_WBOX
  1

  0
LINE
  5
A1
330
71
100
AcDbEntity
  8
0
  6
CONTINUOUS
 62
     0
100
AcDbLine
 10
-0.5
 20
0.0
 30
0.0
 11
-1.0
 21
0.0
 31
0.0
  0
LINE
  5
A2
330
71
100
AcDbEntity
  8
0
  6
CONTINUOUS
 62
     0
100
AcDbLine
 10
-0.5
 20
0.5
 30
0.0
 11
0.5
 21
0.5
 31
0.0
  0
LINE
  5
A3
330
71
100
AcDbEntity
  8
0
  6
CONTINUOUS
 62
     0
100
AcDbLine
 10
0.5
 20
0.5
 30
0.0
 11
0.5
 21
-0.5
 31
0.0
  0
LINE
  5
A4
330
71
100
AcDbEntity
  8
0
  6
CONTINUOUS
 62
     0
100
AcDbLine
 10
0.5
 20
-0.5
 30
0.0
 11
-0.5
 21
-0.5
 31
0.0
  0
LINE
  5
A5
330
71
100
AcDbEntity
  8
0
  6
CONTINUOUS
 62
     0
100
AcDbLine
 10
-0.5
 20
-0.5
 30
0.0
 11
-0.5
 21
0.5
 31
0.0
  0
ENDBLK
  5
73
330
71
100
AcDbEntity
  8
0
100
AcDbBlockEnd
  0
BLOCK
  5
75
330
74
100
AcDbEntity
  8
0
100
AcDbBlockBegin
  2
EX_INTEGRAL
 70
     0
 10
0.0
 20
0.0
 30
0.0
  3
EX_INTEGRAL
  1

  0
LINE
  5
A6
330
74
100
AcDbEntity
  8
0
  6
CONTINUOUS
 62
     0
100
AcDbLine
 10
0.0
 20
0.0
 30
0.0
 11
-1.0
 21
0.0
 31
0.0
  0
ARC
  5
A7
330
74
100
AcDbEntity
  8
0
  6
CONTINUOUS
 62
     0
100
AcDbCircle
 10
0.542115
 20
0.164992
 30
0.0
 40
0.56667
100
AcDbArc
 50
73.07249033629006
 51
196.9275130221199
  0
ARC
  5
A8
330
74
100
AcDbEntity
  8
0
  6
CONTINUOUS
 62
     0
100
AcDbCircle
 10
-0.542115
 20
-0.164992
 30
0.0
 40
0.56667
100
AcDbArc
 50
253.0724869220464
 51
16.9275130559125
  0
ENDBLK
  5
76
330
74
100
AcDbEntity
  8
0
100
AcDbBlockEnd
  0
BLOCK
  5
16E
330
16D
100
AcDbEntity
  8
0
100
AcDbBlockBegin
  2
*D15
 70
     1
 10
0.0
 20
0.0
 30
0.0
  3
*D15
  1

  0
LINE
  5
170
330
16D
100
AcDbEntity
  8
化粧台
  6
CONTINUOUS
 62
     3
100
AcDbLine
 10
1131.999999880791
 20
2073.999999999999
 30
0.0
 11
1211.0
 21
2073.999999999999
 31
0.0
  0
LINE
  5
171
330
16D
100
AcDbEntity
  8
化粧台
  6
CONTINUOUS
 62
     3
100
AcDbLine
 10
1131.999999880791
 20
2173.999999999999
 30
0.0
 11
1211.0
 21
2173.999999999999
 31
0.0
  0
LINE
  5
172
330
16D
100
AcDbEntity
  8
化粧台
  6
CONTINUOUS
 62
     3
100
AcDbLine
 10
1201.0
 20
2103.999999999999
 30
0.0
 11
1201.0
 21
2143.999999999999
 31
0.0
  0
INSERT
  5
173
330
16D
100
AcDbEntity
  8
化粧台
 62
     3
100
AcDbBlockReference
  2
EX_NORM
 10
1201.0
 20
2073.999999999999
 30
0.0
 41
30.0
 42
30.0
 43
30.0
 50
270.0
  0
INSERT
  5
174
330
16D
100
AcDbEntity
  8
化粧台
 62
     3
100
AcDbBlockReference
  2
EX_NORM
 10
1201.0
 20
2173.999999999999
 30
0.0
 41
30.0
 42
30.0
 43
30.0
 50
90.0
  0
MTEXT
  5
175
330
16D
100
AcDbEntity
  8
化粧台
 62
     2
100
AcDbMText
 10
1176.0
 20
2123.999999999999
 30
0.0
 40
40.0
 41
0.0
 71
     5
 72
     1
  1
100
  7
EXCADDIM1
 11
0.0
 21
1.0
 31
0.0
  0
POINT
  5
176
330
16D
100
AcDbEntity
  8
DEFPOINTS
 62
     0
100
AcDbPoint
 10
1125.0
 20
2073.999999999999
 30
0.0
  0
POINT
  5
177
330
16D
100
AcDbEntity
  8
DEFPOINTS
 62
     0
100
AcDbPoint
 10
1125.0
 20
2173.999999999999
 30
0.0
  0
POINT
  5
178
330
16D
100
AcDbEntity
  8
DEFPOINTS
 62
     0
100
AcDbPoint
 10
1201.0
 20
2173.999999999999
 30
0.0
  0
ENDBLK
  5
16F
330
16D
100
AcDbEntity
  8
0
100
AcDbBlockEnd
  0
BLOCK
  5
17B
330
17A
100
AcDbEntity
  8
0
100
AcDbBlockBegin
  2
*D16
 70
     1
 10
0.0
 20
0.0
 30
0.0
  3
*D16
  1

  0
LINE
  5
17D
330
17A
100
AcDbEntity
  8
化粧台
  6
CONTINUOUS
 62
     3
100
AcDbLine
 10
675.0000000000003
 20
2180.99999988079
 30
0.0
 11
675.0000000000003
 21
2255.0
 31
0.0
  0
LINE
  5
17E
330
17A
100
AcDbEntity
  8
化粧台
  6
CONTINUOUS
 62
     3
100
AcDbLine
 10
1125.0
 20
2180.99999988079
 30
0.0
 11
1125.0
 21
2255.0
 31
0.0
  0
LINE
  5
17F
330
17A
100
AcDbEntity
  8
化粧台
  6
CONTINUOUS
 62
     3
100
AcDbLine
 10
705.0000000000003
 20
2245.0
 30
0.0
 11
1095.0
 21
2245.0
 31
0.0
  0
INSERT
  5
180
330
17A
100
AcDbEntity
  8
化粧台
 62
     3
100
AcDbBlockReference
  2
EX_NORM
 10
675.0000000000003
 20
2245.0
 30
0.0
 41
30.0
 42
30.0
 43
30.0
 50
180.0
  0
INSERT
  5
181
330
17A
100
AcDbEntity
  8
化粧台
 62
     3
100
AcDbBlockReference
  2
EX_NORM
 10
1125.0
 20
2245.0
 30
0.0
 41
30.0
 42
30.0
 43
30.0
  0
MTEXT
  5
182
330
17A
100
AcDbEntity
  8
化粧台
 62
     2
100
AcDbMText
 10
900.0000000000007
 20
2270.0
 30
0.0
 40
40.0
 41
0.0
 71
     5
 72
     1
  1
450
  7
EXCADDIM1
  0
POINT
  5
183
330
17A
100
AcDbEntity
  8
DEFPOINTS
 62
     0
100
AcDbPoint
 10
675.0000000000003
 20
2173.999999999999
 30
0.0
  0
POINT
  5
184
330
17A
100
AcDbEntity
  8
DEFPOINTS
 62
     0
100
AcDbPoint
 10
1125.0
 20
2173.999999999999
 30
0.0
  0
POINT
  5
185
330
17A
100
AcDbEntity
  8
DEFPOINTS
 62
     0
100
AcDbPoint
 10
1125.0
 20
2245.0
 30
0.0
  0
ENDBLK
  5
17C
330
17A
100
AcDbEntity
  8
0
100
AcDbBlockEnd
  0
BLOCK
  5
188
330
187
100
AcDbEntity
  8
0
100
AcDbBlockBegin
  2
*D17
 70
     1
 10
0.0
 20
0.0
 30
0.0
  3
*D17
  1

  0
LINE
  5
18A
330
187
100
AcDbEntity
  8
化粧台
  6
CONTINUOUS
 62
     3
100
AcDbLine
 10
1482.999999880791
 20
1792.0
 30
0.0
 11
1647.0
 21
1792.0
 31
0.0
  0
LINE
  5
18B
330
187
100
AcDbEntity
  8
化粧台
  6
CONTINUOUS
 62
     3
100
AcDbLine
 10
1482.999999880791
 20
1312.0
 30
0.0
 11
1647.0
 21
1312.0
 31
0.0
  0
LINE
  5
18C
330
187
100
AcDbEntity
  8
化粧台
  6
CONTINUOUS
 62
     3
100
AcDbLine
 10
1637.0
 20
1762.0
 30
0.0
 11
1637.0
 21
1342.0
 31
0.0
  0
INSERT
  5
18D
330
187
100
AcDbEntity
  8
化粧台
 62
     3
100
AcDbBlockReference
  2
EX_NORM
 10
1637.0
 20
1792.0
 30
0.0
 41
30.0
 42
30.0
 43
30.0
 50
90.0
  0
INSERT
  5
18E
330
187
100
AcDbEntity
  8
化粧台
 62
     3
100
AcDbBlockReference
  2
EX_NORM
 10
1637.0
 20
1312.0
 30
0.0
 41
30.0
 42
30.0
 43
30.0
 50
270.0
  0
MTEXT
  5
18F
330
187
100
AcDbEntity
  8
化粧台
 62
     2
100
AcDbMText
 10
1612.0
 20
1552.0
 30
0.0
 40
40.0
 41
0.0
 71
     5
 72
     1
  1
480
  7
EXCADDIM1
 11
0.0
 21
1.0
 31
0.0
  0
POINT
  5
190
330
187
100
AcDbEntity
  8
DEFPOINTS
 62
     0
100
AcDbPoint
 10
1476.0
 20
1792.0
 30
0.0
  0
POINT
  5
191
330
187
100
AcDbEntity
  8
DEFPOINTS
 62
     0
100
AcDbPoint
 10
1476.0
 20
1312.0
 30
0.0
  0
POINT
  5
192
330
187
100
AcDbEntity
  8
DEFPOINTS
 62
     0
100
AcDbPoint
 10
1637.0
 20
1312.0
 30
0.0
  0
ENDBLK
  5
189
330
187
100
AcDbEntity
  8
0
100
AcDbBlockEnd
  0
BLOCK
  5
195
330
194
100
AcDbEntity
  8
0
100
AcDbBlockBegin
  2
*D18
 70
     1
 10
0.0
 20
0.0
 30
0.0
  3
*D18
  1

  0
LINE
  5
197
330
194
100
AcDbEntity
  8
化粧台
  6
CONTINUOUS
 62
     3
100
AcDbLine
 10
1376.0
 20
1798.999999880791
 30
0.0
 11
1376.0
 21
1862.0
 31
0.0
  0
LINE
  5
198
330
194
100
AcDbEntity
  8
化粧台
  6
CONTINUOUS
 62
     3
100
AcDbLine
 10
1476.0
 20
1798.999999880791
 30
0.0
 11
1476.0
 21
1862.0
 31
0.0
  0
LINE
  5
199
330
194
100
AcDbEntity
  8
化粧台
  6
CONTINUOUS
 62
     3
100
AcDbLine
 10
1406.0
 20
1852.0
 30
0.0
 11
1446.0
 21
1852.0
 31
0.0
  0
INSERT
  5
19A
330
194
100
AcDbEntity
  8
化粧台
 62
     3
100
AcDbBlockReference
  2
EX_NORM
 10
1376.0
 20
1852.0
 30
0.0
 41
30.0
 42
30.0
 43
30.0
 50
180.0
  0
INSERT
  5
19B
330
194
100
AcDbEntity
  8
化粧台
 62
     3
100
AcDbBlockReference
  2
EX_NORM
 10
1476.0
 20
1852.0
 30
0.0
 41
30.0
 42
30.0
 43
30.0
  0
MTEXT
  5
19C
330
194
100
AcDbEntity
  8
化粧台
 62
     2
100
AcDbMText
 10
1426.0
 20
1877.0
 30
0.0
 40
40.0
 41
0.0
 71
     5
 72
     1
  1
100
  7
EXCADDIM1
  0
POINT
  5
19D
330
194
100
AcDbEntity
  8
DEFPOINTS
 62
     0
100
AcDbPoint
 10
1376.0
 20
1792.0
 30
0.0
  0
POINT
  5
19E
330
194
100
AcDbEntity
  8
DEFPOINTS
 62
     0
100
AcDbPoint
 10
1476.0
 20
1792.0
 30
0.0
  0
POINT
  5
19F
330
194
100
AcDbEntity
  8
DEFPOINTS
 62
     0
100
AcDbPoint
 10
1476.0
 20
1852.0
 30
0.0
  0
ENDBLK
  5
196
330
194
100
AcDbEntity
  8
0
100
AcDbBlockEnd
  0
BLOCK
  5
1A2
330
1A1
100
AcDbEntity
  8
0
100
AcDbBlockBegin
  2
*D19
 70
     1
 10
0.0
 20
0.0
 30
0.0
  3
*D19
  1

  0
LINE
  5
1A4
330
1A1
100
AcDbEntity
  8
寸法
  6
CONTINUOUS
 62
     3
100
AcDbLine
 10
674.9999999999998
 20
1803.999999880791
 30
0.0
 11
674.9999999999998
 21
1922.0
 31
0.0
  0
LINE
  5
1A5
330
1A1
100
AcDbEntity
  8
寸法
  6
CONTINUOUS
 62
     3
100
AcDbLine
 10
1125.0
 20
1803.999999880791
 30
0.0
 11
1125.0
 21
1922.0
 31
0.0
  0
LINE
  5
1A6
330
1A1
100
AcDbEntity
  8
寸法
  6
CONTINUOUS
 62
     3
100
AcDbLine
 10
704.9999999999998
 20
1912.0
 30
0.0
 11
1095.0
 21
1912.0
 31
0.0
  0
INSERT
  5
1A7
330
1A1
100
AcDbEntity
  8
寸法
 62
     3
100
AcDbBlockReference
  2
EX_NORM
 10
674.9999999999998
 20
1912.0
 30
0.0
 41
30.0
 42
30.0
 43
30.0
 50
180.0
  0
INSERT
  5
1A8
330
1A1
100
AcDbEntity
  8
寸法
 62
     3
100
AcDbBlockReference
  2
EX_NORM
 10
1125.0
 20
1912.0
 30
0.0
 41
30.0
 42
30.0
 43
30.0
  0
MTEXT
  5
1A9
330
1A1
100
AcDbEntity
  8
寸法
 62
     2
100
AcDbMText
 10
900.0000000000001
 20
1935.499999940395
 30
0.0
 40
40.0
 41
0.0
 71
     5
 72
     1
  1
450
  7
EXCADDIM1
  0
POINT
  5
1AA
330
1A1
100
AcDbEntity
  8
DEFPOINTS
 62
     0
100
AcDbPoint
 10
674.9999999999998
 20
1797.0
 30
0.0
  0
POINT
  5
1AB
330
1A1
100
AcDbEntity
  8
DEFPOINTS
 62
     0
100
AcDbPoint
 10
1125.0
 20
1797.0
 30
0.0
  0
POINT
  5
1AC
330
1A1
100
AcDbEntity
  8
DEFPOINTS
 62
     0
100
AcDbPoint
 10
1125.0
 20
1912.0
 30
0.0
  0
ENDBLK
  5
1A3
330
1A1
100
AcDbEntity
  8
0
100
AcDbBlockEnd
  0
BLOCK
  5
1AF
330
1AE
100
AcDbEntity
  8
0
100
AcDbBlockBegin
  2
*D20
 70
     1
 10
0.0
 20
0.0
 30
0.0
  3
*D20
  1

  0
LINE
  5
1B1
330
1AE
100
AcDbEntity
  8
寸法
  6
CONTINUOUS
 62
     3
100
AcDbLine
 10
1354.8
 20
1805.199999880791
 30
0.0
 11
1354.8
 21
1922.0
 31
0.0
  0
LINE
  5
1B2
330
1AE
100
AcDbEntity
  8
寸法
  6
CONTINUOUS
 62
     3
100
AcDbLine
 10
1476.0
 20
1798.999999880791
 30
0.0
 11
1476.0
 21
1922.0
 31
0.0
  0
LINE
  5
1B3
330
1AE
100
AcDbEntity
  8
寸法
  6
CONTINUOUS
 62
     3
100
AcDbLine
 10
1384.8
 20
1912.0
 30
0.0
 11
1446.0
 21
1912.0
 31
0.0
  0
INSERT
  5
1B4
330
1AE
100
AcDbEntity
  8
寸法
 62
     3
100
AcDbBlockReference
  2
EX_NORM
 10
1354.8
 20
1912.0
 30
0.0
 41
30.0
 42
30.0
 43
30.0
 50
180.0
  0
INSERT
  5
1B5
330
1AE
100
AcDbEntity
  8
寸法
 62
     3
100
AcDbBlockReference
  2
EX_NORM
 10
1476.0
 20
1912.0
 30
0.0
 41
30.0
 42
30.0
 43
30.0
  0
MTEXT
  5
1B6
330
1AE
100
AcDbEntity
  8
寸法
 62
     2
100
AcDbMText
 10
1415.4
 20
1935.499999940395
 30
0.0
 40
40.0
 41
0.0
 71
     5
 72
     1
  1
122
  7
EXCADDIM1
  0
POINT
  5
1B7
330
1AE
100
AcDbEntity
  8
DEFPOINTS
 62
     0
100
AcDbPoint
 10
1354.8
 20
1798.200000000001
 30
0.0
  0
POINT
  5
1B8
330
1AE
100
AcDbEntity
  8
DEFPOINTS
 62
     0
100
AcDbPoint
 10
1476.0
 20
1792.0
 30
0.0
  0
POINT
  5
1B9
330
1AE
100
AcDbEntity
  8
DEFPOINTS
 62
     0
100
AcDbPoint
 10
1476.0
 20
1912.0
 30
0.0
  0
ENDBLK
  5
1B0
330
1AE
100
AcDbEntity
  8
0
100
AcDbBlockEnd
  0
BLOCK
  5
1BC
330
1BB
100
AcDbEntity
  8
0
100
AcDbBlockBegin
  2
*D21
 70
     1
 10
0.0
 20
0.0
 30
0.0
  3
*D21
  1

  0
LINE
  5
1BE
330
1BB
100
AcDbEntity
  8
寸法
  6
CONTINUOUS
 62
     3
100
AcDbLine
 10
1130.499999880791
 20
1295.8
 30
0.0
 11
1219.0
 21
1295.8
 31
0.0
  0
LINE
  5
1BF
330
1BB
100
AcDbEntity
  8
寸法
  6
CONTINUOUS
 62
     3
100
AcDbLine
 10
1130.499999880791
 20
1798.200000000001
 30
0.0
 11
1219.0
 21
1798.200000000001
 31
0.0
  0
LINE
  5
1C0
330
1BB
100
AcDbEntity
  8
寸法
  6
CONTINUOUS
 62
     3
100
AcDbLine
 10
1209.0
 20
1325.8
 30
0.0
 11
1209.0
 21
1768.200000000001
 31
0.0
  0
INSERT
  5
1C1
330
1BB
100
AcDbEntity
  8
寸法
 62
     3
100
AcDbBlockReference
  2
EX_NORM
 10
1209.0
 20
1295.8
 30
0.0
 41
30.0
 42
30.0
 43
30.0
 50
270.0
  0
INSERT
  5
1C2
330
1BB
100
AcDbEntity
  8
寸法
 62
     3
100
AcDbBlockReference
  2
EX_NORM
 10
1209.0
 20
1798.200000000001
 30
0.0
 41
30.0
 42
30.0
 43
30.0
 50
90.0
  0
MTEXT
  5
1C3
330
1BB
100
AcDbEntity
  8
寸法
 62
     2
100
AcDbMText
 10
1185.500000059605
 20
1547.0
 30
0.0
 40
40.0
 41
0.0
 71
     5
 72
     1
  1
503
  7
EXCADDIM1
 11
0.0
 21
1.0
 31
0.0
  0
POINT
  5
1C4
330
1BB
100
AcDbEntity
  8
DEFPOINTS
 62
     0
100
AcDbPoint
 10
1123.5
 20
1295.8
 30
0.0
  0
POINT
  5
1C5
330
1BB
100
AcDbEntity
  8
DEFPOINTS
 62
     0
100
AcDbPoint
 10
1123.5
 20
1798.200000000001
 30
0.0
  0
POINT
  5
1C6
330
1BB
100
AcDbEntity
  8
DEFPOINTS
 62
     0
100
AcDbPoint
 10
1209.0
 20
1798.200000000001
 30
0.0
  0
ENDBLK
  5
1BD
330
1BB
100
AcDbEntity
  8
0
100
AcDbBlockEnd
  0
BLOCK
  5
1C9
330
1C8
100
AcDbEntity
  8
0
100
AcDbBlockBegin
  2
*D22
 70
     1
 10
0.0
 20
0.0
 30
0.0
  3
*D22
  1

  0
LINE
  5
1CB
330
1C8
100
AcDbEntity
  8
寸法
  6
CONTINUOUS
 62
     3
100
AcDbLine
 10
1516.199999880791
 20
1362.0
 30
0.0
 11
1579.0
 21
1362.0
 31
0.0
  0
LINE
  5
1CC
330
1C8
100
AcDbEntity
  8
寸法
  6
CONTINUOUS
 62
     3
100
AcDbLine
 10
1516.199999880791
 20
1742.0
 30
0.0
 11
1579.0
 21
1742.0
 31
0.0
  0
LINE
  5
1CD
330
1C8
100
AcDbEntity
  8
寸法
  6
CONTINUOUS
 62
     3
100
AcDbLine
 10
1569.0
 20
1392.0
 30
0.0
 11
1569.0
 21
1712.0
 31
0.0
  0
INSERT
  5
1CE
330
1C8
100
AcDbEntity
  8
寸法
 62
     3
100
AcDbBlockReference
  2
EX_NORM
 10
1569.0
 20
1362.0
 30
0.0
 41
30.0
 42
30.0
 43
30.0
 50
270.0
  0
INSERT
  5
1CF
330
1C8
100
AcDbEntity
  8
寸法
 62
     3
100
AcDbBlockReference
  2
EX_NORM
 10
1569.0
 20
1742.0
 30
0.0
 41
30.0
 42
30.0
 43
30.0
 50
90.0
  0
MTEXT
  5
1D0
330
1C8
100
AcDbEntity
  8
寸法
 62
     2
100
AcDbMText
 10
1545.500000059605
 20
1552.0
 30
0.0
 40
40.0
 41
0.0
 71
     5
 72
     1
  1
380（壁固定）
  7
EXCADDIM1
 11
0.0
 21
1.0
 31
0.0
  0
POINT
  5
1D1
330
1C8
100
AcDbEntity
  8
DEFPOINTS
 62
     0
100
AcDbPoint
 10
1509.2
 20
1362.0
 30
0.0
  0
POINT
  5
1D2
330
1C8
100
AcDbEntity
  8
DEFPOINTS
 62
     0
100
AcDbPoint
 10
1509.2
 20
1742.0
 30
0.0
  0
POINT
  5
1D3
330
1C8
100
AcDbEntity
  8
DEFPOINTS
 62
     0
100
AcDbPoint
 10
1569.0
 20
1742.0
 30
0.0
  0
ENDBLK
  5
1CA
330
1C8
100
AcDbEntity
  8
0
100
AcDbBlockEnd
  0
BLOCK
  5
1D6
330
1D5
100
AcDbEntity
  8
0
100
AcDbBlockBegin
  2
*D23
 70
     1
 10
0.0
 20
0.0
 30
0.0
  3
*D23
  1

  0
LINE
  5
1D8
330
1D5
100
AcDbEntity
  8
寸法
  6
CONTINUOUS
 62
     3
100
AcDbLine
 10
1516.199999880791
 20
1742.0
 30
0.0
 11
1579.0
 21
1742.0
 31
0.0
  0
LINE
  5
1D9
330
1D5
100
AcDbEntity
  8
寸法
  6
CONTINUOUS
 62
     3
100
AcDbLine
 10
1381.79999988079
 20
1798.2
 30
0.0
 11
1579.0
 21
1798.2
 31
0.0
  0
LINE
  5
1DA
330
1D5
100
AcDbEntity
  8
寸法
  6
CONTINUOUS
 62
     3
100
AcDbLine
 10
1569.0
 20
1742.0
 30
0.0
 11
1569.0
 21
1798.2
 31
0.0
  0
LINE
  5
1DB
330
1D5
100
AcDbEntity
  8
寸法
  6
CONTINUOUS
 62
     3
100
AcDbLine
 10
1569.0
 20
1712.0
 30
0.0
 11
1569.0
 21
1682.0
 31
0.0
  0
LINE
  5
1DC
330
1D5
100
AcDbEntity
  8
寸法
  6
CONTINUOUS
 62
     3
100
AcDbLine
 10
1569.0
 20
1828.2
 30
0.0
 11
1569.0
 21
1858.2
 31
0.0
  0
INSERT
  5
1DD
330
1D5
100
AcDbEntity
  8
寸法
 62
     3
100
AcDbBlockReference
  2
EX_NORM
 10
1569.0
 20
1742.0
 30
0.0
 41
30.0
 42
30.0
 43
30.0
 50
90.0
  0
INSERT
  5
1DE
330
1D5
100
AcDbEntity
  8
寸法
 62
     3
100
AcDbBlockReference
  2
EX_NORM
 10
1569.0
 20
1798.2
 30
0.0
 41
30.0
 42
30.0
 43
30.0
 50
270.0
  0
MTEXT
  5
1DF
330
1D5
100
AcDbEntity
  8
寸法
 62
     2
100
AcDbMText
 10
1545.500000059605
 20
1770.1
 30
0.0
 40
40.0
 41
0.0
 71
     5
 72
     1
  1
56
  7
EXCADDIM1
 11
0.0
 21
1.0
 31
0.0
  0
POINT
  5
1E0
330
1D5
100
AcDbEntity
  8
DEFPOINTS
 62
     0
100
AcDbPoint
 10
1509.2
 20
1742.0
 30
0.0
  0
POINT
  5
1E1
330
1D5
100
AcDbEntity
  8
DEFPOINTS
 62
     0
100
AcDbPoint
 10
1374.8
 20
1798.2
 30
0.0
  0
POINT
  5
1E2
330
1D5
100
AcDbEntity
  8
DEFPOINTS
 62
     0
100
AcDbPoint
 10
1569.0
 20
1798.2
 30
0.0
  0
ENDBLK
  5
1D7
330
1D5
100
AcDbEntity
  8
0
100
AcDbBlockEnd
  0
BLOCK
  5
1E5
330
1E4
100
AcDbEntity
  8
0
100
AcDbBlockBegin
  2
*D24
 70
     1
 10
0.0
 20
0.0
 30
0.0
  3
*D24
  1

  0
LINE
  5
1E7
330
1E4
100
AcDbEntity
  8
寸法
  6
CONTINUOUS
 62
     3
100
AcDbLine
 10
750.0000000000001
 20
1756.999999880791
 30
0.0
 11
750.0000000000001
 21
1862.0
 31
0.0
  0
LINE
  5
1E8
330
1E4
100
AcDbEntity
  8
寸法
  6
CONTINUOUS
 62
     3
100
AcDbLine
 10
1050.0
 20
1756.999999880791
 30
0.0
 11
1050.0
 21
1862.0
 31
0.0
  0
LINE
  5
1E9
330
1E4
100
AcDbEntity
  8
寸法
  6
CONTINUOUS
 62
     3
100
AcDbLine
 10
780.0000000000001
 20
1852.0
 30
0.0
 11
1020.0
 21
1852.0
 31
0.0
  0
INSERT
  5
1EA
330
1E4
100
AcDbEntity
  8
寸法
 62
     3
100
AcDbBlockReference
  2
EX_NORM
 10
750.0000000000001
 20
1852.0
 30
0.0
 41
30.0
 42
30.0
 43
30.0
 50
180.0
  0
INSERT
  5
1EB
330
1E4
100
AcDbEntity
  8
寸法
 62
     3
100
AcDbBlockReference
  2
EX_NORM
 10
1050.0
 20
1852.0
 30
0.0
 41
30.0
 42
30.0
 43
30.0
  0
MTEXT
  5
1EC
330
1E4
100
AcDbEntity
  8
寸法
 62
     2
100
AcDbMText
 10
900.0
 20
1875.499999940395
 30
0.0
 40
40.0
 41
0.0
 71
     5
 72
     1
  1
300（壁固定）
  7
EXCADDIM1
  0
POINT
  5
1ED
330
1E4
100
AcDbEntity
  8
DEFPOINTS
 62
     0
100
AcDbPoint
 10
750.0000000000001
 20
1750.0
 30
0.0
  0
POINT
  5
1EE
330
1E4
100
AcDbEntity
  8
DEFPOINTS
 62
     0
100
AcDbPoint
 10
1050.0
 20
1750.0
 30
0.0
  0
POINT
  5
1EF
330
1E4
100
AcDbEntity
  8
DEFPOINTS
 62
     0
100
AcDbPoint
 10
1050.0
 20
1852.0
 30
0.0
  0
ENDBLK
  5
1E6
330
1E4
100
AcDbEntity
  8
0
100
AcDbBlockEnd
  0
ENDSEC
  0
SECTION
  2
ENTITIES
  0
TEXT
  5
A9
330
1F
100
AcDbEntity
  8
枠_表
  6
CONTINUOUS
 62
     2
100
AcDbText
 10
1890.5371094
 20
302.7227783
 30
0.0
 40
30.0
  1
１
 41
1.101333333333329
  7
EXCADSTD
 72
     5
 11
1914.1371094
 21
302.7227783
 31
0.0
100
AcDbText
  0
TEXT
  5
AA
330
1F
100
AcDbEntity
  8
枠_表
  6
CONTINUOUS
 62
     2
100
AcDbText
 10
202.5000000000001
 20
308.75
 30
0.0
 40
42.5
  1
製図
 41
1.509694117647058
  7
EXCADSTD
 72
     5
 11
303.326
 21
308.75
 31
0.0
100
AcDbText
  0
TEXT
  5
AB
330
1F
100
AcDbEntity
  8
枠_表
  6
CONTINUOUS
 62
     2
100
AcDbText
 10
357.5
 20
308.75
 30
0.0
 40
42.5
  1
写図
 41
1.509694117647059
  7
EXCADSTD
 72
     5
 11
458.326
 21
308.75
 31
0.0
100
AcDbText
  0
TEXT
  5
AC
330
1F
100
AcDbEntity
  8
枠_表
  6
CONTINUOUS
 62
     2
100
AcDbText
 10
507.5
 20
308.75
 30
0.0
 40
42.5
  1
検図
 41
1.303826737967914
  7
EXCADSTD
 72
     5
 11
594.577
 21
308.75
 31
0.0
100
AcDbText
  0
TEXT
  5
AD
330
1F
100
AcDbEntity
  8
枠_表
  6
CONTINUOUS
 62
     2
100
AcDbText
 10
637.5
 20
308.75
 30
0.0
 40
42.5
  1
承認
 41
1.303826737967914
  7
EXCADSTD
 72
     5
 11
724.577
 21
308.75
 31
0.0
100
AcDbText
  0
TEXT
  5
AE
330
1F
100
AcDbEntity
  8
枠_表
  6
CONTINUOUS
 62
     2
100
AcDbText
 10
755.75
 20
298.75
 30
0.0
 40
42.5
  1
品
 41
1.12
  7
EXCADSTD
 72
     5
 11
789.75
 21
298.75
 31
0.0
100
AcDbText
  0
TEXT
  5
AF
330
1F
100
AcDbEntity
  8
枠_表
  6
CONTINUOUS
 62
     2
100
AcDbText
 10
755.75
 20
248.75
 30
0.0
 40
42.5
  1
名
 41
1.12
  7
EXCADSTD
 72
     5
 11
789.75
 21
248.75
 31
0.0
100
AcDbText
  0
TEXT
  5
B0
330
1F
100
AcDbEntity
  8
枠_表
  6
CONTINUOUS
 62
     2
100
AcDbText
 10
1395.75
 20
298.75
 30
0.0
 40
42.5
  1
品
 41
1.12
  7
EXCADSTD
 72
     5
 11
1429.75
 21
298.75
 31
0.0
100
AcDbText
  0
TEXT
  5
B1
330
1F
100
AcDbEntity
  8
枠_表
  6
CONTINUOUS
 62
     2
100
AcDbText
 10
1395.75
 20
248.75
 30
0.0
 40
42.5
  1
番
 41
1.12
  7
EXCADSTD
 72
     5
 11
1429.75
 21
248.75
 31
0.0
100
AcDbText
  0
TEXT
  5
B2
330
1F
100
AcDbEntity
  8
枠_表
  6
CONTINUOUS
 62
     2
100
AcDbText
 10
1816.75
 20
298.75
 30
0.0
 40
42.5
  1
尺
 41
1.12
  7
EXCADSTD
 72
     5
 11
1850.75
 21
298.75
 31
0.0
100
AcDbText
  0
TEXT
  5
B3
330
1F
100
AcDbEntity
  8
枠_表
  6
CONTINUOUS
 62
     2
100
AcDbText
 10
1816.75
 20
248.75
 30
0.0
 40
42.5
  1
度
 41
1.12
  7
EXCADSTD
 72
     5
 11
1850.75
 21
248.75
 31
0.0
100
AcDbText
  0
TEXT
  5
B4
330
1F
100
AcDbEntity
  8
枠_表
  6
CONTINUOUS
 62
     2
100
AcDbText
 10
1395.75
 20
185.75
 30
0.0
 40
42.5
  1
図
 41
1.12
  7
EXCADSTD
 72
     5
 11
1429.75
 21
185.75
 31
0.0
100
AcDbText
  0
TEXT
  5
B5
330
1F
100
AcDbEntity
  8
枠_表
  6
CONTINUOUS
 62
     2
100
AcDbText
 10
1395.75
 20
142.75
 30
0.0
 40
42.5
  1
番
 41
1.12
  7
EXCADSTD
 72
     5
 11
1429.75
 21
142.75
 31
0.0
100
AcDbText
  0
TEXT
  5
B6
330
1F
100
AcDbEntity
  8
枠_表
  6
CONTINUOUS
 62
     2
100
AcDbText
 10
1931.2792969
 20
258.3488464
 30
0.0
 40
30.0
  1
１０
 41
1.098531212121213
  7
EXCADSTD
 72
     5
 11
1983.0671969
 21
258.3488464
 31
0.0
100
AcDbText
  0
LINE
  5
B7
330
1F
100
AcDbEntity
  8
枠_表
  6
CONTINUOUS
 62
     7
100
AcDbLine
 10
180.0
 20
135.0
 30
0.0
 11
2000.0
 21
135.0
 31
0.0
  0
LINE
  5
B8
330
1F
100
AcDbEntity
  8
枠_表
  6
CONTINUOUS
 62
     7
100
AcDbLine
 10
2000.0
 20
135.0
 30
0.0
 11
2000.0
 21
2885.0
 31
0.0
  0
LINE
  5
B9
330
1F
100
AcDbEntity
  8
枠_表
  6
CONTINUOUS
 62
     7
100
AcDbLine
 10
180.0
 20
135.0
 30
0.0
 11
180.0
 21
2885.0
 31
0.0
  0
LINE
  5
BA
330
1F
100
AcDbEntity
  8
枠_表
  6
CONTINUOUS
 62
     7
100
AcDbLine
 10
180.0
 20
2885.0
 30
0.0
 11
2000.0
 21
2885.0
 31
0.0
  0
LINE
  5
BB
330
1F
100
AcDbEntity
  8
枠_表
  6
CONTINUOUS
 62
     7
100
AcDbLine
 10
180.0
 20
355.0
 30
0.0
 11
2000.0
 21
355.0
 31
0.0
  0
LINE
  5
BC
330
1F
100
AcDbEntity
  8
枠_表
  6
CONTINUOUS
 62
     6
100
AcDbLine
 10
2000.0
 20
235.0
 30
0.0
 11
750.0
 21
235.0
 31
0.0
  0
LINE
  5
BD
330
1F
100
AcDbEntity
  8
枠_表
  6
CONTINUOUS
 62
     6
100
AcDbLine
 10
1860.0
 20
355.0
 30
0.0
 11
1860.0
 21
235.0
 31
0.0
  0
LINE
  5
BE
330
1F
100
AcDbEntity
  8
枠_表
  6
CONTINUOUS
 62
     6
100
AcDbLine
 10
1810.0
 20
355.0
 30
0.0
 11
1810.0
 21
235.0
 31
0.0
  0
LINE
  5
BF
330
1F
100
AcDbEntity
  8
枠_表
  6
CONTINUOUS
 62
     6
100
AcDbLine
 10
1440.0
 20
355.0
 30
0.0
 11
1440.0
 21
135.0
 31
0.0
  0
LINE
  5
C0
330
1F
100
AcDbEntity
  8
枠_表
  6
CONTINUOUS
 62
     6
100
AcDbLine
 10
1390.0
 20
355.0
 30
0.0
 11
1390.0
 21
135.0
 31
0.0
  0
LINE
  5
C1
330
1F
100
AcDbEntity
  8
枠_表
  6
CONTINUOUS
 62
     6
100
AcDbLine
 10
800.0
 20
355.0
 30
0.0
 11
800.0
 21
235.0
 31
0.0
  0
LINE
  5
C2
330
1F
100
AcDbEntity
  8
枠_表
  6
CONTINUOUS
 62
     6
100
AcDbLine
 10
750.0
 20
355.0
 30
0.0
 11
750.0
 21
135.0
 31
0.0
  0
LINE
  5
C3
330
1F
100
AcDbEntity
  8
枠_表
  6
CONTINUOUS
 62
     6
100
AcDbLine
 10
620.0
 20
355.0
 30
0.0
 11
620.0
 21
135.0
 31
0.0
  0
LINE
  5
C4
330
1F
100
AcDbEntity
  8
枠_表
  6
CONTINUOUS
 62
     6
100
AcDbLine
 10
490.0
 20
355.0
 30
0.0
 11
490.0
 21
135.0
 31
0.0
  0
LINE
  5
C5
330
1F
100
AcDbEntity
  8
枠_表
  6
CONTINUOUS
 62
     6
100
AcDbLine
 10
335.0
 20
355.0
 30
0.0
 11
335.0
 21
135.0
 31
0.0
  0
LINE
  5
C6
330
1F
100
AcDbEntity
  8
枠_表
  6
CONTINUOUS
 62
     6
100
AcDbLine
 10
180.0
 20
305.0
 30
0.0
 11
750.0
 21
305.0
 31
0.0
  0
LINE
  5
C7
330
1F
100
AcDbEntity
  8
枠_表
  6
CONTINUOUS
 62
     6
100
AcDbLine
 10
1892.6538086
 20
258.0029297
 30
0.0
 11
1969.9938965
 21
336.6998291
 31
0.0
  0
CIRCLE
  5
C8
330
1F
100
AcDbEntity
  8
枠_表
  6
CONTINUOUS
 62
     6
100
AcDbCircle
 10
230.0
 20
160.0
 30
0.0
 40
1.0000002
  0
CIRCLE
  5
C9
330
1F
100
AcDbEntity
  8
枠_表
  6
CONTINUOUS
 62
     6
100
AcDbCircle
 10
280.0
 20
160.0
 30
0.0
 40
1.0000002
  0
CIRCLE
  5
CA
330
1F
100
AcDbEntity
  8
枠_表
  6
CONTINUOUS
 62
     6
100
AcDbCircle
 10
385.0
 20
160.0
 30
0.0
 40
1.0000002
  0
CIRCLE
  5
CB
330
1F
100
AcDbEntity
  8
枠_表
  6
CONTINUOUS
 62
     6
100
AcDbCircle
 10
435.0
 20
160.0
 30
0.0
 40
1.0000002
  0
LINE
  5
CC
330
1F
100
AcDbEntity
  8
枠_表
  6
EXLTYPE2
 62
     6
100
AcDbLine
 10
180.0
 20
185.0
 30
0.0
 11
490.0
 21
185.0
 31
0.0
  0
TEXT
  5
CD
330
1F
100
AcDbEntity
  8
枠_表
  6
CONTINUOUS
 62
     2
100
AcDbText
 10
810.0
 20
295.0
 30
0.0
 40
50.0
  1
450㎜幅
 41
0.8693548387096773
  7
EXCADSTD
 72
     5
 11
1002.5
 21
295.0
 31
0.0
100
AcDbText
  0
TEXT
  5
CE
330
1F
100
AcDbEntity
  8
枠_表
  6
CONTINUOUS
 62
     2
100
AcDbText
 10
810.0
 20
245.0
 30
0.0
 40
50.0
  1
　　収納棚付１面鏡
 41
1.307547169811321
  7
EXCADSTD
 72
     5
 11
1305.0
 21
245.0
 31
0.0
100
AcDbText
  0
TEXT
  5
CF
330
1F
100
AcDbEntity
  8
枠_表
  6
CONTINUOUS
 62
     2
100
AcDbText
 10
1450.0
 20
270.0
 30
0.0
 40
50.0
  1
ＬＵＭ４５１ＣＳ
 41
0.9829787234042555
  7
EXCADSTD
 72
     5
 11
1780.0
 21
270.0
 31
0.0
100
AcDbText
  0
TEXT
  5
D0
330
1F
100
AcDbEntity
  8
枠_表
  6
CONTINUOUS
 62
     2
100
AcDbText
 10
235.0
 20
140.0
 30
0.0
 40
40.0
  1
10
 41
0.454054054054054
  7
EXCADSTD
 72
     5
 11
267.0
 21
140.0
 31
0.0
100
AcDbText
  0
TEXT
  5
D1
330
1F
100
AcDbEntity
  8
枠_表
  6
CONTINUOUS
 62
     7
100
AcDbText
 10
1452.00000166893
 20
151.5
 30
0.0
 40
70.0
  1
ＬＵ９１０７１０
 41
1.140425531914894
  7
EXCADSTD
 72
     5
 11
1988.00000166893
 21
151.5
 31
0.0
100
AcDbText
  0
TEXT
  5
D3
330
1F
100
AcDbEntity
  8
枠_表
  6
CONTINUOUS
 62
     2
100
AcDbText
 10
770.0
 20
155.0
 30
0.0
 40
45.0
  1
ジャニス工業株式会社
 41
1.025641025641026
  7
EXCADTTF1
 72
     5
 11
1370.0
 21
155.0
 31
0.0
100
AcDbText
  0
LINE
  5
D4
330
1F
100
AcDbEntity
  8
枠_表
  6
EXLTYPE2
 62
     6
100
AcDbLine
 10
180.0
 20
1510.0
 30
0.0
 11
-6.999999999999993
 21
1510.0
 31
0.0
  0
TEXT
  5
D5
330
1F
100
AcDbEntity
  8
枠_表
  6
CONTINUOUS
 62
     2
100
AcDbText
 10
207.4999999999949
 20
220.0
 30
0.0
 40
50.0
  1
間瀬
 41
1.224910909090909
  7
EXCADSTD
 72
     5
 11
303.7429999999949
 21
220.0
 31
0.0
100
AcDbText
  0
TEXT
  5
D6
330
1F
100
AcDbEntity
  8
枠_表
  6
CONTINUOUS
 62
     2
100
AcDbText
 10
184.4999999
 20
140.0
 30
0.0
 40
40.0
  1
20
 41
0.454054054054054
  7
EXCADSTD
 72
     5
 11
216.4999999
 21
140.0
 31
0.0
100
AcDbText
  0
TEXT
  5
D7
330
1F
100
AcDbEntity
  8
枠_表
  6
CONTINUOUS
 62
     2
100
AcDbText
 10
288.0000001
 20
140.0
 30
0.0
 40
40.0
  1
30
 41
0.454054054054054
  7
EXCADSTD
 72
     5
 11
320.0000001
 21
140.0
 31
0.0
100
AcDbText
  0
TEXT
  5
D8
330
1F
100
AcDbEntity
  8
枠_表
  6
CONTINUOUS
 62
     2
100
AcDbText
 10
504.9999999999949
 20
220.0
 30
0.0
 40
50.0
  1
中村
 41
1.22491090909091
  7
EXCADSTD
 72
     5
 11
601.2429999999949
 21
220.0
 31
0.0
100
AcDbText
  0
TEXT
  5
D9
330
1F
100
AcDbEntity
  8
枠_表
  6
CONTINUOUS
 62
     2
100
AcDbText
 10
634.9999999999949
 20
220.0
 30
0.0
 40
50.0
  1
古林
 41
1.22491090909091
  7
EXCADSTD
 72
     5
 11
731.2429999999949
 21
220.0
 31
0.0
100
AcDbText
  0
LINE
  5
DA
330
1F
100
AcDbEntity
  8
化粧台
  6
CONTINUOUS
 62
     2
100
AcDbLine
 10
675.0000000000002
 20
1797.0
 30
0.0
 11
675.0000000000002
 21
1297.0
 31
0.0
  0
LINE
  5
DB
330
1F
100
AcDbEntity
  8
化粧台
  6
CONTINUOUS
 62
     2
100
AcDbLine
 10
675.0000000000002
 20
1797.0
 30
0.0
 11
676.5000000000001
 21
1797.0
 31
0.0
  0
LINE
  5
DC
330
1F
100
AcDbEntity
  8
化粧台
  6
CONTINUOUS
 62
     2
100
AcDbLine
 10
675.0000000000002
 20
1297.0
 30
0.0
 11
676.5000000000001
 21
1297.0
 31
0.0
  0
LINE
  5
DD
330
1F
100
AcDbEntity
  8
化粧台
  6
CONTINUOUS
 62
     4
100
AcDbLine
 10
676.5000000000001
 20
1305.8
 30
0.0
 11
676.5000000000001
 21
1295.8
 31
0.0
  0
LINE
  5
DE
330
1F
100
AcDbEntity
  8
化粧台
  6
CONTINUOUS
 62
     4
100
AcDbLine
 10
676.5000000000001
 20
1788.2
 30
0.0
 11
676.5000000000001
 21
1798.2
 31
0.0
  0
LINE
  5
DF
330
1F
100
AcDbEntity
  8
化粧台
  6
CONTINUOUS
 62
     2
100
AcDbLine
 10
690.0000000000002
 20
2073.999999999999
 30
0.0
 11
690.0000000000002
 21
2173.999999999999
 31
0.0
  0
LINE
  5
E0
330
1F
100
AcDbEntity
  8
化粧台
  6
CONTINUOUS
 62
     2
100
AcDbLine
 10
675.0000000000002
 20
2073.999999999999
 30
0.0
 11
675.0000000000002
 21
2173.999999999999
 31
0.0
  0
LINE
  5
E1
330
1F
100
AcDbEntity
  8
化粧台
  6
CONTINUOUS
 62
     2
100
AcDbLine
 10
675.0000000000002
 20
2073.999999999999
 30
0.0
 11
690.0000000000002
 21
2073.999999999999
 31
0.0
  0
LINE
  5
E2
330
1F
100
AcDbEntity
  8
化粧台
  6
CONTINUOUS
 62
     2
100
AcDbLine
 10
675.0000000000002
 20
2072.0
 30
0.0
 11
676.5000000000001
 21
2072.0
 31
0.0
  0
LINE
  5
E3
330
1F
100
AcDbEntity
  8
化粧台
  6
CONTINUOUS
 62
     2
100
AcDbLine
 10
675.0000000000002
 20
2057.0
 30
0.0
 11
675.0000000000002
 21
2072.0
 31
0.0
  0
LINE
  5
E4
330
1F
100
AcDbEntity
  8
化粧台
  6
CONTINUOUS
 62
     2
100
AcDbLine
 10
675.5000000000039
 20
2056.999999999999
 30
0.0
 11
675.5000000000039
 21
2054.0
 31
0.0
  0
LINE
  5
E5
330
1F
100
AcDbEntity
  8
化粧台
  6
CONTINUOUS
 62
     2
100
AcDbLine
 10
675.0000000000002
 20
2056.999999999999
 30
0.0
 11
676.5000000000001
 21
2056.999999999999
 31
0.0
  0
LINE
  5
E6
330
1F
100
AcDbEntity
  8
化粧台
  6
CONTINUOUS
 62
     2
100
AcDbLine
 10
675.5000000000002
 20
2054.0
 30
0.0
 11
676.5000000000001
 21
2054.0
 31
0.0
  0
LINE
  5
E7
330
1F
100
AcDbEntity
  8
化粧台
  6
CONTINUOUS
 62
     4
100
AcDbLine
 10
676.5000000000001
 20
2052.799999999999
 30
0.0
 11
676.5000000000001
 21
2072.799999999999
 31
0.0
  0
LINE
  5
E8
330
1F
100
AcDbEntity
  8
化粧台
  6
CONTINUOUS
 62
     2
100
AcDbLine
 10
1123.5
 20
1797.0
 30
0.0
 11
1125.0
 21
1797.0
 31
0.0
  0
LINE
  5
E9
330
1F
100
AcDbEntity
  8
化粧台
  6
CONTINUOUS
 62
     4
100
AcDbLine
 10
1123.5
 20
1788.2
 30
0.0
 11
1123.5
 21
1798.2
 31
0.0
  0
LINE
  5
EA
330
1F
100
AcDbEntity
  8
化粧台
  6
CONTINUOUS
 62
     4
100
AcDbLine
 10
1123.5
 20
1798.2
 30
0.0
 11
676.5000000000001
 21
1798.2
 31
0.0
  0
LINE
  5
EB
330
1F
100
AcDbEntity
  8
化粧台
  6
CONTINUOUS
 62
     4
100
AcDbLine
 10
1123.5
 20
1788.2
 30
0.0
 11
676.5000000000001
 21
1788.2
 31
0.0
  0
LINE
  5
EC
330
1F
100
AcDbEntity
  8
化粧台
  6
EXLTYPE3
 62
     6
100
AcDbLine
 10
1125.0
 20
1797.0
 30
0.0
 11
675.0000000000002
 21
1547.0
 31
0.0
  0
LINE
  5
ED
330
1F
100
AcDbEntity
  8
化粧台
  6
CONTINUOUS
 62
     2
100
AcDbLine
 10
675.0000000000002
 20
2173.999999999999
 30
0.0
 11
1125.0
 21
2173.999999999999
 31
0.0
  0
LINE
  5
EE
330
1F
100
AcDbEntity
  8
化粧台
  6
CONTINUOUS
 62
     2
100
AcDbLine
 10
1110.0
 20
2073.999999999999
 30
0.0
 11
1110.0
 21
2173.999999999999
 31
0.0
  0
LINE
  5
EF
330
1F
100
AcDbEntity
  8
化粧台
  6
CONTINUOUS
 62
     2
100
AcDbLine
 10
1125.0
 20
2073.999999999999
 30
0.0
 11
1125.0
 21
2173.999999999999
 31
0.0
  0
LINE
  5
F0
330
1F
100
AcDbEntity
  8
化粧台
  6
CONTINUOUS
 62
     2
100
AcDbLine
 10
690.0000000000002
 20
2074.999999999999
 30
0.0
 11
1110.0
 21
2074.999999999999
 31
0.0
  0
LINE
  5
F1
330
1F
100
AcDbEntity
  8
化粧台
  6
CONTINUOUS
 62
     2
100
AcDbLine
 10
1110.0
 20
2073.999999999999
 30
0.0
 11
1125.0
 21
2073.999999999999
 31
0.0
  0
LINE
  5
F2
330
1F
100
AcDbEntity
  8
化粧台
  6
CONTINUOUS
 62
     2
100
AcDbLine
 10
1123.5
 20
2072.0
 30
0.0
 11
1125.0
 21
2072.0
 31
0.0
  0
LINE
  5
F3
330
1F
100
AcDbEntity
  8
化粧台
  6
CONTINUOUS
 62
     4
100
AcDbLine
 10
676.5000000000001
 20
2052.799999999999
 30
0.0
 11
1123.5
 21
2052.799999999999
 31
0.0
  0
LINE
  5
F4
330
1F
100
AcDbEntity
  8
化粧台
  6
CONTINUOUS
 62
     2
100
AcDbLine
 10
1125.0
 20
2072.0
 30
0.0
 11
1125.0
 21
2056.999999999999
 31
0.0
  0
LINE
  5
F5
330
1F
100
AcDbEntity
  8
化粧台
  6
CONTINUOUS
 62
     2
100
AcDbLine
 10
1124.500000000033
 20
2056.999999999999
 30
0.0
 11
1124.500000000033
 21
2054.0
 31
0.0
  0
LINE
  5
F6
330
1F
100
AcDbEntity
  8
化粧台
  6
CONTINUOUS
 62
     2
100
AcDbLine
 10
1123.5
 20
2056.999999999999
 30
0.0
 11
1125.0
 21
2056.999999999999
 31
0.0
  0
LINE
  5
F7
330
1F
100
AcDbEntity
  8
化粧台
  6
CONTINUOUS
 62
     2
100
AcDbLine
 10
1123.5
 20
2054.0
 30
0.0
 11
1124.5
 21
2054.0
 31
0.0
  0
LINE
  5
F8
330
1F
100
AcDbEntity
  8
化粧台
  6
CONTINUOUS
 62
     4
100
AcDbLine
 10
676.5000000000001
 20
2072.799999999999
 30
0.0
 11
1123.5
 21
2072.799999999999
 31
0.0
  0
LINE
  5
F9
330
1F
100
AcDbEntity
  8
化粧台
  6
CONTINUOUS
 62
     4
100
AcDbLine
 10
1123.5
 20
2052.799999999999
 30
0.0
 11
1123.5
 21
2072.799999999999
 31
0.0
  0
LINE
  5
FA
330
1F
100
AcDbEntity
  8
化粧台
  6
CONTINUOUS
 62
     2
100
AcDbLine
 10
1359.0
 20
1797.0
 30
0.0
 11
1374.0
 21
1797.0
 31
0.0
  0
LINE
  5
FB
330
1F
100
AcDbEntity
  8
化粧台
  6
CONTINUOUS
 62
     2
100
AcDbLine
 10
1359.0
 20
1297.0
 30
0.0
 11
1374.0
 21
1297.0
 31
0.0
  0
LINE
  5
FC
330
1F
100
AcDbEntity
  8
化粧台
  6
CONTINUOUS
 62
     2
100
AcDbLine
 10
1356.0
 20
1796.5
 30
0.0
 11
1356.0
 21
1297.5
 31
0.0
  0
LINE
  5
FD
330
1F
100
AcDbEntity
  8
化粧台
  6
CONTINUOUS
 62
     2
100
AcDbLine
 10
1356.0
 20
1796.5
 30
0.0
 11
1359.0
 21
1796.5
 31
0.0
  0
LINE
  5
FE
330
1F
100
AcDbEntity
  8
化粧台
  6
CONTINUOUS
 62
     2
100
AcDbLine
 10
1356.0
 20
1297.5
 30
0.0
 11
1359.0
 21
1297.5
 31
0.0
  0
LINE
  5
FF
330
1F
100
AcDbEntity
  8
化粧台
  6
CONTINUOUS
 62
     2
100
AcDbLine
 10
1359.0
 20
1797.0
 30
0.0
 11
1359.0
 21
1297.0
 31
0.0
  0
LINE
  5
100
330
1F
100
AcDbEntity
  8
化粧台
  6
CONTINUOUS
 62
     4
100
AcDbLine
 10
1354.800000000003
 20
1798.2
 30
0.0
 11
1354.800000000003
 21
1788.2
 31
0.0
  0
LINE
  5
101
330
1F
100
AcDbEntity
  8
化粧台
  6
CONTINUOUS
 62
     4
100
AcDbLine
 10
1354.799999999999
 20
1788.2
 30
0.0
 11
1356.0
 21
1788.2
 31
0.0
  0
LINE
  5
102
330
1F
100
AcDbEntity
  8
化粧台
  6
CONTINUOUS
 62
     4
100
AcDbLine
 10
1356.0
 20
1788.2
 30
0.0
 11
1356.0
 21
1797.0
 31
0.0
  0
LINE
  5
103
330
1F
100
AcDbEntity
  8
化粧台
  6
CONTINUOUS
 62
     4
100
AcDbLine
 10
1354.799999999999
 20
1305.8
 30
0.0
 11
1356.0
 21
1305.8
 31
0.0
  0
LINE
  5
104
330
1F
100
AcDbEntity
  8
化粧台
  6
CONTINUOUS
 62
     4
100
AcDbLine
 10
1354.800000000003
 20
1295.8
 30
0.0
 11
1354.800000000003
 21
1305.8
 31
0.0
  0
LINE
  5
105
330
1F
100
AcDbEntity
  8
化粧台
  6
CONTINUOUS
 62
     4
100
AcDbLine
 10
1356.0
 20
1305.8
 30
0.0
 11
1356.0
 21
1297.0
 31
0.0
  0
LINE
  5
106
330
1F
100
AcDbEntity
  8
化粧台
  6
CONTINUOUS
 62
     4
100
AcDbLine
 10
1374.799999999999
 20
1798.2
 30
0.0
 11
1374.799999999999
 21
1797.0
 31
0.0
  0
LINE
  5
107
330
1F
100
AcDbEntity
  8
化粧台
  6
CONTINUOUS
 62
     4
100
AcDbLine
 10
1356.0
 20
1797.0
 30
0.0
 11
1374.799999999999
 21
1797.0
 31
0.0
  0
LINE
  5
108
330
1F
100
AcDbEntity
  8
化粧台
  6
CONTINUOUS
 62
     4
100
AcDbLine
 10
1354.800000000003
 20
1798.2
 30
0.0
 11
1374.799999999999
 21
1798.2
 31
0.0
  0
LINE
  5
109
330
1F
100
AcDbEntity
  8
化粧台
  6
CONTINUOUS
 62
     4
100
AcDbLine
 10
1374.799999999999
 20
1295.8
 30
0.0
 11
1374.799999999999
 21
1297.0
 31
0.0
  0
LINE
  5
10A
330
1F
100
AcDbEntity
  8
化粧台
  6
CONTINUOUS
 62
     4
100
AcDbLine
 10
1354.800000000003
 20
1295.8
 30
0.0
 11
1374.799999999999
 21
1295.8
 31
0.0
  0
LINE
  5
10B
330
1F
100
AcDbEntity
  8
化粧台
  6
CONTINUOUS
 62
     4
100
AcDbLine
 10
1356.0
 20
1297.0
 30
0.0
 11
1374.799999999999
 21
1297.0
 31
0.0
  0
LINE
  5
10C
330
1F
100
AcDbEntity
  8
化粧台
  6
CONTINUOUS
 62
     2
100
AcDbLine
 10
1376.0
 20
1792.0
 30
0.0
 11
1376.0
 21
1312.0
 31
0.0
  0
LINE
  5
10D
330
1F
100
AcDbEntity
  8
化粧台
  6
CONTINUOUS
 62
     2
100
AcDbLine
 10
1476.0
 20
1792.0
 30
0.0
 11
1476.0
 21
1312.0
 31
0.0
  0
LINE
  5
10E
330
1F
100
AcDbEntity
  8
化粧台
  6
CONTINUOUS
 62
     2
100
AcDbLine
 10
1376.0
 20
1792.0
 30
0.0
 11
1476.0
 21
1792.0
 31
0.0
  0
LINE
  5
10F
330
1F
100
AcDbEntity
  8
化粧台
  6
CONTINUOUS
 62
     2
100
AcDbLine
 10
1376.0
 20
1312.0
 30
0.0
 11
1476.0
 21
1312.0
 31
0.0
  0
LINE
  5
110
330
1F
100
AcDbEntity
  8
化粧台
  6
CONTINUOUS
 62
     2
100
AcDbLine
 10
1374.0
 20
1797.0
 30
0.0
 11
1374.0
 21
1297.0
 31
0.0
  0
LINE
  5
111
330
1F
100
AcDbEntity
  8
化粧台
  6
CONTINUOUS
 62
     6
100
AcDbLine
 10
732.0000000000002
 20
1361.999999999999
 30
0.0
 11
768.0000000000003
 21
1361.999999999999
 31
0.0
  0
LINE
  5
112
330
1F
100
AcDbEntity
  8
化粧台
  6
CONTINUOUS
 62
     6
100
AcDbLine
 10
750.0000000000003
 20
1344.0
 30
0.0
 11
750.0000000000003
 21
1380.0
 31
0.0
  0
CIRCLE
  5
113
330
1F
100
AcDbEntity
  8
化粧台
  6
EXLTYPE2
 62
     6
100
AcDbCircle
 10
750.0000000000003
 20
1362.0
 30
0.0
 40
2.5
  0
CIRCLE
  5
114
330
1F
100
AcDbEntity
  8
化粧台
  6
EXLTYPE2
 62
     6
100
AcDbCircle
 10
750.0000000000003
 20
1362.0
 30
0.0
 40
8.0
  0
LINE
  5
115
330
1F
100
AcDbEntity
  8
化粧台
  6
CONTINUOUS
 62
     6
100
AcDbLine
 10
1032.0
 20
1361.999999999999
 30
0.0
 11
1068.0
 21
1361.999999999999
 31
0.0
  0
LINE
  5
116
330
1F
100
AcDbEntity
  8
化粧台
  6
CONTINUOUS
 62
     6
100
AcDbLine
 10
1050.0
 20
1344.0
 30
0.0
 11
1050.0
 21
1380.0
 31
0.0
  0
CIRCLE
  5
117
330
1F
100
AcDbEntity
  8
化粧台
  6
EXLTYPE2
 62
     6
100
AcDbCircle
 10
1050.0
 20
1362.0
 30
0.0
 40
2.5
  0
CIRCLE
  5
118
330
1F
100
AcDbEntity
  8
化粧台
  6
EXLTYPE2
 62
     6
100
AcDbCircle
 10
1050.0
 20
1362.0
 30
0.0
 40
8.0
  0
LINE
  5
119
330
1F
100
AcDbEntity
  8
化粧台
  6
CONTINUOUS
 62
     6
100
AcDbLine
 10
1032.0
 20
1741.999999999999
 30
0.0
 11
1068.0
 21
1741.999999999999
 31
0.0
  0
LINE
  5
11A
330
1F
100
AcDbEntity
  8
化粧台
  6
CONTINUOUS
 62
     6
100
AcDbLine
 10
1050.0
 20
1724.0
 30
0.0
 11
1050.0
 21
1760.0
 31
0.0
  0
CIRCLE
  5
11B
330
1F
100
AcDbEntity
  8
化粧台
  6
EXLTYPE2
 62
     6
100
AcDbCircle
 10
1050.0
 20
1742.0
 30
0.0
 40
2.5
  0
CIRCLE
  5
11C
330
1F
100
AcDbEntity
  8
化粧台
  6
EXLTYPE2
 62
     6
100
AcDbCircle
 10
1050.0
 20
1742.0
 30
0.0
 40
8.0
  0
LINE
  5
11D
330
1F
100
AcDbEntity
  8
化粧台
  6
CONTINUOUS
 62
     6
100
AcDbLine
 10
732.0000000000002
 20
1741.999999999999
 30
0.0
 11
768.0000000000003
 21
1741.999999999999
 31
0.0
  0
LINE
  5
11E
330
1F
100
AcDbEntity
  8
化粧台
  6
CONTINUOUS
 62
     6
100
AcDbLine
 10
750.0000000000003
 20
1724.0
 30
0.0
 11
750.0000000000003
 21
1760.0
 31
0.0
  0
CIRCLE
  5
11F
330
1F
100
AcDbEntity
  8
化粧台
  6
EXLTYPE2
 62
     6
100
AcDbCircle
 10
750.0000000000003
 20
1742.0
 30
0.0
 40
2.5
  0
CIRCLE
  5
120
330
1F
100
AcDbEntity
  8
化粧台
  6
EXLTYPE2
 62
     6
100
AcDbCircle
 10
750.0000000000003
 20
1742.0
 30
0.0
 40
8.0
  0
LINE
  5
121
330
1F
100
AcDbEntity
  8
化粧台
  6
EXLTYPE3
 62
     6
100
AcDbLine
 10
1050.000000000001
 20
2214.799999999839
 30
0.0
 11
1050.000000000001
 21
2172.049999999839
 31
0.0
  0
ARC
  5
122
330
1F
100
AcDbEntity
  8
化粧台
  6
CONTINUOUS
 62
     6
100
AcDbCircle
 10
1063.500000000001
 20
2200.661651584698
 30
0.0
 40
15.00000000000001
100
AcDbArc
 50
154.1580672368321
 51
180.0
  0
ARC
  5
123
330
1F
100
AcDbEntity
  8
化粧台
  6
CONTINUOUS
 62
     6
100
AcDbCircle
 10
1036.500000000001
 20
2200.661651584729
 30
0.0
 40
15.00000000000001
100
AcDbArc
 50
0.0
 51
25.84193276307938
  0
LINE
  5
124
330
1F
100
AcDbEntity
  8
化粧台
  6
CONTINUOUS
 62
     6
100
AcDbLine
 10
1051.500000000001
 20
2173.999999999998
 30
0.0
 11
1051.500000000001
 21
2200.661651584729
 31
0.0
  0
LINE
  5
125
330
1F
100
AcDbEntity
  8
化粧台
  6
CONTINUOUS
 62
     6
100
AcDbLine
 10
1048.500000000001
 20
2173.999999999998
 30
0.0
 11
1048.500000000001
 21
2200.661651584698
 31
0.0
  0
LINE
  5
126
330
1F
100
AcDbEntity
  8
化粧台
  6
EXLTYPE3
 62
     6
100
AcDbLine
 10
750.0000000000007
 20
2214.799999999839
 30
0.0
 11
750.0000000000007
 21
2172.049999999839
 31
0.0
  0
ARC
  5
127
330
1F
100
AcDbEntity
  8
化粧台
  6
CONTINUOUS
 62
     6
100
AcDbCircle
 10
763.5000000000006
 20
2200.661651584698
 30
0.0
 40
15.00000000000001
100
AcDbArc
 50
154.1580672368321
 51
180.0
  0
ARC
  5
128
330
1F
100
AcDbEntity
  8
化粧台
  6
CONTINUOUS
 62
     6
100
AcDbCircle
 10
736.5000000000007
 20
2200.661651584729
 30
0.0
 40
15.00000000000001
100
AcDbArc
 50
0.0
 51
25.84193276307938
  0
LINE
  5
129
330
1F
100
AcDbEntity
  8
化粧台
  6
CONTINUOUS
 62
     6
100
AcDbLine
 10
751.5000000000007
 20
2173.999999999998
 30
0.0
 11
751.5000000000007
 21
2200.661651584729
 31
0.0
  0
LINE
  5
12A
330
1F
100
AcDbEntity
  8
化粧台
  6
CONTINUOUS
 62
     6
100
AcDbLine
 10
748.5000000000006
 20
2173.999999999998
 30
0.0
 11
748.5000000000006
 21
2200.661651584698
 31
0.0
  0
LINE
  5
12B
330
1F
100
AcDbEntity
  8
化粧台
  6
EXLTYPE3
 62
     6
100
AcDbLine
 10
1516.799999999839
 20
1742.0
 30
0.0
 11
1474.049999999839
 21
1742.0
 31
0.0
  0
ARC
  5
12C
330
1F
100
AcDbEntity
  8
化粧台
  6
CONTINUOUS
 62
     6
100
AcDbCircle
 10
1502.661651584698
 20
1728.5
 30
0.0
 40
15.00000000000001
100
AcDbArc
 50
64.15806723683205
 51
90.00000000000004
  0
ARC
  5
12D
330
1F
100
AcDbEntity
  8
化粧台
  6
CONTINUOUS
 62
     6
100
AcDbCircle
 10
1502.661651584729
 20
1755.5
 30
0.0
 40
15.00000000000001
100
AcDbArc
 50
270.0000000000002
 51
295.8419327630793
  0
LINE
  5
12E
330
1F
100
AcDbEntity
  8
化粧台
  6
CONTINUOUS
 62
     6
100
AcDbLine
 10
1475.999999999998
 20
1740.5
 30
0.0
 11
1502.661651584729
 21
1740.5
 31
0.0
  0
LINE
  5
12F
330
1F
100
AcDbEntity
  8
化粧台
  6
CONTINUOUS
 62
     6
100
AcDbLine
 10
1475.999999999998
 20
1743.5
 30
0.0
 11
1502.661651584698
 21
1743.5
 31
0.0
  0
LINE
  5
130
330
1F
100
AcDbEntity
  8
化粧台
  6
EXLTYPE3
 62
     6
100
AcDbLine
 10
1516.799999999839
 20
1362.0
 30
0.0
 11
1474.049999999839
 21
1362.0
 31
0.0
  0
ARC
  5
131
330
1F
100
AcDbEntity
  8
化粧台
  6
CONTINUOUS
 62
     6
100
AcDbCircle
 10
1502.661651584698
 20
1348.5
 30
0.0
 40
15.00000000000001
100
AcDbArc
 50
64.15806723683205
 51
90.00000000000004
  0
ARC
  5
132
330
1F
100
AcDbEntity
  8
化粧台
  6
CONTINUOUS
 62
     6
100
AcDbCircle
 10
1502.661651584729
 20
1375.5
 30
0.0
 40
15.00000000000001
100
AcDbArc
 50
270.0000000000002
 51
295.8419327630793
  0
LINE
  5
133
330
1F
100
AcDbEntity
  8
化粧台
  6
CONTINUOUS
 62
     6
100
AcDbLine
 10
1475.999999999998
 20
1360.5
 30
0.0
 11
1502.661651584729
 21
1360.5
 31
0.0
  0
LINE
  5
134
330
1F
100
AcDbEntity
  8
化粧台
  6
CONTINUOUS
 62
     6
100
AcDbLine
 10
1475.999999999998
 20
1363.5
 30
0.0
 11
1502.661651584698
 21
1363.5
 31
0.0
  0
LINE
  5
135
330
1F
100
AcDbEntity
  8
化粧台
  6
CONTINUOUS
 62
     2
100
AcDbLine
 10
1125.0
 20
1297.0
 30
0.0
 11
1123.5
 21
1297.0
 31
0.0
  0
LINE
  5
136
330
1F
100
AcDbEntity
  8
化粧台
  6
CONTINUOUS
 62
     4
100
AcDbLine
 10
1123.5
 20
1305.8
 30
0.0
 11
1123.5
 21
1295.8
 31
0.0
  0
LINE
  5
137
330
1F
100
AcDbEntity
  8
化粧台
  6
CONTINUOUS
 62
     2
100
AcDbLine
 10
1125.0
 20
1797.0
 30
0.0
 11
1125.0
 21
1297.0
 31
0.0
  0
LINE
  5
138
330
1F
100
AcDbEntity
  8
化粧台
  6
CONTINUOUS
 62
     4
100
AcDbLine
 10
1123.5
 20
1305.8
 30
0.0
 11
676.5000000000001
 21
1305.8
 31
0.0
  0
LINE
  5
139
330
1F
100
AcDbEntity
  8
化粧台
  6
CONTINUOUS
 62
     4
100
AcDbLine
 10
1123.5
 20
1295.8
 30
0.0
 11
676.5000000000001
 21
1295.8
 31
0.0
  0
LINE
  5
13A
330
1F
100
AcDbEntity
  8
化粧台
  6
EXLTYPE3
 62
     6
100
AcDbLine
 10
1125.0
 20
1297.0
 30
0.0
 11
675.0000000000002
 21
1547.0
 31
0.0
  0
LINE
  5
13B
330
1F
100
AcDbEntity
  8
化粧台
  6
EXLTYPE2
 62
     6
100
AcDbLine
 10
1125.0
 20
1791.0
 30
0.0
 11
675.0000000000002
 21
1791.0
 31
0.0
  0
LINE
  5
13C
330
1F
100
AcDbEntity
  8
化粧台
  6
EXLTYPE2
 62
     6
100
AcDbLine
 10
1125.0
 20
1312.0
 30
0.0
 11
675.0000000000001
 21
1312.0
 31
0.0
  0
ARC
  5
13D
330
1F
100
AcDbEntity
  8
化粧台
  6
EXLTYPE2
 62
     6
100
AcDbCircle
 10
1395.75
 20
1577.249999999999
 30
0.0
 40
1.250000000000569
100
AcDbArc
 50
180.0
 51
0.0
  0
ARC
  5
13E
330
1F
100
AcDbEntity
  8
化粧台
  6
EXLTYPE2
 62
     6
100
AcDbCircle
 10
1451.75
 20
1572.749999999999
 30
0.0
 40
1.249999999999631
100
AcDbArc
 50
270.0000000000002
 51
90.00000000000004
  0
LINE
  5
13F
330
1F
100
AcDbEntity
  8
化粧台
  6
EXLTYPE2
 62
     6
100
AcDbLine
 10
1382.5
 20
1608.999999999999
 30
0.0
 11
1382.5
 21
1586.499999999999
 31
0.0
  0
LINE
  5
140
330
1F
100
AcDbEntity
  8
化粧台
  6
EXLTYPE2
 62
     6
100
AcDbLine
 10
1380.0
 20
1608.999999999999
 30
0.0
 11
1382.5
 21
1608.999999999999
 31
0.0
  0
LINE
  5
141
330
1F
100
AcDbEntity
  8
化粧台
  6
EXLTYPE2
 62
     6
100
AcDbLine
 10
1380.0
 20
1608.999999999999
 30
0.0
 11
1380.0
 21
1569.0
 31
0.0
  0
LINE
  5
142
330
1F
100
AcDbEntity
  8
化粧台
  6
EXLTYPE2
 62
     6
100
AcDbLine
 10
1380.0
 20
1568.999999999999
 30
0.0
 11
1382.5
 21
1568.999999999999
 31
0.0
  0
LINE
  5
143
330
1F
100
AcDbEntity
  8
化粧台
  6
EXLTYPE2
 62
     6
100
AcDbLine
 10
1382.5
 20
1583.999999999999
 30
0.0
 11
1382.5
 21
1568.999999999999
 31
0.0
  0
LINE
  5
144
330
1F
100
AcDbEntity
  8
化粧台
  6
EXLTYPE2
 62
     6
100
AcDbLine
 10
1382.5
 20
1583.999999999999
 30
0.0
 11
1394.5
 21
1583.999999999999
 31
0.0
  0
LINE
  5
145
330
1F
100
AcDbEntity
  8
化粧台
  6
EXLTYPE2
 62
     6
100
AcDbLine
 10
1394.5
 20
1583.999999999999
 30
0.0
 11
1394.5
 21
1577.25
 31
0.0
  0
LINE
  5
146
330
1F
100
AcDbEntity
  8
化粧台
  6
EXLTYPE2
 62
     6
100
AcDbLine
 10
1397.0
 20
1583.999999999999
 30
0.0
 11
1397.0
 21
1577.25
 31
0.0
  0
LINE
  5
147
330
1F
100
AcDbEntity
  8
化粧台
  6
EXLTYPE2
 62
     6
100
AcDbLine
 10
1397.0
 20
1583.999999999999
 30
0.0
 11
1442.5
 21
1583.999999999999
 31
0.0
  0
LINE
  5
148
330
1F
100
AcDbEntity
  8
化粧台
  6
EXLTYPE2
 62
     6
100
AcDbLine
 10
1382.5
 20
1586.499999999999
 30
0.0
 11
1458.0
 21
1586.499999999999
 31
0.0
  0
LINE
  5
149
330
1F
100
AcDbEntity
  8
化粧台
  6
EXLTYPE2
 62
     6
100
AcDbLine
 10
1458.0
 20
1586.5
 30
0.0
 11
1458.0
 21
1583.999999999999
 31
0.0
  0
LINE
  5
14A
330
1F
100
AcDbEntity
  8
化粧台
  6
EXLTYPE2
 62
     6
100
AcDbLine
 10
1445.0
 20
1583.999999999999
 30
0.0
 11
1458.0
 21
1583.999999999999
 31
0.0
  0
LINE
  5
14B
330
1F
100
AcDbEntity
  8
化粧台
  6
EXLTYPE2
 62
     6
100
AcDbLine
 10
1445.0
 20
1583.999999999999
 30
0.0
 11
1445.0
 21
1573.999999999999
 31
0.0
  0
LINE
  5
14C
330
1F
100
AcDbEntity
  8
化粧台
  6
EXLTYPE2
 62
     6
100
AcDbLine
 10
1445.0
 20
1573.999999999999
 30
0.0
 11
1451.75
 21
1573.999999999999
 31
0.0
  0
LINE
  5
14D
330
1F
100
AcDbEntity
  8
化粧台
  6
EXLTYPE2
 62
     6
100
AcDbLine
 10
1442.5
 20
1583.999999999999
 30
0.0
 11
1442.499999999999
 21
1571.499999999999
 31
0.0
  0
LINE
  5
14E
330
1F
100
AcDbEntity
  8
化粧台
  6
EXLTYPE2
 62
     6
100
AcDbLine
 10
1442.499999999999
 20
1571.499999999999
 30
0.0
 11
1451.75
 21
1571.499999999999
 31
0.0
  0
ARC
  5
14F
330
1F
100
AcDbEntity
  8
化粧台
  6
EXLTYPE2
 62
     6
100
AcDbCircle
 10
1395.75
 20
1337.249999999999
 30
0.0
 40
1.250000000000569
100
AcDbArc
 50
180.0
 51
0.0
  0
ARC
  5
150
330
1F
100
AcDbEntity
  8
化粧台
  6
EXLTYPE2
 62
     6
100
AcDbCircle
 10
1451.75
 20
1332.749999999999
 30
0.0
 40
1.249999999999631
100
AcDbArc
 50
270.0000000000002
 51
90.00000000000004
  0
LINE
  5
151
330
1F
100
AcDbEntity
  8
化粧台
  6
EXLTYPE2
 62
     6
100
AcDbLine
 10
1382.5
 20
1368.999999999999
 30
0.0
 11
1382.5
 21
1346.499999999999
 31
0.0
  0
LINE
  5
152
330
1F
100
AcDbEntity
  8
化粧台
  6
EXLTYPE2
 62
     6
100
AcDbLine
 10
1380.0
 20
1368.999999999999
 30
0.0
 11
1382.5
 21
1368.999999999999
 31
0.0
  0
LINE
  5
153
330
1F
100
AcDbEntity
  8
化粧台
  6
EXLTYPE2
 62
     6
100
AcDbLine
 10
1380.0
 20
1368.999999999999
 30
0.0
 11
1380.0
 21
1329.0
 31
0.0
  0
LINE
  5
154
330
1F
100
AcDbEntity
  8
化粧台
  6
EXLTYPE2
 62
     6
100
AcDbLine
 10
1380.0
 20
1328.999999999999
 30
0.0
 11
1382.5
 21
1328.999999999999
 31
0.0
  0
LINE
  5
155
330
1F
100
AcDbEntity
  8
化粧台
  6
EXLTYPE2
 62
     6
100
AcDbLine
 10
1382.5
 20
1343.999999999999
 30
0.0
 11
1382.5
 21
1328.999999999999
 31
0.0
  0
LINE
  5
156
330
1F
100
AcDbEntity
  8
化粧台
  6
EXLTYPE2
 62
     6
100
AcDbLine
 10
1382.5
 20
1343.999999999999
 30
0.0
 11
1394.5
 21
1343.999999999999
 31
0.0
  0
LINE
  5
157
330
1F
100
AcDbEntity
  8
化粧台
  6
EXLTYPE2
 62
     6
100
AcDbLine
 10
1394.5
 20
1343.999999999999
 30
0.0
 11
1394.5
 21
1337.25
 31
0.0
  0
LINE
  5
158
330
1F
100
AcDbEntity
  8
化粧台
  6
EXLTYPE2
 62
     6
100
AcDbLine
 10
1397.0
 20
1343.999999999999
 30
0.0
 11
1397.0
 21
1337.25
 31
0.0
  0
LINE
  5
159
330
1F
100
AcDbEntity
  8
化粧台
  6
EXLTYPE2
 62
     6
100
AcDbLine
 10
1397.0
 20
1343.999999999999
 30
0.0
 11
1442.5
 21
1343.999999999999
 31
0.0
  0
LINE
  5
15A
330
1F
100
AcDbEntity
  8
化粧台
  6
EXLTYPE2
 62
     6
100
AcDbLine
 10
1382.5
 20
1346.499999999999
 30
0.0
 11
1458.0
 21
1346.499999999999
 31
0.0
  0
LINE
  5
15B
330
1F
100
AcDbEntity
  8
化粧台
  6
EXLTYPE2
 62
     6
100
AcDbLine
 10
1458.0
 20
1346.5
 30
0.0
 11
1458.0
 21
1343.999999999998
 31
0.0
  0
LINE
  5
15C
330
1F
100
AcDbEntity
  8
化粧台
  6
EXLTYPE2
 62
     6
100
AcDbLine
 10
1445.0
 20
1343.999999999998
 30
0.0
 11
1458.0
 21
1343.999999999998
 31
0.0
  0
LINE
  5
15D
330
1F
100
AcDbEntity
  8
化粧台
  6
EXLTYPE2
 62
     6
100
AcDbLine
 10
1445.0
 20
1343.999999999998
 30
0.0
 11
1445.0
 21
1333.999999999998
 31
0.0
  0
LINE
  5
15E
330
1F
100
AcDbEntity
  8
化粧台
  6
EXLTYPE2
 62
     6
100
AcDbLine
 10
1445.0
 20
1333.999999999998
 30
0.0
 11
1451.75
 21
1333.999999999999
 31
0.0
  0
LINE
  5
15F
330
1F
100
AcDbEntity
  8
化粧台
  6
EXLTYPE2
 62
     6
100
AcDbLine
 10
1442.5
 20
1343.999999999999
 30
0.0
 11
1442.499999999999
 21
1331.499999999999
 31
0.0
  0
LINE
  5
160
330
1F
100
AcDbEntity
  8
化粧台
  6
EXLTYPE2
 62
     6
100
AcDbLine
 10
1442.499999999999
 20
1331.499999999999
 30
0.0
 11
1451.75
 21
1331.499999999998
 31
0.0
  0
LINE
  5
161
330
1F
100
AcDbEntity
  8
化粧台
  6
CONTINUOUS
 62
     6
100
AcDbLine
 10
817.2144660940686
 20
1423.285533905901
 30
0.0
 11
804.4644660940686
 21
1410.535533905905
 31
0.0
  0
LINE
  5
162
330
1F
100
AcDbEntity
  8
化粧台
  6
CONTINUOUS
 62
     6
100
AcDbLine
 10
796.5000000000001
 20
1395.499999999974
 30
0.0
 11
829.0000000000038
 21
1427.999999999971
 31
0.0
  0
LINE
  5
163
330
1F
100
AcDbEntity
  8
化粧台
  6
CONTINUOUS
 62
     6
100
AcDbLine
 10
807.0355339059336
 20
1398.964466094037
 30
0.0
 11
822.0355339059353
 21
1413.964466094035
 31
0.0
  0
LINE
  5
164
330
1F
100
AcDbEntity
  8
化粧台
  6
CONTINUOUS
 62
     6
100
AcDbLine
 10
991.2144660940687
 20
1526.285533905902
 30
0.0
 11
978.4644660940688
 21
1513.535533905905
 31
0.0
  0
LINE
  5
165
330
1F
100
AcDbEntity
  8
化粧台
  6
CONTINUOUS
 62
     6
100
AcDbLine
 10
970.4999999999984
 20
1498.499999999974
 30
0.0
 11
1003.000000000002
 21
1530.999999999971
 31
0.0
  0
LINE
  5
166
330
1F
100
AcDbEntity
  8
化粧台
  6
CONTINUOUS
 62
     6
100
AcDbLine
 10
981.0355339059336
 20
1501.964466094037
 30
0.0
 11
996.0355339059354
 21
1516.964466094035
 31
0.0
  0
LINE
  5
167
330
1F
100
AcDbEntity
  8
化粧台
  6
CONTINUOUS
 62
     6
100
AcDbLine
 10
835.1106925091588
 20
1691.672326358702
 30
0.0
 11
822.3606925091588
 21
1678.922326358705
 31
0.0
  0
LINE
  5
168
330
1F
100
AcDbEntity
  8
化粧台
  6
CONTINUOUS
 62
     6
100
AcDbLine
 10
814.3962264150884
 20
1663.886792452774
 30
0.0
 11
846.8962264150921
 21
1696.386792452771
 31
0.0
  0
LINE
  5
169
330
1F
100
AcDbEntity
  8
化粧台
  6
CONTINUOUS
 62
     6
100
AcDbLine
 10
824.9317603210236
 20
1667.351258546837
 30
0.0
 11
839.9317603210255
 21
1682.351258546835
 31
0.0
  0
DIMENSION
  5
16B
330
1F
100
AcDbEntity
  8
化粧台
  6
CONTINUOUS
 62
     3
100
AcDbDimension
  2
*D15
 10
1201.0
 20
2173.999999999999
 30
0.0
 11
1176.0
 21
2123.999999999999
 31
0.0
 70
   160
  3
ISO-25
100
AcDbAlignedDimension
 13
1125.0
 23
2073.999999999999
 33
0.0
 14
1125.0
 24
2173.999999999999
 34
0.0
 50
90.0
100
AcDbRotatedDimension
1001
ACAD
1000
DSTYLE
1002
{
1070
   270
1070
     2
1070
     6
1000
EX_NORM
1070
     7
1000
EX_NORM
1070
    41
1040
30.0
1070
    42
1040
6.99999988079071
1070
    44
1040
10.0
1070
    73
1070
     0
1070
    74
1070
     0
1070
    75
1070
     0
1070
    76
1070
     0
1070
    77
1070
     1
1070
    78
1070
     8
1070
   140
1040
40.0
1070
   147
1040
0.0
1070
   173
1070
     1
1070
   176
1070
     3
1070
   177
1070
     3
1070
   178
1070
     2
1070
   271
1070
     1
1070
   277
1070
     2
1070
   279
1070
     2
1070
   280
1070
     0
1070
   287
1070
     5
1070
   340
1005
16A
1002
}
  0
DIMENSION
  5
179
330
1F
100
AcDbEntity
  8
化粧台
  6
CONTINUOUS
 62
     3
100
AcDbDimension
  2
*D16
 10
1125.0
 20
2245.0
 30
0.0
 11
900.0000000000007
 21
2270.0
 31
0.0
 70
   160
  3
ISO-25
100
AcDbAlignedDimension
 13
675.0000000000003
 23
2173.999999999999
 33
0.0
 14
1125.0
 24
2173.999999999999
 34
0.0
100
AcDbRotatedDimension
1001
ACAD
1000
DSTYLE
1002
{
1070
   270
1070
     2
1070
     6
1000
EX_NORM
1070
     7
1000
EX_NORM
1070
    41
1040
30.0
1070
    42
1040
6.99999988079071
1070
    44
1040
10.0
1070
    73
1070
     0
1070
    74
1070
     0
1070
    75
1070
     0
1070
    76
1070
     0
1070
    77
1070
     1
1070
    78
1070
     8
1070
   140
1040
40.0
1070
   147
1040
0.0
1070
   173
1070
     1
1070
   176
1070
     3
1070
   177
1070
     3
1070
   178
1070
     2
1070
   271
1070
     1
1070
   277
1070
     2
1070
   279
1070
     2
1070
   280
1070
     0
1070
   287
1070
     5
1070
   340
1005
16A
1002
}
  0
DIMENSION
  5
186
330
1F
100
AcDbEntity
  8
化粧台
  6
CONTINUOUS
 62
     3
100
AcDbDimension
  2
*D17
 10
1637.0
 20
1312.0
 30
0.0
 11
1612.0
 21
1552.0
 31
0.0
 70
   160
  3
ISO-25
100
AcDbAlignedDimension
 13
1476.0
 23
1792.0
 33
0.0
 14
1476.0
 24
1312.0
 34
0.0
 50
90.0
100
AcDbRotatedDimension
1001
ACAD
1000
DSTYLE
1002
{
1070
   270
1070
     2
1070
     6
1000
EX_NORM
1070
     7
1000
EX_NORM
1070
    41
1040
30.0
1070
    42
1040
6.99999988079071
1070
    44
1040
10.0
1070
    73
1070
     0
1070
    74
1070
     0
1070
    75
1070
     0
1070
    76
1070
     0
1070
    77
1070
     1
1070
    78
1070
     8
1070
   140
1040
40.0
1070
   147
1040
0.0
1070
   173
1070
     1
1070
   176
1070
     3
1070
   177
1070
     3
1070
   178
1070
     2
1070
   271
1070
     1
1070
   277
1070
     2
1070
   279
1070
     2
1070
   280
1070
     0
1070
   287
1070
     5
1070
   340
1005
16A
1002
}
  0
DIMENSION
  5
193
330
1F
100
AcDbEntity
  8
化粧台
  6
CONTINUOUS
 62
     3
100
AcDbDimension
  2
*D18
 10
1476.0
 20
1852.0
 30
0.0
 11
1426.0
 21
1877.0
 31
0.0
 70
   160
  3
ISO-25
100
AcDbAlignedDimension
 13
1376.0
 23
1792.0
 33
0.0
 14
1476.0
 24
1792.0
 34
0.0
100
AcDbRotatedDimension
1001
ACAD
1000
DSTYLE
1002
{
1070
   270
1070
     2
1070
     6
1000
EX_NORM
1070
     7
1000
EX_NORM
1070
    41
1040
30.0
1070
    42
1040
6.99999988079071
1070
    44
1040
10.0
1070
    73
1070
     0
1070
    74
1070
     0
1070
    75
1070
     0
1070
    76
1070
     0
1070
    77
1070
     1
1070
    78
1070
     8
1070
   140
1040
40.0
1070
   147
1040
0.0
1070
   173
1070
     1
1070
   176
1070
     3
1070
   177
1070
     3
1070
   178
1070
     2
1070
   271
1070
     1
1070
   277
1070
     2
1070
   279
1070
     2
1070
   280
1070
     0
1070
   287
1070
     5
1070
   340
1005
16A
1002
}
  0
DIMENSION
  5
1A0
330
1F
100
AcDbEntity
  8
寸法
  6
CONTINUOUS
 62
     3
100
AcDbDimension
  2
*D19
 10
1125.0
 20
1912.0
 30
0.0
 11
900.0000000000001
 21
1935.499999940395
 31
0.0
 70
   160
  3
ISO-25
100
AcDbAlignedDimension
 13
674.9999999999998
 23
1797.0
 33
0.0
 14
1125.0
 24
1797.0
 34
0.0
100
AcDbRotatedDimension
1001
ACAD
1000
DSTYLE
1002
{
1070
   270
1070
     2
1070
     6
1000
EX_NORM
1070
     7
1000
EX_NORM
1070
    41
1040
30.0
1070
    42
1040
6.99999988079071
1070
    44
1040
10.0
1070
    73
1070
     0
1070
    74
1070
     0
1070
    75
1070
     0
1070
    76
1070
     0
1070
    77
1070
     1
1070
    78
1070
     8
1070
   140
1040
40.0
1070
   147
1040
0.0
1070
   173
1070
     1
1070
   176
1070
     3
1070
   177
1070
     3
1070
   178
1070
     2
1070
   271
1070
     2
1070
   277
1070
     2
1070
   279
1070
     2
1070
   280
1070
     0
1070
   287
1070
     5
1070
   340
1005
16A
1002
}
  0
DIMENSION
  5
1AD
330
1F
100
AcDbEntity
  8
寸法
  6
CONTINUOUS
 62
     3
100
AcDbDimension
  2
*D20
 10
1476.0
 20
1912.0
 30
0.0
 11
1415.4
 21
1935.499999940395
 31
0.0
 70
   160
  1
122
  3
ISO-25
100
AcDbAlignedDimension
 13
1354.8
 23
1798.200000000001
 33
0.0
 14
1476.0
 24
1792.0
 34
0.0
100
AcDbRotatedDimension
1001
ACAD
1000
DSTYLE
1002
{
1070
   270
1070
     2
1070
     6
1000
EX_NORM
1070
     7
1000
EX_NORM
1070
    41
1040
30.0
1070
    42
1040
6.99999988079071
1070
    44
1040
10.0
1070
    73
1070
     0
1070
    74
1070
     0
1070
    75
1070
     0
1070
    76
1070
     0
1070
    77
1070
     1
1070
    78
1070
     8
1070
   140
1040
40.0
1070
   147
1040
0.0
1070
   173
1070
     1
1070
   176
1070
     3
1070
   177
1070
     3
1070
   178
1070
     2
1070
   271
1070
     2
1070
   277
1070
     2
1070
   279
1070
     2
1070
   280
1070
     0
1070
   287
1070
     5
1070
   340
1005
16A
1002
}
  0
DIMENSION
  5
1BA
330
1F
100
AcDbEntity
  8
寸法
  6
CONTINUOUS
 62
     3
100
AcDbDimension
  2
*D21
 10
1209.0
 20
1798.200000000001
 30
0.0
 11
1185.500000059605
 21
1547.0
 31
0.0
 70
   160
  1
503
  3
ISO-25
100
AcDbAlignedDimension
 13
1123.5
 23
1295.8
 33
0.0
 14
1123.5
 24
1798.200000000001
 34
0.0
 50
90.0
100
AcDbRotatedDimension
1001
ACAD
1000
DSTYLE
1002
{
1070
   270
1070
     2
1070
     6
1000
EX_NORM
1070
     7
1000
EX_NORM
1070
    41
1040
30.0
1070
    42
1040
6.99999988079071
1070
    44
1040
10.0
1070
    73
1070
     0
1070
    74
1070
     0
1070
    75
1070
     0
1070
    76
1070
     0
1070
    77
1070
     1
1070
    78
1070
     8
1070
   140
1040
40.0
1070
   147
1040
0.0
1070
   173
1070
     1
1070
   176
1070
     3
1070
   177
1070
     3
1070
   178
1070
     2
1070
   271
1070
     2
1070
   277
1070
     2
1070
   279
1070
     2
1070
   280
1070
     0
1070
   287
1070
     5
1070
   340
1005
16A
1002
}
  0
DIMENSION
  5
1C7
330
1F
100
AcDbEntity
  8
寸法
  6
CONTINUOUS
 62
     3
100
AcDbDimension
  2
*D22
 10
1569.0
 20
1742.0
 30
0.0
 11
1545.500000059605
 21
1552.0
 31
0.0
 70
   160
  1
<>（壁固定）
  3
ISO-25
100
AcDbAlignedDimension
 13
1509.2
 23
1362.0
 33
0.0
 14
1509.2
 24
1742.0
 34
0.0
 50
90.0
100
AcDbRotatedDimension
1001
ACAD
1000
DSTYLE
1002
{
1070
   270
1070
     2
1070
     6
1000
EX_NORM
1070
     7
1000
EX_NORM
1070
    41
1040
30.0
1070
    42
1040
6.99999988079071
1070
    44
1040
10.0
1070
    73
1070
     0
1070
    74
1070
     0
1070
    75
1070
     0
1070
    76
1070
     0
1070
    77
1070
     1
1070
    78
1070
     8
1070
   140
1040
40.0
1070
   147
1040
0.0
1070
   173
1070
     1
1070
   176
1070
     3
1070
   177
1070
     3
1070
   178
1070
     2
1070
   271
1070
     2
1070
   277
1070
     2
1070
   279
1070
     2
1070
   280
1070
     0
1070
   287
1070
     5
1070
   340
1005
16A
1002
}
  0
DIMENSION
  5
1D4
330
1F
100
AcDbEntity
  8
寸法
  6
CONTINUOUS
 62
     3
100
AcDbDimension
  2
*D23
 10
1569.0
 20
1798.2
 30
0.0
 11
1545.500000059605
 21
1770.1
 31
0.0
 70
   160
  1
56
  3
ISO-25
100
AcDbAlignedDimension
 13
1509.2
 23
1742.0
 33
0.0
 14
1374.8
 24
1798.2
 34
0.0
 50
90.0
100
AcDbRotatedDimension
1001
ACAD
1000
DSTYLE
1002
{
1070
   270
1070
     2
1070
     6
1000
EX_NORM
1070
     7
1000
EX_NORM
1070
    41
1040
30.0
1070
    42
1040
6.99999988079071
1070
    44
1040
10.0
1070
    73
1070
     0
1070
    74
1070
     0
1070
    75
1070
     0
1070
    76
1070
     0
1070
    77
1070
     1
1070
    78
1070
     8
1070
   140
1040
40.0
1070
   147
1040
0.0
1070
   173
1070
     1
1070
   176
1070
     3
1070
   177
1070
     3
1070
   178
1070
     2
1070
   271
1070
     2
1070
   277
1070
     2
1070
   279
1070
     2
1070
   280
1070
     0
1070
   287
1070
     5
1070
   340
1005
16A
1002
}
  0
DIMENSION
  5
1E3
330
1F
100
AcDbEntity
  8
寸法
  6
CONTINUOUS
 62
     3
100
AcDbDimension
  2
*D24
 10
1050.0
 20
1852.0
 30
0.0
 11
900.0
 21
1875.499999940395
 31
0.0
 70
   160
  1
<>（壁固定）
  3
ISO-25
100
AcDbAlignedDimension
 13
750.0000000000001
 23
1750.0
 33
0.0
 14
1050.0
 24
1750.0
 34
0.0
100
AcDbRotatedDimension
1001
ACAD
1000
DSTYLE
1002
{
1070
   270
1070
     2
1070
     6
1000
EX_NORM
1070
     7
1000
EX_NORM
1070
    41
1040
30.0
1070
    42
1040
6.99999988079071
1070
    44
1040
10.0
1070
    73
1070
     0
1070
    74
1070
     0
1070
    75
1070
     0
1070
    76
1070
     0
1070
    77
1070
     1
1070
    78
1070
     8
1070
   140
1040
40.0
1070
   147
1040
0.0
1070
   173
1070
     1
1070
   176
1070
     3
1070
   177
1070
     3
1070
   178
1070
     2
1070
   271
1070
     2
1070
   277
1070
     2
1070
   279
1070
     2
1070
   280
1070
     0
1070
   287
1070
     5
1070
   340
1005
16A
1002
}
  0
LINE
  5
1F0
330
1F
100
AcDbEntity
  8
寸法
  6
EXLTYPE2
 62
     6
100
AcDbLine
 10
691.0
 20
1609.0
 30
0.0
 11
691.0
 21
1569.0
 31
0.0
  0
LINE
  5
1F1
330
1F
100
AcDbEntity
  8
寸法
  6
EXLTYPE2
 62
     6
100
AcDbLine
 10
1109.0
 20
1609.0
 30
0.0
 11
1109.0
 21
1569.0
 31
0.0
  0
LINE
  5
1F2
330
1F
100
AcDbEntity
  8
寸法
  6
EXLTYPE2
 62
     6
100
AcDbLine
 10
1109.0
 20
1609.0
 30
0.0
 11
691.0
 21
1609.0
 31
0.0
  0
LINE
  5
1F3
330
1F
100
AcDbEntity
  8
寸法
  6
EXLTYPE2
 62
     6
100
AcDbLine
 10
1109.0
 20
1569.0
 30
0.0
 11
691.0
 21
1569.0
 31
0.0
  0
LINE
  5
1F4
330
1F
100
AcDbEntity
  8
寸法
  6
EXLTYPE2
 62
     6
100
AcDbLine
 10
691.0
 20
1369.0
 30
0.0
 11
691.0
 21
1329.0
 31
0.0
  0
LINE
  5
1F5
330
1F
100
AcDbEntity
  8
寸法
  6
EXLTYPE2
 62
     6
100
AcDbLine
 10
1109.0
 20
1369.0
 30
0.0
 11
1109.0
 21
1329.0
 31
0.0
  0
LINE
  5
1F6
330
1F
100
AcDbEntity
  8
寸法
  6
EXLTYPE2
 62
     6
100
AcDbLine
 10
1109.0
 20
1369.0
 30
0.0
 11
691.0
 21
1369.0
 31
0.0
  0
LINE
  5
1F7
330
1F
100
AcDbEntity
  8
寸法
  6
EXLTYPE2
 62
     6
100
AcDbLine
 10
1109.0
 20
1329.0
 30
0.0
 11
691.0
 21
1329.0
 31
0.0
  0
ENDSEC
  0
SECTION
  2
OBJECTS
  0
DICTIONARY
  5
C
330
0
100
AcDbDictionary
  3
ACAD_GROUP
350
D
  3
ACAD_LAYOUT
350
1A
  3
ACAD_MATERIAL
350
3B
  3
ACAD_MLEADERSTYLE
350
21A
  3
ACAD_MLINESTYLE
350
17
  3
ACAD_PLOTSETTINGS
350
19
  3
ACAD_VISUALSTYLE
350
2A
  3
ACDBHEADERROUNDTRIPXREC
350
1F8
  3
ACDBVARIABLEDICTIONARY
350
218
  0
DICTIONARY
  5
D
102
{ACAD_REACTORS
330
C
102
}
330
C
100
AcDbDictionary
  0
DICTIONARY
  5
1A
102
{ACAD_REACTORS
330
C
102
}
330
C
100
AcDbDictionary
  0
DICTIONARY
  5
3B
102
{ACAD_REACTORS
330
C
102
}
330
C
100
AcDbDictionary
  3
BYBLOCK
350
3D
  3
BYLAYER
350
3C
  3
GLOBAL
350
3E
  0
DICTIONARY
  5
21A
102
{ACAD_REACTORS
330
C
102
}
330
C
100
AcDbDictionary
  0
DICTIONARY
  5
17
102
{ACAD_REACTORS
330
C
102
}
330
C
100
AcDbDictionary
  3
STANDARD
350
18
  0
DICTIONARY
  5
19
102
{ACAD_REACTORS
330
C
102
}
330
C
100
AcDbDictionary
  0
DICTIONARY
  5
2A
102
{ACAD_REACTORS
330
C
102
}
330
C
100
AcDbDictionary
  3
2DWIREFRAME
350
2F
  3
3D_HIDDEN
350
31
  3
3DWIREFRAME
350
30
  3
BASIC
350
32
  3
BRIGHTEN
350
36
  3
COLORCHANGE
350
3A
  3
CONCEPTUAL
350
34
  3
DIM
350
35
  3
FACEPATTERN
350
39
  3
FLAT
350
2B
  3
FLATWITHEDGES
350
2C
  3
GOURAUD
350
2D
  3
GOURAUDWITHEDGES
350
2E
  3
LINEPATTERN
350
38
  3
REALISTIC
350
33
  3
THICKEN
350
37
  0
DICTIONARY
  5
1F8
102
{ACAD_REACTORS
330
C
102
}
330
C
100
AcDbDictionary
  3
CEPSNTYPE
350
201
  3
DIMSTYLEDATA
350
217
  3
FINGERPRINTGUID
350
202
  3
HYPERLINKBASE
350
1FB
  3
INSUNITS
350
200
  3
LAYOUTDICT
350
1FD
  3
LWETCUNION
350
1FF
  3
PLOTSETDICT
350
1FE
  3
PSVPSCALE
350
204
  3
PUCSBASE
350
207
  3
PUCSORGBACK
350
20D
  3
PUCSORGBOTTOM
350
209
  3
PUCSORGFRONT
350
20C
  3
PUCSORGLEFT
350
20A
  3
PUCSORGRIGHT
350
20B
  3
PUCSORGTOP
350
208
  3
PUCSORTHOREF
350
205
  3
PUCSORTHOVIEW
350
206
  3
STYLESHEET
350
1FC
  3
TSTACKALIGN
350
1F9
  3
TSTACKSIZE
350
1FA
  3
UCSBASE
350
210
  3
UCSORGBACK
350
216
  3
UCSORGBOTTOM
350
212
  3
UCSORGFRONT
350
215
  3
UCSORGLEFT
350
213
  3
UCSORGRIGHT
350
214
  3
UCSORGTOP
350
211
  3
UCSORTHOREF
350
20E
  3
UCSORTHOVIEW
350
20F
  3
VERSIONGUID
350
203
  0
DICTIONARY
  5
218
102
{ACAD_REACTORS
330
C
102
}
330
C
100
AcDbDictionary
  3
DIMASSOC
350
21D
  3
HIDETEXT
350
21E
  3
PSOLHEIGHT
350
21C
  3
PSOLWIDTH
350
21B
  0
MATERIAL
  5
3D
102
{ACAD_REACTORS
330
3B
102
}
102
{ACAD_XDICTIONARY
360
221
102
}
330
3B
100
AcDbMaterial
  1
ByBlock
  0
MATERIAL
  5
3C
102
{ACAD_REACTORS
330
3B
102
}
102
{ACAD_XDICTIONARY
360
21F
102
}
330
3B
100
AcDbMaterial
  1
ByLayer
  0
MATERIAL
  5
3E
102
{ACAD_REACTORS
330
3B
102
}
102
{ACAD_XDICTIONARY
360
223
102
}
330
3B
100
AcDbMaterial
  1
Global
  0
MLINESTYLE
  5
18
102
{ACAD_REACTORS
330
17
102
}
330
17
100
AcDbMlineStyle
  2
Standard
 70
     0
  3

 62
   256
 51
90.0
 52
90.0
 71
     2
 49
0.5
 62
   256
  6
BYLAYER
 49
-0.5
 62
   256
  6
BYLAYER
  0
ACAD_PROXY_OBJECT
  5
2F
102
{ACAD_REACTORS
330
2A
102
}
330
2A
100
AcDbProxyObject
 90
      499
 91
      501
 93
      436
310
42CC9915DA5C99599C985B595049028333333333333E3BF0000000000000FB0107901411070040501600405405064090741402480A0340
1001
ACAD
1000
AcDbSavedByObjectVersion
1070
     0
  0
ACAD_PROXY_OBJECT
  5
31
102
{ACAD_REACTORS
330
2A
102
}
330
2A
100
AcDbProxyObject
 90
      499
 91
      501
 93
      500
310
424CD108121A5919195B90640502408333333333333E3BF0000000000000FB01079024090700405020000000000001110200405405064090740C02480A0340
1001
ACAD
1000
AcDbSavedByObjectVersion
1070
     0
  0
ACAD_PROXY_OBJECT
  5
30
102
{ACAD_REACTORS
330
2A
102
}
330
2A
100
AcDbProxyObject
 90
      499
 91
      501
 93
      436
310
42CCD915DA5C99599C985B595059028333333333333E3BF0000000000000FB0107901411070040501600405405064090741402480A0340
1001
ACAD
1000
AcDbSavedByObjectVersion
1070
     0
  0
ACAD_PROXY_OBJECT
  5
32
102
{ACAD_REACTORS
330
2A
102
}
330
2A
100
AcDbProxyObject
 90
      499
 91
      501
 93
      388
310
4150985CDA58D07406404333333333333E3BF0000000000000FB0107A41107004050150841D405064090741402480A0350
1001
ACAD
1000
AcDbSavedByObjectVersion
1070
     0
  0
ACAD_PROXY_OBJECT
  5
36
102
{ACAD_REACTORS
330
2A
102
}
330
2A
100
AcDbProxyObject
 90
      499
 91
      501
 93
      428
310
42109C9A59DA1D195B90C409028333333333333E3BF0000000000000FB010790141107004050150841D405064090741402480A029950
1001
ACAD
1000
AcDbSavedByObjectVersion
1070
     0
  0
ACAD_PROXY_OBJECT
  5
3A
102
{ACAD_REACTORS
330
2A
102
}
330
2A
100
AcDbProxyObject
 90
      499
 91
      501
 93
      452
310
42D0DBDB1BDC90DA185B99D95104090240C333333333333E3BF0000000000000FB0108901411070040501508421405064090741402480A0350
1001
ACAD
1000
AcDbSavedByObjectVersion
1070
     0
  0
ACAD_PROXY_OBJECT
  5
34
102
{ACAD_REACTORS
330
2A
102
}
330
2A
100
AcDbProxyObject
 90
      499
 91
      501
 93
      500
310
4290DBDB98D95C1D1D585B10940D028333333333333E3BF0000000000000FB0107902409070040501000000000000111010841D405064090740C02480A0340
1001
ACAD
1000
AcDbSavedByObjectVersion
1070
     0
  0
ACAD_PROXY_OBJECT
  5
35
102
{ACAD_REACTORS
330
2A
102
}
330
2A
100
AcDbProxyObject
 90
      499
 91
      501
 93
      412
310
40D11A5B50B409028333333333333E3BF0000000000000FB010790141107004050150841D405064090741402480A02677FFFFFD0
1001
ACAD
1000
AcDbSavedByObjectVersion
1070
     0
  0
ACAD_PROXY_OBJECT
  5
39
102
{ACAD_REACTORS
330
2A
102
}
330
2A
100
AcDbProxyObject
 90
      499
 91
      501
 93
      444
310
42D19858D95C185D1D195C9B90F409028333333333333E3BF0000000000000FB010790141107004050150841D405064090741402480A0350
1001
ACAD
1000
AcDbSavedByObjectVersion
1070
     0
  0
ACAD_PROXY_OBJECT
  5
2B
102
{ACAD_REACTORS
330
2A
102
}
330
2A
100
AcDbProxyObject
 90
      499
 91
      501
 93
      388
310
41119B185D240901404333333333333E3BF0000000000000F9010740A41107004050150841D405064090741402480A1B50
1001
ACAD
1000
AcDbSavedByObjectVersion
1070
     0
  0
ACAD_PROXY_OBJECT
  5
2C
102
{ACAD_REACTORS
330
2A
102
}
330
2A
100
AcDbProxyObject
 90
      499
 91
      501
 93
      476
310
43519B185D15DA5D1A115919D95CD0140901404333333333333E3BF0000000000000F9010740901411070040501600405405064090741402480A1B50
1001
ACAD
1000
AcDbSavedByObjectVersion
1070
     0
  0
ACAD_PROXY_OBJECT
  5
2D
102
{ACAD_REACTORS
330
2A
102
}
330
2A
100
AcDbProxyObject
 90
      499
 91
      501
 93
      412
310
41D1DBDD5C985D5910240902404333333333333E3BF0000000000000F9010740A411070040501641D405064090741402480A1B50
1001
ACAD
1000
AcDbSavedByObjectVersion
1070
     0
  0
ACAD_PROXY_OBJECT
  5
2E
102
{ACAD_REACTORS
330
2A
102
}
330
2A
100
AcDbProxyObject
 90
      499
 91
      501
 93
      500
310
4411DBDD5C985D5915DA5D1A115919D95CD0340902404333333333333E3BF0000000000000F9010740901411070040501600405405064090741402480A1B50
1001
ACAD
1000
AcDbSavedByObjectVersion
1070
     0
  0
ACAD_PROXY_OBJECT
  5
38
102
{ACAD_REACTORS
330
2A
102
}
330
2A
100
AcDbProxyObject
 90
      499
 91
      501
 93
      444
310
42D31A5B995C185D1D195C9B90E409028333333333333E3BF0000000000000FB010790141107004050750841D405064090741402483A0350
1001
ACAD
1000
AcDbSavedByObjectVersion
1070
     0
  0
ACAD_PROXY_OBJECT
  5
33
102
{ACAD_REACTORS
330
2A
102
}
330
2A
100
AcDbProxyObject
 90
      499
 91
      501
 93
      420
310
425499585B1A5CDD1A58D08409028333333333333E3BF0000000000000FB01079019070040501508421405064090741402480A1B40
1001
ACAD
1000
AcDbSavedByObjectVersion
1070
     0
  0
ACAD_PROXY_OBJECT
  5
37
102
{ACAD_REACTORS
330
2A
102
}
330
2A
100
AcDbProxyObject
 90
      499
 91
      501
 93
      412
310
41D51A1A58DAD95B90D409028333333333333E3BF0000000000000FB010790141107004050150C41D405064090741402480A0350
1001
ACAD
1000
AcDbSavedByObjectVersion
1070
     0
  0
XRECORD
  5
201
102
{ACAD_REACTORS
330
1F8
102
}
330
1F8
100
AcDbXrecord
 90
        0
  0
XRECORD
  5
217
102
{ACAD_REACTORS
330
1F8
102
}
330
1F8
100
AcDbXrecord
1000
DSTYLE
1002
{
1070
   340
340
11
1002
}
  0
XRECORD
  5
202
102
{ACAD_REACTORS
330
1F8
102
}
330
1F8
100
AcDbXrecord
  1
{EC5D9388-3D1E-45BA-B26B-C69EFD572A08}
  0
XRECORD
  5
1FB
102
{ACAD_REACTORS
330
1F8
102
}
330
1F8
100
AcDbXrecord
  1

  0
XRECORD
  5
200
102
{ACAD_REACTORS
330
1F8
102
}
330
1F8
100
AcDbXrecord
 90
        4
  0
XRECORD
  5
1FD
102
{ACAD_REACTORS
330
1F8
102
}
330
1F8
100
AcDbXrecord
340
1A
  0
XRECORD
  5
1FF
102
{ACAD_REACTORS
330
1F8
102
}
330
1F8
100
AcDbXrecord
 90
    10781
  0
XRECORD
  5
1FE
102
{ACAD_REACTORS
330
1F8
102
}
330
1F8
100
AcDbXrecord
340
19
  0
XRECORD
  5
204
102
{ACAD_REACTORS
330
1F8
102
}
330
1F8
100
AcDbXrecord
 40
0.0
  0
XRECORD
  5
207
102
{ACAD_REACTORS
330
1F8
102
}
330
1F8
100
AcDbXrecord
340
0
  0
XRECORD
  5
20D
102
{ACAD_REACTORS
330
1F8
102
}
330
1F8
100
AcDbXrecord
 10
0.0
 20
0.0
 30
0.0
  0
XRECORD
  5
209
102
{ACAD_REACTORS
330
1F8
102
}
330
1F8
100
AcDbXrecord
 10
0.0
 20
0.0
 30
0.0
  0
XRECORD
  5
20C
102
{ACAD_REACTORS
330
1F8
102
}
330
1F8
100
AcDbXrecord
 10
0.0
 20
0.0
 30
0.0
  0
XRECORD
  5
20A
102
{ACAD_REACTORS
330
1F8
102
}
330
1F8
100
AcDbXrecord
 10
0.0
 20
0.0
 30
0.0
  0
XRECORD
  5
20B
102
{ACAD_REACTORS
330
1F8
102
}
330
1F8
100
AcDbXrecord
 10
0.0
 20
0.0
 30
0.0
  0
XRECORD
  5
208
102
{ACAD_REACTORS
330
1F8
102
}
330
1F8
100
AcDbXrecord
 10
0.0
 20
0.0
 30
0.0
  0
XRECORD
  5
205
102
{ACAD_REACTORS
330
1F8
102
}
330
1F8
100
AcDbXrecord
340
0
  0
XRECORD
  5
206
102
{ACAD_REACTORS
330
1F8
102
}
330
1F8
100
AcDbXrecord
 70
     0
  0
XRECORD
  5
1FC
102
{ACAD_REACTORS
330
1F8
102
}
330
1F8
100
AcDbXrecord
  1

  0
XRECORD
  5
1F9
102
{ACAD_REACTORS
330
1F8
102
}
330
1F8
100
AcDbXrecord
 90
        1
  0
XRECORD
  5
1FA
102
{ACAD_REACTORS
330
1F8
102
}
330
1F8
100
AcDbXrecord
 90
       70
  0
XRECORD
  5
210
102
{ACAD_REACTORS
330
1F8
102
}
330
1F8
100
AcDbXrecord
340
0
  0
XRECORD
  5
216
102
{ACAD_REACTORS
330
1F8
102
}
330
1F8
100
AcDbXrecord
 10
0.0
 20
0.0
 30
0.0
  0
XRECORD
  5
212
102
{ACAD_REACTORS
330
1F8
102
}
330
1F8
100
AcDbXrecord
 10
0.0
 20
0.0
 30
0.0
  0
XRECORD
  5
215
102
{ACAD_REACTORS
330
1F8
102
}
330
1F8
100
AcDbXrecord
 10
0.0
 20
0.0
 30
0.0
  0
XRECORD
  5
213
102
{ACAD_REACTORS
330
1F8
102
}
330
1F8
100
AcDbXrecord
 10
0.0
 20
0.0
 30
0.0
  0
XRECORD
  5
214
102
{ACAD_REACTORS
330
1F8
102
}
330
1F8
100
AcDbXrecord
 10
0.0
 20
0.0
 30
0.0
  0
XRECORD
  5
211
102
{ACAD_REACTORS
330
1F8
102
}
330
1F8
100
AcDbXrecord
 10
0.0
 20
0.0
 30
0.0
  0
XRECORD
  5
20E
102
{ACAD_REACTORS
330
1F8
102
}
330
1F8
100
AcDbXrecord
340
0
  0
XRECORD
  5
20F
102
{ACAD_REACTORS
330
1F8
102
}
330
1F8
100
AcDbXrecord
 70
     0
  0
XRECORD
  5
203
102
{ACAD_REACTORS
330
1F8
102
}
330
1F8
100
AcDbXrecord
  1
{FAEB1C32-E019-11D5-929B-00C0DF256EC4}
  0
DICTIONARYVAR
  5
21D
102
{ACAD_REACTORS
330
218
102
}
330
218
100
DictionaryVariables
280
     0
  1
2
  0
DICTIONARYVAR
  5
21E
102
{ACAD_REACTORS
330
218
102
}
330
218
100
DictionaryVariables
280
     0
  1
1
  0
DICTIONARYVAR
  5
21C
102
{ACAD_REACTORS
330
218
102
}
330
218
100
DictionaryVariables
280
     0
  1
80.000000
  0
DICTIONARYVAR
  5
21B
102
{ACAD_REACTORS
330
218
102
}
330
218
100
DictionaryVariables
280
     0
  1
5.000000
  0
DICTIONARY
  5
221
330
3D
100
AcDbDictionary
280
     1
  3
ACAD_XREC_ROUNDTRIP
360
222
  0
DICTIONARY
  5
21F
330
3C
100
AcDbDictionary
280
     1
  3
ACAD_XREC_ROUNDTRIP
360
220
  0
DICTIONARY
  5
223
330
3E
100
AcDbDictionary
280
     1
  3
ACAD_XREC_ROUNDTRIP
360
224
  0
XRECORD
  5
222
102
{ACAD_REACTORS
330
221
102
}
330
221
100
AcDbXrecord
102
MATERIAL
148
0.0
149
0.0
149
0.0
 93
        0
 94
      127
282
     0
 72
     1
 77
     1
171
     1
175
     1
179
     1
273
     0
  0
XRECORD
  5
220
102
{ACAD_REACTORS
330
21F
102
}
330
21F
100
AcDbXrecord
102
MATERIAL
148
0.0
149
0.0
149
0.0
 93
        0
 94
      127
282
     0
 72
     1
 77
     1
171
     1
175
     1
179
     1
273
     0
  0
XRECORD
  5
224
102
{ACAD_REACTORS
330
223
102
}
330
223
100
AcDbXrecord
102
MATERIAL
148
0.0
149
0.0
149
0.0
 93
        0
 94
      127
282
     0
 72
     1
 77
     1
171
     1
175
     1
179
     1
273
     0
  0
ENDSEC
  0
EOF
