  0
SECTION
  2
HEADER
  9
$ACADVER
  1
AC1014
  9
$ACADMAINTVER
 70
     9
  9
$DWGCODEPAGE
  3
ANSI_932
  9
$INSBASE
 10
0.0
 20
0.0
 30
0.0
  9
$EXTMIN
 10
18.0
 20
13.5
 30
0.0
  9
$EXTMAX
 10
200.0000000000001
 20
288.5
 30
0.0
  9
$LIMMIN
 10
0.0
 20
0.0
  9
$LIMMAX
 10
210.0
 20
297.0
  9
$ORTHOMODE
 70
     0
  9
$REGENMODE
 70
     1
  9
$FILLMODE
 70
     1
  9
$QTEXTMODE
 70
     0
  9
$MIRRTEXT
 70
     1
  9
$DRAGMODE
 70
     2
  9
$LTSCALE
 40
1.0
  9
$OSMODE
 70
    37
  9
$ATTMODE
 70
     1
  9
$TEXTSIZE
 40
2.5
  9
$TRACEWID
 40
1.0
  9
$TEXTSTYLE
  7
STANDARD
  9
$CLAYER
  8
化粧台
  9
$CELTYPE
  6
BYLAYER
  9
$CECOLOR
 62
   256
  9
$CELTSCALE
 40
1.0
  9
$DELOBJ
 70
     1
  9
$DISPSILH
 70
     0
  9
$DIMSCALE
 40
1.0
  9
$DIMASZ
 40
2.5
  9
$DIMEXO
 40
0.625
  9
$DIMDLI
 40
3.75
  9
$DIMRND
 40
0.0
  9
$DIMDLE
 40
0.0
  9
$DIMEXE
 40
1.25
  9
$DIMTP
 40
0.0
  9
$DIMTM
 40
0.0
  9
$DIMTXT
 40
2.5
  9
$DIMCEN
 40
2.5
  9
$DIMTSZ
 40
0.0
  9
$DIMTOL
 70
     0
  9
$DIMLIM
 70
     0
  9
$DIMTIH
 70
     0
  9
$DIMTOH
 70
     0
  9
$DIMSE1
 70
     0
  9
$DIMSE2
 70
     0
  9
$DIMTAD
 70
     1
  9
$DIMZIN
 70
     8
  9
$DIMBLK
  1

  9
$DIMASO
 70
     1
  9
$DIMSHO
 70
     1
  9
$DIMPOST
  1

  9
$DIMAPOST
  1

  9
$DIMALT
 70
     0
  9
$DIMALTD
 70
     3
  9
$DIMALTF
 40
0.03937007874016
  9
$DIMLFAC
 40
1.0
  9
$DIMTOFL
 70
     1
  9
$DIMTVP
 40
0.0
  9
$DIMTIX
 70
     0
  9
$DIMSOXD
 70
     0
  9
$DIMSAH
 70
     0
  9
$DIMBLK1
  1

  9
$DIMBLK2
  1

  9
$DIMSTYLE
  2
ISO-25
  9
$DIMCLRD
 70
     0
  9
$DIMCLRE
 70
     0
  9
$DIMCLRT
 70
     0
  9
$DIMTFAC
 40
1.0
  9
$DIMGAP
 40
0.625
  9
$DIMJUST
 70
     0
  9
$DIMSD1
 70
     0
  9
$DIMSD2
 70
     0
  9
$DIMTOLJ
 70
     0
  9
$DIMTZIN
 70
     8
  9
$DIMALTZ
 70
     0
  9
$DIMALTTZ
 70
     0
  9
$DIMFIT
 70
     3
  9
$DIMUPT
 70
     0
  9
$DIMUNIT
 70
     2
  9
$DIMDEC
 70
     2
  9
$DIMTDEC
 70
     2
  9
$DIMALTU
 70
     2
  9
$DIMALTTD
 70
     3
  9
$DIMTXSTY
  7
STANDARD
  9
$DIMAUNIT
 70
     0
  9
$LUNITS
 70
     2
  9
$LUPREC
 70
     4
  9
$SKETCHINC
 40
1.0
  9
$FILLETRAD
 40
10.0
  9
$AUNITS
 70
     0
  9
$AUPREC
 70
     0
  9
$MENU
  1
.
  9
$ELEVATION
 40
0.0
  9
$PELEVATION
 40
0.0
  9
$THICKNESS
 40
0.0
  9
$LIMCHECK
 70
     0
  9
$CHAMFERA
 40
10.0
  9
$CHAMFERB
 40
10.0
  9
$CHAMFERC
 40
20.0
  9
$CHAMFERD
 40
0.0
  9
$SKPOLY
 70
     0
  9
$TDCREATE
 40
2460690.648925023
  9
$TDUPDATE
 40
2460690.648925104
  9
$TDINDWG
 40
0.0000000116
  9
$TDUSRTIMER
 40
0.0000000116
  9
$USRTIMER
 70
     1
  9
$ANGBASE
 50
0.0
  9
$ANGDIR
 70
     0
  9
$PDMODE
 70
     0
  9
$PDSIZE
 40
0.0
  9
$PLINEWID
 40
0.0
  9
$COORDS
 70
     1
  9
$SPLFRAME
 70
     0
  9
$SPLINETYPE
 70
     6
  9
$SPLINESEGS
 70
     8
  9
$ATTDIA
 70
     0
  9
$ATTREQ
 70
     1
  9
$HANDLING
 70
     1
  9
$HANDSEED
  5
58A
  9
$SURFTAB1
 70
     6
  9
$SURFTAB2
 70
     6
  9
$SURFTYPE
 70
     6
  9
$SURFU
 70
     6
  9
$SURFV
 70
     6
  9
$UCSNAME
  2

  9
$UCSORG
 10
0.0
 20
0.0
 30
0.0
  9
$UCSXDIR
 10
1.0
 20
0.0
 30
0.0
  9
$UCSYDIR
 10
0.0
 20
1.0
 30
0.0
  9
$PUCSNAME
  2

  9
$PUCSORG
 10
0.0
 20
0.0
 30
0.0
  9
$PUCSXDIR
 10
1.0
 20
0.0
 30
0.0
  9
$PUCSYDIR
 10
0.0
 20
1.0
 30
0.0
  9
$USERI1
 70
     0
  9
$USERI2
 70
     0
  9
$USERI3
 70
     0
  9
$USERI4
 70
     0
  9
$USERI5
 70
     0
  9
$USERR1
 40
0.0
  9
$USERR2
 40
0.0
  9
$USERR3
 40
0.0
  9
$USERR4
 40
0.0
  9
$USERR5
 40
0.0
  9
$WORLDVIEW
 70
     1
  9
$SHADEDGE
 70
     3
  9
$SHADEDIF
 70
    70
  9
$TILEMODE
 70
     1
  9
$MAXACTVP
 70
    64
  9
$PINSBASE
 10
0.0
 20
0.0
 30
0.0
  9
$PLIMCHECK
 70
     0
  9
$PEXTMIN
 10
1.000000000000000E+20
 20
1.000000000000000E+20
 30
1.000000000000000E+20
  9
$PEXTMAX
 10
-1.000000000000000E+20
 20
-1.000000000000000E+20
 30
-1.000000000000000E+20
  9
$PLIMMIN
 10
0.0
 20
0.0
  9
$PLIMMAX
 10
420.0
 20
297.0
  9
$UNITMODE
 70
     0
  9
$VISRETAIN
 70
     1
  9
$PLINEGEN
 70
     0
  9
$PSLTSCALE
 70
     1
  9
$TREEDEPTH
 70
  3020
  9
$PICKSTYLE
 70
     1
  9
$CMLSTYLE
  2
STANDARD
  9
$CMLJUST
 70
     0
  9
$CMLSCALE
 40
20.0
  9
$PROXYGRAPHICS
 70
     1
  9
$MEASUREMENT
 70
     1
  0
ENDSEC
  0
SECTION
  2
CLASSES
  0
CLASS
  1
ACDBDICTIONARYWDFLT
  2
AcDbDictionaryWithDefault
  3
ObjectDBX Classes
 90
        0
280
     0
281
     0
  0
CLASS
  1
VISUALSTYLE
  2
AcDbVisualStyle
  3
ObjectDBX Classes
 90
     4095
280
     0
281
     0
  0
CLASS
  1
MATERIAL
  2
AcDbMaterial
  3
ObjectDBX Classes
 90
     1153
280
     0
281
     0
  0
CLASS
  1
SUN
  2
AcDbSun
  3
SCENEOE
 90
     1024
280
     0
281
     0
  0
CLASS
  1
DICTIONARYVAR
  2
AcDbDictionaryVar
  3
ObjectDBX Classes
 90
        0
280
     0
281
     0
  0
CLASS
  1
XRECORD
  2
AcDbXrecord
  3
AutoCAD 2000
 90
        0
280
     0
281
     0
  0
CLASS
  1
LWPOLYLINE
  2
AcDbPolyline
  3
AutoCAD 2000
 90
        0
280
     0
281
     1
  0
CLASS
  1
HATCH
  2
AcDbHatch
  3
AutoCAD 2000
 90
        0
280
     0
281
     1
  0
CLASS
  1
ACDBPLACEHOLDER
  2
AcDbPlaceHolder
  3
ObjectDBX Classes
 90
        0
280
     0
281
     0
  0
CLASS
  1
LAYOUT
  2
AcDbLayout
  3
ObjectDBX Classes
 90
        0
280
     0
281
     0
  0
ENDSEC
  0
SECTION
  2
TABLES
  0
TABLE
  2
VPORT
  5
8
330
0
100
AcDbSymbolTable
 70
     1
  0
VPORT
  5
29
330
8
100
AcDbSymbolTableRecord
100
AcDbViewportTableRecord
  2
*ACTIVE
 70
     0
 10
0.0
 20
0.0
 11
1.0
 21
1.0
 12
1090.000000000001
 22
1510.0
 13
0.0
 23
0.0
 14
10.0
 24
10.0
 15
10.0
 25
10.0
 16
0.0
 26
0.0
 36
1.0
 17
0.0
 27
0.0
 37
0.0
 40
2750.0
 41
0.6618181818181823
 42
50.0
 43
0.0
 44
0.0
 50
0.0
 51
0.0
 71
     0
 72
  1000
 73
     1
 74
     3
 75
     0
 76
     0
 77
     0
 78
     0
  0
ENDTAB
  0
TABLE
  2
LTYPE
  5
5
330
0
100
AcDbSymbolTable
 70
     7
  0
LTYPE
  5
14
330
5
100
AcDbSymbolTableRecord
100
AcDbLinetypeTableRecord
  2
BYBLOCK
 70
     0
  3

 72
    65
 73
     0
 40
0.0
  0
LTYPE
  5
15
330
5
100
AcDbSymbolTableRecord
100
AcDbLinetypeTableRecord
  2
BYLAYER
 70
     0
  3

 72
    65
 73
     0
 40
0.0
  0
LTYPE
  5
16
330
5
100
AcDbSymbolTableRecord
100
AcDbLinetypeTableRecord
  2
CONTINUOUS
 70
     0
  3
Solid line
 72
    65
 73
     0
 40
0.0
  0
LTYPE
  5
40
330
5
100
AcDbSymbolTableRecord
100
AcDbLinetypeTableRecord
  2
EXLTYPE1
 70
     0
  3
破線
 72
    65
 73
     2
 40
3.0
 49
2.0
 74
     0
 49
-1.0
 74
     0
  0
LTYPE
  5
41
330
5
100
AcDbSymbolTableRecord
100
AcDbLinetypeTableRecord
  2
EXLTYPE2
 70
     0
  3
点線
 72
    65
 73
     2
 40
2.0
 49
1.0
 74
     0
 49
-1.0
 74
     0
  0
LTYPE
  5
42
330
5
100
AcDbSymbolTableRecord
100
AcDbLinetypeTableRecord
  2
EXLTYPE3
 70
     0
  3
一点鎖線
 72
    65
 73
     4
 40
10.0
 49
7.0
 74
     0
 49
-1.0
 74
     0
 49
1.0
 74
     0
 49
-1.0
 74
     0
  0
LTYPE
  5
43
330
5
100
AcDbSymbolTableRecord
100
AcDbLinetypeTableRecord
  2
EXLTYPE4
 70
     0
  3
二点鎖線
 72
    65
 73
     6
 40
12.0
 49
7.0
 74
     0
 49
-1.0
 74
     0
 49
1.0
 74
     0
 49
-1.0
 74
     0
 49
1.0
 74
     0
 49
-1.0
 74
     0
  0
LTYPE
  5
44
330
5
100
AcDbSymbolTableRecord
100
AcDbLinetypeTableRecord
  2
EXLTYPE5
 70
     0
  3
三点鎖線
 72
    65
 73
     8
 40
37.0
 49
30.0
 74
     0
 49
-1.0
 74
     0
 49
1.0
 74
     0
 49
-1.0
 74
     0
 49
1.0
 74
     0
 49
-1.0
 74
     0
 49
1.0
 74
     0
 49
-1.0
 74
     0
  0
LTYPE
  5
45
330
5
100
AcDbSymbolTableRecord
100
AcDbLinetypeTableRecord
  2
EXLTYPE6
 70
     0
  3
四点鎖線
 72
    65
 73
    10
 40
39.0
 49
30.0
 74
     0
 49
-1.0
 74
     0
 49
1.0
 74
     0
 49
-1.0
 74
     0
 49
1.0
 74
     0
 49
-1.0
 74
     0
 49
1.0
 74
     0
 49
-1.0
 74
     0
 49
1.0
 74
     0
 49
-1.0
 74
     0
  0
ENDTAB
  0
TABLE
  2
LAYER
  5
2
330
0
100
AcDbSymbolTable
 70
     7
  0
LAYER
  5
10
330
2
100
AcDbSymbolTableRecord
100
AcDbLayerTableRecord
  2
0
 70
     0
 62
     7
  6
CONTINUOUS
  0
LAYER
  5
48
330
2
100
AcDbSymbolTableRecord
100
AcDbLayerTableRecord
  2
枠_表
 70
     0
 62
     7
  6
CONTINUOUS
  0
LAYER
  5
49
330
2
100
AcDbSymbolTableRecord
100
AcDbLayerTableRecord
  2
化粧台
 70
     0
 62
     7
  6
CONTINUOUS
  0
LAYER
  5
4A
330
2
100
AcDbSymbolTableRecord
100
AcDbLayerTableRecord
  2
鏡台
 70
     0
 62
     7
  6
CONTINUOUS
  0
LAYER
  5
4B
330
2
100
AcDbSymbolTableRecord
100
AcDbLayerTableRecord
  2
付属金具
 70
     0
 62
     7
  6
CONTINUOUS
  0
LAYER
  5
4C
330
2
100
AcDbSymbolTableRecord
100
AcDbLayerTableRecord
  2
寸法
 70
     0
 62
     7
  6
CONTINUOUS
  0
LAYER
  5
140
330
2
100
AcDbSymbolTableRecord
100
AcDbLayerTableRecord
  2
DEFPOINTS
 70
     0
 62
     7
  6
CONTINUOUS
  0
ENDTAB
  0
TABLE
  2
STYLE
  5
3
330
0
100
AcDbSymbolTable
 70
     5
  0
STYLE
  5
11
330
3
100
AcDbSymbolTableRecord
100
AcDbTextStyleTableRecord
  2
STANDARD
 70
     0
 40
0.0
 41
1.0
 50
0.0
 71
     0
 42
2.5
  3
monotxt
  4
extfont
  0
STYLE
  5
46
330
3
100
AcDbSymbolTableRecord
100
AcDbTextStyleTableRecord
  2
EXCADSTD
 70
     0
 40
0.0
 41
1.0
 50
0.0
 71
     0
 42
0.2
  3
monotxt
  4
extfont
  0
STYLE
  5
47
330
3
100
AcDbSymbolTableRecord
100
AcDbTextStyleTableRecord
  2
EXCADVERT
 70
     4
 40
0.0
 41
1.0
 50
0.0
 71
     0
 42
0.286885
  3
monotxt
  4
extfont
  0
STYLE
  5
CE
330
3
100
AcDbSymbolTableRecord
100
AcDbTextStyleTableRecord
  2
EXCADTTF1
 70
     0
 40
0.0
 41
1.0
 50
0.0
 71
     0
 42
0.2
  3
MSGOTHIC.TTC
  4

1001
ACAD
1000
MS Gothic
1071
    32817
  0
STYLE
  5
13E
330
3
100
AcDbSymbolTableRecord
100
AcDbTextStyleTableRecord
  2
EXCADDIM1
 70
     0
 40
0.0
 41
0.84
 50
0.0
 71
     0
 42
0.2
  3
monotxt
  4
extfont
  0
ENDTAB
  0
TABLE
  2
VIEW
  5
6
330
0
100
AcDbSymbolTable
 70
     0
  0
ENDTAB
  0
TABLE
  2
UCS
  5
7
330
0
100
AcDbSymbolTable
 70
     0
  0
ENDTAB
  0
TABLE
  2
APPID
  5
9
330
0
100
AcDbSymbolTable
 70
     1
  0
APPID
  5
12
330
9
100
AcDbSymbolTableRecord
100
AcDbRegAppTableRecord
  2
ACAD
 70
     0
  0
ENDTAB
  0
TABLE
  2
DIMSTYLE
  5
A
330
0
100
AcDbSymbolTable
 70
     1
  0
DIMSTYLE
105
27
102
{ACAD_REACTORS
330
13F
330
14D
330
15A
330
168
330
175
330
182
330
18F
330
19C
330
1A9
330
1B6
330
1C3
330
1D0
102
}
330
A
100
AcDbSymbolTableRecord
100
AcDbDimStyleTableRecord
  2
ISO-25
 70
     0
  3

  4

  5

  6

  7

 40
1.0
 41
2.5
 42
0.625
 43
3.75
 44
1.25
 45
0.0
 46
0.0
 47
0.0
 48
0.0
140
2.5
141
2.5
142
0.0
143
0.03937007874016
144
1.0
145
0.0
146
1.0
147
0.625
 71
     0
 72
     0
 73
     0
 74
     0
 75
     0
 76
     0
 77
     1
 78
     8
170
     0
171
     3
172
     1
173
     0
174
     0
175
     0
176
     0
177
     0
178
     0
270
     2
271
     2
272
     2
273
     2
274
     3
340
11
275
     0
280
     0
281
     0
282
     0
283
     0
284
     8
285
     0
286
     0
287
     5
288
     0
  0
ENDTAB
  0
TABLE
  2
BLOCK_RECORD
  5
1
330
0
100
AcDbSymbolTable
 70
    27
  0
BLOCK_RECORD
  5
1F
330
1
100
AcDbSymbolTableRecord
100
AcDbBlockTableRecord
  2
*MODEL_SPACE
  0
BLOCK_RECORD
  5
1B
330
1
100
AcDbSymbolTableRecord
100
AcDbBlockTableRecord
  2
*PAPER_SPACE
  0
BLOCK_RECORD
  5
4D
330
1
100
AcDbSymbolTableRecord
100
AcDbBlockTableRecord
  2
EX_NORM
  0
BLOCK_RECORD
  5
50
330
1
100
AcDbSymbolTableRecord
100
AcDbBlockTableRecord
  2
EX_BNORM
  0
BLOCK_RECORD
  5
53
330
1
100
AcDbSymbolTableRecord
100
AcDbBlockTableRecord
  2
EX_BCIR
  0
BLOCK_RECORD
  5
56
330
1
100
AcDbSymbolTableRecord
100
AcDbBlockTableRecord
  2
EX_RCIVIL
  0
BLOCK_RECORD
  5
59
330
1
100
AcDbSymbolTableRecord
100
AcDbBlockTableRecord
  2
EX_SLANT
  0
BLOCK_RECORD
  5
5C
330
1
100
AcDbSymbolTableRecord
100
AcDbBlockTableRecord
  2
EX_NONE
  0
BLOCK_RECORD
  5
5F
330
1
100
AcDbSymbolTableRecord
100
AcDbBlockTableRecord
  2
EX_CIVIL
  0
BLOCK_RECORD
  5
62
330
1
100
AcDbSymbolTableRecord
100
AcDbBlockTableRecord
  2
EX_WCIR
  0
BLOCK_RECORD
  5
65
330
1
100
AcDbSymbolTableRecord
100
AcDbBlockTableRecord
  2
EX_WCIR2
  0
BLOCK_RECORD
  5
68
330
1
100
AcDbSymbolTableRecord
100
AcDbBlockTableRecord
  2
EX_WNORM
  0
BLOCK_RECORD
  5
6B
330
1
100
AcDbSymbolTableRecord
100
AcDbBlockTableRecord
  2
EX_NNORM
  0
BLOCK_RECORD
  5
6E
330
1
100
AcDbSymbolTableRecord
100
AcDbBlockTableRecord
  2
EX_BBOX
  0
BLOCK_RECORD
  5
71
330
1
100
AcDbSymbolTableRecord
100
AcDbBlockTableRecord
  2
EX_WBOX
  0
BLOCK_RECORD
  5
74
330
1
100
AcDbSymbolTableRecord
100
AcDbBlockTableRecord
  2
EX_INTEGRAL
  0
BLOCK_RECORD
  5
141
330
1
100
AcDbSymbolTableRecord
100
AcDbBlockTableRecord
  2
*D15
  0
BLOCK_RECORD
  5
14E
330
1
100
AcDbSymbolTableRecord
100
AcDbBlockTableRecord
  2
*D16
  0
BLOCK_RECORD
  5
15B
330
1
100
AcDbSymbolTableRecord
100
AcDbBlockTableRecord
  2
*D17
  0
BLOCK_RECORD
  5
169
330
1
100
AcDbSymbolTableRecord
100
AcDbBlockTableRecord
  2
*D18
  0
BLOCK_RECORD
  5
176
330
1
100
AcDbSymbolTableRecord
100
AcDbBlockTableRecord
  2
*D19
  0
BLOCK_RECORD
  5
183
330
1
100
AcDbSymbolTableRecord
100
AcDbBlockTableRecord
  2
*D20
  0
BLOCK_RECORD
  5
190
330
1
100
AcDbSymbolTableRecord
100
AcDbBlockTableRecord
  2
*D21
  0
BLOCK_RECORD
  5
19D
330
1
100
AcDbSymbolTableRecord
100
AcDbBlockTableRecord
  2
*D22
  0
BLOCK_RECORD
  5
1AA
330
1
100
AcDbSymbolTableRecord
100
AcDbBlockTableRecord
  2
*D23
  0
BLOCK_RECORD
  5
1B7
330
1
100
AcDbSymbolTableRecord
100
AcDbBlockTableRecord
  2
*D24
  0
BLOCK_RECORD
  5
1C4
330
1
100
AcDbSymbolTableRecord
100
AcDbBlockTableRecord
  2
*D25
  0
BLOCK_RECORD
  5
1D1
330
1
100
AcDbSymbolTableRecord
100
AcDbBlockTableRecord
  2
*D26
  0
ENDTAB
  0
ENDSEC
  0
SECTION
  2
BLOCKS
  0
BLOCK
  5
20
330
1F
100
AcDbEntity
  8
0
100
AcDbBlockBegin
  2
*MODEL_SPACE
 70
     0
 10
0.0
 20
0.0
 30
0.0
  3
*MODEL_SPACE
  1

  0
ENDBLK
  5
21
330
1F
100
AcDbEntity
  8
0
100
AcDbBlockEnd
  0
BLOCK
  5
1C
330
1B
100
AcDbEntity
 67
     1
  8
0
100
AcDbBlockBegin
  2
*PAPER_SPACE
 70
     0
 10
0.0
 20
0.0
 30
0.0
  3
*PAPER_SPACE
  1

  0
ENDBLK
  5
1D
330
1B
100
AcDbEntity
 67
     1
  8
0
100
AcDbBlockEnd
  0
BLOCK
  5
4E
330
4D
100
AcDbEntity
  8
0
100
AcDbBlockBegin
  2
EX_NORM
 70
     0
 10
0.0
 20
0.0
 30
0.0
  3
EX_NORM
  1

  0
LINE
  5
77
330
4D
100
AcDbEntity
  8
0
  6
CONTINUOUS
 62
     0
100
AcDbLine
 10
0.0
 20
0.0
 30
0.0
 11
-1.0
 21
0.0
 31
0.0
  0
LINE
  5
78
330
4D
100
AcDbEntity
  8
0
  6
CONTINUOUS
 62
     0
100
AcDbLine
 10
0.0
 20
0.0
 30
0.0
 11
-1.0
 21
0.166666667
 31
0.0
  0
LINE
  5
79
330
4D
100
AcDbEntity
  8
0
  6
CONTINUOUS
 62
     0
100
AcDbLine
 10
0.0
 20
0.0
 30
0.0
 11
-1.0
 21
-0.166666667
 31
0.0
  0
ENDBLK
  5
4F
330
4D
100
AcDbEntity
  8
0
100
AcDbBlockEnd
  0
BLOCK
  5
51
330
50
100
AcDbEntity
  8
0
100
AcDbBlockBegin
  2
EX_BNORM
 70
     0
 10
0.0
 20
0.0
 30
0.0
  3
EX_BNORM
  1

  0
LINE
  5
7A
330
50
100
AcDbEntity
  8
0
  6
CONTINUOUS
 62
     0
100
AcDbLine
 10
0.0
 20
0.0
 30
0.0
 11
-1.0
 21
0.0
 31
0.0
  0
LINE
  5
7B
330
50
100
AcDbEntity
  8
0
  6
CONTINUOUS
 62
     0
100
AcDbLine
 10
0.0
 20
0.0
 30
0.0
 11
-1.0
 21
0.166666667
 31
0.0
  0
LINE
  5
7C
330
50
100
AcDbEntity
  8
0
  6
CONTINUOUS
 62
     0
100
AcDbLine
 10
0.0
 20
0.0
 30
0.0
 11
-1.0
 21
-0.166666667
 31
0.0
  0
LINE
  5
7D
330
50
100
AcDbEntity
  8
0
  6
CONTINUOUS
 62
     0
100
AcDbLine
 10
0.0
 20
0.0
 30
0.0
 11
-1.0
 21
0.083333333
 31
0.0
  0
LINE
  5
7E
330
50
100
AcDbEntity
  8
0
  6
CONTINUOUS
 62
     0
100
AcDbLine
 10
0.0
 20
0.0
 30
0.0
 11
-1.0
 21
-0.083333333
 31
0.0
  0
LINE
  5
7F
330
50
100
AcDbEntity
  8
0
  6
CONTINUOUS
 62
     0
100
AcDbLine
 10
-1.0
 20
0.166666667
 30
0.0
 11
-1.0
 21
-0.166666667
 31
0.0
  0
ENDBLK
  5
52
330
50
100
AcDbEntity
  8
0
100
AcDbBlockEnd
  0
BLOCK
  5
54
330
53
100
AcDbEntity
  8
0
100
AcDbBlockBegin
  2
EX_BCIR
 70
     0
 10
0.0
 20
0.0
 30
0.0
  3
EX_BCIR
  1

  0
LINE
  5
80
330
53
100
AcDbEntity
  8
0
  6
CONTINUOUS
 62
     0
100
AcDbLine
 10
0.0
 20
0.0
 30
0.0
 11
-1.0
 21
0.0
 31
0.0
  0
CIRCLE
  5
81
330
53
100
AcDbEntity
  8
0
  6
CONTINUOUS
 62
     0
100
AcDbCircle
 10
0.0
 20
0.0
 30
0.0
 40
0.5
  0
CIRCLE
  5
82
330
53
100
AcDbEntity
  8
0
  6
CONTINUOUS
 62
     0
100
AcDbCircle
 10
0.0
 20
0.0
 30
0.0
 40
0.25
  0
ENDBLK
  5
55
330
53
100
AcDbEntity
  8
0
100
AcDbBlockEnd
  0
BLOCK
  5
57
330
56
100
AcDbEntity
  8
0
100
AcDbBlockBegin
  2
EX_RCIVIL
 70
     0
 10
0.0
 20
0.0
 30
0.0
  3
EX_RCIVIL
  1

  0
LINE
  5
83
330
56
100
AcDbEntity
  8
0
  6
CONTINUOUS
 62
     0
100
AcDbLine
 10
0.0
 20
0.0
 30
0.0
 11
-1.0
 21
0.0
 31
0.0
  0
LINE
  5
84
330
56
100
AcDbEntity
  8
0
  6
CONTINUOUS
 62
     0
100
AcDbLine
 10
-1.0
 20
-0.25
 30
0.0
 11
0.0
 21
-0.25
 31
0.0
  0
LINE
  5
85
330
56
100
AcDbEntity
  8
0
  6
CONTINUOUS
 62
     0
100
AcDbLine
 10
-1.0
 20
-0.125
 30
0.0
 11
0.0
 21
-0.125
 31
0.0
  0
ENDBLK
  5
58
330
56
100
AcDbEntity
  8
0
100
AcDbBlockEnd
  0
BLOCK
  5
5A
330
59
100
AcDbEntity
  8
0
100
AcDbBlockBegin
  2
EX_SLANT
 70
     0
 10
0.0
 20
0.0
 30
0.0
  3
EX_SLANT
  1

  0
LINE
  5
86
330
59
100
AcDbEntity
  8
0
  6
CONTINUOUS
 62
     0
100
AcDbLine
 10
0.0
 20
0.0
 30
0.0
 11
-1.0
 21
0.0
 31
0.0
  0
LINE
  5
87
330
59
100
AcDbEntity
  8
0
  6
CONTINUOUS
 62
     0
100
AcDbLine
 10
0.707106781
 20
0.707106781
 30
0.0
 11
-0.707106781
 21
-0.707106781
 31
0.0
  0
ENDBLK
  5
5B
330
59
100
AcDbEntity
  8
0
100
AcDbBlockEnd
  0
BLOCK
  5
5D
330
5C
100
AcDbEntity
  8
0
100
AcDbBlockBegin
  2
EX_NONE
 70
     0
 10
0.0
 20
0.0
 30
0.0
  3
EX_NONE
  1

  0
LINE
  5
88
330
5C
100
AcDbEntity
  8
0
  6
CONTINUOUS
 62
     0
100
AcDbLine
 10
0.0
 20
0.0
 30
0.0
 11
-1.0
 21
0.0
 31
0.0
  0
ENDBLK
  5
5E
330
5C
100
AcDbEntity
  8
0
100
AcDbBlockEnd
  0
BLOCK
  5
60
330
5F
100
AcDbEntity
  8
0
100
AcDbBlockBegin
  2
EX_CIVIL
 70
     0
 10
0.0
 20
0.0
 30
0.0
  3
EX_CIVIL
  1

  0
LINE
  5
89
330
5F
100
AcDbEntity
  8
0
  6
CONTINUOUS
 62
     0
100
AcDbLine
 10
0.0
 20
0.0
 30
0.0
 11
-1.0
 21
0.0
 31
0.0
  0
LINE
  5
8A
330
5F
100
AcDbEntity
  8
0
  6
CONTINUOUS
 62
     0
100
AcDbLine
 10
-1.0
 20
0.25
 30
0.0
 11
0.0
 21
0.25
 31
0.0
  0
LINE
  5
8B
330
5F
100
AcDbEntity
  8
0
  6
CONTINUOUS
 62
     0
100
AcDbLine
 10
-1.0
 20
0.125
 30
0.0
 11
0.0
 21
0.125
 31
0.0
  0
ENDBLK
  5
61
330
5F
100
AcDbEntity
  8
0
100
AcDbBlockEnd
  0
BLOCK
  5
63
330
62
100
AcDbEntity
  8
0
100
AcDbBlockBegin
  2
EX_WCIR
 70
     0
 10
0.0
 20
0.0
 30
0.0
  3
EX_WCIR
  1

  0
LINE
  5
8C
330
62
100
AcDbEntity
  8
0
  6
CONTINUOUS
 62
     0
100
AcDbLine
 10
0.0
 20
0.0
 30
0.0
 11
-1.0
 21
0.0
 31
0.0
  0
CIRCLE
  5
8D
330
62
100
AcDbEntity
  8
0
  6
CONTINUOUS
 62
     0
100
AcDbCircle
 10
0.0
 20
0.0
 30
0.0
 40
0.5
  0
ENDBLK
  5
64
330
62
100
AcDbEntity
  8
0
100
AcDbBlockEnd
  0
BLOCK
  5
66
330
65
100
AcDbEntity
  8
0
100
AcDbBlockBegin
  2
EX_WCIR2
 70
     0
 10
0.0
 20
0.0
 30
0.0
  3
EX_WCIR2
  1

  0
LINE
  5
8E
330
65
100
AcDbEntity
  8
0
  6
CONTINUOUS
 62
     0
100
AcDbLine
 10
-0.5
 20
0.0
 30
0.0
 11
-1.0
 21
0.0
 31
0.0
  0
CIRCLE
  5
8F
330
65
100
AcDbEntity
  8
0
  6
CONTINUOUS
 62
     0
100
AcDbCircle
 10
0.0
 20
0.0
 30
0.0
 40
0.5
  0
ENDBLK
  5
67
330
65
100
AcDbEntity
  8
0
100
AcDbBlockEnd
  0
BLOCK
  5
69
330
68
100
AcDbEntity
  8
0
100
AcDbBlockBegin
  2
EX_WNORM
 70
     0
 10
0.0
 20
0.0
 30
0.0
  3
EX_WNORM
  1

  0
LINE
  5
90
330
68
100
AcDbEntity
  8
0
  6
CONTINUOUS
 62
     0
100
AcDbLine
 10
-1.0
 20
0.0
 30
0.0
 11
-1.0
 21
0.0
 31
0.0
  0
LINE
  5
91
330
68
100
AcDbEntity
  8
0
  6
CONTINUOUS
 62
     0
100
AcDbLine
 10
0.0
 20
0.0
 30
0.0
 11
-1.0
 21
0.166666667
 31
0.0
  0
LINE
  5
92
330
68
100
AcDbEntity
  8
0
  6
CONTINUOUS
 62
     0
100
AcDbLine
 10
0.0
 20
0.0
 30
0.0
 11
-1.0
 21
-0.166666667
 31
0.0
  0
LINE
  5
93
330
68
100
AcDbEntity
  8
0
  6
CONTINUOUS
 62
     0
100
AcDbLine
 10
-1.0
 20
0.166666667
 30
0.0
 11
-1.0
 21
-0.166666667
 31
0.0
  0
ENDBLK
  5
6A
330
68
100
AcDbEntity
  8
0
100
AcDbBlockEnd
  0
BLOCK
  5
6C
330
6B
100
AcDbEntity
  8
0
100
AcDbBlockBegin
  2
EX_NNORM
 70
     0
 10
0.0
 20
0.0
 30
0.0
  3
EX_NNORM
  1

  0
LINE
  5
94
330
6B
100
AcDbEntity
  8
0
  6
CONTINUOUS
 62
     0
100
AcDbLine
 10
0.0
 20
0.0
 30
0.0
 11
-1.0
 21
0.0
 31
0.0
  0
LINE
  5
95
330
6B
100
AcDbEntity
  8
0
  6
CONTINUOUS
 62
     0
100
AcDbLine
 10
0.0
 20
0.0
 30
0.0
 11
-1.0
 21
0.166666667
 31
0.0
  0
LINE
  5
96
330
6B
100
AcDbEntity
  8
0
  6
CONTINUOUS
 62
     0
100
AcDbLine
 10
0.0
 20
0.0
 30
0.0
 11
-1.0
 21
-0.166666667
 31
0.0
  0
LINE
  5
97
330
6B
100
AcDbEntity
  8
0
  6
CONTINUOUS
 62
     0
100
AcDbLine
 10
-1.0
 20
0.166666667
 30
0.0
 11
-1.0
 21
-0.166666667
 31
0.0
  0
ENDBLK
  5
6D
330
6B
100
AcDbEntity
  8
0
100
AcDbBlockEnd
  0
BLOCK
  5
6F
330
6E
100
AcDbEntity
  8
0
100
AcDbBlockBegin
  2
EX_BBOX
 70
     0
 10
0.0
 20
0.0
 30
0.0
  3
EX_BBOX
  1

  0
LINE
  5
98
330
6E
100
AcDbEntity
  8
0
  6
CONTINUOUS
 62
     0
100
AcDbLine
 10
0.0
 20
0.0
 30
0.0
 11
-1.0
 21
0.0
 31
0.0
  0
LINE
  5
99
330
6E
100
AcDbEntity
  8
0
  6
CONTINUOUS
 62
     0
100
AcDbLine
 10
-0.5
 20
0.5
 30
0.0
 11
0.5
 21
0.5
 31
0.0
  0
LINE
  5
9A
330
6E
100
AcDbEntity
  8
0
  6
CONTINUOUS
 62
     0
100
AcDbLine
 10
0.5
 20
0.5
 30
0.0
 11
0.5
 21
-0.5
 31
0.0
  0
LINE
  5
9B
330
6E
100
AcDbEntity
  8
0
  6
CONTINUOUS
 62
     0
100
AcDbLine
 10
0.5
 20
-0.5
 30
0.0
 11
-0.5
 21
-0.5
 31
0.0
  0
LINE
  5
9C
330
6E
100
AcDbEntity
  8
0
  6
CONTINUOUS
 62
     0
100
AcDbLine
 10
-0.5
 20
-0.5
 30
0.0
 11
-0.5
 21
0.5
 31
0.0
  0
LINE
  5
9D
330
6E
100
AcDbEntity
  8
0
  6
CONTINUOUS
 62
     0
100
AcDbLine
 10
-0.25
 20
0.25
 30
0.0
 11
0.25
 21
0.25
 31
0.0
  0
LINE
  5
9E
330
6E
100
AcDbEntity
  8
0
  6
CONTINUOUS
 62
     0
100
AcDbLine
 10
0.25
 20
0.25
 30
0.0
 11
0.25
 21
-0.25
 31
0.0
  0
LINE
  5
9F
330
6E
100
AcDbEntity
  8
0
  6
CONTINUOUS
 62
     0
100
AcDbLine
 10
0.25
 20
-0.25
 30
0.0
 11
-0.25
 21
-0.25
 31
0.0
  0
LINE
  5
A0
330
6E
100
AcDbEntity
  8
0
  6
CONTINUOUS
 62
     0
100
AcDbLine
 10
-0.25
 20
-0.25
 30
0.0
 11
-0.25
 21
0.25
 31
0.0
  0
ENDBLK
  5
70
330
6E
100
AcDbEntity
  8
0
100
AcDbBlockEnd
  0
BLOCK
  5
72
330
71
100
AcDbEntity
  8
0
100
AcDbBlockBegin
  2
EX_WBOX
 70
     0
 10
0.0
 20
0.0
 30
0.0
  3
EX_WBOX
  1

  0
LINE
  5
A1
330
71
100
AcDbEntity
  8
0
  6
CONTINUOUS
 62
     0
100
AcDbLine
 10
-0.5
 20
0.0
 30
0.0
 11
-1.0
 21
0.0
 31
0.0
  0
LINE
  5
A2
330
71
100
AcDbEntity
  8
0
  6
CONTINUOUS
 62
     0
100
AcDbLine
 10
-0.5
 20
0.5
 30
0.0
 11
0.5
 21
0.5
 31
0.0
  0
LINE
  5
A3
330
71
100
AcDbEntity
  8
0
  6
CONTINUOUS
 62
     0
100
AcDbLine
 10
0.5
 20
0.5
 30
0.0
 11
0.5
 21
-0.5
 31
0.0
  0
LINE
  5
A4
330
71
100
AcDbEntity
  8
0
  6
CONTINUOUS
 62
     0
100
AcDbLine
 10
0.5
 20
-0.5
 30
0.0
 11
-0.5
 21
-0.5
 31
0.0
  0
LINE
  5
A5
330
71
100
AcDbEntity
  8
0
  6
CONTINUOUS
 62
     0
100
AcDbLine
 10
-0.5
 20
-0.5
 30
0.0
 11
-0.5
 21
0.5
 31
0.0
  0
ENDBLK
  5
73
330
71
100
AcDbEntity
  8
0
100
AcDbBlockEnd
  0
BLOCK
  5
75
330
74
100
AcDbEntity
  8
0
100
AcDbBlockBegin
  2
EX_INTEGRAL
 70
     0
 10
0.0
 20
0.0
 30
0.0
  3
EX_INTEGRAL
  1

  0
LINE
  5
A6
330
74
100
AcDbEntity
  8
0
  6
CONTINUOUS
 62
     0
100
AcDbLine
 10
0.0
 20
0.0
 30
0.0
 11
-1.0
 21
0.0
 31
0.0
  0
ARC
  5
A7
330
74
100
AcDbEntity
  8
0
  6
CONTINUOUS
 62
     0
100
AcDbCircle
 10
0.542115
 20
0.164992
 30
0.0
 40
0.56667
100
AcDbArc
 50
73.07249033629006
 51
196.9275130221199
  0
ARC
  5
A8
330
74
100
AcDbEntity
  8
0
  6
CONTINUOUS
 62
     0
100
AcDbCircle
 10
-0.542115
 20
-0.164992
 30
0.0
 40
0.56667
100
AcDbArc
 50
253.0724869220464
 51
16.9275130559125
  0
ENDBLK
  5
76
330
74
100
AcDbEntity
  8
0
100
AcDbBlockEnd
  0
BLOCK
  5
142
330
141
100
AcDbEntity
  8
0
100
AcDbBlockBegin
  2
*D15
 70
     1
 10
0.0
 20
0.0
 30
0.0
  3
*D15
  1

  0
LINE
  5
144
330
141
100
AcDbEntity
  8
化粧台
  6
CONTINUOUS
 62
     3
100
AcDbLine
 10
1568.999999999999
 20
2618.99999988079
 30
0.0
 11
1568.999999999999
 21
2699.999999999999
 31
0.0
  0
LINE
  5
145
330
141
100
AcDbEntity
  8
化粧台
  6
CONTINUOUS
 62
     3
100
AcDbLine
 10
1422.999999999999
 20
2618.99999988079
 30
0.0
 11
1422.999999999999
 21
2699.999999999999
 31
0.0
  0
LINE
  5
146
330
141
100
AcDbEntity
  8
化粧台
  6
CONTINUOUS
 62
     3
100
AcDbLine
 10
1538.999999999999
 20
2689.999999999999
 30
0.0
 11
1452.999999999999
 21
2689.999999999999
 31
0.0
  0
INSERT
  5
147
330
141
100
AcDbEntity
  8
化粧台
 62
     3
100
AcDbBlockReference
  2
EX_NORM
 10
1568.999999999999
 20
2689.999999999999
 30
0.0
 41
30.0
 42
30.0
 43
30.0
  0
INSERT
  5
148
330
141
100
AcDbEntity
  8
化粧台
 62
     3
100
AcDbBlockReference
  2
EX_NORM
 10
1422.999999999999
 20
2689.999999999999
 30
0.0
 41
30.0
 42
30.0
 43
30.0
 50
180.0
  0
MTEXT
  5
149
330
141
100
AcDbEntity
  8
化粧台
 62
     2
100
AcDbMText
 10
1495.999999999999
 20
2713.499999940394
 30
0.0
 40
40.0
 41
0.0
 71
     5
 72
     1
  1
146
  7
EXCADDIM1
  0
POINT
  5
14A
330
141
100
AcDbEntity
  8
DEFPOINTS
 62
     0
100
AcDbPoint
 10
1568.999999999999
 20
2612.0
 30
0.0
  0
POINT
  5
14B
330
141
100
AcDbEntity
  8
DEFPOINTS
 62
     0
100
AcDbPoint
 10
1422.999999999999
 20
2612.0
 30
0.0
  0
POINT
  5
14C
330
141
100
AcDbEntity
  8
DEFPOINTS
 62
     0
100
AcDbPoint
 10
1422.999999999999
 20
2689.999999999999
 30
0.0
  0
ENDBLK
  5
143
330
141
100
AcDbEntity
  8
0
100
AcDbBlockEnd
  0
BLOCK
  5
14F
330
14E
100
AcDbEntity
  8
0
100
AcDbBlockBegin
  2
*D16
 70
     1
 10
0.0
 20
0.0
 30
0.0
  3
*D16
  1

  0
LINE
  5
151
330
14E
100
AcDbEntity
  8
化粧台
  6
CONTINUOUS
 62
     3
100
AcDbLine
 10
1568.999999999996
 20
806.0000001192088
 30
0.0
 11
1568.999999999996
 21
712.9999999999995
 31
0.0
  0
LINE
  5
152
330
14E
100
AcDbEntity
  8
化粧台
  6
CONTINUOUS
 62
     3
100
AcDbLine
 10
1419.999999999997
 20
806.0000001192088
 30
0.0
 11
1419.999999999997
 21
712.9999999999995
 31
0.0
  0
LINE
  5
153
330
14E
100
AcDbEntity
  8
化粧台
  6
CONTINUOUS
 62
     3
100
AcDbLine
 10
1538.999999999996
 20
722.9999999999995
 30
0.0
 11
1449.999999999997
 21
722.9999999999995
 31
0.0
  0
INSERT
  5
154
330
14E
100
AcDbEntity
  8
化粧台
 62
     3
100
AcDbBlockReference
  2
EX_NORM
 10
1568.999999999996
 20
722.9999999999995
 30
0.0
 41
30.0
 42
30.0
 43
30.0
  0
INSERT
  5
155
330
14E
100
AcDbEntity
  8
化粧台
 62
     3
100
AcDbBlockReference
  2
EX_NORM
 10
1419.999999999997
 20
722.9999999999995
 30
0.0
 41
30.0
 42
30.0
 43
30.0
 50
180.0
  0
MTEXT
  5
156
330
14E
100
AcDbEntity
  8
化粧台
 62
     2
100
AcDbMText
 10
1494.499999999997
 20
746.4999999403949
 30
0.0
 40
40.0
 41
0.0
 71
     5
 72
     1
  1
149
  7
EXCADDIM1
  0
POINT
  5
157
330
14E
100
AcDbEntity
  8
DEFPOINTS
 62
     0
100
AcDbPoint
 10
1568.999999999996
 20
812.9999999999995
 30
0.0
  0
POINT
  5
158
330
14E
100
AcDbEntity
  8
DEFPOINTS
 62
     0
100
AcDbPoint
 10
1419.999999999997
 20
812.9999999999995
 30
0.0
  0
POINT
  5
159
330
14E
100
AcDbEntity
  8
DEFPOINTS
 62
     0
100
AcDbPoint
 10
1419.999999999997
 20
722.9999999999995
 30
0.0
  0
ENDBLK
  5
150
330
14E
100
AcDbEntity
  8
0
100
AcDbBlockEnd
  0
BLOCK
  5
15C
330
15B
100
AcDbEntity
  8
0
100
AcDbBlockBegin
  2
*D17
 70
     1
 10
0.0
 20
0.0
 30
0.0
  3
*D17
  1

  0
LINE
  5
15E
330
15B
100
AcDbEntity
  8
化粧台
  6
CONTINUOUS
 62
     3
100
AcDbLine
 10
1419.999999999997
 20
1498.99999988079
 30
0.0
 11
1419.999999999997
 21
1551.0
 31
0.0
  0
LINE
  5
15F
330
15B
100
AcDbEntity
  8
化粧台
  6
CONTINUOUS
 62
     3
100
AcDbLine
 10
1422.999999999998
 20
1541.0
 30
0.0
 11
1419.999999999997
 21
1541.0
 31
0.0
  0
LINE
  5
160
330
15B
100
AcDbEntity
  8
化粧台
  6
CONTINUOUS
 62
     3
100
AcDbLine
 10
1452.999999999998
 20
1541.0
 30
0.0
 11
1482.999999999998
 21
1541.0
 31
0.0
  0
LINE
  5
161
330
15B
100
AcDbEntity
  8
化粧台
  6
CONTINUOUS
 62
     3
100
AcDbLine
 10
1389.999999999997
 20
1541.0
 30
0.0
 11
1359.999999999997
 21
1541.0
 31
0.0
  0
INSERT
  5
162
330
15B
100
AcDbEntity
  8
化粧台
 62
     3
100
AcDbBlockReference
  2
EX_NORM
 10
1422.999999999998
 20
1541.0
 30
0.0
 41
30.0
 42
30.0
 43
30.0
 50
180.0
  0
INSERT
  5
163
330
15B
100
AcDbEntity
  8
化粧台
 62
     3
100
AcDbBlockReference
  2
EX_NORM
 10
1419.999999999997
 20
1541.0
 30
0.0
 41
30.0
 42
30.0
 43
30.0
  0
MTEXT
  5
164
330
15B
100
AcDbEntity
  8
化粧台
 62
     2
100
AcDbMText
 10
1339.999999999998
 20
1564.499999940394
 30
0.0
 40
40.0
 41
0.0
 71
     5
 72
     1
  1
（3）
  7
EXCADDIM1
  0
POINT
  5
165
330
15B
100
AcDbEntity
  8
DEFPOINTS
 62
     0
100
AcDbPoint
 10
1422.999999999998
 20
1492.0
 30
0.0
  0
POINT
  5
166
330
15B
100
AcDbEntity
  8
DEFPOINTS
 62
     0
100
AcDbPoint
 10
1419.999999999997
 20
1492.0
 30
0.0
  0
POINT
  5
167
330
15B
100
AcDbEntity
  8
DEFPOINTS
 62
     0
100
AcDbPoint
 10
1419.999999999997
 20
1541.0
 30
0.0
  0
ENDBLK
  5
15D
330
15B
100
AcDbEntity
  8
0
100
AcDbBlockEnd
  0
BLOCK
  5
16A
330
169
100
AcDbEntity
  8
0
100
AcDbBlockBegin
  2
*D18
 70
     1
 10
0.0
 20
0.0
 30
0.0
  3
*D18
  1

  0
LINE
  5
16C
330
169
100
AcDbEntity
  8
化粧台
  6
CONTINUOUS
 62
     3
100
AcDbLine
 10
989.9999999999972
 20
2618.99999988079
 30
0.0
 11
989.9999999999972
 21
2753.0
 31
0.0
  0
LINE
  5
16D
330
169
100
AcDbEntity
  8
化粧台
  6
CONTINUOUS
 62
     3
100
AcDbLine
 10
544.9999999999972
 20
2618.99999988079
 30
0.0
 11
544.9999999999972
 21
2753.0
 31
0.0
  0
LINE
  5
16E
330
169
100
AcDbEntity
  8
化粧台
  6
CONTINUOUS
 62
     3
100
AcDbLine
 10
959.9999999999972
 20
2743.0
 30
0.0
 11
574.9999999999972
 21
2743.0
 31
0.0
  0
INSERT
  5
16F
330
169
100
AcDbEntity
  8
化粧台
 62
     3
100
AcDbBlockReference
  2
EX_NORM
 10
989.9999999999972
 20
2743.0
 30
0.0
 41
30.0
 42
30.0
 43
30.0
  0
INSERT
  5
170
330
169
100
AcDbEntity
  8
化粧台
 62
     3
100
AcDbBlockReference
  2
EX_NORM
 10
544.9999999999972
 20
2743.0
 30
0.0
 41
30.0
 42
30.0
 43
30.0
 50
180.0
  0
MTEXT
  5
171
330
169
100
AcDbEntity
  8
化粧台
 62
     2
100
AcDbMText
 10
767.4999999999973
 20
2766.499999940395
 30
0.0
 40
40.0
 41
0.0
 71
     5
 72
     1
  1
445
  7
EXCADDIM1
  0
POINT
  5
172
330
169
100
AcDbEntity
  8
DEFPOINTS
 62
     0
100
AcDbPoint
 10
989.9999999999972
 20
2612.0
 30
0.0
  0
POINT
  5
173
330
169
100
AcDbEntity
  8
DEFPOINTS
 62
     0
100
AcDbPoint
 10
544.9999999999972
 20
2612.0
 30
0.0
  0
POINT
  5
174
330
169
100
AcDbEntity
  8
DEFPOINTS
 62
     0
100
AcDbPoint
 10
544.9999999999972
 20
2743.0
 30
0.0
  0
ENDBLK
  5
16B
330
169
100
AcDbEntity
  8
0
100
AcDbBlockEnd
  0
BLOCK
  5
177
330
176
100
AcDbEntity
  8
0
100
AcDbBlockBegin
  2
*D19
 70
     1
 10
0.0
 20
0.0
 30
0.0
  3
*D19
  1

  0
LINE
  5
179
330
176
100
AcDbEntity
  8
化粧台
  6
CONTINUOUS
 62
     3
100
AcDbLine
 10
969.9999999999981
 20
806.0000001192088
 30
0.0
 11
969.9999999999981
 21
712.9999999999995
 31
0.0
  0
LINE
  5
17A
330
176
100
AcDbEntity
  8
化粧台
  6
CONTINUOUS
 62
     3
100
AcDbLine
 10
544.9999999999981
 20
806.0000001192088
 30
0.0
 11
544.9999999999981
 21
712.9999999999995
 31
0.0
  0
LINE
  5
17B
330
176
100
AcDbEntity
  8
化粧台
  6
CONTINUOUS
 62
     3
100
AcDbLine
 10
939.9999999999981
 20
722.9999999999995
 30
0.0
 11
574.9999999999981
 21
722.9999999999995
 31
0.0
  0
INSERT
  5
17C
330
176
100
AcDbEntity
  8
化粧台
 62
     3
100
AcDbBlockReference
  2
EX_NORM
 10
969.9999999999981
 20
722.9999999999995
 30
0.0
 41
30.0
 42
30.0
 43
30.0
  0
INSERT
  5
17D
330
176
100
AcDbEntity
  8
化粧台
 62
     3
100
AcDbBlockReference
  2
EX_NORM
 10
544.9999999999981
 20
722.9999999999995
 30
0.0
 41
30.0
 42
30.0
 43
30.0
 50
180.0
  0
MTEXT
  5
17E
330
176
100
AcDbEntity
  8
化粧台
 62
     2
100
AcDbMText
 10
757.4999999999981
 20
746.4999999403949
 30
0.0
 40
40.0
 41
0.0
 71
     5
 72
     1
  1
425
  7
EXCADDIM1
  0
POINT
  5
17F
330
176
100
AcDbEntity
  8
DEFPOINTS
 62
     0
100
AcDbPoint
 10
969.9999999999981
 20
812.9999999999995
 30
0.0
  0
POINT
  5
180
330
176
100
AcDbEntity
  8
DEFPOINTS
 62
     0
100
AcDbPoint
 10
544.9999999999981
 20
812.9999999999995
 30
0.0
  0
POINT
  5
181
330
176
100
AcDbEntity
  8
DEFPOINTS
 62
     0
100
AcDbPoint
 10
544.9999999999981
 20
722.9999999999995
 30
0.0
  0
ENDBLK
  5
178
330
176
100
AcDbEntity
  8
0
100
AcDbBlockEnd
  0
BLOCK
  5
184
330
183
100
AcDbEntity
  8
0
100
AcDbBlockBegin
  2
*D20
 70
     1
 10
0.0
 20
0.0
 30
0.0
  3
*D20
  1

  0
LINE
  5
186
330
183
100
AcDbEntity
  8
化粧台
  6
CONTINUOUS
 62
     3
100
AcDbLine
 10
625.4999999999972
 20
2562.24999988079
 30
0.0
 11
625.4999999999972
 21
2693.0
 31
0.0
  0
LINE
  5
187
330
183
100
AcDbEntity
  8
化粧台
  6
CONTINUOUS
 62
     3
100
AcDbLine
 10
895.4999999999973
 20
2562.24999988079
 30
0.0
 11
895.4999999999973
 21
2693.0
 31
0.0
  0
LINE
  5
188
330
183
100
AcDbEntity
  8
化粧台
  6
CONTINUOUS
 62
     3
100
AcDbLine
 10
655.4999999999972
 20
2683.0
 30
0.0
 11
865.4999999999973
 21
2683.0
 31
0.0
  0
INSERT
  5
189
330
183
100
AcDbEntity
  8
化粧台
 62
     3
100
AcDbBlockReference
  2
EX_NORM
 10
625.4999999999972
 20
2683.0
 30
0.0
 41
30.0
 42
30.0
 43
30.0
 50
180.0
  0
INSERT
  5
18A
330
183
100
AcDbEntity
  8
化粧台
 62
     3
100
AcDbBlockReference
  2
EX_NORM
 10
895.4999999999973
 20
2683.0
 30
0.0
 41
30.0
 42
30.0
 43
30.0
  0
MTEXT
  5
18B
330
183
100
AcDbEntity
  8
化粧台
 62
     2
100
AcDbMText
 10
760.4999999999974
 20
2706.499999940395
 30
0.0
 40
40.0
 41
0.0
 71
     5
 72
     1
  1
270
  7
EXCADDIM1
  0
POINT
  5
18C
330
183
100
AcDbEntity
  8
DEFPOINTS
 62
     0
100
AcDbPoint
 10
625.4999999999972
 20
2555.25
 30
0.0
  0
POINT
  5
18D
330
183
100
AcDbEntity
  8
DEFPOINTS
 62
     0
100
AcDbPoint
 10
895.4999999999973
 20
2555.25
 30
0.0
  0
POINT
  5
18E
330
183
100
AcDbEntity
  8
DEFPOINTS
 62
     0
100
AcDbPoint
 10
895.4999999999973
 20
2683.0
 30
0.0
  0
ENDBLK
  5
185
330
183
100
AcDbEntity
  8
0
100
AcDbBlockEnd
  0
BLOCK
  5
191
330
190
100
AcDbEntity
  8
0
100
AcDbBlockBegin
  2
*D21
 70
     1
 10
0.0
 20
0.0
 30
0.0
  3
*D21
  1

  0
LINE
  5
193
330
190
100
AcDbEntity
  8
化粧台
  6
CONTINUOUS
 62
     3
100
AcDbLine
 10
1575.999999880788
 20
812.9999999999995
 30
0.0
 11
1662.0
 21
812.9999999999997
 31
0.0
  0
LINE
  5
194
330
190
100
AcDbEntity
  8
化粧台
  6
CONTINUOUS
 62
     3
100
AcDbLine
 10
1503.999999880788
 20
1393.0
 30
0.0
 11
1662.0
 21
1393.0
 31
0.0
  0
LINE
  5
195
330
190
100
AcDbEntity
  8
化粧台
  6
CONTINUOUS
 62
     3
100
AcDbLine
 10
1652.0
 20
842.9999999999997
 30
0.0
 11
1652.0
 21
1363.0
 31
0.0
  0
INSERT
  5
196
330
190
100
AcDbEntity
  8
化粧台
 62
     3
100
AcDbBlockReference
  2
EX_NORM
 10
1652.0
 20
812.9999999999997
 30
0.0
 41
30.0
 42
30.0
 43
30.0
 50
270.0
  0
INSERT
  5
197
330
190
100
AcDbEntity
  8
化粧台
 62
     3
100
AcDbBlockReference
  2
EX_NORM
 10
1652.0
 20
1393.0
 30
0.0
 41
30.0
 42
30.0
 43
30.0
 50
90.0
  0
MTEXT
  5
198
330
190
100
AcDbEntity
  8
化粧台
 62
     2
100
AcDbMText
 10
1628.500000059605
 20
1102.999999999999
 30
0.0
 40
40.0
 41
0.0
 71
     5
 72
     1
  1
580（壁固定　後壁）
  7
EXCADDIM1
 11
0.0
 21
1.0
 31
0.0
  0
POINT
  5
199
330
190
100
AcDbEntity
  8
DEFPOINTS
 62
     0
100
AcDbPoint
 10
1568.999999999997
 20
812.9999999999995
 30
0.0
  0
POINT
  5
19A
330
190
100
AcDbEntity
  8
DEFPOINTS
 62
     0
100
AcDbPoint
 10
1496.999999999997
 20
1393.0
 30
0.0
  0
POINT
  5
19B
330
190
100
AcDbEntity
  8
DEFPOINTS
 62
     0
100
AcDbPoint
 10
1652.0
 20
1393.0
 30
0.0
  0
ENDBLK
  5
192
330
190
100
AcDbEntity
  8
0
100
AcDbBlockEnd
  0
BLOCK
  5
19E
330
19D
100
AcDbEntity
  8
0
100
AcDbBlockBegin
  2
*D22
 70
     1
 10
0.0
 20
0.0
 30
0.0
  3
*D22
  1

  0
LINE
  5
1A0
330
19D
100
AcDbEntity
  8
化粧台
  6
CONTINUOUS
 62
     3
100
AcDbLine
 10
625.5000000000003
 20
2562.24999988079
 30
0.0
 11
625.5000000000003
 21
2693.0
 31
0.0
  0
LINE
  5
1A1
330
19D
100
AcDbEntity
  8
化粧台
  6
CONTINUOUS
 62
     3
100
AcDbLine
 10
544.9999999999985
 20
2618.99999988079
 30
0.0
 11
544.9999999999985
 21
2693.0
 31
0.0
  0
LINE
  5
1A2
330
19D
100
AcDbEntity
  8
化粧台
  6
CONTINUOUS
 62
     3
100
AcDbLine
 10
595.5000000000003
 20
2683.0
 30
0.0
 11
574.9999999999985
 21
2683.0
 31
0.0
  0
INSERT
  5
1A3
330
19D
100
AcDbEntity
  8
化粧台
 62
     3
100
AcDbBlockReference
  2
EX_NORM
 10
625.5000000000003
 20
2683.0
 30
0.0
 41
30.0
 42
30.0
 43
30.0
  0
INSERT
  5
1A4
330
19D
100
AcDbEntity
  8
化粧台
 62
     3
100
AcDbBlockReference
  2
EX_NORM
 10
544.9999999999985
 20
2683.0
 30
0.0
 41
30.0
 42
30.0
 43
30.0
 50
180.0
  0
MTEXT
  5
1A5
330
19D
100
AcDbEntity
  8
化粧台
 62
     2
100
AcDbMText
 10
459.9999999999994
 20
2706.499999940395
 30
0.0
 40
40.0
 41
0.0
 71
     5
 72
     1
  1
80.5
  7
EXCADDIM1
  0
POINT
  5
1A6
330
19D
100
AcDbEntity
  8
DEFPOINTS
 62
     0
100
AcDbPoint
 10
625.5000000000003
 20
2555.25
 30
0.0
  0
POINT
  5
1A7
330
19D
100
AcDbEntity
  8
DEFPOINTS
 62
     0
100
AcDbPoint
 10
544.9999999999985
 20
2612.0
 30
0.0
  0
POINT
  5
1A8
330
19D
100
AcDbEntity
  8
DEFPOINTS
 62
     0
100
AcDbPoint
 10
544.9999999999985
 20
2683.0
 30
0.0
  0
ENDBLK
  5
19F
330
19D
100
AcDbEntity
  8
0
100
AcDbBlockEnd
  0
BLOCK
  5
1AB
330
1AA
100
AcDbEntity
  8
0
100
AcDbBlockBegin
  2
*D23
 70
     1
 10
0.0
 20
0.0
 30
0.0
  3
*D23
  1

  0
LINE
  5
1AD
330
1AA
100
AcDbEntity
  8
化粧台
  6
CONTINUOUS
 62
     3
100
AcDbLine
 10
995.2000001669002
 20
812.9999999999995
 30
0.0
 11
1128.000000000007
 21
812.9999999999995
 31
0.0
  0
LINE
  5
1AE
330
1AA
100
AcDbEntity
  8
化粧台
  6
CONTINUOUS
 62
     3
100
AcDbLine
 10
992.2000001669002
 20
2613.999999999999
 30
0.0
 11
1128.000000000007
 21
2613.999999999999
 31
0.0
  0
LINE
  5
1AF
330
1AA
100
AcDbEntity
  8
化粧台
  6
CONTINUOUS
 62
     3
100
AcDbLine
 10
1118.000000000007
 20
842.9999999999995
 30
0.0
 11
1118.000000000007
 21
2583.999999999999
 31
0.0
  0
INSERT
  5
1B0
330
1AA
100
AcDbEntity
  8
化粧台
 62
     3
100
AcDbBlockReference
  2
EX_NORM
 10
1118.000000000007
 20
812.9999999999995
 30
0.0
 41
30.0
 42
30.0
 43
30.0
 50
270.0
  0
INSERT
  5
1B1
330
1AA
100
AcDbEntity
  8
化粧台
 62
     3
100
AcDbBlockReference
  2
EX_NORM
 10
1118.000000000007
 20
2613.999999999999
 30
0.0
 41
30.0
 42
30.0
 43
30.0
 50
90.0
  0
MTEXT
  5
1B2
330
1AA
100
AcDbEntity
  8
化粧台
 62
     2
100
AcDbMText
 10
1094.500000059612
 20
1713.5
 30
0.0
 40
40.0
 41
0.0
 71
     5
 72
     1
  1
1801
  7
EXCADDIM1
 11
0.0
 21
1.0
 31
0.0
  0
POINT
  5
1B3
330
1AA
100
AcDbEntity
  8
DEFPOINTS
 62
     0
100
AcDbPoint
 10
986.0000000000072
 20
812.9999999999995
 30
0.0
  0
POINT
  5
1B4
330
1AA
100
AcDbEntity
  8
DEFPOINTS
 62
     0
100
AcDbPoint
 10
983.0000000000072
 20
2613.999999999999
 30
0.0
  0
POINT
  5
1B5
330
1AA
100
AcDbEntity
  8
DEFPOINTS
 62
     0
100
AcDbPoint
 10
1118.000000000007
 20
2613.999999999999
 30
0.0
  0
ENDBLK
  5
1AC
330
1AA
100
AcDbEntity
  8
0
100
AcDbBlockEnd
  0
BLOCK
  5
1B8
330
1B7
100
AcDbEntity
  8
0
100
AcDbBlockBegin
  2
*D24
 70
     1
 10
0.0
 20
0.0
 30
0.0
  3
*D24
  1

  0
LINE
  5
1BA
330
1B7
100
AcDbEntity
  8
化粧台
  6
CONTINUOUS
 62
     3
100
AcDbLine
 10
1575.999999880792
 20
813.0000000000001
 30
0.0
 11
1719.000000000001
 21
813.0000000000002
 31
0.0
  0
LINE
  5
1BB
330
1B7
100
AcDbEntity
  8
化粧台
  6
CONTINUOUS
 62
     3
100
AcDbLine
 10
1607.999999880791
 20
2547.0
 30
0.0
 11
1719.000000000001
 21
2547.0
 31
0.0
  0
LINE
  5
1BC
330
1B7
100
AcDbEntity
  8
化粧台
  6
CONTINUOUS
 62
     3
100
AcDbLine
 10
1709.000000000001
 20
843.0000000000002
 30
0.0
 11
1709.000000000001
 21
2517.0
 31
0.0
  0
INSERT
  5
1BD
330
1B7
100
AcDbEntity
  8
化粧台
 62
     3
100
AcDbBlockReference
  2
EX_NORM
 10
1709.000000000001
 20
813.0000000000002
 30
0.0
 41
30.0
 42
30.0
 43
30.0
 50
270.0
  0
INSERT
  5
1BE
330
1B7
100
AcDbEntity
  8
化粧台
 62
     3
100
AcDbBlockReference
  2
EX_NORM
 10
1709.000000000001
 20
2547.0
 30
0.0
 41
30.0
 42
30.0
 43
30.0
 50
90.0
  0
MTEXT
  5
1BF
330
1B7
100
AcDbEntity
  8
化粧台
 62
     2
100
AcDbMText
 10
1685.500000059606
 20
1680.0
 30
0.0
 40
40.0
 41
0.0
 71
     5
 72
     1
  1
1735（壁固定　側壁）
  7
EXCADDIM1
 11
0.0
 21
1.0
 31
0.0
  0
POINT
  5
1C0
330
1B7
100
AcDbEntity
  8
DEFPOINTS
 62
     0
100
AcDbPoint
 10
1569.000000000001
 20
813.0000000000001
 30
0.0
  0
POINT
  5
1C1
330
1B7
100
AcDbEntity
  8
DEFPOINTS
 62
     0
100
AcDbPoint
 10
1601.000000000001
 20
2547.0
 30
0.0
  0
POINT
  5
1C2
330
1B7
100
AcDbEntity
  8
DEFPOINTS
 62
     0
100
AcDbPoint
 10
1709.000000000001
 20
2547.0
 30
0.0
  0
ENDBLK
  5
1B9
330
1B7
100
AcDbEntity
  8
0
100
AcDbBlockEnd
  0
BLOCK
  5
1C5
330
1C4
100
AcDbEntity
  8
0
100
AcDbBlockBegin
  2
*D25
 70
     1
 10
0.0
 20
0.0
 30
0.0
  3
*D25
  1

  0
LINE
  5
1C7
330
1C4
100
AcDbEntity
  8
化粧台
  6
CONTINUOUS
 62
     3
100
AcDbLine
 10
553.0000001192092
 20
1519.5
 30
0.0
 11
396.9999999999999
 21
1519.5
 31
0.0
  0
LINE
  5
1C8
330
1C4
100
AcDbEntity
  8
化粧台
  6
CONTINUOUS
 62
     3
100
AcDbLine
 10
553.0000001192092
 20
1904.5
 30
0.0
 11
396.9999999999999
 21
1904.5
 31
0.0
  0
LINE
  5
1C9
330
1C4
100
AcDbEntity
  8
化粧台
  6
CONTINUOUS
 62
     3
100
AcDbLine
 10
407.0000000000002
 20
1549.5
 30
0.0
 11
407.0000000000002
 21
1874.5
 31
0.0
  0
INSERT
  5
1CA
330
1C4
100
AcDbEntity
  8
化粧台
 62
     3
100
AcDbBlockReference
  2
EX_NORM
 10
407.0000000000002
 20
1519.5
 30
0.0
 41
30.0
 42
30.0
 43
30.0
 50
270.0
  0
INSERT
  5
1CB
330
1C4
100
AcDbEntity
  8
化粧台
 62
     3
100
AcDbBlockReference
  2
EX_NORM
 10
407.0000000000002
 20
1904.5
 30
0.0
 41
30.0
 42
30.0
 43
30.0
 50
90.0
  0
MTEXT
  5
1CC
330
1C4
100
AcDbEntity
  8
化粧台
 62
     2
100
AcDbMText
 10
383.5000000596049
 20
1712.0
 30
0.0
 40
40.0
 41
0.0
 71
     5
 72
     1
  1
（385）
  7
EXCADDIM1
 11
0.0
 21
1.0
 31
0.0
  0
POINT
  5
1CD
330
1C4
100
AcDbEntity
  8
DEFPOINTS
 62
     0
100
AcDbPoint
 10
559.9999999999999
 20
1519.5
 30
0.0
  0
POINT
  5
1CE
330
1C4
100
AcDbEntity
  8
DEFPOINTS
 62
     0
100
AcDbPoint
 10
559.9999999999999
 20
1904.5
 30
0.0
  0
POINT
  5
1CF
330
1C4
100
AcDbEntity
  8
DEFPOINTS
 62
     0
100
AcDbPoint
 10
407.0000000000002
 20
1904.5
 30
0.0
  0
ENDBLK
  5
1C6
330
1C4
100
AcDbEntity
  8
0
100
AcDbBlockEnd
  0
BLOCK
  5
1D2
330
1D1
100
AcDbEntity
  8
0
100
AcDbBlockBegin
  2
*D26
 70
     1
 10
0.0
 20
0.0
 30
0.0
  3
*D26
  1

  0
LINE
  5
1D4
330
1D1
100
AcDbEntity
  8
化粧台
  6
CONTINUOUS
 62
     3
100
AcDbLine
 10
553.0000001192092
 20
1919.5
 30
0.0
 11
396.9999999999997
 21
1919.5
 31
0.0
  0
LINE
  5
1D5
330
1D1
100
AcDbEntity
  8
化粧台
  6
CONTINUOUS
 62
     3
100
AcDbLine
 10
553.0000001192092
 20
2597.0
 30
0.0
 11
396.9999999999998
 21
2597.0
 31
0.0
  0
LINE
  5
1D6
330
1D1
100
AcDbEntity
  8
化粧台
  6
CONTINUOUS
 62
     3
100
AcDbLine
 10
407.0000000000002
 20
1949.5
 30
0.0
 11
407.0000000000003
 21
2567.0
 31
0.0
  0
INSERT
  5
1D7
330
1D1
100
AcDbEntity
  8
化粧台
 62
     3
100
AcDbBlockReference
  2
EX_NORM
 10
407.0000000000002
 20
1919.5
 30
0.0
 41
30.0
 42
30.0
 43
30.0
 50
270.0
  0
INSERT
  5
1D8
330
1D1
100
AcDbEntity
  8
化粧台
 62
     3
100
AcDbBlockReference
  2
EX_NORM
 10
407.0000000000003
 20
2597.0
 30
0.0
 41
30.0
 42
30.0
 43
30.0
 50
90.0
  0
MTEXT
  5
1D9
330
1D1
100
AcDbEntity
  8
化粧台
 62
     2
100
AcDbMText
 10
383.5000000596051
 20
2258.25
 30
0.0
 40
40.0
 41
0.0
 71
     5
 72
     1
  1
（678）
  7
EXCADDIM1
 11
8.390172525580525E-17
 21
1.0
 31
0.0
  0
POINT
  5
1DA
330
1D1
100
AcDbEntity
  8
DEFPOINTS
 62
     0
100
AcDbPoint
 10
559.9999999999999
 20
1919.5
 30
0.0
  0
POINT
  5
1DB
330
1D1
100
AcDbEntity
  8
DEFPOINTS
 62
     0
100
AcDbPoint
 10
559.9999999999999
 20
2597.0
 30
0.0
  0
POINT
  5
1DC
330
1D1
100
AcDbEntity
  8
DEFPOINTS
 62
     0
100
AcDbPoint
 10
407.0000000000003
 20
2597.0
 30
0.0
  0
ENDBLK
  5
1D3
330
1D1
100
AcDbEntity
  8
0
100
AcDbBlockEnd
  0
ENDSEC
  0
SECTION
  2
ENTITIES
  0
LINE
  5
A9
330
1F
100
AcDbEntity
  8
枠_表
  6
CONTINUOUS
 62
     7
100
AcDbLine
 10
180.0
 20
135.0
 30
0.0
 11
180.0
 21
2885.0
 31
0.0
  0
TEXT
  5
AA
330
1F
100
AcDbEntity
  8
枠_表
  6
CONTINUOUS
 62
     2
100
AcDbText
 10
1931.279296900001
 20
258.3488464000002
 30
0.0
 40
30.0
  1
１０
 41
1.098531212121213
  7
EXCADSTD
 72
     5
 11
1983.067196900001
 21
258.3488464000002
 31
0.0
100
AcDbText
  0
TEXT
  5
AB
330
1F
100
AcDbEntity
  8
枠_表
  6
CONTINUOUS
 62
     2
100
AcDbText
 10
1395.750000000001
 20
142.75
 30
0.0
 40
42.5
  1
番
 41
1.12
  7
EXCADSTD
 72
     5
 11
1429.750000000001
 21
142.75
 31
0.0
100
AcDbText
  0
TEXT
  5
AC
330
1F
100
AcDbEntity
  8
枠_表
  6
CONTINUOUS
 62
     2
100
AcDbText
 10
1395.750000000001
 20
185.75
 30
0.0
 40
42.5
  1
図
 41
1.12
  7
EXCADSTD
 72
     5
 11
1429.750000000001
 21
185.75
 31
0.0
100
AcDbText
  0
TEXT
  5
AD
330
1F
100
AcDbEntity
  8
枠_表
  6
CONTINUOUS
 62
     2
100
AcDbText
 10
1816.750000000001
 20
248.75
 30
0.0
 40
42.5
  1
度
 41
1.12
  7
EXCADSTD
 72
     5
 11
1850.750000000001
 21
248.75
 31
0.0
100
AcDbText
  0
TEXT
  5
AE
330
1F
100
AcDbEntity
  8
枠_表
  6
CONTINUOUS
 62
     2
100
AcDbText
 10
1816.750000000001
 20
298.75
 30
0.0
 40
42.5
  1
尺
 41
1.12
  7
EXCADSTD
 72
     5
 11
1850.750000000001
 21
298.75
 31
0.0
100
AcDbText
  0
TEXT
  5
AF
330
1F
100
AcDbEntity
  8
枠_表
  6
CONTINUOUS
 62
     2
100
AcDbText
 10
1395.750000000001
 20
248.75
 30
0.0
 40
42.5
  1
番
 41
1.12
  7
EXCADSTD
 72
     5
 11
1429.750000000001
 21
248.75
 31
0.0
100
AcDbText
  0
TEXT
  5
B0
330
1F
100
AcDbEntity
  8
枠_表
  6
CONTINUOUS
 62
     2
100
AcDbText
 10
1395.750000000001
 20
298.75
 30
0.0
 40
42.5
  1
品
 41
1.12
  7
EXCADSTD
 72
     5
 11
1429.750000000001
 21
298.75
 31
0.0
100
AcDbText
  0
TEXT
  5
B1
330
1F
100
AcDbEntity
  8
枠_表
  6
CONTINUOUS
 62
     2
100
AcDbText
 10
755.7500000000007
 20
248.75
 30
0.0
 40
42.5
  1
名
 41
1.12
  7
EXCADSTD
 72
     5
 11
789.7500000000007
 21
248.75
 31
0.0
100
AcDbText
  0
TEXT
  5
B2
330
1F
100
AcDbEntity
  8
枠_表
  6
CONTINUOUS
 62
     2
100
AcDbText
 10
755.7500000000007
 20
298.75
 30
0.0
 40
42.5
  1
品
 41
1.12
  7
EXCADSTD
 72
     5
 11
789.7500000000007
 21
298.75
 31
0.0
100
AcDbText
  0
TEXT
  5
B3
330
1F
100
AcDbEntity
  8
枠_表
  6
CONTINUOUS
 62
     2
100
AcDbText
 10
637.5000000000007
 20
308.75
 30
0.0
 40
42.5
  1
承認
 41
1.303826737967914
  7
EXCADSTD
 72
     5
 11
724.5770000000007
 21
308.75
 31
0.0
100
AcDbText
  0
TEXT
  5
B4
330
1F
100
AcDbEntity
  8
枠_表
  6
CONTINUOUS
 62
     2
100
AcDbText
 10
507.5000000000007
 20
308.75
 30
0.0
 40
42.5
  1
検図
 41
1.303826737967914
  7
EXCADSTD
 72
     5
 11
594.5770000000007
 21
308.75
 31
0.0
100
AcDbText
  0
TEXT
  5
B5
330
1F
100
AcDbEntity
  8
枠_表
  6
CONTINUOUS
 62
     2
100
AcDbText
 10
357.5000000000006
 20
308.75
 30
0.0
 40
42.5
  1
写図
 41
1.509694117647058
  7
EXCADSTD
 72
     5
 11
458.3260000000006
 21
308.75
 31
0.0
100
AcDbText
  0
TEXT
  5
B6
330
1F
100
AcDbEntity
  8
枠_表
  6
CONTINUOUS
 62
     2
100
AcDbText
 10
202.5000000000006
 20
308.75
 30
0.0
 40
42.5
  1
製図
 41
1.509694117647058
  7
EXCADSTD
 72
     5
 11
303.3260000000006
 21
308.75
 31
0.0
100
AcDbText
  0
TEXT
  5
B7
330
1F
100
AcDbEntity
  8
枠_表
  6
CONTINUOUS
 62
     2
100
AcDbText
 10
1890.537109400001
 20
302.7227782999998
 30
0.0
 40
30.0
  1
１
 41
1.101333333333329
  7
EXCADSTD
 72
     5
 11
1914.137109400001
 21
302.7227782999998
 31
0.0
100
AcDbText
  0
LINE
  5
B8
330
1F
100
AcDbEntity
  8
枠_表
  6
EXLTYPE2
 62
     6
100
AcDbLine
 10
180.0000000000006
 20
185.0
 30
0.0
 11
490.0000000000006
 21
185.0
 31
0.0
  0
CIRCLE
  5
B9
330
1F
100
AcDbEntity
  8
枠_表
  6
CONTINUOUS
 62
     6
100
AcDbCircle
 10
435.0000000000006
 20
160.0
 30
0.0
 40
1.0000002
  0
CIRCLE
  5
BA
330
1F
100
AcDbEntity
  8
枠_表
  6
CONTINUOUS
 62
     6
100
AcDbCircle
 10
385.0000000000006
 20
160.0
 30
0.0
 40
1.0000002
  0
CIRCLE
  5
BB
330
1F
100
AcDbEntity
  8
枠_表
  6
CONTINUOUS
 62
     6
100
AcDbCircle
 10
280.0000000000006
 20
160.0
 30
0.0
 40
1.0000002
  0
CIRCLE
  5
BC
330
1F
100
AcDbEntity
  8
枠_表
  6
CONTINUOUS
 62
     6
100
AcDbCircle
 10
230.0000000000006
 20
160.0
 30
0.0
 40
1.0000002
  0
LINE
  5
BD
330
1F
100
AcDbEntity
  8
枠_表
  6
CONTINUOUS
 62
     6
100
AcDbLine
 10
1892.653808600001
 20
258.0029297000001
 30
0.0
 11
1969.993896500001
 21
336.6998291
 31
0.0
  0
LINE
  5
BE
330
1F
100
AcDbEntity
  8
枠_表
  6
CONTINUOUS
 62
     6
100
AcDbLine
 10
180.0000000000006
 20
305.0
 30
0.0
 11
750.0000000000007
 21
305.0
 31
0.0
  0
LINE
  5
BF
330
1F
100
AcDbEntity
  8
枠_表
  6
CONTINUOUS
 62
     6
100
AcDbLine
 10
335.0000000000006
 20
355.0
 30
0.0
 11
335.0000000000006
 21
135.0
 31
0.0
  0
LINE
  5
C0
330
1F
100
AcDbEntity
  8
枠_表
  6
CONTINUOUS
 62
     6
100
AcDbLine
 10
490.0000000000006
 20
355.0
 30
0.0
 11
490.0000000000006
 21
135.0
 31
0.0
  0
LINE
  5
C1
330
1F
100
AcDbEntity
  8
枠_表
  6
CONTINUOUS
 62
     6
100
AcDbLine
 10
620.0000000000007
 20
355.0
 30
0.0
 11
620.0000000000007
 21
135.0
 31
0.0
  0
LINE
  5
C2
330
1F
100
AcDbEntity
  8
枠_表
  6
CONTINUOUS
 62
     6
100
AcDbLine
 10
750.0000000000007
 20
355.0
 30
0.0
 11
750.0000000000007
 21
135.0
 31
0.0
  0
LINE
  5
C3
330
1F
100
AcDbEntity
  8
枠_表
  6
CONTINUOUS
 62
     6
100
AcDbLine
 10
800.0000000000007
 20
355.0
 30
0.0
 11
800.0000000000007
 21
235.0
 31
0.0
  0
LINE
  5
C4
330
1F
100
AcDbEntity
  8
枠_表
  6
CONTINUOUS
 62
     6
100
AcDbLine
 10
1390.000000000001
 20
355.0
 30
0.0
 11
1390.000000000001
 21
135.0
 31
0.0
  0
LINE
  5
C5
330
1F
100
AcDbEntity
  8
枠_表
  6
CONTINUOUS
 62
     6
100
AcDbLine
 10
1440.000000000001
 20
355.0
 30
0.0
 11
1440.000000000001
 21
135.0
 31
0.0
  0
LINE
  5
C6
330
1F
100
AcDbEntity
  8
枠_表
  6
CONTINUOUS
 62
     6
100
AcDbLine
 10
1810.000000000001
 20
355.0
 30
0.0
 11
1810.000000000001
 21
235.0
 31
0.0
  0
LINE
  5
C7
330
1F
100
AcDbEntity
  8
枠_表
  6
CONTINUOUS
 62
     6
100
AcDbLine
 10
1860.000000000001
 20
355.0
 30
0.0
 11
1860.000000000001
 21
235.0
 31
0.0
  0
LINE
  5
C8
330
1F
100
AcDbEntity
  8
枠_表
  6
CONTINUOUS
 62
     6
100
AcDbLine
 10
2000.000000000001
 20
235.0
 30
0.0
 11
750.0000000000007
 21
235.0
 31
0.0
  0
LINE
  5
C9
330
1F
100
AcDbEntity
  8
枠_表
  6
CONTINUOUS
 62
     7
100
AcDbLine
 10
180.0000000000006
 20
355.0
 30
0.0
 11
2000.000000000001
 21
355.0
 31
0.0
  0
LINE
  5
CA
330
1F
100
AcDbEntity
  8
枠_表
  6
CONTINUOUS
 62
     7
100
AcDbLine
 10
180.0000000000006
 20
2885.0
 30
0.0
 11
2000.000000000001
 21
2885.0
 31
0.0
  0
LINE
  5
CB
330
1F
100
AcDbEntity
  8
枠_表
  6
CONTINUOUS
 62
     7
100
AcDbLine
 10
2000.000000000001
 20
135.0
 30
0.0
 11
2000.000000000001
 21
2885.0
 31
0.0
  0
LINE
  5
CC
330
1F
100
AcDbEntity
  8
枠_表
  6
CONTINUOUS
 62
     7
100
AcDbLine
 10
180.0000000000006
 20
135.0
 30
0.0
 11
2000.000000000001
 21
135.0
 31
0.0
  0
TEXT
  5
CD
330
1F
100
AcDbEntity
  8
枠_表
  6
CONTINUOUS
 62
     6
100
AcDbText
 10
206.4999997615851
 20
220.0000000000011
 30
0.0
 40
50.0
  1
川野
 41
1.18991346010815
  7
EXCADSTD
 72
     5
 11
299.993200198654
 21
220.0000000000011
 31
0.0
100
AcDbText
  0
TEXT
  5
CF
330
1F
100
AcDbEntity
  8
枠_表
  6
CONTINUOUS
 62
     2
100
AcDbText
 10
922.0000000000034
 20
160.5000000000001
 30
0.0
 40
33.75
  1
ジャニス工業株式会社
 41
1.025641025641026
  7
EXCADTTF1
 72
     5
 11
1372.000000000003
 21
160.5000000000001
 31
0.0
100
AcDbText
  0
HATCH
  5
D0
330
1F
100
AcDbEntity
  8
枠_表
  6
CONTINUOUS
 62
     3
100
AcDbHatch
 10
0.0
 20
0.0
 30
0.0
210
0.0
220
0.0
230
1.0
  2
SOLID
 70
     1
 71
     1
 91
        2
 92
        3
 72
     1
 73
     1
 93
       27
 10
799.1727657332507
 20
195.3644932975407
 42
-0.1769427732109284
 10
799.1727657332508
 20
195.3644932975408
 42
0.0
 10
799.1727657332508
 20
191.7194932975406
 42
0.0
 10
800.0502657332513
 20
191.7194932975402
 42
-0.207533601427307
 10
805.7474227895706
 20
195.9932359129046
 42
-0.1226604740888933
 10
810.7827657332513
 20
196.1002432975405
 42
-0.3213715781137954
 10
815.9883280222095
 20
189.7106514378473
 42
-0.064704004662446
 10
816.0140157332497
 20
186.3329932975404
 42
-0.257798906330806
 10
814.9542657332508
 20
185.0504932975404
 42
-0.056602577721096
 10
812.6862657332506
 20
184.2607432975407
 42
-0.0166741689362636
 10
804.3702657332509
 20
182.6812432975405
 42
0.1186092302783404
 10
798.882515733251
 20
180.0487432975404
 42
0.1699204224386695
 10
796.4930157332506
 20
176.0527432975403
 42
0.1006533494296199
 10
796.272086679582
 20
172.5853555095725
 42
0.1675695228968024
 10
798.437015733251
 20
167.9392432975405
 42
0.1376980079804242
 10
802.3722657332505
 20
165.6644932975407
 42
0.0719813663796923
 10
804.1610157332498
 20
165.3674932975406
 42
0.0
 10
806.9015157332508
 20
165.3674932975407
 42
0.1944607457809085
 10
815.9937657332509
 20
170.0452432975405
 42
0.1288538183665954
 10
816.9117657332499
 20
167.7502432975402
 42
0.2098387395261546
 10
819.9087657332502
 20
166.0964932975406
 42
0.0
 10
822.0822657332508
 20
166.0829932975407
 42
0.0945009641609563
 10
825.2210157332509
 20
166.7512432975406
 42
0.0
 10
825.2210157332506
 20
168.3239932975405
 42
-0.2395739894657535
 10
822.4805157332514
 20
168.2969932975402
 42
-0.2502312110031057
 10
821.1305157332501
 20
170.8349932975412
 42
-0.0104343570771765
 10
821.3127657332504
 20
189.7619932975404
 42
0.4051015674140716
 97
        0
 92
        3
 72
     1
 73
     1
 93
        8
 10
816.1355157332503
 20
183.0254932975404
 42
-0.0339435190873666
 10
816.1355157332546
 20
183.0254932975292
 42
-0.0001110072973599
 10
815.8520157332515
 20
172.6844932975403
 42
-0.2253076310552528
 10
808.7645157332504
 20
167.9527432975408
 42
0.0
 10
807.0297657332497
 20
167.9527432975407
 42
-0.3657967558150132
 10
801.8727657332506
 20
173.4337432975406
 42
0.0
 10
801.8727657332514
 20
175.3912432975406
 42
-0.2530797830369341
 10
805.3557657332507
 20
180.2107432975404
 42
-0.0724473624720066
 97
        0
 75
     0
 76
     1
 98
        1
 10
0.0
 20
0.0
  0
HATCH
  5
D1
330
1F
100
AcDbEntity
  8
枠_表
  6
CONTINUOUS
 62
     3
100
AcDbHatch
 10
0.0
 20
0.0
 30
0.0
210
0.0
220
0.0
230
1.0
  2
SOLID
 70
     1
 71
     1
 91
        1
 92
        3
 72
     1
 73
     1
 93
       30
 10
906.7340157332503
 20
197.3354932975409
 42
-0.0009362235736497
 10
906.7340157332505
 20
197.3354932975405
 42
0.0681165430304653
 10
905.0970934867321
 20
192.4282432975406
 42
0.0
 10
898.9310157332512
 20
196.6469932975407
 42
-0.302112590907374
 10
898.9310157332507
 20
196.6469932975406
 42
0.0
 10
892.7142657332507
 20
191.8814932975405
 42
-0.3704245237568778
 10
892.7142657332497
 20
191.8814932975403
 42
0.0
 10
893.03826573325
 20
188.6954932975405
 42
-0.0262822419456939
 10
896.8722657332511
 20
185.6309932975403
 42
-0.180060563604375
 10
902.9877657332511
 20
183.7679932975407
 42
-0.0298130817160724
 10
902.9877657332507
 20
183.7679932975403
 42
-0.3153987453686078
 10
908.6240157332504
 20
177.3217432975406
 42
0.0
 10
908.5902657332509
 20
174.4394932975403
 42
-0.3510306079065168
 10
897.7227657332498
 20
165.3269932975405
 42
0.0
 10
894.5502657332503
 20
165.3269932975403
 42
-0.1053356344842436
 10
887.5302657332503
 20
167.3519932975406
 42
0.1188608286962634
 10
888.8127657332502
 20
172.4819932975407
 42
0.0
 10
896.5077657332511
 20
167.7569932975406
 42
-0.2447573632916039
 10
896.5077657332502
 20
167.7569932975405
 42
0.0
 10
903.9327657332511
 20
172.9544932975406
 42
-0.3734162676407277
 10
903.9327657332508
 20
172.9544932975404
 42
0.0
 10
901.2395157332506
 20
178.1452432975407
 42
-0.261219770190848
 10
894.9552657332504
 20
180.4267432975407
 42
-0.0572747914118363
 10
894.9552657332514
 20
180.4267432975406
 42
-0.1189658875692221
 10
889.9602657332501
 20
183.3562432975406
 42
-0.2005226878639636
 10
887.8677657332498
 20
188.0744932975625
 42
0.0
 10
887.834015733251
 20
189.8632432975402
 42
-0.2622894489606957
 10
893.2002657332508
 20
198.0644932975407
 42
-0.0988461274137808
 10
898.2222657332507
 20
199.2727432975403
 42
0.0
 10
900.08526573325
 20
199.2727432975406
 42
-0.0920156312561188
 97
        0
 75
     0
 76
     1
 98
        1
 10
0.0
 20
0.0
  0
ARC
  5
D2
330
1F
100
AcDbEntity
  8
枠_表
  6
CONTINUOUS
 62
     3
100
AcDbCircle
 10
923.8424810688714
 20
188.9019437507494
 30
0.0
 40
19.07418003737831
100
AcDbArc
 50
153.7591918158497
 51
169.3462759801917
  0
LINE
  5
D3
330
1F
100
AcDbEntity
  8
枠_表
  6
CONTINUOUS
 62
     3
100
AcDbLine
 10
904.2432657332502
 20
192.4282432975406
 30
0.0
 11
905.0970934867321
 21
192.4282432975406
 31
0.0
  0
LINE
  5
D4
330
1F
100
AcDbEntity
  8
枠_表
  6
CONTINUOUS
 62
     3
100
AcDbLine
 10
897.83751573325
 20
196.6199932975405
 30
0.0
 11
898.9310157332507
 21
196.6469932975406
 31
0.0
  0
LINE
  5
D5
330
1F
100
AcDbEntity
  8
枠_表
  6
CONTINUOUS
 62
     3
100
AcDbLine
 10
887.8340157332509
 20
189.8632432975404
 30
0.0
 11
887.8677657332498
 21
188.0744932975625
 31
0.0
  0
LINE
  5
D6
330
1F
100
AcDbEntity
  8
枠_表
  6
CONTINUOUS
 62
     3
100
AcDbLine
 10
892.7142657332497
 20
191.8814932975403
 30
0.0
 11
892.6197657332507
 21
190.1129932975402
 31
0.0
  0
LINE
  5
D7
330
1F
100
AcDbEntity
  8
枠_表
  6
CONTINUOUS
 62
     3
100
AcDbLine
 10
908.6240157332504
 20
177.3217432975406
 30
0.0
 11
908.5902657332504
 21
174.4394932975405
 31
0.0
  0
LINE
  5
D8
330
1F
100
AcDbEntity
  8
枠_表
  6
CONTINUOUS
 62
     3
100
AcDbLine
 10
903.8652657332507
 20
174.5069932975406
 30
0.0
 11
903.9327657332508
 21
172.9544932975404
 31
0.0
  0
ARC
  5
D9
330
1F
100
AcDbEntity
  8
枠_表
  6
CONTINUOUS
 62
     3
100
AcDbCircle
 10
877.5344131320942
 20
172.5779759565
 30
0.0
 40
11.27953740078838
100
AcDbArc
 50
332.3987521421788
 51
359.5124385477116
  0
LINE
  5
DA
330
1F
100
AcDbEntity
  8
枠_表
  6
CONTINUOUS
 62
     3
100
AcDbLine
 10
799.1727657332508
 20
191.7194932975406
 30
0.0
 11
800.0502657332511
 21
191.7194932975406
 31
0.0
  0
HATCH
  5
DB
330
1F
100
AcDbEntity
  8
枠_表
  6
CONTINUOUS
 62
     3
100
AcDbHatch
 10
0.0
 20
0.0
 30
0.0
210
0.0
220
0.0
230
1.0
  2
SOLID
 70
     1
 71
     1
 91
        2
 92
        1
 93
        1
 72
     2
 10
875.2855140383356
 20
210.5835466873708
 40
3.572334466769885
 50
0.0
 51
360.0
 73
     1
 97
        0
 92
        3
 72
     1
 73
     1
 93
        3
 10
872.0930157332506
 20
198.6989932975404
 42
0.1200283885712921
 10
878.3030157332507
 20
166.0627432975401
 42
-0.0401820615762149
 10
872.0997657332506
 20
166.0424932975405
 42
-0.0237521668114666
 97
        0
 75
     0
 76
     1
 98
        1
 10
0.0
 20
0.0
  0
HATCH
  5
DC
330
1F
100
AcDbEntity
  8
枠_表
  6
CONTINUOUS
 62
     3
100
AcDbHatch
 10
0.0
 20
0.0
 30
0.0
210
0.0
220
0.0
230
1.0
  2
SOLID
 70
     1
 71
     1
 91
        1
 92
        3
 72
     1
 73
     1
 93
       16
 10
832.8687657332504
 20
166.1032432975403
 42
-0.0386228372648426
 10
832.8080157332502
 20
198.6449932975404
 42
-0.0398707891902887
 10
838.7142657332499
 20
198.6719932975406
 42
-0.1256886216044368
 10
838.4442657332505
 20
193.1504932975405
 42
-0.0367815758121429
 10
838.4442657332505
 20
193.1504932975403
 42
-0.268021535028829
 10
850.3580157332502
 20
199.3334932975405
 42
-0.2571134422124888
 10
858.5052657332503
 20
195.3037432975408
 42
-0.1522526366014298
 10
860.577515733251
 20
188.6009932975404
 42
-0.0158825412051521
 10
860.42901573325
 20
166.0694932975404
 42
-0.0285251271418421
 10
854.7252657332508
 20
166.0694932975404
 42
-0.0452212723224612
 10
855.0155157332509
 20
186.8864932975407
 42
-0.0315567291532142
 10
853.2470157332501
 20
193.0357432975406
 42
-0.1476272403790709
 10
841.7315157332503
 20
193.9199932975403
 42
-0.3908144705745794
 10
838.4847657332507
 20
185.8402432975402
 42
-0.2046259928850854
 10
838.4847657332507
 20
185.8402432975407
 42
0.0
 10
838.9910157332506
 20
166.0492432975406
 42
-0.0304995761723369
 97
        0
 75
     0
 76
     1
 98
        1
 10
0.0
 20
0.0
  0
HATCH
  5
DD
330
1F
100
AcDbEntity
  8
枠_表
  6
CONTINUOUS
 62
     3
100
AcDbHatch
 10
0.0
 20
0.0
 30
0.0
210
0.0
220
0.0
230
1.0
  2
SOLID
 70
     1
 71
     1
 91
        1
 92
        3
 72
     1
 73
     1
 93
       10
 10
773.725265733251
 20
167.2169932975403
 42
-0.017362223501556
 10
773.8130157332505
 20
220.1842432975408
 42
-0.0267627618865285
 10
773.8130157332508
 20
220.1842432975405
 42
0.0737939047395297
 10
786.7325157332509
 20
220.2382432975398
 42
0.0183878899657109
 10
786.2127657332508
 20
172.4819932975403
 42
-0.1144749489451909
 10
784.1202657332499
 20
162.4244932975402
 42
-0.1929163439413163
 10
774.164015733251
 20
154.6079932975402
 42
-0.0603888289562337
 10
768.8855157332507
 20
153.2917432975404
 42
0.0
 10
767.6502657332505
 20
157.0514932975403
 42
0.0860918333465722
 10
771.3425157332505
 20
159.0157432975404
 42
0.1331843103855141
 97
        0
 75
     0
 76
     1
 98
        1
 10
0.0
 20
0.0
  0
LINE
  5
DE
330
1F
100
AcDbEntity
  8
枠_表
  6
CONTINUOUS
 62
     3
100
AcDbLine
 10
894.5502657332504
 20
165.3269932975405
 30
0.0
 11
897.7227657332498
 21
165.3269932975405
 31
0.0
  0
LINE
  5
DF
330
1F
100
AcDbEntity
  8
枠_表
  6
CONTINUOUS
 62
     3
100
AcDbLine
 10
889.6902657332505
 20
172.4819932975407
 30
0.0
 11
888.8127657332502
 21
172.4819932975407
 31
0.0
  0
LINE
  5
E0
330
1F
100
AcDbEntity
  8
枠_表
  6
CONTINUOUS
 62
     3
100
AcDbLine
 10
896.5077657332502
 20
167.7569932975405
 30
0.0
 11
898.1277657332505
 21
167.7569932975405
 31
0.0
  0
LINE
  5
E1
330
1F
100
AcDbEntity
  8
枠_表
  6
CONTINUOUS
 62
     3
100
AcDbLine
 10
900.0852657332503
 20
199.2727432975403
 30
0.0
 11
898.2222657332507
 21
199.2727432975403
 31
0.0
  0
ARC
  5
E2
330
1F
100
AcDbEntity
  8
枠_表
  6
CONTINUOUS
 62
     3
100
AcDbCircle
 10
898.414733912751
 20
190.5429236291667
 30
0.0
 40
6.12586430102253
100
AcDbArc
 50
17.92452211681263
 51
85.16543319077402
  0
ARC
  5
E3
330
1F
100
AcDbEntity
  8
枠_表
  6
CONTINUOUS
 62
     3
100
AcDbCircle
 10
898.0350964860538
 20
191.2674994707919
 30
0.0
 40
5.35613931103931
100
AcDbArc
 50
92.11404364449162
 51
173.4175047026091
  0
ARC
  5
E4
330
1F
100
AcDbEntity
  8
枠_表
  6
CONTINUOUS
 62
     3
100
AcDbCircle
 10
906.3031407332626
 20
193.3823182975442
 30
0.0
 40
14.068519372934
100
AcDbArc
 50
193.4375782160214
 51
199.459638038058
  0
ARC
  5
E5
330
1F
100
AcDbEntity
  8
枠_表
  6
CONTINUOUS
 62
     3
100
AcDbCircle
 10
899.0721352387454
 20
192.313864176661
 30
0.0
 40
7.03563707337184
100
AcDbArc
 50
210.9501336849607
 51
251.7794729821079
  0
ARC
  5
E6
330
1F
100
AcDbEntity
  8
枠_表
  6
CONTINUOUS
 62
     3
100
AcDbCircle
 10
915.5384669692064
 20
235.935931050351
 30
0.0
 40
53.6564425851668
100
AcDbArc
 50
249.6420733479936
 51
256.4727051201885
  0
ARC
  5
E7
330
1F
100
AcDbEntity
  8
枠_表
  6
CONTINUOUS
 62
     3
100
AcDbCircle
 10
901.2045721291959
 20
176.5217258531572
 30
0.0
 40
7.46245075729606
100
AcDbArc
 50
6.154262763177246
 51
76.17509904255616
  0
ARC
  5
E8
330
1F
100
AcDbEntity
  8
枠_表
  6
CONTINUOUS
 62
     3
100
AcDbCircle
 10
897.4663886467563
 20
176.6692467118042
 30
0.0
 40
11.34515058180645
100
AcDbArc
 50
271.2948770866743
 51
348.6654156292868
  0
ARC
  5
E9
330
1F
100
AcDbEntity
  8
枠_表
  6
CONTINUOUS
 62
     3
100
AcDbCircle
 10
895.7930054592778
 20
182.8156576811023
 30
0.0
 40
17.5327631578002
100
AcDbArc
 50
241.8829576087176
 51
265.9354096935781
  0
ARC
  5
EA
330
1F
100
AcDbEntity
  8
枠_表
  6
CONTINUOUS
 62
     3
100
AcDbCircle
 10
897.636104323487
 20
176.6658639777381
 30
0.0
 40
8.98004035462527
100
AcDbArc
 50
207.7689879465537
 51
262.7817283832026
  0
ARC
  5
EB
330
1F
100
AcDbEntity
  8
枠_表
  6
CONTINUOUS
 62
     3
100
AcDbCircle
 10
898.0357777446518
 20
173.7002363757165
 30
0.0
 40
5.94395491876676
100
AcDbArc
 50
270.8867385422408
 51
352.7925382056677
  0
ARC
  5
EC
330
1F
100
AcDbEntity
  8
枠_表
  6
CONTINUOUS
 62
     3
100
AcDbCircle
 10
899.3080045853669
 20
173.9846225433166
 30
0.0
 40
4.587101522190142
100
AcDbArc
 50
6.53892419415897
 51
65.09756080693691
  0
ARC
  5
ED
330
1F
100
AcDbEntity
  8
枠_表
  6
CONTINUOUS
 62
     3
100
AcDbCircle
 10
888.1714891830434
 20
151.9457141755208
 30
0.0
 40
29.27778413972754
100
AcDbArc
 50
63.49050203733571
 51
76.60259219849584
  0
ARC
  5
EE
330
1F
100
AcDbEntity
  8
枠_表
  6
CONTINUOUS
 62
     3
100
AcDbCircle
 10
898.5268145799507
 20
192.2396411006685
 30
0.0
 40
12.34100950779567
100
AcDbArc
 50
226.0402388947521
 51
253.1776672992999
  0
ARC
  5
EF
330
1F
100
AcDbEntity
  8
枠_表
  6
CONTINUOUS
 62
     3
100
AcDbCircle
 10
894.5599257926001
 20
188.2192769075527
 30
0.0
 40
6.693726059056111
100
AcDbArc
 50
181.2393899443581
 51
226.5942921332421
  0
ARC
  5
F0
330
1F
100
AcDbEntity
  8
枠_表
  6
CONTINUOUS
 62
     3
100
AcDbCircle
 10
897.7963496799618
 20
189.2009291101863
 30
0.0
 40
9.9843256030919
100
AcDbArc
 50
117.4083995939977
 51
176.1964688215695
  0
ARC
  5
F1
330
1F
100
AcDbEntity
  8
枠_表
  6
CONTINUOUS
 62
     3
100
AcDbCircle
 10
898.7711044283908
 20
186.097909793761
 30
0.0
 40
13.19974865367525
100
AcDbArc
 50
92.38301574576484
 51
114.9635286746436
  0
ARC
  5
F2
330
1F
100
AcDbEntity
  8
枠_表
  6
CONTINUOUS
 62
     3
100
AcDbCircle
 10
899.854282846057
 20
189.1663038363953
 30
0.0
 40
10.10907867592157
100
AcDbArc
 50
67.66151957087348
 51
88.69073168448988
  0
ARC
  5
F3
330
1F
100
AcDbEntity
  8
枠_表
  6
CONTINUOUS
 62
     3
100
AcDbCircle
 10
1220.644453232815
 20
1009.02974329642
 30
0.0
 40
870.2800228963157
100
AcDbArc
 50
248.6422112053103
 51
248.8567777804232
  0
ARC
  5
F4
330
1F
100
AcDbEntity
  8
枠_表
  6
CONTINUOUS
 62
     3
100
AcDbCircle
 10
650.690057536387
 20
182.3249792766234
 30
0.0
 40
222.0076085035812
100
AcDbArc
 50
355.7940354718673
 51
4.229650257234378
  0
ARC
  5
F5
330
1F
100
AcDbEntity
  8
枠_表
  6
CONTINUOUS
 62
     3
100
AcDbCircle
 10
1081.254047179558
 20
182.1881005739385
 30
0.0
 40
203.5906390589
100
AcDbArc
 50
175.3387608397566
 51
184.5428594926176
  0
ARC
  5
F6
330
1F
100
AcDbEntity
  8
枠_表
  6
CONTINUOUS
 62
     3
100
AcDbCircle
 10
875.4144089371341
 20
100.798041841233
 30
0.0
 40
65.32859485251089
100
AcDbArc
 50
87.46575055044718
 51
92.90832285102188
  0
ARC
  5
F7
330
1F
100
AcDbEntity
  8
枠_表
  6
CONTINUOUS
 62
     3
100
AcDbCircle
 10
875.1456076027735
 20
211.5332474358075
 30
0.0
 40
13.19228548840207
100
AcDbArc
 50
256.6209501743446
 51
283.9984576255729
  0
CIRCLE
  5
F8
330
1F
100
AcDbEntity
  8
枠_表
  6
CONTINUOUS
 62
     3
100
AcDbCircle
 10
875.2855140383356
 20
210.5835466873708
 30
0.0
 40
3.57233446676989
  0
LINE
  5
F9
330
1F
100
AcDbEntity
  8
枠_表
  6
CONTINUOUS
 62
     3
100
AcDbLine
 10
838.4847657332507
 20
185.8402432975407
 30
0.0
 11
838.4847657332507
 21
175.0469932975403
 31
0.0
  0
ARC
  5
FA
330
1F
100
AcDbEntity
  8
枠_表
  6
CONTINUOUS
 62
     3
100
AcDbCircle
 10
629.1176988671596
 20
181.9938058671744
 30
0.0
 40
204.3697806131073
100
AcDbArc
 50
355.5405243117485
 51
4.673398698656258
  0
ARC
  5
FB
330
1F
100
AcDbEntity
  8
枠_表
  6
CONTINUOUS
 62
     3
100
AcDbCircle
 10
835.7082849861235
 20
210.2206879814486
 30
0.0
 40
11.93349358546016
100
AcDbArc
 50
255.9341994177206
 51
284.5896440601899
  0
ARC
  5
FC
330
1F
100
AcDbEntity
  8
枠_表
  6
CONTINUOUS
 62
     3
100
AcDbCircle
 10
876.0574727396165
 20
194.0785681383051
 30
0.0
 40
37.62465500458181
100
AcDbArc
 50
172.9875214416311
 51
181.4134392789641
  0
ARC
  5
FD
330
1F
100
AcDbEntity
  8
枠_表
  6
CONTINUOUS
 62
     3
100
AcDbCircle
 10
849.7541069002552
 20
185.9275988818598
 30
0.0
 40
13.4194899665726
100
AcDbArc
 50
87.42068310381028
 51
147.4361518966862
  0
ARC
  5
FE
330
1F
100
AcDbEntity
  8
枠_表
  6
CONTINUOUS
 62
     3
100
AcDbCircle
 10
850.7724057413766
 20
189.9204664797992
 30
0.0
 40
9.4221437555554
100
AcDbArc
 50
34.84393737091607
 51
92.5207065423111
  0
ARC
  5
FF
330
1F
100
AcDbEntity
  8
枠_表
  6
CONTINUOUS
 62
     3
100
AcDbCircle
 10
848.790551534483
 20
188.6285942451525
 30
0.0
 40
11.7869965146059
100
AcDbArc
 50
359.8658335690532
 51
34.49363429411157
  0
ARC
  5
100
330
1F
100
AcDbEntity
  8
枠_表
  6
CONTINUOUS
 62
     3
100
AcDbCircle
 10
799.1913601210065
 20
186.3315774812139
 30
0.0
 40
61.42809087866958
100
AcDbArc
 50
358.4775281223095
 51
2.117232414210064
  0
ARC
  5
101
330
1F
100
AcDbEntity
  8
枠_表
  6
CONTINUOUS
 62
     3
100
AcDbCircle
 10
1023.657633661698
 20
173.906737473913
 30
0.0
 40
163.4166579853821
100
AcDbArc
 50
176.2131780319488
 51
182.7488833337936
  0
ARC
  5
102
330
1F
100
AcDbEntity
  8
枠_表
  6
CONTINUOUS
 62
     3
100
AcDbCircle
 10
857.5771407332509
 20
134.6015261922776
 30
0.0
 40
31.59693252126744
100
AcDbArc
 50
84.82155189294139
 51
95.17844810705873
  0
ARC
  5
103
330
1F
100
AcDbEntity
  8
枠_表
  6
CONTINUOUS
 62
     3
100
AcDbCircle
 10
690.1173378649748
 20
178.7751337882463
 30
0.0
 40
165.0975566668588
100
AcDbArc
 50
355.5862454873798
 51
2.816115806820253
  0
ARC
  5
104
330
1F
100
AcDbEntity
  8
枠_表
  6
CONTINUOUS
 62
     3
100
AcDbCircle
 10
843.944740456853
 20
187.0315138821553
 30
0.0
 40
11.07172507744154
100
AcDbArc
 50
359.2495022237244
 51
32.84055016678327
  0
ARC
  5
105
330
1F
100
AcDbEntity
  8
枠_表
  6
CONTINUOUS
 62
     3
100
AcDbCircle
 10
847.0100145205533
 20
187.2366273138687
 30
0.0
 40
8.51645057047003
100
AcDbArc
 50
42.91644474042847
 51
128.3015542351336
  0
ARC
  5
106
330
1F
100
AcDbEntity
  8
枠_表
  6
CONTINUOUS
 62
     3
100
AcDbCircle
 10
849.5661722366408
 20
186.0795225138054
 30
0.0
 40
11.08398956318131
100
AcDbArc
 50
134.9787476233347
 51
181.2369872983282
  0
ARC
  5
107
330
1F
100
AcDbEntity
  8
枠_表
  6
CONTINUOUS
 62
     3
100
AcDbCircle
 10
912.4088578951041
 20
174.9150147009811
 30
0.0
 40
73.95120993114926
100
AcDbArc
 50
179.8977458165987
 51
186.8855675734268
  0
ARC
  5
108
330
1F
100
AcDbEntity
  8
枠_表
  6
CONTINUOUS
 62
     3
100
AcDbCircle
 10
835.5808780069317
 20
126.5069254511707
 30
0.0
 40
39.68909094418497
100
AcDbArc
 50
85.07099551674689
 51
93.91830029343228
  0
ARC
  5
109
330
1F
100
AcDbEntity
  8
枠_表
  6
CONTINUOUS
 62
     3
100
AcDbCircle
 10
-22473.01542217735
 20
816.3265245587829
 30
0.0
 40
23297.76001260591
100
AcDbArc
 50
358.4169008257799
 51
358.4423418242109
  0
ARC
  5
10A
330
1F
100
AcDbEntity
  8
枠_表
  6
CONTINUOUS
 62
     3
100
AcDbCircle
 10
807.3244690765928
 20
177.7836489530205
 30
0.0
 40
9.935816039979159
100
AcDbArc
 50
278.3335103000368
 51
329.1221464187299
  0
LINE
  5
10B
330
1F
100
AcDbEntity
  8
枠_表
  6
CONTINUOUS
 62
     3
100
AcDbLine
 10
807.0297657332499
 20
167.9527432975408
 30
0.0
 11
808.7645157332504
 21
167.9527432975408
 31
0.0
  0
ARC
  5
10C
330
1F
100
AcDbEntity
  8
枠_表
  6
CONTINUOUS
 62
     3
100
AcDbCircle
 10
807.6959653488741
 20
173.7461380097784
 30
0.0
 40
5.83157304846997
100
AcDbArc
 50
183.0707787095794
 51
263.4402016072427
  0
LINE
  5
10D
330
1F
100
AcDbEntity
  8
枠_表
  6
CONTINUOUS
 62
     3
100
AcDbLine
 10
801.8727657332506
 20
175.3912432975403
 30
0.0
 11
801.8727657332506
 21
173.4337432975406
 31
0.0
  0
ARC
  5
10E
330
1F
100
AcDbEntity
  8
枠_表
  6
CONTINUOUS
 62
     3
100
AcDbCircle
 10
808.0701866837849
 20
174.5807479047181
 30
0.0
 40
6.25019433457053
100
AcDbArc
 50
115.7403688633493
 51
172.5491744442191
  0
ARC
  5
10F
330
1F
100
AcDbEntity
  8
枠_表
  6
CONTINUOUS
 62
     3
100
AcDbCircle
 10
813.5660651757707
 20
162.8318862667976
 30
0.0
 40
19.22065786155208
100
AcDbArc
 50
98.71271710191789
 51
115.2874718053599
  0
ARC
  5
110
330
1F
100
AcDbEntity
  8
枠_表
  6
CONTINUOUS
 62
     3
100
AcDbCircle
 10
804.605609935373
 20
222.7501381160505
 30
0.0
 40
41.36406814694017
100
AcDbArc
 50
278.4088456599976
 51
286.1851416003176
  0
ARC
  5
111
330
1F
100
AcDbEntity
  8
枠_表
  6
CONTINUOUS
 62
     3
100
AcDbCircle
 10
780.090820012228
 20
263.7417570522223
 30
0.0
 40
44.00758833490465
100
AcDbArc
 50
261.7986203004403
 51
278.6803384946418
  0
ARC
  5
112
330
1F
100
AcDbEntity
  8
枠_表
  6
CONTINUOUS
 62
     3
100
AcDbCircle
 10
1435.542531413435
 20
189.2960360950843
 30
0.0
 40
649.5474244683604
100
AcDbArc
 50
177.2695926307304
 51
181.4833117237826
  0
ARC
  5
113
330
1F
100
AcDbEntity
  8
枠_表
  6
CONTINUOUS
 62
     3
100
AcDbCircle
 10
763.4899361790617
 20
171.9631356880092
 30
0.0
 40
22.72875263114311
100
AcDbArc
 50
335.1860595856123
 51
1.308075913059364
  0
ARC
  5
114
330
1F
100
AcDbEntity
  8
枠_表
  6
CONTINUOUS
 62
     3
100
AcDbCircle
 10
769.3897327885481
 20
170.9383518626828
 30
0.0
 40
17.01394688196115
100
AcDbArc
 50
286.2966123578915
 51
329.973223283839
  0
ARC
  5
115
330
1F
100
AcDbEntity
  8
枠_表
  6
CONTINUOUS
 62
     3
100
AcDbCircle
 10
766.0955749866657
 20
175.7223152915384
 30
0.0
 40
22.60341410821362
100
AcDbArc
 50
277.0901027239701
 51
290.9134154817058
  0
ARC
  5
116
330
1F
100
AcDbEntity
  8
枠_表
  6
CONTINUOUS
 62
     3
100
AcDbCircle
 10
766.0927386496026
 20
164.3407518472912
 30
0.0
 40
7.47769185530633
100
AcDbArc
 50
314.592391474832
 51
344.9374073189123
  0
ARC
  5
117
330
1F
100
AcDbEntity
  8
枠_表
  6
CONTINUOUS
 62
     3
100
AcDbCircle
 10
279.3385521229318
 20
194.5197335838839
 30
0.0
 40
495.1400430399008
100
AcDbArc
 50
356.8390243485978
 51
2.971133813187157
  0
ARC
  5
118
330
1F
100
AcDbEntity
  8
枠_表
  6
CONTINUOUS
 62
     3
100
AcDbCircle
 10
704.1439565227081
 20
170.7342761922786
 30
0.0
 40
69.67015049800598
100
AcDbArc
 50
353.1274757312911
 51
357.106204490141
  0
LINE
  5
119
330
1F
100
AcDbEntity
  8
枠_表
  6
CONTINUOUS
 62
     3
100
AcDbLine
 10
799.1727657332508
 20
195.3644932975408
 30
0.0
 11
799.1727657332508
 21
191.7194932975406
 31
0.0
  0
ARC
  5
11A
330
1F
100
AcDbEntity
  8
枠_表
  6
CONTINUOUS
 62
     3
100
AcDbCircle
 10
807.8253617702997
 20
187.289019185788
 30
0.0
 40
8.948811051767192
100
AcDbArc
 50
103.4267945469744
 51
150.3242613737993
  0
ARC
  5
11B
330
1F
100
AcDbEntity
  8
枠_表
  6
CONTINUOUS
 62
     3
100
AcDbCircle
 10
808.479909579831
 20
185.9383830513019
 30
0.0
 40
10.4195273466423
100
AcDbArc
 50
77.23143261361693
 51
105.203415964315
  0
ARC
  5
11C
330
1F
100
AcDbEntity
  8
枠_表
  6
CONTINUOUS
 62
     3
100
AcDbCircle
 10
808.9283412817697
 20
189.2741886153419
 30
0.0
 40
7.07346538626002
100
AcDbArc
 50
3.537639967999379
 51
74.8013566619203
  0
ARC
  5
11D
330
1F
100
AcDbEntity
  8
枠_表
  6
CONTINUOUS
 62
     3
100
AcDbCircle
 10
803.0053873566574
 20
187.9229870375121
 30
0.0
 40
13.10543751018921
100
AcDbArc
 50
353.0315250986587
 51
7.839947970678348
  0
ARC
  5
11E
330
1F
100
AcDbEntity
  8
枠_表
  6
CONTINUOUS
 62
     3
100
AcDbCircle
 10
814.3230955673341
 20
186.6511332504285
 30
0.0
 40
1.72058828228131
100
AcDbArc
 50
291.5204897073511
 51
349.3445900274031
  0
ARC
  5
11F
330
1F
100
AcDbEntity
  8
枠_表
  6
CONTINUOUS
 62
     3
100
AcDbCircle
 10
810.3433050110898
 20
194.6407362688745
 30
0.0
 40
10.64113335272784
100
AcDbArc
 50
282.7195832898965
 51
295.6781112778079
  0
ARC
  5
120
330
1F
100
AcDbEntity
  8
枠_表
  6
CONTINUOUS
 62
     3
100
AcDbCircle
 10
784.853009998579
 20
308.120202977521
 30
0.0
 40
126.9482409370382
100
AcDbArc
 50
278.8438342053764
 51
282.6649181367123
  0
ARC
  5
121
330
1F
100
AcDbEntity
  8
枠_表
  6
CONTINUOUS
 62
     3
100
AcDbCircle
 10
807.0970138675791
 20
169.9608481482869
 30
0.0
 40
13.0093661698492
100
AcDbArc
 50
102.0988446293839
 51
129.1556705448828
  0
ARC
  5
122
330
1F
100
AcDbEntity
  8
枠_表
  6
CONTINUOUS
 62
     3
100
AcDbCircle
 10
803.3972379030156
 20
174.6366332500799
 30
0.0
 40
7.04795370557922
100
AcDbArc
 50
129.8344892359069
 51
168.4089447024628
  0
ARC
  5
123
330
1F
100
AcDbEntity
  8
枠_表
  6
CONTINUOUS
 62
     3
100
AcDbCircle
 10
804.9075018569995
 20
173.7758712547742
 30
0.0
 40
8.71709372588669
100
AcDbArc
 50
164.8589457925044
 51
187.8495628504518
  0
ARC
  5
124
330
1F
100
AcDbEntity
  8
枠_表
  6
CONTINUOUS
 62
     3
100
AcDbCircle
 10
804.0915332915501
 20
173.4015021572861
 30
0.0
 40
7.861923471262902
100
AcDbArc
 50
185.9586126338419
 51
224.0091989319859
  0
ARC
  5
125
330
1F
100
AcDbEntity
  8
枠_表
  6
CONTINUOUS
 62
     3
100
AcDbCircle
 10
804.4562953036889
 20
173.8111104772594
 30
0.0
 40
8.408956577563663
100
AcDbArc
 50
224.289750990011
 51
255.6505938786759
  0
ARC
  5
126
330
1F
100
AcDbEntity
  8
枠_表
  6
CONTINUOUS
 62
     3
100
AcDbCircle
 10
804.2928130736761
 20
171.6963494387409
 30
0.0
 40
6.330228320917861
100
AcDbArc
 50
252.3384873625213
 51
268.8069976857606
  0
LINE
  5
127
330
1F
100
AcDbEntity
  8
枠_表
  6
CONTINUOUS
 62
     3
100
AcDbLine
 10
804.1610157332498
 20
165.3674932975406
 30
0.0
 11
806.9015157332508
 21
165.3674932975406
 31
0.0
  0
ARC
  5
128
330
1F
100
AcDbEntity
  8
枠_表
  6
CONTINUOUS
 62
     3
100
AcDbCircle
 10
805.6613045867011
 20
178.9534026256825
 30
0.0
 40
13.64239920103932
100
AcDbArc
 50
275.2158792069686
 51
319.2336424873511
  0
ARC
  5
129
330
1F
100
AcDbEntity
  8
枠_表
  6
CONTINUOUS
 62
     3
100
AcDbCircle
 10
820.8315560558317
 20
170.6492594265728
 30
0.0
 40
4.87535134009722
100
AcDbArc
 50
187.1167640402297
 51
216.4860549324747
  0
ARC
  5
12A
330
1F
100
AcDbEntity
  8
枠_表
  6
CONTINUOUS
 62
     3
100
AcDbCircle
 10
820.2937735081464
 20
170.3367456528628
 30
0.0
 40
4.25769550620398
100
AcDbArc
 50
217.4081478714985
 51
264.8118660441384
  0
ARC
  5
12B
330
1F
100
AcDbEntity
  8
枠_表
  6
CONTINUOUS
 62
     3
100
AcDbCircle
 10
821.8995891945594
 20
174.646451282303
 30
0.0
 40
8.56540620020894
100
AcDbArc
 50
271.2220539293239
 51
292.8159509797653
  0
LINE
  5
12C
330
1F
100
AcDbEntity
  8
枠_表
  6
CONTINUOUS
 62
     3
100
AcDbLine
 10
819.9087657332502
 20
166.0964932975406
 30
0.0
 11
822.0822657332503
 21
166.0964932975406
 31
0.0
  0
LINE
  5
12D
330
1F
100
AcDbEntity
  8
枠_表
  6
CONTINUOUS
 62
     3
100
AcDbLine
 10
825.2210157332509
 20
166.7512432975406
 30
0.0
 11
825.2210157332509
 21
168.3239932975403
 31
0.0
  0
ARC
  5
12E
330
1F
100
AcDbEntity
  8
枠_表
  6
CONTINUOUS
 62
     3
100
AcDbCircle
 10
823.8242078457968
 20
171.0061188741088
 30
0.0
 40
3.024048591364801
100
AcDbArc
 50
243.6191685566582
 51
297.5097757939563
  0
ARC
  5
12F
330
1F
100
AcDbEntity
  8
枠_表
  6
CONTINUOUS
 62
     3
100
AcDbCircle
 10
824.1823989446045
 20
170.8302928780472
 30
0.0
 40
3.05188683107389
100
AcDbArc
 50
179.9117548191414
 51
236.1065985968857
  0
ARC
  5
130
330
1F
100
AcDbEntity
  8
枠_表
  6
CONTINUOUS
 62
     3
100
AcDbCircle
 10
1274.65013583871
 20
175.932384393173
 30
0.0
 40
453.5482655865661
100
AcDbArc
 50
178.2526643324597
 51
180.6439560401927
  0
ARC
  5
131
330
1F
100
AcDbEntity
  8
枠_表
  6
CONTINUOUS
 62
     3
100
AcDbCircle
 10
811.070627260279
 20
189.0191625973313
 30
0.0
 40
10.2690407511459
100
AcDbArc
 50
4.148222840814693
 51
92.36000944257292
  0
ARC
  5
132
330
1F
100
AcDbEntity
  8
枠_表
  6
CONTINUOUS
 62
     3
100
AcDbCircle
 10
810.2685324125532
 20
181.6167288926886
 30
0.0
 40
17.66683515327064
100
AcDbArc
 50
88.77000393305703
 51
128.9068631829044
  0
TEXT
  5
133
330
1F
100
AcDbEntity
  8
枠_表
  6
CONTINUOUS
 62
     6
100
AcDbText
 10
295.8941159138983
 20
144.4500732
 30
0.0
 40
30.0
  1
10
 41
0.408648648648649
  7
EXCADSTD
 72
     5
 11
317.4941159138983
 21
144.4500732
 31
0.0
100
AcDbText
  0
TEXT
  5
134
330
1F
100
AcDbEntity
  8
枠_表
  6
CONTINUOUS
 62
     6
100
AcDbText
 10
186.3441156754796
 20
144.4500732
 30
0.0
 40
30.0
  1
'25
 41
0.4689784042553192
  7
EXCADSTD
 72
     5
 11
217.8326656754796
 21
144.4500732
 31
0.0
100
AcDbText
  0
TEXT
  5
135
330
1F
100
AcDbEntity
  8
枠_表
  6
CONTINUOUS
 62
     6
100
AcDbText
 10
249.0691160569493
 20
144.4500732
 30
0.0
 40
30.0
  1
1
 41
0.7238636363636363
  7
EXCADSTD
 72
     5
 11
260.4441160569493
 21
144.4500732
 31
0.0
100
AcDbText
  0
TEXT
  5
136
330
1F
100
AcDbEntity
  8
枠_表
  6
CONTINUOUS
 62
     2
100
AcDbText
 10
1450.000000000001
 20
270.0
 30
0.0
 40
50.0
  1
ＬＵＴＣ１５１ＲＡＲ型
 41
0.7323076923076925
  7
EXCADSTD
 72
     5
 11
1790.000000000001
 21
270.0
 31
0.0
100
AcDbText
  0
TEXT
  5
137
330
1F
100
AcDbEntity
  8
枠_表
  6
CONTINUOUS
 62
     7
100
AcDbText
 10
1452.000001668931
 20
151.5
 30
0.0
 40
70.0
  1
ＬＵ９１１０８０
 41
1.140425531914894
  7
EXCADSTD
 72
     5
 11
1988.000001668931
 21
151.5
 31
0.0
100
AcDbText
  0
TEXT
  5
138
330
1F
100
AcDbEntity
  8
枠_表
  6
CONTINUOUS
 62
     2
100
AcDbText
 10
831.5000000000003
 20
305.0000000000005
 30
0.0
 40
35.0
  1
ラフィーネ用
 41
1.057142857142857
  7
EXCADSTD
 72
     5
 11
1016.5
 21
305.0000000000005
 31
0.0
100
AcDbText
  0
TEXT
  5
139
330
1F
100
AcDbEntity
  8
枠_表
  6
CONTINUOUS
 62
     2
100
AcDbText
 10
890.0000000000002
 20
245.0
 30
0.0
 40
50.0
  1
トールキャビネット
 41
1.083018867924529
  7
EXCADSTD
 72
     5
 11
1300.0
 21
245.0
 31
0.0
100
AcDbText
  0
TEXT
  5
13A
330
1F
100
AcDbEntity
  8
枠_表
  6
CONTINUOUS
 62
     2
100
AcDbText
 10
1260.000000000001
 20
448.000000000001
 30
0.0
 40
40.0
  1
※上部：固定棚板１枚、可動棚板４枚
 41
1.03960396039604
  7
EXCADSTD
 72
     5
 11
1860.000000000001
 21
448.000000000001
 31
0.0
100
AcDbText
  0
TEXT
  5
13B
330
1F
100
AcDbEntity
  8
枠_表
  6
CONTINUOUS
 62
     2
100
AcDbText
 10
1260.000000000001
 20
408.000000000001
 30
0.0
 40
40.0
  1
※下部：スライド式ラック（カゴ２段）
 41
1.038551401869159
  7
EXCADSTD
 72
     5
 11
1895.000000000001
 21
408.000000000001
 31
0.0
100
AcDbText
  0
ARC
  5
13C
330
1F
100
AcDbEntity
  8
枠_表
  6
CONTINUOUS
 62
     3
100
AcDbCircle
 10
763.8347289685448
 20
168.6759859445988
 30
0.0
 40
12.23467000390025
100
AcDbArc
 50
288.1715191042997
 51
307.8537826235693
  0
LINE
  5
13D
330
1F
100
AcDbEntity
  8
枠_表
  6
CONTINUOUS
 62
     3
100
AcDbLine
 10
768.8855157332507
 20
153.2917432975404
 30
0.0
 11
767.650265733251
 21
157.0514932975402
 31
0.0
  0
DIMENSION
  5
13F
330
1F
100
AcDbEntity
  8
化粧台
  6
CONTINUOUS
 62
     3
100
AcDbDimension
  2
*D15
 10
1422.999999999999
 20
2689.999999999999
 30
0.0
 11
1495.999999999999
 21
2713.499999940394
 31
0.0
 70
   160
  3
ISO-25
100
AcDbAlignedDimension
 13
1568.999999999999
 23
2612.0
 33
0.0
 14
1422.999999999999
 24
2612.0
 34
0.0
100
AcDbRotatedDimension
1001
ACAD
1000
DSTYLE
1002
{
1070
   270
1070
     2
1070
     6
1000
EX_NORM
1070
     7
1000
EX_NORM
1070
    41
1040
30.0
1070
    42
1040
6.99999988079071
1070
    44
1040
10.0
1070
    73
1070
     0
1070
    74
1070
     0
1070
    75
1070
     0
1070
    76
1070
     0
1070
    77
1070
     1
1070
    78
1070
     8
1070
   140
1040
40.0
1070
   147
1040
0.0
1070
   173
1070
     1
1070
   176
1070
     3
1070
   177
1070
     3
1070
   178
1070
     2
1070
   271
1070
     1
1070
   277
1070
     2
1070
   279
1070
     2
1070
   280
1070
     0
1070
   287
1070
     5
1070
   340
1005
13E
1002
}
  0
DIMENSION
  5
14D
330
1F
100
AcDbEntity
  8
化粧台
  6
CONTINUOUS
 62
     3
100
AcDbDimension
  2
*D16
 10
1419.999999999997
 20
722.9999999999995
 30
0.0
 11
1494.499999999997
 21
746.4999999403949
 31
0.0
 70
   160
  3
ISO-25
100
AcDbAlignedDimension
 13
1568.999999999996
 23
812.9999999999995
 33
0.0
 14
1419.999999999997
 24
812.9999999999995
 34
0.0
100
AcDbRotatedDimension
1001
ACAD
1000
DSTYLE
1002
{
1070
   270
1070
     2
1070
     6
1000
EX_NORM
1070
     7
1000
EX_NORM
1070
    41
1040
30.0
1070
    42
1040
6.99999988079071
1070
    44
1040
10.0
1070
    73
1070
     0
1070
    74
1070
     0
1070
    75
1070
     0
1070
    76
1070
     0
1070
    77
1070
     1
1070
    78
1070
     8
1070
   140
1040
40.0
1070
   147
1040
0.0
1070
   173
1070
     1
1070
   176
1070
     3
1070
   177
1070
     3
1070
   178
1070
     2
1070
   271
1070
     1
1070
   277
1070
     2
1070
   279
1070
     2
1070
   280
1070
     0
1070
   287
1070
     5
1070
   340
1005
13E
1002
}
  0
DIMENSION
  5
15A
330
1F
100
AcDbEntity
  8
化粧台
  6
CONTINUOUS
 62
     3
100
AcDbDimension
  2
*D17
 10
1419.999999999997
 20
1541.0
 30
0.0
 11
1339.999999999998
 21
1564.499999940394
 31
0.0
 70
   160
  1
（3）
  3
ISO-25
100
AcDbAlignedDimension
 13
1422.999999999998
 23
1492.0
 33
0.0
 14
1419.999999999997
 24
1492.0
 34
0.0
100
AcDbRotatedDimension
1001
ACAD
1000
DSTYLE
1002
{
1070
   270
1070
     2
1070
     6
1000
EX_NORM
1070
     7
1000
EX_NORM
1070
    41
1040
30.0
1070
    42
1040
6.99999988079071
1070
    44
1040
10.0
1070
    73
1070
     0
1070
    74
1070
     0
1070
    75
1070
     1
1070
    76
1070
     0
1070
    77
1070
     1
1070
    78
1070
     8
1070
   140
1040
40.0
1070
   147
1040
0.0
1070
   173
1070
     1
1070
   176
1070
     3
1070
   177
1070
     3
1070
   178
1070
     2
1070
   271
1070
     1
1070
   277
1070
     2
1070
   279
1070
     2
1070
   280
1070
     2
1070
   287
1070
     5
1070
   340
1005
13E
1002
}
  0
DIMENSION
  5
168
330
1F
100
AcDbEntity
  8
化粧台
  6
CONTINUOUS
 62
     3
100
AcDbDimension
  2
*D18
 10
544.9999999999972
 20
2743.0
 30
0.0
 11
767.4999999999973
 21
2766.499999940395
 31
0.0
 70
   160
  3
ISO-25
100
AcDbAlignedDimension
 13
989.9999999999972
 23
2612.0
 33
0.0
 14
544.9999999999972
 24
2612.0
 34
0.0
100
AcDbRotatedDimension
1001
ACAD
1000
DSTYLE
1002
{
1070
   270
1070
     2
1070
     6
1000
EX_NORM
1070
     7
1000
EX_NORM
1070
    41
1040
30.0
1070
    42
1040
6.99999988079071
1070
    44
1040
10.0
1070
    73
1070
     0
1070
    74
1070
     0
1070
    75
1070
     0
1070
    76
1070
     0
1070
    77
1070
     1
1070
    78
1070
     8
1070
   140
1040
40.0
1070
   147
1040
0.0
1070
   173
1070
     1
1070
   176
1070
     3
1070
   177
1070
     3
1070
   178
1070
     2
1070
   271
1070
     1
1070
   277
1070
     2
1070
   279
1070
     2
1070
   280
1070
     0
1070
   287
1070
     5
1070
   340
1005
13E
1002
}
  0
DIMENSION
  5
175
330
1F
100
AcDbEntity
  8
化粧台
  6
CONTINUOUS
 62
     3
100
AcDbDimension
  2
*D19
 10
544.9999999999981
 20
722.9999999999995
 30
0.0
 11
757.4999999999981
 21
746.4999999403949
 31
0.0
 70
   160
  3
ISO-25
100
AcDbAlignedDimension
 13
969.9999999999981
 23
812.9999999999995
 33
0.0
 14
544.9999999999981
 24
812.9999999999995
 34
0.0
100
AcDbRotatedDimension
1001
ACAD
1000
DSTYLE
1002
{
1070
   270
1070
     2
1070
     6
1000
EX_NORM
1070
     7
1000
EX_NORM
1070
    41
1040
30.0
1070
    42
1040
6.99999988079071
1070
    44
1040
10.0
1070
    73
1070
     0
1070
    74
1070
     0
1070
    75
1070
     0
1070
    76
1070
     0
1070
    77
1070
     1
1070
    78
1070
     8
1070
   140
1040
40.0
1070
   147
1040
0.0
1070
   173
1070
     1
1070
   176
1070
     3
1070
   177
1070
     3
1070
   178
1070
     2
1070
   271
1070
     1
1070
   277
1070
     2
1070
   279
1070
     2
1070
   280
1070
     0
1070
   287
1070
     5
1070
   340
1005
13E
1002
}
  0
DIMENSION
  5
182
330
1F
100
AcDbEntity
  8
化粧台
  6
CONTINUOUS
 62
     3
100
AcDbDimension
  2
*D20
 10
895.4999999999973
 20
2683.0
 30
0.0
 11
760.4999999999974
 21
2706.499999940395
 31
0.0
 70
   160
  3
ISO-25
100
AcDbAlignedDimension
 13
625.4999999999972
 23
2555.25
 33
0.0
 14
895.4999999999973
 24
2555.25
 34
0.0
100
AcDbRotatedDimension
1001
ACAD
1000
DSTYLE
1002
{
1070
   270
1070
     2
1070
     6
1000
EX_NORM
1070
     7
1000
EX_NORM
1070
    41
1040
30.0
1070
    42
1040
6.99999988079071
1070
    44
1040
10.0
1070
    73
1070
     0
1070
    74
1070
     0
1070
    75
1070
     0
1070
    76
1070
     0
1070
    77
1070
     1
1070
    78
1070
     8
1070
   140
1040
40.0
1070
   147
1040
0.0
1070
   173
1070
     1
1070
   176
1070
     3
1070
   177
1070
     3
1070
   178
1070
     2
1070
   271
1070
     1
1070
   277
1070
     2
1070
   279
1070
     2
1070
   280
1070
     0
1070
   287
1070
     5
1070
   340
1005
13E
1002
}
  0
DIMENSION
  5
18F
330
1F
100
AcDbEntity
  8
化粧台
  6
CONTINUOUS
 62
     3
100
AcDbDimension
  2
*D21
 10
1652.0
 20
1393.0
 30
0.0
 11
1628.500000059605
 21
1102.999999999999
 31
0.0
 70
   160
  1
580（壁固定　後壁）
  3
ISO-25
100
AcDbAlignedDimension
 13
1568.999999999997
 23
812.9999999999995
 33
0.0
 14
1496.999999999997
 24
1393.0
 34
0.0
 50
90.0
100
AcDbRotatedDimension
1001
ACAD
1000
DSTYLE
1002
{
1070
   270
1070
     2
1070
     6
1000
EX_NORM
1070
     7
1000
EX_NORM
1070
    41
1040
30.0
1070
    42
1040
6.99999988079071
1070
    44
1040
9.999999999999545
1070
    73
1070
     0
1070
    74
1070
     0
1070
    75
1070
     0
1070
    76
1070
     0
1070
    77
1070
     1
1070
    78
1070
     8
1070
   140
1040
40.0
1070
   147
1040
0.0
1070
   173
1070
     1
1070
   176
1070
     3
1070
   177
1070
     3
1070
   178
1070
     2
1070
   271
1070
     1
1070
   277
1070
     2
1070
   279
1070
     2
1070
   280
1070
     0
1070
   287
1070
     5
1070
   340
1005
13E
1002
}
  0
DIMENSION
  5
19C
330
1F
100
AcDbEntity
  8
化粧台
  6
CONTINUOUS
 62
     3
100
AcDbDimension
  2
*D22
 10
544.9999999999985
 20
2683.0
 30
0.0
 11
459.9999999999994
 21
2706.499999940395
 31
0.0
 70
   160
  3
ISO-25
100
AcDbAlignedDimension
 13
625.5000000000003
 23
2555.25
 33
0.0
 14
544.9999999999985
 24
2612.0
 34
0.0
100
AcDbRotatedDimension
1001
ACAD
1000
DSTYLE
1002
{
1070
   270
1070
     2
1070
     6
1000
EX_NORM
1070
     7
1000
EX_NORM
1070
    41
1040
30.0
1070
    42
1040
6.99999988079071
1070
    44
1040
10.0
1070
    73
1070
     0
1070
    74
1070
     0
1070
    75
1070
     0
1070
    76
1070
     0
1070
    77
1070
     1
1070
    78
1070
     8
1070
   140
1040
40.0
1070
   147
1040
0.0
1070
   173
1070
     1
1070
   176
1070
     3
1070
   177
1070
     3
1070
   178
1070
     2
1070
   271
1070
     1
1070
   277
1070
     2
1070
   279
1070
     2
1070
   280
1070
     2
1070
   287
1070
     5
1070
   340
1005
13E
1002
}
  0
DIMENSION
  5
1A9
330
1F
100
AcDbEntity
  8
化粧台
  6
CONTINUOUS
 62
     3
100
AcDbDimension
  2
*D23
 10
1118.000000000007
 20
2613.999999999999
 30
0.0
 11
1094.500000059612
 21
1713.5
 31
0.0
 70
   160
  3
ISO-25
100
AcDbAlignedDimension
 13
986.0000000000072
 23
812.9999999999995
 33
0.0
 14
983.0000000000072
 24
2613.999999999999
 34
0.0
 50
90.0
100
AcDbRotatedDimension
1001
ACAD
1000
DSTYLE
1002
{
1070
   270
1070
     2
1070
     6
1000
EX_NORM
1070
     7
1000
EX_NORM
1070
    41
1040
30.0
1070
    42
1040
9.200000166893005
1070
    44
1040
10.0
1070
    73
1070
     0
1070
    74
1070
     0
1070
    75
1070
     0
1070
    76
1070
     0
1070
    77
1070
     1
1070
    78
1070
     8
1070
   140
1040
40.0
1070
   147
1040
0.0
1070
   173
1070
     1
1070
   176
1070
     3
1070
   177
1070
     3
1070
   178
1070
     2
1070
   271
1070
     1
1070
   277
1070
     2
1070
   279
1070
     2
1070
   280
1070
     0
1070
   287
1070
     5
1070
   340
1005
13E
1002
}
  0
DIMENSION
  5
1B6
330
1F
100
AcDbEntity
  8
化粧台
  6
CONTINUOUS
 62
     3
100
AcDbDimension
  2
*D24
 10
1709.000000000001
 20
2547.0
 30
0.0
 11
1685.500000059606
 21
1680.0
 31
0.0
 70
   160
  1
1735（壁固定　側壁）
  3
ISO-25
100
AcDbAlignedDimension
 13
1569.000000000001
 23
813.0000000000001
 33
0.0
 14
1601.000000000001
 24
2547.0
 34
0.0
 50
90.0
100
AcDbRotatedDimension
1001
ACAD
1000
DSTYLE
1002
{
1070
   270
1070
     2
1070
     6
1000
EX_NORM
1070
     7
1000
EX_NORM
1070
    41
1040
30.0
1070
    42
1040
6.99999988079071
1070
    44
1040
10.0
1070
    73
1070
     0
1070
    74
1070
     0
1070
    75
1070
     0
1070
    76
1070
     0
1070
    77
1070
     1
1070
    78
1070
     8
1070
   140
1040
40.0
1070
   147
1040
0.0
1070
   173
1070
     1
1070
   176
1070
     3
1070
   177
1070
     3
1070
   178
1070
     2
1070
   271
1070
     1
1070
   277
1070
     2
1070
   279
1070
     2
1070
   280
1070
     0
1070
   287
1070
     5
1070
   340
1005
13E
1002
}
  0
DIMENSION
  5
1C3
330
1F
100
AcDbEntity
  8
化粧台
  6
CONTINUOUS
 62
     3
100
AcDbDimension
  2
*D25
 10
407.0000000000002
 20
1904.5
 30
0.0
 11
383.5000000596049
 21
1712.0
 31
0.0
 70
   160
  1
（385）
  3
ISO-25
100
AcDbAlignedDimension
 13
559.9999999999999
 23
1519.5
 33
0.0
 14
559.9999999999999
 24
1904.5
 34
0.0
 50
90.0
100
AcDbRotatedDimension
1001
ACAD
1000
DSTYLE
1002
{
1070
   270
1070
     2
1070
     6
1000
EX_NORM
1070
     7
1000
EX_NORM
1070
    41
1040
30.0
1070
    42
1040
6.99999988079071
1070
    44
1040
10.00000000000034
1070
    73
1070
     0
1070
    74
1070
     0
1070
    75
1070
     0
1070
    76
1070
     0
1070
    77
1070
     1
1070
    78
1070
     0
1070
   140
1040
40.0
1070
   147
1040
0.0
1070
   173
1070
     1
1070
   176
1070
     3
1070
   177
1070
     3
1070
   178
1070
     2
1070
   271
1070
     0
1070
   277
1070
     2
1070
   279
1070
     2
1070
   280
1070
     0
1070
   287
1070
     5
1070
   340
1005
13E
1002
}
  0
DIMENSION
  5
1D0
330
1F
100
AcDbEntity
  8
化粧台
  6
CONTINUOUS
 62
     3
100
AcDbDimension
  2
*D26
 10
407.0000000000003
 20
2597.0
 30
0.0
 11
383.5000000596051
 21
2258.25
 31
0.0
 70
   160
  1
（678）
  3
ISO-25
100
AcDbAlignedDimension
 13
559.9999999999999
 23
1919.5
 33
0.0
 14
559.9999999999999
 24
2597.0
 34
0.0
 50
90.0
100
AcDbRotatedDimension
1001
ACAD
1000
DSTYLE
1002
{
1070
   270
1070
     2
1070
     6
1000
EX_NORM
1070
     7
1000
EX_NORM
1070
    41
1040
30.0
1070
    42
1040
6.99999988079071
1070
    44
1040
10.00000000000051
1070
    73
1070
     0
1070
    74
1070
     0
1070
    75
1070
     0
1070
    76
1070
     0
1070
    77
1070
     1
1070
    78
1070
     0
1070
   140
1040
40.0
1070
   147
1040
0.0
1070
   173
1070
     1
1070
   176
1070
     3
1070
   177
1070
     3
1070
   178
1070
     2
1070
   271
1070
     0
1070
   277
1070
     2
1070
   279
1070
     2
1070
   280
1070
     0
1070
   287
1070
     5
1070
   340
1005
13E
1002
}
  0
LINE
  5
1DD
330
1F
100
AcDbEntity
  8
化粧台
  6
CONTINUOUS
 62
     2
100
AcDbLine
 10
969.9999999999981
 20
1492.0
 30
0.0
 11
544.9999999999981
 21
1492.0
 31
0.0
  0
LINE
  5
1DE
330
1F
100
AcDbEntity
  8
化粧台
  6
CONTINUOUS
 62
     2
100
AcDbLine
 10
969.9999999999981
 20
1492.0
 30
0.0
 11
969.9999999999981
 21
812.9999999999995
 31
0.0
  0
LINE
  5
1DF
330
1F
100
AcDbEntity
  8
化粧台
  6
CONTINUOUS
 62
     2
100
AcDbLine
 10
544.9999999999981
 20
1492.0
 30
0.0
 11
544.9999999999981
 21
812.9999999999995
 31
0.0
  0
LINE
  5
1E0
330
1F
100
AcDbEntity
  8
化粧台
  6
CONTINUOUS
 62
     2
100
AcDbLine
 10
969.9999999999981
 20
812.9999999999995
 30
0.0
 11
544.9999999999981
 21
812.9999999999995
 31
0.0
  0
LINE
  5
1E1
330
1F
100
AcDbEntity
  8
化粧台
  6
CONTINUOUS
 62
     2
100
AcDbLine
 10
990.4999999999973
 20
903.0000000000014
 30
0.0
 11
973.4999999999962
 21
903.0000000000014
 31
0.0
  0
LINE
  5
1E2
330
1F
100
AcDbEntity
  8
化粧台
  6
CONTINUOUS
 62
     6
100
AcDbLine
 10
572.4999999999981
 20
1393.0
 30
0.0
 11
504.4999999999962
 21
1393.0
 31
0.0
  0
LINE
  5
1E3
330
1F
100
AcDbEntity
  8
化粧台
  6
CONTINUOUS
 62
     6
100
AcDbLine
 10
544.9999999999962
 20
1394.299999999999
 30
0.0
 11
512.4999999999962
 21
1393.0
 31
0.0
  0
LINE
  5
1E4
330
1F
100
AcDbEntity
  8
化粧台
  6
CONTINUOUS
 62
     6
100
AcDbLine
 10
544.9999999999962
 20
1391.699999999999
 30
0.0
 11
512.4999999999962
 21
1393.0
 31
0.0
  0
LINE
  5
1E5
330
1F
100
AcDbEntity
  8
化粧台
  6
EXLTYPE3
 62
     6
100
AcDbLine
 10
907.999999999999
 20
2547.0
 30
0.0
 11
612.999999999999
 21
2547.0
 31
0.0
  0
LINE
  5
1E6
330
1F
100
AcDbEntity
  8
化粧台
  6
CONTINUOUS
 62
     6
100
AcDbLine
 10
895.5000000000026
 20
2559.5
 30
0.0
 11
895.5000000000026
 21
2534.5
 31
0.0
  0
LINE
  5
1E7
330
1F
100
AcDbEntity
  8
化粧台
  6
CONTINUOUS
 62
     6
100
AcDbLine
 10
625.4999999999953
 20
2559.5
 30
0.0
 11
625.4999999999953
 21
2534.5
 31
0.0
  0
LINE
  5
1E8
330
1F
100
AcDbEntity
  8
化粧台
  6
CONTINUOUS
 62
     2
100
AcDbLine
 10
960.9999999999981
 20
1919.5
 30
0.0
 11
559.9999999999999
 21
1919.5
 31
0.0
  0
LINE
  5
1E9
330
1F
100
AcDbEntity
  8
化粧台
  6
CONTINUOUS
 62
     2
100
AcDbLine
 10
960.9999999999981
 20
1904.5
 30
0.0
 11
559.9999999999999
 21
1904.5
 31
0.0
  0
LINE
  5
1EA
330
1F
100
AcDbEntity
  8
化粧台
  6
CONTINUOUS
 62
     2
100
AcDbLine
 10
560.0000000000008
 20
2597.0
 30
0.0
 11
559.9999999999999
 21
1519.5
 31
0.0
  0
LINE
  5
1EB
330
1F
100
AcDbEntity
  8
化粧台
  6
CONTINUOUS
 62
     2
100
AcDbLine
 10
960.9999999999991
 20
2597.0
 30
0.0
 11
960.9999999999981
 21
1519.5
 31
0.0
  0
LINE
  5
1EC
330
1F
100
AcDbEntity
  8
化粧台
  6
CONTINUOUS
 62
     2
100
AcDbLine
 10
975.9999999999981
 20
1519.5
 30
0.0
 11
545.0000000000008
 21
1519.5
 31
0.0
  0
LINE
  5
1ED
330
1F
100
AcDbEntity
  8
化粧台
  6
CONTINUOUS
 62
     2
100
AcDbLine
 10
975.9999999999991
 20
2597.0
 30
0.0
 11
545.0000000000008
 21
2597.0
 31
0.0
  0
LINE
  5
1EE
330
1F
100
AcDbEntity
  8
化粧台
  6
CONTINUOUS
 62
     2
100
AcDbLine
 10
545.0000000000008
 20
2612.0
 30
0.0
 11
545.0000000000008
 21
1492.0
 31
0.0
  0
LINE
  5
1EF
330
1F
100
AcDbEntity
  8
化粧台
  6
CONTINUOUS
 62
     2
100
AcDbLine
 10
975.9999999999981
 20
1492.0
 30
0.0
 11
545.0000000000008
 21
1492.0
 31
0.0
  0
LINE
  5
1F0
330
1F
100
AcDbEntity
  8
化粧台
  6
CONTINUOUS
 62
     2
100
AcDbLine
 10
975.9999999999991
 20
2612.0
 30
0.0
 11
545.0000000000008
 21
2612.0
 31
0.0
  0
LINE
  5
1F1
330
1F
100
AcDbEntity
  8
化粧台
  6
CONTINUOUS
 62
     2
100
AcDbLine
 10
990.0
 20
1492.0
 30
0.0
 11
975.9999999999999
 21
1492.0
 31
0.0
  0
LINE
  5
1F2
330
1F
100
AcDbEntity
  8
化粧台
  6
CONTINUOUS
 62
     2
100
AcDbLine
 10
570.0000000000008
 20
2426.999999999957
 30
0.0
 11
951.0000000000026
 21
2426.999999999957
 31
0.0
  0
LINE
  5
1F3
330
1F
100
AcDbEntity
  8
化粧台
  6
CONTINUOUS
 62
     2
100
AcDbLine
 10
570.0000000000008
 20
2411.999999999957
 30
0.0
 11
951.0000000000026
 21
2411.999999999957
 31
0.0
  0
LINE
  5
1F4
330
1F
100
AcDbEntity
  8
化粧台
  6
CONTINUOUS
 62
     2
100
AcDbLine
 10
569.9999999999999
 20
2306.999999999957
 30
0.0
 11
951.0000000000026
 21
2306.999999999957
 31
0.0
  0
LINE
  5
1F5
330
1F
100
AcDbEntity
  8
化粧台
  6
CONTINUOUS
 62
     2
100
AcDbLine
 10
570.0000000000008
 20
2291.999999999957
 30
0.0
 11
951.0000000000026
 21
2291.999999999957
 31
0.0
  0
LINE
  5
1F6
330
1F
100
AcDbEntity
  8
化粧台
  6
CONTINUOUS
 62
     2
100
AcDbLine
 10
569.9999999999999
 20
2186.999999999957
 30
0.0
 11
951.0000000000017
 21
2186.999999999957
 31
0.0
  0
LINE
  5
1F7
330
1F
100
AcDbEntity
  8
化粧台
  6
CONTINUOUS
 62
     2
100
AcDbLine
 10
570.0000000000008
 20
2171.999999999957
 30
0.0
 11
951.0000000000026
 21
2171.999999999957
 31
0.0
  0
LINE
  5
1F8
330
1F
100
AcDbEntity
  8
化粧台
  6
CONTINUOUS
 62
     2
100
AcDbLine
 10
569.9999999999999
 20
1731.999999999957
 30
0.0
 11
951.0000000000017
 21
1731.999999999957
 31
0.0
  0
LINE
  5
1F9
330
1F
100
AcDbEntity
  8
化粧台
  6
CONTINUOUS
 62
     2
100
AcDbLine
 10
570.0000000000008
 20
1716.999999999957
 30
0.0
 11
951.0000000000026
 21
1716.999999999957
 31
0.0
  0
CIRCLE
  5
1FA
330
1F
100
AcDbEntity
  8
化粧台
  6
CONTINUOUS
 62
     2
100
AcDbCircle
 10
625.499999999999
 20
2547.0
 30
0.0
 40
8.25
  0
CIRCLE
  5
1FB
330
1F
100
AcDbEntity
  8
化粧台
  6
CONTINUOUS
 62
     2
100
AcDbCircle
 10
895.499999999999
 20
2547.0
 30
0.0
 40
8.25
  0
LINE
  5
1FC
330
1F
100
AcDbEntity
  8
化粧台
  6
CONTINUOUS
 62
     6
100
AcDbLine
 10
590.9999999998607
 20
2461.999999999861
 30
0.0
 11
589.9999999997225
 21
2463.0
 31
0.0
  0
LINE
  5
1FD
330
1F
100
AcDbEntity
  8
化粧台
  6
CONTINUOUS
 62
     6
100
AcDbLine
 10
580.0000000001372
 20
2461.999999999861
 30
0.0
 11
581.0000000002773
 21
2463.0
 31
0.0
  0
LINE
  5
1FE
330
1F
100
AcDbEntity
  8
化粧台
  6
CONTINUOUS
 62
     6
100
AcDbLine
 10
589.9999999996988
 20
2463.0
 30
0.0
 11
581.0000000002991
 21
2463.0
 31
0.0
  0
LINE
  5
1FF
330
1F
100
AcDbEntity
  8
化粧台
  6
CONTINUOUS
 62
     6
100
AcDbLine
 10
579.999999999999
 20
2462.0
 30
0.0
 11
579.999999999999
 21
2427.0
 31
0.0
  0
LINE
  5
200
330
1F
100
AcDbEntity
  8
化粧台
  6
CONTINUOUS
 62
     6
100
AcDbLine
 10
590.999999999999
 20
2427.0
 30
0.0
 11
579.999999999999
 21
2427.0
 31
0.0
  0
ARC
  5
201
330
1F
100
AcDbEntity
  8
化粧台
  6
CONTINUOUS
 62
     6
100
AcDbCircle
 10
595.2008927624328
 20
2457.0
 30
0.0
 40
5.500000000133138
100
AcDbArc
 50
139.8002357165408
 51
220.1997642834592
  0
LINE
  5
202
330
1F
100
AcDbEntity
  8
化粧台
  6
CONTINUOUS
 62
     6
100
AcDbLine
 10
590.999999999999
 20
2462.0
 30
0.0
 11
590.999999999999
 21
2460.549999999999
 31
0.0
  0
LINE
  5
203
330
1F
100
AcDbEntity
  8
化粧台
  6
CONTINUOUS
 62
     6
100
AcDbLine
 10
590.999999999999
 20
2453.45
 30
0.0
 11
590.999999999999
 21
2427.0
 31
0.0
  0
LINE
  5
204
330
1F
100
AcDbEntity
  8
化粧台
  6
CONTINUOUS
 62
     6
100
AcDbLine
 10
590.999999999999
 20
2462.0
 30
0.0
 11
579.999999999999
 21
2462.0
 31
0.0
  0
LINE
  5
205
330
1F
100
AcDbEntity
  8
化粧台
  6
CONTINUOUS
 62
     6
100
AcDbLine
 10
930.000000000139
 20
2461.999999999861
 30
0.0
 11
931.0000000002791
 21
2463.0
 31
0.0
  0
LINE
  5
206
330
1F
100
AcDbEntity
  8
化粧台
  6
CONTINUOUS
 62
     6
100
AcDbLine
 10
940.9999999998627
 20
2461.999999999861
 30
0.0
 11
939.9999999997243
 21
2463.0
 31
0.0
  0
LINE
  5
207
330
1F
100
AcDbEntity
  8
化粧台
  6
CONTINUOUS
 62
     6
100
AcDbLine
 10
931.0000000003027
 20
2463.0
 30
0.0
 11
939.9999999997007
 21
2463.0
 31
0.0
  0
LINE
  5
208
330
1F
100
AcDbEntity
  8
化粧台
  6
CONTINUOUS
 62
     6
100
AcDbLine
 10
941.0000000000026
 20
2462.0
 30
0.0
 11
941.0000000000026
 21
2427.0
 31
0.0
  0
LINE
  5
209
330
1F
100
AcDbEntity
  8
化粧台
  6
CONTINUOUS
 62
     6
100
AcDbLine
 10
930.0000000000008
 20
2427.0
 30
0.0
 11
941.0000000000026
 21
2427.0
 31
0.0
  0
ARC
  5
20A
330
1F
100
AcDbEntity
  8
化粧台
  6
CONTINUOUS
 62
     6
100
AcDbCircle
 10
925.7991072375671
 20
2457.0
 30
0.0
 40
5.500000000133138
100
AcDbArc
 50
319.8002357165427
 51
40.19976428346103
  0
LINE
  5
20B
330
1F
100
AcDbEntity
  8
化粧台
  6
CONTINUOUS
 62
     6
100
AcDbLine
 10
930.0000000000008
 20
2462.0
 30
0.0
 11
930.0000000000008
 21
2460.549999999999
 31
0.0
  0
LINE
  5
20C
330
1F
100
AcDbEntity
  8
化粧台
  6
CONTINUOUS
 62
     6
100
AcDbLine
 10
930.0000000000008
 20
2453.45
 30
0.0
 11
930.0000000000008
 21
2427.0
 31
0.0
  0
LINE
  5
20D
330
1F
100
AcDbEntity
  8
化粧台
  6
CONTINUOUS
 62
     6
100
AcDbLine
 10
930.0000000000008
 20
2462.0
 30
0.0
 11
941.0000000000026
 21
2462.0
 31
0.0
  0
LINE
  5
20E
330
1F
100
AcDbEntity
  8
化粧台
  6
CONTINUOUS
 62
     6
100
AcDbLine
 10
930.4088794663738
 20
2460.00000000008
 30
0.0
 11
590.5911205336805
 21
2460.00000000008
 31
0.0
  0
LINE
  5
20F
330
1F
100
AcDbEntity
  8
化粧台
  6
CONTINUOUS
 62
     6
100
AcDbLine
 10
590.5911205336278
 20
2454.00000000008
 30
0.0
 11
930.4088794664267
 21
2454.00000000008
 31
0.0
  0
LINE
  5
210
330
1F
100
AcDbEntity
  8
化粧台
  6
CONTINUOUS
 62
     6
100
AcDbLine
 10
590.9999999998607
 20
2341.999999999861
 30
0.0
 11
589.9999999997216
 21
2343.0
 31
0.0
  0
LINE
  5
211
330
1F
100
AcDbEntity
  8
化粧台
  6
CONTINUOUS
 62
     6
100
AcDbLine
 10
580.0000000001372
 20
2341.999999999861
 30
0.0
 11
581.0000000002764
 21
2343.0
 31
0.0
  0
LINE
  5
212
330
1F
100
AcDbEntity
  8
化粧台
  6
CONTINUOUS
 62
     6
100
AcDbLine
 10
589.9999999996979
 20
2343.0
 30
0.0
 11
581.0000000002991
 21
2343.0
 31
0.0
  0
LINE
  5
213
330
1F
100
AcDbEntity
  8
化粧台
  6
CONTINUOUS
 62
     6
100
AcDbLine
 10
579.9999999999981
 20
2342.0
 30
0.0
 11
579.9999999999981
 21
2307.0
 31
0.0
  0
LINE
  5
214
330
1F
100
AcDbEntity
  8
化粧台
  6
CONTINUOUS
 62
     6
100
AcDbLine
 10
590.999999999999
 20
2307.0
 30
0.0
 11
579.9999999999981
 21
2307.0
 31
0.0
  0
ARC
  5
215
330
1F
100
AcDbEntity
  8
化粧台
  6
CONTINUOUS
 62
     6
100
AcDbCircle
 10
595.2008927624328
 20
2337.0
 30
0.0
 40
5.500000000133138
100
AcDbArc
 50
139.8002357165408
 51
220.1997642834592
  0
LINE
  5
216
330
1F
100
AcDbEntity
  8
化粧台
  6
CONTINUOUS
 62
     6
100
AcDbLine
 10
590.999999999999
 20
2342.0
 30
0.0
 11
590.999999999999
 21
2340.549999999999
 31
0.0
  0
LINE
  5
217
330
1F
100
AcDbEntity
  8
化粧台
  6
CONTINUOUS
 62
     6
100
AcDbLine
 10
590.999999999999
 20
2333.45
 30
0.0
 11
590.999999999999
 21
2307.0
 31
0.0
  0
LINE
  5
218
330
1F
100
AcDbEntity
  8
化粧台
  6
CONTINUOUS
 62
     6
100
AcDbLine
 10
590.999999999999
 20
2342.0
 30
0.0
 11
579.9999999999981
 21
2342.0
 31
0.0
  0
LINE
  5
219
330
1F
100
AcDbEntity
  8
化粧台
  6
CONTINUOUS
 62
     6
100
AcDbLine
 10
930.000000000139
 20
2341.999999999861
 30
0.0
 11
931.0000000002791
 21
2343.0
 31
0.0
  0
LINE
  5
21A
330
1F
100
AcDbEntity
  8
化粧台
  6
CONTINUOUS
 62
     6
100
AcDbLine
 10
940.9999999998627
 20
2341.999999999861
 30
0.0
 11
939.9999999997243
 21
2343.0
 31
0.0
  0
LINE
  5
21B
330
1F
100
AcDbEntity
  8
化粧台
  6
CONTINUOUS
 62
     6
100
AcDbLine
 10
931.0000000003027
 20
2343.0
 30
0.0
 11
939.9999999997007
 21
2343.0
 31
0.0
  0
LINE
  5
21C
330
1F
100
AcDbEntity
  8
化粧台
  6
CONTINUOUS
 62
     6
100
AcDbLine
 10
941.0000000000026
 20
2342.0
 30
0.0
 11
941.0000000000026
 21
2307.0
 31
0.0
  0
LINE
  5
21D
330
1F
100
AcDbEntity
  8
化粧台
  6
CONTINUOUS
 62
     6
100
AcDbLine
 10
930.0000000000008
 20
2307.0
 30
0.0
 11
941.0000000000026
 21
2307.0
 31
0.0
  0
ARC
  5
21E
330
1F
100
AcDbEntity
  8
化粧台
  6
CONTINUOUS
 62
     6
100
AcDbCircle
 10
925.7991072375671
 20
2337.0
 30
0.0
 40
5.500000000133138
100
AcDbArc
 50
319.8002357165417
 51
40.19976428346017
  0
LINE
  5
21F
330
1F
100
AcDbEntity
  8
化粧台
  6
CONTINUOUS
 62
     6
100
AcDbLine
 10
930.0000000000008
 20
2342.0
 30
0.0
 11
930.0000000000008
 21
2340.549999999999
 31
0.0
  0
LINE
  5
220
330
1F
100
AcDbEntity
  8
化粧台
  6
CONTINUOUS
 62
     6
100
AcDbLine
 10
930.0000000000008
 20
2333.45
 30
0.0
 11
930.0000000000008
 21
2307.0
 31
0.0
  0
LINE
  5
221
330
1F
100
AcDbEntity
  8
化粧台
  6
CONTINUOUS
 62
     6
100
AcDbLine
 10
930.0000000000008
 20
2342.0
 30
0.0
 11
941.0000000000026
 21
2342.0
 31
0.0
  0
LINE
  5
222
330
1F
100
AcDbEntity
  8
化粧台
  6
CONTINUOUS
 62
     6
100
AcDbLine
 10
930.4088794663738
 20
2340.00000000008
 30
0.0
 11
590.5911205336805
 21
2340.00000000008
 31
0.0
  0
LINE
  5
223
330
1F
100
AcDbEntity
  8
化粧台
  6
CONTINUOUS
 62
     6
100
AcDbLine
 10
590.5911205336268
 20
2334.00000000008
 30
0.0
 11
930.4088794664267
 21
2334.00000000008
 31
0.0
  0
LINE
  5
224
330
1F
100
AcDbEntity
  8
化粧台
  6
CONTINUOUS
 62
     6
100
AcDbLine
 10
590.9999999998607
 20
2221.999999999861
 30
0.0
 11
589.9999999997216
 21
2223.0
 31
0.0
  0
LINE
  5
225
330
1F
100
AcDbEntity
  8
化粧台
  6
CONTINUOUS
 62
     6
100
AcDbLine
 10
580.0000000001372
 20
2221.999999999861
 30
0.0
 11
581.0000000002764
 21
2223.0
 31
0.0
  0
LINE
  5
226
330
1F
100
AcDbEntity
  8
化粧台
  6
CONTINUOUS
 62
     6
100
AcDbLine
 10
589.9999999996979
 20
2223.0
 30
0.0
 11
581.0000000002991
 21
2223.0
 31
0.0
  0
LINE
  5
227
330
1F
100
AcDbEntity
  8
化粧台
  6
CONTINUOUS
 62
     6
100
AcDbLine
 10
579.9999999999981
 20
2222.0
 30
0.0
 11
579.9999999999981
 21
2187.0
 31
0.0
  0
LINE
  5
228
330
1F
100
AcDbEntity
  8
化粧台
  6
CONTINUOUS
 62
     6
100
AcDbLine
 10
590.999999999999
 20
2187.0
 30
0.0
 11
579.9999999999981
 21
2187.0
 31
0.0
  0
ARC
  5
229
330
1F
100
AcDbEntity
  8
化粧台
  6
CONTINUOUS
 62
     6
100
AcDbCircle
 10
595.2008927624328
 20
2217.0
 30
0.0
 40
5.500000000133138
100
AcDbArc
 50
139.8002357165408
 51
220.1997642834592
  0
LINE
  5
22A
330
1F
100
AcDbEntity
  8
化粧台
  6
CONTINUOUS
 62
     6
100
AcDbLine
 10
590.999999999999
 20
2222.0
 30
0.0
 11
590.999999999999
 21
2220.549999999999
 31
0.0
  0
LINE
  5
22B
330
1F
100
AcDbEntity
  8
化粧台
  6
CONTINUOUS
 62
     6
100
AcDbLine
 10
590.999999999999
 20
2213.45
 30
0.0
 11
590.999999999999
 21
2187.0
 31
0.0
  0
LINE
  5
22C
330
1F
100
AcDbEntity
  8
化粧台
  6
CONTINUOUS
 62
     6
100
AcDbLine
 10
590.999999999999
 20
2222.0
 30
0.0
 11
579.9999999999981
 21
2222.0
 31
0.0
  0
LINE
  5
22D
330
1F
100
AcDbEntity
  8
化粧台
  6
CONTINUOUS
 62
     6
100
AcDbLine
 10
930.000000000139
 20
2221.999999999861
 30
0.0
 11
931.0000000002791
 21
2223.0
 31
0.0
  0
LINE
  5
22E
330
1F
100
AcDbEntity
  8
化粧台
  6
CONTINUOUS
 62
     6
100
AcDbLine
 10
940.9999999998627
 20
2221.999999999861
 30
0.0
 11
939.9999999997243
 21
2223.0
 31
0.0
  0
LINE
  5
22F
330
1F
100
AcDbEntity
  8
化粧台
  6
CONTINUOUS
 62
     6
100
AcDbLine
 10
931.0000000003027
 20
2223.0
 30
0.0
 11
939.9999999997007
 21
2223.0
 31
0.0
  0
LINE
  5
230
330
1F
100
AcDbEntity
  8
化粧台
  6
CONTINUOUS
 62
     6
100
AcDbLine
 10
941.0000000000026
 20
2222.0
 30
0.0
 11
941.0000000000017
 21
2187.0
 31
0.0
  0
LINE
  5
231
330
1F
100
AcDbEntity
  8
化粧台
  6
CONTINUOUS
 62
     6
100
AcDbLine
 10
930.0000000000008
 20
2187.0
 30
0.0
 11
941.0000000000017
 21
2187.0
 31
0.0
  0
ARC
  5
232
330
1F
100
AcDbEntity
  8
化粧台
  6
CONTINUOUS
 62
     6
100
AcDbCircle
 10
925.7991072375671
 20
2217.0
 30
0.0
 40
5.500000000133138
100
AcDbArc
 50
319.8002357165417
 51
40.19976428346017
  0
LINE
  5
233
330
1F
100
AcDbEntity
  8
化粧台
  6
CONTINUOUS
 62
     6
100
AcDbLine
 10
930.0000000000008
 20
2222.0
 30
0.0
 11
930.0000000000008
 21
2220.549999999999
 31
0.0
  0
LINE
  5
234
330
1F
100
AcDbEntity
  8
化粧台
  6
CONTINUOUS
 62
     6
100
AcDbLine
 10
930.0000000000008
 20
2213.45
 30
0.0
 11
930.0000000000008
 21
2187.0
 31
0.0
  0
LINE
  5
235
330
1F
100
AcDbEntity
  8
化粧台
  6
CONTINUOUS
 62
     6
100
AcDbLine
 10
930.0000000000008
 20
2222.0
 30
0.0
 11
941.0000000000026
 21
2222.0
 31
0.0
  0
LINE
  5
236
330
1F
100
AcDbEntity
  8
化粧台
  6
CONTINUOUS
 62
     6
100
AcDbLine
 10
590.5911205336268
 20
2214.00000000008
 30
0.0
 11
930.4088794664267
 21
2214.00000000008
 31
0.0
  0
LINE
  5
237
330
1F
100
AcDbEntity
  8
化粧台
  6
CONTINUOUS
 62
     6
100
AcDbLine
 10
590.9999999998607
 20
1954.499999999861
 30
0.0
 11
589.9999999997216
 21
1955.5
 31
0.0
  0
LINE
  5
238
330
1F
100
AcDbEntity
  8
化粧台
  6
CONTINUOUS
 62
     6
100
AcDbLine
 10
580.0000000001372
 20
1954.499999999861
 30
0.0
 11
581.0000000002764
 21
1955.5
 31
0.0
  0
LINE
  5
239
330
1F
100
AcDbEntity
  8
化粧台
  6
CONTINUOUS
 62
     6
100
AcDbLine
 10
589.9999999996979
 20
1955.5
 30
0.0
 11
581.0000000002991
 21
1955.5
 31
0.0
  0
LINE
  5
23A
330
1F
100
AcDbEntity
  8
化粧台
  6
CONTINUOUS
 62
     6
100
AcDbLine
 10
579.9999999999981
 20
1954.5
 30
0.0
 11
579.9999999999981
 21
1919.5
 31
0.0
  0
LINE
  5
23B
330
1F
100
AcDbEntity
  8
化粧台
  6
CONTINUOUS
 62
     6
100
AcDbLine
 10
590.999999999999
 20
1919.5
 30
0.0
 11
579.9999999999981
 21
1919.5
 31
0.0
  0
ARC
  5
23C
330
1F
100
AcDbEntity
  8
化粧台
  6
CONTINUOUS
 62
     6
100
AcDbCircle
 10
595.2008927624328
 20
1949.5
 30
0.0
 40
5.500000000133138
100
AcDbArc
 50
139.8002357165426
 51
220.199764283461
  0
LINE
  5
23D
330
1F
100
AcDbEntity
  8
化粧台
  6
CONTINUOUS
 62
     6
100
AcDbLine
 10
590.999999999999
 20
1954.5
 30
0.0
 11
590.999999999999
 21
1953.049999999999
 31
0.0
  0
LINE
  5
23E
330
1F
100
AcDbEntity
  8
化粧台
  6
CONTINUOUS
 62
     6
100
AcDbLine
 10
590.999999999999
 20
1945.95
 30
0.0
 11
590.999999999999
 21
1919.5
 31
0.0
  0
LINE
  5
23F
330
1F
100
AcDbEntity
  8
化粧台
  6
CONTINUOUS
 62
     6
100
AcDbLine
 10
590.999999999999
 20
1954.5
 30
0.0
 11
579.9999999999981
 21
1954.5
 31
0.0
  0
LINE
  5
240
330
1F
100
AcDbEntity
  8
化粧台
  6
CONTINUOUS
 62
     6
100
AcDbLine
 10
930.000000000139
 20
1954.499999999861
 30
0.0
 11
931.0000000002782
 21
1955.5
 31
0.0
  0
LINE
  5
241
330
1F
100
AcDbEntity
  8
化粧台
  6
CONTINUOUS
 62
     6
100
AcDbLine
 10
940.9999999998627
 20
1954.499999999861
 30
0.0
 11
939.9999999997234
 21
1955.5
 31
0.0
  0
LINE
  5
242
330
1F
100
AcDbEntity
  8
化粧台
  6
CONTINUOUS
 62
     6
100
AcDbLine
 10
931.0000000003018
 20
1955.5
 30
0.0
 11
939.9999999997007
 21
1955.5
 31
0.0
  0
LINE
  5
243
330
1F
100
AcDbEntity
  8
化粧台
  6
CONTINUOUS
 62
     6
100
AcDbLine
 10
941.0000000000017
 20
1954.5
 30
0.0
 11
941.0000000000017
 21
1919.5
 31
0.0
  0
LINE
  5
244
330
1F
100
AcDbEntity
  8
化粧台
  6
CONTINUOUS
 62
     6
100
AcDbLine
 10
930.0000000000008
 20
1919.5
 30
0.0
 11
941.0000000000017
 21
1919.5
 31
0.0
  0
ARC
  5
245
330
1F
100
AcDbEntity
  8
化粧台
  6
CONTINUOUS
 62
     6
100
AcDbCircle
 10
925.7991072375671
 20
1949.5
 30
0.0
 40
5.500000000133138
100
AcDbArc
 50
319.8002357165456
 51
40.19976428346103
  0
LINE
  5
246
330
1F
100
AcDbEntity
  8
化粧台
  6
CONTINUOUS
 62
     6
100
AcDbLine
 10
930.0000000000008
 20
1954.5
 30
0.0
 11
930.0000000000008
 21
1953.049999999999
 31
0.0
  0
LINE
  5
247
330
1F
100
AcDbEntity
  8
化粧台
  6
CONTINUOUS
 62
     6
100
AcDbLine
 10
930.0000000000008
 20
1945.95
 30
0.0
 11
930.0000000000008
 21
1919.5
 31
0.0
  0
LINE
  5
248
330
1F
100
AcDbEntity
  8
化粧台
  6
CONTINUOUS
 62
     6
100
AcDbLine
 10
930.0000000000008
 20
1954.5
 30
0.0
 11
941.0000000000017
 21
1954.5
 31
0.0
  0
LINE
  5
249
330
1F
100
AcDbEntity
  8
化粧台
  6
CONTINUOUS
 62
     6
100
AcDbLine
 10
930.4088794663729
 20
1952.50000000008
 30
0.0
 11
590.5911205336805
 21
1952.50000000008
 31
0.0
  0
LINE
  5
24A
330
1F
100
AcDbEntity
  8
化粧台
  6
CONTINUOUS
 62
     6
100
AcDbLine
 10
590.5911205336268
 20
1946.50000000008
 30
0.0
 11
930.4088794664257
 21
1946.50000000008
 31
0.0
  0
LINE
  5
24B
330
1F
100
AcDbEntity
  8
化粧台
  6
CONTINUOUS
 62
     6
100
AcDbLine
 10
590.9999999998607
 20
1766.999999999861
 30
0.0
 11
589.9999999997216
 21
1768.0
 31
0.0
  0
LINE
  5
24C
330
1F
100
AcDbEntity
  8
化粧台
  6
CONTINUOUS
 62
     6
100
AcDbLine
 10
580.0000000001372
 20
1766.999999999861
 30
0.0
 11
581.0000000002764
 21
1768.0
 31
0.0
  0
LINE
  5
24D
330
1F
100
AcDbEntity
  8
化粧台
  6
CONTINUOUS
 62
     6
100
AcDbLine
 10
589.9999999996979
 20
1768.0
 30
0.0
 11
581.0000000002991
 21
1768.0
 31
0.0
  0
LINE
  5
24E
330
1F
100
AcDbEntity
  8
化粧台
  6
CONTINUOUS
 62
     6
100
AcDbLine
 10
579.9999999999981
 20
1767.0
 30
0.0
 11
579.9999999999981
 21
1732.0
 31
0.0
  0
LINE
  5
24F
330
1F
100
AcDbEntity
  8
化粧台
  6
CONTINUOUS
 62
     6
100
AcDbLine
 10
590.999999999999
 20
1732.0
 30
0.0
 11
579.9999999999981
 21
1732.0
 31
0.0
  0
ARC
  5
250
330
1F
100
AcDbEntity
  8
化粧台
  6
CONTINUOUS
 62
     6
100
AcDbCircle
 10
595.2008927624328
 20
1762.0
 30
0.0
 40
5.500000000133138
100
AcDbArc
 50
139.8002357165408
 51
220.1997642834592
  0
LINE
  5
251
330
1F
100
AcDbEntity
  8
化粧台
  6
CONTINUOUS
 62
     6
100
AcDbLine
 10
590.999999999999
 20
1767.0
 30
0.0
 11
590.999999999999
 21
1765.549999999999
 31
0.0
  0
LINE
  5
252
330
1F
100
AcDbEntity
  8
化粧台
  6
CONTINUOUS
 62
     6
100
AcDbLine
 10
590.999999999999
 20
1758.45
 30
0.0
 11
590.999999999999
 21
1732.0
 31
0.0
  0
LINE
  5
253
330
1F
100
AcDbEntity
  8
化粧台
  6
CONTINUOUS
 62
     6
100
AcDbLine
 10
590.999999999999
 20
1767.0
 30
0.0
 11
579.9999999999981
 21
1767.0
 31
0.0
  0
LINE
  5
254
330
1F
100
AcDbEntity
  8
化粧台
  6
CONTINUOUS
 62
     6
100
AcDbLine
 10
930.000000000139
 20
1766.999999999861
 30
0.0
 11
931.0000000002782
 21
1768.0
 31
0.0
  0
LINE
  5
255
330
1F
100
AcDbEntity
  8
化粧台
  6
CONTINUOUS
 62
     6
100
AcDbLine
 10
940.9999999998627
 20
1766.999999999861
 30
0.0
 11
939.9999999997234
 21
1768.0
 31
0.0
  0
LINE
  5
256
330
1F
100
AcDbEntity
  8
化粧台
  6
CONTINUOUS
 62
     6
100
AcDbLine
 10
931.0000000003018
 20
1768.0
 30
0.0
 11
939.9999999997007
 21
1768.0
 31
0.0
  0
LINE
  5
257
330
1F
100
AcDbEntity
  8
化粧台
  6
CONTINUOUS
 62
     6
100
AcDbLine
 10
941.0000000000017
 20
1767.0
 30
0.0
 11
941.0000000000017
 21
1732.0
 31
0.0
  0
LINE
  5
258
330
1F
100
AcDbEntity
  8
化粧台
  6
CONTINUOUS
 62
     6
100
AcDbLine
 10
930.0000000000008
 20
1732.0
 30
0.0
 11
941.0000000000017
 21
1732.0
 31
0.0
  0
ARC
  5
259
330
1F
100
AcDbEntity
  8
化粧台
  6
CONTINUOUS
 62
     6
100
AcDbCircle
 10
925.7991072375671
 20
1762.0
 30
0.0
 40
5.500000000133138
100
AcDbArc
 50
319.8002357165456
 51
40.19976428346103
  0
LINE
  5
25A
330
1F
100
AcDbEntity
  8
化粧台
  6
CONTINUOUS
 62
     6
100
AcDbLine
 10
930.0000000000008
 20
1767.0
 30
0.0
 11
930.0000000000008
 21
1765.549999999999
 31
0.0
  0
LINE
  5
25B
330
1F
100
AcDbEntity
  8
化粧台
  6
CONTINUOUS
 62
     6
100
AcDbLine
 10
930.0000000000008
 20
1758.45
 30
0.0
 11
930.0000000000008
 21
1732.0
 31
0.0
  0
LINE
  5
25C
330
1F
100
AcDbEntity
  8
化粧台
  6
CONTINUOUS
 62
     6
100
AcDbLine
 10
930.0000000000008
 20
1767.0
 30
0.0
 11
941.0000000000017
 21
1767.0
 31
0.0
  0
LINE
  5
25D
330
1F
100
AcDbEntity
  8
化粧台
  6
CONTINUOUS
 62
     6
100
AcDbLine
 10
930.4088794663729
 20
1765.00000000008
 30
0.0
 11
590.5911205336805
 21
1765.00000000008
 31
0.0
  0
LINE
  5
25E
330
1F
100
AcDbEntity
  8
化粧台
  6
CONTINUOUS
 62
     6
100
AcDbLine
 10
590.5911205336268
 20
1759.00000000008
 30
0.0
 11
930.4088794664257
 21
1759.00000000008
 31
0.0
  0
LINE
  5
25F
330
1F
100
AcDbEntity
  8
化粧台
  6
CONTINUOUS
 62
     6
100
AcDbLine
 10
951.0000000000026
 20
2431.999999999996
 30
0.0
 11
951.0000000000026
 21
2401.999999999996
 31
0.0
  0
LINE
  5
260
330
1F
100
AcDbEntity
  8
化粧台
  6
CONTINUOUS
 62
     6
100
AcDbLine
 10
951.0000000000026
 20
2401.999999999996
 30
0.0
 11
961.0000000000026
 21
2401.999999999996
 31
0.0
  0
LINE
  5
261
330
1F
100
AcDbEntity
  8
化粧台
  6
CONTINUOUS
 62
     6
100
AcDbLine
 10
951.0000000000026
 20
2409.100513176243
 30
0.0
 11
961.0000000000026
 21
2409.100513176243
 31
0.0
  0
LINE
  5
262
330
1F
100
AcDbEntity
  8
化粧台
  6
CONTINUOUS
 62
     6
100
AcDbLine
 10
951.0000000000026
 20
2431.999999999996
 30
0.0
 11
961.0000000000026
 21
2431.999999999996
 31
0.0
  0
LINE
  5
263
330
1F
100
AcDbEntity
  8
化粧台
  6
CONTINUOUS
 62
     6
100
AcDbLine
 10
570.0000000000008
 20
2431.999999999997
 30
0.0
 11
570.0000000000008
 21
2401.999999999997
 31
0.0
  0
LINE
  5
264
330
1F
100
AcDbEntity
  8
化粧台
  6
CONTINUOUS
 62
     6
100
AcDbLine
 10
570.0000000000008
 20
2401.999999999997
 30
0.0
 11
560.0000000000008
 21
2401.999999999997
 31
0.0
  0
LINE
  5
265
330
1F
100
AcDbEntity
  8
化粧台
  6
CONTINUOUS
 62
     6
100
AcDbLine
 10
570.0000000000008
 20
2409.100513176244
 30
0.0
 11
560.0000000000008
 21
2409.100513176244
 31
0.0
  0
LINE
  5
266
330
1F
100
AcDbEntity
  8
化粧台
  6
CONTINUOUS
 62
     6
100
AcDbLine
 10
570.0000000000008
 20
2431.999999999997
 30
0.0
 11
560.0000000000008
 21
2431.999999999997
 31
0.0
  0
LINE
  5
267
330
1F
100
AcDbEntity
  8
化粧台
  6
CONTINUOUS
 62
     6
100
AcDbLine
 10
951.0000000000026
 20
2311.999999999996
 30
0.0
 11
951.0000000000026
 21
2281.999999999996
 31
0.0
  0
LINE
  5
268
330
1F
100
AcDbEntity
  8
化粧台
  6
CONTINUOUS
 62
     6
100
AcDbLine
 10
951.0000000000026
 20
2281.999999999996
 30
0.0
 11
961.0000000000026
 21
2281.999999999996
 31
0.0
  0
LINE
  5
269
330
1F
100
AcDbEntity
  8
化粧台
  6
CONTINUOUS
 62
     6
100
AcDbLine
 10
951.0000000000026
 20
2289.100513176243
 30
0.0
 11
961.0000000000026
 21
2289.100513176243
 31
0.0
  0
LINE
  5
26A
330
1F
100
AcDbEntity
  8
化粧台
  6
CONTINUOUS
 62
     6
100
AcDbLine
 10
951.0000000000026
 20
2311.999999999996
 30
0.0
 11
961.0000000000026
 21
2311.999999999996
 31
0.0
  0
LINE
  5
26B
330
1F
100
AcDbEntity
  8
化粧台
  6
CONTINUOUS
 62
     6
100
AcDbLine
 10
569.9999999999999
 20
2311.999999999997
 30
0.0
 11
569.9999999999999
 21
2281.999999999997
 31
0.0
  0
LINE
  5
26C
330
1F
100
AcDbEntity
  8
化粧台
  6
CONTINUOUS
 62
     6
100
AcDbLine
 10
569.9999999999999
 20
2281.999999999997
 30
0.0
 11
559.9999999999999
 21
2281.999999999997
 31
0.0
  0
LINE
  5
26D
330
1F
100
AcDbEntity
  8
化粧台
  6
CONTINUOUS
 62
     6
100
AcDbLine
 10
569.9999999999999
 20
2289.100513176244
 30
0.0
 11
559.9999999999999
 21
2289.100513176244
 31
0.0
  0
LINE
  5
26E
330
1F
100
AcDbEntity
  8
化粧台
  6
CONTINUOUS
 62
     6
100
AcDbLine
 10
569.9999999999999
 20
2311.999999999997
 30
0.0
 11
559.9999999999999
 21
2311.999999999997
 31
0.0
  0
LINE
  5
26F
330
1F
100
AcDbEntity
  8
化粧台
  6
CONTINUOUS
 62
     6
100
AcDbLine
 10
951.0000000000017
 20
2191.999999999996
 30
0.0
 11
951.0000000000017
 21
2161.999999999996
 31
0.0
  0
LINE
  5
270
330
1F
100
AcDbEntity
  8
化粧台
  6
CONTINUOUS
 62
     6
100
AcDbLine
 10
951.0000000000017
 20
2161.999999999996
 30
0.0
 11
961.0000000000017
 21
2161.999999999996
 31
0.0
  0
LINE
  5
271
330
1F
100
AcDbEntity
  8
化粧台
  6
CONTINUOUS
 62
     6
100
AcDbLine
 10
951.0000000000017
 20
2169.100513176243
 30
0.0
 11
961.0000000000017
 21
2169.100513176243
 31
0.0
  0
LINE
  5
272
330
1F
100
AcDbEntity
  8
化粧台
  6
CONTINUOUS
 62
     6
100
AcDbLine
 10
951.0000000000017
 20
2191.999999999996
 30
0.0
 11
961.0000000000017
 21
2191.999999999996
 31
0.0
  0
LINE
  5
273
330
1F
100
AcDbEntity
  8
化粧台
  6
CONTINUOUS
 62
     6
100
AcDbLine
 10
569.9999999999999
 20
2191.999999999997
 30
0.0
 11
569.9999999999999
 21
2161.999999999997
 31
0.0
  0
LINE
  5
274
330
1F
100
AcDbEntity
  8
化粧台
  6
CONTINUOUS
 62
     6
100
AcDbLine
 10
569.9999999999999
 20
2161.999999999997
 30
0.0
 11
559.9999999999999
 21
2161.999999999997
 31
0.0
  0
LINE
  5
275
330
1F
100
AcDbEntity
  8
化粧台
  6
CONTINUOUS
 62
     6
100
AcDbLine
 10
569.9999999999999
 20
2169.100513176244
 30
0.0
 11
559.9999999999999
 21
2169.100513176244
 31
0.0
  0
LINE
  5
276
330
1F
100
AcDbEntity
  8
化粧台
  6
CONTINUOUS
 62
     6
100
AcDbLine
 10
569.9999999999999
 20
2191.999999999997
 30
0.0
 11
559.9999999999999
 21
2191.999999999997
 31
0.0
  0
LINE
  5
277
330
1F
100
AcDbEntity
  8
化粧台
  6
CONTINUOUS
 62
     6
100
AcDbLine
 10
951.0000000000017
 20
1736.999999999996
 30
0.0
 11
951.0000000000017
 21
1706.999999999996
 31
0.0
  0
LINE
  5
278
330
1F
100
AcDbEntity
  8
化粧台
  6
CONTINUOUS
 62
     6
100
AcDbLine
 10
951.0000000000017
 20
1706.999999999996
 30
0.0
 11
961.0000000000017
 21
1706.999999999996
 31
0.0
  0
LINE
  5
279
330
1F
100
AcDbEntity
  8
化粧台
  6
CONTINUOUS
 62
     6
100
AcDbLine
 10
951.0000000000017
 20
1714.100513176243
 30
0.0
 11
961.0000000000017
 21
1714.100513176243
 31
0.0
  0
LINE
  5
27A
330
1F
100
AcDbEntity
  8
化粧台
  6
CONTINUOUS
 62
     6
100
AcDbLine
 10
951.0000000000017
 20
1736.999999999996
 30
0.0
 11
961.0000000000017
 21
1736.999999999996
 31
0.0
  0
LINE
  5
27B
330
1F
100
AcDbEntity
  8
化粧台
  6
CONTINUOUS
 62
     6
100
AcDbLine
 10
569.9999999999999
 20
1736.999999999997
 30
0.0
 11
569.9999999999999
 21
1706.999999999997
 31
0.0
  0
LINE
  5
27C
330
1F
100
AcDbEntity
  8
化粧台
  6
CONTINUOUS
 62
     6
100
AcDbLine
 10
569.9999999999999
 20
1706.999999999997
 30
0.0
 11
559.9999999999999
 21
1706.999999999997
 31
0.0
  0
LINE
  5
27D
330
1F
100
AcDbEntity
  8
化粧台
  6
CONTINUOUS
 62
     6
100
AcDbLine
 10
569.9999999999999
 20
1714.100513176244
 30
0.0
 11
559.9999999999999
 21
1714.100513176244
 31
0.0
  0
LINE
  5
27E
330
1F
100
AcDbEntity
  8
化粧台
  6
CONTINUOUS
 62
     6
100
AcDbLine
 10
569.9999999999999
 20
1736.999999999997
 30
0.0
 11
559.9999999999999
 21
1736.999999999997
 31
0.0
  0
LINE
  5
27F
330
1F
100
AcDbEntity
  8
化粧台
  6
CONTINUOUS
 62
     5
100
AcDbLine
 10
990.0
 20
1502.0
 30
0.0
 11
544.9999999999981
 21
1502.0
 31
0.0
  0
LINE
  5
280
330
1F
100
AcDbEntity
  8
化粧台
  6
CONTINUOUS
 62
     5
100
AcDbLine
 10
990.0
 20
1507.0
 30
0.0
 11
544.9999999999981
 21
1507.0
 31
0.0
  0
LINE
  5
281
330
1F
100
AcDbEntity
  8
化粧台
  6
CONTINUOUS
 62
     2
100
AcDbLine
 10
990.0000000000008
 20
2614.0
 30
0.0
 11
976.0000000000008
 21
2614.0
 31
0.0
  0
LINE
  5
282
330
1F
100
AcDbEntity
  8
化粧台
  6
CONTINUOUS
 62
     2
100
AcDbLine
 10
976.0000000000008
 20
2614.0
 30
0.0
 11
975.9999999999999
 21
1492.0
 31
0.0
  0
LINE
  5
283
330
1F
100
AcDbEntity
  8
化粧台
  6
CONTINUOUS
 62
     2
100
AcDbLine
 10
990.0000000000008
 20
2614.0
 30
0.0
 11
990.0000000000008
 21
1492.0
 31
0.0
  0
LINE
  5
284
330
1F
100
AcDbEntity
  8
化粧台
  6
CONTINUOUS
 62
     2
100
AcDbLine
 10
990.4999999999953
 20
1487.0
 30
0.0
 11
973.4999999999953
 21
1487.0
 31
0.0
  0
LINE
  5
285
330
1F
100
AcDbEntity
  8
化粧台
  6
CONTINUOUS
 62
     2
100
AcDbLine
 10
990.4999999999962
 20
1487.0
 30
0.0
 11
990.4999999999962
 21
903.0000000000014
 31
0.0
  0
LINE
  5
286
330
1F
100
AcDbEntity
  8
化粧台
  6
CONTINUOUS
 62
     2
100
AcDbLine
 10
973.4999999999962
 20
1487.0
 30
0.0
 11
973.4999999999962
 21
903.0000000000014
 31
0.0
  0
LINE
  5
287
330
1F
100
AcDbEntity
  8
化粧台
  6
CONTINUOUS
 62
     6
100
AcDbLine
 10
1608.999999999999
 20
2547.0
 30
0.0
 11
1660.999999999999
 21
2547.0
 31
0.0
  0
LINE
  5
288
330
1F
100
AcDbEntity
  8
化粧台
  6
CONTINUOUS
 62
     2
100
AcDbLine
 10
1568.999999999996
 20
1492.0
 30
0.0
 11
1419.999999999996
 21
1492.0
 31
0.0
  0
LINE
  5
289
330
1F
100
AcDbEntity
  8
化粧台
  6
CONTINUOUS
 62
     2
100
AcDbLine
 10
1568.999999999996
 20
1492.0
 30
0.0
 11
1568.999999999996
 21
812.9999999999995
 31
0.0
  0
LINE
  5
28A
330
1F
100
AcDbEntity
  8
化粧台
  6
CONTINUOUS
 62
     2
100
AcDbLine
 10
1419.999999999996
 20
1492.0
 30
0.0
 11
1419.999999999996
 21
812.9999999999995
 31
0.0
  0
LINE
  5
28B
330
1F
100
AcDbEntity
  8
化粧台
  6
CONTINUOUS
 62
     2
100
AcDbLine
 10
1568.999999999996
 20
812.9999999999995
 30
0.0
 11
1419.999999999996
 21
812.9999999999995
 31
0.0
  0
LINE
  5
28C
330
1F
100
AcDbEntity
  8
化粧台
  6
CONTINUOUS
 62
     2
100
AcDbLine
 10
1553.999999999996
 20
902.9999999999995
 30
0.0
 11
1434.999999999996
 21
902.9999999999995
 31
0.0
  0
LINE
  5
28D
330
1F
100
AcDbEntity
  8
化粧台
  6
CONTINUOUS
 62
     6
100
AcDbLine
 10
1506.999999999996
 20
1393.0
 30
0.0
 11
1481.999999999996
 21
1393.0
 31
0.0
  0
CIRCLE
  5
28E
330
1F
100
AcDbEntity
  8
化粧台
  6
CONTINUOUS
 62
     6
100
AcDbCircle
 10
1494.499999999996
 20
1393.0
 30
0.0
 40
2.5
  0
LINE
  5
28F
330
1F
100
AcDbEntity
  8
化粧台
  6
CONTINUOUS
 62
     2
100
AcDbLine
 10
1565.999999999997
 20
903.0000000000014
 30
0.0
 11
1422.999999999997
 21
903.0000000000014
 31
0.0
  0
LINE
  5
290
330
1F
100
AcDbEntity
  8
化粧台
  6
CONTINUOUS
 62
     2
100
AcDbLine
 10
1553.999999999996
 20
902.9999999999995
 30
0.0
 11
1553.999999999996
 21
812.9999999999995
 31
0.0
  0
LINE
  5
291
330
1F
100
AcDbEntity
  8
化粧台
  6
CONTINUOUS
 62
     2
100
AcDbLine
 10
1434.999999999996
 20
902.9999999999995
 30
0.0
 11
1434.999999999996
 21
812.9999999999995
 31
0.0
  0
LINE
  5
292
330
1F
100
AcDbEntity
  8
化粧台
  6
CONTINUOUS
 62
     2
100
AcDbLine
 10
1568.999999999997
 20
1492.0
 30
0.0
 11
1422.999999999997
 21
1492.0
 31
0.0
  0
LINE
  5
293
330
1F
100
AcDbEntity
  8
化粧台
  6
CONTINUOUS
 62
     6
100
AcDbLine
 10
1600.999999999999
 20
2547.0
 30
0.0
 11
1568.999999999999
 21
2549.0
 31
0.0
  0
LINE
  5
294
330
1F
100
AcDbEntity
  8
化粧台
  6
CONTINUOUS
 62
     6
100
AcDbLine
 10
1600.999999999999
 20
2547.0
 30
0.0
 11
1568.999999999999
 21
2545.0
 31
0.0
  0
LINE
  5
295
330
1F
100
AcDbEntity
  8
化粧台
  6
EXLTYPE2
 62
     6
100
AcDbLine
 10
1422.999999999998
 20
1519.5
 30
0.0
 11
1551.499999999996
 21
1519.5
 31
0.0
  0
LINE
  5
296
330
1F
100
AcDbEntity
  8
化粧台
  6
EXLTYPE2
 62
     6
100
AcDbLine
 10
1551.499999999996
 20
1519.5
 30
0.0
 11
1551.499999999998
 21
2597.0
 31
0.0
  0
LINE
  5
297
330
1F
100
AcDbEntity
  8
化粧台
  6
EXLTYPE2
 62
     6
100
AcDbLine
 10
1422.999999999999
 20
2596.999999999999
 30
0.0
 11
1551.499999999998
 21
2596.999999999999
 31
0.0
  0
LINE
  5
298
330
1F
100
AcDbEntity
  8
化粧台
  6
EXLTYPE2
 62
     6
100
AcDbLine
 10
1568.999999999997
 20
2611.999999999999
 30
0.0
 11
1422.999999999997
 21
2611.999999999999
 31
0.0
  0
LINE
  5
299
330
1F
100
AcDbEntity
  8
化粧台
  6
CONTINUOUS
 62
     2
100
AcDbLine
 10
1568.999999999997
 20
2613.999999999999
 30
0.0
 11
1422.999999999997
 21
2613.999999999999
 31
0.0
  0
LINE
  5
29A
330
1F
100
AcDbEntity
  8
化粧台
  6
CONTINUOUS
 62
     2
100
AcDbLine
 10
1422.999999999998
 20
2613.999999999999
 30
0.0
 11
1422.999999999998
 21
1492.0
 31
0.0
  0
LINE
  5
29B
330
1F
100
AcDbEntity
  8
化粧台
  6
CONTINUOUS
 62
     2
100
AcDbLine
 10
1568.999999999998
 20
2613.999999999999
 30
0.0
 11
1568.999999999998
 21
1492.0
 31
0.0
  0
LINE
  5
29C
330
1F
100
AcDbEntity
  8
化粧台
  6
CONTINUOUS
 62
     2
100
AcDbLine
 10
1565.999999999995
 20
1487.0
 30
0.0
 11
1422.999999999995
 21
1487.0
 31
0.0
  0
LINE
  5
29D
330
1F
100
AcDbEntity
  8
化粧台
  6
CONTINUOUS
 62
     2
100
AcDbLine
 10
1565.999999999996
 20
1487.0
 30
0.0
 11
1565.999999999996
 21
903.0000000000014
 31
0.0
  0
LINE
  5
29E
330
1F
100
AcDbEntity
  8
化粧台
  6
CONTINUOUS
 62
     2
100
AcDbLine
 10
1422.999999999998
 20
1487.0
 30
0.0
 11
1422.999999999998
 21
903.0000000000014
 31
0.0
  0
LINE
  5
29F
330
1F
100
AcDbEntity
  8
化粧台
  6
CONTINUOUS
 62
     6
100
AcDbLine
 10
1549.999999999949
 20
1434.999999999998
 30
0.0
 11
1549.999999999949
 21
1418.999999999998
 31
0.0
  0
LINE
  5
2A0
330
1F
100
AcDbEntity
  8
化粧台
  6
CONTINUOUS
 62
     6
100
AcDbLine
 10
1549.999999999949
 20
1434.055118110235
 30
0.0
 11
1549.999999999949
 21
1419.944881889763
 31
0.0
  0
ARC
  5
2A1
330
1F
100
AcDbEntity
  8
化粧台
  6
CONTINUOUS
 62
     6
100
AcDbCircle
 10
1434.999999999949
 20
1426.999999999998
 30
0.0
 40
128.0
100
AcDbArc
 50
357.2705973632218
 51
2.729402636778059
  0
POLYLINE
  5
2A2
330
1F
100
AcDbEntity
  8
化粧台
  6
CONTINUOUS
 62
     6
100
AcDb2dPolyline
 66
     1
 10
0.0
 20
0.0
 30
0.0
 70
   128
  0
VERTEX
  5
2A3
330
2A2
100
AcDbEntity
  8
化粧台
  6
CONTINUOUS
 62
     6
100
AcDbVertex
100
AcDb2dVertex
 10
1562.854792919739
 20
1420.904761904761
 30
0.0
  0
VERTEX
  5
2A4
330
2A2
100
AcDbEntity
  8
化粧台
  6
CONTINUOUS
 62
     6
100
AcDbVertex
100
AcDb2dVertex
 10
1562.854718628086
 20
1420.903227953748
 30
0.0
  0
VERTEX
  5
2A5
330
2A2
100
AcDbEntity
  8
化粧台
  6
CONTINUOUS
 62
     6
100
AcDbVertex
100
AcDb2dVertex
 10
1562.854502669993
 20
1420.898868805401
 30
0.0
  0
VERTEX
  5
2A6
330
2A2
100
AcDbEntity
  8
化粧台
  6
CONTINUOUS
 62
     6
100
AcDbVertex
100
AcDb2dVertex
 10
1562.854155420753
 20
1420.892048516756
 30
0.0
  0
VERTEX
  5
2A7
330
2A2
100
AcDbEntity
  8
化粧台
  6
CONTINUOUS
 62
     6
100
AcDbVertex
100
AcDb2dVertex
 10
1562.853687255662
 20
1420.88313114485
 30
0.0
  0
VERTEX
  5
2A8
330
2A2
100
AcDbEntity
  8
化粧台
  6
CONTINUOUS
 62
     6
100
AcDbVertex
100
AcDb2dVertex
 10
1562.853108550016
 20
1420.872480746719
 30
0.0
  0
VERTEX
  5
2A9
330
2A2
100
AcDbEntity
  8
化粧台
  6
CONTINUOUS
 62
     6
100
AcDbVertex
100
AcDb2dVertex
 10
1562.85242967911
 20
1420.8604613794
 30
0.0
  0
VERTEX
  5
2AA
330
2A2
100
AcDbEntity
  8
化粧台
  6
CONTINUOUS
 62
     6
100
AcDbVertex
100
AcDb2dVertex
 10
1562.851661018238
 20
1420.847437099928
 30
0.0
  0
VERTEX
  5
2AB
330
2A2
100
AcDbEntity
  8
化粧台
  6
CONTINUOUS
 62
     6
100
AcDbVertex
100
AcDb2dVertex
 10
1562.850812942696
 20
1420.833771965341
 30
0.0
  0
VERTEX
  5
2AC
330
2A2
100
AcDbEntity
  8
化粧台
  6
CONTINUOUS
 62
     6
100
AcDbVertex
100
AcDb2dVertex
 10
1562.849895827779
 20
1420.819830032675
 30
0.0
  0
VERTEX
  5
2AD
330
2A2
100
AcDbEntity
  8
化粧台
  6
CONTINUOUS
 62
     6
100
AcDbVertex
100
AcDb2dVertex
 10
1562.848920048783
 20
1420.805975358967
 30
0.0
  0
VERTEX
  5
2AE
330
2A2
100
AcDbEntity
  8
化粧台
  6
CONTINUOUS
 62
     6
100
AcDbVertex
100
AcDb2dVertex
 10
1562.847895981003
 20
1420.792572001253
 30
0.0
  0
VERTEX
  5
2AF
330
2A2
100
AcDbEntity
  8
化粧台
  6
CONTINUOUS
 62
     6
100
AcDbVertex
100
AcDb2dVertex
 10
1562.846842832736
 20
1420.780046127698
 30
0.0
  0
VERTEX
  5
2B0
330
2A2
100
AcDbEntity
  8
化粧台
  6
CONTINUOUS
 62
     6
100
AcDbVertex
100
AcDb2dVertex
 10
1562.845740513298
 20
1420.768199286971
 30
0.0
  0
VERTEX
  5
2B1
330
2A2
100
AcDbEntity
  8
化粧台
  6
CONTINUOUS
 62
     6
100
AcDbVertex
100
AcDb2dVertex
 10
1562.844576888567
 20
1420.756913987781
 30
0.0
  0
VERTEX
  5
2B2
330
2A2
100
AcDbEntity
  8
化粧台
  6
CONTINUOUS
 62
     6
100
AcDbVertex
100
AcDb2dVertex
 10
1562.843339824416
 20
1420.746072738835
 30
0.0
  0
VERTEX
  5
2B3
330
2A2
100
AcDbEntity
  8
化粧台
  6
CONTINUOUS
 62
     6
100
AcDbVertex
100
AcDb2dVertex
 10
1562.842017186724
 20
1420.735558048844
 30
0.0
  0
VERTEX
  5
2B4
330
2A2
100
AcDbEntity
  8
化粧台
  6
CONTINUOUS
 62
     6
100
AcDbVertex
100
AcDb2dVertex
 10
1562.840596841365
 20
1420.725252426516
 30
0.0
  0
VERTEX
  5
2B5
330
2A2
100
AcDbEntity
  8
化粧台
  6
CONTINUOUS
 62
     6
100
AcDbVertex
100
AcDb2dVertex
 10
1562.839066654215
 20
1420.715038380561
 30
0.0
  0
VERTEX
  5
2B6
330
2A2
100
AcDbEntity
  8
化粧台
  6
CONTINUOUS
 62
     6
100
AcDbVertex
100
AcDb2dVertex
 10
1562.837414491151
 20
1420.704798419686
 30
0.0
  0
VERTEX
  5
2B7
330
2A2
100
AcDbEntity
  8
化粧台
  6
CONTINUOUS
 62
     6
100
AcDbVertex
100
AcDb2dVertex
 10
1562.835628218048
 20
1420.694415052602
 30
0.0
  0
VERTEX
  5
2B8
330
2A2
100
AcDbEntity
  8
化粧台
  6
CONTINUOUS
 62
     6
100
AcDbVertex
100
AcDb2dVertex
 10
1562.833695700781
 20
1420.683770788017
 30
0.0
  0
VERTEX
  5
2B9
330
2A2
100
AcDbEntity
  8
化粧台
  6
CONTINUOUS
 62
     6
100
AcDbVertex
100
AcDb2dVertex
 10
1562.831604805228
 20
1420.67274813464
 30
0.0
  0
VERTEX
  5
2BA
330
2A2
100
AcDbEntity
  8
化粧台
  6
CONTINUOUS
 62
     6
100
AcDbVertex
100
AcDb2dVertex
 10
1562.826944304146
 20
1420.649379704935
 30
0.0
  0
VERTEX
  5
2BB
330
2A2
100
AcDbEntity
  8
化粧台
  6
CONTINUOUS
 62
     6
100
AcDbVertex
100
AcDb2dVertex
 10
1562.821705459284
 20
1420.624437648075
 30
0.0
  0
VERTEX
  5
2BC
330
2A2
100
AcDbEntity
  8
化粧台
  6
CONTINUOUS
 62
     6
100
AcDbVertex
100
AcDb2dVertex
 10
1562.815988714405
 20
1420.598322370471
 30
0.0
  0
VERTEX
  5
2BD
330
2A2
100
AcDbEntity
  8
化粧台
  6
CONTINUOUS
 62
     6
100
AcDbVertex
100
AcDb2dVertex
 10
1562.809894513273
 20
1420.571434278535
 30
0.0
  0
VERTEX
  5
2BE
330
2A2
100
AcDbEntity
  8
化粧台
  6
CONTINUOUS
 62
     6
100
AcDbVertex
100
AcDb2dVertex
 10
1562.803523299651
 20
1420.544173778675
 30
0.0
  0
VERTEX
  5
2BF
330
2A2
100
AcDbEntity
  8
化粧台
  6
CONTINUOUS
 62
     6
100
AcDbVertex
100
AcDb2dVertex
 10
1562.796975517301
 20
1420.516941277303
 30
0.0
  0
VERTEX
  5
2C0
330
2A2
100
AcDbEntity
  8
化粧台
  6
CONTINUOUS
 62
     6
100
AcDbVertex
100
AcDb2dVertex
 10
1562.790351609987
 20
1420.49013718083
 30
0.0
  0
VERTEX
  5
2C1
330
2A2
100
AcDbEntity
  8
化粧台
  6
CONTINUOUS
 62
     6
100
AcDbVertex
100
AcDb2dVertex
 10
1562.783752021473
 20
1420.464161895667
 30
0.0
  0
VERTEX
  5
2C2
330
2A2
100
AcDbEntity
  8
化粧台
  6
CONTINUOUS
 62
     6
100
AcDbVertex
100
AcDb2dVertex
 10
1562.777277195521
 20
1420.439415828223
 30
0.0
  0
VERTEX
  5
2C3
330
2A2
100
AcDbEntity
  8
化粧台
  6
CONTINUOUS
 62
     6
100
AcDbVertex
100
AcDb2dVertex
 10
1562.771027575895
 20
1420.41629938491
 30
0.0
  0
VERTEX
  5
2C4
330
2A2
100
AcDbEntity
  8
化粧台
  6
CONTINUOUS
 62
     6
100
AcDbVertex
100
AcDb2dVertex
 10
1562.765103606357
 20
1420.395212972138
 30
0.0
  0
VERTEX
  5
2C5
330
2A2
100
AcDbEntity
  8
化粧台
  6
CONTINUOUS
 62
     6
100
AcDbVertex
100
AcDb2dVertex
 10
1562.762242076929
 20
1420.385378007797
 30
0.0
  0
VERTEX
  5
2C6
330
2A2
100
AcDbEntity
  8
化粧台
  6
CONTINUOUS
 62
     6
100
AcDbVertex
100
AcDb2dVertex
 10
1562.759453078167
 20
1420.376062344157
 30
0.0
  0
VERTEX
  5
2C7
330
2A2
100
AcDbEntity
  8
化粧台
  6
CONTINUOUS
 62
     6
100
AcDbVertex
100
AcDb2dVertex
 10
1562.756699133318
 20
1420.367157800238
 30
0.0
  0
VERTEX
  5
2C8
330
2A2
100
AcDbEntity
  8
化粧台
  6
CONTINUOUS
 62
     6
100
AcDbVertex
100
AcDb2dVertex
 10
1562.753942765633
 20
1420.358556195064
 30
0.0
  0
VERTEX
  5
2C9
330
2A2
100
AcDbEntity
  8
化粧台
  6
CONTINUOUS
 62
     6
100
AcDbVertex
100
AcDb2dVertex
 10
1562.751146498362
 20
1420.350149347653
 30
0.0
  0
VERTEX
  5
2CA
330
2A2
100
AcDbEntity
  8
化粧台
  6
CONTINUOUS
 62
     6
100
AcDbVertex
100
AcDb2dVertex
 10
1562.748272854753
 20
1420.34182907703
 30
0.0
  0
VERTEX
  5
2CB
330
2A2
100
AcDbEntity
  8
化粧台
  6
CONTINUOUS
 62
     6
100
AcDbVertex
100
AcDb2dVertex
 10
1562.745284358057
 20
1420.333487202215
 30
0.0
  0
VERTEX
  5
2CC
330
2A2
100
AcDbEntity
  8
化粧台
  6
CONTINUOUS
 62
     6
100
AcDbVertex
100
AcDb2dVertex
 10
1562.742143531524
 20
1420.325015542228
 30
0.0
  0
VERTEX
  5
2CD
330
2A2
100
AcDbEntity
  8
化粧台
  6
CONTINUOUS
 62
     6
100
AcDbVertex
100
AcDb2dVertex
 10
1562.738812898402
 20
1420.316305916093
 30
0.0
  0
VERTEX
  5
2CE
330
2A2
100
AcDbEntity
  8
化粧台
  6
CONTINUOUS
 62
     6
100
AcDbVertex
100
AcDb2dVertex
 10
1562.735254981943
 20
1420.30725014283
 30
0.0
  0
VERTEX
  5
2CF
330
2A2
100
AcDbEntity
  8
化粧台
  6
CONTINUOUS
 62
     6
100
AcDbVertex
100
AcDb2dVertex
 10
1562.731432305395
 20
1420.29774004146
 30
0.0
  0
VERTEX
  5
2D0
330
2A2
100
AcDbEntity
  8
化粧台
  6
CONTINUOUS
 62
     6
100
AcDbVertex
100
AcDb2dVertex
 10
1562.723000650914
 20
1420.27731939
 30
0.0
  0
VERTEX
  5
2D1
330
2A2
100
AcDbEntity
  8
化粧台
  6
CONTINUOUS
 62
     6
100
AcDbVertex
100
AcDb2dVertex
 10
1562.713570945075
 20
1420.255103464293
 30
0.0
  0
VERTEX
  5
2D2
330
2A2
100
AcDbEntity
  8
化粧台
  6
CONTINUOUS
 62
     6
100
AcDbVertex
100
AcDb2dVertex
 10
1562.703334031515
 20
1420.231509705911
 30
0.0
  0
VERTEX
  5
2D3
330
2A2
100
AcDbEntity
  8
化粧台
  6
CONTINUOUS
 62
     6
100
AcDbVertex
100
AcDb2dVertex
 10
1562.692480753871
 20
1420.206955556431
 30
0.0
  0
VERTEX
  5
2D4
330
2A2
100
AcDbEntity
  8
化粧台
  6
CONTINUOUS
 62
     6
100
AcDbVertex
100
AcDb2dVertex
 10
1562.68120195578
 20
1420.181858457428
 30
0.0
  0
VERTEX
  5
2D5
330
2A2
100
AcDbEntity
  8
化粧台
  6
CONTINUOUS
 62
     6
100
AcDbVertex
100
AcDb2dVertex
 10
1562.669688480878
 20
1420.156635850475
 30
0.0
  0
VERTEX
  5
2D6
330
2A2
100
AcDbEntity
  8
化粧台
  6
CONTINUOUS
 62
     6
100
AcDbVertex
100
AcDb2dVertex
 10
1562.658131172802
 20
1420.131705177149
 30
0.0
  0
VERTEX
  5
2D7
330
2A2
100
AcDbEntity
  8
化粧台
  6
CONTINUOUS
 62
     6
100
AcDbVertex
100
AcDb2dVertex
 10
1562.64672087519
 20
1420.107483879024
 30
0.0
  0
VERTEX
  5
2D8
330
2A2
100
AcDbEntity
  8
化粧台
  6
CONTINUOUS
 62
     6
100
AcDbVertex
100
AcDb2dVertex
 10
1562.635648431679
 20
1420.084389397674
 30
0.0
  0
VERTEX
  5
2D9
330
2A2
100
AcDbEntity
  8
化粧台
  6
CONTINUOUS
 62
     6
100
AcDbVertex
100
AcDb2dVertex
 10
1562.625104685905
 20
1420.062839174676
 30
0.0
  0
VERTEX
  5
2DA
330
2A2
100
AcDbEntity
  8
化粧台
  6
CONTINUOUS
 62
     6
100
AcDbVertex
100
AcDb2dVertex
 10
1562.615280481505
 20
1420.043250651604
 30
0.0
  0
VERTEX
  5
2DB
330
2A2
100
AcDbEntity
  8
化粧台
  6
CONTINUOUS
 62
     6
100
AcDbVertex
100
AcDb2dVertex
 10
1562.610717755419
 20
1420.034361757848
 30
0.0
  0
VERTEX
  5
2DC
330
2A2
100
AcDbEntity
  8
化粧台
  6
CONTINUOUS
 62
     6
100
AcDbVertex
100
AcDb2dVertex
 10
1562.606323102088
 20
1420.025961397228
 30
0.0
  0
VERTEX
  5
2DD
330
2A2
100
AcDbEntity
  8
化粧台
  6
CONTINUOUS
 62
     6
100
AcDbVertex
100
AcDb2dVertex
 10
1562.602040368038
 20
1420.017952124496
 30
0.0
  0
VERTEX
  5
2DE
330
2A2
100
AcDbEntity
  8
化粧台
  6
CONTINUOUS
 62
     6
100
AcDbVertex
100
AcDb2dVertex
 10
1562.59781339979
 20
1420.010236494406
 30
0.0
  0
VERTEX
  5
2DF
330
2A2
100
AcDbEntity
  8
化粧台
  6
CONTINUOUS
 62
     6
100
AcDbVertex
100
AcDb2dVertex
 10
1562.593586043869
 20
1420.002717061712
 30
0.0
  0
VERTEX
  5
2E0
330
2A2
100
AcDbEntity
  8
化粧台
  6
CONTINUOUS
 62
     6
100
AcDbVertex
100
AcDb2dVertex
 10
1562.589302146799
 20
1419.995296381169
 30
0.0
  0
VERTEX
  5
2E1
330
2A2
100
AcDbEntity
  8
化粧台
  6
CONTINUOUS
 62
     6
100
AcDbVertex
100
AcDb2dVertex
 10
1562.584905555104
 20
1419.987877007529
 30
0.0
  0
VERTEX
  5
2E2
330
2A2
100
AcDbEntity
  8
化粧台
  6
CONTINUOUS
 62
     6
100
AcDbVertex
100
AcDb2dVertex
 10
1562.580340115306
 20
1419.980361495547
 30
0.0
  0
VERTEX
  5
2E3
330
2A2
100
AcDbEntity
  8
化粧台
  6
CONTINUOUS
 62
     6
100
AcDbVertex
100
AcDb2dVertex
 10
1562.57554967393
 20
1419.972652399976
 30
0.0
  0
VERTEX
  5
2E4
330
2A2
100
AcDbEntity
  8
化粧台
  6
CONTINUOUS
 62
     6
100
AcDbVertex
100
AcDb2dVertex
 10
1562.5704780775
 20
1419.964652275571
 30
0.0
  0
VERTEX
  5
2E5
330
2A2
100
AcDbEntity
  8
化粧台
  6
CONTINUOUS
 62
     6
100
AcDbVertex
100
AcDb2dVertex
 10
1562.565069172539
 20
1419.956263677085
 30
0.0
  0
VERTEX
  5
2E6
330
2A2
100
AcDbEntity
  8
化粧台
  6
CONTINUOUS
 62
     6
100
AcDbVertex
100
AcDb2dVertex
 10
1562.553112796346
 20
1419.938091845275
 30
0.0
  0
VERTEX
  5
2E7
330
2A2
100
AcDbEntity
  8
化粧台
  6
CONTINUOUS
 62
     6
100
AcDbVertex
100
AcDb2dVertex
 10
1562.539838485754
 20
1419.918337704374
 30
0.0
  0
VERTEX
  5
2E8
330
2A2
100
AcDbEntity
  8
化粧台
  6
CONTINUOUS
 62
     6
100
AcDbVertex
100
AcDb2dVertex
 10
1562.52550718499
 20
1419.897368835307
 30
0.0
  0
VERTEX
  5
2E9
330
2A2
100
AcDbEntity
  8
化粧台
  6
CONTINUOUS
 62
     6
100
AcDbVertex
100
AcDb2dVertex
 10
1562.510379838277
 20
1419.875552818995
 30
0.0
  0
VERTEX
  5
2EA
330
2A2
100
AcDbEntity
  8
化粧台
  6
CONTINUOUS
 62
     6
100
AcDbVertex
100
AcDb2dVertex
 10
1562.494717389843
 20
1419.853257236363
 30
0.0
  0
VERTEX
  5
2EB
330
2A2
100
AcDbEntity
  8
化粧台
  6
CONTINUOUS
 62
     6
100
AcDbVertex
100
AcDb2dVertex
 10
1562.478780783913
 20
1419.830849668331
 30
0.0
  0
VERTEX
  5
2EC
330
2A2
100
AcDbEntity
  8
化粧台
  6
CONTINUOUS
 62
     6
100
AcDbVertex
100
AcDb2dVertex
 10
1562.462830964711
 20
1419.808697695823
 30
0.0
  0
VERTEX
  5
2ED
330
2A2
100
AcDbEntity
  8
化粧台
  6
CONTINUOUS
 62
     6
100
AcDbVertex
100
AcDb2dVertex
 10
1562.447128876465
 20
1419.787168899762
 30
0.0
  0
VERTEX
  5
2EE
330
2A2
100
AcDbEntity
  8
化粧台
  6
CONTINUOUS
 62
     6
100
AcDbVertex
100
AcDb2dVertex
 10
1562.431935463398
 20
1419.766630861071
 30
0.0
  0
VERTEX
  5
2EF
330
2A2
100
AcDbEntity
  8
化粧台
  6
CONTINUOUS
 62
     6
100
AcDbVertex
100
AcDb2dVertex
 10
1562.417511669737
 20
1419.747451160672
 30
0.0
  0
VERTEX
  5
2F0
330
2A2
100
AcDbEntity
  8
化粧台
  6
CONTINUOUS
 62
     6
100
AcDbVertex
100
AcDb2dVertex
 10
1562.404118439707
 20
1419.729997379488
 30
0.0
  0
VERTEX
  5
2F1
330
2A2
100
AcDbEntity
  8
化粧台
  6
CONTINUOUS
 62
     6
100
AcDbVertex
100
AcDb2dVertex
 10
1562.397749437975
 20
1419.721855015613
 30
0.0
  0
VERTEX
  5
2F2
330
2A2
100
AcDbEntity
  8
化粧台
  6
CONTINUOUS
 62
     6
100
AcDbVertex
100
AcDb2dVertex
 10
1562.391641274331
 20
1419.714170489086
 30
0.0
  0
VERTEX
  5
2F3
330
2A2
100
AcDbEntity
  8
化粧台
  6
CONTINUOUS
 62
     6
100
AcDbVertex
100
AcDb2dVertex
 10
1562.385718753096
 20
1419.706856935398
 30
0.0
  0
VERTEX
  5
2F4
330
2A2
100
AcDbEntity
  8
化粧台
  6
CONTINUOUS
 62
     6
100
AcDbVertex
100
AcDb2dVertex
 10
1562.379906678596
 20
1419.699827490041
 30
0.0
  0
VERTEX
  5
2F5
330
2A2
100
AcDbEntity
  8
化粧台
  6
CONTINUOUS
 62
     6
100
AcDbVertex
100
AcDb2dVertex
 10
1562.374129855154
 20
1419.692995288503
 30
0.0
  0
VERTEX
  5
2F6
330
2A2
100
AcDbEntity
  8
化粧台
  6
CONTINUOUS
 62
     6
100
AcDbVertex
100
AcDb2dVertex
 10
1562.368313087092
 20
1419.686273466276
 30
0.0
  0
VERTEX
  5
2F7
330
2A2
100
AcDbEntity
  8
化粧台
  6
CONTINUOUS
 62
     6
100
AcDbVertex
100
AcDb2dVertex
 10
1562.362381178736
 20
1419.679575158849
 30
0.0
  0
VERTEX
  5
2F8
330
2A2
100
AcDbEntity
  8
化粧台
  6
CONTINUOUS
 62
     6
100
AcDbVertex
100
AcDb2dVertex
 10
1562.356258934407
 20
1419.672813501713
 30
0.0
  0
VERTEX
  5
2F9
330
2A2
100
AcDbEntity
  8
化粧台
  6
CONTINUOUS
 62
     6
100
AcDbVertex
100
AcDb2dVertex
 10
1562.34987115843
 20
1419.665901630359
 30
0.0
  0
VERTEX
  5
2FA
330
2A2
100
AcDbEntity
  8
化粧台
  6
CONTINUOUS
 62
     6
100
AcDbVertex
100
AcDb2dVertex
 10
1562.343142655129
 20
1419.658752680276
 30
0.0
  0
VERTEX
  5
2FB
330
2A2
100
AcDbEntity
  8
化粧台
  6
CONTINUOUS
 62
     6
100
AcDbVertex
100
AcDb2dVertex
 10
1562.335998228826
 20
1419.651279786955
 30
0.0
  0
VERTEX
  5
2FC
330
2A2
100
AcDbEntity
  8
化粧台
  6
CONTINUOUS
 62
     6
100
AcDbVertex
100
AcDb2dVertex
 10
1562.3206216561
 20
1419.635493192608
 30
0.0
  0
VERTEX
  5
2FD
330
2A2
100
AcDbEntity
  8
化粧台
  6
CONTINUOUS
 62
     6
100
AcDbVertex
100
AcDb2dVertex
 10
1562.303679393805
 20
1419.618435059527
 30
0.0
  0
VERTEX
  5
2FE
330
2A2
100
AcDbEntity
  8
化粧台
  6
CONTINUOUS
 62
     6
100
AcDbVertex
100
AcDb2dVertex
 10
1562.285498902374
 20
1419.600417418746
 30
0.0
  0
VERTEX
  5
2FF
330
2A2
100
AcDbEntity
  8
化粧台
  6
CONTINUOUS
 62
     6
100
AcDbVertex
100
AcDb2dVertex
 10
1562.266407642238
 20
1419.581752301296
 30
0.0
  0
VERTEX
  5
300
330
2A2
100
AcDbEntity
  8
化粧台
  6
CONTINUOUS
 62
     6
100
AcDbVertex
100
AcDb2dVertex
 10
1562.246733073832
 20
1419.562751738207
 30
0.0
  0
VERTEX
  5
301
330
2A2
100
AcDbEntity
  8
化粧台
  6
CONTINUOUS
 62
     6
100
AcDbVertex
100
AcDb2dVertex
 10
1562.226802657587
 20
1419.543727760514
 30
0.0
  0
VERTEX
  5
302
330
2A2
100
AcDbEntity
  8
化粧台
  6
CONTINUOUS
 62
     6
100
AcDbVertex
100
AcDb2dVertex
 10
1562.206943853937
 20
1419.524992399246
 30
0.0
  0
VERTEX
  5
303
330
2A2
100
AcDbEntity
  8
化粧台
  6
CONTINUOUS
 62
     6
100
AcDbVertex
100
AcDb2dVertex
 10
1562.187484123315
 20
1419.506857685436
 30
0.0
  0
VERTEX
  5
304
330
2A2
100
AcDbEntity
  8
化粧台
  6
CONTINUOUS
 62
     6
100
AcDbVertex
100
AcDb2dVertex
 10
1562.168750926154
 20
1419.489635650115
 30
0.0
  0
VERTEX
  5
305
330
2A2
100
AcDbEntity
  8
化粧台
  6
CONTINUOUS
 62
     6
100
AcDbVertex
100
AcDb2dVertex
 10
1562.151071722885
 20
1419.473638324315
 30
0.0
  0
VERTEX
  5
306
330
2A2
100
AcDbEntity
  8
化粧台
  6
CONTINUOUS
 62
     6
100
AcDbVertex
100
AcDb2dVertex
 10
1562.134773973943
 20
1419.459177739067
 30
0.0
  0
VERTEX
  5
307
330
2A2
100
AcDbEntity
  8
化粧台
  6
CONTINUOUS
 62
     6
100
AcDbVertex
100
AcDb2dVertex
 10
1562.127248550471
 20
1419.452624431488
 30
0.0
  0
VERTEX
  5
308
330
2A2
100
AcDbEntity
  8
化粧台
  6
CONTINUOUS
 62
     6
100
AcDbVertex
100
AcDb2dVertex
 10
1562.120059232408
 20
1419.446460725757
 30
0.0
  0
VERTEX
  5
309
330
2A2
100
AcDbEntity
  8
化粧台
  6
CONTINUOUS
 62
     6
100
AcDbVertex
100
AcDb2dVertex
 10
1562.113117762915
 20
1419.440617131854
 30
0.0
  0
VERTEX
  5
30A
330
2A2
100
AcDbEntity
  8
化粧台
  6
CONTINUOUS
 62
     6
100
AcDbVertex
100
AcDb2dVertex
 10
1562.106335885153
 20
1419.435024159759
 30
0.0
  0
VERTEX
  5
30B
330
2A2
100
AcDbEntity
  8
化粧台
  6
CONTINUOUS
 62
     6
100
AcDbVertex
100
AcDb2dVertex
 10
1562.099625342281
 20
1419.429612319453
 30
0.0
  0
VERTEX
  5
30C
330
2A2
100
AcDbEntity
  8
化粧台
  6
CONTINUOUS
 62
     6
100
AcDbVertex
100
AcDb2dVertex
 10
1562.09289787746
 20
1419.424312120916
 30
0.0
  0
VERTEX
  5
30D
330
2A2
100
AcDbEntity
  8
化粧台
  6
CONTINUOUS
 62
     6
100
AcDbVertex
100
AcDb2dVertex
 10
1562.08606523385
 20
1419.419054074128
 30
0.0
  0
VERTEX
  5
30E
330
2A2
100
AcDbEntity
  8
化粧台
  6
CONTINUOUS
 62
     6
100
AcDbVertex
100
AcDb2dVertex
 10
1562.079039154611
 20
1419.413768689069
 30
0.0
  0
VERTEX
  5
30F
330
2A2
100
AcDbEntity
  8
化粧台
  6
CONTINUOUS
 62
     6
100
AcDbVertex
100
AcDb2dVertex
 10
1562.071731382903
 20
1419.408386475719
 30
0.0
  0
VERTEX
  5
310
330
2A2
100
AcDbEntity
  8
化粧台
  6
CONTINUOUS
 62
     6
100
AcDbVertex
100
AcDb2dVertex
 10
1562.064053661886
 20
1419.40283794406
 30
0.0
  0
VERTEX
  5
311
330
2A2
100
AcDbEntity
  8
化粧台
  6
CONTINUOUS
 62
     6
100
AcDbVertex
100
AcDb2dVertex
 10
1562.055917734722
 20
1419.39705360407
 30
0.0
  0
VERTEX
  5
312
330
2A2
100
AcDbEntity
  8
化粧台
  6
CONTINUOUS
 62
     6
100
AcDbVertex
100
AcDb2dVertex
 10
1562.03799599839
 20
1419.384561252097
 30
0.0
  0
VERTEX
  5
313
330
2A2
100
AcDbEntity
  8
化粧台
  6
CONTINUOUS
 62
     6
100
AcDbVertex
100
AcDb2dVertex
 10
1562.018268985012
 20
1419.371092430833
 30
0.0
  0
VERTEX
  5
314
330
2A2
100
AcDbEntity
  8
化粧台
  6
CONTINUOUS
 62
     6
100
AcDbVertex
100
AcDb2dVertex
 10
1561.997142094128
 20
1419.356905733431
 30
0.0
  0
VERTEX
  5
315
330
2A2
100
AcDbEntity
  8
化粧台
  6
CONTINUOUS
 62
     6
100
AcDbVertex
100
AcDb2dVertex
 10
1561.975020725273
 20
1419.342259753042
 30
0.0
  0
VERTEX
  5
316
330
2A2
100
AcDbEntity
  8
化粧台
  6
CONTINUOUS
 62
     6
100
AcDbVertex
100
AcDb2dVertex
 10
1561.952310277987
 20
1419.327413082819
 30
0.0
  0
VERTEX
  5
317
330
2A2
100
AcDbEntity
  8
化粧台
  6
CONTINUOUS
 62
     6
100
AcDbVertex
100
AcDb2dVertex
 10
1561.929416151806
 20
1419.312624315914
 30
0.0
  0
VERTEX
  5
318
330
2A2
100
AcDbEntity
  8
化粧台
  6
CONTINUOUS
 62
     6
100
AcDbVertex
100
AcDb2dVertex
 10
1561.906743746269
 20
1419.298152045478
 30
0.0
  0
VERTEX
  5
319
330
2A2
100
AcDbEntity
  8
化粧台
  6
CONTINUOUS
 62
     6
100
AcDbVertex
100
AcDb2dVertex
 10
1561.884698460913
 20
1419.284254864664
 30
0.0
  0
VERTEX
  5
31A
330
2A2
100
AcDbEntity
  8
化粧台
  6
CONTINUOUS
 62
     6
100
AcDbVertex
100
AcDb2dVertex
 10
1561.863685695275
 20
1419.271191366625
 30
0.0
  0
VERTEX
  5
31B
330
2A2
100
AcDbEntity
  8
化粧台
  6
CONTINUOUS
 62
     6
100
AcDbVertex
100
AcDb2dVertex
 10
1561.844110848894
 20
1419.25922014451
 30
0.0
  0
VERTEX
  5
31C
330
2A2
100
AcDbEntity
  8
化粧台
  6
CONTINUOUS
 62
     6
100
AcDbVertex
100
AcDb2dVertex
 10
1561.826379321307
 20
1419.248599791474
 30
0.0
  0
VERTEX
  5
31D
330
2A2
100
AcDbEntity
  8
化粧台
  6
CONTINUOUS
 62
     6
100
AcDbVertex
100
AcDb2dVertex
 10
1561.818195474576
 20
1419.243797970129
 30
0.0
  0
VERTEX
  5
31E
330
2A2
100
AcDbEntity
  8
化粧台
  6
CONTINUOUS
 62
     6
100
AcDbVertex
100
AcDb2dVertex
 10
1561.8104920156
 20
1419.23935679909
 30
0.0
  0
VERTEX
  5
31F
330
2A2
100
AcDbEntity
  8
化粧台
  6
CONTINUOUS
 62
     6
100
AcDbVertex
100
AcDb2dVertex
 10
1561.803170943426
 20
1419.235222961837
 30
0.0
  0
VERTEX
  5
320
330
2A2
100
AcDbEntity
  8
化粧台
  6
CONTINUOUS
 62
     6
100
AcDbVertex
100
AcDb2dVertex
 10
1561.796134257101
 20
1419.231343141852
 30
0.0
  0
VERTEX
  5
321
330
2A2
100
AcDbEntity
  8
化粧台
  6
CONTINUOUS
 62
     6
100
AcDbVertex
100
AcDb2dVertex
 10
1561.789283955668
 20
1419.227664022618
 30
0.0
  0
VERTEX
  5
322
330
2A2
100
AcDbEntity
  8
化粧台
  6
CONTINUOUS
 62
     6
100
AcDbVertex
100
AcDb2dVertex
 10
1561.782522038174
 20
1419.224132287617
 30
0.0
  0
VERTEX
  5
323
330
2A2
100
AcDbEntity
  8
化粧台
  6
CONTINUOUS
 62
     6
100
AcDbVertex
100
AcDb2dVertex
 10
1561.775750503666
 20
1419.22069462033
 30
0.0
  0
VERTEX
  5
324
330
2A2
100
AcDbEntity
  8
化粧台
  6
CONTINUOUS
 62
     6
100
AcDbVertex
100
AcDb2dVertex
 10
1561.76887135119
 20
1419.21729770424
 30
0.0
  0
VERTEX
  5
325
330
2A2
100
AcDbEntity
  8
化粧台
  6
CONTINUOUS
 62
     6
100
AcDbVertex
100
AcDb2dVertex
 10
1561.76178657979
 20
1419.213888222828
 30
0.0
  0
VERTEX
  5
326
330
2A2
100
AcDbEntity
  8
化粧台
  6
CONTINUOUS
 62
     6
100
AcDbVertex
100
AcDb2dVertex
 10
1561.754398188513
 20
1419.210412859577
 30
0.0
  0
VERTEX
  5
327
330
2A2
100
AcDbEntity
  8
化粧台
  6
CONTINUOUS
 62
     6
100
AcDbVertex
100
AcDb2dVertex
 10
1561.746608176405
 20
1419.206818297968
 30
0.0
  0
VERTEX
  5
328
330
2A2
100
AcDbEntity
  8
化粧台
  6
CONTINUOUS
 62
     6
100
AcDbVertex
100
AcDb2dVertex
 10
1561.720921424685
 20
1419.195306848089
 30
0.0
  0
VERTEX
  5
329
330
2A2
100
AcDbEntity
  8
化粧台
  6
CONTINUOUS
 62
     6
100
AcDbVertex
100
AcDb2dVertex
 10
1561.691476512219
 20
1419.182566940837
 30
0.0
  0
VERTEX
  5
32A
330
2A2
100
AcDbEntity
  8
化粧台
  6
CONTINUOUS
 62
     6
100
AcDbVertex
100
AcDb2dVertex
 10
1561.658844198888
 20
1419.16886485591
 30
0.0
  0
VERTEX
  5
32B
330
2A2
100
AcDbEntity
  8
化粧台
  6
CONTINUOUS
 62
     6
100
AcDbVertex
100
AcDb2dVertex
 10
1561.623595244574
 20
1419.154466873004
 30
0.0
  0
VERTEX
  5
32C
330
2A2
100
AcDbEntity
  8
化粧台
  6
CONTINUOUS
 62
     6
100
AcDbVertex
100
AcDb2dVertex
 10
1561.58630040916
 20
1419.139639271819
 30
0.0
  0
VERTEX
  5
32D
330
2A2
100
AcDbEntity
  8
化粧台
  6
CONTINUOUS
 62
     6
100
AcDbVertex
100
AcDb2dVertex
 10
1561.547530452527
 20
1419.124648332051
 30
0.0
  0
VERTEX
  5
32E
330
2A2
100
AcDbEntity
  8
化粧台
  6
CONTINUOUS
 62
     6
100
AcDbVertex
100
AcDb2dVertex
 10
1561.507856134557
 20
1419.109760333399
 30
0.0
  0
VERTEX
  5
32F
330
2A2
100
AcDbEntity
  8
化粧台
  6
CONTINUOUS
 62
     6
100
AcDbVertex
100
AcDb2dVertex
 10
1561.467848215133
 20
1419.095241555558
 30
0.0
  0
VERTEX
  5
330
330
2A2
100
AcDbEntity
  8
化粧台
  6
CONTINUOUS
 62
     6
100
AcDbVertex
100
AcDb2dVertex
 10
1561.428077454135
 20
1419.081358278229
 30
0.0
  0
VERTEX
  5
331
330
2A2
100
AcDbEntity
  8
化粧台
  6
CONTINUOUS
 62
     6
100
AcDbVertex
100
AcDb2dVertex
 10
1561.389114611447
 20
1419.068376781107
 30
0.0
  0
VERTEX
  5
332
330
2A2
100
AcDbEntity
  8
化粧台
  6
CONTINUOUS
 62
     6
100
AcDbVertex
100
AcDb2dVertex
 10
1561.35153044695
 20
1419.056563343891
 30
0.0
  0
VERTEX
  5
333
330
2A2
100
AcDbEntity
  8
化粧台
  6
CONTINUOUS
 62
     6
100
AcDbVertex
100
AcDb2dVertex
 10
1561.326875748687
 20
1419.049282538726
 30
0.0
  0
VERTEX
  5
334
330
2A2
100
AcDbEntity
  8
化粧台
  6
CONTINUOUS
 62
     6
100
AcDbVertex
100
AcDb2dVertex
 10
1561.302923119274
 20
1419.042642937222
 30
0.0
  0
VERTEX
  5
335
330
2A2
100
AcDbEntity
  8
化粧台
  6
CONTINUOUS
 62
     6
100
AcDbVertex
100
AcDb2dVertex
 10
1561.279464818447
 20
1419.03661633206
 30
0.0
  0
VERTEX
  5
336
330
2A2
100
AcDbEntity
  8
化粧台
  6
CONTINUOUS
 62
     6
100
AcDbVertex
100
AcDb2dVertex
 10
1561.256293105941
 20
1419.031174515924
 30
0.0
  0
VERTEX
  5
337
330
2A2
100
AcDbEntity
  8
化粧台
  6
CONTINUOUS
 62
     6
100
AcDbVertex
100
AcDb2dVertex
 10
1561.23320024149
 20
1419.026289281496
 30
0.0
  0
VERTEX
  5
338
330
2A2
100
AcDbEntity
  8
化粧台
  6
CONTINUOUS
 62
     6
100
AcDbVertex
100
AcDb2dVertex
 10
1561.20997848483
 20
1419.021932421459
 30
0.0
  0
VERTEX
  5
339
330
2A2
100
AcDbEntity
  8
化粧台
  6
CONTINUOUS
 62
     6
100
AcDbVertex
100
AcDb2dVertex
 10
1561.186420095696
 20
1419.018075728495
 30
0.0
  0
VERTEX
  5
33A
330
2A2
100
AcDbEntity
  8
化粧台
  6
CONTINUOUS
 62
     6
100
AcDbVertex
100
AcDb2dVertex
 10
1561.162317333822
 20
1419.014690995287
 30
0.0
  0
VERTEX
  5
33B
330
2A2
100
AcDbEntity
  8
化粧台
  6
CONTINUOUS
 62
     6
100
AcDbVertex
100
AcDb2dVertex
 10
1561.137462458944
 20
1419.011750014517
 30
0.0
  0
VERTEX
  5
33C
330
2A2
100
AcDbEntity
  8
化粧台
  6
CONTINUOUS
 62
     6
100
AcDbVertex
100
AcDb2dVertex
 10
1561.111647730796
 20
1419.009224578869
 30
0.0
  0
VERTEX
  5
33D
330
2A2
100
AcDbEntity
  8
化粧台
  6
CONTINUOUS
 62
     6
100
AcDbVertex
100
AcDb2dVertex
 10
1561.084665409114
 20
1419.007086481025
 30
0.0
  0
VERTEX
  5
33E
330
2A2
100
AcDbEntity
  8
化粧台
  6
CONTINUOUS
 62
     6
100
AcDbVertex
100
AcDb2dVertex
 10
1561.056772489591
 20
1419.00532417808
 30
0.0
  0
VERTEX
  5
33F
330
2A2
100
AcDbEntity
  8
化粧台
  6
CONTINUOUS
 62
     6
100
AcDbVertex
100
AcDb2dVertex
 10
1561.02823036957
 20
1419.003881325819
 30
0.0
  0
VERTEX
  5
340
330
2A2
100
AcDbEntity
  8
化粧台
  6
CONTINUOUS
 62
     6
100
AcDbVertex
100
AcDb2dVertex
 10
1560.999735561254
 20
1419.002725979176
 30
0.0
  0
VERTEX
  5
341
330
2A2
100
AcDbEntity
  8
化粧台
  6
CONTINUOUS
 62
     6
100
AcDbVertex
100
AcDb2dVertex
 10
1560.971984576845
 20
1419.00182619308
 30
0.0
  0
VERTEX
  5
342
330
2A2
100
AcDbEntity
  8
化粧台
  6
CONTINUOUS
 62
     6
100
AcDbVertex
100
AcDb2dVertex
 10
1560.945673928544
 20
1419.001150022464
 30
0.0
  0
VERTEX
  5
343
330
2A2
100
AcDbEntity
  8
化粧台
  6
CONTINUOUS
 62
     6
100
AcDbVertex
100
AcDb2dVertex
 10
1560.921500128556
 20
1419.000665522258
 30
0.0
  0
VERTEX
  5
344
330
2A2
100
AcDbEntity
  8
化粧台
  6
CONTINUOUS
 62
     6
100
AcDbVertex
100
AcDb2dVertex
 10
1560.900159689081
 20
1419.000340747396
 30
0.0
  0
VERTEX
  5
345
330
2A2
100
AcDbEntity
  8
化粧台
  6
CONTINUOUS
 62
     6
100
AcDbVertex
100
AcDb2dVertex
 10
1560.882349122322
 20
1419.000143752806
 30
0.0
  0
VERTEX
  5
346
330
2A2
100
AcDbEntity
  8
化粧台
  6
CONTINUOUS
 62
     6
100
AcDbVertex
100
AcDb2dVertex
 10
1560.868764940482
 20
1419.000042593423
 30
0.0
  0
VERTEX
  5
347
330
2A2
100
AcDbEntity
  8
化粧台
  6
CONTINUOUS
 62
     6
100
AcDbVertex
100
AcDb2dVertex
 10
1560.860103655763
 20
1419.000005324176
 30
0.0
  0
VERTEX
  5
348
330
2A2
100
AcDbEntity
  8
化粧台
  6
CONTINUOUS
 62
     6
100
AcDbVertex
100
AcDb2dVertex
 10
1560.857061780367
 20
1418.999999999998
 30
0.0
  0
SEQEND
  5
349
330
2A2
100
AcDbEntity
  8
化粧台
  6
CONTINUOUS
 62
     6
  0
POLYLINE
  5
34A
330
1F
100
AcDbEntity
  8
化粧台
  6
CONTINUOUS
 62
     6
100
AcDb2dPolyline
 66
     1
 10
0.0
 20
0.0
 30
0.0
 70
   128
  0
VERTEX
  5
34B
330
34A
100
AcDbEntity
  8
化粧台
  6
CONTINUOUS
 62
     6
100
AcDbVertex
100
AcDb2dVertex
 10
1560.857061780367
 20
1434.999999999998
 30
0.0
  0
VERTEX
  5
34C
330
34A
100
AcDbEntity
  8
化粧台
  6
CONTINUOUS
 62
     6
100
AcDbVertex
100
AcDb2dVertex
 10
1560.858597912072
 20
1434.999998837353
 30
0.0
  0
VERTEX
  5
34D
330
34A
100
AcDbEntity
  8
化粧台
  6
CONTINUOUS
 62
     6
100
AcDbVertex
100
AcDb2dVertex
 10
1560.862963488402
 20
1434.999990698833
 30
0.0
  0
VERTEX
  5
34E
330
34A
100
AcDbEntity
  8
化粧台
  6
CONTINUOUS
 62
     6
100
AcDbVertex
100
AcDb2dVertex
 10
1560.869794281178
 20
1434.999968608567
 30
0.0
  0
VERTEX
  5
34F
330
34A
100
AcDbEntity
  8
化粧台
  6
CONTINUOUS
 62
     6
100
AcDbVertex
100
AcDb2dVertex
 10
1560.878726062223
 20
1434.99992559068
 30
0.0
  0
VERTEX
  5
350
330
34A
100
AcDbEntity
  8
化粧台
  6
CONTINUOUS
 62
     6
100
AcDbVertex
100
AcDb2dVertex
 10
1560.889394603357
 20
1434.999854669298
 30
0.0
  0
VERTEX
  5
351
330
34A
100
AcDbEntity
  8
化粧台
  6
CONTINUOUS
 62
     6
100
AcDbVertex
100
AcDb2dVertex
 10
1560.901435676403
 20
1434.999748868548
 30
0.0
  0
VERTEX
  5
352
330
34A
100
AcDbEntity
  8
化粧台
  6
CONTINUOUS
 62
     6
100
AcDbVertex
100
AcDb2dVertex
 10
1560.914485053183
 20
1434.999601212557
 30
0.0
  0
VERTEX
  5
353
330
34A
100
AcDbEntity
  8
化粧台
  6
CONTINUOUS
 62
     6
100
AcDbVertex
100
AcDb2dVertex
 10
1560.928178505519
 20
1434.999404725451
 30
0.0
  0
VERTEX
  5
354
330
34A
100
AcDbEntity
  8
化粧台
  6
CONTINUOUS
 62
     6
100
AcDbVertex
100
AcDb2dVertex
 10
1560.942151805231
 20
1434.999152431355
 30
0.0
  0
VERTEX
  5
355
330
34A
100
AcDbEntity
  8
化粧台
  6
CONTINUOUS
 62
     6
100
AcDbVertex
100
AcDb2dVertex
 10
1560.956040724143
 20
1434.998837354397
 30
0.0
  0
VERTEX
  5
356
330
34A
100
AcDbEntity
  8
化粧台
  6
CONTINUOUS
 62
     6
100
AcDbVertex
100
AcDb2dVertex
 10
1560.969481034075
 20
1434.998452518703
 30
0.0
  0
VERTEX
  5
357
330
34A
100
AcDbEntity
  8
化粧台
  6
CONTINUOUS
 62
     6
100
AcDbVertex
100
AcDb2dVertex
 10
1560.982046252843
 20
1434.997996807415
 30
0.0
  0
VERTEX
  5
358
330
34A
100
AcDbEntity
  8
化粧台
  6
CONTINUOUS
 62
     6
100
AcDbVertex
100
AcDb2dVertex
 10
1560.99393536082
 20
1434.997459603632
 30
0.0
  0
VERTEX
  5
359
330
34A
100
AcDbEntity
  8
化粧台
  6
CONTINUOUS
 62
     6
100
AcDbVertex
100
AcDb2dVertex
 10
1561.005266323311
 20
1434.996834378358
 30
0.0
  0
VERTEX
  5
35A
330
34A
100
AcDbEntity
  8
化粧台
  6
CONTINUOUS
 62
     6
100
AcDbVertex
100
AcDb2dVertex
 10
1561.016157105622
 20
1434.9961146026
 30
0.0
  0
VERTEX
  5
35B
330
34A
100
AcDbEntity
  8
化粧台
  6
CONTINUOUS
 62
     6
100
AcDbVertex
100
AcDb2dVertex
 10
1561.026725673058
 20
1434.995293747364
 30
0.0
  0
VERTEX
  5
35C
330
34A
100
AcDbEntity
  8
化粧台
  6
CONTINUOUS
 62
     6
100
AcDbVertex
100
AcDb2dVertex
 10
1561.037089990924
 20
1434.994365283654
 30
0.0
  0
VERTEX
  5
35D
330
34A
100
AcDbEntity
  8
化粧台
  6
CONTINUOUS
 62
     6
100
AcDbVertex
100
AcDb2dVertex
 10
1561.047368024525
 20
1434.993322682476
 30
0.0
  0
VERTEX
  5
35E
330
34A
100
AcDbEntity
  8
化粧台
  6
CONTINUOUS
 62
     6
100
AcDbVertex
100
AcDb2dVertex
 10
1561.057677739166
 20
1434.992159414837
 30
0.0
  0
VERTEX
  5
35F
330
34A
100
AcDbEntity
  8
化粧台
  6
CONTINUOUS
 62
     6
100
AcDbVertex
100
AcDb2dVertex
 10
1561.068137100152
 20
1434.990868951741
 30
0.0
  0
VERTEX
  5
360
330
34A
100
AcDbEntity
  8
化粧台
  6
CONTINUOUS
 62
     6
100
AcDbVertex
100
AcDb2dVertex
 10
1561.078864072789
 20
1434.989444764194
 30
0.0
  0
VERTEX
  5
361
330
34A
100
AcDbEntity
  8
化粧台
  6
CONTINUOUS
 62
     6
100
AcDbVertex
100
AcDb2dVertex
 10
1561.089976622381
 20
1434.987880323202
 30
0.0
  0
VERTEX
  5
362
330
34A
100
AcDbEntity
  8
化粧台
  6
CONTINUOUS
 62
     6
100
AcDbVertex
100
AcDb2dVertex
 10
1561.113546945073
 20
1434.984335978991
 30
0.0
  0
VERTEX
  5
363
330
34A
100
AcDbEntity
  8
化粧台
  6
CONTINUOUS
 62
     6
100
AcDbVertex
100
AcDb2dVertex
 10
1561.138717080492
 20
1434.980288585306
 30
0.0
  0
VERTEX
  5
364
330
34A
100
AcDbEntity
  8
化粧台
  6
CONTINUOUS
 62
     6
100
AcDbVertex
100
AcDb2dVertex
 10
1561.165082219848
 20
1434.975819439334
 30
0.0
  0
VERTEX
  5
365
330
34A
100
AcDbEntity
  8
化粧台
  6
CONTINUOUS
 62
     6
100
AcDbVertex
100
AcDb2dVertex
 10
1561.192237554349
 20
1434.971009838256
 30
0.0
  0
VERTEX
  5
366
330
34A
100
AcDbEntity
  8
化粧台
  6
CONTINUOUS
 62
     6
100
AcDbVertex
100
AcDb2dVertex
 10
1561.219778275203
 20
1434.965941079257
 30
0.0
  0
VERTEX
  5
367
330
34A
100
AcDbEntity
  8
化粧台
  6
CONTINUOUS
 62
     6
100
AcDbVertex
100
AcDb2dVertex
 10
1561.247299573621
 20
1434.960694459523
 30
0.0
  0
VERTEX
  5
368
330
34A
100
AcDbEntity
  8
化粧台
  6
CONTINUOUS
 62
     6
100
AcDbVertex
100
AcDb2dVertex
 10
1561.274396640812
 20
1434.955351276235
 30
0.0
  0
VERTEX
  5
369
330
34A
100
AcDbEntity
  8
化粧台
  6
CONTINUOUS
 62
     6
100
AcDbVertex
100
AcDb2dVertex
 10
1561.300664667983
 20
1434.94999282658
 30
0.0
  0
VERTEX
  5
36A
330
34A
100
AcDbEntity
  8
化粧台
  6
CONTINUOUS
 62
     6
100
AcDbVertex
100
AcDb2dVertex
 10
1561.325698846345
 20
1434.944700407741
 30
0.0
  0
VERTEX
  5
36B
330
34A
100
AcDbEntity
  8
化粧台
  6
CONTINUOUS
 62
     6
100
AcDbVertex
100
AcDb2dVertex
 10
1561.349094367105
 20
1434.939555316901
 30
0.0
  0
VERTEX
  5
36C
330
34A
100
AcDbEntity
  8
化粧台
  6
CONTINUOUS
 62
     6
100
AcDbVertex
100
AcDb2dVertex
 10
1561.370446421474
 20
1434.934638851247
 30
0.0
  0
VERTEX
  5
36D
330
34A
100
AcDbEntity
  8
化粧台
  6
CONTINUOUS
 62
     6
100
AcDbVertex
100
AcDb2dVertex
 10
1561.380411168951
 20
1434.93224697854
 30
0.0
  0
VERTEX
  5
36E
330
34A
100
AcDbEntity
  8
化粧台
  6
CONTINUOUS
 62
     6
100
AcDbVertex
100
AcDb2dVertex
 10
1561.389853575891
 20
1434.92990283601
 30
0.0
  0
VERTEX
  5
36F
330
34A
100
AcDbEntity
  8
化粧台
  6
CONTINUOUS
 62
     6
100
AcDbVertex
100
AcDb2dVertex
 10
1561.398883518441
 20
1434.927574122759
 30
0.0
  0
VERTEX
  5
370
330
34A
100
AcDbEntity
  8
化粧台
  6
CONTINUOUS
 62
     6
100
AcDbVertex
100
AcDb2dVertex
 10
1561.407610872745
 20
1434.92522853789
 30
0.0
  0
VERTEX
  5
371
330
34A
100
AcDbEntity
  8
化粧台
  6
CONTINUOUS
 62
     6
100
AcDbVertex
100
AcDb2dVertex
 10
1561.416145514951
 20
1434.922833780507
 30
0.0
  0
VERTEX
  5
372
330
34A
100
AcDbEntity
  8
化粧台
  6
CONTINUOUS
 62
     6
100
AcDbVertex
100
AcDb2dVertex
 10
1561.424597321201
 20
1434.920357549711
 30
0.0
  0
VERTEX
  5
373
330
34A
100
AcDbEntity
  8
化粧台
  6
CONTINUOUS
 62
     6
100
AcDbVertex
100
AcDb2dVertex
 10
1561.433076167644
 20
1434.917767544606
 30
0.0
  0
VERTEX
  5
374
330
34A
100
AcDbEntity
  8
化粧台
  6
CONTINUOUS
 62
     6
100
AcDbVertex
100
AcDb2dVertex
 10
1561.441691930423
 20
1434.915031464295
 30
0.0
  0
VERTEX
  5
375
330
34A
100
AcDbEntity
  8
化粧台
  6
CONTINUOUS
 62
     6
100
AcDbVertex
100
AcDb2dVertex
 10
1561.450554485684
 20
1434.912117007881
 30
0.0
  0
VERTEX
  5
376
330
34A
100
AcDbEntity
  8
化粧台
  6
CONTINUOUS
 62
     6
100
AcDbVertex
100
AcDb2dVertex
 10
1561.459773709572
 20
1434.908991874465
 30
0.0
  0
VERTEX
  5
377
330
34A
100
AcDbEntity
  8
化粧台
  6
CONTINUOUS
 62
     6
100
AcDbVertex
100
AcDb2dVertex
 10
1561.469459478235
 20
1434.905623763152
 30
0.0
  0
VERTEX
  5
378
330
34A
100
AcDbEntity
  8
化粧台
  6
CONTINUOUS
 62
     6
100
AcDbVertex
100
AcDb2dVertex
 10
1561.490261023521
 20
1434.898170805706
 30
0.0
  0
VERTEX
  5
379
330
34A
100
AcDbEntity
  8
化粧台
  6
CONTINUOUS
 62
     6
100
AcDbVertex
100
AcDb2dVertex
 10
1561.51290266836
 20
1434.889806419684
 30
0.0
  0
VERTEX
  5
37A
330
34A
100
AcDbEntity
  8
化粧台
  6
CONTINUOUS
 62
     6
100
AcDbVertex
100
AcDb2dVertex
 10
1561.536958450688
 20
1434.880701369554
 30
0.0
  0
VERTEX
  5
37B
330
34A
100
AcDbEntity
  8
化粧台
  6
CONTINUOUS
 62
     6
100
AcDbVertex
100
AcDb2dVertex
 10
1561.562002408444
 20
1434.871026419788
 30
0.0
  0
VERTEX
  5
37C
330
34A
100
AcDbEntity
  8
化粧台
  6
CONTINUOUS
 62
     6
100
AcDbVertex
100
AcDb2dVertex
 10
1561.587608579565
 20
1434.860952334853
 30
0.0
  0
VERTEX
  5
37D
330
34A
100
AcDbEntity
  8
化粧台
  6
CONTINUOUS
 62
     6
100
AcDbVertex
100
AcDb2dVertex
 10
1561.61335100199
 20
1434.850649879221
 30
0.0
  0
VERTEX
  5
37E
330
34A
100
AcDbEntity
  8
化粧台
  6
CONTINUOUS
 62
     6
100
AcDbVertex
100
AcDb2dVertex
 10
1561.638803713657
 20
1434.840289817361
 30
0.0
  0
VERTEX
  5
37F
330
34A
100
AcDbEntity
  8
化粧台
  6
CONTINUOUS
 62
     6
100
AcDbVertex
100
AcDb2dVertex
 10
1561.663540752504
 20
1434.830042913743
 30
0.0
  0
VERTEX
  5
380
330
34A
100
AcDbEntity
  8
化粧台
  6
CONTINUOUS
 62
     6
100
AcDbVertex
100
AcDb2dVertex
 10
1561.687136156469
 20
1434.820079932836
 30
0.0
  0
VERTEX
  5
381
330
34A
100
AcDbEntity
  8
化粧台
  6
CONTINUOUS
 62
     6
100
AcDbVertex
100
AcDb2dVertex
 10
1561.70916396349
 20
1434.81057163911
 30
0.0
  0
VERTEX
  5
382
330
34A
100
AcDbEntity
  8
化粧台
  6
CONTINUOUS
 62
     6
100
AcDbVertex
100
AcDb2dVertex
 10
1561.729198211505
 20
1434.801688797035
 30
0.0
  0
VERTEX
  5
383
330
34A
100
AcDbEntity
  8
化粧台
  6
CONTINUOUS
 62
     6
100
AcDbVertex
100
AcDb2dVertex
 10
1561.738295080176
 20
1434.797553017823
 30
0.0
  0
VERTEX
  5
384
330
34A
100
AcDbEntity
  8
化粧台
  6
CONTINUOUS
 62
     6
100
AcDbVertex
100
AcDb2dVertex
 10
1561.746895955267
 20
1434.793561903495
 30
0.0
  0
VERTEX
  5
385
330
34A
100
AcDbEntity
  8
化粧台
  6
CONTINUOUS
 62
     6
100
AcDbVertex
100
AcDb2dVertex
 10
1561.755100852232
 20
1434.789663984251
 30
0.0
  0
VERTEX
  5
386
330
34A
100
AcDbEntity
  8
化粧台
  6
CONTINUOUS
 62
     6
100
AcDbVertex
100
AcDb2dVertex
 10
1561.763009786526
 20
1434.785807790289
 30
0.0
  0
VERTEX
  5
387
330
34A
100
AcDbEntity
  8
化粧台
  6
CONTINUOUS
 62
     6
100
AcDbVertex
100
AcDb2dVertex
 10
1561.770722773603
 20
1434.78194185181
 30
0.0
  0
VERTEX
  5
388
330
34A
100
AcDbEntity
  8
化粧台
  6
CONTINUOUS
 62
     6
100
AcDbVertex
100
AcDb2dVertex
 10
1561.77833982892
 20
1434.778014699012
 30
0.0
  0
VERTEX
  5
389
330
34A
100
AcDbEntity
  8
化粧台
  6
CONTINUOUS
 62
     6
100
AcDbVertex
100
AcDb2dVertex
 10
1561.78596096793
 20
1434.773974862095
 30
0.0
  0
VERTEX
  5
38A
330
34A
100
AcDbEntity
  8
化粧台
  6
CONTINUOUS
 62
     6
100
AcDbVertex
100
AcDb2dVertex
 10
1561.793686206087
 20
1434.769770871259
 30
0.0
  0
VERTEX
  5
38B
330
34A
100
AcDbEntity
  8
化粧台
  6
CONTINUOUS
 62
     6
100
AcDbVertex
100
AcDb2dVertex
 10
1561.801615558848
 20
1434.765351256702
 30
0.0
  0
VERTEX
  5
38C
330
34A
100
AcDbEntity
  8
化粧台
  6
CONTINUOUS
 62
     6
100
AcDbVertex
100
AcDb2dVertex
 10
1561.809849041665
 20
1434.760664548624
 30
0.0
  0
VERTEX
  5
38D
330
34A
100
AcDbEntity
  8
化粧台
  6
CONTINUOUS
 62
     6
100
AcDbVertex
100
AcDb2dVertex
 10
1561.818486669995
 20
1434.755659277225
 30
0.0
  0
VERTEX
  5
38E
330
34A
100
AcDbEntity
  8
化粧台
  6
CONTINUOUS
 62
     6
100
AcDbVertex
100
AcDb2dVertex
 10
1561.837210767239
 20
1434.744576574424
 30
0.0
  0
VERTEX
  5
38F
330
34A
100
AcDbEntity
  8
化粧台
  6
CONTINUOUS
 62
     6
100
AcDbVertex
100
AcDb2dVertex
 10
1561.857578544474
 20
1434.732252079218
 30
0.0
  0
VERTEX
  5
390
330
34A
100
AcDbEntity
  8
化粧台
  6
CONTINUOUS
 62
     6
100
AcDbVertex
100
AcDb2dVertex
 10
1561.879210302153
 20
1434.718929075392
 30
0.0
  0
VERTEX
  5
391
330
34A
100
AcDbEntity
  8
化粧台
  6
CONTINUOUS
 62
     6
100
AcDbVertex
100
AcDb2dVertex
 10
1561.901726340731
 20
1434.704850846731
 30
0.0
  0
VERTEX
  5
392
330
34A
100
AcDbEntity
  8
化粧台
  6
CONTINUOUS
 62
     6
100
AcDbVertex
100
AcDb2dVertex
 10
1561.924746960663
 20
1434.690260677019
 30
0.0
  0
VERTEX
  5
393
330
34A
100
AcDbEntity
  8
化粧台
  6
CONTINUOUS
 62
     6
100
AcDbVertex
100
AcDb2dVertex
 10
1561.947892462404
 20
1434.675401850041
 30
0.0
  0
VERTEX
  5
394
330
34A
100
AcDbEntity
  8
化粧台
  6
CONTINUOUS
 62
     6
100
AcDbVertex
100
AcDb2dVertex
 10
1561.970783146406
 20
1434.66051764958
 30
0.0
  0
VERTEX
  5
395
330
34A
100
AcDbEntity
  8
化粧台
  6
CONTINUOUS
 62
     6
100
AcDbVertex
100
AcDb2dVertex
 10
1561.993039313125
 20
1434.645851359422
 30
0.0
  0
VERTEX
  5
396
330
34A
100
AcDbEntity
  8
化粧台
  6
CONTINUOUS
 62
     6
100
AcDbVertex
100
AcDb2dVertex
 10
1562.014281263015
 20
1434.63164626335
 30
0.0
  0
VERTEX
  5
397
330
34A
100
AcDbEntity
  8
化粧台
  6
CONTINUOUS
 62
     6
100
AcDbVertex
100
AcDb2dVertex
 10
1562.034129296531
 20
1434.618145645149
 30
0.0
  0
VERTEX
  5
398
330
34A
100
AcDbEntity
  8
化粧台
  6
CONTINUOUS
 62
     6
100
AcDbVertex
100
AcDb2dVertex
 10
1562.052203714127
 20
1434.605592788605
 30
0.0
  0
VERTEX
  5
399
330
34A
100
AcDbEntity
  8
化粧台
  6
CONTINUOUS
 62
     6
100
AcDbVertex
100
AcDb2dVertex
 10
1562.060639910238
 20
1434.599616900608
 30
0.0
  0
VERTEX
  5
39A
330
34A
100
AcDbEntity
  8
化粧台
  6
CONTINUOUS
 62
     6
100
AcDbVertex
100
AcDb2dVertex
 10
1562.068606365342
 20
1434.593879818128
 30
0.0
  0
VERTEX
  5
39B
330
34A
100
AcDbEntity
  8
化粧台
  6
CONTINUOUS
 62
     6
100
AcDbVertex
100
AcDb2dVertex
 10
1562.076193422069
 20
1434.588310552283
 30
0.0
  0
VERTEX
  5
39C
330
34A
100
AcDbEntity
  8
化粧台
  6
CONTINUOUS
 62
     6
100
AcDbVertex
100
AcDb2dVertex
 10
1562.083491423052
 20
1434.582838114191
 30
0.0
  0
VERTEX
  5
39D
330
34A
100
AcDbEntity
  8
化粧台
  6
CONTINUOUS
 62
     6
100
AcDbVertex
100
AcDb2dVertex
 10
1562.090590710922
 20
1434.577391514975
 30
0.0
  0
VERTEX
  5
39E
330
34A
100
AcDbEntity
  8
化粧台
  6
CONTINUOUS
 62
     6
100
AcDbVertex
100
AcDb2dVertex
 10
1562.097581628311
 20
1434.571899765752
 30
0.0
  0
VERTEX
  5
39F
330
34A
100
AcDbEntity
  8
化粧台
  6
CONTINUOUS
 62
     6
100
AcDbVertex
100
AcDb2dVertex
 10
1562.10455451785
 20
1434.566291877641
 30
0.0
  0
VERTEX
  5
3A0
330
34A
100
AcDbEntity
  8
化粧台
  6
CONTINUOUS
 62
     6
100
AcDbVertex
100
AcDb2dVertex
 10
1562.111599722171
 20
1434.560496861763
 30
0.0
  0
VERTEX
  5
3A1
330
34A
100
AcDbEntity
  8
化粧台
  6
CONTINUOUS
 62
     6
100
AcDbVertex
100
AcDb2dVertex
 10
1562.118807583907
 20
1434.554443729237
 30
0.0
  0
VERTEX
  5
3A2
330
34A
100
AcDbEntity
  8
化粧台
  6
CONTINUOUS
 62
     6
100
AcDbVertex
100
AcDb2dVertex
 10
1562.126268445687
 20
1434.548061491182
 30
0.0
  0
VERTEX
  5
3A3
330
34A
100
AcDbEntity
  8
化粧台
  6
CONTINUOUS
 62
     6
100
AcDbVertex
100
AcDb2dVertex
 10
1562.134072650145
 20
1434.541279158717
 30
0.0
  0
VERTEX
  5
3A4
330
34A
100
AcDbEntity
  8
化粧台
  6
CONTINUOUS
 62
     6
100
AcDbVertex
100
AcDb2dVertex
 10
1562.150568778362
 20
1434.526671310874
 30
0.0
  0
VERTEX
  5
3A5
330
34A
100
AcDbEntity
  8
化粧台
  6
CONTINUOUS
 62
     6
100
AcDbVertex
100
AcDb2dVertex
 10
1562.168408819283
 20
1434.510560511705
 30
0.0
  0
VERTEX
  5
3A6
330
34A
100
AcDbEntity
  8
化粧台
  6
CONTINUOUS
 62
     6
100
AcDbVertex
100
AcDb2dVertex
 10
1562.18726566824
 20
1434.493258924076
 30
0.0
  0
VERTEX
  5
3A7
330
34A
100
AcDbEntity
  8
化粧台
  6
CONTINUOUS
 62
     6
100
AcDbVertex
100
AcDb2dVertex
 10
1562.206812220566
 20
1434.47507871086
 30
0.0
  0
VERTEX
  5
3A8
330
34A
100
AcDbEntity
  8
化粧台
  6
CONTINUOUS
 62
     6
100
AcDbVertex
100
AcDb2dVertex
 10
1562.226721371594
 20
1434.456332034923
 30
0.0
  0
VERTEX
  5
3A9
330
34A
100
AcDbEntity
  8
化粧台
  6
CONTINUOUS
 62
     6
100
AcDbVertex
100
AcDb2dVertex
 10
1562.246666016655
 20
1434.437331059137
 30
0.0
  0
VERTEX
  5
3AA
330
34A
100
AcDbEntity
  8
化粧台
  6
CONTINUOUS
 62
     6
100
AcDbVertex
100
AcDb2dVertex
 10
1562.266319051082
 20
1434.418387946372
 30
0.0
  0
VERTEX
  5
3AB
330
34A
100
AcDbEntity
  8
化粧台
  6
CONTINUOUS
 62
     6
100
AcDbVertex
100
AcDb2dVertex
 10
1562.285353370207
 20
1434.399814859494
 30
0.0
  0
VERTEX
  5
3AC
330
34A
100
AcDbEntity
  8
化粧台
  6
CONTINUOUS
 62
     6
100
AcDbVertex
100
AcDb2dVertex
 10
1562.303441869363
 20
1434.381923961376
 30
0.0
  0
VERTEX
  5
3AD
330
34A
100
AcDbEntity
  8
化粧台
  6
CONTINUOUS
 62
     6
100
AcDbVertex
100
AcDb2dVertex
 10
1562.320257443884
 20
1434.365027414886
 30
0.0
  0
VERTEX
  5
3AE
330
34A
100
AcDbEntity
  8
化粧台
  6
CONTINUOUS
 62
     6
100
AcDbVertex
100
AcDb2dVertex
 10
1562.3354729891
 20
1434.349437382893
 30
0.0
  0
VERTEX
  5
3AF
330
34A
100
AcDbEntity
  8
化粧台
  6
CONTINUOUS
 62
     6
100
AcDbVertex
100
AcDb2dVertex
 10
1562.342376151876
 20
1434.342231767479
 30
0.0
  0
VERTEX
  5
3B0
330
34A
100
AcDbEntity
  8
化粧台
  6
CONTINUOUS
 62
     6
100
AcDbVertex
100
AcDb2dVertex
 10
1562.348874232712
 20
1434.335343352472
 30
0.0
  0
VERTEX
  5
3B1
330
34A
100
AcDbEntity
  8
化粧台
  6
CONTINUOUS
 62
     6
100
AcDbVertex
100
AcDb2dVertex
 10
1562.355040838843
 20
1434.328687267981
 30
0.0
  0
VERTEX
  5
3B2
330
34A
100
AcDbEntity
  8
化粧台
  6
CONTINUOUS
 62
     6
100
AcDbVertex
100
AcDb2dVertex
 10
1562.360949577504
 20
1434.322178644114
 30
0.0
  0
VERTEX
  5
3B3
330
34A
100
AcDbEntity
  8
化粧台
  6
CONTINUOUS
 62
     6
100
AcDbVertex
100
AcDb2dVertex
 10
1562.366674055929
 20
1434.315732610979
 30
0.0
  0
VERTEX
  5
3B4
330
34A
100
AcDbEntity
  8
化粧台
  6
CONTINUOUS
 62
     6
100
AcDbVertex
100
AcDb2dVertex
 10
1562.372287881353
 20
1434.309264298686
 30
0.0
  0
VERTEX
  5
3B5
330
34A
100
AcDbEntity
  8
化粧台
  6
CONTINUOUS
 62
     6
100
AcDbVertex
100
AcDb2dVertex
 10
1562.37786466101
 20
1434.302688837341
 30
0.0
  0
VERTEX
  5
3B6
330
34A
100
AcDbEntity
  8
化粧台
  6
CONTINUOUS
 62
     6
100
AcDbVertex
100
AcDb2dVertex
 10
1562.383478002135
 20
1434.295921357055
 30
0.0
  0
VERTEX
  5
3B7
330
34A
100
AcDbEntity
  8
化粧台
  6
CONTINUOUS
 62
     6
100
AcDbVertex
100
AcDb2dVertex
 10
1562.389201511964
 20
1434.288876987934
 30
0.0
  0
VERTEX
  5
3B8
330
34A
100
AcDbEntity
  8
化粧台
  6
CONTINUOUS
 62
     6
100
AcDbVertex
100
AcDb2dVertex
 10
1562.395108797728
 20
1434.281470860087
 30
0.0
  0
VERTEX
  5
3B9
330
34A
100
AcDbEntity
  8
化粧台
  6
CONTINUOUS
 62
     6
100
AcDbVertex
100
AcDb2dVertex
 10
1562.401273466665
 20
1434.273618103624
 30
0.0
  0
VERTEX
  5
3BA
330
34A
100
AcDbEntity
  8
化粧台
  6
CONTINUOUS
 62
     6
100
AcDbVertex
100
AcDb2dVertex
 10
1562.41460607216
 20
1434.256305323804
 30
0.0
  0
VERTEX
  5
3BB
330
34A
100
AcDbEntity
  8
化粧台
  6
CONTINUOUS
 62
     6
100
AcDbVertex
100
AcDb2dVertex
 10
1562.429000312875
 20
1434.237234740041
 30
0.0
  0
VERTEX
  5
3BC
330
34A
100
AcDbEntity
  8
化粧台
  6
CONTINUOUS
 62
     6
100
AcDbVertex
100
AcDb2dVertex
 10
1562.444178434023
 20
1434.216799317047
 30
0.0
  0
VERTEX
  5
3BD
330
34A
100
AcDbEntity
  8
化粧台
  6
CONTINUOUS
 62
     6
100
AcDbVertex
100
AcDb2dVertex
 10
1562.459862680817
 20
1434.195392019536
 30
0.0
  0
VERTEX
  5
3BE
330
34A
100
AcDbEntity
  8
化粧台
  6
CONTINUOUS
 62
     6
100
AcDbVertex
100
AcDb2dVertex
 10
1562.475775298471
 20
1434.173405812219
 30
0.0
  0
VERTEX
  5
3BF
330
34A
100
AcDbEntity
  8
化粧台
  6
CONTINUOUS
 62
     6
100
AcDbVertex
100
AcDb2dVertex
 10
1562.491638532197
 20
1434.15123365981
 30
0.0
  0
VERTEX
  5
3C0
330
34A
100
AcDbEntity
  8
化粧台
  6
CONTINUOUS
 62
     6
100
AcDbVertex
100
AcDb2dVertex
 10
1562.50717462721
 20
1434.12926852702
 30
0.0
  0
VERTEX
  5
3C1
330
34A
100
AcDbEntity
  8
化粧台
  6
CONTINUOUS
 62
     6
100
AcDbVertex
100
AcDb2dVertex
 10
1562.522105828722
 20
1434.107903378563
 30
0.0
  0
VERTEX
  5
3C2
330
34A
100
AcDbEntity
  8
化粧台
  6
CONTINUOUS
 62
     6
100
AcDbVertex
100
AcDb2dVertex
 10
1562.536154381947
 20
1434.08753117915
 30
0.0
  0
VERTEX
  5
3C3
330
34A
100
AcDbEntity
  8
化粧台
  6
CONTINUOUS
 62
     6
100
AcDbVertex
100
AcDb2dVertex
 10
1562.549042532097
 20
1434.068544893494
 30
0.0
  0
VERTEX
  5
3C4
330
34A
100
AcDbEntity
  8
化粧台
  6
CONTINUOUS
 62
     6
100
AcDbVertex
100
AcDb2dVertex
 10
1562.560492524387
 20
1434.051337486308
 30
0.0
  0
VERTEX
  5
3C5
330
34A
100
AcDbEntity
  8
化粧台
  6
CONTINUOUS
 62
     6
100
AcDbVertex
100
AcDb2dVertex
 10
1562.565673135478
 20
1434.043397230001
 30
0.0
  0
VERTEX
  5
3C6
330
34A
100
AcDbEntity
  8
化粧台
  6
CONTINUOUS
 62
     6
100
AcDbVertex
100
AcDb2dVertex
 10
1562.570470930782
 20
1434.035919461466
 30
0.0
  0
VERTEX
  5
3C7
330
34A
100
AcDbEntity
  8
化粧台
  6
CONTINUOUS
 62
     6
100
AcDbVertex
100
AcDb2dVertex
 10
1562.574943788659
 20
1434.028808878672
 30
0.0
  0
VERTEX
  5
3C8
330
34A
100
AcDbEntity
  8
化粧台
  6
CONTINUOUS
 62
     6
100
AcDbVertex
100
AcDb2dVertex
 10
1562.579149587468
 20
1434.021970179589
 30
0.0
  0
VERTEX
  5
3C9
330
34A
100
AcDbEntity
  8
化粧台
  6
CONTINUOUS
 62
     6
100
AcDbVertex
100
AcDb2dVertex
 10
1562.583146205569
 20
1434.015308062185
 30
0.0
  0
VERTEX
  5
3CA
330
34A
100
AcDbEntity
  8
化粧台
  6
CONTINUOUS
 62
     6
100
AcDbVertex
100
AcDb2dVertex
 10
1562.586991521322
 20
1434.008727224432
 30
0.0
  0
VERTEX
  5
3CB
330
34A
100
AcDbEntity
  8
化粧台
  6
CONTINUOUS
 62
     6
100
AcDbVertex
100
AcDb2dVertex
 10
1562.590743413086
 20
1434.002132364296
 30
0.0
  0
VERTEX
  5
3CC
330
34A
100
AcDbEntity
  8
化粧台
  6
CONTINUOUS
 62
     6
100
AcDbVertex
100
AcDb2dVertex
 10
1562.594459759222
 20
1433.99542817975
 30
0.0
  0
VERTEX
  5
3CD
330
34A
100
AcDbEntity
  8
化粧台
  6
CONTINUOUS
 62
     6
100
AcDbVertex
100
AcDb2dVertex
 10
1562.598198438087
 20
1433.988519368761
 30
0.0
  0
VERTEX
  5
3CE
330
34A
100
AcDbEntity
  8
化粧台
  6
CONTINUOUS
 62
     6
100
AcDbVertex
100
AcDb2dVertex
 10
1562.602017328042
 20
1433.981310629299
 30
0.0
  0
VERTEX
  5
3CF
330
34A
100
AcDbEntity
  8
化粧台
  6
CONTINUOUS
 62
     6
100
AcDbVertex
100
AcDb2dVertex
 10
1562.605974307446
 20
1433.973706659334
 30
0.0
  0
VERTEX
  5
3D0
330
34A
100
AcDbEntity
  8
化粧台
  6
CONTINUOUS
 62
     6
100
AcDbVertex
100
AcDb2dVertex
 10
1562.618685550092
 20
1433.948609530433
 30
0.0
  0
VERTEX
  5
3D1
330
34A
100
AcDbEntity
  8
化粧台
  6
CONTINUOUS
 62
     6
100
AcDbVertex
100
AcDb2dVertex
 10
1562.632802606821
 20
1433.919817283037
 30
0.0
  0
VERTEX
  5
3D2
330
34A
100
AcDbEntity
  8
化粧台
  6
CONTINUOUS
 62
     6
100
AcDbVertex
100
AcDb2dVertex
 10
1562.648032455877
 20
1433.887887202416
 30
0.0
  0
VERTEX
  5
3D3
330
34A
100
AcDbEntity
  8
化粧台
  6
CONTINUOUS
 62
     6
100
AcDbVertex
100
AcDb2dVertex
 10
1562.664082075508
 20
1433.853376573839
 30
0.0
  0
VERTEX
  5
3D4
330
34A
100
AcDbEntity
  8
化粧台
  6
CONTINUOUS
 62
     6
100
AcDbVertex
100
AcDb2dVertex
 10
1562.680658443958
 20
1433.816842682575
 30
0.0
  0
VERTEX
  5
3D5
330
34A
100
AcDbEntity
  8
化粧台
  6
CONTINUOUS
 62
     6
100
AcDbVertex
100
AcDb2dVertex
 10
1562.697468539474
 20
1433.778842813894
 30
0.0
  0
VERTEX
  5
3D6
330
34A
100
AcDbEntity
  8
化粧台
  6
CONTINUOUS
 62
     6
100
AcDbVertex
100
AcDb2dVertex
 10
1562.714219340301
 20
1433.739934253064
 30
0.0
  0
VERTEX
  5
3D7
330
34A
100
AcDbEntity
  8
化粧台
  6
CONTINUOUS
 62
     6
100
AcDbVertex
100
AcDb2dVertex
 10
1562.730617824684
 20
1433.700674285356
 30
0.0
  0
VERTEX
  5
3D8
330
34A
100
AcDbEntity
  8
化粧台
  6
CONTINUOUS
 62
     6
100
AcDbVertex
100
AcDb2dVertex
 10
1562.74637097087
 20
1433.661620196038
 30
0.0
  0
VERTEX
  5
3D9
330
34A
100
AcDbEntity
  8
化粧台
  6
CONTINUOUS
 62
     6
100
AcDbVertex
100
AcDb2dVertex
 10
1562.761185757105
 20
1433.623329270379
 30
0.0
  0
VERTEX
  5
3DA
330
34A
100
AcDbEntity
  8
化粧台
  6
CONTINUOUS
 62
     6
100
AcDbVertex
100
AcDb2dVertex
 10
1562.774769161633
 20
1433.586358793649
 30
0.0
  0
VERTEX
  5
3DB
330
34A
100
AcDbEntity
  8
化粧台
  6
CONTINUOUS
 62
     6
100
AcDbVertex
100
AcDb2dVertex
 10
1562.783213727262
 20
1433.56207894555
 30
0.0
  0
VERTEX
  5
3DC
330
34A
100
AcDbEntity
  8
化粧台
  6
CONTINUOUS
 62
     6
100
AcDbVertex
100
AcDb2dVertex
 10
1562.790984598653
 20
1433.538469723463
 30
0.0
  0
VERTEX
  5
3DD
330
34A
100
AcDbEntity
  8
化粧台
  6
CONTINUOUS
 62
     6
100
AcDbVertex
100
AcDb2dVertex
 10
1562.798119823385
 20
1433.515325041963
 30
0.0
  0
VERTEX
  5
3DE
330
34A
100
AcDbEntity
  8
化粧台
  6
CONTINUOUS
 62
     6
100
AcDbVertex
100
AcDb2dVertex
 10
1562.804657449034
 20
1433.492438815628
 30
0.0
  0
VERTEX
  5
3DF
330
34A
100
AcDbEntity
  8
化粧台
  6
CONTINUOUS
 62
     6
100
AcDbVertex
100
AcDb2dVertex
 10
1562.81063552318
 20
1433.469604959032
 30
0.0
  0
VERTEX
  5
3E0
330
34A
100
AcDbEntity
  8
化粧台
  6
CONTINUOUS
 62
     6
100
AcDbVertex
100
AcDb2dVertex
 10
1562.816092093399
 20
1433.446617386752
 30
0.0
  0
VERTEX
  5
3E1
330
34A
100
AcDbEntity
  8
化粧台
  6
CONTINUOUS
 62
     6
100
AcDbVertex
100
AcDb2dVertex
 10
1562.821065207269
 20
1433.423270013364
 30
0.0
  0
VERTEX
  5
3E2
330
34A
100
AcDbEntity
  8
化粧台
  6
CONTINUOUS
 62
     6
100
AcDbVertex
100
AcDb2dVertex
 10
1562.825592912369
 20
1433.399356753443
 30
0.0
  0
VERTEX
  5
3E3
330
34A
100
AcDbEntity
  8
化粧台
  6
CONTINUOUS
 62
     6
100
AcDbVertex
100
AcDb2dVertex
 10
1562.829713256276
 20
1433.374671521565
 30
0.0
  0
VERTEX
  5
3E4
330
34A
100
AcDbEntity
  8
化粧台
  6
CONTINUOUS
 62
     6
100
AcDbVertex
100
AcDb2dVertex
 10
1562.833464286567
 20
1433.349008232306
 30
0.0
  0
VERTEX
  5
3E5
330
34A
100
AcDbEntity
  8
化粧台
  6
CONTINUOUS
 62
     6
100
AcDbVertex
100
AcDb2dVertex
 10
1562.836884050821
 20
1433.322160800243
 30
0.0
  0
VERTEX
  5
3E6
330
34A
100
AcDbEntity
  8
化粧台
  6
CONTINUOUS
 62
     6
100
AcDbVertex
100
AcDb2dVertex
 10
1562.839971226247
 20
1433.29439232744
 30
0.0
  0
VERTEX
  5
3E7
330
34A
100
AcDbEntity
  8
化粧台
  6
CONTINUOUS
 62
     6
100
AcDbVertex
100
AcDb2dVertex
 10
1562.842770357955
 20
1433.265961016649
 30
0.0
  0
VERTEX
  5
3E8
330
34A
100
AcDbEntity
  8
化粧台
  6
CONTINUOUS
 62
     6
100
AcDbVertex
100
AcDb2dVertex
 10
1562.84528018742
 20
1433.237563756267
 30
0.0
  0
VERTEX
  5
3E9
330
34A
100
AcDbEntity
  8
化粧台
  6
CONTINUOUS
 62
     6
100
AcDbVertex
100
AcDb2dVertex
 10
1562.847499456122
 20
1433.209897434686
 30
0.0
  0
VERTEX
  5
3EA
330
34A
100
AcDbEntity
  8
化粧台
  6
CONTINUOUS
 62
     6
100
AcDbVertex
100
AcDb2dVertex
 10
1562.849426905538
 20
1433.183658940302
 30
0.0
  0
VERTEX
  5
3EB
330
34A
100
AcDbEntity
  8
化粧台
  6
CONTINUOUS
 62
     6
100
AcDbVertex
100
AcDb2dVertex
 10
1562.851061277144
 20
1433.15954516151
 30
0.0
  0
VERTEX
  5
3EC
330
34A
100
AcDbEntity
  8
化粧台
  6
CONTINUOUS
 62
     6
100
AcDbVertex
100
AcDb2dVertex
 10
1562.852401312417
 20
1433.138252986704
 30
0.0
  0
VERTEX
  5
3ED
330
34A
100
AcDbEntity
  8
化粧台
  6
CONTINUOUS
 62
     6
100
AcDbVertex
100
AcDb2dVertex
 10
1562.853445752837
 20
1433.120479304279
 30
0.0
  0
VERTEX
  5
3EE
330
34A
100
AcDbEntity
  8
化粧台
  6
CONTINUOUS
 62
     6
100
AcDbVertex
100
AcDb2dVertex
 10
1562.854193339878
 20
1433.10692100263
 30
0.0
  0
VERTEX
  5
3EF
330
34A
100
AcDbEntity
  8
化粧台
  6
CONTINUOUS
 62
     6
100
AcDbVertex
100
AcDb2dVertex
 10
1562.85464281502
 20
1433.098274970151
 30
0.0
  0
VERTEX
  5
3F0
330
34A
100
AcDbEntity
  8
化粧台
  6
CONTINUOUS
 62
     6
100
AcDbVertex
100
AcDb2dVertex
 10
1562.854792919739
 20
1433.095238095237
 30
0.0
  0
SEQEND
  5
3F1
330
34A
100
AcDbEntity
  8
化粧台
  6
CONTINUOUS
 62
     6
  0
LINE
  5
3F2
330
1F
100
AcDbEntity
  8
化粧台
  6
CONTINUOUS
 62
     6
100
AcDbLine
 10
1549.999999999949
 20
1434.999999999998
 30
0.0
 11
1560.857061780367
 21
1434.999999999998
 31
0.0
  0
LINE
  5
3F3
330
1F
100
AcDbEntity
  8
化粧台
  6
CONTINUOUS
 62
     6
100
AcDbLine
 10
1549.999999999949
 20
1434.055118110235
 30
0.0
 11
1549.999999999949
 21
1434.999999999998
 31
0.0
  0
LINE
  5
3F4
330
1F
100
AcDbEntity
  8
化粧台
  6
CONTINUOUS
 62
     6
100
AcDbLine
 10
1560.857061780367
 20
1418.999999999998
 30
0.0
 11
1549.999999999949
 21
1418.999999999998
 31
0.0
  0
LINE
  5
3F5
330
1F
100
AcDbEntity
  8
化粧台
  6
CONTINUOUS
 62
     6
100
AcDbLine
 10
1549.999999999949
 20
1418.999999999998
 30
0.0
 11
1549.999999999949
 21
1419.944881889763
 31
0.0
  0
LINE
  5
3F6
330
1F
100
AcDbEntity
  8
化粧台
  6
CONTINUOUS
 62
     6
100
AcDbLine
 10
1438.999999999949
 20
1418.999999999998
 30
0.0
 11
1549.999999999949
 21
1418.999999999998
 31
0.0
  0
LINE
  5
3F7
330
1F
100
AcDbEntity
  8
化粧台
  6
CONTINUOUS
 62
     6
100
AcDbLine
 10
1549.999999999949
 20
1434.999999999998
 30
0.0
 11
1438.999999999949
 21
1434.999999999998
 31
0.0
  0
LINE
  5
3F8
330
1F
100
AcDbEntity
  8
化粧台
  6
CONTINUOUS
 62
     6
100
AcDbLine
 10
1438.999999999949
 20
1418.999999999998
 30
0.0
 11
1438.999999999949
 21
1434.999999999998
 31
0.0
  0
LINE
  5
3F9
330
1F
100
AcDbEntity
  8
化粧台
  6
CONTINUOUS
 62
     6
100
AcDbLine
 10
1438.999999999949
 20
1419.944881889763
 30
0.0
 11
1438.999999999949
 21
1434.055118110235
 31
0.0
  0
ARC
  5
3FA
330
1F
100
AcDbEntity
  8
化粧台
  6
CONTINUOUS
 62
     6
100
AcDbCircle
 10
1553.999999999949
 20
1426.999999999998
 30
0.0
 40
128.0
100
AcDbArc
 50
177.2705973632219
 51
182.7294026367813
  0
POLYLINE
  5
3FB
330
1F
100
AcDbEntity
  8
化粧台
  6
CONTINUOUS
 62
     6
100
AcDb2dPolyline
 66
     1
 10
0.0
 20
0.0
 30
0.0
 70
   128
  0
VERTEX
  5
3FC
330
3FB
100
AcDbEntity
  8
化粧台
  6
CONTINUOUS
 62
     6
100
AcDbVertex
100
AcDb2dVertex
 10
1426.145207080159
 20
1433.095238095237
 30
0.0
  0
VERTEX
  5
3FD
330
3FB
100
AcDbEntity
  8
化粧台
  6
CONTINUOUS
 62
     6
100
AcDbVertex
100
AcDb2dVertex
 10
1426.145281371812
 20
1433.096772046249
 30
0.0
  0
VERTEX
  5
3FE
330
3FB
100
AcDbEntity
  8
化粧台
  6
CONTINUOUS
 62
     6
100
AcDbVertex
100
AcDb2dVertex
 10
1426.145497329905
 20
1433.101131194596
 30
0.0
  0
VERTEX
  5
3FF
330
3FB
100
AcDbEntity
  8
化粧台
  6
CONTINUOUS
 62
     6
100
AcDbVertex
100
AcDb2dVertex
 10
1426.145844579145
 20
1433.107951483241
 30
0.0
  0
VERTEX
  5
400
330
3FB
100
AcDbEntity
  8
化粧台
  6
CONTINUOUS
 62
     6
100
AcDbVertex
100
AcDb2dVertex
 10
1426.146312744235
 20
1433.116868855147
 30
0.0
  0
VERTEX
  5
401
330
3FB
100
AcDbEntity
  8
化粧台
  6
CONTINUOUS
 62
     6
100
AcDbVertex
100
AcDb2dVertex
 10
1426.146891449882
 20
1433.127519253278
 30
0.0
  0
VERTEX
  5
402
330
3FB
100
AcDbEntity
  8
化粧台
  6
CONTINUOUS
 62
     6
100
AcDbVertex
100
AcDb2dVertex
 10
1426.147570320789
 20
1433.139538620598
 30
0.0
  0
VERTEX
  5
403
330
3FB
100
AcDbEntity
  8
化粧台
  6
CONTINUOUS
 62
     6
100
AcDbVertex
100
AcDb2dVertex
 10
1426.14833898166
 20
1433.15256290007
 30
0.0
  0
VERTEX
  5
404
330
3FB
100
AcDbEntity
  8
化粧台
  6
CONTINUOUS
 62
     6
100
AcDbVertex
100
AcDb2dVertex
 10
1426.149187057202
 20
1433.166228034657
 30
0.0
  0
VERTEX
  5
405
330
3FB
100
AcDbEntity
  8
化粧台
  6
CONTINUOUS
 62
     6
100
AcDbVertex
100
AcDb2dVertex
 10
1426.150104172119
 20
1433.180169967323
 30
0.0
  0
VERTEX
  5
406
330
3FB
100
AcDbEntity
  8
化粧台
  6
CONTINUOUS
 62
     6
100
AcDbVertex
100
AcDb2dVertex
 10
1426.151079951115
 20
1433.194024641031
 30
0.0
  0
VERTEX
  5
407
330
3FB
100
AcDbEntity
  8
化粧台
  6
CONTINUOUS
 62
     6
100
AcDbVertex
100
AcDb2dVertex
 10
1426.152104018895
 20
1433.207427998746
 30
0.0
  0
VERTEX
  5
408
330
3FB
100
AcDbEntity
  8
化粧台
  6
CONTINUOUS
 62
     6
100
AcDbVertex
100
AcDb2dVertex
 10
1426.153157167162
 20
1433.2199538723
 30
0.0
  0
VERTEX
  5
409
330
3FB
100
AcDbEntity
  8
化粧台
  6
CONTINUOUS
 62
     6
100
AcDbVertex
100
AcDb2dVertex
 10
1426.1542594866
 20
1433.231800713027
 30
0.0
  0
VERTEX
  5
40A
330
3FB
100
AcDbEntity
  8
化粧台
  6
CONTINUOUS
 62
     6
100
AcDbVertex
100
AcDb2dVertex
 10
1426.155423111331
 20
1433.243086012218
 30
0.0
  0
VERTEX
  5
40B
330
3FB
100
AcDbEntity
  8
化粧台
  6
CONTINUOUS
 62
     6
100
AcDbVertex
100
AcDb2dVertex
 10
1426.156660175481
 20
1433.253927261163
 30
0.0
  0
VERTEX
  5
40C
330
3FB
100
AcDbEntity
  8
化粧台
  6
CONTINUOUS
 62
     6
100
AcDbVertex
100
AcDb2dVertex
 10
1426.157982813174
 20
1433.264441951154
 30
0.0
  0
VERTEX
  5
40D
330
3FB
100
AcDbEntity
  8
化粧台
  6
CONTINUOUS
 62
     6
100
AcDbVertex
100
AcDb2dVertex
 10
1426.159403158533
 20
1433.274747573482
 30
0.0
  0
VERTEX
  5
40E
330
3FB
100
AcDbEntity
  8
化粧台
  6
CONTINUOUS
 62
     6
100
AcDbVertex
100
AcDb2dVertex
 10
1426.160933345682
 20
1433.284961619437
 30
0.0
  0
VERTEX
  5
40F
330
3FB
100
AcDbEntity
  8
化粧台
  6
CONTINUOUS
 62
     6
100
AcDbVertex
100
AcDb2dVertex
 10
1426.162585508747
 20
1433.295201580311
 30
0.0
  0
VERTEX
  5
410
330
3FB
100
AcDbEntity
  8
化粧台
  6
CONTINUOUS
 62
     6
100
AcDbVertex
100
AcDb2dVertex
 10
1426.16437178185
 20
1433.305584947396
 30
0.0
  0
VERTEX
  5
411
330
3FB
100
AcDbEntity
  8
化粧台
  6
CONTINUOUS
 62
     6
100
AcDbVertex
100
AcDb2dVertex
 10
1426.166304299117
 20
1433.31622921198
 30
0.0
  0
VERTEX
  5
412
330
3FB
100
AcDbEntity
  8
化粧台
  6
CONTINUOUS
 62
     6
100
AcDbVertex
100
AcDb2dVertex
 10
1426.16839519467
 20
1433.327251865356
 30
0.0
  0
VERTEX
  5
413
330
3FB
100
AcDbEntity
  8
化粧台
  6
CONTINUOUS
 62
     6
100
AcDbVertex
100
AcDb2dVertex
 10
1426.173055695752
 20
1433.350620295062
 30
0.0
  0
VERTEX
  5
414
330
3FB
100
AcDbEntity
  8
化粧台
  6
CONTINUOUS
 62
     6
100
AcDbVertex
100
AcDb2dVertex
 10
1426.178294540614
 20
1433.375562351921
 30
0.0
  0
VERTEX
  5
415
330
3FB
100
AcDbEntity
  8
化粧台
  6
CONTINUOUS
 62
     6
100
AcDbVertex
100
AcDb2dVertex
 10
1426.184011285492
 20
1433.401677629526
 30
0.0
  0
VERTEX
  5
416
330
3FB
100
AcDbEntity
  8
化粧台
  6
CONTINUOUS
 62
     6
100
AcDbVertex
100
AcDb2dVertex
 10
1426.190105486625
 20
1433.428565721463
 30
0.0
  0
VERTEX
  5
417
330
3FB
100
AcDbEntity
  8
化粧台
  6
CONTINUOUS
 62
     6
100
AcDbVertex
100
AcDb2dVertex
 10
1426.196476700247
 20
1433.455826221322
 30
0.0
  0
VERTEX
  5
418
330
3FB
100
AcDbEntity
  8
化粧台
  6
CONTINUOUS
 62
     6
100
AcDbVertex
100
AcDb2dVertex
 10
1426.203024482597
 20
1433.483058722694
 30
0.0
  0
VERTEX
  5
419
330
3FB
100
AcDbEntity
  8
化粧台
  6
CONTINUOUS
 62
     6
100
AcDbVertex
100
AcDb2dVertex
 10
1426.20964838991
 20
1433.509862819167
 30
0.0
  0
VERTEX
  5
41A
330
3FB
100
AcDbEntity
  8
化粧台
  6
CONTINUOUS
 62
     6
100
AcDbVertex
100
AcDb2dVertex
 10
1426.216247978425
 20
1433.53583810433
 30
0.0
  0
VERTEX
  5
41B
330
3FB
100
AcDbEntity
  8
化粧台
  6
CONTINUOUS
 62
     6
100
AcDbVertex
100
AcDb2dVertex
 10
1426.222722804377
 20
1433.560584171774
 30
0.0
  0
VERTEX
  5
41C
330
3FB
100
AcDbEntity
  8
化粧台
  6
CONTINUOUS
 62
     6
100
AcDbVertex
100
AcDb2dVertex
 10
1426.228972424003
 20
1433.583700615087
 30
0.0
  0
VERTEX
  5
41D
330
3FB
100
AcDbEntity
  8
化粧台
  6
CONTINUOUS
 62
     6
100
AcDbVertex
100
AcDb2dVertex
 10
1426.234896393541
 20
1433.604787027859
 30
0.0
  0
VERTEX
  5
41E
330
3FB
100
AcDbEntity
  8
化粧台
  6
CONTINUOUS
 62
     6
100
AcDbVertex
100
AcDb2dVertex
 10
1426.237757922969
 20
1433.6146219922
 30
0.0
  0
VERTEX
  5
41F
330
3FB
100
AcDbEntity
  8
化粧台
  6
CONTINUOUS
 62
     6
100
AcDbVertex
100
AcDb2dVertex
 10
1426.240546921731
 20
1433.62393765584
 30
0.0
  0
VERTEX
  5
420
330
3FB
100
AcDbEntity
  8
化粧台
  6
CONTINUOUS
 62
     6
100
AcDbVertex
100
AcDb2dVertex
 10
1426.24330086658
 20
1433.632842199759
 30
0.0
  0
VERTEX
  5
421
330
3FB
100
AcDbEntity
  8
化粧台
  6
CONTINUOUS
 62
     6
100
AcDbVertex
100
AcDb2dVertex
 10
1426.246057234265
 20
1433.641443804934
 30
0.0
  0
VERTEX
  5
422
330
3FB
100
AcDbEntity
  8
化粧台
  6
CONTINUOUS
 62
     6
100
AcDbVertex
100
AcDb2dVertex
 10
1426.248853501536
 20
1433.649850652344
 30
0.0
  0
VERTEX
  5
423
330
3FB
100
AcDbEntity
  8
化粧台
  6
CONTINUOUS
 62
     6
100
AcDbVertex
100
AcDb2dVertex
 10
1426.251727145145
 20
1433.658170922967
 30
0.0
  0
VERTEX
  5
424
330
3FB
100
AcDbEntity
  8
化粧台
  6
CONTINUOUS
 62
     6
100
AcDbVertex
100
AcDb2dVertex
 10
1426.254715641841
 20
1433.666512797783
 30
0.0
  0
VERTEX
  5
425
330
3FB
100
AcDbEntity
  8
化粧台
  6
CONTINUOUS
 62
     6
100
AcDbVertex
100
AcDb2dVertex
 10
1426.257856468374
 20
1433.674984457769
 30
0.0
  0
VERTEX
  5
426
330
3FB
100
AcDbEntity
  8
化粧台
  6
CONTINUOUS
 62
     6
100
AcDbVertex
100
AcDb2dVertex
 10
1426.261187101496
 20
1433.683694083904
 30
0.0
  0
VERTEX
  5
427
330
3FB
100
AcDbEntity
  8
化粧台
  6
CONTINUOUS
 62
     6
100
AcDbVertex
100
AcDb2dVertex
 10
1426.264745017955
 20
1433.692749857168
 30
0.0
  0
VERTEX
  5
428
330
3FB
100
AcDbEntity
  8
化粧台
  6
CONTINUOUS
 62
     6
100
AcDbVertex
100
AcDb2dVertex
 10
1426.268567694503
 20
1433.702259958537
 30
0.0
  0
VERTEX
  5
429
330
3FB
100
AcDbEntity
  8
化粧台
  6
CONTINUOUS
 62
     6
100
AcDbVertex
100
AcDb2dVertex
 10
1426.276999348984
 20
1433.722680609996
 30
0.0
  0
VERTEX
  5
42A
330
3FB
100
AcDbEntity
  8
化粧台
  6
CONTINUOUS
 62
     6
100
AcDbVertex
100
AcDb2dVertex
 10
1426.286429054822
 20
1433.744896535704
 30
0.0
  0
VERTEX
  5
42B
330
3FB
100
AcDbEntity
  8
化粧台
  6
CONTINUOUS
 62
     6
100
AcDbVertex
100
AcDb2dVertex
 10
1426.296665968383
 20
1433.768490294086
 30
0.0
  0
VERTEX
  5
42C
330
3FB
100
AcDbEntity
  8
化粧台
  6
CONTINUOUS
 62
     6
100
AcDbVertex
100
AcDb2dVertex
 10
1426.307519246027
 20
1433.793044443566
 30
0.0
  0
VERTEX
  5
42D
330
3FB
100
AcDbEntity
  8
化粧台
  6
CONTINUOUS
 62
     6
100
AcDbVertex
100
AcDb2dVertex
 10
1426.318798044118
 20
1433.818141542569
 30
0.0
  0
VERTEX
  5
42E
330
3FB
100
AcDbEntity
  8
化粧台
  6
CONTINUOUS
 62
     6
100
AcDbVertex
100
AcDb2dVertex
 10
1426.330311519021
 20
1433.843364149522
 30
0.0
  0
VERTEX
  5
42F
330
3FB
100
AcDbEntity
  8
化粧台
  6
CONTINUOUS
 62
     6
100
AcDbVertex
100
AcDb2dVertex
 10
1426.341868827096
 20
1433.868294822848
 30
0.0
  0
VERTEX
  5
430
330
3FB
100
AcDbEntity
  8
化粧台
  6
CONTINUOUS
 62
     6
100
AcDbVertex
100
AcDb2dVertex
 10
1426.353279124708
 20
1433.892516120973
 30
0.0
  0
VERTEX
  5
431
330
3FB
100
AcDbEntity
  8
化粧台
  6
CONTINUOUS
 62
     6
100
AcDbVertex
100
AcDb2dVertex
 10
1426.364351568219
 20
1433.915610602323
 30
0.0
  0
VERTEX
  5
432
330
3FB
100
AcDbEntity
  8
化粧台
  6
CONTINUOUS
 62
     6
100
AcDbVertex
100
AcDb2dVertex
 10
1426.374895313993
 20
1433.937160825321
 30
0.0
  0
VERTEX
  5
433
330
3FB
100
AcDbEntity
  8
化粧台
  6
CONTINUOUS
 62
     6
100
AcDbVertex
100
AcDb2dVertex
 10
1426.384719518393
 20
1433.956749348394
 30
0.0
  0
VERTEX
  5
434
330
3FB
100
AcDbEntity
  8
化粧台
  6
CONTINUOUS
 62
     6
100
AcDbVertex
100
AcDb2dVertex
 10
1426.389282244479
 20
1433.965638242149
 30
0.0
  0
VERTEX
  5
435
330
3FB
100
AcDbEntity
  8
化粧台
  6
CONTINUOUS
 62
     6
100
AcDbVertex
100
AcDb2dVertex
 10
1426.39367689781
 20
1433.974038602769
 30
0.0
  0
VERTEX
  5
436
330
3FB
100
AcDbEntity
  8
化粧台
  6
CONTINUOUS
 62
     6
100
AcDbVertex
100
AcDb2dVertex
 10
1426.397959631861
 20
1433.982047875501
 30
0.0
  0
VERTEX
  5
437
330
3FB
100
AcDbEntity
  8
化粧台
  6
CONTINUOUS
 62
     6
100
AcDbVertex
100
AcDb2dVertex
 10
1426.402186600109
 20
1433.989763505591
 30
0.0
  0
VERTEX
  5
438
330
3FB
100
AcDbEntity
  8
化粧台
  6
CONTINUOUS
 62
     6
100
AcDbVertex
100
AcDb2dVertex
 10
1426.406413956029
 20
1433.997282938285
 30
0.0
  0
VERTEX
  5
439
330
3FB
100
AcDbEntity
  8
化粧台
  6
CONTINUOUS
 62
     6
100
AcDbVertex
100
AcDb2dVertex
 10
1426.410697853099
 20
1434.004703618828
 30
0.0
  0
VERTEX
  5
43A
330
3FB
100
AcDbEntity
  8
化粧台
  6
CONTINUOUS
 62
     6
100
AcDbVertex
100
AcDb2dVertex
 10
1426.415094444794
 20
1434.012122992468
 30
0.0
  0
VERTEX
  5
43B
330
3FB
100
AcDbEntity
  8
化粧台
  6
CONTINUOUS
 62
     6
100
AcDbVertex
100
AcDb2dVertex
 10
1426.419659884592
 20
1434.01963850445
 30
0.0
  0
VERTEX
  5
43C
330
3FB
100
AcDbEntity
  8
化粧台
  6
CONTINUOUS
 62
     6
100
AcDbVertex
100
AcDb2dVertex
 10
1426.424450325968
 20
1434.027347600021
 30
0.0
  0
VERTEX
  5
43D
330
3FB
100
AcDbEntity
  8
化粧台
  6
CONTINUOUS
 62
     6
100
AcDbVertex
100
AcDb2dVertex
 10
1426.429521922398
 20
1434.035347724426
 30
0.0
  0
VERTEX
  5
43E
330
3FB
100
AcDbEntity
  8
化粧台
  6
CONTINUOUS
 62
     6
100
AcDbVertex
100
AcDb2dVertex
 10
1426.434930827359
 20
1434.043736322912
 30
0.0
  0
VERTEX
  5
43F
330
3FB
100
AcDbEntity
  8
化粧台
  6
CONTINUOUS
 62
     6
100
AcDbVertex
100
AcDb2dVertex
 10
1426.446887203552
 20
1434.061908154722
 30
0.0
  0
VERTEX
  5
440
330
3FB
100
AcDbEntity
  8
化粧台
  6
CONTINUOUS
 62
     6
100
AcDbVertex
100
AcDb2dVertex
 10
1426.460161514144
 20
1434.081662295623
 30
0.0
  0
VERTEX
  5
441
330
3FB
100
AcDbEntity
  8
化粧台
  6
CONTINUOUS
 62
     6
100
AcDbVertex
100
AcDb2dVertex
 10
1426.474492814909
 20
1434.10263116469
 30
0.0
  0
VERTEX
  5
442
330
3FB
100
AcDbEntity
  8
化粧台
  6
CONTINUOUS
 62
     6
100
AcDbVertex
100
AcDb2dVertex
 10
1426.489620161621
 20
1434.124447181002
 30
0.0
  0
VERTEX
  5
443
330
3FB
100
AcDbEntity
  8
化粧台
  6
CONTINUOUS
 62
     6
100
AcDbVertex
100
AcDb2dVertex
 10
1426.505282610055
 20
1434.146742763635
 30
0.0
  0
VERTEX
  5
444
330
3FB
100
AcDbEntity
  8
化粧台
  6
CONTINUOUS
 62
     6
100
AcDbVertex
100
AcDb2dVertex
 10
1426.521219215985
 20
1434.169150331667
 30
0.0
  0
VERTEX
  5
445
330
3FB
100
AcDbEntity
  8
化粧台
  6
CONTINUOUS
 62
     6
100
AcDbVertex
100
AcDb2dVertex
 10
1426.537169035187
 20
1434.191302304174
 30
0.0
  0
VERTEX
  5
446
330
3FB
100
AcDbEntity
  8
化粧台
  6
CONTINUOUS
 62
     6
100
AcDbVertex
100
AcDb2dVertex
 10
1426.552871123434
 20
1434.212831100235
 30
0.0
  0
VERTEX
  5
447
330
3FB
100
AcDbEntity
  8
化粧台
  6
CONTINUOUS
 62
     6
100
AcDbVertex
100
AcDb2dVertex
 10
1426.5680645365
 20
1434.233369138926
 30
0.0
  0
VERTEX
  5
448
330
3FB
100
AcDbEntity
  8
化粧台
  6
CONTINUOUS
 62
     6
100
AcDbVertex
100
AcDb2dVertex
 10
1426.582488330162
 20
1434.252548839325
 30
0.0
  0
VERTEX
  5
449
330
3FB
100
AcDbEntity
  8
化粧台
  6
CONTINUOUS
 62
     6
100
AcDbVertex
100
AcDb2dVertex
 10
1426.595881560192
 20
1434.270002620509
 30
0.0
  0
VERTEX
  5
44A
330
3FB
100
AcDbEntity
  8
化粧台
  6
CONTINUOUS
 62
     6
100
AcDbVertex
100
AcDb2dVertex
 10
1426.602250561923
 20
1434.278144984384
 30
0.0
  0
VERTEX
  5
44B
330
3FB
100
AcDbEntity
  8
化粧台
  6
CONTINUOUS
 62
     6
100
AcDbVertex
100
AcDb2dVertex
 10
1426.608358725568
 20
1434.285829510912
 30
0.0
  0
VERTEX
  5
44C
330
3FB
100
AcDbEntity
  8
化粧台
  6
CONTINUOUS
 62
     6
100
AcDbVertex
100
AcDb2dVertex
 10
1426.614281246802
 20
1434.293143064599
 30
0.0
  0
VERTEX
  5
44D
330
3FB
100
AcDbEntity
  8
化粧台
  6
CONTINUOUS
 62
     6
100
AcDbVertex
100
AcDb2dVertex
 10
1426.620093321302
 20
1434.300172509956
 30
0.0
  0
VERTEX
  5
44E
330
3FB
100
AcDbEntity
  8
化粧台
  6
CONTINUOUS
 62
     6
100
AcDbVertex
100
AcDb2dVertex
 10
1426.625870144744
 20
1434.307004711494
 30
0.0
  0
VERTEX
  5
44F
330
3FB
100
AcDbEntity
  8
化粧台
  6
CONTINUOUS
 62
     6
100
AcDbVertex
100
AcDb2dVertex
 10
1426.631686912806
 20
1434.313726533721
 30
0.0
  0
VERTEX
  5
450
330
3FB
100
AcDbEntity
  8
化粧台
  6
CONTINUOUS
 62
     6
100
AcDbVertex
100
AcDb2dVertex
 10
1426.637618821163
 20
1434.320424841148
 30
0.0
  0
VERTEX
  5
451
330
3FB
100
AcDbEntity
  8
化粧台
  6
CONTINUOUS
 62
     6
100
AcDbVertex
100
AcDb2dVertex
 10
1426.643741065491
 20
1434.327186498284
 30
0.0
  0
VERTEX
  5
452
330
3FB
100
AcDbEntity
  8
化粧台
  6
CONTINUOUS
 62
     6
100
AcDbVertex
100
AcDb2dVertex
 10
1426.650128841468
 20
1434.334098369638
 30
0.0
  0
VERTEX
  5
453
330
3FB
100
AcDbEntity
  8
化粧台
  6
CONTINUOUS
 62
     6
100
AcDbVertex
100
AcDb2dVertex
 10
1426.65685734477
 20
1434.341247319721
 30
0.0
  0
VERTEX
  5
454
330
3FB
100
AcDbEntity
  8
化粧台
  6
CONTINUOUS
 62
     6
100
AcDbVertex
100
AcDb2dVertex
 10
1426.664001771073
 20
1434.348720213042
 30
0.0
  0
VERTEX
  5
455
330
3FB
100
AcDbEntity
  8
化粧台
  6
CONTINUOUS
 62
     6
100
AcDbVertex
100
AcDb2dVertex
 10
1426.679378343798
 20
1434.36450680739
 30
0.0
  0
VERTEX
  5
456
330
3FB
100
AcDbEntity
  8
化粧台
  6
CONTINUOUS
 62
     6
100
AcDbVertex
100
AcDb2dVertex
 10
1426.696320606093
 20
1434.38156494047
 30
0.0
  0
VERTEX
  5
457
330
3FB
100
AcDbEntity
  8
化粧台
  6
CONTINUOUS
 62
     6
100
AcDbVertex
100
AcDb2dVertex
 10
1426.714501097525
 20
1434.399582581251
 30
0.0
  0
VERTEX
  5
458
330
3FB
100
AcDbEntity
  8
化粧台
  6
CONTINUOUS
 62
     6
100
AcDbVertex
100
AcDb2dVertex
 10
1426.73359235766
 20
1434.418247698702
 30
0.0
  0
VERTEX
  5
459
330
3FB
100
AcDbEntity
  8
化粧台
  6
CONTINUOUS
 62
     6
100
AcDbVertex
100
AcDb2dVertex
 10
1426.753266926066
 20
1434.437248261789
 30
0.0
  0
VERTEX
  5
45A
330
3FB
100
AcDbEntity
  8
化粧台
  6
CONTINUOUS
 62
     6
100
AcDbVertex
100
AcDb2dVertex
 10
1426.773197342311
 20
1434.456272239483
 30
0.0
  0
VERTEX
  5
45B
330
3FB
100
AcDbEntity
  8
化粧台
  6
CONTINUOUS
 62
     6
100
AcDbVertex
100
AcDb2dVertex
 10
1426.793056145961
 20
1434.475007600751
 30
0.0
  0
VERTEX
  5
45C
330
3FB
100
AcDbEntity
  8
化粧台
  6
CONTINUOUS
 62
     6
100
AcDbVertex
100
AcDb2dVertex
 10
1426.812515876583
 20
1434.493142314561
 30
0.0
  0
VERTEX
  5
45D
330
3FB
100
AcDbEntity
  8
化粧台
  6
CONTINUOUS
 62
     6
100
AcDbVertex
100
AcDb2dVertex
 10
1426.831249073745
 20
1434.510364349882
 30
0.0
  0
VERTEX
  5
45E
330
3FB
100
AcDbEntity
  8
化粧台
  6
CONTINUOUS
 62
     6
100
AcDbVertex
100
AcDb2dVertex
 10
1426.848928277013
 20
1434.526361675683
 30
0.0
  0
VERTEX
  5
45F
330
3FB
100
AcDbEntity
  8
化粧台
  6
CONTINUOUS
 62
     6
100
AcDbVertex
100
AcDb2dVertex
 10
1426.865226025955
 20
1434.54082226093
 30
0.0
  0
VERTEX
  5
460
330
3FB
100
AcDbEntity
  8
化粧台
  6
CONTINUOUS
 62
     6
100
AcDbVertex
100
AcDb2dVertex
 10
1426.872751449428
 20
1434.547375568509
 30
0.0
  0
VERTEX
  5
461
330
3FB
100
AcDbEntity
  8
化粧台
  6
CONTINUOUS
 62
     6
100
AcDbVertex
100
AcDb2dVertex
 10
1426.87994076749
 20
1434.55353927424
 30
0.0
  0
VERTEX
  5
462
330
3FB
100
AcDbEntity
  8
化粧台
  6
CONTINUOUS
 62
     6
100
AcDbVertex
100
AcDb2dVertex
 10
1426.886882236983
 20
1434.559382868143
 30
0.0
  0
VERTEX
  5
463
330
3FB
100
AcDbEntity
  8
化粧台
  6
CONTINUOUS
 62
     6
100
AcDbVertex
100
AcDb2dVertex
 10
1426.893664114745
 20
1434.564975840238
 30
0.0
  0
VERTEX
  5
464
330
3FB
100
AcDbEntity
  8
化粧台
  6
CONTINUOUS
 62
     6
100
AcDbVertex
100
AcDb2dVertex
 10
1426.900374657617
 20
1434.570387680544
 30
0.0
  0
VERTEX
  5
465
330
3FB
100
AcDbEntity
  8
化粧台
  6
CONTINUOUS
 62
     6
100
AcDbVertex
100
AcDb2dVertex
 10
1426.907102122438
 20
1434.575687879081
 30
0.0
  0
VERTEX
  5
466
330
3FB
100
AcDbEntity
  8
化粧台
  6
CONTINUOUS
 62
     6
100
AcDbVertex
100
AcDb2dVertex
 10
1426.913934766048
 20
1434.580945925869
 30
0.0
  0
VERTEX
  5
467
330
3FB
100
AcDbEntity
  8
化粧台
  6
CONTINUOUS
 62
     6
100
AcDbVertex
100
AcDb2dVertex
 10
1426.920960845287
 20
1434.586231310928
 30
0.0
  0
VERTEX
  5
468
330
3FB
100
AcDbEntity
  8
化粧台
  6
CONTINUOUS
 62
     6
100
AcDbVertex
100
AcDb2dVertex
 10
1426.928268616996
 20
1434.591613524277
 30
0.0
  0
VERTEX
  5
469
330
3FB
100
AcDbEntity
  8
化粧台
  6
CONTINUOUS
 62
     6
100
AcDbVertex
100
AcDb2dVertex
 10
1426.935946338012
 20
1434.597162055937
 30
0.0
  0
VERTEX
  5
46A
330
3FB
100
AcDbEntity
  8
化粧台
  6
CONTINUOUS
 62
     6
100
AcDbVertex
100
AcDb2dVertex
 10
1426.944082265177
 20
1434.602946395928
 30
0.0
  0
VERTEX
  5
46B
330
3FB
100
AcDbEntity
  8
化粧台
  6
CONTINUOUS
 62
     6
100
AcDbVertex
100
AcDb2dVertex
 10
1426.962004001509
 20
1434.615438747901
 30
0.0
  0
VERTEX
  5
46C
330
3FB
100
AcDbEntity
  8
化粧台
  6
CONTINUOUS
 62
     6
100
AcDbVertex
100
AcDb2dVertex
 10
1426.981731014886
 20
1434.628907569164
 30
0.0
  0
VERTEX
  5
46D
330
3FB
100
AcDbEntity
  8
化粧台
  6
CONTINUOUS
 62
     6
100
AcDbVertex
100
AcDb2dVertex
 10
1427.002857905771
 20
1434.643094266566
 30
0.0
  0
VERTEX
  5
46E
330
3FB
100
AcDbEntity
  8
化粧台
  6
CONTINUOUS
 62
     6
100
AcDbVertex
100
AcDb2dVertex
 10
1427.024979274625
 20
1434.657740246955
 30
0.0
  0
VERTEX
  5
46F
330
3FB
100
AcDbEntity
  8
化粧台
  6
CONTINUOUS
 62
     6
100
AcDbVertex
100
AcDb2dVertex
 10
1427.047689721911
 20
1434.672586917178
 30
0.0
  0
VERTEX
  5
470
330
3FB
100
AcDbEntity
  8
化粧台
  6
CONTINUOUS
 62
     6
100
AcDbVertex
100
AcDb2dVertex
 10
1427.070583848092
 20
1434.687375684083
 30
0.0
  0
VERTEX
  5
471
330
3FB
100
AcDbEntity
  8
化粧台
  6
CONTINUOUS
 62
     6
100
AcDbVertex
100
AcDb2dVertex
 10
1427.093256253629
 20
1434.701847954519
 30
0.0
  0
VERTEX
  5
472
330
3FB
100
AcDbEntity
  8
化粧台
  6
CONTINUOUS
 62
     6
100
AcDbVertex
100
AcDb2dVertex
 10
1427.115301538985
 20
1434.715745135332
 30
0.0
  0
VERTEX
  5
473
330
3FB
100
AcDbEntity
  8
化粧台
  6
CONTINUOUS
 62
     6
100
AcDbVertex
100
AcDb2dVertex
 10
1427.136314304623
 20
1434.728808633373
 30
0.0
  0
VERTEX
  5
474
330
3FB
100
AcDbEntity
  8
化粧台
  6
CONTINUOUS
 62
     6
100
AcDbVertex
100
AcDb2dVertex
 10
1427.155889151004
 20
1434.740779855487
 30
0.0
  0
VERTEX
  5
475
330
3FB
100
AcDbEntity
  8
化粧台
  6
CONTINUOUS
 62
     6
100
AcDbVertex
100
AcDb2dVertex
 10
1427.173620678591
 20
1434.751400208523
 30
0.0
  0
VERTEX
  5
476
330
3FB
100
AcDbEntity
  8
化粧台
  6
CONTINUOUS
 62
     6
100
AcDbVertex
100
AcDb2dVertex
 10
1427.181804525322
 20
1434.756202029867
 30
0.0
  0
VERTEX
  5
477
330
3FB
100
AcDbEntity
  8
化粧台
  6
CONTINUOUS
 62
     6
100
AcDbVertex
100
AcDb2dVertex
 10
1427.189507984298
 20
1434.760643200907
 30
0.0
  0
VERTEX
  5
478
330
3FB
100
AcDbEntity
  8
化粧台
  6
CONTINUOUS
 62
     6
100
AcDbVertex
100
AcDb2dVertex
 10
1427.196829056471
 20
1434.76477703816
 30
0.0
  0
VERTEX
  5
479
330
3FB
100
AcDbEntity
  8
化粧台
  6
CONTINUOUS
 62
     6
100
AcDbVertex
100
AcDb2dVertex
 10
1427.203865742798
 20
1434.768656858145
 30
0.0
  0
VERTEX
  5
47A
330
3FB
100
AcDbEntity
  8
化粧台
  6
CONTINUOUS
 62
     6
100
AcDbVertex
100
AcDb2dVertex
 10
1427.21071604423
 20
1434.772335977379
 30
0.0
  0
VERTEX
  5
47B
330
3FB
100
AcDbEntity
  8
化粧台
  6
CONTINUOUS
 62
     6
100
AcDbVertex
100
AcDb2dVertex
 10
1427.217477961724
 20
1434.77586771238
 30
0.0
  0
VERTEX
  5
47C
330
3FB
100
AcDbEntity
  8
化粧台
  6
CONTINUOUS
 62
     6
100
AcDbVertex
100
AcDb2dVertex
 10
1427.224249496232
 20
1434.779305379667
 30
0.0
  0
VERTEX
  5
47D
330
3FB
100
AcDbEntity
  8
化粧台
  6
CONTINUOUS
 62
     6
100
AcDbVertex
100
AcDb2dVertex
 10
1427.231128648709
 20
1434.782702295757
 30
0.0
  0
VERTEX
  5
47E
330
3FB
100
AcDbEntity
  8
化粧台
  6
CONTINUOUS
 62
     6
100
AcDbVertex
100
AcDb2dVertex
 10
1427.238213420108
 20
1434.786111777169
 30
0.0
  0
VERTEX
  5
47F
330
3FB
100
AcDbEntity
  8
化粧台
  6
CONTINUOUS
 62
     6
100
AcDbVertex
100
AcDb2dVertex
 10
1427.245601811385
 20
1434.789587140421
 30
0.0
  0
VERTEX
  5
480
330
3FB
100
AcDbEntity
  8
化粧台
  6
CONTINUOUS
 62
     6
100
AcDbVertex
100
AcDb2dVertex
 10
1427.253391823493
 20
1434.793181702029
 30
0.0
  0
VERTEX
  5
481
330
3FB
100
AcDbEntity
  8
化粧台
  6
CONTINUOUS
 62
     6
100
AcDbVertex
100
AcDb2dVertex
 10
1427.279078575213
 20
1434.804693151908
 30
0.0
  0
VERTEX
  5
482
330
3FB
100
AcDbEntity
  8
化粧台
  6
CONTINUOUS
 62
     6
100
AcDbVertex
100
AcDb2dVertex
 10
1427.30852348768
 20
1434.81743305916
 30
0.0
  0
VERTEX
  5
483
330
3FB
100
AcDbEntity
  8
化粧台
  6
CONTINUOUS
 62
     6
100
AcDbVertex
100
AcDb2dVertex
 10
1427.34115580101
 20
1434.831135144088
 30
0.0
  0
VERTEX
  5
484
330
3FB
100
AcDbEntity
  8
化粧台
  6
CONTINUOUS
 62
     6
100
AcDbVertex
100
AcDb2dVertex
 10
1427.376404755324
 20
1434.845533126993
 30
0.0
  0
VERTEX
  5
485
330
3FB
100
AcDbEntity
  8
化粧台
  6
CONTINUOUS
 62
     6
100
AcDbVertex
100
AcDb2dVertex
 10
1427.413699590738
 20
1434.860360728178
 30
0.0
  0
VERTEX
  5
486
330
3FB
100
AcDbEntity
  8
化粧台
  6
CONTINUOUS
 62
     6
100
AcDbVertex
100
AcDb2dVertex
 10
1427.452469547371
 20
1434.875351667946
 30
0.0
  0
VERTEX
  5
487
330
3FB
100
AcDbEntity
  8
化粧台
  6
CONTINUOUS
 62
     6
100
AcDbVertex
100
AcDb2dVertex
 10
1427.492143865341
 20
1434.890239666598
 30
0.0
  0
VERTEX
  5
488
330
3FB
100
AcDbEntity
  8
化粧台
  6
CONTINUOUS
 62
     6
100
AcDbVertex
100
AcDb2dVertex
 10
1427.532151784766
 20
1434.904758444438
 30
0.0
  0
VERTEX
  5
489
330
3FB
100
AcDbEntity
  8
化粧台
  6
CONTINUOUS
 62
     6
100
AcDbVertex
100
AcDb2dVertex
 10
1427.571922545763
 20
1434.918641721768
 30
0.0
  0
VERTEX
  5
48A
330
3FB
100
AcDbEntity
  8
化粧台
  6
CONTINUOUS
 62
     6
100
AcDbVertex
100
AcDb2dVertex
 10
1427.610885388451
 20
1434.93162321889
 30
0.0
  0
VERTEX
  5
48B
330
3FB
100
AcDbEntity
  8
化粧台
  6
CONTINUOUS
 62
     6
100
AcDbVertex
100
AcDb2dVertex
 10
1427.648469552948
 20
1434.943436656106
 30
0.0
  0
VERTEX
  5
48C
330
3FB
100
AcDbEntity
  8
化粧台
  6
CONTINUOUS
 62
     6
100
AcDbVertex
100
AcDb2dVertex
 10
1427.673124251211
 20
1434.950717461271
 30
0.0
  0
VERTEX
  5
48D
330
3FB
100
AcDbEntity
  8
化粧台
  6
CONTINUOUS
 62
     6
100
AcDbVertex
100
AcDb2dVertex
 10
1427.697076880624
 20
1434.957357062775
 30
0.0
  0
VERTEX
  5
48E
330
3FB
100
AcDbEntity
  8
化粧台
  6
CONTINUOUS
 62
     6
100
AcDbVertex
100
AcDb2dVertex
 10
1427.720535181451
 20
1434.963383667937
 30
0.0
  0
VERTEX
  5
48F
330
3FB
100
AcDbEntity
  8
化粧台
  6
CONTINUOUS
 62
     6
100
AcDbVertex
100
AcDb2dVertex
 10
1427.743706893958
 20
1434.968825484073
 30
0.0
  0
VERTEX
  5
490
330
3FB
100
AcDbEntity
  8
化粧台
  6
CONTINUOUS
 62
     6
100
AcDbVertex
100
AcDb2dVertex
 10
1427.766799758408
 20
1434.973710718501
 30
0.0
  0
VERTEX
  5
491
330
3FB
100
AcDbEntity
  8
化粧台
  6
CONTINUOUS
 62
     6
100
AcDbVertex
100
AcDb2dVertex
 10
1427.790021515068
 20
1434.978067578538
 30
0.0
  0
VERTEX
  5
492
330
3FB
100
AcDbEntity
  8
化粧台
  6
CONTINUOUS
 62
     6
100
AcDbVertex
100
AcDb2dVertex
 10
1427.813579904202
 20
1434.981924271502
 30
0.0
  0
VERTEX
  5
493
330
3FB
100
AcDbEntity
  8
化粧台
  6
CONTINUOUS
 62
     6
100
AcDbVertex
100
AcDb2dVertex
 10
1427.837682666076
 20
1434.98530900471
 30
0.0
  0
VERTEX
  5
494
330
3FB
100
AcDbEntity
  8
化粧台
  6
CONTINUOUS
 62
     6
100
AcDbVertex
100
AcDb2dVertex
 10
1427.862537540954
 20
1434.988249985479
 30
0.0
  0
VERTEX
  5
495
330
3FB
100
AcDbEntity
  8
化粧台
  6
CONTINUOUS
 62
     6
100
AcDbVertex
100
AcDb2dVertex
 10
1427.888352269102
 20
1434.990775421127
 30
0.0
  0
VERTEX
  5
496
330
3FB
100
AcDbEntity
  8
化粧台
  6
CONTINUOUS
 62
     6
100
AcDbVertex
100
AcDb2dVertex
 10
1427.915334590784
 20
1434.992913518972
 30
0.0
  0
VERTEX
  5
497
330
3FB
100
AcDbEntity
  8
化粧台
  6
CONTINUOUS
 62
     6
100
AcDbVertex
100
AcDb2dVertex
 10
1427.943227510307
 20
1434.994675821917
 30
0.0
  0
VERTEX
  5
498
330
3FB
100
AcDbEntity
  8
化粧台
  6
CONTINUOUS
 62
     6
100
AcDbVertex
100
AcDb2dVertex
 10
1427.971769630328
 20
1434.996118674177
 30
0.0
  0
VERTEX
  5
499
330
3FB
100
AcDbEntity
  8
化粧台
  6
CONTINUOUS
 62
     6
100
AcDbVertex
100
AcDb2dVertex
 10
1428.000264438644
 20
1434.99727402082
 30
0.0
  0
VERTEX
  5
49A
330
3FB
100
AcDbEntity
  8
化粧台
  6
CONTINUOUS
 62
     6
100
AcDbVertex
100
AcDb2dVertex
 10
1428.028015423054
 20
1434.998173806916
 30
0.0
  0
VERTEX
  5
49B
330
3FB
100
AcDbEntity
  8
化粧台
  6
CONTINUOUS
 62
     6
100
AcDbVertex
100
AcDb2dVertex
 10
1428.054326071353
 20
1434.998849977532
 30
0.0
  0
VERTEX
  5
49C
330
3FB
100
AcDbEntity
  8
化粧台
  6
CONTINUOUS
 62
     6
100
AcDbVertex
100
AcDb2dVertex
 10
1428.078499871343
 20
1434.999334477738
 30
0.0
  0
VERTEX
  5
49D
330
3FB
100
AcDbEntity
  8
化粧台
  6
CONTINUOUS
 62
     6
100
AcDbVertex
100
AcDb2dVertex
 10
1428.099840310817
 20
1434.999659252601
 30
0.0
  0
VERTEX
  5
49E
330
3FB
100
AcDbEntity
  8
化粧台
  6
CONTINUOUS
 62
     6
100
AcDbVertex
100
AcDb2dVertex
 10
1428.117650877576
 20
1434.99985624719
 30
0.0
  0
VERTEX
  5
49F
330
3FB
100
AcDbEntity
  8
化粧台
  6
CONTINUOUS
 62
     6
100
AcDbVertex
100
AcDb2dVertex
 10
1428.131235059416
 20
1434.999957406573
 30
0.0
  0
VERTEX
  5
4A0
330
3FB
100
AcDbEntity
  8
化粧台
  6
CONTINUOUS
 62
     6
100
AcDbVertex
100
AcDb2dVertex
 10
1428.139896344135
 20
1434.99999467582
 30
0.0
  0
VERTEX
  5
4A1
330
3FB
100
AcDbEntity
  8
化粧台
  6
CONTINUOUS
 62
     6
100
AcDbVertex
100
AcDb2dVertex
 10
1428.142938219531
 20
1434.999999999998
 30
0.0
  0
SEQEND
  5
4A2
330
3FB
100
AcDbEntity
  8
化粧台
  6
CONTINUOUS
 62
     6
  0
POLYLINE
  5
4A3
330
1F
100
AcDbEntity
  8
化粧台
  6
CONTINUOUS
 62
     6
100
AcDb2dPolyline
 66
     1
 10
0.0
 20
0.0
 30
0.0
 70
   128
  0
VERTEX
  5
4A4
330
4A3
100
AcDbEntity
  8
化粧台
  6
CONTINUOUS
 62
     6
100
AcDbVertex
100
AcDb2dVertex
 10
1428.142938219531
 20
1418.999999999998
 30
0.0
  0
VERTEX
  5
4A5
330
4A3
100
AcDbEntity
  8
化粧台
  6
CONTINUOUS
 62
     6
100
AcDbVertex
100
AcDb2dVertex
 10
1428.141402087825
 20
1419.000001162644
 30
0.0
  0
VERTEX
  5
4A6
330
4A3
100
AcDbEntity
  8
化粧台
  6
CONTINUOUS
 62
     6
100
AcDbVertex
100
AcDb2dVertex
 10
1428.137036511496
 20
1419.000009301163
 30
0.0
  0
VERTEX
  5
4A7
330
4A3
100
AcDbEntity
  8
化粧台
  6
CONTINUOUS
 62
     6
100
AcDbVertex
100
AcDb2dVertex
 10
1428.13020571872
 20
1419.000031391429
 30
0.0
  0
VERTEX
  5
4A8
330
4A3
100
AcDbEntity
  8
化粧台
  6
CONTINUOUS
 62
     6
100
AcDbVertex
100
AcDb2dVertex
 10
1428.121273937676
 20
1419.000074409317
 30
0.0
  0
VERTEX
  5
4A9
330
4A3
100
AcDbEntity
  8
化粧台
  6
CONTINUOUS
 62
     6
100
AcDbVertex
100
AcDb2dVertex
 10
1428.110605396541
 20
1419.000145330698
 30
0.0
  0
VERTEX
  5
4AA
330
4A3
100
AcDbEntity
  8
化粧台
  6
CONTINUOUS
 62
     6
100
AcDbVertex
100
AcDb2dVertex
 10
1428.098564323495
 20
1419.000251131448
 30
0.0
  0
VERTEX
  5
4AB
330
4A3
100
AcDbEntity
  8
化粧台
  6
CONTINUOUS
 62
     6
100
AcDbVertex
100
AcDb2dVertex
 10
1428.085514946715
 20
1419.000398787439
 30
0.0
  0
VERTEX
  5
4AC
330
4A3
100
AcDbEntity
  8
化粧台
  6
CONTINUOUS
 62
     6
100
AcDbVertex
100
AcDb2dVertex
 10
1428.071821494379
 20
1419.000595274546
 30
0.0
  0
VERTEX
  5
4AD
330
4A3
100
AcDbEntity
  8
化粧台
  6
CONTINUOUS
 62
     6
100
AcDbVertex
100
AcDb2dVertex
 10
1428.057848194666
 20
1419.000847568641
 30
0.0
  0
VERTEX
  5
4AE
330
4A3
100
AcDbEntity
  8
化粧台
  6
CONTINUOUS
 62
     6
100
AcDbVertex
100
AcDb2dVertex
 10
1428.043959275755
 20
1419.001162645599
 30
0.0
  0
VERTEX
  5
4AF
330
4A3
100
AcDbEntity
  8
化粧台
  6
CONTINUOUS
 62
     6
100
AcDbVertex
100
AcDb2dVertex
 10
1428.030518965823
 20
1419.001547481293
 30
0.0
  0
VERTEX
  5
4B0
330
4A3
100
AcDbEntity
  8
化粧台
  6
CONTINUOUS
 62
     6
100
AcDbVertex
100
AcDb2dVertex
 10
1428.017953747055
 20
1419.002003192581
 30
0.0
  0
VERTEX
  5
4B1
330
4A3
100
AcDbEntity
  8
化粧台
  6
CONTINUOUS
 62
     6
100
AcDbVertex
100
AcDb2dVertex
 10
1428.006064639078
 20
1419.002540396365
 30
0.0
  0
VERTEX
  5
4B2
330
4A3
100
AcDbEntity
  8
化粧台
  6
CONTINUOUS
 62
     6
100
AcDbVertex
100
AcDb2dVertex
 10
1427.994733676587
 20
1419.003165621638
 30
0.0
  0
VERTEX
  5
4B3
330
4A3
100
AcDbEntity
  8
化粧台
  6
CONTINUOUS
 62
     6
100
AcDbVertex
100
AcDb2dVertex
 10
1427.983842894276
 20
1419.003885397397
 30
0.0
  0
VERTEX
  5
4B4
330
4A3
100
AcDbEntity
  8
化粧台
  6
CONTINUOUS
 62
     6
100
AcDbVertex
100
AcDb2dVertex
 10
1427.97327432684
 20
1419.004706252633
 30
0.0
  0
VERTEX
  5
4B5
330
4A3
100
AcDbEntity
  8
化粧台
  6
CONTINUOUS
 62
     6
100
AcDbVertex
100
AcDb2dVertex
 10
1427.962910008974
 20
1419.005634716343
 30
0.0
  0
VERTEX
  5
4B6
330
4A3
100
AcDbEntity
  8
化粧台
  6
CONTINUOUS
 62
     6
100
AcDbVertex
100
AcDb2dVertex
 10
1427.952631975373
 20
1419.006677317521
 30
0.0
  0
VERTEX
  5
4B7
330
4A3
100
AcDbEntity
  8
化粧台
  6
CONTINUOUS
 62
     6
100
AcDbVertex
100
AcDb2dVertex
 10
1427.942322260732
 20
1419.00784058516
 30
0.0
  0
VERTEX
  5
4B8
330
4A3
100
AcDbEntity
  8
化粧台
  6
CONTINUOUS
 62
     6
100
AcDbVertex
100
AcDb2dVertex
 10
1427.931862899746
 20
1419.009131048256
 30
0.0
  0
VERTEX
  5
4B9
330
4A3
100
AcDbEntity
  8
化粧台
  6
CONTINUOUS
 62
     6
100
AcDbVertex
100
AcDb2dVertex
 10
1427.921135927109
 20
1419.010555235803
 30
0.0
  0
VERTEX
  5
4BA
330
4A3
100
AcDbEntity
  8
化粧台
  6
CONTINUOUS
 62
     6
100
AcDbVertex
100
AcDb2dVertex
 10
1427.910023377517
 20
1419.012119676795
 30
0.0
  0
VERTEX
  5
4BB
330
4A3
100
AcDbEntity
  8
化粧台
  6
CONTINUOUS
 62
     6
100
AcDbVertex
100
AcDb2dVertex
 10
1427.886453054825
 20
1419.015664021006
 30
0.0
  0
VERTEX
  5
4BC
330
4A3
100
AcDbEntity
  8
化粧台
  6
CONTINUOUS
 62
     6
100
AcDbVertex
100
AcDb2dVertex
 10
1427.861282919406
 20
1419.01971141469
 30
0.0
  0
VERTEX
  5
4BD
330
4A3
100
AcDbEntity
  8
化粧台
  6
CONTINUOUS
 62
     6
100
AcDbVertex
100
AcDb2dVertex
 10
1427.83491778005
 20
1419.024180560663
 30
0.0
  0
VERTEX
  5
4BE
330
4A3
100
AcDbEntity
  8
化粧台
  6
CONTINUOUS
 62
     6
100
AcDbVertex
100
AcDb2dVertex
 10
1427.80776244555
 20
1419.028990161741
 30
0.0
  0
VERTEX
  5
4BF
330
4A3
100
AcDbEntity
  8
化粧台
  6
CONTINUOUS
 62
     6
100
AcDbVertex
100
AcDb2dVertex
 10
1427.780221724695
 20
1419.03405892074
 30
0.0
  0
VERTEX
  5
4C0
330
4A3
100
AcDbEntity
  8
化粧台
  6
CONTINUOUS
 62
     6
100
AcDbVertex
100
AcDb2dVertex
 10
1427.752700426277
 20
1419.039305540475
 30
0.0
  0
VERTEX
  5
4C1
330
4A3
100
AcDbEntity
  8
化粧台
  6
CONTINUOUS
 62
     6
100
AcDbVertex
100
AcDb2dVertex
 10
1427.725603359086
 20
1419.044648723762
 30
0.0
  0
VERTEX
  5
4C2
330
4A3
100
AcDbEntity
  8
化粧台
  6
CONTINUOUS
 62
     6
100
AcDbVertex
100
AcDb2dVertex
 10
1427.699335331915
 20
1419.050007173417
 30
0.0
  0
VERTEX
  5
4C3
330
4A3
100
AcDbEntity
  8
化粧台
  6
CONTINUOUS
 62
     6
100
AcDbVertex
100
AcDb2dVertex
 10
1427.674301153553
 20
1419.055299592256
 30
0.0
  0
VERTEX
  5
4C4
330
4A3
100
AcDbEntity
  8
化粧台
  6
CONTINUOUS
 62
     6
100
AcDbVertex
100
AcDb2dVertex
 10
1427.650905632793
 20
1419.060444683096
 30
0.0
  0
VERTEX
  5
4C5
330
4A3
100
AcDbEntity
  8
化粧台
  6
CONTINUOUS
 62
     6
100
AcDbVertex
100
AcDb2dVertex
 10
1427.629553578424
 20
1419.065361148751
 30
0.0
  0
VERTEX
  5
4C6
330
4A3
100
AcDbEntity
  8
化粧台
  6
CONTINUOUS
 62
     6
100
AcDbVertex
100
AcDb2dVertex
 10
1427.619588830948
 20
1419.067753021458
 30
0.0
  0
VERTEX
  5
4C7
330
4A3
100
AcDbEntity
  8
化粧台
  6
CONTINUOUS
 62
     6
100
AcDbVertex
100
AcDb2dVertex
 10
1427.610146424007
 20
1419.070097163987
 30
0.0
  0
VERTEX
  5
4C8
330
4A3
100
AcDbEntity
  8
化粧台
  6
CONTINUOUS
 62
     6
100
AcDbVertex
100
AcDb2dVertex
 10
1427.601116481457
 20
1419.072425877238
 30
0.0
  0
VERTEX
  5
4C9
330
4A3
100
AcDbEntity
  8
化粧台
  6
CONTINUOUS
 62
     6
100
AcDbVertex
100
AcDb2dVertex
 10
1427.592389127153
 20
1419.074771462107
 30
0.0
  0
VERTEX
  5
4CA
330
4A3
100
AcDbEntity
  8
化粧台
  6
CONTINUOUS
 62
     6
100
AcDbVertex
100
AcDb2dVertex
 10
1427.583854484948
 20
1419.07716621949
 30
0.0
  0
VERTEX
  5
4CB
330
4A3
100
AcDbEntity
  8
化粧台
  6
CONTINUOUS
 62
     6
100
AcDbVertex
100
AcDb2dVertex
 10
1427.575402678697
 20
1419.079642450286
 30
0.0
  0
VERTEX
  5
4CC
330
4A3
100
AcDbEntity
  8
化粧台
  6
CONTINUOUS
 62
     6
100
AcDbVertex
100
AcDb2dVertex
 10
1427.566923832254
 20
1419.082232455391
 30
0.0
  0
VERTEX
  5
4CD
330
4A3
100
AcDbEntity
  8
化粧台
  6
CONTINUOUS
 62
     6
100
AcDbVertex
100
AcDb2dVertex
 10
1427.558308069476
 20
1419.084968535703
 30
0.0
  0
VERTEX
  5
4CE
330
4A3
100
AcDbEntity
  8
化粧台
  6
CONTINUOUS
 62
     6
100
AcDbVertex
100
AcDb2dVertex
 10
1427.549445514215
 20
1419.087882992117
 30
0.0
  0
VERTEX
  5
4CF
330
4A3
100
AcDbEntity
  8
化粧台
  6
CONTINUOUS
 62
     6
100
AcDbVertex
100
AcDb2dVertex
 10
1427.540226290326
 20
1419.091008125532
 30
0.0
  0
VERTEX
  5
4D0
330
4A3
100
AcDbEntity
  8
化粧台
  6
CONTINUOUS
 62
     6
100
AcDbVertex
100
AcDb2dVertex
 10
1427.530540521664
 20
1419.094376236845
 30
0.0
  0
VERTEX
  5
4D1
330
4A3
100
AcDbEntity
  8
化粧台
  6
CONTINUOUS
 62
     6
100
AcDbVertex
100
AcDb2dVertex
 10
1427.509738976376
 20
1419.101829194291
 30
0.0
  0
VERTEX
  5
4D2
330
4A3
100
AcDbEntity
  8
化粧台
  6
CONTINUOUS
 62
     6
100
AcDbVertex
100
AcDb2dVertex
 10
1427.487097331538
 20
1419.110193580314
 30
0.0
  0
VERTEX
  5
4D3
330
4A3
100
AcDbEntity
  8
化粧台
  6
CONTINUOUS
 62
     6
100
AcDbVertex
100
AcDb2dVertex
 10
1427.46304154921
 20
1419.119298630444
 30
0.0
  0
VERTEX
  5
4D4
330
4A3
100
AcDbEntity
  8
化粧台
  6
CONTINUOUS
 62
     6
100
AcDbVertex
100
AcDb2dVertex
 10
1427.437997591454
 20
1419.12897358021
 30
0.0
  0
VERTEX
  5
4D5
330
4A3
100
AcDbEntity
  8
化粧台
  6
CONTINUOUS
 62
     6
100
AcDbVertex
100
AcDb2dVertex
 10
1427.412391420333
 20
1419.139047665144
 30
0.0
  0
VERTEX
  5
4D6
330
4A3
100
AcDbEntity
  8
化粧台
  6
CONTINUOUS
 62
     6
100
AcDbVertex
100
AcDb2dVertex
 10
1427.386648997908
 20
1419.149350120776
 30
0.0
  0
VERTEX
  5
4D7
330
4A3
100
AcDbEntity
  8
化粧台
  6
CONTINUOUS
 62
     6
100
AcDbVertex
100
AcDb2dVertex
 10
1427.361196286241
 20
1419.159710182636
 30
0.0
  0
VERTEX
  5
4D8
330
4A3
100
AcDbEntity
  8
化粧台
  6
CONTINUOUS
 62
     6
100
AcDbVertex
100
AcDb2dVertex
 10
1427.336459247394
 20
1419.169957086255
 30
0.0
  0
VERTEX
  5
4D9
330
4A3
100
AcDbEntity
  8
化粧台
  6
CONTINUOUS
 62
     6
100
AcDbVertex
100
AcDb2dVertex
 10
1427.312863843429
 20
1419.179920067162
 30
0.0
  0
VERTEX
  5
4DA
330
4A3
100
AcDbEntity
  8
化粧台
  6
CONTINUOUS
 62
     6
100
AcDbVertex
100
AcDb2dVertex
 10
1427.290836036408
 20
1419.189428360887
 30
0.0
  0
VERTEX
  5
4DB
330
4A3
100
AcDbEntity
  8
化粧台
  6
CONTINUOUS
 62
     6
100
AcDbVertex
100
AcDb2dVertex
 10
1427.270801788393
 20
1419.198311202962
 30
0.0
  0
VERTEX
  5
4DC
330
4A3
100
AcDbEntity
  8
化粧台
  6
CONTINUOUS
 62
     6
100
AcDbVertex
100
AcDb2dVertex
 10
1427.261704919722
 20
1419.202446982174
 30
0.0
  0
VERTEX
  5
4DD
330
4A3
100
AcDbEntity
  8
化粧台
  6
CONTINUOUS
 62
     6
100
AcDbVertex
100
AcDb2dVertex
 10
1427.253104044631
 20
1419.206438096502
 30
0.0
  0
VERTEX
  5
4DE
330
4A3
100
AcDbEntity
  8
化粧台
  6
CONTINUOUS
 62
     6
100
AcDbVertex
100
AcDb2dVertex
 10
1427.244899147667
 20
1419.210336015746
 30
0.0
  0
VERTEX
  5
4DF
330
4A3
100
AcDbEntity
  8
化粧台
  6
CONTINUOUS
 62
     6
100
AcDbVertex
100
AcDb2dVertex
 10
1427.236990213372
 20
1419.214192209708
 30
0.0
  0
VERTEX
  5
4E0
330
4A3
100
AcDbEntity
  8
化粧台
  6
CONTINUOUS
 62
     6
100
AcDbVertex
100
AcDb2dVertex
 10
1427.229277226294
 20
1419.218058148188
 30
0.0
  0
VERTEX
  5
4E1
330
4A3
100
AcDbEntity
  8
化粧台
  6
CONTINUOUS
 62
     6
100
AcDbVertex
100
AcDb2dVertex
 10
1427.221660170978
 20
1419.221985300985
 30
0.0
  0
VERTEX
  5
4E2
330
4A3
100
AcDbEntity
  8
化粧台
  6
CONTINUOUS
 62
     6
100
AcDbVertex
100
AcDb2dVertex
 10
1427.214039031968
 20
1419.226025137902
 30
0.0
  0
VERTEX
  5
4E3
330
4A3
100
AcDbEntity
  8
化粧台
  6
CONTINUOUS
 62
     6
100
AcDbVertex
100
AcDb2dVertex
 10
1427.206313793811
 20
1419.230229128738
 30
0.0
  0
VERTEX
  5
4E4
330
4A3
100
AcDbEntity
  8
化粧台
  6
CONTINUOUS
 62
     6
100
AcDbVertex
100
AcDb2dVertex
 10
1427.19838444105
 20
1419.234648743295
 30
0.0
  0
VERTEX
  5
4E5
330
4A3
100
AcDbEntity
  8
化粧台
  6
CONTINUOUS
 62
     6
100
AcDbVertex
100
AcDb2dVertex
 10
1427.190150958233
 20
1419.239335451373
 30
0.0
  0
VERTEX
  5
4E6
330
4A3
100
AcDbEntity
  8
化粧台
  6
CONTINUOUS
 62
     6
100
AcDbVertex
100
AcDb2dVertex
 10
1427.181513329903
 20
1419.244340722772
 30
0.0
  0
VERTEX
  5
4E7
330
4A3
100
AcDbEntity
  8
化粧台
  6
CONTINUOUS
 62
     6
100
AcDbVertex
100
AcDb2dVertex
 10
1427.162789232659
 20
1419.255423425574
 30
0.0
  0
VERTEX
  5
4E8
330
4A3
100
AcDbEntity
  8
化粧台
  6
CONTINUOUS
 62
     6
100
AcDbVertex
100
AcDb2dVertex
 10
1427.142421455424
 20
1419.267747920779
 30
0.0
  0
VERTEX
  5
4E9
330
4A3
100
AcDbEntity
  8
化粧台
  6
CONTINUOUS
 62
     6
100
AcDbVertex
100
AcDb2dVertex
 10
1427.120789697746
 20
1419.281070924605
 30
0.0
  0
VERTEX
  5
4EA
330
4A3
100
AcDbEntity
  8
化粧台
  6
CONTINUOUS
 62
     6
100
AcDbVertex
100
AcDb2dVertex
 10
1427.098273659167
 20
1419.295149153266
 30
0.0
  0
VERTEX
  5
4EB
330
4A3
100
AcDbEntity
  8
化粧台
  6
CONTINUOUS
 62
     6
100
AcDbVertex
100
AcDb2dVertex
 10
1427.075253039235
 20
1419.309739322978
 30
0.0
  0
VERTEX
  5
4EC
330
4A3
100
AcDbEntity
  8
化粧台
  6
CONTINUOUS
 62
     6
100
AcDbVertex
100
AcDb2dVertex
 10
1427.052107537495
 20
1419.324598149957
 30
0.0
  0
VERTEX
  5
4ED
330
4A3
100
AcDbEntity
  8
化粧台
  6
CONTINUOUS
 62
     6
100
AcDbVertex
100
AcDb2dVertex
 10
1427.029216853492
 20
1419.339482350417
 30
0.0
  0
VERTEX
  5
4EE
330
4A3
100
AcDbEntity
  8
化粧台
  6
CONTINUOUS
 62
     6
100
AcDbVertex
100
AcDb2dVertex
 10
1427.006960686773
 20
1419.354148640575
 30
0.0
  0
VERTEX
  5
4EF
330
4A3
100
AcDbEntity
  8
化粧台
  6
CONTINUOUS
 62
     6
100
AcDbVertex
100
AcDb2dVertex
 10
1426.985718736883
 20
1419.368353736647
 30
0.0
  0
VERTEX
  5
4F0
330
4A3
100
AcDbEntity
  8
化粧台
  6
CONTINUOUS
 62
     6
100
AcDbVertex
100
AcDb2dVertex
 10
1426.965870703367
 20
1419.381854354848
 30
0.0
  0
VERTEX
  5
4F1
330
4A3
100
AcDbEntity
  8
化粧台
  6
CONTINUOUS
 62
     6
100
AcDbVertex
100
AcDb2dVertex
 10
1426.947796285771
 20
1419.394407211392
 30
0.0
  0
VERTEX
  5
4F2
330
4A3
100
AcDbEntity
  8
化粧台
  6
CONTINUOUS
 62
     6
100
AcDbVertex
100
AcDb2dVertex
 10
1426.93936008966
 20
1419.400383099389
 30
0.0
  0
VERTEX
  5
4F3
330
4A3
100
AcDbEntity
  8
化粧台
  6
CONTINUOUS
 62
     6
100
AcDbVertex
100
AcDb2dVertex
 10
1426.931393634556
 20
1419.406120181869
 30
0.0
  0
VERTEX
  5
4F4
330
4A3
100
AcDbEntity
  8
化粧台
  6
CONTINUOUS
 62
     6
100
AcDbVertex
100
AcDb2dVertex
 10
1426.923806577829
 20
1419.411689447715
 30
0.0
  0
VERTEX
  5
4F5
330
4A3
100
AcDbEntity
  8
化粧台
  6
CONTINUOUS
 62
     6
100
AcDbVertex
100
AcDb2dVertex
 10
1426.916508576846
 20
1419.417161885805
 30
0.0
  0
VERTEX
  5
4F6
330
4A3
100
AcDbEntity
  8
化粧台
  6
CONTINUOUS
 62
     6
100
AcDbVertex
100
AcDb2dVertex
 10
1426.909409288976
 20
1419.422608485022
 30
0.0
  0
VERTEX
  5
4F7
330
4A3
100
AcDbEntity
  8
化粧台
  6
CONTINUOUS
 62
     6
100
AcDbVertex
100
AcDb2dVertex
 10
1426.902418371587
 20
1419.428100234245
 30
0.0
  0
VERTEX
  5
4F8
330
4A3
100
AcDbEntity
  8
化粧台
  6
CONTINUOUS
 62
     6
100
AcDbVertex
100
AcDb2dVertex
 10
1426.895445482048
 20
1419.433708122356
 30
0.0
  0
VERTEX
  5
4F9
330
4A3
100
AcDbEntity
  8
化粧台
  6
CONTINUOUS
 62
     6
100
AcDbVertex
100
AcDb2dVertex
 10
1426.888400277727
 20
1419.439503138234
 30
0.0
  0
VERTEX
  5
4FA
330
4A3
100
AcDbEntity
  8
化粧台
  6
CONTINUOUS
 62
     6
100
AcDbVertex
100
AcDb2dVertex
 10
1426.881192415992
 20
1419.44555627076
 30
0.0
  0
VERTEX
  5
4FB
330
4A3
100
AcDbEntity
  8
化粧台
  6
CONTINUOUS
 62
     6
100
AcDbVertex
100
AcDb2dVertex
 10
1426.873731554211
 20
1419.451938508815
 30
0.0
  0
VERTEX
  5
4FC
330
4A3
100
AcDbEntity
  8
化粧台
  6
CONTINUOUS
 62
     6
100
AcDbVertex
100
AcDb2dVertex
 10
1426.865927349754
 20
1419.45872084128
 30
0.0
  0
VERTEX
  5
4FD
330
4A3
100
AcDbEntity
  8
化粧台
  6
CONTINUOUS
 62
     6
100
AcDbVertex
100
AcDb2dVertex
 10
1426.849431221536
 20
1419.473328689123
 30
0.0
  0
VERTEX
  5
4FE
330
4A3
100
AcDbEntity
  8
化粧台
  6
CONTINUOUS
 62
     6
100
AcDbVertex
100
AcDb2dVertex
 10
1426.831591180615
 20
1419.489439488293
 30
0.0
  0
VERTEX
  5
4FF
330
4A3
100
AcDbEntity
  8
化粧台
  6
CONTINUOUS
 62
     6
100
AcDbVertex
100
AcDb2dVertex
 10
1426.812734331658
 20
1419.506741075921
 30
0.0
  0
VERTEX
  5
500
330
4A3
100
AcDbEntity
  8
化粧台
  6
CONTINUOUS
 62
     6
100
AcDbVertex
100
AcDb2dVertex
 10
1426.793187779332
 20
1419.524921289138
 30
0.0
  0
VERTEX
  5
501
330
4A3
100
AcDbEntity
  8
化粧台
  6
CONTINUOUS
 62
     6
100
AcDbVertex
100
AcDb2dVertex
 10
1426.773278628305
 20
1419.543667965074
 30
0.0
  0
VERTEX
  5
502
330
4A3
100
AcDbEntity
  8
化粧台
  6
CONTINUOUS
 62
     6
100
AcDbVertex
100
AcDb2dVertex
 10
1426.753333983243
 20
1419.56266894086
 30
0.0
  0
VERTEX
  5
503
330
4A3
100
AcDbEntity
  8
化粧台
  6
CONTINUOUS
 62
     6
100
AcDbVertex
100
AcDb2dVertex
 10
1426.733680948817
 20
1419.581612053626
 30
0.0
  0
VERTEX
  5
504
330
4A3
100
AcDbEntity
  8
化粧台
  6
CONTINUOUS
 62
     6
100
AcDbVertex
100
AcDb2dVertex
 10
1426.714646629691
 20
1419.600185140503
 30
0.0
  0
VERTEX
  5
505
330
4A3
100
AcDbEntity
  8
化粧台
  6
CONTINUOUS
 62
     6
100
AcDbVertex
100
AcDb2dVertex
 10
1426.696558130534
 20
1419.618076038621
 30
0.0
  0
VERTEX
  5
506
330
4A3
100
AcDbEntity
  8
化粧台
  6
CONTINUOUS
 62
     6
100
AcDbVertex
100
AcDb2dVertex
 10
1426.679742556014
 20
1419.634972585111
 30
0.0
  0
VERTEX
  5
507
330
4A3
100
AcDbEntity
  8
化粧台
  6
CONTINUOUS
 62
     6
100
AcDbVertex
100
AcDb2dVertex
 10
1426.664527010798
 20
1419.650562617104
 30
0.0
  0
VERTEX
  5
508
330
4A3
100
AcDbEntity
  8
化粧台
  6
CONTINUOUS
 62
     6
100
AcDbVertex
100
AcDb2dVertex
 10
1426.657623848022
 20
1419.657768232518
 30
0.0
  0
VERTEX
  5
509
330
4A3
100
AcDbEntity
  8
化粧台
  6
CONTINUOUS
 62
     6
100
AcDbVertex
100
AcDb2dVertex
 10
1426.651125767186
 20
1419.664656647525
 30
0.0
  0
VERTEX
  5
50A
330
4A3
100
AcDbEntity
  8
化粧台
  6
CONTINUOUS
 62
     6
100
AcDbVertex
100
AcDb2dVertex
 10
1426.644959161055
 20
1419.671312732016
 30
0.0
  0
VERTEX
  5
50B
330
4A3
100
AcDbEntity
  8
化粧台
  6
CONTINUOUS
 62
     6
100
AcDbVertex
100
AcDb2dVertex
 10
1426.639050422394
 20
1419.677821355883
 30
0.0
  0
VERTEX
  5
50C
330
4A3
100
AcDbEntity
  8
化粧台
  6
CONTINUOUS
 62
     6
100
AcDbVertex
100
AcDb2dVertex
 10
1426.633325943969
 20
1419.684267389018
 30
0.0
  0
VERTEX
  5
50D
330
4A3
100
AcDbEntity
  8
化粧台
  6
CONTINUOUS
 62
     6
100
AcDbVertex
100
AcDb2dVertex
 10
1426.627712118545
 20
1419.690735701311
 30
0.0
  0
VERTEX
  5
50E
330
4A3
100
AcDbEntity
  8
化粧台
  6
CONTINUOUS
 62
     6
100
AcDbVertex
100
AcDb2dVertex
 10
1426.622135338888
 20
1419.697311162656
 30
0.0
  0
VERTEX
  5
50F
330
4A3
100
AcDbEntity
  8
化粧台
  6
CONTINUOUS
 62
     6
100
AcDbVertex
100
AcDb2dVertex
 10
1426.616521997763
 20
1419.704078642943
 30
0.0
  0
VERTEX
  5
510
330
4A3
100
AcDbEntity
  8
化粧台
  6
CONTINUOUS
 62
     6
100
AcDbVertex
100
AcDb2dVertex
 10
1426.610798487935
 20
1419.711123012063
 30
0.0
  0
VERTEX
  5
511
330
4A3
100
AcDbEntity
  8
化粧台
  6
CONTINUOUS
 62
     6
100
AcDbVertex
100
AcDb2dVertex
 10
1426.60489120217
 20
1419.71852913991
 30
0.0
  0
VERTEX
  5
512
330
4A3
100
AcDbEntity
  8
化粧台
  6
CONTINUOUS
 62
     6
100
AcDbVertex
100
AcDb2dVertex
 10
1426.598726533233
 20
1419.726381896373
 30
0.0
  0
VERTEX
  5
513
330
4A3
100
AcDbEntity
  8
化粧台
  6
CONTINUOUS
 62
     6
100
AcDbVertex
100
AcDb2dVertex
 10
1426.585393927738
 20
1419.743694676194
 30
0.0
  0
VERTEX
  5
514
330
4A3
100
AcDbEntity
  8
化粧台
  6
CONTINUOUS
 62
     6
100
AcDbVertex
100
AcDb2dVertex
 10
1426.570999687023
 20
1419.762765259957
 30
0.0
  0
VERTEX
  5
515
330
4A3
100
AcDbEntity
  8
化粧台
  6
CONTINUOUS
 62
     6
100
AcDbVertex
100
AcDb2dVertex
 10
1426.555821565875
 20
1419.78320068295
 30
0.0
  0
VERTEX
  5
516
330
4A3
100
AcDbEntity
  8
化粧台
  6
CONTINUOUS
 62
     6
100
AcDbVertex
100
AcDb2dVertex
 10
1426.540137319081
 20
1419.804607980461
 30
0.0
  0
VERTEX
  5
517
330
4A3
100
AcDbEntity
  8
化粧台
  6
CONTINUOUS
 62
     6
100
AcDbVertex
100
AcDb2dVertex
 10
1426.524224701427
 20
1419.826594187778
 30
0.0
  0
VERTEX
  5
518
330
4A3
100
AcDbEntity
  8
化粧台
  6
CONTINUOUS
 62
     6
100
AcDbVertex
100
AcDb2dVertex
 10
1426.508361467701
 20
1419.848766340187
 30
0.0
  0
VERTEX
  5
519
330
4A3
100
AcDbEntity
  8
化粧台
  6
CONTINUOUS
 62
     6
100
AcDbVertex
100
AcDb2dVertex
 10
1426.492825372688
 20
1419.870731472977
 30
0.0
  0
VERTEX
  5
51A
330
4A3
100
AcDbEntity
  8
化粧台
  6
CONTINUOUS
 62
     6
100
AcDbVertex
100
AcDb2dVertex
 10
1426.477894171176
 20
1419.892096621435
 30
0.0
  0
VERTEX
  5
51B
330
4A3
100
AcDbEntity
  8
化粧台
  6
CONTINUOUS
 62
     6
100
AcDbVertex
100
AcDb2dVertex
 10
1426.463845617951
 20
1419.912468820847
 30
0.0
  0
VERTEX
  5
51C
330
4A3
100
AcDbEntity
  8
化粧台
  6
CONTINUOUS
 62
     6
100
AcDbVertex
100
AcDb2dVertex
 10
1426.450957467801
 20
1419.931455106503
 30
0.0
  0
VERTEX
  5
51D
330
4A3
100
AcDbEntity
  8
化粧台
  6
CONTINUOUS
 62
     6
100
AcDbVertex
100
AcDb2dVertex
 10
1426.439507475511
 20
1419.948662513689
 30
0.0
  0
VERTEX
  5
51E
330
4A3
100
AcDbEntity
  8
化粧台
  6
CONTINUOUS
 62
     6
100
AcDbVertex
100
AcDb2dVertex
 10
1426.43432686442
 20
1419.956602769996
 30
0.0
  0
VERTEX
  5
51F
330
4A3
100
AcDbEntity
  8
化粧台
  6
CONTINUOUS
 62
     6
100
AcDbVertex
100
AcDb2dVertex
 10
1426.429529069117
 20
1419.964080538532
 30
0.0
  0
VERTEX
  5
520
330
4A3
100
AcDbEntity
  8
化粧台
  6
CONTINUOUS
 62
     6
100
AcDbVertex
100
AcDb2dVertex
 10
1426.42505621124
 20
1419.971191121325
 30
0.0
  0
VERTEX
  5
521
330
4A3
100
AcDbEntity
  8
化粧台
  6
CONTINUOUS
 62
     6
100
AcDbVertex
100
AcDb2dVertex
 10
1426.42085041243
 20
1419.978029820409
 30
0.0
  0
VERTEX
  5
522
330
4A3
100
AcDbEntity
  8
化粧台
  6
CONTINUOUS
 62
     6
100
AcDbVertex
100
AcDb2dVertex
 10
1426.416853794329
 20
1419.984691937812
 30
0.0
  0
VERTEX
  5
523
330
4A3
100
AcDbEntity
  8
化粧台
  6
CONTINUOUS
 62
     6
100
AcDbVertex
100
AcDb2dVertex
 10
1426.413008478575
 20
1419.991272775566
 30
0.0
  0
VERTEX
  5
524
330
4A3
100
AcDbEntity
  8
化粧台
  6
CONTINUOUS
 62
     6
100
AcDbVertex
100
AcDb2dVertex
 10
1426.409256586812
 20
1419.997867635701
 30
0.0
  0
VERTEX
  5
525
330
4A3
100
AcDbEntity
  8
化粧台
  6
CONTINUOUS
 62
     6
100
AcDbVertex
100
AcDb2dVertex
 10
1426.405540240676
 20
1420.004571820247
 30
0.0
  0
VERTEX
  5
526
330
4A3
100
AcDbEntity
  8
化粧台
  6
CONTINUOUS
 62
     6
100
AcDbVertex
100
AcDb2dVertex
 10
1426.401801561811
 20
1420.011480631236
 30
0.0
  0
VERTEX
  5
527
330
4A3
100
AcDbEntity
  8
化粧台
  6
CONTINUOUS
 62
     6
100
AcDbVertex
100
AcDb2dVertex
 10
1426.397982671856
 20
1420.018689370698
 30
0.0
  0
VERTEX
  5
528
330
4A3
100
AcDbEntity
  8
化粧台
  6
CONTINUOUS
 62
     6
100
AcDbVertex
100
AcDb2dVertex
 10
1426.394025692452
 20
1420.026293340663
 30
0.0
  0
VERTEX
  5
529
330
4A3
100
AcDbEntity
  8
化粧台
  6
CONTINUOUS
 62
     6
100
AcDbVertex
100
AcDb2dVertex
 10
1426.381314449806
 20
1420.051390469564
 30
0.0
  0
VERTEX
  5
52A
330
4A3
100
AcDbEntity
  8
化粧台
  6
CONTINUOUS
 62
     6
100
AcDbVertex
100
AcDb2dVertex
 10
1426.367197393078
 20
1420.080182716961
 30
0.0
  0
VERTEX
  5
52B
330
4A3
100
AcDbEntity
  8
化粧台
  6
CONTINUOUS
 62
     6
100
AcDbVertex
100
AcDb2dVertex
 10
1426.351967544021
 20
1420.112112797581
 30
0.0
  0
VERTEX
  5
52C
330
4A3
100
AcDbEntity
  8
化粧台
  6
CONTINUOUS
 62
     6
100
AcDbVertex
100
AcDb2dVertex
 10
1426.33591792439
 20
1420.146623426158
 30
0.0
  0
VERTEX
  5
52D
330
4A3
100
AcDbEntity
  8
化粧台
  6
CONTINUOUS
 62
     6
100
AcDbVertex
100
AcDb2dVertex
 10
1426.319341555939
 20
1420.183157317422
 30
0.0
  0
VERTEX
  5
52E
330
4A3
100
AcDbEntity
  8
化粧台
  6
CONTINUOUS
 62
     6
100
AcDbVertex
100
AcDb2dVertex
 10
1426.302531460424
 20
1420.221157186103
 30
0.0
  0
VERTEX
  5
52F
330
4A3
100
AcDbEntity
  8
化粧台
  6
CONTINUOUS
 62
     6
100
AcDbVertex
100
AcDb2dVertex
 10
1426.285780659597
 20
1420.260065746932
 30
0.0
  0
VERTEX
  5
530
330
4A3
100
AcDbEntity
  8
化粧台
  6
CONTINUOUS
 62
     6
100
AcDbVertex
100
AcDb2dVertex
 10
1426.269382175214
 20
1420.299325714641
 30
0.0
  0
VERTEX
  5
531
330
4A3
100
AcDbEntity
  8
化粧台
  6
CONTINUOUS
 62
     6
100
AcDbVertex
100
AcDb2dVertex
 10
1426.253629029027
 20
1420.338379803959
 30
0.0
  0
VERTEX
  5
532
330
4A3
100
AcDbEntity
  8
化粧台
  6
CONTINUOUS
 62
     6
100
AcDbVertex
100
AcDb2dVertex
 10
1426.238814242794
 20
1420.376670729618
 30
0.0
  0
VERTEX
  5
533
330
4A3
100
AcDbEntity
  8
化粧台
  6
CONTINUOUS
 62
     6
100
AcDbVertex
100
AcDb2dVertex
 10
1426.225230838265
 20
1420.413641206348
 30
0.0
  0
VERTEX
  5
534
330
4A3
100
AcDbEntity
  8
化粧台
  6
CONTINUOUS
 62
     6
100
AcDbVertex
100
AcDb2dVertex
 10
1426.216786272636
 20
1420.437921054447
 30
0.0
  0
VERTEX
  5
535
330
4A3
100
AcDbEntity
  8
化粧台
  6
CONTINUOUS
 62
     6
100
AcDbVertex
100
AcDb2dVertex
 10
1426.209015401245
 20
1420.461530276534
 30
0.0
  0
VERTEX
  5
536
330
4A3
100
AcDbEntity
  8
化粧台
  6
CONTINUOUS
 62
     6
100
AcDbVertex
100
AcDb2dVertex
 10
1426.201880176513
 20
1420.484674958033
 30
0.0
  0
VERTEX
  5
537
330
4A3
100
AcDbEntity
  8
化粧台
  6
CONTINUOUS
 62
     6
100
AcDbVertex
100
AcDb2dVertex
 10
1426.195342550864
 20
1420.507561184369
 30
0.0
  0
VERTEX
  5
538
330
4A3
100
AcDbEntity
  8
化粧台
  6
CONTINUOUS
 62
     6
100
AcDbVertex
100
AcDb2dVertex
 10
1426.189364476718
 20
1420.530395040964
 30
0.0
  0
VERTEX
  5
539
330
4A3
100
AcDbEntity
  8
化粧台
  6
CONTINUOUS
 62
     6
100
AcDbVertex
100
AcDb2dVertex
 10
1426.183907906499
 20
1420.553382613245
 30
0.0
  0
VERTEX
  5
53A
330
4A3
100
AcDbEntity
  8
化粧台
  6
CONTINUOUS
 62
     6
100
AcDbVertex
100
AcDb2dVertex
 10
1426.178934792629
 20
1420.576729986633
 30
0.0
  0
VERTEX
  5
53B
330
4A3
100
AcDbEntity
  8
化粧台
  6
CONTINUOUS
 62
     6
100
AcDbVertex
100
AcDb2dVertex
 10
1426.174407087529
 20
1420.600643246554
 30
0.0
  0
VERTEX
  5
53C
330
4A3
100
AcDbEntity
  8
化粧台
  6
CONTINUOUS
 62
     6
100
AcDbVertex
100
AcDb2dVertex
 10
1426.170286743622
 20
1420.625328478432
 30
0.0
  0
VERTEX
  5
53D
330
4A3
100
AcDbEntity
  8
化粧台
  6
CONTINUOUS
 62
     6
100
AcDbVertex
100
AcDb2dVertex
 10
1426.166535713331
 20
1420.650991767691
 30
0.0
  0
VERTEX
  5
53E
330
4A3
100
AcDbEntity
  8
化粧台
  6
CONTINUOUS
 62
     6
100
AcDbVertex
100
AcDb2dVertex
 10
1426.163115949077
 20
1420.677839199754
 30
0.0
  0
VERTEX
  5
53F
330
4A3
100
AcDbEntity
  8
化粧台
  6
CONTINUOUS
 62
     6
100
AcDbVertex
100
AcDb2dVertex
 10
1426.160028773651
 20
1420.705607672558
 30
0.0
  0
VERTEX
  5
540
330
4A3
100
AcDbEntity
  8
化粧台
  6
CONTINUOUS
 62
     6
100
AcDbVertex
100
AcDb2dVertex
 10
1426.157229641944
 20
1420.734038983348
 30
0.0
  0
VERTEX
  5
541
330
4A3
100
AcDbEntity
  8
化粧台
  6
CONTINUOUS
 62
     6
100
AcDbVertex
100
AcDb2dVertex
 10
1426.154719812478
 20
1420.762436243731
 30
0.0
  0
VERTEX
  5
542
330
4A3
100
AcDbEntity
  8
化粧台
  6
CONTINUOUS
 62
     6
100
AcDbVertex
100
AcDb2dVertex
 10
1426.152500543776
 20
1420.790102565311
 30
0.0
  0
VERTEX
  5
543
330
4A3
100
AcDbEntity
  8
化粧台
  6
CONTINUOUS
 62
     6
100
AcDbVertex
100
AcDb2dVertex
 10
1426.150573094361
 20
1420.816341059695
 30
0.0
  0
VERTEX
  5
544
330
4A3
100
AcDbEntity
  8
化粧台
  6
CONTINUOUS
 62
     6
100
AcDbVertex
100
AcDb2dVertex
 10
1426.148938722755
 20
1420.840454838487
 30
0.0
  0
VERTEX
  5
545
330
4A3
100
AcDbEntity
  8
化粧台
  6
CONTINUOUS
 62
     6
100
AcDbVertex
100
AcDb2dVertex
 10
1426.147598687481
 20
1420.861747013293
 30
0.0
  0
VERTEX
  5
546
330
4A3
100
AcDbEntity
  8
化粧台
  6
CONTINUOUS
 62
     6
100
AcDbVertex
100
AcDb2dVertex
 10
1426.146554247062
 20
1420.879520695718
 30
0.0
  0
VERTEX
  5
547
330
4A3
100
AcDbEntity
  8
化粧台
  6
CONTINUOUS
 62
     6
100
AcDbVertex
100
AcDb2dVertex
 10
1426.14580666002
 20
1420.893078997367
 30
0.0
  0
VERTEX
  5
548
330
4A3
100
AcDbEntity
  8
化粧台
  6
CONTINUOUS
 62
     6
100
AcDbVertex
100
AcDb2dVertex
 10
1426.145357184878
 20
1420.901725029847
 30
0.0
  0
VERTEX
  5
549
330
4A3
100
AcDbEntity
  8
化粧台
  6
CONTINUOUS
 62
     6
100
AcDbVertex
100
AcDb2dVertex
 10
1426.145207080159
 20
1420.904761904761
 30
0.0
  0
SEQEND
  5
54A
330
4A3
100
AcDbEntity
  8
化粧台
  6
CONTINUOUS
 62
     6
  0
LINE
  5
54B
330
1F
100
AcDbEntity
  8
化粧台
  6
CONTINUOUS
 62
     6
100
AcDbLine
 10
1438.999999999949
 20
1418.999999999998
 30
0.0
 11
1428.142938219531
 21
1418.999999999998
 31
0.0
  0
LINE
  5
54C
330
1F
100
AcDbEntity
  8
化粧台
  6
CONTINUOUS
 62
     6
100
AcDbLine
 10
1438.999999999949
 20
1419.944881889763
 30
0.0
 11
1438.999999999949
 21
1418.999999999998
 31
0.0
  0
LINE
  5
54D
330
1F
100
AcDbEntity
  8
化粧台
  6
CONTINUOUS
 62
     6
100
AcDbLine
 10
1428.142938219531
 20
1434.999999999998
 30
0.0
 11
1438.999999999949
 21
1434.999999999998
 31
0.0
  0
LINE
  5
54E
330
1F
100
AcDbEntity
  8
化粧台
  6
CONTINUOUS
 62
     6
100
AcDbLine
 10
1438.999999999949
 20
1434.999999999998
 30
0.0
 11
1438.999999999949
 21
1434.055118110235
 31
0.0
  0
LINE
  5
54F
330
1F
100
AcDbEntity
  8
化粧台
  6
EXLTYPE3
 62
     6
100
AcDbLine
 10
1012.499999999997
 20
1427.0
 30
0.0
 11
961.4999999999998
 21
1427.0
 31
0.0
  0
ARC
  5
550
330
1F
100
AcDbEntity
  8
化粧台
  6
CONTINUOUS
 62
     6
100
AcDbCircle
 10
889.5000000000175
 20
1426.999999999998
 30
0.0
 40
128.0
100
AcDbArc
 50
356.8403636971078
 51
3.159636302893877
  0
LINE
  5
551
330
1F
100
AcDbEntity
  8
化粧台
  6
CONTINUOUS
 62
     6
100
AcDbLine
 10
990.5000000000175
 20
1418.999999999998
 30
0.0
 11
990.5000000000175
 21
1434.999999999998
 31
0.0
  0
LINE
  5
552
330
1F
100
AcDbEntity
  8
化粧台
  6
CONTINUOUS
 62
     6
100
AcDbLine
 10
1016.306939873196
 20
1418.999999999998
 30
0.0
 11
990.5000000000175
 21
1418.999999999998
 31
0.0
  0
ARC
  5
553
330
1F
100
AcDbEntity
  8
化粧台
  6
CONTINUOUS
 62
     6
100
AcDbCircle
 10
1016.306939873196
 20
1419.999999999998
 30
0.0
 40
1.0
100
AcDbArc
 50
270.0
 51
356.8403636971078
  0
LINE
  5
554
330
1F
100
AcDbEntity
  8
化粧台
  6
CONTINUOUS
 62
     6
100
AcDbLine
 10
990.5000000000175
 20
1434.999999999998
 30
0.0
 11
1016.306939873196
 21
1434.999999999998
 31
0.0
  0
ARC
  5
555
330
1F
100
AcDbEntity
  8
化粧台
  6
CONTINUOUS
 62
     6
100
AcDbCircle
 10
1016.306939873196
 20
1433.999999999998
 30
0.0
 40
1.0
100
AcDbArc
 50
3.159636302892273
 51
90.00000000000001
  0
ARC
  5
556
330
1F
100
AcDbEntity
  8
化粧台
  6
CONTINUOUS
 62
     6
100
AcDbCircle
 10
889.5000000000175
 20
1427.0
 30
0.0
 40
128.0
100
AcDbArc
 50
356.8403636971078
 51
3.159636302892216
  0
ARC
  5
557
330
1F
100
AcDbEntity
  8
化粧台
  6
CONTINUOUS
 62
     6
100
AcDbCircle
 10
1016.306939873196
 20
1420.0
 30
0.0
 40
1.0
100
AcDbArc
 50
270.0
 51
356.8403636971078
  0
ARC
  5
558
330
1F
100
AcDbEntity
  8
化粧台
  6
CONTINUOUS
 62
     6
100
AcDbCircle
 10
1016.306939873196
 20
1434.0
 30
0.0
 40
1.0
100
AcDbArc
 50
3.159636302892273
 51
90.00000000000001
  0
TEXT
  5
559
330
1F
100
AcDbEntity
  8
化粧台
  6
CONTINUOUS
 62
     2
100
AcDbText
 10
1174.00000059604
 20
1207.499999940395
 30
0.0
 40
40.0
  1
洗面化粧台側
  7
EXCADSTD
 72
     5
 11
1374.00000059604
 21
1207.499999940395
 31
0.0
100
AcDbText
  0
LEADER
  5
55A
330
1F
100
AcDbEntity
  8
化粧台
  6
CONTINUOUS
 62
     3
100
AcDbLeader
  3
ISO-25
 76
     3
 10
1419.999999999994
 20
1152.5
 30
0.0
 10
1373.999999999994
 20
1204.0
 30
0.0
 10
1173.999999999994
 20
1204.0
 30
0.0
1001
ACAD
1000
DSTYLE
1002
{
1070
     5
1000
EX_NORM
1070
    41
1040
30.0
1070
   341
1005
4D
1002
}
  0
LINE
  5
55B
330
1F
100
AcDbEntity
  8
化粧台
  6
EXLTYPE3
 62
     6
100
AcDbLine
 10
1494.499999999996
 20
1405.0
 30
0.0
 11
1494.499999999996
 21
1380.0
 31
0.0
  0
LINE
  5
55C
330
1F
100
AcDbEntity
  8
化粧台
  6
CONTINUOUS
 62
     6
100
AcDbLine
 10
930.4088794663738
 20
2220.00000000008
 30
0.0
 11
590.5911205336805
 21
2220.00000000008
 31
0.0
  0
ENDSEC
  0
SECTION
  2
OBJECTS
  0
DICTIONARY
  5
C
330
0
100
AcDbDictionary
  3
ACAD_GROUP
350
D
  3
ACAD_LAYOUT
350
1A
  3
ACAD_MATERIAL
350
3B
  3
ACAD_MLEADERSTYLE
350
57F
  3
ACAD_MLINESTYLE
350
17
  3
ACAD_PLOTSETTINGS
350
19
  3
ACAD_VISUALSTYLE
350
2A
  3
ACDBHEADERROUNDTRIPXREC
350
55D
  3
ACDBVARIABLEDICTIONARY
350
57D
  0
DICTIONARY
  5
D
102
{ACAD_REACTORS
330
C
102
}
330
C
100
AcDbDictionary
  0
DICTIONARY
  5
1A
102
{ACAD_REACTORS
330
C
102
}
330
C
100
AcDbDictionary
  0
DICTIONARY
  5
3B
102
{ACAD_REACTORS
330
C
102
}
330
C
100
AcDbDictionary
  3
BYBLOCK
350
3D
  3
BYLAYER
350
3C
  3
GLOBAL
350
3E
  0
DICTIONARY
  5
57F
102
{ACAD_REACTORS
330
C
102
}
330
C
100
AcDbDictionary
  0
DICTIONARY
  5
17
102
{ACAD_REACTORS
330
C
102
}
330
C
100
AcDbDictionary
  3
STANDARD
350
18
  0
DICTIONARY
  5
19
102
{ACAD_REACTORS
330
C
102
}
330
C
100
AcDbDictionary
  0
DICTIONARY
  5
2A
102
{ACAD_REACTORS
330
C
102
}
330
C
100
AcDbDictionary
  3
2DWIREFRAME
350
2F
  3
3D_HIDDEN
350
31
  3
3DWIREFRAME
350
30
  3
BASIC
350
32
  3
BRIGHTEN
350
36
  3
COLORCHANGE
350
3A
  3
CONCEPTUAL
350
34
  3
DIM
350
35
  3
FACEPATTERN
350
39
  3
FLAT
350
2B
  3
FLATWITHEDGES
350
2C
  3
GOURAUD
350
2D
  3
GOURAUDWITHEDGES
350
2E
  3
LINEPATTERN
350
38
  3
REALISTIC
350
33
  3
THICKEN
350
37
  0
DICTIONARY
  5
55D
102
{ACAD_REACTORS
330
C
102
}
330
C
100
AcDbDictionary
  3
CEPSNTYPE
350
566
  3
DIMSTYLEDATA
350
57C
  3
FINGERPRINTGUID
350
567
  3
HYPERLINKBASE
350
560
  3
INSUNITS
350
565
  3
LAYOUTDICT
350
562
  3
LWETCUNION
350
564
  3
PLOTSETDICT
350
563
  3
PSVPSCALE
350
569
  3
PUCSBASE
350
56C
  3
PUCSORGBACK
350
572
  3
PUCSORGBOTTOM
350
56E
  3
PUCSORGFRONT
350
571
  3
PUCSORGLEFT
350
56F
  3
PUCSORGRIGHT
350
570
  3
PUCSORGTOP
350
56D
  3
PUCSORTHOREF
350
56A
  3
PUCSORTHOVIEW
350
56B
  3
STYLESHEET
350
561
  3
TSTACKALIGN
350
55E
  3
TSTACKSIZE
350
55F
  3
UCSBASE
350
575
  3
UCSORGBACK
350
57B
  3
UCSORGBOTTOM
350
577
  3
UCSORGFRONT
350
57A
  3
UCSORGLEFT
350
578
  3
UCSORGRIGHT
350
579
  3
UCSORGTOP
350
576
  3
UCSORTHOREF
350
573
  3
UCSORTHOVIEW
350
574
  3
VERSIONGUID
350
568
  0
DICTIONARY
  5
57D
102
{ACAD_REACTORS
330
C
102
}
330
C
100
AcDbDictionary
  3
DIMASSOC
350
582
  3
HIDETEXT
350
583
  3
PSOLHEIGHT
350
581
  3
PSOLWIDTH
350
580
  0
MATERIAL
  5
3D
102
{ACAD_REACTORS
330
3B
102
}
102
{ACAD_XDICTIONARY
360
586
102
}
330
3B
100
AcDbMaterial
  1
ByBlock
  0
MATERIAL
  5
3C
102
{ACAD_REACTORS
330
3B
102
}
102
{ACAD_XDICTIONARY
360
584
102
}
330
3B
100
AcDbMaterial
  1
ByLayer
  0
MATERIAL
  5
3E
102
{ACAD_REACTORS
330
3B
102
}
102
{ACAD_XDICTIONARY
360
588
102
}
330
3B
100
AcDbMaterial
  1
Global
  0
MLINESTYLE
  5
18
102
{ACAD_REACTORS
330
17
102
}
330
17
100
AcDbMlineStyle
  2
Standard
 70
     0
  3

 62
   256
 51
90.0
 52
90.0
 71
     2
 49
0.5
 62
   256
  6
BYLAYER
 49
-0.5
 62
   256
  6
BYLAYER
  0
ACAD_PROXY_OBJECT
  5
2F
102
{ACAD_REACTORS
330
2A
102
}
330
2A
100
AcDbProxyObject
 90
      499
 91
      501
 93
      436
310
42CC9915DA5C99599C985B595049028333333333333E3BF0000000000000FB0107901411070040501600405405064090741402480A0340
1001
ACAD
1000
AcDbSavedByObjectVersion
1070
     0
  0
ACAD_PROXY_OBJECT
  5
31
102
{ACAD_REACTORS
330
2A
102
}
330
2A
100
AcDbProxyObject
 90
      499
 91
      501
 93
      500
310
424CD108121A5919195B90640502408333333333333E3BF0000000000000FB01079024090700405020000000000001110200405405064090740C02480A0340
1001
ACAD
1000
AcDbSavedByObjectVersion
1070
     0
  0
ACAD_PROXY_OBJECT
  5
30
102
{ACAD_REACTORS
330
2A
102
}
330
2A
100
AcDbProxyObject
 90
      499
 91
      501
 93
      436
310
42CCD915DA5C99599C985B595059028333333333333E3BF0000000000000FB0107901411070040501600405405064090741402480A0340
1001
ACAD
1000
AcDbSavedByObjectVersion
1070
     0
  0
ACAD_PROXY_OBJECT
  5
32
102
{ACAD_REACTORS
330
2A
102
}
330
2A
100
AcDbProxyObject
 90
      499
 91
      501
 93
      388
310
4150985CDA58D07406404333333333333E3BF0000000000000FB0107A41107004050150841D405064090741402480A0350
1001
ACAD
1000
AcDbSavedByObjectVersion
1070
     0
  0
ACAD_PROXY_OBJECT
  5
36
102
{ACAD_REACTORS
330
2A
102
}
330
2A
100
AcDbProxyObject
 90
      499
 91
      501
 93
      428
310
42109C9A59DA1D195B90C409028333333333333E3BF0000000000000FB010790141107004050150841D405064090741402480A029950
1001
ACAD
1000
AcDbSavedByObjectVersion
1070
     0
  0
ACAD_PROXY_OBJECT
  5
3A
102
{ACAD_REACTORS
330
2A
102
}
330
2A
100
AcDbProxyObject
 90
      499
 91
      501
 93
      452
310
42D0DBDB1BDC90DA185B99D95104090240C333333333333E3BF0000000000000FB0108901411070040501508421405064090741402480A0350
1001
ACAD
1000
AcDbSavedByObjectVersion
1070
     0
  0
ACAD_PROXY_OBJECT
  5
34
102
{ACAD_REACTORS
330
2A
102
}
330
2A
100
AcDbProxyObject
 90
      499
 91
      501
 93
      500
310
4290DBDB98D95C1D1D585B10940D028333333333333E3BF0000000000000FB0107902409070040501000000000000111010841D405064090740C02480A0340
1001
ACAD
1000
AcDbSavedByObjectVersion
1070
     0
  0
ACAD_PROXY_OBJECT
  5
35
102
{ACAD_REACTORS
330
2A
102
}
330
2A
100
AcDbProxyObject
 90
      499
 91
      501
 93
      412
310
40D11A5B50B409028333333333333E3BF0000000000000FB010790141107004050150841D405064090741402480A02677FFFFFD0
1001
ACAD
1000
AcDbSavedByObjectVersion
1070
     0
  0
ACAD_PROXY_OBJECT
  5
39
102
{ACAD_REACTORS
330
2A
102
}
330
2A
100
AcDbProxyObject
 90
      499
 91
      501
 93
      444
310
42D19858D95C185D1D195C9B90F409028333333333333E3BF0000000000000FB010790141107004050150841D405064090741402480A0350
1001
ACAD
1000
AcDbSavedByObjectVersion
1070
     0
  0
ACAD_PROXY_OBJECT
  5
2B
102
{ACAD_REACTORS
330
2A
102
}
330
2A
100
AcDbProxyObject
 90
      499
 91
      501
 93
      388
310
41119B185D240901404333333333333E3BF0000000000000F9010740A41107004050150841D405064090741402480A1B50
1001
ACAD
1000
AcDbSavedByObjectVersion
1070
     0
  0
ACAD_PROXY_OBJECT
  5
2C
102
{ACAD_REACTORS
330
2A
102
}
330
2A
100
AcDbProxyObject
 90
      499
 91
      501
 93
      476
310
43519B185D15DA5D1A115919D95CD0140901404333333333333E3BF0000000000000F9010740901411070040501600405405064090741402480A1B50
1001
ACAD
1000
AcDbSavedByObjectVersion
1070
     0
  0
ACAD_PROXY_OBJECT
  5
2D
102
{ACAD_REACTORS
330
2A
102
}
330
2A
100
AcDbProxyObject
 90
      499
 91
      501
 93
      412
310
41D1DBDD5C985D5910240902404333333333333E3BF0000000000000F9010740A411070040501641D405064090741402480A1B50
1001
ACAD
1000
AcDbSavedByObjectVersion
1070
     0
  0
ACAD_PROXY_OBJECT
  5
2E
102
{ACAD_REACTORS
330
2A
102
}
330
2A
100
AcDbProxyObject
 90
      499
 91
      501
 93
      500
310
4411DBDD5C985D5915DA5D1A115919D95CD0340902404333333333333E3BF0000000000000F9010740901411070040501600405405064090741402480A1B50
1001
ACAD
1000
AcDbSavedByObjectVersion
1070
     0
  0
ACAD_PROXY_OBJECT
  5
38
102
{ACAD_REACTORS
330
2A
102
}
330
2A
100
AcDbProxyObject
 90
      499
 91
      501
 93
      444
310
42D31A5B995C185D1D195C9B90E409028333333333333E3BF0000000000000FB010790141107004050750841D405064090741402483A0350
1001
ACAD
1000
AcDbSavedByObjectVersion
1070
     0
  0
ACAD_PROXY_OBJECT
  5
33
102
{ACAD_REACTORS
330
2A
102
}
330
2A
100
AcDbProxyObject
 90
      499
 91
      501
 93
      420
310
425499585B1A5CDD1A58D08409028333333333333E3BF0000000000000FB01079019070040501508421405064090741402480A1B40
1001
ACAD
1000
AcDbSavedByObjectVersion
1070
     0
  0
ACAD_PROXY_OBJECT
  5
37
102
{ACAD_REACTORS
330
2A
102
}
330
2A
100
AcDbProxyObject
 90
      499
 91
      501
 93
      412
310
41D51A1A58DAD95B90D409028333333333333E3BF0000000000000FB010790141107004050150C41D405064090741402480A0350
1001
ACAD
1000
AcDbSavedByObjectVersion
1070
     0
  0
XRECORD
  5
566
102
{ACAD_REACTORS
330
55D
102
}
330
55D
100
AcDbXrecord
 90
        0
  0
XRECORD
  5
57C
102
{ACAD_REACTORS
330
55D
102
}
330
55D
100
AcDbXrecord
1000
DSTYLE
1002
{
1070
   340
340
11
1002
}
  0
XRECORD
  5
567
102
{ACAD_REACTORS
330
55D
102
}
330
55D
100
AcDbXrecord
  1
{9D73CC8B-3723-4F6C-95FE-45B7F02780A9}
  0
XRECORD
  5
560
102
{ACAD_REACTORS
330
55D
102
}
330
55D
100
AcDbXrecord
  1

  0
XRECORD
  5
565
102
{ACAD_REACTORS
330
55D
102
}
330
55D
100
AcDbXrecord
 90
        4
  0
XRECORD
  5
562
102
{ACAD_REACTORS
330
55D
102
}
330
55D
100
AcDbXrecord
340
1A
  0
XRECORD
  5
564
102
{ACAD_REACTORS
330
55D
102
}
330
55D
100
AcDbXrecord
 90
    10781
  0
XRECORD
  5
563
102
{ACAD_REACTORS
330
55D
102
}
330
55D
100
AcDbXrecord
340
19
  0
XRECORD
  5
569
102
{ACAD_REACTORS
330
55D
102
}
330
55D
100
AcDbXrecord
 40
0.0
  0
XRECORD
  5
56C
102
{ACAD_REACTORS
330
55D
102
}
330
55D
100
AcDbXrecord
340
0
  0
XRECORD
  5
572
102
{ACAD_REACTORS
330
55D
102
}
330
55D
100
AcDbXrecord
 10
0.0
 20
0.0
 30
0.0
  0
XRECORD
  5
56E
102
{ACAD_REACTORS
330
55D
102
}
330
55D
100
AcDbXrecord
 10
0.0
 20
0.0
 30
0.0
  0
XRECORD
  5
571
102
{ACAD_REACTORS
330
55D
102
}
330
55D
100
AcDbXrecord
 10
0.0
 20
0.0
 30
0.0
  0
XRECORD
  5
56F
102
{ACAD_REACTORS
330
55D
102
}
330
55D
100
AcDbXrecord
 10
0.0
 20
0.0
 30
0.0
  0
XRECORD
  5
570
102
{ACAD_REACTORS
330
55D
102
}
330
55D
100
AcDbXrecord
 10
0.0
 20
0.0
 30
0.0
  0
XRECORD
  5
56D
102
{ACAD_REACTORS
330
55D
102
}
330
55D
100
AcDbXrecord
 10
0.0
 20
0.0
 30
0.0
  0
XRECORD
  5
56A
102
{ACAD_REACTORS
330
55D
102
}
330
55D
100
AcDbXrecord
340
0
  0
XRECORD
  5
56B
102
{ACAD_REACTORS
330
55D
102
}
330
55D
100
AcDbXrecord
 70
     0
  0
XRECORD
  5
561
102
{ACAD_REACTORS
330
55D
102
}
330
55D
100
AcDbXrecord
  1

  0
XRECORD
  5
55E
102
{ACAD_REACTORS
330
55D
102
}
330
55D
100
AcDbXrecord
 90
        1
  0
XRECORD
  5
55F
102
{ACAD_REACTORS
330
55D
102
}
330
55D
100
AcDbXrecord
 90
       70
  0
XRECORD
  5
575
102
{ACAD_REACTORS
330
55D
102
}
330
55D
100
AcDbXrecord
340
0
  0
XRECORD
  5
57B
102
{ACAD_REACTORS
330
55D
102
}
330
55D
100
AcDbXrecord
 10
0.0
 20
0.0
 30
0.0
  0
XRECORD
  5
577
102
{ACAD_REACTORS
330
55D
102
}
330
55D
100
AcDbXrecord
 10
0.0
 20
0.0
 30
0.0
  0
XRECORD
  5
57A
102
{ACAD_REACTORS
330
55D
102
}
330
55D
100
AcDbXrecord
 10
0.0
 20
0.0
 30
0.0
  0
XRECORD
  5
578
102
{ACAD_REACTORS
330
55D
102
}
330
55D
100
AcDbXrecord
 10
0.0
 20
0.0
 30
0.0
  0
XRECORD
  5
579
102
{ACAD_REACTORS
330
55D
102
}
330
55D
100
AcDbXrecord
 10
0.0
 20
0.0
 30
0.0
  0
XRECORD
  5
576
102
{ACAD_REACTORS
330
55D
102
}
330
55D
100
AcDbXrecord
 10
0.0
 20
0.0
 30
0.0
  0
XRECORD
  5
573
102
{ACAD_REACTORS
330
55D
102
}
330
55D
100
AcDbXrecord
340
0
  0
XRECORD
  5
574
102
{ACAD_REACTORS
330
55D
102
}
330
55D
100
AcDbXrecord
 70
     0
  0
XRECORD
  5
568
102
{ACAD_REACTORS
330
55D
102
}
330
55D
100
AcDbXrecord
  1
{FAEB1C32-E019-11D5-929B-00C0DF256EC4}
  0
DICTIONARYVAR
  5
582
102
{ACAD_REACTORS
330
57D
102
}
330
57D
100
DictionaryVariables
280
     0
  1
2
  0
DICTIONARYVAR
  5
583
102
{ACAD_REACTORS
330
57D
102
}
330
57D
100
DictionaryVariables
280
     0
  1
1
  0
DICTIONARYVAR
  5
581
102
{ACAD_REACTORS
330
57D
102
}
330
57D
100
DictionaryVariables
280
     0
  1
80.000000
  0
DICTIONARYVAR
  5
580
102
{ACAD_REACTORS
330
57D
102
}
330
57D
100
DictionaryVariables
280
     0
  1
5.000000
  0
DICTIONARY
  5
586
330
3D
100
AcDbDictionary
280
     1
  3
ACAD_XREC_ROUNDTRIP
360
587
  0
DICTIONARY
  5
584
330
3C
100
AcDbDictionary
280
     1
  3
ACAD_XREC_ROUNDTRIP
360
585
  0
DICTIONARY
  5
588
330
3E
100
AcDbDictionary
280
     1
  3
ACAD_XREC_ROUNDTRIP
360
589
  0
XRECORD
  5
587
102
{ACAD_REACTORS
330
586
102
}
330
586
100
AcDbXrecord
102
MATERIAL
148
0.0
149
0.0
149
0.0
 93
        0
 94
      127
282
     0
 72
     1
 77
     1
171
     1
175
     1
179
     1
273
     0
  0
XRECORD
  5
585
102
{ACAD_REACTORS
330
584
102
}
330
584
100
AcDbXrecord
102
MATERIAL
148
0.0
149
0.0
149
0.0
 93
        0
 94
      127
282
     0
 72
     1
 77
     1
171
     1
175
     1
179
     1
273
     0
  0
XRECORD
  5
589
102
{ACAD_REACTORS
330
588
102
}
330
588
100
AcDbXrecord
102
MATERIAL
148
0.0
149
0.0
149
0.0
 93
        0
 94
      127
282
     0
 72
     1
 77
     1
171
     1
175
     1
179
     1
273
     0
  0
ENDSEC
  0
EOF
