  0
SECTION
  2
HEADER
  9
$ACADVER
  1
AC1014
  9
$ACADMAINTVER
 70
     0
  9
$DWGCODEPAGE
  3
ANSI_932
  9
$INSBASE
 10
0.0
 20
0.0
 30
0.0
  9
$EXTMIN
 10
0.0
 20
11.5
 30
0.0
  9
$EXTMAX
 10
200.0
 20
289.5
 30
0.0
  9
$LIMMIN
 10
0.0
 20
0.0
  9
$LIMMAX
 10
210.0
 20
297.0
  9
$ORTHOMODE
 70
     0
  9
$REGENMODE
 70
     1
  9
$FILLMODE
 70
     1
  9
$QTEXTMODE
 70
     0
  9
$MIRRTEXT
 70
     1
  9
$DRAGMODE
 70
     2
  9
$LTSCALE
 40
1.0
  9
$OSMODE
 70
     0
  9
$ATTMODE
 70
     1
  9
$TEXTSIZE
 40
0.2
  9
$TRACEWID
 40
0.05
  9
$TEXTSTYLE
  7
STANDARD
  9
$CLAYER
  8
枠・器具表
  9
$CELTYPE
  6
CONTINUOUS
  9
$CECOLOR
 62
   256
  9
$CELTSCALE
 40
1.0
  9
$DELOBJ
 70
     1
  9
$DISPSILH
 70
     0
  9
$DIMSCALE
 40
1.0
  9
$DIMASZ
 40
0.18
  9
$DIMEXO
 40
0.0625
  9
$DIMDLI
 40
0.38
  9
$DIMRND
 40
0.0
  9
$DIMDLE
 40
0.0
  9
$DIMEXE
 40
0.18
  9
$DIMTP
 40
0.0
  9
$DIMTM
 40
0.0
  9
$DIMTXT
 40
0.18
  9
$DIMCEN
 40
0.09
  9
$DIMTSZ
 40
0.0
  9
$DIMTOL
 70
     0
  9
$DIMLIM
 70
     0
  9
$DIMTIH
 70
     1
  9
$DIMTOH
 70
     1
  9
$DIMSE1
 70
     0
  9
$DIMSE2
 70
     0
  9
$DIMTAD
 70
     0
  9
$DIMZIN
 70
     0
  9
$DIMBLK
  1

  9
$DIMASO
 70
     1
  9
$DIMSHO
 70
     1
  9
$DIMPOST
  1

  9
$DIMAPOST
  1

  9
$DIMALT
 70
     0
  9
$DIMALTD
 70
     2
  9
$DIMALTF
 40
25.4
  9
$DIMLFAC
 40
1.0
  9
$DIMTOFL
 70
     0
  9
$DIMTVP
 40
0.0
  9
$DIMTIX
 70
     0
  9
$DIMSOXD
 70
     0
  9
$DIMSAH
 70
     0
  9
$DIMBLK1
  1

  9
$DIMBLK2
  1

  9
$DIMSTYLE
  2
STANDARD
  9
$DIMCLRD
 70
     0
  9
$DIMCLRE
 70
     0
  9
$DIMCLRT
 70
     0
  9
$DIMTFAC
 40
1.0
  9
$DIMGAP
 40
0.09
  9
$DIMJUST
 70
     0
  9
$DIMSD1
 70
     0
  9
$DIMSD2
 70
     0
  9
$DIMTOLJ
 70
     1
  9
$DIMTZIN
 70
     0
  9
$DIMALTZ
 70
     0
  9
$DIMALTTZ
 70
     0
  9
$DIMFIT
 70
     3
  9
$DIMUPT
 70
     0
  9
$DIMUNIT
 70
     2
  9
$DIMDEC
 70
     4
  9
$DIMTDEC
 70
     4
  9
$DIMALTU
 70
     2
  9
$DIMALTTD
 70
     2
  9
$DIMTXSTY
  7
STANDARD
  9
$DIMAUNIT
 70
     0
  9
$LUNITS
 70
     2
  9
$LUPREC
 70
     4
  9
$SKETCHINC
 40
0.1
  9
$FILLETRAD
 40
0.0
  9
$AUNITS
 70
     0
  9
$AUPREC
 70
     0
  9
$MENU
  1
acad
  9
$ELEVATION
 40
0.0
  9
$PELEVATION
 40
0.0
  9
$THICKNESS
 40
0.0
  9
$LIMCHECK
 70
     0
  9
$BLIPMODE
 70
     1
  9
$CHAMFERA
 40
0.0
  9
$CHAMFERB
 40
0.0
  9
$CHAMFERC
 40
0.0
  9
$CHAMFERD
 40
0.0
  9
$SKPOLY
 70
     0
  9
$TDCREATE
 40
2454533.694172917
  9
$TDUPDATE
 40
2454533.694172917
  9
$TDINDWG
 40
0.0000000000
  9
$TDUSRTIMER
 40
0.0000000000
  9
$USRTIMER
 70
     1
  9
$ANGBASE
 50
0.0
  9
$ANGDIR
 70
     0
  9
$PDMODE
 70
     0
  9
$PDSIZE
 40
0.0
  9
$PLINEWID
 40
0.0
  9
$COORDS
 70
     1
  9
$SPLFRAME
 70
     0
  9
$SPLINETYPE
 70
     6
  9
$SPLINESEGS
 70
     8
  9
$ATTDIA
 70
     0
  9
$ATTREQ
 70
     1
  9
$HANDLING
 70
     1
  9
$HANDSEED
  5
558
  9
$SURFTAB1
 70
     6
  9
$SURFTAB2
 70
     6
  9
$SURFTYPE
 70
     6
  9
$SURFU
 70
     6
  9
$SURFV
 70
     6
  9
$UCSNAME
  2

  9
$UCSORG
 10
0.0
 20
0.0
 30
0.0
  9
$UCSXDIR
 10
1.0
 20
0.0
 30
0.0
  9
$UCSYDIR
 10
0.0
 20
1.0
 30
0.0
  9
$PUCSNAME
  2

  9
$PUCSORG
 10
0.0
 20
0.0
 30
0.0
  9
$PUCSXDIR
 10
1.0
 20
0.0
 30
0.0
  9
$PUCSYDIR
 10
0.0
 20
1.0
 30
0.0
  9
$USERI1
 70
     0
  9
$USERI2
 70
     0
  9
$USERI3
 70
     0
  9
$USERI4
 70
     0
  9
$USERI5
 70
     0
  9
$USERR1
 40
0.0
  9
$USERR2
 40
0.0
  9
$USERR3
 40
0.0
  9
$USERR4
 40
0.0
  9
$USERR5
 40
0.0
  9
$WORLDVIEW
 70
     1
  9
$SHADEDGE
 70
     3
  9
$SHADEDIF
 70
    70
  9
$TILEMODE
 70
     1
  9
$MAXACTVP
 70
    16
  9
$PINSBASE
 10
0.0
 20
0.0
 30
0.0
  9
$PLIMCHECK
 70
     0
  9
$PEXTMIN
 10
1.000000E+20
 20
1.000000E+20
 30
1.000000E+20
  9
$PEXTMAX
 10
-1.000000E+20
 20
-1.000000E+20
 30
-1.000000E+20
  9
$PLIMMIN
 10
0.0
 20
0.0
  9
$PLIMMAX
 10
12.0
 20
9.0
  9
$UNITMODE
 70
     0
  9
$VISRETAIN
 70
     0
  9
$PLINEGEN
 70
     1
  9
$PSLTSCALE
 70
     0
  9
$TREEDEPTH
 70
  3020
  9
$PICKSTYLE
 70
     1
  9
$CMLSTYLE
  2
Standard
  9
$CMLJUST
 70
     0
  9
$CMLSCALE
 40
1.0
  9
$PROXYGRAPHICS
 70
     0
  9
$MEASUREMENT
 70
     0
  0
ENDSEC
  0
SECTION
  2
CLASSES
  0
CLASS
  1
LWPOLYLINE
  2
AcDbPolyline
  3
"AutoCAD"
 90
        0
280
     0
281
     1
  0
CLASS
  1
IMAGE
  2
AcDbRasterImage
  3
ISM
 90
      127
280
     0
281
     1
  0
CLASS
  1
OLE2FRAME
  2
AcDbOle2Frame
  3
""
 90
        0
280
     0
281
     1
  0
CLASS
  1
HATCH
  2
AcDbHatch
  3
"ACAD_SEDONA"
 90
        0
280
     0
281
     1
  0
CLASS
  1
DICTIONARYVAR
  2
AcDbDictionaryVar
  3
"AutoCAD"
 90
        0
280
     0
281
     0
  0
CLASS
  1
RASTERVARIABLES
  2
AcDbRasterVariables
  3
ISM
 90
        0
280
     0
281
     0
  0
CLASS
  1
IMAGEDEF
  2
AcDbRasterImageDef
  3
ISM
 90
        0
280
     0
281
     0
  0
CLASS
  1
IMAGEDEF_REACTOR
  2
AcDbRasterImageDefReactor
  3
ISM
 90
        1
280
     0
281
     0
  0
CLASS
  1
IDBUFFER
  2
AcDbIdBuffer
  3
"Acad"
 90
        0
280
     0
281
     0
  0
CLASS
  1
SPATIAL_FILTER
  2
AcDbSpatialFilter
  3
"Acad"
 90
        0
280
     0
281
     0
  0
CLASS
  1
XRECORD
  2
AcDbXrecord
  3
"<Built In>"
 90
        0
280
     0
281
     0
  0
CLASS
  1
SORTENTSTABLE
  2
AcDbSortentsTable
  3
"AutoCAD"
 90
        0
280
     0
281
     0
  0
CLASS
  1
LAYER_INDEX
  2
AcDbLayerIndex
  3
"Acad"
 90
        0
280
     0
281
     0
  0
CLASS
  1
SPATIAL_INDEX
  2
AcDbSpatialIndex
  3
"Acad"
 90
        0
280
     0
281
     0
  0
CLASS
  1
OBJECT_PTR
  2
CAseDLPNTableRecord
  3
"ASE-LPNTableRecord"
 90
        1
280
     0
281
     0
  0
CLASS
  1
LAYOUT
  2
AcDbLayout
  3
"AutoCAD 2000"
 90
        1
280
     0
281
     0
  0
CLASS
  1
PLOTSETTINGS
  2
AcDbPlotSettings
  3
"AutoCAD 2000"
 90
        1
280
     0
281
     0
  0
CLASS
  1
ACDBDICTIONARYWDFLT
  2
AcDbDictionaryWithDefault
  3
"AutoCAD 2000"
 90
        1
280
     0
281
     0
  0
CLASS
  1
ACDBPLACEHOLDER
  2
AcDbPlaceHolder
  3
"AutoCAD 2000"
 90
        1
280
     0
281
     0
  0
CLASS
  1
VBA_PROJECT
  2
AcDbVbaProject
  3
"acadvba"
 90
        1
280
     0
281
     0
  0
CLASS
  1
WIPEOUT
  2
AcDbWipeout
  3
WipeOut|AutoCAD Express Tool|expresstools@autodesk.com
 90
      127
280
     0
281
     1
  0
CLASS
  1
WIPEOUTVARIABLES
  2
AcDbWipeoutVariables
  3
WipeOut|AutoCAD Express Tool|expresstools@autodesk.com
 90
        0
280
     0
281
     0
  0
CLASS
  1
RTEXT
  2
RText
  3
RText|AutoCAD Express Tool|expresstools@autodesk.com
 90
        0
280
     0
281
     1
  0
CLASS
  1
ARCALIGNEDTEXT
  2
AcDbArcAlignedText
  3
ATEXT|AutoCAD Express Tool|expresstools@autodesk.com
 90
        0
280
     0
281
     1
  0
ENDSEC
  0
SECTION
  2
TABLES
  0
TABLE
  2
VPORT
  5
7
100
AcDbSymbolTable
 70
     1
  0
VPORT
  5
15
100
AcDbSymbolTableRecord
100
AcDbViewportTableRecord
  2
*ACTIVE
 70
     0
 10
0.0
 20
0.0
 11
1.0
 21
1.0
 12
250.0
 22
376.25
 13
0.0
 23
0.0
 14
1.0
 24
1.0
 15
0.0
 25
0.0
 16
0.0
 26
0.0
 36
1.0
 17
0.0
 27
0.0
 37
0.0
 40
695.0
 41
1.722533
 42
50.0
 43
0.0
 44
0.0
 50
0.0
 51
0.0
 71
     0
 72
   100
 73
     1
 74
     1
 75
     0
 76
     0
 77
     0
 78
     0
  0
ENDTAB
  0
TABLE
  2
LTYPE
  5
4
100
AcDbSymbolTable
 70
     9
  0
LTYPE
  5
11
100
AcDbSymbolTableRecord
100
AcDbLinetypeTableRecord
  2
BYBLOCK
 70
    64
  3

 72
    65
 73
     0
 40
0.0
  0
LTYPE
  5
12
100
AcDbSymbolTableRecord
100
AcDbLinetypeTableRecord
  2
BYLAYER
 70
    64
  3

 72
    65
 73
     0
 40
0.0
  0
LTYPE
  5
13
100
AcDbSymbolTableRecord
100
AcDbLinetypeTableRecord
  2
CONTINUOUS
 70
    64
  3
実線
 72
    65
 73
     0
 40
0.0
  0
LTYPE
  5
1D
100
AcDbSymbolTableRecord
100
AcDbLinetypeTableRecord
  2
EXLTYPE1
 70
    64
  3
破線
 72
    65
 73
     2
 40
3.0
 49
2.0
 74
     0
 49
-1.0
 74
     0
  0
LTYPE
  5
1E
100
AcDbSymbolTableRecord
100
AcDbLinetypeTableRecord
  2
EXLTYPE2
 70
    64
  3
点線
 72
    65
 73
     2
 40
2.0
 49
1.0
 74
     0
 49
-1.0
 74
     0
  0
LTYPE
  5
1F
100
AcDbSymbolTableRecord
100
AcDbLinetypeTableRecord
  2
EXLTYPE3
 70
    64
  3
一点鎖線
 72
    65
 73
     4
 40
10.0
 49
7.0
 74
     0
 49
-1.0
 74
     0
 49
1.0
 74
     0
 49
-1.0
 74
     0
  0
LTYPE
  5
20
100
AcDbSymbolTableRecord
100
AcDbLinetypeTableRecord
  2
EXLTYPE4
 70
    64
  3
二点鎖線
 72
    65
 73
     6
 40
12.0
 49
7.0
 74
     0
 49
-1.0
 74
     0
 49
1.0
 74
     0
 49
-1.0
 74
     0
 49
1.0
 74
     0
 49
-1.0
 74
     0
  0
LTYPE
  5
21
100
AcDbSymbolTableRecord
100
AcDbLinetypeTableRecord
  2
EXLTYPE5
 70
    64
  3
三点鎖線
 72
    65
 73
     8
 40
37.0
 49
30.0
 74
     0
 49
-1.0
 74
     0
 49
1.0
 74
     0
 49
-1.0
 74
     0
 49
1.0
 74
     0
 49
-1.0
 74
     0
 49
1.0
 74
     0
 49
-1.0
 74
     0
  0
LTYPE
  5
22
100
AcDbSymbolTableRecord
100
AcDbLinetypeTableRecord
  2
EXLTYPE6
 70
    64
  3
四点鎖線
 72
    65
 73
    10
 40
39.0
 49
30.0
 74
     0
 49
-1.0
 74
     0
 49
1.0
 74
     0
 49
-1.0
 74
     0
 49
1.0
 74
     0
 49
-1.0
 74
     0
 49
1.0
 74
     0
 49
-1.0
 74
     0
 49
1.0
 74
     0
 49
-1.0
 74
     0
  0
ENDTAB
  0
TABLE
  2
LAYER
  5
2
100
AcDbSymbolTable
 70
     4
  0
LAYER
  5
14
100
AcDbSymbolTableRecord
100
AcDbLayerTableRecord
  2
0
 70
     0
 62
     7
  6
CONTINUOUS
  0
LAYER
  5
25
100
AcDbSymbolTableRecord
100
AcDbLayerTableRecord
  2
枠・器具表
 70
    64
 62
     7
  6
CONTINUOUS
  0
LAYER
  5
26
100
AcDbSymbolTableRecord
100
AcDbLayerTableRecord
  2
図
 70
    64
 62
     7
  6
CONTINUOUS
  0
LAYER
  5
27
100
AcDbSymbolTableRecord
100
AcDbLayerTableRecord
  2
寸法
 70
    64
 62
     7
  6
CONTINUOUS
  0
ENDTAB
  0
TABLE
  2
STYLE
  5
3
100
AcDbSymbolTable
 70
     4
  0
STYLE
  5
17
100
AcDbSymbolTableRecord
100
AcDbTextStyleTableRecord
  2
STANDARD
 70
     0
 40
0.0
 41
1.0
 50
0.0
 71
     0
 42
0.0
  3
monotxt
  4
extfont
  0
STYLE
  5
23
100
AcDbSymbolTableRecord
100
AcDbTextStyleTableRecord
  2
EXCADSTD
 70
    64
 40
0.0
 41
1.0
 50
0.0
 71
     0
 42
0.2
  3
monotxt
  4
extfont
  0
STYLE
  5
24
100
AcDbSymbolTableRecord
100
AcDbTextStyleTableRecord
  2
EXCADVERT
 70
    68
 40
0.0
 41
1.0
 50
0.0
 71
     0
 42
0.286885
  3
monotxt
  4
extfont
  0
STYLE
  5
377
100
AcDbSymbolTableRecord
100
AcDbTextStyleTableRecord
  2
EXCADDIM1
 70
    64
 40
0.0
 41
0.84
 50
0.0
 71
     0
 42
0.2
  3
monotxt
  4
extfont
  0
ENDTAB
  0
TABLE
  2
VIEW
  5
5
100
AcDbSymbolTable
 70
     0
  0
ENDTAB
  0
TABLE
  2
UCS
  5
6
100
AcDbSymbolTable
 70
     0
  0
ENDTAB
  0
TABLE
  2
APPID
  5
8
100
AcDbSymbolTable
 70
     1
  0
APPID
  5
16
100
AcDbSymbolTableRecord
100
AcDbRegAppTableRecord
  2
ACAD
 70
     0
  0
ENDTAB
  0
TABLE
  2
DIMSTYLE
  5
9
100
AcDbSymbolTable
 70
     1
  0
DIMSTYLE
105
18
100
AcDbSymbolTableRecord
100
AcDbDimStyleTableRecord
  2
STANDARD
 70
     0
  3

  4

  5

  6

  7

 40
1.0
 41
0.18
 42
0.0625
 43
0.38
 44
0.18
 45
0.0
 46
0.0
 47
0.0
 48
0.0
 71
     0
 72
     0
 73
     1
 74
     1
 75
     0
 76
     0
 77
     0
 78
     0
140
0.18
141
0.09
142
0.0
143
25.4
144
1.0
145
0.0
146
1.0
147
0.09
170
     0
171
     2
172
     1
173
     0
174
     0
175
     0
176
     0
177
     0
178
     0
270
     2
271
     4
272
     4
273
     2
274
     2
275
     0
280
     0
281
     0
282
     0
283
     1
284
     0
285
     0
286
     0
287
     0
288
     0
340
17
  0
ENDTAB
  0
TABLE
  2
BLOCK_RECORD
  5
1
100
AcDbSymbolTable
 70
    23
  0
BLOCK_RECORD
  5
A
100
AcDbSymbolTableRecord
100
AcDbBlockTableRecord
  2
*MODEL_SPACE
  0
BLOCK_RECORD
  5
B
100
AcDbSymbolTableRecord
100
AcDbBlockTableRecord
  2
*PAPER_SPACE
  0
BLOCK_RECORD
  5
28
100
AcDbSymbolTableRecord
100
AcDbBlockTableRecord
  2
_EX_NORM
  0
BLOCK_RECORD
  5
29
100
AcDbSymbolTableRecord
100
AcDbBlockTableRecord
  2
_EX_BNORM
  0
BLOCK_RECORD
  5
2A
100
AcDbSymbolTableRecord
100
AcDbBlockTableRecord
  2
_EX_BCIR
  0
BLOCK_RECORD
  5
2B
100
AcDbSymbolTableRecord
100
AcDbBlockTableRecord
  2
_EX_RCIVIL
  0
BLOCK_RECORD
  5
2C
100
AcDbSymbolTableRecord
100
AcDbBlockTableRecord
  2
_EX_SLANT
  0
BLOCK_RECORD
  5
2D
100
AcDbSymbolTableRecord
100
AcDbBlockTableRecord
  2
_EX_NONE
  0
BLOCK_RECORD
  5
2E
100
AcDbSymbolTableRecord
100
AcDbBlockTableRecord
  2
_EX_CIVIL
  0
BLOCK_RECORD
  5
2F
100
AcDbSymbolTableRecord
100
AcDbBlockTableRecord
  2
_EX_WCIR
  0
BLOCK_RECORD
  5
30
100
AcDbSymbolTableRecord
100
AcDbBlockTableRecord
  2
_EX_WCIR2
  0
BLOCK_RECORD
  5
31
100
AcDbSymbolTableRecord
100
AcDbBlockTableRecord
  2
_EX_WNORM
  0
BLOCK_RECORD
  5
32
100
AcDbSymbolTableRecord
100
AcDbBlockTableRecord
  2
_EX_NNORM
  0
BLOCK_RECORD
  5
33
100
AcDbSymbolTableRecord
100
AcDbBlockTableRecord
  2
_EX_BBOX
  0
BLOCK_RECORD
  5
34
100
AcDbSymbolTableRecord
100
AcDbBlockTableRecord
  2
_EX_WBOX
  0
BLOCK_RECORD
  5
35
100
AcDbSymbolTableRecord
100
AcDbBlockTableRecord
  2
_EX_INTEGRAL
  0
BLOCK_RECORD
  5
36C
100
AcDbSymbolTableRecord
100
AcDbBlockTableRecord
  2
*D14
  0
BLOCK_RECORD
  5
379
100
AcDbSymbolTableRecord
100
AcDbBlockTableRecord
  2
*D15
  0
BLOCK_RECORD
  5
385
100
AcDbSymbolTableRecord
100
AcDbBlockTableRecord
  2
*D16
  0
BLOCK_RECORD
  5
4F1
100
AcDbSymbolTableRecord
100
AcDbBlockTableRecord
  2
*D17
  0
BLOCK_RECORD
  5
510
100
AcDbSymbolTableRecord
100
AcDbBlockTableRecord
  2
*D18
  0
BLOCK_RECORD
  5
51F
100
AcDbSymbolTableRecord
100
AcDbBlockTableRecord
  2
*D19
  0
BLOCK_RECORD
  5
52B
100
AcDbSymbolTableRecord
100
AcDbBlockTableRecord
  2
*D20
  0
BLOCK_RECORD
  5
53A
100
AcDbSymbolTableRecord
100
AcDbBlockTableRecord
  2
*D21
  0
BLOCK_RECORD
  5
546
100
AcDbSymbolTableRecord
100
AcDbBlockTableRecord
  2
*D22
  0
ENDTAB
  0
ENDSEC
  0
SECTION
  2
BLOCKS
  0
BLOCK
  5
D
100
AcDbEntity
  8
0
100
AcDbBlockBegin
  2
*MODEL_SPACE
 70
     0
 10
0.0
 20
0.0
 30
0.0
  3
*MODEL_SPACE
  1

  0
ENDBLK
  5
E
100
AcDbEntity
  8
0
100
AcDbBlockEnd
  0
BLOCK
  5
F
100
AcDbEntity
 67
     1
  8
0
100
AcDbBlockBegin
  2
*PAPER_SPACE
 70
     0
 10
0.0
 20
0.0
 30
0.0
  3
*PAPER_SPACE
  1

  0
ENDBLK
  5
10
100
AcDbEntity
 67
     1
  8
0
100
AcDbBlockEnd
  0
BLOCK
  5
36
100
AcDbEntity
  8
0
100
AcDbBlockBegin
  2
_EX_NORM
 70
     0
 10
0.0
 20
0.0
 30
0.0
  3
_EX_NORM
  1

  0
LINE
  5
37
100
AcDbEntity
  8
0
  6
CONTINUOUS
 62
     0
100
AcDbLine
 10
0.0
 20
0.0
 30
0.0
 11
-1.0
 21
0.0
 31
0.0
  0
LINE
  5
38
100
AcDbEntity
  8
0
  6
CONTINUOUS
 62
     0
100
AcDbLine
 10
0.0
 20
0.0
 30
0.0
 11
-1.0
 21
0.166667
 31
0.0
  0
LINE
  5
39
100
AcDbEntity
  8
0
  6
CONTINUOUS
 62
     0
100
AcDbLine
 10
0.0
 20
0.0
 30
0.0
 11
-1.0
 21
-0.166667
 31
0.0
  0
ENDBLK
  5
3A
100
AcDbEntity
  8
0
100
AcDbBlockEnd
  0
BLOCK
  5
3B
100
AcDbEntity
  8
0
100
AcDbBlockBegin
  2
_EX_BNORM
 70
     0
 10
0.0
 20
0.0
 30
0.0
  3
_EX_BNORM
  1

  0
LINE
  5
3C
100
AcDbEntity
  8
0
  6
CONTINUOUS
 62
     0
100
AcDbLine
 10
0.0
 20
0.0
 30
0.0
 11
-1.0
 21
0.0
 31
0.0
  0
LINE
  5
3D
100
AcDbEntity
  8
0
  6
CONTINUOUS
 62
     0
100
AcDbLine
 10
0.0
 20
0.0
 30
0.0
 11
-1.0
 21
0.166667
 31
0.0
  0
LINE
  5
3E
100
AcDbEntity
  8
0
  6
CONTINUOUS
 62
     0
100
AcDbLine
 10
0.0
 20
0.0
 30
0.0
 11
-1.0
 21
-0.166667
 31
0.0
  0
LINE
  5
3F
100
AcDbEntity
  8
0
  6
CONTINUOUS
 62
     0
100
AcDbLine
 10
0.0
 20
0.0
 30
0.0
 11
-1.0
 21
0.083333
 31
0.0
  0
LINE
  5
40
100
AcDbEntity
  8
0
  6
CONTINUOUS
 62
     0
100
AcDbLine
 10
0.0
 20
0.0
 30
0.0
 11
-1.0
 21
-0.083333
 31
0.0
  0
LINE
  5
41
100
AcDbEntity
  8
0
  6
CONTINUOUS
 62
     0
100
AcDbLine
 10
-1.0
 20
0.166667
 30
0.0
 11
-1.0
 21
-0.166667
 31
0.0
  0
ENDBLK
  5
42
100
AcDbEntity
  8
0
100
AcDbBlockEnd
  0
BLOCK
  5
43
100
AcDbEntity
  8
0
100
AcDbBlockBegin
  2
_EX_BCIR
 70
     0
 10
0.0
 20
0.0
 30
0.0
  3
_EX_BCIR
  1

  0
LINE
  5
44
100
AcDbEntity
  8
0
  6
CONTINUOUS
 62
     0
100
AcDbLine
 10
0.0
 20
0.0
 30
0.0
 11
-1.0
 21
0.0
 31
0.0
  0
CIRCLE
  5
45
100
AcDbEntity
  8
0
  6
CONTINUOUS
 62
     0
100
AcDbCircle
 10
0.0
 20
0.0
 30
0.0
 40
0.5
  0
CIRCLE
  5
46
100
AcDbEntity
  8
0
  6
CONTINUOUS
 62
     0
100
AcDbCircle
 10
0.0
 20
0.0
 30
0.0
 40
0.25
  0
ENDBLK
  5
47
100
AcDbEntity
  8
0
100
AcDbBlockEnd
  0
BLOCK
  5
48
100
AcDbEntity
  8
0
100
AcDbBlockBegin
  2
_EX_RCIVIL
 70
     0
 10
0.0
 20
0.0
 30
0.0
  3
_EX_RCIVIL
  1

  0
LINE
  5
49
100
AcDbEntity
  8
0
  6
CONTINUOUS
 62
     0
100
AcDbLine
 10
0.0
 20
0.0
 30
0.0
 11
-1.0
 21
0.0
 31
0.0
  0
LINE
  5
4A
100
AcDbEntity
  8
0
  6
CONTINUOUS
 62
     0
100
AcDbLine
 10
-1.0
 20
-0.25
 30
0.0
 11
0.0
 21
-0.25
 31
0.0
  0
LINE
  5
4B
100
AcDbEntity
  8
0
  6
CONTINUOUS
 62
     0
100
AcDbLine
 10
-1.0
 20
-0.125
 30
0.0
 11
0.0
 21
-0.125
 31
0.0
  0
ENDBLK
  5
4C
100
AcDbEntity
  8
0
100
AcDbBlockEnd
  0
BLOCK
  5
4D
100
AcDbEntity
  8
0
100
AcDbBlockBegin
  2
_EX_SLANT
 70
     0
 10
0.0
 20
0.0
 30
0.0
  3
_EX_SLANT
  1

  0
LINE
  5
4E
100
AcDbEntity
  8
0
  6
CONTINUOUS
 62
     0
100
AcDbLine
 10
0.0
 20
0.0
 30
0.0
 11
-1.0
 21
0.0
 31
0.0
  0
LINE
  5
4F
100
AcDbEntity
  8
0
  6
CONTINUOUS
 62
     0
100
AcDbLine
 10
0.707107
 20
0.707107
 30
0.0
 11
-0.707107
 21
-0.707107
 31
0.0
  0
ENDBLK
  5
50
100
AcDbEntity
  8
0
100
AcDbBlockEnd
  0
BLOCK
  5
51
100
AcDbEntity
  8
0
100
AcDbBlockBegin
  2
_EX_NONE
 70
     0
 10
0.0
 20
0.0
 30
0.0
  3
_EX_NONE
  1

  0
LINE
  5
52
100
AcDbEntity
  8
0
  6
CONTINUOUS
 62
     0
100
AcDbLine
 10
0.0
 20
0.0
 30
0.0
 11
-1.0
 21
0.0
 31
0.0
  0
ENDBLK
  5
53
100
AcDbEntity
  8
0
100
AcDbBlockEnd
  0
BLOCK
  5
54
100
AcDbEntity
  8
0
100
AcDbBlockBegin
  2
_EX_CIVIL
 70
     0
 10
0.0
 20
0.0
 30
0.0
  3
_EX_CIVIL
  1

  0
LINE
  5
55
100
AcDbEntity
  8
0
  6
CONTINUOUS
 62
     0
100
AcDbLine
 10
0.0
 20
0.0
 30
0.0
 11
-1.0
 21
0.0
 31
0.0
  0
LINE
  5
56
100
AcDbEntity
  8
0
  6
CONTINUOUS
 62
     0
100
AcDbLine
 10
-1.0
 20
0.25
 30
0.0
 11
0.0
 21
0.25
 31
0.0
  0
LINE
  5
57
100
AcDbEntity
  8
0
  6
CONTINUOUS
 62
     0
100
AcDbLine
 10
-1.0
 20
0.125
 30
0.0
 11
0.0
 21
0.125
 31
0.0
  0
ENDBLK
  5
58
100
AcDbEntity
  8
0
100
AcDbBlockEnd
  0
BLOCK
  5
59
100
AcDbEntity
  8
0
100
AcDbBlockBegin
  2
_EX_WCIR
 70
     0
 10
0.0
 20
0.0
 30
0.0
  3
_EX_WCIR
  1

  0
LINE
  5
5A
100
AcDbEntity
  8
0
  6
CONTINUOUS
 62
     0
100
AcDbLine
 10
0.0
 20
0.0
 30
0.0
 11
-1.0
 21
0.0
 31
0.0
  0
CIRCLE
  5
5B
100
AcDbEntity
  8
0
  6
CONTINUOUS
 62
     0
100
AcDbCircle
 10
0.0
 20
0.0
 30
0.0
 40
0.5
  0
ENDBLK
  5
5C
100
AcDbEntity
  8
0
100
AcDbBlockEnd
  0
BLOCK
  5
5D
100
AcDbEntity
  8
0
100
AcDbBlockBegin
  2
_EX_WCIR2
 70
     0
 10
0.0
 20
0.0
 30
0.0
  3
_EX_WCIR2
  1

  0
LINE
  5
5E
100
AcDbEntity
  8
0
  6
CONTINUOUS
 62
     0
100
AcDbLine
 10
-0.5
 20
0.0
 30
0.0
 11
-1.0
 21
0.0
 31
0.0
  0
CIRCLE
  5
5F
100
AcDbEntity
  8
0
  6
CONTINUOUS
 62
     0
100
AcDbCircle
 10
0.0
 20
0.0
 30
0.0
 40
0.5
  0
ENDBLK
  5
60
100
AcDbEntity
  8
0
100
AcDbBlockEnd
  0
BLOCK
  5
61
100
AcDbEntity
  8
0
100
AcDbBlockBegin
  2
_EX_WNORM
 70
     0
 10
0.0
 20
0.0
 30
0.0
  3
_EX_WNORM
  1

  0
LINE
  5
62
100
AcDbEntity
  8
0
  6
CONTINUOUS
 62
     0
100
AcDbLine
 10
-1.0
 20
0.0
 30
0.0
 11
-1.0
 21
0.0
 31
0.0
  0
LINE
  5
63
100
AcDbEntity
  8
0
  6
CONTINUOUS
 62
     0
100
AcDbLine
 10
0.0
 20
0.0
 30
0.0
 11
-1.0
 21
0.166667
 31
0.0
  0
LINE
  5
64
100
AcDbEntity
  8
0
  6
CONTINUOUS
 62
     0
100
AcDbLine
 10
0.0
 20
0.0
 30
0.0
 11
-1.0
 21
-0.166667
 31
0.0
  0
LINE
  5
65
100
AcDbEntity
  8
0
  6
CONTINUOUS
 62
     0
100
AcDbLine
 10
-1.0
 20
0.166667
 30
0.0
 11
-1.0
 21
-0.166667
 31
0.0
  0
ENDBLK
  5
66
100
AcDbEntity
  8
0
100
AcDbBlockEnd
  0
BLOCK
  5
67
100
AcDbEntity
  8
0
100
AcDbBlockBegin
  2
_EX_NNORM
 70
     0
 10
0.0
 20
0.0
 30
0.0
  3
_EX_NNORM
  1

  0
LINE
  5
68
100
AcDbEntity
  8
0
  6
CONTINUOUS
 62
     0
100
AcDbLine
 10
0.0
 20
0.0
 30
0.0
 11
-1.0
 21
0.0
 31
0.0
  0
LINE
  5
69
100
AcDbEntity
  8
0
  6
CONTINUOUS
 62
     0
100
AcDbLine
 10
0.0
 20
0.0
 30
0.0
 11
-1.0
 21
0.166667
 31
0.0
  0
LINE
  5
6A
100
AcDbEntity
  8
0
  6
CONTINUOUS
 62
     0
100
AcDbLine
 10
0.0
 20
0.0
 30
0.0
 11
-1.0
 21
-0.166667
 31
0.0
  0
LINE
  5
6B
100
AcDbEntity
  8
0
  6
CONTINUOUS
 62
     0
100
AcDbLine
 10
-1.0
 20
0.166667
 30
0.0
 11
-1.0
 21
-0.166667
 31
0.0
  0
ENDBLK
  5
6C
100
AcDbEntity
  8
0
100
AcDbBlockEnd
  0
BLOCK
  5
6D
100
AcDbEntity
  8
0
100
AcDbBlockBegin
  2
_EX_BBOX
 70
     0
 10
0.0
 20
0.0
 30
0.0
  3
_EX_BBOX
  1

  0
LINE
  5
6E
100
AcDbEntity
  8
0
  6
CONTINUOUS
 62
     0
100
AcDbLine
 10
0.0
 20
0.0
 30
0.0
 11
-1.0
 21
0.0
 31
0.0
  0
LINE
  5
6F
100
AcDbEntity
  8
0
  6
CONTINUOUS
 62
     0
100
AcDbLine
 10
-0.5
 20
0.5
 30
0.0
 11
0.5
 21
0.5
 31
0.0
  0
LINE
  5
70
100
AcDbEntity
  8
0
  6
CONTINUOUS
 62
     0
100
AcDbLine
 10
0.5
 20
0.5
 30
0.0
 11
0.5
 21
-0.5
 31
0.0
  0
LINE
  5
71
100
AcDbEntity
  8
0
  6
CONTINUOUS
 62
     0
100
AcDbLine
 10
0.5
 20
-0.5
 30
0.0
 11
-0.5
 21
-0.5
 31
0.0
  0
LINE
  5
72
100
AcDbEntity
  8
0
  6
CONTINUOUS
 62
     0
100
AcDbLine
 10
-0.5
 20
-0.5
 30
0.0
 11
-0.5
 21
0.5
 31
0.0
  0
LINE
  5
73
100
AcDbEntity
  8
0
  6
CONTINUOUS
 62
     0
100
AcDbLine
 10
-0.25
 20
0.25
 30
0.0
 11
0.25
 21
0.25
 31
0.0
  0
LINE
  5
74
100
AcDbEntity
  8
0
  6
CONTINUOUS
 62
     0
100
AcDbLine
 10
0.25
 20
0.25
 30
0.0
 11
0.25
 21
-0.25
 31
0.0
  0
LINE
  5
75
100
AcDbEntity
  8
0
  6
CONTINUOUS
 62
     0
100
AcDbLine
 10
0.25
 20
-0.25
 30
0.0
 11
-0.25
 21
-0.25
 31
0.0
  0
LINE
  5
76
100
AcDbEntity
  8
0
  6
CONTINUOUS
 62
     0
100
AcDbLine
 10
-0.25
 20
-0.25
 30
0.0
 11
-0.25
 21
0.25
 31
0.0
  0
ENDBLK
  5
77
100
AcDbEntity
  8
0
100
AcDbBlockEnd
  0
BLOCK
  5
78
100
AcDbEntity
  8
0
100
AcDbBlockBegin
  2
_EX_WBOX
 70
     0
 10
0.0
 20
0.0
 30
0.0
  3
_EX_WBOX
  1

  0
LINE
  5
79
100
AcDbEntity
  8
0
  6
CONTINUOUS
 62
     0
100
AcDbLine
 10
-0.5
 20
0.0
 30
0.0
 11
-1.0
 21
0.0
 31
0.0
  0
LINE
  5
7A
100
AcDbEntity
  8
0
  6
CONTINUOUS
 62
     0
100
AcDbLine
 10
-0.5
 20
0.5
 30
0.0
 11
0.5
 21
0.5
 31
0.0
  0
LINE
  5
7B
100
AcDbEntity
  8
0
  6
CONTINUOUS
 62
     0
100
AcDbLine
 10
0.5
 20
0.5
 30
0.0
 11
0.5
 21
-0.5
 31
0.0
  0
LINE
  5
7C
100
AcDbEntity
  8
0
  6
CONTINUOUS
 62
     0
100
AcDbLine
 10
0.5
 20
-0.5
 30
0.0
 11
-0.5
 21
-0.5
 31
0.0
  0
LINE
  5
7D
100
AcDbEntity
  8
0
  6
CONTINUOUS
 62
     0
100
AcDbLine
 10
-0.5
 20
-0.5
 30
0.0
 11
-0.5
 21
0.5
 31
0.0
  0
ENDBLK
  5
7E
100
AcDbEntity
  8
0
100
AcDbBlockEnd
  0
BLOCK
  5
7F
100
AcDbEntity
  8
0
100
AcDbBlockBegin
  2
_EX_INTEGRAL
 70
     0
 10
0.0
 20
0.0
 30
0.0
  3
_EX_INTEGRAL
  1

  0
LINE
  5
80
100
AcDbEntity
  8
0
  6
CONTINUOUS
 62
     0
100
AcDbLine
 10
0.0
 20
0.0
 30
0.0
 11
-1.0
 21
0.0
 31
0.0
  0
ARC
  5
81
100
AcDbEntity
  8
0
  6
CONTINUOUS
 62
     0
100
AcDbCircle
 10
0.542115
 20
0.164992
 30
0.0
 40
0.56667
100
AcDbArc
 50
73.07249
 51
196.927513
  0
ARC
  5
82
100
AcDbEntity
  8
0
  6
CONTINUOUS
 62
     0
100
AcDbCircle
 10
-0.542115
 20
-0.164992
 30
0.0
 40
0.56667
100
AcDbArc
 50
253.072487
 51
16.927513
  0
ENDBLK
  5
83
100
AcDbEntity
  8
0
100
AcDbBlockEnd
  0
BLOCK
  5
36D
100
AcDbEntity
  8
0
100
AcDbBlockBegin
  2
*D14
 70
    65
 10
0.0
 20
0.0
 30
0.0
  3
*D14
  1

  0
LINE
  5
36E
100
AcDbEntity
  8
図
  6
CONTINUOUS
 62
     3
100
AcDbLine
 10
132.625012
 20
341.97107
 30
0.0
 11
182.625016
 21
341.97107
 31
0.0
  0
LINE
  5
36F
100
AcDbEntity
  8
図
  6
CONTINUOUS
 62
     3
100
AcDbLine
 10
140.125012
 20
343.22107
 30
0.0
 11
132.625012
 21
341.97107
 31
0.0
  0
LINE
  5
370
100
AcDbEntity
  8
図
  6
CONTINUOUS
 62
     3
100
AcDbLine
 10
132.625012
 20
341.97107
 30
0.0
 11
140.125012
 21
340.72107
 31
0.0
  0
LINE
  5
371
100
AcDbEntity
  8
図
  6
CONTINUOUS
 62
     3
100
AcDbLine
 10
175.125016
 20
340.72107
 30
0.0
 11
182.625016
 21
341.97107
 31
0.0
  0
LINE
  5
372
100
AcDbEntity
  8
図
  6
CONTINUOUS
 62
     3
100
AcDbLine
 10
182.625016
 20
341.97107
 30
0.0
 11
175.125016
 21
343.22107
 31
0.0
  0
TEXT
  5
373
100
AcDbEntity
  8
図
  6
CONTINUOUS
 62
     2
100
AcDbText
 10
150.275014
 20
342.84607
 30
0.0
 40
10.0
  1
50
 41
0.84
  7
EXCADSTD
 72
     1
 11
157.625014
 21
342.84607
 31
0.0
100
AcDbText
  0
LINE
  5
374
100
AcDbEntity
  8
図
  6
CONTINUOUS
 62
     3
100
AcDbLine
 10
132.625012
 20
401.726003
 30
0.0
 11
132.625012
 21
339.47107
 31
0.0
  0
LINE
  5
375
100
AcDbEntity
  8
図
  6
CONTINUOUS
 62
     3
100
AcDbLine
 10
182.625016
 20
401.726003
 30
0.0
 11
182.625016
 21
339.47107
 31
0.0
  0
ENDBLK
  5
376
100
AcDbEntity
  8
0
100
AcDbBlockEnd
  0
BLOCK
  5
37A
100
AcDbEntity
  8
0
100
AcDbBlockBegin
  2
*D15
 70
    65
 10
0.0
 20
0.0
 30
0.0
  3
*D15
  1

  0
LINE
  5
37B
100
AcDbEntity
  8
図
  6
CONTINUOUS
 62
     3
100
AcDbLine
 10
122.625032
 20
380.401169
 30
0.0
 11
122.625032
 21
324.47107
 31
0.0
  0
LINE
  5
37C
100
AcDbEntity
  8
図
  6
CONTINUOUS
 62
     3
100
AcDbLine
 10
192.624986
 20
380.401169
 30
0.0
 11
192.624986
 21
324.47107
 31
0.0
  0
TEXT
  5
37D
100
AcDbEntity
  8
図
  6
CONTINUOUS
 62
     2
100
AcDbText
 10
150.275009
 20
327.84607
 30
0.0
 40
10.0
  1
70
 41
0.84
  7
EXCADSTD
 72
     1
 11
157.625009
 21
327.84607
 31
0.0
100
AcDbText
  0
LINE
  5
37E
100
AcDbEntity
  8
図
  6
CONTINUOUS
 62
     3
100
AcDbLine
 10
122.625032
 20
326.97107
 30
0.0
 11
192.624986
 21
326.97107
 31
0.0
  0
LINE
  5
37F
100
AcDbEntity
  8
図
  6
CONTINUOUS
 62
     3
100
AcDbLine
 10
130.125032
 20
328.22107
 30
0.0
 11
122.625032
 21
326.97107
 31
0.0
  0
LINE
  5
380
100
AcDbEntity
  8
図
  6
CONTINUOUS
 62
     3
100
AcDbLine
 10
122.625032
 20
326.97107
 30
0.0
 11
130.125032
 21
325.72107
 31
0.0
  0
LINE
  5
381
100
AcDbEntity
  8
図
  6
CONTINUOUS
 62
     3
100
AcDbLine
 10
185.124986
 20
325.72107
 30
0.0
 11
192.624986
 21
326.97107
 31
0.0
  0
LINE
  5
382
100
AcDbEntity
  8
図
  6
CONTINUOUS
 62
     3
100
AcDbLine
 10
192.624986
 20
326.97107
 30
0.0
 11
185.124986
 21
328.22107
 31
0.0
  0
ENDBLK
  5
383
100
AcDbEntity
  8
0
100
AcDbBlockEnd
  0
BLOCK
  5
386
100
AcDbEntity
  8
0
100
AcDbBlockBegin
  2
*D16
 70
    65
 10
0.0
 20
0.0
 30
0.0
  3
*D16
  1

  0
LINE
  5
387
100
AcDbEntity
  8
図
  6
CONTINUOUS
 62
     3
100
AcDbLine
 10
71.033239
 20
377.699002
 30
0.0
 11
71.033239
 21
309.47107
 31
0.0
  0
LINE
  5
388
100
AcDbEntity
  8
図
  6
CONTINUOUS
 62
     3
100
AcDbLine
 10
240.125016
 20
375.221083
 30
0.0
 11
240.125016
 21
309.47107
 31
0.0
  0
TEXT
  5
389
100
AcDbEntity
  8
図
  6
CONTINUOUS
 62
     2
100
AcDbText
 10
145.079127
 20
312.84607
 30
0.0
 40
10.0
  1
170
 41
0.84
  7
EXCADSTD
 72
     1
 11
155.579127
 21
312.84607
 31
0.0
100
AcDbText
  0
LINE
  5
38A
100
AcDbEntity
  8
図
  6
CONTINUOUS
 62
     3
100
AcDbLine
 10
71.033239
 20
311.97107
 30
0.0
 11
240.125016
 21
311.97107
 31
0.0
  0
LINE
  5
38B
100
AcDbEntity
  8
図
  6
CONTINUOUS
 62
     3
100
AcDbLine
 10
78.533239
 20
313.22107
 30
0.0
 11
71.033239
 21
311.97107
 31
0.0
  0
LINE
  5
38C
100
AcDbEntity
  8
図
  6
CONTINUOUS
 62
     3
100
AcDbLine
 10
71.033239
 20
311.97107
 30
0.0
 11
78.533239
 21
310.72107
 31
0.0
  0
LINE
  5
38D
100
AcDbEntity
  8
図
  6
CONTINUOUS
 62
     3
100
AcDbLine
 10
232.625016
 20
310.72107
 30
0.0
 11
240.125016
 21
311.97107
 31
0.0
  0
LINE
  5
38E
100
AcDbEntity
  8
図
  6
CONTINUOUS
 62
     3
100
AcDbLine
 10
240.125016
 20
311.97107
 30
0.0
 11
232.625016
 21
313.22107
 31
0.0
  0
ENDBLK
  5
38F
100
AcDbEntity
  8
0
100
AcDbBlockEnd
  0
BLOCK
  5
4F2
100
AcDbEntity
  8
0
100
AcDbBlockBegin
  2
*D17
 70
    65
 10
0.0
 20
0.0
 30
0.0
  3
*D17
  1

  0
LINE
  5
4F3
100
AcDbEntity
  8
寸法
  6
CONTINUOUS
 62
     3
100
AcDbLine
 10
95.125022
 20
464.8
 30
0.0
 11
220.125016
 21
464.8
 31
0.0
  0
LINE
  5
4F4
100
AcDbEntity
  8
寸法
  6
CONTINUOUS
 62
     3
100
AcDbLine
 10
102.625022
 20
466.05
 30
0.0
 11
95.125022
 21
464.8
 31
0.0
  0
LINE
  5
4F5
100
AcDbEntity
  8
寸法
  6
CONTINUOUS
 62
     3
100
AcDbLine
 10
95.125022
 20
464.8
 30
0.0
 11
102.625022
 21
463.55
 31
0.0
  0
LINE
  5
4F6
100
AcDbEntity
  8
寸法
  6
CONTINUOUS
 62
     3
100
AcDbLine
 10
212.625016
 20
463.55
 30
0.0
 11
220.125016
 21
464.8
 31
0.0
  0
LINE
  5
4F7
100
AcDbEntity
  8
寸法
  6
CONTINUOUS
 62
     3
100
AcDbLine
 10
220.125016
 20
464.8
 30
0.0
 11
212.625016
 21
466.05
 31
0.0
  0
TEXT
  5
4F8
100
AcDbEntity
  8
寸法
  6
CONTINUOUS
 62
     2
100
AcDbText
 10
147.125019
 20
465.675
 30
0.0
 40
10.0
  1
125
 41
0.84
  7
EXCADSTD
 72
     1
 11
157.625019
 21
465.675
 31
0.0
100
AcDbText
  0
LINE
  5
4F9
100
AcDbEntity
  8
寸法
  6
CONTINUOUS
 62
     3
100
AcDbLine
 10
95.125022
 20
434.466238
 30
0.0
 11
95.125022
 21
467.3
 31
0.0
  0
LINE
  5
4FA
100
AcDbEntity
  8
寸法
  6
CONTINUOUS
 62
     3
100
AcDbLine
 10
220.125016
 20
434.466238
 30
0.0
 11
220.125016
 21
467.3
 31
0.0
  0
ENDBLK
  5
4FB
100
AcDbEntity
  8
0
100
AcDbBlockEnd
  0
BLOCK
  5
511
100
AcDbEntity
  8
0
100
AcDbBlockBegin
  2
*D18
 70
    65
 10
0.0
 20
0.0
 30
0.0
  3
*D18
  1

  0
LINE
  5
512
100
AcDbEntity
  8
寸法
  6
CONTINUOUS
 62
     3
100
AcDbLine
 10
125.785462
 20
409.151169
 30
0.0
 11
82.7
 21
409.151169
 31
0.0
  0
LINE
  5
513
100
AcDbEntity
  8
寸法
  6
CONTINUOUS
 62
     3
100
AcDbLine
 10
151.525012
 20
391.151169
 30
0.0
 11
82.7
 21
391.151169
 31
0.0
  0
TEXT
  5
514
100
AcDbEntity
  8
寸法
  6
CONTINUOUS
 62
     2
100
AcDbText
 10
84.325
 20
392.801169
 30
0.0
 40
10.0
  1
18
 50
90.0
 41
0.84
  7
EXCADSTD
 72
     1
 11
84.325
 21
400.151169
 31
0.0
100
AcDbText
  0
LINE
  5
515
100
AcDbEntity
  8
寸法
  6
CONTINUOUS
 62
     3
100
AcDbLine
 10
85.2
 20
409.151169
 30
0.0
 11
85.2
 21
391.151169
 31
0.0
  0
LINE
  5
516
100
AcDbEntity
  8
寸法
  6
CONTINUOUS
 62
     3
100
AcDbLine
 10
86.45
 20
401.651169
 30
0.0
 11
85.2
 21
409.151169
 31
0.0
  0
LINE
  5
517
100
AcDbEntity
  8
寸法
  6
CONTINUOUS
 62
     3
100
AcDbLine
 10
85.2
 20
409.151169
 30
0.0
 11
83.95
 21
401.651169
 31
0.0
  0
LINE
  5
518
100
AcDbEntity
  8
寸法
  6
CONTINUOUS
 62
     3
100
AcDbLine
 10
83.95
 20
398.651169
 30
0.0
 11
85.2
 21
391.151169
 31
0.0
  0
LINE
  5
519
100
AcDbEntity
  8
寸法
  6
CONTINUOUS
 62
     3
100
AcDbLine
 10
85.2
 20
391.151169
 30
0.0
 11
86.45
 21
398.651169
 31
0.0
  0
ENDBLK
  5
51A
100
AcDbEntity
  8
0
100
AcDbBlockEnd
  0
BLOCK
  5
520
100
AcDbEntity
  8
0
100
AcDbBlockBegin
  2
*D19
 70
    65
 10
0.0
 20
0.0
 30
0.0
  3
*D19
  1

  0
LINE
  5
521
100
AcDbEntity
  8
寸法
  6
CONTINUOUS
 62
     3
100
AcDbLine
 10
489.9
 20
382.151169
 30
0.0
 11
489.9
 21
427.151169
 31
0.0
  0
LINE
  5
522
100
AcDbEntity
  8
寸法
  6
CONTINUOUS
 62
     3
100
AcDbLine
 10
488.65
 20
389.651169
 30
0.0
 11
489.9
 21
382.151169
 31
0.0
  0
LINE
  5
523
100
AcDbEntity
  8
寸法
  6
CONTINUOUS
 62
     3
100
AcDbLine
 10
489.9
 20
382.151169
 30
0.0
 11
491.15
 21
389.651169
 31
0.0
  0
LINE
  5
524
100
AcDbEntity
  8
寸法
  6
CONTINUOUS
 62
     3
100
AcDbLine
 10
491.15
 20
419.651169
 30
0.0
 11
489.9
 21
427.151169
 31
0.0
  0
LINE
  5
525
100
AcDbEntity
  8
寸法
  6
CONTINUOUS
 62
     3
100
AcDbLine
 10
489.9
 20
427.151169
 30
0.0
 11
488.65
 21
419.651169
 31
0.0
  0
TEXT
  5
526
100
AcDbEntity
  8
寸法
  6
CONTINUOUS
 62
     2
100
AcDbText
 10
489.025
 20
397.301169
 30
0.0
 40
10.0
  1
45
 50
90.0
 41
0.84
  7
EXCADSTD
 72
     1
 11
489.025
 21
404.651169
 31
0.0
100
AcDbText
  0
LINE
  5
527
100
AcDbEntity
  8
寸法
  6
CONTINUOUS
 62
     3
100
AcDbLine
 10
436.794442
 20
382.151169
 30
0.0
 11
492.4
 21
382.151169
 31
0.0
  0
LINE
  5
528
100
AcDbEntity
  8
寸法
  6
CONTINUOUS
 62
     3
100
AcDbLine
 10
436.794442
 20
427.151169
 30
0.0
 11
492.4
 21
427.151169
 31
0.0
  0
ENDBLK
  5
529
100
AcDbEntity
  8
0
100
AcDbBlockEnd
  0
BLOCK
  5
52C
100
AcDbEntity
  8
0
100
AcDbBlockBegin
  2
*D20
 70
    65
 10
0.0
 20
0.0
 30
0.0
  3
*D20
  1

  0
LINE
  5
52D
100
AcDbEntity
  8
寸法
  6
CONTINUOUS
 62
     3
100
AcDbLine
 10
309.306787
 20
405.655322
 30
0.0
 11
309.306787
 21
467.3
 31
0.0
  0
LINE
  5
52E
100
AcDbEntity
  8
寸法
  6
CONTINUOUS
 62
     3
100
AcDbLine
 10
435.044442
 20
428.901169
 30
0.0
 11
435.044442
 21
467.3
 31
0.0
  0
TEXT
  5
52F
100
AcDbEntity
  8
寸法
  6
CONTINUOUS
 62
     2
100
AcDbText
 10
361.675614
 20
465.675
 30
0.0
 40
10.0
  1
126
 41
0.84
  7
EXCADSTD
 72
     1
 11
372.175614
 21
465.675
 31
0.0
100
AcDbText
  0
LINE
  5
530
100
AcDbEntity
  8
寸法
  6
CONTINUOUS
 62
     3
100
AcDbLine
 10
309.306787
 20
464.8
 30
0.0
 11
435.044442
 21
464.8
 31
0.0
  0
LINE
  5
531
100
AcDbEntity
  8
寸法
  6
CONTINUOUS
 62
     3
100
AcDbLine
 10
316.806787
 20
466.05
 30
0.0
 11
309.306787
 21
464.8
 31
0.0
  0
LINE
  5
532
100
AcDbEntity
  8
寸法
  6
CONTINUOUS
 62
     3
100
AcDbLine
 10
309.306787
 20
464.8
 30
0.0
 11
316.806787
 21
463.55
 31
0.0
  0
LINE
  5
533
100
AcDbEntity
  8
寸法
  6
CONTINUOUS
 62
     3
100
AcDbLine
 10
427.544442
 20
463.55
 30
0.0
 11
435.044442
 21
464.8
 31
0.0
  0
LINE
  5
534
100
AcDbEntity
  8
寸法
  6
CONTINUOUS
 62
     3
100
AcDbLine
 10
435.044442
 20
464.8
 30
0.0
 11
427.544442
 21
466.05
 31
0.0
  0
ENDBLK
  5
535
100
AcDbEntity
  8
0
100
AcDbBlockEnd
  0
BLOCK
  5
53B
100
AcDbEntity
  8
0
100
AcDbBlockBegin
  2
*D21
 70
    65
 10
0.0
 20
0.0
 30
0.0
  3
*D21
  1

  0
LINE
  5
53C
100
AcDbEntity
  8
寸法
  6
CONTINUOUS
 62
     3
100
AcDbLine
 10
430.044442
 20
362.151169
 30
0.0
 11
462.542934
 21
362.151169
 31
0.0
  0
LINE
  5
53D
100
AcDbEntity
  8
寸法
  6
CONTINUOUS
 62
     3
100
AcDbLine
 10
437.544442
 20
363.401169
 30
0.0
 11
430.044442
 21
362.151169
 31
0.0
  0
LINE
  5
53E
100
AcDbEntity
  8
寸法
  6
CONTINUOUS
 62
     3
100
AcDbLine
 10
430.044442
 20
362.151169
 30
0.0
 11
437.544442
 21
360.901169
 31
0.0
  0
LINE
  5
53F
100
AcDbEntity
  8
寸法
  6
CONTINUOUS
 62
     3
100
AcDbLine
 10
455.042934
 20
360.901169
 30
0.0
 11
462.542934
 21
362.151169
 31
0.0
  0
LINE
  5
540
100
AcDbEntity
  8
寸法
  6
CONTINUOUS
 62
     3
100
AcDbLine
 10
462.542934
 20
362.151169
 30
0.0
 11
455.042934
 21
363.401169
 31
0.0
  0
TEXT
  5
541
100
AcDbEntity
  8
寸法
  6
CONTINUOUS
 62
     2
100
AcDbText
 10
434.743688
 20
363.026169
 30
0.0
 40
10.0
  1
32.5
 41
0.84
  7
EXCADSTD
 72
     1
 11
446.293688
 21
363.026169
 31
0.0
100
AcDbText
  0
LINE
  5
542
100
AcDbEntity
  8
寸法
  6
CONTINUOUS
 62
     3
100
AcDbLine
 10
430.044442
 20
383.401169
 30
0.0
 11
430.044442
 21
359.651169
 31
0.0
  0
LINE
  5
543
100
AcDbEntity
  8
寸法
  6
CONTINUOUS
 62
     3
100
AcDbLine
 10
462.542934
 20
389.400807
 30
0.0
 11
462.542934
 21
359.651169
 31
0.0
  0
ENDBLK
  5
544
100
AcDbEntity
  8
0
100
AcDbBlockEnd
  0
BLOCK
  5
547
100
AcDbEntity
  8
0
100
AcDbBlockBegin
  2
*D22
 70
    65
 10
0.0
 20
0.0
 30
0.0
  3
*D22
  1

  0
LINE
  5
548
100
AcDbEntity
  8
寸法
  6
CONTINUOUS
 62
     3
100
AcDbLine
 10
342.94341
 20
357.523759
 30
0.0
 11
270.3
 21
357.523759
 31
0.0
  0
LINE
  5
549
100
AcDbEntity
  8
寸法
  6
CONTINUOUS
 62
     3
100
AcDbLine
 10
383.29442
 20
434.651169
 30
0.0
 11
270.3
 21
434.651169
 31
0.0
  0
LINE
  5
54A
100
AcDbEntity
  8
寸法
  6
CONTINUOUS
 62
     3
100
AcDbLine
 10
272.8
 20
357.523759
 30
0.0
 11
272.8
 21
434.651169
 31
0.0
  0
LINE
  5
54B
100
AcDbEntity
  8
寸法
  6
CONTINUOUS
 62
     3
100
AcDbLine
 10
271.55
 20
365.023759
 30
0.0
 11
272.8
 21
357.523759
 31
0.0
  0
LINE
  5
54C
100
AcDbEntity
  8
寸法
  6
CONTINUOUS
 62
     3
100
AcDbLine
 10
272.8
 20
357.523759
 30
0.0
 11
274.05
 21
365.023759
 31
0.0
  0
LINE
  5
54D
100
AcDbEntity
  8
寸法
  6
CONTINUOUS
 62
     3
100
AcDbLine
 10
274.05
 20
427.151169
 30
0.0
 11
272.8
 21
434.651169
 31
0.0
  0
LINE
  5
54E
100
AcDbEntity
  8
寸法
  6
CONTINUOUS
 62
     3
100
AcDbLine
 10
272.8
 20
434.651169
 30
0.0
 11
271.55
 21
427.151169
 31
0.0
  0
TEXT
  5
54F
100
AcDbEntity
  8
寸法
  6
CONTINUOUS
 62
     2
100
AcDbText
 10
271.925
 20
388.737464
 30
0.0
 40
10.0
  1
77
 50
90.0
 41
0.84
  7
EXCADSTD
 72
     1
 11
271.925
 21
396.087464
 31
0.0
100
AcDbText
  0
ENDBLK
  5
550
100
AcDbEntity
  8
0
100
AcDbBlockEnd
  0
ENDSEC
  0
SECTION
  2
ENTITIES
  0
LINE
  5
84
100
AcDbEntity
  8
枠・器具表
  6
CONTINUOUS
 62
     7
100
AcDbLine
 10
45.0
 20
28.75
 30
0.0
 11
500.0
 21
28.75
 31
0.0
  0
LINE
  5
85
100
AcDbEntity
  8
枠・器具表
  6
CONTINUOUS
 62
     7
100
AcDbLine
 10
500.0
 20
28.75
 30
0.0
 11
500.0
 21
723.75
 31
0.0
  0
LINE
  5
86
100
AcDbEntity
  8
枠・器具表
  6
CONTINUOUS
 62
     7
100
AcDbLine
 10
45.0
 20
28.75
 30
0.0
 11
45.0
 21
723.75
 31
0.0
  0
LINE
  5
87
100
AcDbEntity
  8
枠・器具表
  6
CONTINUOUS
 62
     7
100
AcDbLine
 10
45.0
 20
83.75
 30
0.0
 11
500.0
 21
83.75
 31
0.0
  0
LINE
  5
88
100
AcDbEntity
  8
枠・器具表
  6
CONTINUOUS
 62
     6
100
AcDbLine
 10
500.0
 20
53.75
 30
0.0
 11
187.5
 21
53.75
 31
0.0
  0
LINE
  5
89
100
AcDbEntity
  8
枠・器具表
  6
CONTINUOUS
 62
     6
100
AcDbLine
 10
465.0
 20
83.75
 30
0.0
 11
465.0
 21
53.75
 31
0.0
  0
LINE
  5
8A
100
AcDbEntity
  8
枠・器具表
  6
CONTINUOUS
 62
     6
100
AcDbLine
 10
452.5
 20
83.75
 30
0.0
 11
452.5
 21
53.75
 31
0.0
  0
LINE
  5
8B
100
AcDbEntity
  8
枠・器具表
  6
CONTINUOUS
 62
     6
100
AcDbLine
 10
360.0
 20
83.75
 30
0.0
 11
360.0
 21
28.75
 31
0.0
  0
LINE
  5
8C
100
AcDbEntity
  8
枠・器具表
  6
CONTINUOUS
 62
     6
100
AcDbLine
 10
347.5
 20
83.75
 30
0.0
 11
347.5
 21
28.75
 31
0.0
  0
LINE
  5
8D
100
AcDbEntity
  8
枠・器具表
  6
CONTINUOUS
 62
     6
100
AcDbLine
 10
200.0
 20
83.75
 30
0.0
 11
200.0
 21
53.75
 31
0.0
  0
LINE
  5
8E
100
AcDbEntity
  8
枠・器具表
  6
CONTINUOUS
 62
     6
100
AcDbLine
 10
187.5
 20
83.75
 30
0.0
 11
187.5
 21
28.75
 31
0.0
  0
LINE
  5
8F
100
AcDbEntity
  8
枠・器具表
  6
CONTINUOUS
 62
     6
100
AcDbLine
 10
155.0
 20
83.75
 30
0.0
 11
155.0
 21
28.75
 31
0.0
  0
LINE
  5
90
100
AcDbEntity
  8
枠・器具表
  6
CONTINUOUS
 62
     6
100
AcDbLine
 10
122.5
 20
83.75
 30
0.0
 11
122.5
 21
28.75
 31
0.0
  0
LINE
  5
91
100
AcDbEntity
  8
枠・器具表
  6
CONTINUOUS
 62
     6
100
AcDbLine
 10
83.75
 20
83.75
 30
0.0
 11
83.75
 21
28.75
 31
0.0
  0
LINE
  5
92
100
AcDbEntity
  8
枠・器具表
  6
CONTINUOUS
 62
     6
100
AcDbLine
 10
45.0
 20
71.25
 30
0.0
 11
187.5
 21
71.25
 31
0.0
  0
TEXT
  5
93
100
AcDbEntity
  8
枠・器具表
  6
CONTINUOUS
 62
     2
100
AcDbText
 10
471.569824
 20
63.337212
 30
0.0
 40
10.0
  1
ＮＳ
 41
0.8925
  7
EXCADSTD
 72
     5
 11
491.047574
 21
63.337212
 31
0.0
100
AcDbText
  0
TEXT
  5
94
100
AcDbEntity
  8
枠・器具表
  6
CONTINUOUS
 62
     2
100
AcDbText
 10
50.625
 20
72.1875
 30
0.0
 40
10.625
  1
製図
 41
1.087059
  7
EXCADSTD
 72
     5
 11
75.8315
 21
72.1875
 31
0.0
100
AcDbText
  0
TEXT
  5
95
100
AcDbEntity
  8
枠・器具表
  6
CONTINUOUS
 62
     2
100
AcDbText
 10
89.375
 20
72.1875
 30
0.0
 40
10.625
  1
写図
 41
1.087059
  7
EXCADSTD
 72
     5
 11
114.5815
 21
72.1875
 31
0.0
100
AcDbText
  0
TEXT
  5
96
100
AcDbEntity
  8
枠・器具表
  6
CONTINUOUS
 62
     2
100
AcDbText
 10
126.875
 20
72.1875
 30
0.0
 40
10.625
  1
検図
 41
0.938824
  7
EXCADSTD
 72
     5
 11
148.64425
 21
72.1875
 31
0.0
100
AcDbText
  0
TEXT
  5
97
100
AcDbEntity
  8
枠・器具表
  6
CONTINUOUS
 62
     2
100
AcDbText
 10
159.375
 20
72.1875
 30
0.0
 40
10.625
  1
承認
 41
0.938824
  7
EXCADSTD
 72
     5
 11
181.14425
 21
72.1875
 31
0.0
100
AcDbText
  0
TEXT
  5
98
100
AcDbEntity
  8
枠・器具表
  6
CONTINUOUS
 62
     2
100
AcDbText
 10
188.9375
 20
69.6875
 30
0.0
 40
10.625
  1
品
 41
0.84
  7
EXCADSTD
 72
     5
 11
197.4375
 21
69.6875
 31
0.0
100
AcDbText
  0
TEXT
  5
99
100
AcDbEntity
  8
枠・器具表
  6
CONTINUOUS
 62
     2
100
AcDbText
 10
188.9375
 20
57.1875
 30
0.0
 40
10.625
  1
名
 41
0.84
  7
EXCADSTD
 72
     5
 11
197.4375
 21
57.1875
 31
0.0
100
AcDbText
  0
TEXT
  5
9A
100
AcDbEntity
  8
枠・器具表
  6
CONTINUOUS
 62
     2
100
AcDbText
 10
348.9375
 20
69.6875
 30
0.0
 40
10.625
  1
品
 41
0.84
  7
EXCADSTD
 72
     5
 11
357.4375
 21
69.6875
 31
0.0
100
AcDbText
  0
TEXT
  5
9B
100
AcDbEntity
  8
枠・器具表
  6
CONTINUOUS
 62
     2
100
AcDbText
 10
348.9375
 20
57.1875
 30
0.0
 40
10.625
  1
番
 41
0.84
  7
EXCADSTD
 72
     5
 11
357.4375
 21
57.1875
 31
0.0
100
AcDbText
  0
TEXT
  5
9C
100
AcDbEntity
  8
枠・器具表
  6
CONTINUOUS
 62
     2
100
AcDbText
 10
454.1875
 20
69.6875
 30
0.0
 40
10.625
  1
尺
 41
0.84
  7
EXCADSTD
 72
     5
 11
462.6875
 21
69.6875
 31
0.0
100
AcDbText
  0
TEXT
  5
9D
100
AcDbEntity
  8
枠・器具表
  6
CONTINUOUS
 62
     2
100
AcDbText
 10
454.1875
 20
57.1875
 30
0.0
 40
10.625
  1
度
 41
0.84
  7
EXCADSTD
 72
     5
 11
462.6875
 21
57.1875
 31
0.0
100
AcDbText
  0
TEXT
  5
9E
100
AcDbEntity
  8
枠・器具表
  6
CONTINUOUS
 62
     2
100
AcDbText
 10
348.9375
 20
41.4375
 30
0.0
 40
10.625
  1
図
 41
0.84
  7
EXCADSTD
 72
     5
 11
357.4375
 21
41.4375
 31
0.0
100
AcDbText
  0
TEXT
  5
9F
100
AcDbEntity
  8
枠・器具表
  6
CONTINUOUS
 62
     2
100
AcDbText
 10
348.9375
 20
30.6875
 30
0.0
 40
10.625
  1
番
 41
0.84
  7
EXCADSTD
 72
     5
 11
357.4375
 21
30.6875
 31
0.0
100
AcDbText
  0
LINE
  5
A0
100
AcDbEntity
  8
枠・器具表
  6
CONTINUOUS
 62
     3
100
AcDbLine
 10
206.861938
 20
45.071999
 30
0.0
 11
204.846024
 21
45.071999
 31
0.0
  0
LINE
  5
A1
100
AcDbEntity
  8
枠・器具表
  6
CONTINUOUS
 62
     3
100
AcDbLine
 10
206.861938
 20
47.08799
 30
0.0
 11
206.861938
 21
45.071999
 31
0.0
  0
LINE
  5
A2
100
AcDbEntity
  8
枠・器具表
  6
CONTINUOUS
 62
     3
100
AcDbLine
 10
204.846024
 20
47.08799
 30
0.0
 11
206.861938
 21
47.08799
 31
0.0
  0
LINE
  5
A3
100
AcDbEntity
  8
枠・器具表
  6
CONTINUOUS
 62
     3
100
AcDbLine
 10
204.846024
 20
47.08799
 30
0.0
 11
204.846024
 21
45.071999
 31
0.0
  0
LINE
  5
A4
100
AcDbEntity
  8
枠・器具表
  6
CONTINUOUS
 62
     3
100
AcDbLine
 10
204.089798
 20
45.071999
 30
0.0
 11
202.073883
 21
45.071999
 31
0.0
  0
LINE
  5
A5
100
AcDbEntity
  8
枠・器具表
  6
CONTINUOUS
 62
     3
100
AcDbLine
 10
204.089798
 20
47.08799
 30
0.0
 11
204.089798
 21
45.071999
 31
0.0
  0
LINE
  5
A6
100
AcDbEntity
  8
枠・器具表
  6
CONTINUOUS
 62
     3
100
AcDbLine
 10
202.073883
 20
47.08799
 30
0.0
 11
204.089798
 21
47.08799
 31
0.0
  0
LINE
  5
A7
100
AcDbEntity
  8
枠・器具表
  6
CONTINUOUS
 62
     3
100
AcDbLine
 10
202.073883
 20
47.08799
 30
0.0
 11
202.073883
 21
45.071999
 31
0.0
  0
LINE
  5
A8
100
AcDbEntity
  8
枠・器具表
  6
CONTINUOUS
 62
     3
100
AcDbLine
 10
199.971832
 20
36.0
 30
0.0
 11
192.75
 21
36.0
 31
0.0
  0
ARC
  5
A9
100
AcDbEntity
  8
枠・器具表
  6
CONTINUOUS
 62
     3
100
AcDbCircle
 10
199.971832
 20
40.536018
 30
0.0
 40
4.535999
100
AcDbArc
 50
270.000031
 51
334.000137
  0
LINE
  5
AA
100
AcDbEntity
  8
枠・器具表
  6
CONTINUOUS
 62
     3
100
AcDbLine
 10
206.861938
 20
44.316002
 30
0.0
 11
204.048256
 21
38.547531
 31
0.0
  0
LINE
  5
AB
100
AcDbEntity
  8
枠・器具表
  6
CONTINUOUS
 62
     3
100
AcDbLine
 10
203.778061
 20
44.316002
 30
0.0
 11
206.861938
 21
44.316002
 31
0.0
  0
LINE
  5
AC
100
AcDbEntity
  8
枠・器具表
  6
CONTINUOUS
 62
     3
100
AcDbLine
 10
201.503243
 20
39.652267
 30
0.0
 11
203.778061
 21
44.316002
 31
0.0
  0
ARC
  5
AD
100
AcDbEntity
  8
枠・器具表
  6
CONTINUOUS
 62
     3
100
AcDbCircle
 10
199.691376
 20
40.536018
 30
0.0
 40
2.016
100
AcDbArc
 50
270.000031
 51
333.99855
  0
LINE
  5
AE
100
AcDbEntity
  8
枠・器具表
  6
CONTINUOUS
 62
     3
100
AcDbLine
 10
192.75
 20
38.519989
 30
0.0
 11
199.691376
 21
38.519989
 31
0.0
  0
LINE
  5
AF
100
AcDbEntity
  8
枠・器具表
  6
CONTINUOUS
 62
     3
100
AcDbLine
 10
192.75
 20
38.519989
 30
0.0
 11
192.75
 21
36.0
 31
0.0
  0
LINE
  5
B0
100
AcDbEntity
  8
枠・器具表
  6
CONTINUOUS
 62
     3
100
AcDbLine
 10
199.806236
 20
41.795975
 30
0.0
 11
192.75
 21
41.795975
 31
0.0
  0
LINE
  5
B1
100
AcDbEntity
  8
枠・器具表
  6
CONTINUOUS
 62
     3
100
AcDbLine
 10
199.806236
 20
44.064003
 30
0.0
 11
199.806236
 21
41.795975
 31
0.0
  0
LINE
  5
B2
100
AcDbEntity
  8
枠・器具表
  6
CONTINUOUS
 62
     3
100
AcDbLine
 10
192.75
 20
44.064003
 30
0.0
 11
199.806236
 21
44.064003
 31
0.0
  0
LINE
  5
B3
100
AcDbEntity
  8
枠・器具表
  6
CONTINUOUS
 62
     3
100
AcDbLine
 10
192.75
 20
44.064003
 30
0.0
 11
192.75
 21
41.795975
 31
0.0
  0
LINE
  5
B4
100
AcDbEntity
  8
枠・器具表
  6
CONTINUOUS
 62
     3
100
AcDbLine
 10
199.806236
 20
44.82
 30
0.0
 11
192.75
 21
44.82
 31
0.0
  0
LINE
  5
B5
100
AcDbEntity
  8
枠・器具表
  6
CONTINUOUS
 62
     3
100
AcDbLine
 10
199.806236
 20
47.08799
 30
0.0
 11
199.806236
 21
44.82
 31
0.0
  0
LINE
  5
B6
100
AcDbEntity
  8
枠・器具表
  6
CONTINUOUS
 62
     3
100
AcDbLine
 10
192.75
 20
47.08799
 30
0.0
 11
199.806236
 21
47.08799
 31
0.0
  0
LINE
  5
B7
100
AcDbEntity
  8
枠・器具表
  6
CONTINUOUS
 62
     3
100
AcDbLine
 10
192.75
 20
47.08799
 30
0.0
 11
192.75
 21
44.82
 31
0.0
  0
LINE
  5
B8
100
AcDbEntity
  8
枠・器具表
  6
CONTINUOUS
 62
     3
100
AcDbLine
 10
207.618164
 20
44.316002
 30
0.0
 11
207.618164
 21
42.551971
 31
0.0
  0
LINE
  5
B9
100
AcDbEntity
  8
枠・器具表
  6
CONTINUOUS
 62
     3
100
AcDbLine
 10
207.618164
 20
44.316002
 30
0.0
 11
209.913506
 21
44.316002
 31
0.0
  0
LINE
  5
BA
100
AcDbEntity
  8
枠・器具表
  6
CONTINUOUS
 62
     3
100
AcDbLine
 10
209.634079
 20
46.079994
 30
0.0
 11
209.913506
 21
44.316002
 31
0.0
  0
LINE
  5
BB
100
AcDbEntity
  8
枠・器具表
  6
CONTINUOUS
 62
     3
100
AcDbLine
 10
209.634079
 20
46.079994
 30
0.0
 11
212.44059
 21
46.079994
 31
0.0
  0
LINE
  5
BC
100
AcDbEntity
  8
枠・器具表
  6
CONTINUOUS
 62
     3
100
AcDbLine
 10
212.44059
 20
46.079994
 30
0.0
 11
212.719978
 21
44.316002
 31
0.0
  0
LINE
  5
BD
100
AcDbEntity
  8
枠・器具表
  6
CONTINUOUS
 62
     3
100
AcDbLine
 10
212.719978
 20
44.316002
 30
0.0
 11
219.714188
 21
44.316002
 31
0.0
  0
LINE
  5
BE
100
AcDbEntity
  8
枠・器具表
  6
CONTINUOUS
 62
     3
100
AcDbLine
 10
219.714188
 20
44.316002
 30
0.0
 11
218.243279
 21
41.012627
 31
0.0
  0
ARC
  5
BF
100
AcDbEntity
  8
枠・器具表
  6
CONTINUOUS
 62
     3
100
AcDbCircle
 10
214.790253
 20
42.550102
 30
0.0
 40
3.780026
100
AcDbArc
 50
263.465775
 51
335.998779
  0
LINE
  5
C0
100
AcDbEntity
  8
枠・器具表
  6
CONTINUOUS
 62
     3
100
AcDbLine
 10
214.359612
 20
38.794647
 30
0.0
 11
214.084267
 21
40.536018
 31
0.0
  0
ARC
  5
C1
100
AcDbEntity
  8
枠・器具表
  6
CONTINUOUS
 62
     3
100
AcDbCircle
 10
214.014534
 20
42.048012
 30
0.0
 40
1.512001
100
AcDbArc
 50
272.623749
 51
336.006531
  0
LINE
  5
C2
100
AcDbEntity
  8
枠・器具表
  6
CONTINUOUS
 62
     3
100
AcDbLine
 10
215.396256
 20
41.433006
 30
0.0
 11
215.894073
 21
42.551971
 31
0.0
  0
LINE
  5
C3
100
AcDbEntity
  8
枠・器具表
  6
CONTINUOUS
 62
     3
100
AcDbLine
 10
215.894073
 20
42.551971
 30
0.0
 11
212.999405
 21
42.551971
 31
0.0
  0
LINE
  5
C4
100
AcDbEntity
  8
枠・器具表
  6
CONTINUOUS
 62
     3
100
AcDbLine
 10
212.999405
 20
42.551971
 30
0.0
 11
214.037117
 21
36.0
 31
0.0
  0
LINE
  5
C5
100
AcDbEntity
  8
枠・器具表
  6
CONTINUOUS
 62
     3
100
AcDbLine
 10
214.037117
 20
36.0
 30
0.0
 11
211.230606
 21
36.0
 31
0.0
  0
LINE
  5
C6
100
AcDbEntity
  8
枠・器具表
  6
CONTINUOUS
 62
     3
100
AcDbLine
 10
211.230606
 20
36.0
 30
0.0
 11
210.192932
 21
42.551971
 31
0.0
  0
LINE
  5
C7
100
AcDbEntity
  8
枠・器具表
  6
CONTINUOUS
 62
     3
100
AcDbLine
 10
210.192932
 20
42.551971
 30
0.0
 11
207.618164
 21
42.551971
 31
0.0
  0
LINE
  5
C8
100
AcDbEntity
  8
枠・器具表
  6
CONTINUOUS
 62
     3
100
AcDbLine
 10
219.461922
 20
36.0
 30
0.0
 11
219.461922
 21
38.519989
 31
0.0
  0
LINE
  5
C9
100
AcDbEntity
  8
枠・器具表
  6
CONTINUOUS
 62
     3
100
AcDbLine
 10
219.461922
 20
38.519989
 30
0.0
 11
233.57386
 21
38.519989
 31
0.0
  0
LINE
  5
CA
100
AcDbEntity
  8
枠・器具表
  6
CONTINUOUS
 62
     3
100
AcDbLine
 10
233.57386
 20
38.519989
 30
0.0
 11
233.57386
 21
36.0
 31
0.0
  0
LINE
  5
CB
100
AcDbEntity
  8
枠・器具表
  6
CONTINUOUS
 62
     3
100
AcDbLine
 10
233.57386
 20
36.0
 30
0.0
 11
219.461922
 21
36.0
 31
0.0
  0
LINE
  5
CC
100
AcDbEntity
  8
枠・器具表
  6
CONTINUOUS
 62
     3
100
AcDbLine
 10
220.469879
 20
47.08799
 30
0.0
 11
220.469879
 21
44.568001
 31
0.0
  0
LINE
  5
CD
100
AcDbEntity
  8
枠・器具表
  6
CONTINUOUS
 62
     3
100
AcDbLine
 10
220.469879
 20
47.08799
 30
0.0
 11
232.565903
 21
47.08799
 31
0.0
  0
LINE
  5
CE
100
AcDbEntity
  8
枠・器具表
  6
CONTINUOUS
 62
     3
100
AcDbLine
 10
232.565903
 20
47.08799
 30
0.0
 11
232.565903
 21
44.568001
 31
0.0
  0
LINE
  5
CF
100
AcDbEntity
  8
枠・器具表
  6
CONTINUOUS
 62
     3
100
AcDbLine
 10
232.565903
 20
44.568001
 30
0.0
 11
220.469879
 21
44.568001
 31
0.0
  0
LINE
  5
D0
100
AcDbEntity
  8
枠・器具表
  6
CONTINUOUS
 62
     3
100
AcDbLine
 10
235.338043
 20
47.08799
 30
0.0
 11
235.338043
 21
44.568001
 31
0.0
  0
LINE
  5
D1
100
AcDbEntity
  8
枠・器具表
  6
CONTINUOUS
 62
     3
100
AcDbLine
 10
235.338043
 20
47.08799
 30
0.0
 11
248.442024
 21
47.08799
 31
0.0
  0
LINE
  5
D2
100
AcDbEntity
  8
枠・器具表
  6
CONTINUOUS
 62
     3
100
AcDbLine
 10
248.442024
 20
47.08799
 30
0.0
 11
244.512733
 21
41.679741
 31
0.0
  0
LINE
  5
D3
100
AcDbEntity
  8
枠・器具表
  6
CONTINUOUS
 62
     3
100
AcDbLine
 10
244.512733
 20
41.679741
 30
0.0
 11
249.449982
 21
36.0
 31
0.0
  0
LINE
  5
D4
100
AcDbEntity
  8
枠・器具表
  6
CONTINUOUS
 62
     3
100
AcDbLine
 10
249.449982
 20
36.0
 30
0.0
 11
245.777039
 21
36.0
 31
0.0
  0
LINE
  5
D5
100
AcDbEntity
  8
枠・器具表
  6
CONTINUOUS
 62
     3
100
AcDbLine
 10
245.777039
 20
36.0
 30
0.0
 11
242.840332
 21
39.378181
 31
0.0
  0
LINE
  5
D6
100
AcDbEntity
  8
枠・器具表
  6
CONTINUOUS
 62
     3
100
AcDbLine
 10
242.840332
 20
39.378181
 30
0.0
 11
241.744713
 21
37.869812
 31
0.0
  0
ARC
  5
D7
100
AcDbEntity
  8
枠・器具表
  6
CONTINUOUS
 62
     3
100
AcDbCircle
 10
238.074821
 20
40.536018
 30
0.0
 40
4.535999
100
AcDbArc
 50
270.000031
 51
324.00116
  0
LINE
  5
D8
100
AcDbEntity
  8
枠・器具表
  6
CONTINUOUS
 62
     3
100
AcDbLine
 10
238.074821
 20
36.0
 30
0.0
 11
234.330086
 21
36.0
 31
0.0
  0
LINE
  5
D9
100
AcDbEntity
  8
枠・器具表
  6
CONTINUOUS
 62
     3
100
AcDbLine
 10
234.330086
 20
36.0
 30
0.0
 11
234.330086
 21
38.519989
 31
0.0
  0
LINE
  5
DA
100
AcDbEntity
  8
枠・器具表
  6
CONTINUOUS
 62
     3
100
AcDbLine
 10
234.330086
 20
38.519989
 30
0.0
 11
237.506775
 21
38.519989
 31
0.0
  0
ARC
  5
DB
100
AcDbEntity
  8
枠・器具表
  6
CONTINUOUS
 62
     3
100
AcDbCircle
 10
237.506775
 20
41.039978
 30
0.0
 40
2.519999
100
AcDbArc
 50
270.000031
 51
323.996597
  0
LINE
  5
DC
100
AcDbEntity
  8
枠・器具表
  6
CONTINUOUS
 62
     3
100
AcDbLine
 10
239.545235
 20
39.558769
 30
0.0
 11
243.184876
 21
44.568001
 31
0.0
  0
LINE
  5
DD
100
AcDbEntity
  8
枠・器具表
  6
CONTINUOUS
 62
     3
100
AcDbLine
 10
243.184876
 20
44.568001
 30
0.0
 11
235.338043
 21
44.568001
 31
0.0
  0
LINE
  5
DE
100
AcDbEntity
  8
枠・器具表
  6
CONTINUOUS
 62
     3
100
AcDbLine
 10
252.473892
 20
47.08799
 30
0.0
 11
252.473892
 21
45.323997
 31
0.0
  0
LINE
  5
DF
100
AcDbEntity
  8
枠・器具表
  6
CONTINUOUS
 62
     3
100
AcDbLine
 10
252.473892
 20
47.08799
 30
0.0
 11
265.577835
 21
47.08799
 31
0.0
  0
LINE
  5
E0
100
AcDbEntity
  8
枠・器具表
  6
CONTINUOUS
 62
     3
100
AcDbLine
 10
265.577835
 20
47.08799
 30
0.0
 11
265.577835
 21
45.323997
 31
0.0
  0
LINE
  5
E1
100
AcDbEntity
  8
枠・器具表
  6
CONTINUOUS
 62
     3
100
AcDbLine
 10
265.577835
 20
45.323997
 30
0.0
 11
260.411934
 21
45.323997
 31
0.0
  0
LINE
  5
E2
100
AcDbEntity
  8
枠・器具表
  6
CONTINUOUS
 62
     3
100
AcDbLine
 10
260.411934
 20
45.323997
 30
0.0
 11
260.411934
 21
38.016029
 31
0.0
  0
LINE
  5
E3
100
AcDbEntity
  8
枠・器具表
  6
CONTINUOUS
 62
     3
100
AcDbLine
 10
260.411934
 20
38.016029
 30
0.0
 11
266.081833
 21
38.016029
 31
0.0
  0
LINE
  5
E4
100
AcDbEntity
  8
枠・器具表
  6
CONTINUOUS
 62
     3
100
AcDbLine
 10
266.081833
 20
38.016029
 30
0.0
 11
266.081833
 21
36.0
 31
0.0
  0
LINE
  5
E5
100
AcDbEntity
  8
枠・器具表
  6
CONTINUOUS
 62
     3
100
AcDbLine
 10
266.081833
 20
36.0
 30
0.0
 11
251.969894
 21
36.0
 31
0.0
  0
LINE
  5
E6
100
AcDbEntity
  8
枠・器具表
  6
CONTINUOUS
 62
     3
100
AcDbLine
 10
251.969894
 20
36.0
 30
0.0
 11
251.969894
 21
38.016029
 31
0.0
  0
LINE
  5
E7
100
AcDbEntity
  8
枠・器具表
  6
CONTINUOUS
 62
     3
100
AcDbLine
 10
251.969894
 20
38.016029
 30
0.0
 11
257.639793
 21
38.016029
 31
0.0
  0
LINE
  5
E8
100
AcDbEntity
  8
枠・器具表
  6
CONTINUOUS
 62
     3
100
AcDbLine
 10
257.639793
 20
38.016029
 30
0.0
 11
257.639793
 21
45.323997
 31
0.0
  0
LINE
  5
E9
100
AcDbEntity
  8
枠・器具表
  6
CONTINUOUS
 62
     3
100
AcDbLine
 10
257.639793
 20
45.323997
 30
0.0
 11
252.473892
 21
45.323997
 31
0.0
  0
LINE
  5
EA
100
AcDbEntity
  8
枠・器具表
  6
CONTINUOUS
 62
     3
100
AcDbLine
 10
266.334061
 20
45.575996
 30
0.0
 11
266.334061
 21
44.416786
 31
0.0
  0
LINE
  5
EB
100
AcDbEntity
  8
枠・器具表
  6
CONTINUOUS
 62
     3
100
AcDbLine
 10
266.334061
 20
45.575996
 30
0.0
 11
268.523277
 21
45.575996
 31
0.0
  0
LINE
  5
EC
100
AcDbEntity
  8
枠・器具表
  6
CONTINUOUS
 62
     3
100
AcDbLine
 10
268.523277
 20
45.575996
 30
0.0
 11
267.342056
 21
47.08799
 31
0.0
  0
LINE
  5
ED
100
AcDbEntity
  8
枠・器具表
  6
CONTINUOUS
 62
     3
100
AcDbLine
 10
267.342056
 20
47.08799
 30
0.0
 11
269.580483
 21
47.08799
 31
0.0
  0
LINE
  5
EE
100
AcDbEntity
  8
枠・器具表
  6
CONTINUOUS
 62
     3
100
AcDbLine
 10
269.580483
 20
47.08799
 30
0.0
 11
270.761704
 21
45.575996
 31
0.0
  0
LINE
  5
EF
100
AcDbEntity
  8
枠・器具表
  6
CONTINUOUS
 62
     3
100
AcDbLine
 10
270.761704
 20
45.575996
 30
0.0
 11
271.248268
 21
45.575996
 31
0.0
  0
LINE
  5
F0
100
AcDbEntity
  8
枠・器具表
  6
CONTINUOUS
 62
     3
100
AcDbLine
 10
271.248268
 20
45.575996
 30
0.0
 11
271.248268
 21
47.08799
 31
0.0
  0
LINE
  5
F1
100
AcDbEntity
  8
枠・器具表
  6
CONTINUOUS
 62
     3
100
AcDbLine
 10
271.248268
 20
47.08799
 30
0.0
 11
273.011917
 21
47.08799
 31
0.0
  0
LINE
  5
F2
100
AcDbEntity
  8
枠・器具表
  6
CONTINUOUS
 62
     3
100
AcDbLine
 10
273.011917
 20
47.08799
 30
0.0
 11
273.011917
 21
45.575996
 31
0.0
  0
LINE
  5
F3
100
AcDbEntity
  8
枠・器具表
  6
CONTINUOUS
 62
     3
100
AcDbLine
 10
273.011917
 20
45.575996
 30
0.0
 11
273.768143
 21
45.575996
 31
0.0
  0
LINE
  5
F4
100
AcDbEntity
  8
枠・器具表
  6
CONTINUOUS
 62
     3
100
AcDbLine
 10
273.768143
 20
45.575996
 30
0.0
 11
273.768143
 21
47.08799
 31
0.0
  0
LINE
  5
F5
100
AcDbEntity
  8
枠・器具表
  6
CONTINUOUS
 62
     3
100
AcDbLine
 10
273.768143
 20
47.08799
 30
0.0
 11
275.53183
 21
47.08799
 31
0.0
  0
LINE
  5
F6
100
AcDbEntity
  8
枠・器具表
  6
CONTINUOUS
 62
     3
100
AcDbLine
 10
275.53183
 20
47.08799
 30
0.0
 11
275.53183
 21
45.575996
 31
0.0
  0
LINE
  5
F7
100
AcDbEntity
  8
枠・器具表
  6
CONTINUOUS
 62
     3
100
AcDbLine
 10
275.53183
 20
45.575996
 30
0.0
 11
276.018394
 21
45.575996
 31
0.0
  0
LINE
  5
F8
100
AcDbEntity
  8
枠・器具表
  6
CONTINUOUS
 62
     3
100
AcDbLine
 10
276.018394
 20
45.575996
 30
0.0
 11
277.199615
 21
47.08799
 31
0.0
  0
LINE
  5
F9
100
AcDbEntity
  8
枠・器具表
  6
CONTINUOUS
 62
     3
100
AcDbLine
 10
277.199615
 20
47.08799
 30
0.0
 11
279.438042
 21
47.08799
 31
0.0
  0
LINE
  5
FA
100
AcDbEntity
  8
枠・器具表
  6
CONTINUOUS
 62
     3
100
AcDbLine
 10
279.438042
 20
47.08799
 30
0.0
 11
278.256821
 21
45.575996
 31
0.0
  0
LINE
  5
FB
100
AcDbEntity
  8
枠・器具表
  6
CONTINUOUS
 62
     3
100
AcDbLine
 10
278.256821
 20
45.575996
 30
0.0
 11
280.445999
 21
45.575996
 31
0.0
  0
LINE
  5
FC
100
AcDbEntity
  8
枠・器具表
  6
CONTINUOUS
 62
     3
100
AcDbLine
 10
280.445999
 20
45.575996
 30
0.0
 11
280.445999
 21
44.416786
 31
0.0
  0
LINE
  5
FD
100
AcDbEntity
  8
枠・器具表
  6
CONTINUOUS
 62
     3
100
AcDbLine
 10
280.445999
 20
44.416786
 30
0.0
 11
277.790245
 21
44.416786
 31
0.0
  0
LINE
  5
FE
100
AcDbEntity
  8
枠・器具表
  6
CONTINUOUS
 62
     3
100
AcDbLine
 10
277.790245
 20
44.416786
 30
0.0
 11
277.331909
 21
43.15683
 31
0.0
  0
LINE
  5
FF
100
AcDbEntity
  8
枠・器具表
  6
CONTINUOUS
 62
     3
100
AcDbLine
 10
277.331909
 20
43.15683
 30
0.0
 11
280.445999
 21
43.15683
 31
0.0
  0
LINE
  5
100
100
AcDbEntity
  8
枠・器具表
  6
CONTINUOUS
 62
     3
100
AcDbLine
 10
280.445999
 20
43.15683
 30
0.0
 11
280.445999
 21
41.99762
 31
0.0
  0
LINE
  5
101
100
AcDbEntity
  8
枠・器具表
  6
CONTINUOUS
 62
     3
100
AcDbLine
 10
280.445999
 20
41.99762
 30
0.0
 11
274.649986
 21
41.99762
 31
0.0
  0
LINE
  5
102
100
AcDbEntity
  8
枠・器具表
  6
CONTINUOUS
 62
     3
100
AcDbLine
 10
274.649986
 20
41.99762
 30
0.0
 11
274.649986
 21
41.418015
 31
0.0
  0
LINE
  5
103
100
AcDbEntity
  8
枠・器具表
  6
CONTINUOUS
 62
     3
100
AcDbLine
 10
274.649986
 20
41.418015
 30
0.0
 11
280.445999
 21
41.418015
 31
0.0
  0
LINE
  5
104
100
AcDbEntity
  8
枠・器具表
  6
CONTINUOUS
 62
     3
100
AcDbLine
 10
280.445999
 20
41.418015
 30
0.0
 11
280.445999
 21
40.258804
 31
0.0
  0
LINE
  5
105
100
AcDbEntity
  8
枠・器具表
  6
CONTINUOUS
 62
     3
100
AcDbLine
 10
280.445999
 20
40.258804
 30
0.0
 11
274.649986
 21
40.258804
 31
0.0
  0
LINE
  5
106
100
AcDbEntity
  8
枠・器具表
  6
CONTINUOUS
 62
     3
100
AcDbLine
 10
274.649986
 20
40.258804
 30
0.0
 11
274.649986
 21
39.679199
 31
0.0
  0
LINE
  5
107
100
AcDbEntity
  8
枠・器具表
  6
CONTINUOUS
 62
     3
100
AcDbLine
 10
274.649986
 20
39.679199
 30
0.0
 11
280.445999
 21
39.679199
 31
0.0
  0
LINE
  5
108
100
AcDbEntity
  8
枠・器具表
  6
CONTINUOUS
 62
     3
100
AcDbLine
 10
280.445999
 20
39.679199
 30
0.0
 11
280.445999
 21
38.519989
 31
0.0
  0
LINE
  5
109
100
AcDbEntity
  8
枠・器具表
  6
CONTINUOUS
 62
     3
100
AcDbLine
 10
280.445999
 20
38.519989
 30
0.0
 11
277.65696
 21
38.519989
 31
0.0
  0
LINE
  5
10A
100
AcDbEntity
  8
枠・器具表
  6
CONTINUOUS
 62
     3
100
AcDbLine
 10
277.65696
 20
38.519989
 30
0.0
 11
280.445999
 21
36.0
 31
0.0
  0
LINE
  5
10B
100
AcDbEntity
  8
枠・器具表
  6
CONTINUOUS
 62
     3
100
AcDbLine
 10
280.445999
 20
36.0
 30
0.0
 11
277.439064
 21
36.0
 31
0.0
  0
LINE
  5
10C
100
AcDbEntity
  8
枠・器具表
  6
CONTINUOUS
 62
     3
100
AcDbLine
 10
277.439064
 20
36.0
 30
0.0
 11
274.649986
 21
38.519989
 31
0.0
  0
LINE
  5
10D
100
AcDbEntity
  8
枠・器具表
  6
CONTINUOUS
 62
     3
100
AcDbLine
 10
274.649986
 20
38.519989
 30
0.0
 11
274.649986
 21
36.0
 31
0.0
  0
LINE
  5
10E
100
AcDbEntity
  8
枠・器具表
  6
CONTINUOUS
 62
     3
100
AcDbLine
 10
274.649986
 20
36.0
 30
0.0
 11
272.130112
 21
36.0
 31
0.0
  0
LINE
  5
10F
100
AcDbEntity
  8
枠・器具表
  6
CONTINUOUS
 62
     3
100
AcDbLine
 10
272.130112
 20
36.0
 30
0.0
 11
272.130112
 21
38.519989
 31
0.0
  0
LINE
  5
110
100
AcDbEntity
  8
枠・器具表
  6
CONTINUOUS
 62
     3
100
AcDbLine
 10
272.130112
 20
38.519989
 30
0.0
 11
269.341034
 21
36.0
 31
0.0
  0
LINE
  5
111
100
AcDbEntity
  8
枠・器具表
  6
CONTINUOUS
 62
     3
100
AcDbLine
 10
269.341034
 20
36.0
 30
0.0
 11
266.334061
 21
36.0
 31
0.0
  0
LINE
  5
112
100
AcDbEntity
  8
枠・器具表
  6
CONTINUOUS
 62
     3
100
AcDbLine
 10
266.334061
 20
36.0
 30
0.0
 11
269.123138
 21
38.519989
 31
0.0
  0
LINE
  5
113
100
AcDbEntity
  8
枠・器具表
  6
CONTINUOUS
 62
     3
100
AcDbLine
 10
269.123138
 20
38.519989
 30
0.0
 11
266.334061
 21
38.519989
 31
0.0
  0
LINE
  5
114
100
AcDbEntity
  8
枠・器具表
  6
CONTINUOUS
 62
     3
100
AcDbLine
 10
266.334061
 20
38.519989
 30
0.0
 11
266.334061
 21
39.679199
 31
0.0
  0
LINE
  5
115
100
AcDbEntity
  8
枠・器具表
  6
CONTINUOUS
 62
     3
100
AcDbLine
 10
266.334061
 20
39.679199
 30
0.0
 11
272.130112
 21
39.679199
 31
0.0
  0
LINE
  5
116
100
AcDbEntity
  8
枠・器具表
  6
CONTINUOUS
 62
     3
100
AcDbLine
 10
272.130112
 20
39.679199
 30
0.0
 11
272.130112
 21
40.258804
 31
0.0
  0
LINE
  5
117
100
AcDbEntity
  8
枠・器具表
  6
CONTINUOUS
 62
     3
100
AcDbLine
 10
272.130112
 20
40.258804
 30
0.0
 11
266.334061
 21
40.258804
 31
0.0
  0
LINE
  5
118
100
AcDbEntity
  8
枠・器具表
  6
CONTINUOUS
 62
     3
100
AcDbLine
 10
266.334061
 20
40.258804
 30
0.0
 11
266.334061
 21
41.418015
 31
0.0
  0
LINE
  5
119
100
AcDbEntity
  8
枠・器具表
  6
CONTINUOUS
 62
     3
100
AcDbLine
 10
266.334061
 20
41.418015
 30
0.0
 11
272.130112
 21
41.418015
 31
0.0
  0
LINE
  5
11A
100
AcDbEntity
  8
枠・器具表
  6
CONTINUOUS
 62
     3
100
AcDbLine
 10
272.130112
 20
41.418015
 30
0.0
 11
272.130112
 21
41.99762
 31
0.0
  0
LINE
  5
11B
100
AcDbEntity
  8
枠・器具表
  6
CONTINUOUS
 62
     3
100
AcDbLine
 10
272.130112
 20
41.99762
 30
0.0
 11
266.334061
 21
41.99762
 31
0.0
  0
LINE
  5
11C
100
AcDbEntity
  8
枠・器具表
  6
CONTINUOUS
 62
     3
100
AcDbLine
 10
266.334061
 20
41.99762
 30
0.0
 11
266.334061
 21
43.15683
 31
0.0
  0
LINE
  5
11D
100
AcDbEntity
  8
枠・器具表
  6
CONTINUOUS
 62
     3
100
AcDbLine
 10
266.334061
 20
43.15683
 30
0.0
 11
269.448189
 21
43.15683
 31
0.0
  0
LINE
  5
11E
100
AcDbEntity
  8
枠・器具表
  6
CONTINUOUS
 62
     3
100
AcDbLine
 10
269.448189
 20
43.15683
 30
0.0
 11
268.989853
 21
44.416786
 31
0.0
  0
LINE
  5
11F
100
AcDbEntity
  8
枠・器具表
  6
CONTINUOUS
 62
     3
100
AcDbLine
 10
268.989853
 20
44.416786
 30
0.0
 11
266.334061
 21
44.416786
 31
0.0
  0
LINE
  5
120
100
AcDbEntity
  8
枠・器具表
  6
CONTINUOUS
 62
     3
100
AcDbLine
 10
271.671242
 20
44.416786
 30
0.0
 11
275.108856
 21
44.416786
 31
0.0
  0
LINE
  5
121
100
AcDbEntity
  8
枠・器具表
  6
CONTINUOUS
 62
     3
100
AcDbLine
 10
275.108856
 20
44.416786
 30
0.0
 11
274.649986
 21
43.15683
 31
0.0
  0
LINE
  5
122
100
AcDbEntity
  8
枠・器具表
  6
CONTINUOUS
 62
     3
100
AcDbLine
 10
274.649986
 20
43.15683
 30
0.0
 11
272.130112
 21
43.15683
 31
0.0
  0
LINE
  5
123
100
AcDbEntity
  8
枠・器具表
  6
CONTINUOUS
 62
     3
100
AcDbLine
 10
272.130112
 20
43.15683
 30
0.0
 11
271.671242
 21
44.416786
 31
0.0
  0
LINE
  5
124
100
AcDbEntity
  8
枠・器具表
  6
CONTINUOUS
 62
     3
100
AcDbLine
 10
287.314095
 20
47.08799
 30
0.0
 11
286.497368
 21
43.812004
 31
0.0
  0
LINE
  5
125
100
AcDbEntity
  8
枠・器具表
  6
CONTINUOUS
 62
     3
100
AcDbLine
 10
287.314095
 20
47.08799
 30
0.0
 11
289.392036
 21
47.08799
 31
0.0
  0
LINE
  5
126
100
AcDbEntity
  8
枠・器具表
  6
CONTINUOUS
 62
     3
100
AcDbLine
 10
289.392036
 20
47.08799
 30
0.0
 11
289.077744
 21
45.827995
 31
0.0
  0
LINE
  5
127
100
AcDbEntity
  8
枠・器具表
  6
CONTINUOUS
 62
     3
100
AcDbLine
 10
289.077744
 20
45.827995
 30
0.0
 11
289.896034
 21
45.827995
 31
0.0
  0
LINE
  5
128
100
AcDbEntity
  8
枠・器具表
  6
CONTINUOUS
 62
     3
100
AcDbLine
 10
289.896034
 20
45.827995
 30
0.0
 11
289.896034
 21
47.08799
 31
0.0
  0
LINE
  5
129
100
AcDbEntity
  8
枠・器具表
  6
CONTINUOUS
 62
     3
100
AcDbLine
 10
289.896034
 20
47.08799
 30
0.0
 11
292.164177
 21
47.08799
 31
0.0
  0
LINE
  5
12A
100
AcDbEntity
  8
枠・器具表
  6
CONTINUOUS
 62
     3
100
AcDbLine
 10
292.164177
 20
47.08799
 30
0.0
 11
292.164177
 21
45.827995
 31
0.0
  0
LINE
  5
12B
100
AcDbEntity
  8
枠・器具表
  6
CONTINUOUS
 62
     3
100
AcDbLine
 10
292.164177
 20
45.827995
 30
0.0
 11
295.061935
 21
45.827995
 31
0.0
  0
LINE
  5
12C
100
AcDbEntity
  8
枠・器具表
  6
CONTINUOUS
 62
     3
100
AcDbLine
 10
295.061935
 20
45.827995
 30
0.0
 11
295.061935
 21
44.568001
 31
0.0
  0
LINE
  5
12D
100
AcDbEntity
  8
枠・器具表
  6
CONTINUOUS
 62
     3
100
AcDbLine
 10
292.164177
 20
44.568001
 30
0.0
 11
295.061935
 21
44.568001
 31
0.0
  0
LINE
  5
12E
100
AcDbEntity
  8
枠・器具表
  6
CONTINUOUS
 62
     3
100
AcDbLine
 10
292.164177
 20
44.568001
 30
0.0
 11
292.164177
 21
43.308006
 31
0.0
  0
LINE
  5
12F
100
AcDbEntity
  8
枠・器具表
  6
CONTINUOUS
 62
     3
100
AcDbLine
 10
292.164177
 20
43.308006
 30
0.0
 11
295.314163
 21
43.308006
 31
0.0
  0
LINE
  5
130
100
AcDbEntity
  8
枠・器具表
  6
CONTINUOUS
 62
     3
100
AcDbLine
 10
295.314163
 20
43.308006
 30
0.0
 11
295.314163
 21
42.048012
 31
0.0
  0
LINE
  5
131
100
AcDbEntity
  8
枠・器具表
  6
CONTINUOUS
 62
     3
100
AcDbLine
 10
295.314163
 20
42.048012
 30
0.0
 11
294.212898
 21
42.048012
 31
0.0
  0
LINE
  5
132
100
AcDbEntity
  8
枠・器具表
  6
CONTINUOUS
 62
     3
100
AcDbLine
 10
294.212898
 20
42.048012
 30
0.0
 11
295.314163
 21
36.0
 31
0.0
  0
LINE
  5
133
100
AcDbEntity
  8
枠・器具表
  6
CONTINUOUS
 62
     3
100
AcDbLine
 10
295.314163
 20
36.0
 30
0.0
 11
293.264946
 21
36.0
 31
0.0
  0
LINE
  5
134
100
AcDbEntity
  8
枠・器具表
  6
CONTINUOUS
 62
     3
100
AcDbLine
 10
293.264946
 20
36.0
 30
0.0
 11
292.164177
 21
42.047935
 31
0.0
  0
LINE
  5
135
100
AcDbEntity
  8
枠・器具表
  6
CONTINUOUS
 62
     3
100
AcDbLine
 10
292.164177
 20
42.047935
 30
0.0
 11
292.164177
 21
36.0
 31
0.0
  0
LINE
  5
136
100
AcDbEntity
  8
枠・器具表
  6
CONTINUOUS
 62
     3
100
AcDbLine
 10
292.164177
 20
36.0
 30
0.0
 11
289.896034
 21
36.0
 31
0.0
  0
LINE
  5
137
100
AcDbEntity
  8
枠・器具表
  6
CONTINUOUS
 62
     3
100
AcDbLine
 10
289.896034
 20
36.0
 30
0.0
 11
289.896034
 21
42.048012
 31
0.0
  0
LINE
  5
138
100
AcDbEntity
  8
枠・器具表
  6
CONTINUOUS
 62
     3
100
AcDbLine
 10
289.896034
 20
42.048012
 30
0.0
 11
288.795265
 21
36.0
 31
0.0
  0
LINE
  5
139
100
AcDbEntity
  8
枠・器具表
  6
CONTINUOUS
 62
     3
100
AcDbLine
 10
288.795265
 20
36.0
 30
0.0
 11
286.74601
 21
36.0
 31
0.0
  0
LINE
  5
13A
100
AcDbEntity
  8
枠・器具表
  6
CONTINUOUS
 62
     3
100
AcDbLine
 10
286.74601
 20
36.0
 30
0.0
 11
287.846779
 21
42.048012
 31
0.0
  0
LINE
  5
13B
100
AcDbEntity
  8
枠・器具表
  6
CONTINUOUS
 62
     3
100
AcDbLine
 10
287.846779
 20
42.048012
 30
0.0
 11
286.74601
 21
42.048012
 31
0.0
  0
LINE
  5
13C
100
AcDbEntity
  8
枠・器具表
  6
CONTINUOUS
 62
     3
100
AcDbLine
 10
286.74601
 20
42.048012
 30
0.0
 11
286.74601
 21
43.308006
 31
0.0
  0
LINE
  5
13D
100
AcDbEntity
  8
枠・器具表
  6
CONTINUOUS
 62
     3
100
AcDbLine
 10
286.74601
 20
43.308006
 30
0.0
 11
289.896034
 21
43.308006
 31
0.0
  0
LINE
  5
13E
100
AcDbEntity
  8
枠・器具表
  6
CONTINUOUS
 62
     3
100
AcDbLine
 10
289.896034
 20
43.308006
 30
0.0
 11
289.896034
 21
44.568001
 31
0.0
  0
LINE
  5
13F
100
AcDbEntity
  8
枠・器具表
  6
CONTINUOUS
 62
     3
100
AcDbLine
 10
289.896034
 20
44.568001
 30
0.0
 11
288.763489
 21
44.568001
 31
0.0
  0
LINE
  5
140
100
AcDbEntity
  8
枠・器具表
  6
CONTINUOUS
 62
     3
100
AcDbLine
 10
288.763489
 20
44.568001
 30
0.0
 11
288.57531
 21
43.812004
 31
0.0
  0
LINE
  5
141
100
AcDbEntity
  8
枠・器具表
  6
CONTINUOUS
 62
     3
100
AcDbLine
 10
288.57531
 20
43.812004
 30
0.0
 11
286.497368
 21
43.812004
 31
0.0
  0
LINE
  5
142
100
AcDbEntity
  8
枠・器具表
  6
CONTINUOUS
 62
     3
100
AcDbLine
 10
280.949997
 20
45.827995
 30
0.0
 11
280.949997
 21
44.568001
 31
0.0
  0
LINE
  5
143
100
AcDbEntity
  8
枠・器具表
  6
CONTINUOUS
 62
     3
100
AcDbLine
 10
280.949997
 20
45.827995
 30
0.0
 11
283.46991
 21
45.827995
 31
0.0
  0
LINE
  5
144
100
AcDbEntity
  8
枠・器具表
  6
CONTINUOUS
 62
     3
100
AcDbLine
 10
283.46991
 20
45.827995
 30
0.0
 11
283.46991
 21
47.08799
 31
0.0
  0
LINE
  5
145
100
AcDbEntity
  8
枠・器具表
  6
CONTINUOUS
 62
     3
100
AcDbLine
 10
283.46991
 20
47.08799
 30
0.0
 11
285.738052
 21
47.08799
 31
0.0
  0
LINE
  5
146
100
AcDbEntity
  8
枠・器具表
  6
CONTINUOUS
 62
     3
100
AcDbLine
 10
285.738052
 20
47.08799
 30
0.0
 11
285.738052
 21
45.827995
 31
0.0
  0
LINE
  5
147
100
AcDbEntity
  8
枠・器具表
  6
CONTINUOUS
 62
     3
100
AcDbLine
 10
285.738052
 20
45.827995
 30
0.0
 11
286.493782
 21
45.827995
 31
0.0
  0
LINE
  5
148
100
AcDbEntity
  8
枠・器具表
  6
CONTINUOUS
 62
     3
100
AcDbLine
 10
286.493782
 20
45.827995
 30
0.0
 11
286.493782
 21
44.568001
 31
0.0
  0
LINE
  5
149
100
AcDbEntity
  8
枠・器具表
  6
CONTINUOUS
 62
     3
100
AcDbLine
 10
286.493782
 20
44.568001
 30
0.0
 11
285.738052
 21
44.568001
 31
0.0
  0
LINE
  5
14A
100
AcDbEntity
  8
枠・器具表
  6
CONTINUOUS
 62
     3
100
AcDbLine
 10
285.738052
 20
44.568001
 30
0.0
 11
286.493782
 21
43.527504
 31
0.0
  0
LINE
  5
14B
100
AcDbEntity
  8
枠・器具表
  6
CONTINUOUS
 62
     3
100
AcDbLine
 10
286.493782
 20
43.527504
 30
0.0
 11
286.493782
 21
40.955177
 31
0.0
  0
LINE
  5
14C
100
AcDbEntity
  8
枠・器具表
  6
CONTINUOUS
 62
     3
100
AcDbLine
 10
286.493782
 20
40.955177
 30
0.0
 11
285.738052
 21
41.995712
 31
0.0
  0
LINE
  5
14D
100
AcDbEntity
  8
枠・器具表
  6
CONTINUOUS
 62
     3
100
AcDbLine
 10
285.738052
 20
41.995712
 30
0.0
 11
285.738052
 21
36.0
 31
0.0
  0
LINE
  5
14E
100
AcDbEntity
  8
枠・器具表
  6
CONTINUOUS
 62
     3
100
AcDbLine
 10
285.738052
 20
36.0
 30
0.0
 11
283.46991
 21
36.0
 31
0.0
  0
LINE
  5
14F
100
AcDbEntity
  8
枠・器具表
  6
CONTINUOUS
 62
     3
100
AcDbLine
 10
283.46991
 20
36.0
 30
0.0
 11
283.46991
 21
44.568001
 31
0.0
  0
LINE
  5
150
100
AcDbEntity
  8
枠・器具表
  6
CONTINUOUS
 62
     3
100
AcDbLine
 10
283.370956
 20
44.568001
 30
0.0
 11
282.470154
 21
36.0
 31
0.0
  0
LINE
  5
151
100
AcDbEntity
  8
枠・器具表
  6
CONTINUOUS
 62
     3
100
AcDbLine
 10
282.470154
 20
36.0
 30
0.0
 11
280.949997
 21
36.0
 31
0.0
  0
LINE
  5
152
100
AcDbEntity
  8
枠・器具表
  6
CONTINUOUS
 62
     3
100
AcDbLine
 10
280.949997
 20
36.0
 30
0.0
 11
281.8508
 21
44.568001
 31
0.0
  0
LINE
  5
153
100
AcDbEntity
  8
枠・器具表
  6
CONTINUOUS
 62
     3
100
AcDbLine
 10
281.8508
 20
44.568001
 30
0.0
 11
280.949997
 21
44.568001
 31
0.0
  0
LINE
  5
154
100
AcDbEntity
  8
枠・器具表
  6
CONTINUOUS
 62
     3
100
AcDbLine
 10
296.573891
 20
43.056007
 30
0.0
 11
296.573891
 21
41.544014
 31
0.0
  0
LINE
  5
155
100
AcDbEntity
  8
枠・器具表
  6
CONTINUOUS
 62
     3
100
AcDbLine
 10
296.573891
 20
43.056007
 30
0.0
 11
304.134087
 21
43.056007
 31
0.0
  0
LINE
  5
156
100
AcDbEntity
  8
枠・器具表
  6
CONTINUOUS
 62
     3
100
AcDbLine
 10
304.134087
 20
43.056007
 30
0.0
 11
304.134087
 21
41.544014
 31
0.0
  0
LINE
  5
157
100
AcDbEntity
  8
枠・器具表
  6
CONTINUOUS
 62
     3
100
AcDbLine
 10
304.134087
 20
41.544014
 30
0.0
 11
301.739792
 21
41.544014
 31
0.0
  0
LINE
  5
158
100
AcDbEntity
  8
枠・器具表
  6
CONTINUOUS
 62
     3
100
AcDbLine
 10
301.739792
 20
41.544014
 30
0.0
 11
301.739792
 21
39.443527
 31
0.0
  0
LINE
  5
159
100
AcDbEntity
  8
枠・器具表
  6
CONTINUOUS
 62
     3
100
AcDbLine
 10
301.739792
 20
39.443527
 30
0.0
 11
304.260201
 21
39.979149
 31
0.0
  0
LINE
  5
15A
100
AcDbEntity
  8
枠・器具表
  6
CONTINUOUS
 62
     3
100
AcDbLine
 10
304.260201
 20
39.979149
 30
0.0
 11
304.260201
 21
37.6605
 31
0.0
  0
LINE
  5
15B
100
AcDbEntity
  8
枠・器具表
  6
CONTINUOUS
 62
     3
100
AcDbLine
 10
304.260201
 20
37.6605
 30
0.0
 11
296.447739
 21
36.0
 31
0.0
  0
LINE
  5
15C
100
AcDbEntity
  8
枠・器具表
  6
CONTINUOUS
 62
     3
100
AcDbLine
 10
296.447739
 20
36.0
 30
0.0
 11
296.447739
 21
38.318649
 31
0.0
  0
LINE
  5
15D
100
AcDbEntity
  8
枠・器具表
  6
CONTINUOUS
 62
     3
100
AcDbLine
 10
296.447739
 20
38.318649
 30
0.0
 11
298.968147
 21
38.854309
 31
0.0
  0
LINE
  5
15E
100
AcDbEntity
  8
枠・器具表
  6
CONTINUOUS
 62
     3
100
AcDbLine
 10
298.968147
 20
38.854309
 30
0.0
 11
298.968147
 21
41.544014
 31
0.0
  0
LINE
  5
15F
100
AcDbEntity
  8
枠・器具表
  6
CONTINUOUS
 62
     3
100
AcDbLine
 10
298.968147
 20
41.544014
 30
0.0
 11
296.573891
 21
41.544014
 31
0.0
  0
LINE
  5
160
100
AcDbEntity
  8
枠・器具表
  6
CONTINUOUS
 62
     3
100
AcDbLine
 10
295.818161
 20
46.079994
 30
0.0
 11
295.818161
 21
44.568001
 31
0.0
  0
LINE
  5
161
100
AcDbEntity
  8
枠・器具表
  6
CONTINUOUS
 62
     3
100
AcDbLine
 10
295.818161
 20
46.079994
 30
0.0
 11
303.311218
 21
46.079994
 31
0.0
  0
LINE
  5
162
100
AcDbEntity
  8
枠・器具表
  6
CONTINUOUS
 62
     3
100
AcDbLine
 10
303.311218
 20
46.079994
 30
0.0
 11
302.944626
 21
47.08799
 31
0.0
  0
LINE
  5
163
100
AcDbEntity
  8
枠・器具表
  6
CONTINUOUS
 62
     3
100
AcDbLine
 10
302.944626
 20
47.08799
 30
0.0
 11
305.89415
 21
47.08799
 31
0.0
  0
LINE
  5
164
100
AcDbEntity
  8
枠・器具表
  6
CONTINUOUS
 62
     3
100
AcDbLine
 10
305.89415
 20
47.08799
 30
0.0
 11
306.261238
 21
46.079994
 31
0.0
  0
LINE
  5
165
100
AcDbEntity
  8
枠・器具表
  6
CONTINUOUS
 62
     3
100
AcDbLine
 10
306.261238
 20
46.079994
 30
0.0
 11
306.906227
 21
46.079994
 31
0.0
  0
LINE
  5
166
100
AcDbEntity
  8
枠・器具表
  6
CONTINUOUS
 62
     3
100
AcDbLine
 10
306.906227
 20
46.079994
 30
0.0
 11
306.906227
 21
47.08799
 31
0.0
  0
LINE
  5
167
100
AcDbEntity
  8
枠・器具表
  6
CONTINUOUS
 62
     3
100
AcDbLine
 10
306.906227
 20
47.08799
 30
0.0
 11
309.173874
 21
47.08799
 31
0.0
  0
LINE
  5
168
100
AcDbEntity
  8
枠・器具表
  6
CONTINUOUS
 62
     3
100
AcDbLine
 10
309.173874
 20
47.08799
 30
0.0
 11
309.173874
 21
46.079994
 31
0.0
  0
LINE
  5
169
100
AcDbEntity
  8
枠・器具表
  6
CONTINUOUS
 62
     3
100
AcDbLine
 10
309.173874
 20
46.079994
 30
0.0
 11
309.930099
 21
46.079994
 31
0.0
  0
LINE
  5
16A
100
AcDbEntity
  8
枠・器具表
  6
CONTINUOUS
 62
     3
100
AcDbLine
 10
309.930099
 20
46.079994
 30
0.0
 11
309.930099
 21
44.568001
 31
0.0
  0
LINE
  5
16B
100
AcDbEntity
  8
枠・器具表
  6
CONTINUOUS
 62
     3
100
AcDbLine
 10
309.930099
 20
44.568001
 30
0.0
 11
306.811356
 21
44.568001
 31
0.0
  0
LINE
  5
16C
100
AcDbEntity
  8
枠・器具表
  6
CONTINUOUS
 62
     3
100
AcDbLine
 10
306.811356
 20
44.568001
 30
0.0
 11
309.930099
 21
36.0
 31
0.0
  0
LINE
  5
16D
100
AcDbEntity
  8
枠・器具表
  6
CONTINUOUS
 62
     3
100
AcDbLine
 10
309.930099
 20
36.0
 30
0.0
 11
306.980042
 21
36.0
 31
0.0
  0
LINE
  5
16E
100
AcDbEntity
  8
枠・器具表
  6
CONTINUOUS
 62
     3
100
AcDbLine
 10
306.980042
 20
36.0
 30
0.0
 11
303.861832
 21
44.568001
 31
0.0
  0
LINE
  5
16F
100
AcDbEntity
  8
枠・器具表
  6
CONTINUOUS
 62
     3
100
AcDbLine
 10
303.861832
 20
44.568001
 30
0.0
 11
295.818161
 21
44.568001
 31
0.0
  0
LINE
  5
170
100
AcDbEntity
  8
枠・器具表
  6
CONTINUOUS
 62
     3
100
AcDbLine
 10
310.434097
 20
44.936958
 30
0.0
 11
310.434097
 21
43.342491
 31
0.0
  0
LINE
  5
171
100
AcDbEntity
  8
枠・器具表
  6
CONTINUOUS
 62
     3
100
AcDbLine
 10
310.434097
 20
44.936958
 30
0.0
 11
317.615913
 21
47.339989
 31
0.0
  0
LINE
  5
172
100
AcDbEntity
  8
枠・器具表
  6
CONTINUOUS
 62
     3
100
AcDbLine
 10
317.615913
 20
47.339989
 30
0.0
 11
324.797768
 21
44.936882
 31
0.0
  0
LINE
  5
173
100
AcDbEntity
  8
枠・器具表
  6
CONTINUOUS
 62
     3
100
AcDbLine
 10
324.797768
 20
44.936882
 30
0.0
 11
324.797768
 21
43.342491
 31
0.0
  0
LINE
  5
174
100
AcDbEntity
  8
枠・器具表
  6
CONTINUOUS
 62
     3
100
AcDbLine
 10
324.797768
 20
43.342491
 30
0.0
 11
322.656235
 21
44.059196
 31
0.0
  0
LINE
  5
175
100
AcDbEntity
  8
枠・器具表
  6
CONTINUOUS
 62
     3
100
AcDbLine
 10
322.656235
 20
44.059196
 30
0.0
 11
322.656235
 21
42.804009
 31
0.0
  0
LINE
  5
176
100
AcDbEntity
  8
枠・器具表
  6
CONTINUOUS
 62
     3
100
AcDbLine
 10
322.656235
 20
42.804009
 30
0.0
 11
312.576126
 21
42.804009
 31
0.0
  0
LINE
  5
177
100
AcDbEntity
  8
枠・器具表
  6
CONTINUOUS
 62
     3
100
AcDbLine
 10
312.576126
 20
42.804009
 30
0.0
 11
312.576126
 21
44.059196
 31
0.0
  0
LINE
  5
178
100
AcDbEntity
  8
枠・器具表
  6
CONTINUOUS
 62
     3
100
AcDbLine
 10
312.576126
 20
44.059196
 30
0.0
 11
310.434097
 21
43.342491
 31
0.0
  0
LINE
  5
179
100
AcDbEntity
  8
枠・器具表
  6
CONTINUOUS
 62
     3
100
AcDbLine
 10
313.343643
 20
44.316002
 30
0.0
 11
317.615913
 21
45.74556
 31
0.0
  0
LINE
  5
17A
100
AcDbEntity
  8
枠・器具表
  6
CONTINUOUS
 62
     3
100
AcDbLine
 10
317.615913
 20
45.74556
 30
0.0
 11
321.888718
 21
44.316002
 31
0.0
  0
LINE
  5
17B
100
AcDbEntity
  8
枠・器具表
  6
CONTINUOUS
 62
     3
100
AcDbLine
 10
321.888718
 20
44.316002
 30
0.0
 11
313.343643
 21
44.316002
 31
0.0
  0
LINE
  5
17C
100
AcDbEntity
  8
枠・器具表
  6
CONTINUOUS
 62
     3
100
AcDbLine
 10
310.434097
 20
41.795975
 30
0.0
 11
310.434097
 21
40.283981
 31
0.0
  0
LINE
  5
17D
100
AcDbEntity
  8
枠・器具表
  6
CONTINUOUS
 62
     3
100
AcDbLine
 10
310.434097
 20
41.795975
 30
0.0
 11
324.797768
 21
41.795975
 31
0.0
  0
LINE
  5
17E
100
AcDbEntity
  8
枠・器具表
  6
CONTINUOUS
 62
     3
100
AcDbLine
 10
324.797768
 20
41.795975
 30
0.0
 11
324.797768
 21
40.283981
 31
0.0
  0
LINE
  5
17F
100
AcDbEntity
  8
枠・器具表
  6
CONTINUOUS
 62
     3
100
AcDbLine
 10
324.797768
 20
40.283981
 30
0.0
 11
322.800278
 21
40.283981
 31
0.0
  0
LINE
  5
180
100
AcDbEntity
  8
枠・器具表
  6
CONTINUOUS
 62
     3
100
AcDbLine
 10
322.800278
 20
40.283981
 30
0.0
 11
324.797768
 21
36.0
 31
0.0
  0
LINE
  5
181
100
AcDbEntity
  8
枠・器具表
  6
CONTINUOUS
 62
     3
100
AcDbLine
 10
324.797768
 20
36.0
 30
0.0
 11
310.434097
 21
36.0
 31
0.0
  0
LINE
  5
182
100
AcDbEntity
  8
枠・器具表
  6
CONTINUOUS
 62
     3
100
AcDbLine
 10
310.434097
 20
36.0
 30
0.0
 11
312.431549
 21
40.283981
 31
0.0
  0
LINE
  5
183
100
AcDbEntity
  8
枠・器具表
  6
CONTINUOUS
 62
     3
100
AcDbLine
 10
312.431549
 20
40.283981
 30
0.0
 11
310.434097
 21
40.283981
 31
0.0
  0
LINE
  5
184
100
AcDbEntity
  8
枠・器具表
  6
CONTINUOUS
 62
     3
100
AcDbLine
 10
315.211891
 20
40.283981
 30
0.0
 11
320.019936
 21
40.283981
 31
0.0
  0
LINE
  5
185
100
AcDbEntity
  8
枠・器具表
  6
CONTINUOUS
 62
     3
100
AcDbLine
 10
320.019936
 20
40.283981
 30
0.0
 11
321.312431
 21
37.511993
 31
0.0
  0
LINE
  5
186
100
AcDbEntity
  8
枠・器具表
  6
CONTINUOUS
 62
     3
100
AcDbLine
 10
321.312431
 20
37.511993
 30
0.0
 11
313.919395
 21
37.511993
 31
0.0
  0
LINE
  5
187
100
AcDbEntity
  8
枠・器具表
  6
CONTINUOUS
 62
     3
100
AcDbLine
 10
315.211891
 20
40.283981
 30
0.0
 11
313.919395
 21
37.511993
 31
0.0
  0
LINE
  5
188
100
AcDbEntity
  8
枠・器具表
  6
CONTINUOUS
 62
     3
100
AcDbLine
 10
332.106232
 20
44.316002
 30
0.0
 11
332.106232
 21
42.804009
 31
0.0
  0
LINE
  5
189
100
AcDbEntity
  8
枠・器具表
  6
CONTINUOUS
 62
     3
100
AcDbLine
 10
332.106232
 20
44.316002
 30
0.0
 11
334.373878
 21
44.316002
 31
0.0
  0
LINE
  5
18A
100
AcDbEntity
  8
枠・器具表
  6
CONTINUOUS
 62
     3
100
AcDbLine
 10
334.373878
 20
44.316002
 30
0.0
 11
334.373878
 21
47.08799
 31
0.0
  0
LINE
  5
18B
100
AcDbEntity
  8
枠・器具表
  6
CONTINUOUS
 62
     3
100
AcDbLine
 10
334.373878
 20
47.08799
 30
0.0
 11
336.893753
 21
47.08799
 31
0.0
  0
LINE
  5
18C
100
AcDbEntity
  8
枠・器具表
  6
CONTINUOUS
 62
     3
100
AcDbLine
 10
336.893753
 20
47.08799
 30
0.0
 11
336.893753
 21
44.316002
 31
0.0
  0
LINE
  5
18D
100
AcDbEntity
  8
枠・器具表
  6
CONTINUOUS
 62
     3
100
AcDbLine
 10
336.893753
 20
44.316002
 30
0.0
 11
339.161934
 21
44.316002
 31
0.0
  0
LINE
  5
18E
100
AcDbEntity
  8
枠・器具表
  6
CONTINUOUS
 62
     3
100
AcDbLine
 10
339.161934
 20
44.316002
 30
0.0
 11
339.161934
 21
42.804009
 31
0.0
  0
LINE
  5
18F
100
AcDbEntity
  8
枠・器具表
  6
CONTINUOUS
 62
     3
100
AcDbLine
 10
339.161934
 20
42.804009
 30
0.0
 11
336.893753
 21
42.804009
 31
0.0
  0
LINE
  5
190
100
AcDbEntity
  8
枠・器具表
  6
CONTINUOUS
 62
     3
100
AcDbLine
 10
336.893753
 20
42.804009
 30
0.0
 11
336.893753
 21
37.511993
 31
0.0
  0
LINE
  5
191
100
AcDbEntity
  8
枠・器具表
  6
CONTINUOUS
 62
     3
100
AcDbLine
 10
336.893753
 20
37.511993
 30
0.0
 11
339.414162
 21
37.511993
 31
0.0
  0
LINE
  5
192
100
AcDbEntity
  8
枠・器具表
  6
CONTINUOUS
 62
     3
100
AcDbLine
 10
339.414162
 20
37.511993
 30
0.0
 11
339.414162
 21
36.0
 31
0.0
  0
LINE
  5
193
100
AcDbEntity
  8
枠・器具表
  6
CONTINUOUS
 62
     3
100
AcDbLine
 10
339.414162
 20
36.0
 30
0.0
 11
331.09774
 21
36.0
 31
0.0
  0
LINE
  5
194
100
AcDbEntity
  8
枠・器具表
  6
CONTINUOUS
 62
     3
100
AcDbLine
 10
331.09774
 20
36.0
 30
0.0
 11
331.09774
 21
37.511993
 31
0.0
  0
LINE
  5
195
100
AcDbEntity
  8
枠・器具表
  6
CONTINUOUS
 62
     3
100
AcDbLine
 10
331.09774
 20
37.511993
 30
0.0
 11
334.373878
 21
37.511993
 31
0.0
  0
LINE
  5
196
100
AcDbEntity
  8
枠・器具表
  6
CONTINUOUS
 62
     3
100
AcDbLine
 10
334.373878
 20
37.511993
 30
0.0
 11
334.373878
 21
42.804009
 31
0.0
  0
LINE
  5
197
100
AcDbEntity
  8
枠・器具表
  6
CONTINUOUS
 62
     3
100
AcDbLine
 10
334.373878
 20
42.804009
 30
0.0
 11
332.106232
 21
42.804009
 31
0.0
  0
LINE
  5
198
100
AcDbEntity
  8
枠・器具表
  6
CONTINUOUS
 62
     3
100
AcDbLine
 10
325.301727
 20
46.079994
 30
0.0
 11
325.301727
 21
44.568001
 31
0.0
  0
LINE
  5
199
100
AcDbEntity
  8
枠・器具表
  6
CONTINUOUS
 62
     3
100
AcDbLine
 10
325.301727
 20
46.079994
 30
0.0
 11
327.569908
 21
46.079994
 31
0.0
  0
LINE
  5
19A
100
AcDbEntity
  8
枠・器具表
  6
CONTINUOUS
 62
     3
100
AcDbLine
 10
327.569908
 20
46.079994
 30
0.0
 11
327.569908
 21
47.08799
 31
0.0
  0
LINE
  5
19B
100
AcDbEntity
  8
枠・器具表
  6
CONTINUOUS
 62
     3
100
AcDbLine
 10
327.569908
 20
47.08799
 30
0.0
 11
330.089783
 21
47.08799
 31
0.0
  0
LINE
  5
19C
100
AcDbEntity
  8
枠・器具表
  6
CONTINUOUS
 62
     3
100
AcDbLine
 10
330.089783
 20
47.08799
 30
0.0
 11
330.089783
 21
46.079994
 31
0.0
  0
LINE
  5
19D
100
AcDbEntity
  8
枠・器具表
  6
CONTINUOUS
 62
     3
100
AcDbLine
 10
330.089783
 20
46.079994
 30
0.0
 11
332.357964
 21
46.079994
 31
0.0
  0
LINE
  5
19E
100
AcDbEntity
  8
枠・器具表
  6
CONTINUOUS
 62
     3
100
AcDbLine
 10
332.357964
 20
46.079994
 30
0.0
 11
329.756531
 21
42.363945
 31
0.0
  0
LINE
  5
19F
100
AcDbEntity
  8
枠・器具表
  6
CONTINUOUS
 62
     3
100
AcDbLine
 10
329.756531
 20
42.363945
 30
0.0
 11
332.106232
 21
40.718971
 31
0.0
  0
LINE
  5
1A0
100
AcDbEntity
  8
枠・器具表
  6
CONTINUOUS
 62
     3
100
AcDbLine
 10
332.106232
 20
40.718971
 30
0.0
 11
332.106232
 21
37.950302
 31
0.0
  0
LINE
  5
1A1
100
AcDbEntity
  8
枠・器具表
  6
CONTINUOUS
 62
     3
100
AcDbLine
 10
332.106232
 20
37.950302
 30
0.0
 11
330.089783
 21
39.361931
 31
0.0
  0
LINE
  5
1A2
100
AcDbEntity
  8
枠・器具表
  6
CONTINUOUS
 62
     3
100
AcDbLine
 10
330.089783
 20
39.361931
 30
0.0
 11
330.089783
 21
36.0
 31
0.0
  0
LINE
  5
1A3
100
AcDbEntity
  8
枠・器具表
  6
CONTINUOUS
 62
     3
100
AcDbLine
 10
330.089783
 20
36.0
 30
0.0
 11
327.569908
 21
36.0
 31
0.0
  0
LINE
  5
1A4
100
AcDbEntity
  8
枠・器具表
  6
CONTINUOUS
 62
     3
100
AcDbLine
 10
327.569908
 20
36.0
 30
0.0
 11
327.569908
 21
39.239975
 31
0.0
  0
LINE
  5
1A5
100
AcDbEntity
  8
枠・器具表
  6
CONTINUOUS
 62
     3
100
AcDbLine
 10
327.569908
 20
39.239975
 30
0.0
 11
325.301727
 21
36.0
 31
0.0
  0
LINE
  5
1A6
100
AcDbEntity
  8
枠・器具表
  6
CONTINUOUS
 62
     3
100
AcDbLine
 10
325.301727
 20
36.0
 30
0.0
 11
325.301727
 21
39.954849
 31
0.0
  0
LINE
  5
1A7
100
AcDbEntity
  8
枠・器具表
  6
CONTINUOUS
 62
     3
100
AcDbLine
 10
325.301727
 20
39.954849
 30
0.0
 11
328.531212
 21
44.568001
 31
0.0
  0
LINE
  5
1A8
100
AcDbEntity
  8
枠・器具表
  6
CONTINUOUS
 62
     3
100
AcDbLine
 10
328.531212
 20
44.568001
 30
0.0
 11
325.301727
 21
44.568001
 31
0.0
  0
ARC
  5
1A9
100
AcDbEntity
  8
枠・器具表
  6
CONTINUOUS
 62
     2
100
AcDbCircle
 10
214.790253
 20
42.550102
 30
0.0
 40
1.575031
100
AcDbArc
 50
310.768311
 51
335.998779
  0
LINE
  5
1AA
100
AcDbEntity
  8
枠・器具表
  6
CONTINUOUS
 62
     2
100
AcDbLine
 10
216.60006
 20
42.741028
 30
0.0
 11
216.229919
 21
41.909767
 31
0.0
  0
LINE
  5
1AB
100
AcDbEntity
  8
枠・器具表
  6
CONTINUOUS
 62
     2
100
AcDbLine
 10
212.246269
 20
43.686005
 30
0.0
 11
218.054604
 21
43.686005
 31
0.0
  0
ARC
  5
1AC
100
AcDbEntity
  8
枠・器具表
  6
CONTINUOUS
 62
     2
100
AcDbCircle
 10
238.074821
 20
40.536018
 30
0.0
 40
3.906002
100
AcDbArc
 50
270.000031
 51
324.00116
  0
ARC
  5
1AD
100
AcDbEntity
  8
枠・器具表
  6
CONTINUOUS
 62
     2
100
AcDbCircle
 10
238.074821
 20
40.536018
 30
0.0
 40
3.276002
100
AcDbArc
 50
270.000031
 51
324.00116
  0
ARC
  5
1AE
100
AcDbEntity
  8
枠・器具表
  6
CONTINUOUS
 62
     2
100
AcDbCircle
 10
199.891418
 20
40.536018
 30
0.0
 40
3.905995
100
AcDbArc
 50
270.000031
 51
333.99855
  0
ARC
  5
1AF
100
AcDbEntity
  8
枠・器具表
  6
CONTINUOUS
 62
     2
100
AcDbCircle
 10
199.691376
 20
40.536018
 30
0.0
 40
2.645998
100
AcDbArc
 50
270.000031
 51
333.99855
  0
ARC
  5
1B0
100
AcDbEntity
  8
枠・器具表
  6
CONTINUOUS
 62
     2
100
AcDbCircle
 10
199.791397
 20
40.536018
 30
0.0
 40
3.275998
100
AcDbArc
 50
270.000031
 51
333.99855
  0
LINE
  5
1B1
100
AcDbEntity
  8
枠・器具表
  6
CONTINUOUS
 62
     2
100
AcDbLine
 10
193.210205
 20
46.508032
 30
0.0
 11
199.345993
 21
46.508032
 31
0.0
  0
LINE
  5
1B2
100
AcDbEntity
  8
枠・器具表
  6
CONTINUOUS
 62
     2
100
AcDbLine
 10
193.210205
 20
45.928036
 30
0.0
 11
199.345993
 21
45.928036
 31
0.0
  0
LINE
  5
1B3
100
AcDbEntity
  8
枠・器具表
  6
CONTINUOUS
 62
     2
100
AcDbLine
 10
193.210205
 20
45.348078
 30
0.0
 11
199.345993
 21
45.348078
 31
0.0
  0
LINE
  5
1B4
100
AcDbEntity
  8
枠・器具表
  6
CONTINUOUS
 62
     2
100
AcDbLine
 10
193.210205
 20
43.534008
 30
0.0
 11
199.345993
 21
43.534008
 31
0.0
  0
LINE
  5
1B5
100
AcDbEntity
  8
枠・器具表
  6
CONTINUOUS
 62
     2
100
AcDbLine
 10
193.210205
 20
42.903973
 30
0.0
 11
199.345993
 21
42.903973
 31
0.0
  0
LINE
  5
1B6
100
AcDbEntity
  8
枠・器具表
  6
CONTINUOUS
 62
     2
100
AcDbLine
 10
193.210205
 20
42.324015
 30
0.0
 11
199.345993
 21
42.324015
 31
0.0
  0
LINE
  5
1B7
100
AcDbEntity
  8
枠・器具表
  6
CONTINUOUS
 62
     2
100
AcDbLine
 10
193.210205
 20
37.889992
 30
0.0
 11
199.691376
 21
37.889992
 31
0.0
  0
LINE
  5
1B8
100
AcDbEntity
  8
枠・器具表
  6
CONTINUOUS
 62
     2
100
AcDbLine
 10
193.210205
 20
37.259995
 30
0.0
 11
199.691376
 21
37.259995
 31
0.0
  0
LINE
  5
1B9
100
AcDbEntity
  8
枠・器具表
  6
CONTINUOUS
 62
     2
100
AcDbLine
 10
193.210205
 20
36.629997
 30
0.0
 11
199.691376
 21
36.629997
 31
0.0
  0
LINE
  5
1BA
100
AcDbEntity
  8
枠・器具表
  6
CONTINUOUS
 62
     2
100
AcDbLine
 10
202.069267
 20
39.376007
 30
0.0
 11
204.277061
 21
43.902591
 31
0.0
  0
LINE
  5
1BB
100
AcDbEntity
  8
枠・器具表
  6
CONTINUOUS
 62
     2
100
AcDbLine
 10
202.735313
 20
39.099899
 30
0.0
 11
205.077919
 21
43.902594
 31
0.0
  0
LINE
  5
1BC
100
AcDbEntity
  8
枠・器具表
  6
CONTINUOUS
 62
     2
100
AcDbLine
 10
203.401321
 20
38.823563
 30
0.0
 11
205.878281
 21
43.902586
 31
0.0
  0
LINE
  5
1BD
100
AcDbEntity
  8
枠・器具表
  6
CONTINUOUS
 62
     2
100
AcDbLine
 10
202.534088
 20
46.423994
 30
0.0
 11
203.629593
 21
46.423994
 31
0.0
  0
LINE
  5
1BE
100
AcDbEntity
  8
枠・器具表
  6
CONTINUOUS
 62
     2
100
AcDbLine
 10
202.534088
 20
45.709997
 30
0.0
 11
203.629593
 21
45.709997
 31
0.0
  0
LINE
  5
1BF
100
AcDbEntity
  8
枠・器具表
  6
CONTINUOUS
 62
     2
100
AcDbLine
 10
205.306229
 20
46.423994
 30
0.0
 11
206.401733
 21
46.423994
 31
0.0
  0
LINE
  5
1C0
100
AcDbEntity
  8
枠・器具表
  6
CONTINUOUS
 62
     2
100
AcDbLine
 10
205.306229
 20
45.709997
 30
0.0
 11
206.401733
 21
45.709997
 31
0.0
  0
LINE
  5
1C1
100
AcDbEntity
  8
枠・器具表
  6
CONTINUOUS
 62
     2
100
AcDbLine
 10
208.078369
 20
43.056046
 30
0.0
 11
211.07016
 21
43.056046
 31
0.0
  0
LINE
  5
1C2
100
AcDbEntity
  8
枠・器具表
  6
CONTINUOUS
 62
     2
100
AcDbLine
 10
210.343842
 20
45.625671
 30
0.0
 11
210.651268
 21
43.686005
 31
0.0
  0
LINE
  5
1C3
100
AcDbEntity
  8
枠・器具表
  6
CONTINUOUS
 62
     2
100
AcDbLine
 10
211.797012
 20
36.454326
 30
0.0
 11
210.862259
 21
42.354761
 31
0.0
  0
ARC
  5
1C4
100
AcDbEntity
  8
枠・器具表
  6
CONTINUOUS
 62
     2
100
AcDbCircle
 10
214.740242
 20
42.550102
 30
0.0
 40
2.20503
100
AcDbArc
 50
272.671387
 51
335.998779
  0
ARC
  5
1C5
100
AcDbEntity
  8
枠・器具表
  6
CONTINUOUS
 62
     2
100
AcDbCircle
 10
214.690231
 20
42.550102
 30
0.0
 40
2.835028
100
AcDbArc
 50
267.367432
 51
335.998779
  0
LINE
  5
1C6
100
AcDbEntity
  8
枠・器具表
  6
CONTINUOUS
 62
     2
100
AcDbLine
 10
218.337921
 20
43.772632
 30
0.0
 11
217.280373
 21
41.397148
 31
0.0
  0
LINE
  5
1C7
100
AcDbEntity
  8
枠・器具表
  6
CONTINUOUS
 62
     2
100
AcDbLine
 10
213.272652
 20
36.454326
 30
0.0
 11
212.305092
 21
42.562204
 31
0.0
  0
LINE
  5
1C8
100
AcDbEntity
  8
枠・器具表
  6
CONTINUOUS
 62
     2
100
AcDbLine
 10
212.584824
 20
36.454326
 30
0.0
 11
211.132111
 21
45.625669
 31
0.0
  0
LINE
  5
1C9
100
AcDbEntity
  8
枠・器具表
  6
CONTINUOUS
 62
     2
100
AcDbLine
 10
211.819939
 20
45.625669
 30
0.0
 11
212.098907
 21
43.864866
 31
0.0
  0
LINE
  5
1CA
100
AcDbEntity
  8
枠・器具表
  6
CONTINUOUS
 62
     2
100
AcDbLine
 10
208.078369
 20
43.686005
 30
0.0
 11
210.151276
 21
43.686005
 31
0.0
  0
LINE
  5
1CB
100
AcDbEntity
  8
枠・器具表
  6
CONTINUOUS
 62
     2
100
AcDbLine
 10
217.417473
 20
43.142599
 30
0.0
 11
216.755127
 21
41.653381
 31
0.0
  0
LINE
  5
1CC
100
AcDbEntity
  8
枠・器具表
  6
CONTINUOUS
 62
     2
100
AcDbLine
 10
212.026848
 20
43.056046
 30
0.0
 11
216.834549
 21
43.056046
 31
0.0
  0
ARC
  5
1CD
100
AcDbEntity
  8
枠・器具表
  6
CONTINUOUS
 62
     2
100
AcDbCircle
 10
214.640221
 20
42.550102
 30
0.0
 40
3.465028
100
AcDbArc
 50
269.611328
 51
335.998779
  0
LINE
  5
1CE
100
AcDbEntity
  8
枠・器具表
  6
CONTINUOUS
 62
     2
100
AcDbLine
 10
218.977455
 20
43.772639
 30
0.0
 11
217.805618
 21
41.140839
 31
0.0
  0
LINE
  5
1CF
100
AcDbEntity
  8
枠・器具表
  6
CONTINUOUS
 62
     2
100
AcDbLine
 10
245.828156
 20
45.828033
 30
0.0
 11
240.720161
 21
38.795677
 31
0.0
  0
LINE
  5
1D0
100
AcDbEntity
  8
枠・器具表
  6
CONTINUOUS
 62
     2
100
AcDbLine
 10
244.467033
 20
45.198074
 30
0.0
 11
240.08551
 21
39.166008
 31
0.0
  0
ARC
  5
1D1
100
AcDbEntity
  8
枠・器具表
  6
CONTINUOUS
 62
     2
100
AcDbCircle
 10
238.24984
 20
40.436016
 30
0.0
 40
2.331005
100
AcDbArc
 50
270.000031
 51
324.00116
  0
LINE
  5
1D2
100
AcDbEntity
  8
枠・器具表
  6
CONTINUOUS
 62
     2
100
AcDbLine
 10
220.969872
 20
46.503898
 30
0.0
 11
232.06591
 21
46.503898
 31
0.0
  0
LINE
  5
1D3
100
AcDbEntity
  8
枠・器具表
  6
CONTINUOUS
 62
     2
100
AcDbLine
 10
220.969872
 20
45.848938
 30
0.0
 11
232.06591
 21
45.848938
 31
0.0
  0
LINE
  5
1D4
100
AcDbEntity
  8
枠・器具表
  6
CONTINUOUS
 62
     2
100
AcDbLine
 10
220.969872
 20
45.168978
 30
0.0
 11
232.06591
 21
45.168978
 31
0.0
  0
LINE
  5
1D5
100
AcDbEntity
  8
枠・器具表
  6
CONTINUOUS
 62
     2
100
AcDbLine
 10
219.961914
 20
37.911011
 30
0.0
 11
233.073868
 21
37.911011
 31
0.0
  0
LINE
  5
1D6
100
AcDbEntity
  8
枠・器具表
  6
CONTINUOUS
 62
     2
100
AcDbLine
 10
219.961914
 20
37.281014
 30
0.0
 11
233.073868
 21
37.281014
 31
0.0
  0
LINE
  5
1D7
100
AcDbEntity
  8
枠・器具表
  6
CONTINUOUS
 62
     2
100
AcDbLine
 10
219.961914
 20
36.600977
 30
0.0
 11
233.073868
 21
36.600977
 31
0.0
  0
LINE
  5
1D8
100
AcDbEntity
  8
枠・器具表
  6
CONTINUOUS
 62
     2
100
AcDbLine
 10
235.838036
 20
46.483031
 30
0.0
 11
246.564201
 21
46.483031
 31
0.0
  0
LINE
  5
1D9
100
AcDbEntity
  8
枠・器具表
  6
CONTINUOUS
 62
     2
100
AcDbLine
 10
247.214226
 20
46.458031
 30
0.0
 11
241.379761
 21
38.425156
 31
0.0
  0
LINE
  5
1DA
100
AcDbEntity
  8
枠・器具表
  6
CONTINUOUS
 62
     2
100
AcDbLine
 10
235.838036
 20
45.828033
 30
0.0
 11
245.328125
 21
45.828033
 31
0.0
  0
LINE
  5
1DB
100
AcDbEntity
  8
枠・器具表
  6
CONTINUOUS
 62
     2
100
AcDbLine
 10
238.074821
 20
37.914992
 30
0.0
 11
234.830078
 21
37.914992
 31
0.0
  0
LINE
  5
1DC
100
AcDbEntity
  8
枠・器具表
  6
CONTINUOUS
 62
     2
100
AcDbLine
 10
238.074821
 20
37.259995
 30
0.0
 11
234.830078
 21
37.259995
 31
0.0
  0
LINE
  5
1DD
100
AcDbEntity
  8
枠・器具表
  6
CONTINUOUS
 62
     2
100
AcDbLine
 10
238.074821
 20
36.604997
 30
0.0
 11
234.830078
 21
36.604997
 31
0.0
  0
LINE
  5
1DE
100
AcDbEntity
  8
枠・器具表
  6
CONTINUOUS
 62
     2
100
AcDbLine
 10
243.107971
 20
39.934288
 30
0.0
 11
246.092896
 21
36.5
 31
0.0
  0
LINE
  5
1DF
100
AcDbEntity
  8
枠・器具表
  6
CONTINUOUS
 62
     2
100
AcDbLine
 10
243.488373
 20
40.382627
 30
0.0
 11
246.86293
 21
36.5
 31
0.0
  0
LINE
  5
1E0
100
AcDbEntity
  8
枠・器具表
  6
CONTINUOUS
 62
     2
100
AcDbLine
 10
243.868279
 20
40.830737
 30
0.0
 11
247.632355
 21
36.5
 31
0.0
  0
LINE
  5
1E1
100
AcDbEntity
  8
枠・器具表
  6
CONTINUOUS
 62
     2
100
AcDbLine
 10
244.248184
 20
41.278962
 30
0.0
 11
248.402313
 21
36.5
 31
0.0
  0
LINE
  5
1E2
100
AcDbEntity
  8
枠・器具表
  6
CONTINUOUS
 62
     2
100
AcDbLine
 10
235.838036
 20
45.148073
 30
0.0
 11
243.841995
 21
45.148073
 31
0.0
  0
LINE
  5
1E3
100
AcDbEntity
  8
枠・器具表
  6
CONTINUOUS
 62
     2
100
AcDbLine
 10
252.973885
 20
46.508032
 30
0.0
 11
265.077843
 21
46.508032
 31
0.0
  0
LINE
  5
1E4
100
AcDbEntity
  8
枠・器具表
  6
CONTINUOUS
 62
     2
100
AcDbLine
 10
252.973885
 20
45.878035
 30
0.0
 11
265.077843
 21
45.878035
 31
0.0
  0
LINE
  5
1E5
100
AcDbEntity
  8
枠・器具表
  6
CONTINUOUS
 62
     2
100
AcDbLine
 10
258.16935
 20
37.869979
 30
0.0
 11
258.16935
 21
45.303055
 31
0.0
  0
LINE
  5
1E6
100
AcDbEntity
  8
枠・器具表
  6
CONTINUOUS
 62
     2
100
AcDbLine
 10
258.798965
 20
37.869979
 30
0.0
 11
258.798965
 21
45.303055
 31
0.0
  0
LINE
  5
1E7
100
AcDbEntity
  8
枠・器具表
  6
CONTINUOUS
 62
     2
100
AcDbLine
 10
259.428543
 20
37.869979
 30
0.0
 11
259.428543
 21
45.303055
 31
0.0
  0
LINE
  5
1E8
100
AcDbEntity
  8
枠・器具表
  6
CONTINUOUS
 62
     2
100
AcDbLine
 10
260.00811
 20
37.869979
 30
0.0
 11
260.00811
 21
45.303055
 31
0.0
  0
LINE
  5
1E9
100
AcDbEntity
  8
枠・器具表
  6
CONTINUOUS
 62
     2
100
AcDbLine
 10
252.469887
 20
37.369979
 30
0.0
 11
265.581841
 21
37.369979
 31
0.0
  0
LINE
  5
1EA
100
AcDbEntity
  8
枠・器具表
  6
CONTINUOUS
 62
     2
100
AcDbLine
 10
252.469887
 20
36.614982
 30
0.0
 11
265.581841
 21
36.614982
 31
0.0
  0
LINE
  5
1EB
100
AcDbEntity
  8
枠・器具表
  6
CONTINUOUS
 62
     2
100
AcDbLine
 10
268.531899
 20
46.58799
 30
0.0
 11
269.46772
 21
45.390376
 31
0.0
  0
LINE
  5
1EC
100
AcDbEntity
  8
枠・器具表
  6
CONTINUOUS
 62
     2
100
AcDbLine
 10
269.331192
 20
46.58799
 30
0.0
 11
270.267014
 21
45.390376
 31
0.0
  0
LINE
  5
1ED
100
AcDbEntity
  8
枠・器具表
  6
CONTINUOUS
 62
     2
100
AcDbLine
 10
271.827835
 20
46.58799
 30
0.0
 11
271.827835
 21
45.496391
 31
0.0
  0
LINE
  5
1EE
100
AcDbEntity
  8
枠・器具表
  6
CONTINUOUS
 62
     2
100
AcDbLine
 10
272.507462
 20
46.58799
 30
0.0
 11
272.507462
 21
45.496391
 31
0.0
  0
LINE
  5
1EF
100
AcDbEntity
  8
枠・器具表
  6
CONTINUOUS
 62
     2
100
AcDbLine
 10
274.347748
 20
46.58799
 30
0.0
 11
274.347748
 21
45.496391
 31
0.0
  0
LINE
  5
1F0
100
AcDbEntity
  8
枠・器具表
  6
CONTINUOUS
 62
     2
100
AcDbLine
 10
275.077347
 20
46.58799
 30
0.0
 11
275.077347
 21
45.496391
 31
0.0
  0
LINE
  5
1F1
100
AcDbEntity
  8
枠・器具表
  6
CONTINUOUS
 62
     2
100
AcDbLine
 10
277.498917
 20
46.58799
 30
0.0
 11
276.563095
 21
45.390376
 31
0.0
  0
LINE
  5
1F2
100
AcDbEntity
  8
枠・器具表
  6
CONTINUOUS
 62
     2
100
AcDbLine
 10
278.348221
 20
46.58799
 30
0.0
 11
277.412399
 21
45.390376
 31
0.0
  0
LINE
  5
1F3
100
AcDbEntity
  8
枠・器具表
  6
CONTINUOUS
 62
     2
100
AcDbLine
 10
266.834053
 20
44.996391
 30
0.0
 11
279.946007
 21
44.996391
 31
0.0
  0
LINE
  5
1F4
100
AcDbEntity
  8
枠・器具表
  6
CONTINUOUS
 62
     2
100
AcDbLine
 10
270.107941
 20
43.047071
 30
0.0
 11
269.569458
 21
44.526545
 31
0.0
  0
LINE
  5
1F5
100
AcDbEntity
  8
枠・器具表
  6
CONTINUOUS
 62
     2
100
AcDbLine
 10
270.878052
 20
43.047071
 30
0.0
 11
270.339569
 21
44.526545
 31
0.0
  0
LINE
  5
1F6
100
AcDbEntity
  8
枠・器具表
  6
CONTINUOUS
 62
     2
100
AcDbLine
 10
271.598152
 20
43.047129
 30
0.0
 11
271.06028
 21
44.526487
 31
0.0
  0
LINE
  5
1F7
100
AcDbEntity
  8
枠・器具表
  6
CONTINUOUS
 62
     2
100
AcDbLine
 10
275.229858
 20
43.047017
 30
0.0
 11
275.768913
 21
44.526599
 31
0.0
  0
LINE
  5
1F8
100
AcDbEntity
  8
枠・器具表
  6
CONTINUOUS
 62
     2
100
AcDbLine
 10
276.000504
 20
43.047017
 30
0.0
 11
276.539558
 21
44.526599
 31
0.0
  0
LINE
  5
1F9
100
AcDbEntity
  8
枠・器具表
  6
CONTINUOUS
 62
     2
100
AcDbLine
 10
276.720604
 20
43.047017
 30
0.0
 11
277.259659
 21
44.526599
 31
0.0
  0
LINE
  5
1FA
100
AcDbEntity
  8
枠・器具表
  6
CONTINUOUS
 62
     2
100
AcDbLine
 10
266.834053
 20
42.577225
 30
0.0
 11
279.946007
 21
42.577225
 31
0.0
  0
LINE
  5
1FB
100
AcDbEntity
  8
枠・器具表
  6
CONTINUOUS
 62
     2
100
AcDbLine
 10
266.834053
 20
40.838409
 30
0.0
 11
272.209686
 21
40.838409
 31
0.0
  0
LINE
  5
1FC
100
AcDbEntity
  8
枠・器具表
  6
CONTINUOUS
 62
     2
100
AcDbLine
 10
266.834053
 20
39.099594
 30
0.0
 11
272.209686
 21
39.099594
 31
0.0
  0
LINE
  5
1FD
100
AcDbEntity
  8
枠・器具表
  6
CONTINUOUS
 62
     2
100
AcDbLine
 10
274.618897
 20
39.099594
 30
0.0
 11
279.946007
 21
39.099594
 31
0.0
  0
LINE
  5
1FE
100
AcDbEntity
  8
枠・器具表
  6
CONTINUOUS
 62
     2
100
AcDbLine
 10
267.627205
 20
36.5
 30
0.0
 11
270.133308
 21
38.764385
 31
0.0
  0
LINE
  5
1FF
100
AcDbEntity
  8
枠・器具表
  6
CONTINUOUS
 62
     2
100
AcDbLine
 10
268.466934
 20
36.5
 30
0.0
 11
270.973114
 21
38.76439
 31
0.0
  0
LINE
  5
200
100
AcDbEntity
  8
枠・器具表
  6
CONTINUOUS
 62
     2
100
AcDbLine
 10
269.257187
 20
36.5
 30
0.0
 11
271.763367
 21
38.76439
 31
0.0
  0
LINE
  5
201
100
AcDbEntity
  8
枠・器具表
  6
CONTINUOUS
 62
     2
100
AcDbLine
 10
272.709679
 20
36.5
 30
0.0
 11
272.709679
 21
42.077225
 31
0.0
  0
LINE
  5
202
100
AcDbEntity
  8
枠・器具表
  6
CONTINUOUS
 62
     2
100
AcDbLine
 10
273.439278
 20
36.5
 30
0.0
 11
273.439278
 21
42.077225
 31
0.0
  0
LINE
  5
203
100
AcDbEntity
  8
枠・器具表
  6
CONTINUOUS
 62
     2
100
AcDbLine
 10
274.118904
 20
36.5
 30
0.0
 11
274.118904
 21
42.077225
 31
0.0
  0
LINE
  5
204
100
AcDbEntity
  8
枠・器具表
  6
CONTINUOUS
 62
     2
100
AcDbLine
 10
277.542938
 20
36.5
 30
0.0
 11
275.036835
 21
38.764385
 31
0.0
  0
LINE
  5
205
100
AcDbEntity
  8
枠・器具表
  6
CONTINUOUS
 62
     2
100
AcDbLine
 10
278.382706
 20
36.5
 30
0.0
 11
275.876526
 21
38.76439
 31
0.0
  0
LINE
  5
206
100
AcDbEntity
  8
枠・器具表
  6
CONTINUOUS
 62
     2
100
AcDbLine
 10
279.222969
 20
36.5
 30
0.0
 11
276.716789
 21
38.76439
 31
0.0
  0
LINE
  5
207
100
AcDbEntity
  8
枠・器具表
  6
CONTINUOUS
 62
     2
100
AcDbLine
 10
283.999466
 20
46.58799
 30
0.0
 11
283.999466
 21
45.697998
 31
0.0
  0
LINE
  5
208
100
AcDbEntity
  8
枠・器具表
  6
CONTINUOUS
 62
     2
100
AcDbLine
 10
284.629044
 20
46.58799
 30
0.0
 11
284.629044
 21
45.697998
 31
0.0
  0
LINE
  5
209
100
AcDbEntity
  8
枠・器具表
  6
CONTINUOUS
 62
     2
100
AcDbLine
 10
285.258659
 20
46.58799
 30
0.0
 11
285.258659
 21
45.697998
 31
0.0
  0
LINE
  5
20A
100
AcDbEntity
  8
枠・器具表
  6
CONTINUOUS
 62
     2
100
AcDbLine
 10
281.449989
 20
45.197998
 30
0.0
 11
285.99379
 21
45.197998
 31
0.0
  0
LINE
  5
20B
100
AcDbEntity
  8
枠・器具表
  6
CONTINUOUS
 62
     2
100
AcDbLine
 10
281.486038
 20
36.497262
 30
0.0
 11
282.348007
 21
44.700736
 31
0.0
  0
LINE
  5
20C
100
AcDbEntity
  8
枠・器具表
  6
CONTINUOUS
 62
     2
100
AcDbLine
 10
282.069191
 20
36.497262
 30
0.0
 11
282.931198
 21
44.700736
 31
0.0
  0
LINE
  5
20D
100
AcDbEntity
  8
枠・器具表
  6
CONTINUOUS
 62
     2
100
AcDbLine
 10
283.999466
 20
36.5
 30
0.0
 11
283.999466
 21
44.697999
 31
0.0
  0
LINE
  5
20E
100
AcDbEntity
  8
枠・器具表
  6
CONTINUOUS
 62
     2
100
AcDbLine
 10
284.629044
 20
36.5
 30
0.0
 11
284.629044
 21
44.697999
 31
0.0
  0
LINE
  5
20F
100
AcDbEntity
  8
枠・器具表
  6
CONTINUOUS
 62
     2
100
AcDbLine
 10
285.258659
 20
36.5
 30
0.0
 11
285.258659
 21
44.697999
 31
0.0
  0
LINE
  5
210
100
AcDbEntity
  8
枠・器具表
  6
CONTINUOUS
 62
     2
100
AcDbLine
 10
285.552315
 20
44.038561
 30
0.0
 11
286.200089
 21
43.14596
 31
0.0
  0
LINE
  5
211
100
AcDbEntity
  8
枠・器具表
  6
CONTINUOUS
 62
     2
100
AcDbLine
 10
285.552315
 20
43.066062
 30
0.0
 11
286.200089
 21
42.17346
 31
0.0
  0
LINE
  5
212
100
AcDbEntity
  8
枠・器具表
  6
CONTINUOUS
 62
     2
100
AcDbLine
 10
287.117294
 20
44.29715
 30
0.0
 11
287.692207
 21
46.602844
 31
0.0
  0
LINE
  5
213
100
AcDbEntity
  8
枠・器具表
  6
CONTINUOUS
 62
     2
100
AcDbLine
 10
287.71685
 20
44.297172
 30
0.0
 11
288.291306
 21
46.602822
 31
0.0
  0
LINE
  5
214
100
AcDbEntity
  8
枠・器具表
  6
CONTINUOUS
 62
     2
100
AcDbLine
 10
288.240952
 20
44.29715
 30
0.0
 11
288.815865
 21
46.602844
 31
0.0
  0
LINE
  5
215
100
AcDbEntity
  8
枠・器具表
  6
CONTINUOUS
 62
     2
100
AcDbLine
 10
290.425591
 20
45.697998
 30
0.0
 11
290.425591
 21
46.58799
 31
0.0
  0
LINE
  5
216
100
AcDbEntity
  8
枠・器具表
  6
CONTINUOUS
 62
     2
100
AcDbLine
 10
291.105179
 20
45.697998
 30
0.0
 11
291.105179
 21
46.58799
 31
0.0
  0
LINE
  5
217
100
AcDbEntity
  8
枠・器具表
  6
CONTINUOUS
 62
     2
100
AcDbLine
 10
291.734795
 20
45.697998
 30
0.0
 11
291.734795
 21
46.58799
 31
0.0
  0
LINE
  5
218
100
AcDbEntity
  8
枠・器具表
  6
CONTINUOUS
 62
     2
100
AcDbLine
 10
288.965553
 20
45.197998
 30
0.0
 11
294.561943
 21
45.197998
 31
0.0
  0
LINE
  5
219
100
AcDbEntity
  8
枠・器具表
  6
CONTINUOUS
 62
     2
100
AcDbLine
 10
290.425591
 20
44.697999
 30
0.0
 11
290.425591
 21
43.178009
 31
0.0
  0
LINE
  5
21A
100
AcDbEntity
  8
枠・器具表
  6
CONTINUOUS
 62
     2
100
AcDbLine
 10
291.105179
 20
44.697999
 30
0.0
 11
291.105179
 21
43.178009
 31
0.0
  0
LINE
  5
21B
100
AcDbEntity
  8
枠・器具表
  6
CONTINUOUS
 62
     2
100
AcDbLine
 10
291.734795
 20
44.697999
 30
0.0
 11
291.734795
 21
43.178009
 31
0.0
  0
LINE
  5
21C
100
AcDbEntity
  8
枠・器具表
  6
CONTINUOUS
 62
     2
100
AcDbLine
 10
287.246002
 20
42.678009
 30
0.0
 11
294.814171
 21
42.678009
 31
0.0
  0
LINE
  5
21D
100
AcDbEntity
  8
枠・器具表
  6
CONTINUOUS
 62
     2
100
AcDbLine
 10
288.361992
 20
42.186097
 30
0.0
 11
287.325195
 21
36.491912
 31
0.0
  0
LINE
  5
21E
100
AcDbEntity
  8
枠・器具表
  6
CONTINUOUS
 62
     2
100
AcDbLine
 10
288.95182
 20
42.186097
 30
0.0
 11
287.915062
 21
36.491912
 31
0.0
  0
LINE
  5
21F
100
AcDbEntity
  8
枠・器具表
  6
CONTINUOUS
 62
     2
100
AcDbLine
 10
289.472298
 20
42.186104
 30
0.0
 11
288.435005
 21
36.491905
 31
0.0
  0
LINE
  5
220
100
AcDbEntity
  8
枠・器具表
  6
CONTINUOUS
 62
     2
100
AcDbLine
 10
290.425591
 20
42.17801
 30
0.0
 11
290.425591
 21
36.5
 31
0.0
  0
LINE
  5
221
100
AcDbEntity
  8
枠・器具表
  6
CONTINUOUS
 62
     2
100
AcDbLine
 10
291.055168
 20
42.17801
 30
0.0
 11
291.055168
 21
36.5
 31
0.0
  0
LINE
  5
222
100
AcDbEntity
  8
枠・器具表
  6
CONTINUOUS
 62
     2
100
AcDbLine
 10
291.734795
 20
42.17801
 30
0.0
 11
291.734795
 21
36.5
 31
0.0
  0
LINE
  5
223
100
AcDbEntity
  8
枠・器具表
  6
CONTINUOUS
 62
     2
100
AcDbLine
 10
292.587379
 20
42.186104
 30
0.0
 11
293.624672
 21
36.491905
 31
0.0
  0
LINE
  5
224
100
AcDbEntity
  8
枠・器具表
  6
CONTINUOUS
 62
     2
100
AcDbLine
 10
293.127731
 20
42.186104
 30
0.0
 11
294.165024
 21
36.491905
 31
0.0
  0
LINE
  5
225
100
AcDbEntity
  8
枠・器具表
  6
CONTINUOUS
 62
     2
100
AcDbLine
 10
293.76757
 20
42.186104
 30
0.0
 11
294.804863
 21
36.491905
 31
0.0
  0
LINE
  5
226
100
AcDbEntity
  8
枠・器具表
  6
CONTINUOUS
 62
     2
100
AcDbLine
 10
296.318153
 20
45.600039
 30
0.0
 11
303.456024
 21
45.600039
 31
0.0
  0
LINE
  5
227
100
AcDbEntity
  8
枠・器具表
  6
CONTINUOUS
 62
     2
100
AcDbLine
 10
296.318153
 20
44.970041
 30
0.0
 11
303.685326
 21
44.970041
 31
0.0
  0
LINE
  5
228
100
AcDbEntity
  8
枠・器具表
  6
CONTINUOUS
 62
     2
100
AcDbLine
 10
307.279152
 20
36.469847
 30
0.0
 11
303.585495
 21
46.618143
 31
0.0
  0
LINE
  5
229
100
AcDbEntity
  8
枠・器具表
  6
CONTINUOUS
 62
     2
100
AcDbLine
 10
307.949242
 20
36.469849
 30
0.0
 11
304.255737
 21
46.618141
 31
0.0
  0
LINE
  5
22A
100
AcDbEntity
  8
枠・器具表
  6
CONTINUOUS
 62
     2
100
AcDbLine
 10
308.619331
 20
36.469849
 30
0.0
 11
304.925827
 21
46.618141
 31
0.0
  0
LINE
  5
22B
100
AcDbEntity
  8
枠・器具表
  6
CONTINUOUS
 62
     2
100
AcDbLine
 10
309.289421
 20
36.46984
 30
0.0
 11
305.595345
 21
46.618148
 31
0.0
  0
LINE
  5
22C
100
AcDbEntity
  8
枠・器具表
  6
CONTINUOUS
 62
     2
100
AcDbLine
 10
307.385773
 20
46.100038
 30
0.0
 11
307.385773
 21
46.58799
 31
0.0
  0
LINE
  5
22D
100
AcDbEntity
  8
枠・器具表
  6
CONTINUOUS
 62
     2
100
AcDbLine
 10
308.065399
 20
46.100038
 30
0.0
 11
308.065399
 21
46.58799
 31
0.0
  0
LINE
  5
22E
100
AcDbEntity
  8
枠・器具表
  6
CONTINUOUS
 62
     2
100
AcDbLine
 10
308.744987
 20
46.100038
 30
0.0
 11
308.744987
 21
46.58799
 31
0.0
  0
LINE
  5
22F
100
AcDbEntity
  8
枠・器具表
  6
CONTINUOUS
 62
     2
100
AcDbLine
 10
306.465935
 20
45.600039
 30
0.0
 11
309.430107
 21
45.600039
 31
0.0
  0
LINE
  5
230
100
AcDbEntity
  8
枠・器具表
  6
CONTINUOUS
 62
     2
100
AcDbLine
 10
306.695274
 20
44.970041
 30
0.0
 11
309.430107
 21
44.970041
 31
0.0
  0
LINE
  5
231
100
AcDbEntity
  8
枠・器具表
  6
CONTINUOUS
 62
     2
100
AcDbLine
 10
297.073883
 20
42.591024
 30
0.0
 11
303.634094
 21
42.591024
 31
0.0
  0
LINE
  5
232
100
AcDbEntity
  8
枠・器具表
  6
CONTINUOUS
 62
     2
100
AcDbLine
 10
297.073883
 20
41.960989
 30
0.0
 11
303.634094
 21
41.960989
 31
0.0
  0
LINE
  5
233
100
AcDbEntity
  8
枠・器具表
  6
CONTINUOUS
 62
     2
100
AcDbLine
 10
299.447731
 20
41.460989
 30
0.0
 11
299.447731
 21
38.947788
 31
0.0
  0
LINE
  5
234
100
AcDbEntity
  8
枠・器具表
  6
CONTINUOUS
 62
     2
100
AcDbLine
 10
300.077309
 20
41.460989
 30
0.0
 11
300.077309
 21
39.081608
 31
0.0
  0
LINE
  5
235
100
AcDbEntity
  8
枠・器具表
  6
CONTINUOUS
 62
     2
100
AcDbLine
 10
300.706886
 20
41.460989
 30
0.0
 11
300.706886
 21
39.21543
 31
0.0
  0
LINE
  5
236
100
AcDbEntity
  8
枠・器具表
  6
CONTINUOUS
 62
     2
100
AcDbLine
 10
301.336502
 20
41.460989
 30
0.0
 11
301.336502
 21
39.349257
 31
0.0
  0
LINE
  5
237
100
AcDbEntity
  8
枠・器具表
  6
CONTINUOUS
 62
     2
100
AcDbLine
 10
296.936821
 20
37.914079
 30
0.0
 11
303.771118
 21
39.366749
 31
0.0
  0
LINE
  5
238
100
AcDbEntity
  8
枠・器具表
  6
CONTINUOUS
 62
     2
100
AcDbLine
 10
296.936821
 20
37.220007
 30
0.0
 11
303.771118
 21
38.672713
 31
0.0
  0
LINE
  5
239
100
AcDbEntity
  8
枠・器具表
  6
CONTINUOUS
 62
     2
100
AcDbLine
 10
296.936821
 20
36.625932
 30
0.0
 11
303.771118
 21
38.078602
 31
0.0
  0
LINE
  5
23A
100
AcDbEntity
  8
枠・器具表
  6
CONTINUOUS
 62
     2
100
AcDbLine
 10
310.908264
 20
44.581486
 30
0.0
 11
317.37883
 21
46.74635
 31
0.0
  0
LINE
  5
23B
100
AcDbEntity
  8
枠・器具表
  6
CONTINUOUS
 62
     2
100
AcDbLine
 10
310.908264
 20
43.917156
 30
0.0
 11
317.37883
 21
46.082059
 31
0.0
  0
LINE
  5
23C
100
AcDbEntity
  8
枠・器具表
  6
CONTINUOUS
 62
     2
100
AcDbLine
 10
317.852997
 20
46.746348
 30
0.0
 11
324.323601
 21
44.581326
 31
0.0
  0
LINE
  5
23D
100
AcDbEntity
  8
枠・器具表
  6
CONTINUOUS
 62
     2
100
AcDbLine
 10
317.852997
 20
46.132058
 30
0.0
 11
324.323601
 21
43.967036
 31
0.0
  0
LINE
  5
23E
100
AcDbEntity
  8
枠・器具表
  6
CONTINUOUS
 62
     2
100
AcDbLine
 10
322.156242
 20
43.899027
 30
0.0
 11
313.076118
 21
43.899027
 31
0.0
  0
LINE
  5
23F
100
AcDbEntity
  8
枠・器具表
  6
CONTINUOUS
 62
     2
100
AcDbLine
 10
322.156242
 20
43.21899
 30
0.0
 11
313.076118
 21
43.21899
 31
0.0
  0
LINE
  5
240
100
AcDbEntity
  8
枠・器具表
  6
CONTINUOUS
 62
     2
100
AcDbLine
 10
310.93409
 20
41.26598
 30
0.0
 11
324.297775
 21
41.26598
 31
0.0
  0
LINE
  5
241
100
AcDbEntity
  8
枠・器具表
  6
CONTINUOUS
 62
     2
100
AcDbLine
 10
310.93409
 20
40.686022
 30
0.0
 11
324.297775
 21
40.686022
 31
0.0
  0
LINE
  5
242
100
AcDbEntity
  8
枠・器具表
  6
CONTINUOUS
 62
     2
100
AcDbLine
 10
313.003334
 20
40.232883
 30
0.0
 11
311.727814
 21
37.498115
 31
0.0
  0
LINE
  5
243
100
AcDbEntity
  8
枠・器具表
  6
CONTINUOUS
 62
     2
100
AcDbLine
 10
313.798584
 20
40.232886
 30
0.0
 11
312.523026
 21
37.498115
 31
0.0
  0
LINE
  5
244
100
AcDbEntity
  8
枠・器具表
  6
CONTINUOUS
 62
     2
100
AcDbLine
 10
314.593834
 20
40.232886
 30
0.0
 11
313.318275
 21
37.498115
 31
0.0
  0
LINE
  5
245
100
AcDbEntity
  8
枠・器具表
  6
CONTINUOUS
 62
     2
100
AcDbLine
 10
320.638527
 20
40.232917
 30
0.0
 11
321.914581
 21
37.498084
 31
0.0
  0
LINE
  5
246
100
AcDbEntity
  8
枠・器具表
  6
CONTINUOUS
 62
     2
100
AcDbLine
 10
321.434273
 20
40.232855
 30
0.0
 11
322.709259
 21
37.498146
 31
0.0
  0
LINE
  5
247
100
AcDbEntity
  8
枠・器具表
  6
CONTINUOUS
 62
     2
100
AcDbLine
 10
322.22998
 20
40.232829
 30
0.0
 11
323.504547
 21
37.498172
 31
0.0
  0
LINE
  5
248
100
AcDbEntity
  8
枠・器具表
  6
CONTINUOUS
 62
     2
100
AcDbLine
 10
311.421341
 20
37.044979
 30
0.0
 11
323.810524
 21
37.044979
 31
0.0
  0
LINE
  5
249
100
AcDbEntity
  8
枠・器具表
  6
CONTINUOUS
 62
     2
100
AcDbLine
 10
311.127571
 20
36.414982
 30
0.0
 11
324.104294
 21
36.414982
 31
0.0
  0
LINE
  5
24A
100
AcDbEntity
  8
枠・器具表
  6
CONTINUOUS
 62
     2
100
AcDbLine
 10
328.099464
 20
46.100038
 30
0.0
 11
328.099464
 21
46.58799
 31
0.0
  0
LINE
  5
24B
100
AcDbEntity
  8
枠・器具表
  6
CONTINUOUS
 62
     2
100
AcDbLine
 10
328.829063
 20
46.100038
 30
0.0
 11
328.829063
 21
46.58799
 31
0.0
  0
LINE
  5
24C
100
AcDbEntity
  8
枠・器具表
  6
CONTINUOUS
 62
     2
100
AcDbLine
 10
329.558701
 20
46.100038
 30
0.0
 11
329.558701
 21
46.58799
 31
0.0
  0
LINE
  5
24D
100
AcDbEntity
  8
枠・器具表
  6
CONTINUOUS
 62
     2
100
AcDbLine
 10
325.80172
 20
45.600039
 30
0.0
 11
331.521973
 21
45.600039
 31
0.0
  0
LINE
  5
24E
100
AcDbEntity
  8
枠・器具表
  6
CONTINUOUS
 62
     2
100
AcDbLine
 10
325.80172
 20
44.970041
 30
0.0
 11
331.080956
 21
44.970041
 31
0.0
  0
LINE
  5
24F
100
AcDbEntity
  8
枠・器具表
  6
CONTINUOUS
 62
     2
100
AcDbLine
 10
329.094795
 20
44.560419
 30
0.0
 11
325.58844
 21
39.55118
 31
0.0
  0
LINE
  5
250
100
AcDbEntity
  8
枠・器具表
  6
CONTINUOUS
 62
     2
100
AcDbLine
 10
329.914154
 20
44.56045
 30
0.0
 11
325.588478
 21
38.382128
 31
0.0
  0
LINE
  5
251
100
AcDbEntity
  8
枠・器具表
  6
CONTINUOUS
 62
     2
100
AcDbLine
 10
330.684494
 20
44.560443
 30
0.0
 11
325.588478
 21
37.281433
 31
0.0
  0
LINE
  5
252
100
AcDbEntity
  8
枠・器具表
  6
CONTINUOUS
 62
     2
100
AcDbLine
 10
329.482483
 20
41.971727
 30
0.0
 11
331.696686
 21
40.42116
 31
0.0
  0
LINE
  5
253
100
AcDbEntity
  8
枠・器具表
  6
CONTINUOUS
 62
     2
100
AcDbLine
 10
329.121117
 20
41.455499
 30
0.0
 11
331.696648
 21
39.651998
 31
0.0
  0
LINE
  5
254
100
AcDbEntity
  8
枠・器具表
  6
CONTINUOUS
 62
     2
100
AcDbLine
 10
328.736252
 20
40.905782
 30
0.0
 11
331.696648
 21
38.832875
 31
0.0
  0
LINE
  5
255
100
AcDbEntity
  8
枠・器具表
  6
CONTINUOUS
 62
     2
100
AcDbLine
 10
328.099464
 20
40.368057
 30
0.0
 11
328.099464
 21
36.5
 31
0.0
  0
LINE
  5
256
100
AcDbEntity
  8
枠・器具表
  6
CONTINUOUS
 62
     2
100
AcDbLine
 10
328.829063
 20
40.340789
 30
0.0
 11
328.829063
 21
36.5
 31
0.0
  0
LINE
  5
257
100
AcDbEntity
  8
枠・器具表
  6
CONTINUOUS
 62
     2
100
AcDbLine
 10
329.558701
 20
39.829892
 30
0.0
 11
329.558701
 21
36.5
 31
0.0
  0
LINE
  5
258
100
AcDbEntity
  8
枠・器具表
  6
CONTINUOUS
 62
     2
100
AcDbLine
 10
334.903435
 20
37.544979
 30
0.0
 11
334.903435
 21
46.58799
 31
0.0
  0
LINE
  5
259
100
AcDbEntity
  8
枠・器具表
  6
CONTINUOUS
 62
     2
100
AcDbLine
 10
335.633034
 20
37.544979
 30
0.0
 11
335.633034
 21
46.58799
 31
0.0
  0
LINE
  5
25A
100
AcDbEntity
  8
枠・器具表
  6
CONTINUOUS
 62
     2
100
AcDbLine
 10
336.362671
 20
37.544979
 30
0.0
 11
336.362671
 21
46.58799
 31
0.0
  0
LINE
  5
25B
100
AcDbEntity
  8
枠・器具表
  6
CONTINUOUS
 62
     2
100
AcDbLine
 10
332.606224
 20
43.836008
 30
0.0
 11
334.403442
 21
43.836008
 31
0.0
  0
LINE
  5
25C
100
AcDbEntity
  8
枠・器具表
  6
CONTINUOUS
 62
     2
100
AcDbLine
 10
332.606224
 20
43.206049
 30
0.0
 11
334.403442
 21
43.206049
 31
0.0
  0
LINE
  5
25D
100
AcDbEntity
  8
枠・器具表
  6
CONTINUOUS
 62
     2
100
AcDbLine
 10
336.862663
 20
43.836008
 30
0.0
 11
338.661942
 21
43.836008
 31
0.0
  0
LINE
  5
25E
100
AcDbEntity
  8
枠・器具表
  6
CONTINUOUS
 62
     2
100
AcDbLine
 10
336.862663
 20
43.156048
 30
0.0
 11
338.661942
 21
43.156048
 31
0.0
  0
LINE
  5
25F
100
AcDbEntity
  8
枠・器具表
  6
CONTINUOUS
 62
     2
100
AcDbLine
 10
331.597733
 20
37.044979
 30
0.0
 11
338.914169
 21
37.044979
 31
0.0
  0
LINE
  5
260
100
AcDbEntity
  8
枠・器具表
  6
CONTINUOUS
 62
     2
100
AcDbLine
 10
331.597733
 20
36.414982
 30
0.0
 11
338.914169
 21
36.414982
 31
0.0
  0
LINE
  5
261
100
AcDbEntity
  8
枠・器具表
  6
CONTINUOUS
 62
     2
100
AcDbLine
 10
274.618897
 20
40.838409
 30
0.0
 11
279.946007
 21
40.838409
 31
0.0
  0
LINE
  5
262
100
AcDbEntity
  8
枠・器具表
  6
EXLTYPE2
 62
     6
100
AcDbLine
 10
0.0
 20
371.25
 30
0.0
 11
45.0
 21
371.25
 31
0.0
  0
LINE
  5
263
100
AcDbEntity
  8
枠・器具表
  6
CONTINUOUS
 62
     7
100
AcDbLine
 10
45.0
 20
723.75
 30
0.0
 11
500.0
 21
723.75
 31
0.0
  0
TEXT
  5
264
100
AcDbEntity
  8
枠・器具表
  6
CONTINUOUS
 62
     2
100
AcDbText
 10
222.5
 20
712.75
 30
0.0
 40
9.5
  1
番号
 41
0.994737
  7
EXCADSTD
 72
     5
 11
243.1235
 21
712.75
 31
0.0
100
AcDbText
  0
TEXT
  5
265
100
AcDbEntity
  8
枠・器具表
  6
CONTINUOUS
 62
     2
100
AcDbText
 10
262.5
 20
712.75
 30
0.0
 40
9.5
  1
品名
 41
1.989474
  7
EXCADSTD
 72
     5
 11
303.747
 21
712.75
 31
0.0
100
AcDbText
  0
TEXT
  5
266
100
AcDbEntity
  8
枠・器具表
  6
CONTINUOUS
 62
     2
100
AcDbText
 10
337.5
 20
712.75
 30
0.0
 40
9.5
  1
材質
 41
1.989474
  7
EXCADSTD
 72
     5
 11
378.747
 21
712.75
 31
0.0
100
AcDbText
  0
TEXT
  5
267
100
AcDbEntity
  8
枠・器具表
  6
CONTINUOUS
 62
     2
100
AcDbText
 10
400.0
 20
712.75
 30
0.0
 40
9.5
  1
個数
 41
0.994737
  7
EXCADSTD
 72
     5
 11
420.6235
 21
712.75
 31
0.0
100
AcDbText
  0
TEXT
  5
268
100
AcDbEntity
  8
枠・器具表
  6
CONTINUOUS
 62
     2
100
AcDbText
 10
440.0
 20
712.75
 30
0.0
 40
9.5
  1
備考
 41
1.989474
  7
EXCADSTD
 72
     5
 11
481.247
 21
712.75
 31
0.0
100
AcDbText
  0
TEXT
  5
269
100
AcDbEntity
  8
枠・器具表
  6
CONTINUOUS
 62
     2
100
AcDbText
 10
228.75
 20
700.25
 30
0.0
 40
9.5
  1
１
 41
0.884211
  7
EXCADSTD
 72
     5
 11
236.75
 21
700.25
 31
0.0
100
AcDbText
  0
TEXT
  5
26A
100
AcDbEntity
  8
枠・器具表
  6
CONTINUOUS
 62
     2
100
AcDbText
 10
406.25
 20
700.25
 30
0.0
 40
9.5
  1
１
 41
0.884211
  7
EXCADSTD
 72
     5
 11
414.25
 21
700.25
 31
0.0
100
AcDbText
  0
TEXT
  5
26B
100
AcDbEntity
  8
枠・器具表
  6
CONTINUOUS
 62
     2
100
AcDbText
 10
228.75
 20
687.75
 30
0.0
 40
9.5
  1
２
 41
0.884211
  7
EXCADSTD
 72
     5
 11
236.75
 21
687.75
 31
0.0
100
AcDbText
  0
TEXT
  5
26C
100
AcDbEntity
  8
枠・器具表
  6
CONTINUOUS
 62
     2
100
AcDbText
 10
228.75
 20
675.25
 30
0.0
 40
9.5
  1
３
 41
0.884211
  7
EXCADSTD
 72
     5
 11
236.75
 21
675.25
 31
0.0
100
AcDbText
  0
TEXT
  5
26D
100
AcDbEntity
  8
枠・器具表
  6
CONTINUOUS
 62
     2
100
AcDbText
 10
406.25
 20
675.25
 30
0.0
 40
9.5
  1
１
 41
0.884211
  7
EXCADSTD
 72
     5
 11
414.25
 21
675.25
 31
0.0
100
AcDbText
  0
TEXT
  5
26E
100
AcDbEntity
  8
枠・器具表
  6
CONTINUOUS
 62
     2
100
AcDbText
 10
228.75
 20
662.75
 30
0.0
 40
9.5
  1
４
 41
0.884211
  7
EXCADSTD
 72
     5
 11
236.75
 21
662.75
 31
0.0
100
AcDbText
  0
TEXT
  5
26F
100
AcDbEntity
  8
枠・器具表
  6
CONTINUOUS
 62
     2
100
AcDbText
 10
406.25
 20
662.75
 30
0.0
 40
9.5
  1
１
 41
0.884211
  7
EXCADSTD
 72
     5
 11
414.25
 21
662.75
 31
0.0
100
AcDbText
  0
LINE
  5
270
100
AcDbEntity
  8
枠・器具表
  6
CONTINUOUS
 62
     6
100
AcDbLine
 10
220.0
 20
711.25
 30
0.0
 11
500.0
 21
711.25
 31
0.0
  0
LINE
  5
271
100
AcDbEntity
  8
枠・器具表
  6
CONTINUOUS
 62
     6
100
AcDbLine
 10
220.0
 20
698.75
 30
0.0
 11
500.0
 21
698.75
 31
0.0
  0
LINE
  5
272
100
AcDbEntity
  8
枠・器具表
  6
CONTINUOUS
 62
     6
100
AcDbLine
 10
220.0
 20
686.25
 30
0.0
 11
500.0
 21
686.25
 31
0.0
  0
TEXT
  5
273
100
AcDbEntity
  8
枠・器具表
  6
CONTINUOUS
 62
     2
100
AcDbText
 10
406.25
 20
687.75
 30
0.0
 40
9.5
  1
１
 41
0.884211
  7
EXCADSTD
 72
     5
 11
414.25
 21
687.75
 31
0.0
100
AcDbText
  0
TEXT
  5
274
100
AcDbEntity
  8
枠・器具表
  6
CONTINUOUS
 62
     2
100
AcDbText
 10
406.25
 20
650.25
 30
0.0
 40
9.5
  1
１
 41
0.884211
  7
EXCADSTD
 72
     5
 11
414.25
 21
650.25
 31
0.0
100
AcDbText
  0
TEXT
  5
275
100
AcDbEntity
  8
枠・器具表
  6
CONTINUOUS
 62
     2
100
AcDbText
 10
228.75
 20
650.25
 30
0.0
 40
9.5
  1
５
 41
0.884211
  7
EXCADSTD
 72
     5
 11
236.75
 21
650.25
 31
0.0
100
AcDbText
  0
LINE
  5
276
100
AcDbEntity
  8
枠・器具表
  6
CONTINUOUS
 62
     6
100
AcDbLine
 10
220.0
 20
661.25
 30
0.0
 11
500.0
 21
661.25
 31
0.0
  0
TEXT
  5
277
100
AcDbEntity
  8
枠・器具表
  6
CONTINUOUS
 62
     2
100
AcDbText
 10
326.0
 20
650.25
 30
0.0
 40
9.5
  1
合成樹脂
 41
0.884211
  7
EXCADSTD
 72
     5
 11
366.0
 21
650.25
 31
0.0
100
AcDbText
  0
LINE
  5
278
100
AcDbEntity
  8
枠・器具表
  6
CONTINUOUS
 62
     6
100
AcDbLine
 10
220.0
 20
673.75
 30
0.0
 11
500.0
 21
673.75
 31
0.0
  0
LINE
  5
279
100
AcDbEntity
  8
枠・器具表
  6
CONTINUOUS
 62
     6
100
AcDbLine
 10
220.0
 20
648.75
 30
0.0
 11
500.0
 21
648.75
 31
0.0
  0
TEXT
  5
27A
100
AcDbEntity
  8
枠・器具表
  6
CONTINUOUS
 62
     2
100
AcDbText
 10
228.75
 20
637.75
 30
0.0
 40
9.5
  1
６
 41
0.884211
  7
EXCADSTD
 72
     5
 11
236.75
 21
637.75
 31
0.0
100
AcDbText
  0
LINE
  5
27B
100
AcDbEntity
  8
枠・器具表
  6
CONTINUOUS
 62
     6
100
AcDbLine
 10
220.0
 20
623.75
 30
0.0
 11
500.0
 21
623.75
 31
0.0
  0
LINE
  5
27C
100
AcDbEntity
  8
枠・器具表
  6
CONTINUOUS
 62
     6
100
AcDbLine
 10
220.0
 20
636.25
 30
0.0
 11
500.0
 21
636.25
 31
0.0
  0
LINE
  5
27D
100
AcDbEntity
  8
枠・器具表
  6
CONTINUOUS
 62
     6
100
AcDbLine
 10
220.0
 20
723.75
 30
0.0
 11
220.0
 21
623.75
 31
0.0
  0
LINE
  5
27E
100
AcDbEntity
  8
枠・器具表
  6
CONTINUOUS
 62
     6
100
AcDbLine
 10
247.5
 20
723.75
 30
0.0
 11
247.5
 21
623.75
 31
0.0
  0
LINE
  5
27F
100
AcDbEntity
  8
枠・器具表
  6
CONTINUOUS
 62
     6
100
AcDbLine
 10
322.5
 20
723.75
 30
0.0
 11
322.5
 21
623.75
 31
0.0
  0
LINE
  5
280
100
AcDbEntity
  8
枠・器具表
  6
CONTINUOUS
 62
     6
100
AcDbLine
 10
397.5
 20
723.75
 30
0.0
 11
397.5
 21
623.75
 31
0.0
  0
LINE
  5
281
100
AcDbEntity
  8
枠・器具表
  6
CONTINUOUS
 62
     6
100
AcDbLine
 10
425.0
 20
723.75
 30
0.0
 11
425.0
 21
623.75
 31
0.0
  0
TEXT
  5
282
100
AcDbEntity
  8
枠・器具表
  6
CONTINUOUS
 62
     2
100
AcDbText
 10
228.75
 20
625.25
 30
0.0
 40
9.5
  1
７
 41
0.884211
  7
EXCADSTD
 72
     5
 11
236.75
 21
625.25
 31
0.0
100
AcDbText
  0
TEXT
  5
283
100
AcDbEntity
  8
枠・器具表
  6
CONTINUOUS
 62
     2
100
AcDbText
 10
326.0
 20
700.25
 30
0.0
 40
9.5
  1
アルミニウム
 41
0.884211
  7
EXCADSTD
 72
     5
 11
386.0
 21
700.25
 31
0.0
100
AcDbText
  0
TEXT
  5
284
100
AcDbEntity
  8
枠・器具表
  6
CONTINUOUS
 62
     2
100
AcDbText
 10
326.0
 20
687.75
 30
0.0
 40
9.5
  1
アルミニウム
 41
0.884211
  7
EXCADSTD
 72
     5
 11
386.0
 21
687.75
 31
0.0
100
AcDbText
  0
TEXT
  5
285
100
AcDbEntity
  8
枠・器具表
  6
CONTINUOUS
 62
     2
100
AcDbText
 10
326.0
 20
675.25
 30
0.0
 40
9.5
  1
アルミニウム
 41
0.884211
  7
EXCADSTD
 72
     5
 11
386.0
 21
675.25
 31
0.0
100
AcDbText
  0
TEXT
  5
286
100
AcDbEntity
  8
枠・器具表
  6
CONTINUOUS
 62
     2
100
AcDbText
 10
326.0
 20
662.75
 30
0.0
 40
9.5
  1
合成樹脂
 41
0.884211
  7
EXCADSTD
 72
     5
 11
366.0
 21
662.75
 31
0.0
100
AcDbText
  0
TEXT
  5
287
100
AcDbEntity
  8
枠・器具表
  6
CONTINUOUS
 62
     2
100
AcDbText
 10
326.0
 20
637.75
 30
0.0
 40
9.5
  1
合成ゴム
 41
0.884211
  7
EXCADSTD
 72
     5
 11
366.0
 21
637.75
 31
0.0
100
AcDbText
  0
TEXT
  5
288
100
AcDbEntity
  8
枠・器具表
  6
CONTINUOUS
 62
     2
100
AcDbText
 10
326.0
 20
625.25
 30
0.0
 40
9.5
  1
ステンレス
 41
0.884211
  7
EXCADSTD
 72
     5
 11
376.0
 21
625.25
 31
0.0
100
AcDbText
  0
TEXT
  5
289
100
AcDbEntity
  8
枠・器具表
  6
CONTINUOUS
 62
     2
100
AcDbText
 10
406.25
 20
637.75
 30
0.0
 40
9.5
  1
２
 41
0.884211
  7
EXCADSTD
 72
     5
 11
414.25
 21
637.75
 31
0.0
100
AcDbText
  0
TEXT
  5
28A
100
AcDbEntity
  8
枠・器具表
  6
CONTINUOUS
 62
     2
100
AcDbText
 10
406.25
 20
625.25
 30
0.0
 40
9.5
  1
３
 41
0.884211
  7
EXCADSTD
 72
     5
 11
414.25
 21
625.25
 31
0.0
100
AcDbText
  0
TEXT
  5
28B
100
AcDbEntity
  8
枠・器具表
  6
CONTINUOUS
 62
     2
100
AcDbText
 10
218.125
 20
60.125
 30
0.0
 40
16.25
  1
ペーパーホルダー
 41
0.718846
  7
EXCADSTD
 72
     5
 11
329.375
 21
60.125
 31
0.0
100
AcDbText
  0
TEXT
  5
28C
100
AcDbEntity
  8
枠・器具表
  6
CONTINUOUS
 62
     7
100
AcDbText
 10
379.375
 20
32.875
 30
0.0
 40
17.5
  1
２４５１００
 41
0.81
  7
EXCADSTD
 72
     5
 11
480.625
 21
32.875
 31
0.0
100
AcDbText
  0
TEXT
  5
28D
100
AcDbEntity
  8
枠・器具表
  6
CONTINUOUS
 62
     2
100
AcDbText
 10
367.75
 20
60.625
 30
0.0
 40
16.25
  1
ＮＣ７２１
 41
0.801231
  7
EXCADSTD
 72
     5
 11
445.25
 21
60.625
 31
0.0
100
AcDbText
  0
LINE
  5
28E
100
AcDbEntity
  8
枠・器具表
  6
EXLTYPE2
 62
     6
100
AcDbLine
 10
45.0
 20
41.25
 30
0.0
 11
122.5
 21
41.25
 31
0.0
  0
CIRCLE
  5
28F
100
AcDbEntity
  8
枠・器具表
  6
CONTINUOUS
 62
     6
100
AcDbCircle
 10
57.5
 20
35.0
 30
0.0
 40
0.25
  0
CIRCLE
  5
290
100
AcDbEntity
  8
枠・器具表
  6
CONTINUOUS
 62
     6
100
AcDbCircle
 10
70.0
 20
35.0
 30
0.0
 40
0.25
  0
CIRCLE
  5
291
100
AcDbEntity
  8
枠・器具表
  6
CONTINUOUS
 62
     6
100
AcDbCircle
 10
96.25
 20
35.0
 30
0.0
 40
0.25
  0
CIRCLE
  5
292
100
AcDbEntity
  8
枠・器具表
  6
CONTINUOUS
 62
     6
100
AcDbCircle
 10
108.75
 20
35.0
 30
0.0
 40
0.25
  0
TEXT
  5
293
100
AcDbEntity
  8
枠・器具表
  6
CONTINUOUS
 62
     6
100
AcDbText
 10
158.875
 20
50.0
 30
0.0
 40
12.5
  1
又場
 41
0.8568
  7
EXCADSTD
 72
     5
 11
182.2483
 21
50.0
 31
0.0
100
AcDbText
  0
TEXT
  5
294
100
AcDbEntity
  8
枠・器具表
  6
CONTINUOUS
 62
     6
100
AcDbText
 10
124.125
 20
50.0
 30
0.0
 40
12.5
  1
間瀬
 41
0.7728
  7
EXCADSTD
 72
     5
 11
145.2068
 21
50.0
 31
0.0
100
AcDbText
  0
TEXT
  5
295
100
AcDbEntity
  8
枠・器具表
  6
CONTINUOUS
 62
     6
100
AcDbText
 10
146.125
 20
49.875
 30
0.0
 40
7.5
  1
ゆ
 41
0.98
  7
EXCADSTD
 72
     5
 11
153.125
 21
49.875
 31
0.0
100
AcDbText
  0
TEXT
  5
296
100
AcDbEntity
  8
枠・器具表
  6
CONTINUOUS
 62
     6
100
AcDbText
 10
51.875
 20
50.0
 30
0.0
 40
12.5
  1
風穴
 41
0.8736
  7
EXCADSTD
 72
     5
 11
75.7066
 21
50.0
 31
0.0
100
AcDbText
  0
TEXT
  5
297
100
AcDbEntity
  8
枠・器具表
  6
CONTINUOUS
 62
     6
100
AcDbText
 10
45.511029
 20
31.737518
 30
0.0
 40
6.25
  1
１７
 41
0.75768
  7
EXCADSTD
 72
     5
 11
55.845694
 21
31.737518
 31
0.0
100
AcDbText
  0
TEXT
  5
298
100
AcDbEntity
  8
枠・器具表
  6
CONTINUOUS
 62
     6
100
AcDbText
 10
61.136029
 20
31.737518
 30
0.0
 40
6.25
  1
３
 41
0.89208
  7
EXCADSTD
 72
     5
 11
66.446029
 21
31.737518
 31
0.0
100
AcDbText
  0
TEXT
  5
299
100
AcDbEntity
  8
枠・器具表
  6
CONTINUOUS
 62
     6
100
AcDbText
 10
71.711029
 20
31.737518
 30
0.0
 40
6.25
  1
３１
 41
0.75768
  7
EXCADSTD
 72
     5
 11
82.045694
 21
31.737518
 31
0.0
100
AcDbText
  0
TEXT
  5
29A
100
AcDbEntity
  8
枠・器具表
  6
CONTINUOUS
 62
     2
100
AcDbText
 10
251.0
 20
700.25
 30
0.0
 40
9.5
  1
メインフレーム
 41
0.84
  7
EXCADSTD
 72
     5
 11
317.499999
 21
700.25
 31
0.0
100
AcDbText
  0
TEXT
  5
29B
100
AcDbEntity
  8
枠・器具表
  6
CONTINUOUS
 62
     2
100
AcDbText
 10
251.0
 20
687.75
 30
0.0
 40
9.5
  1
カバー
 41
0.84
  7
EXCADSTD
 72
     5
 11
279.5
 21
687.75
 31
0.0
100
AcDbText
  0
TEXT
  5
29C
100
AcDbEntity
  8
枠・器具表
  6
CONTINUOUS
 62
     2
100
AcDbText
 10
251.0
 20
675.25
 30
0.0
 40
9.5
  1
アーム
 41
0.84
  7
EXCADSTD
 72
     5
 11
279.5
 21
675.25
 31
0.0
100
AcDbText
  0
TEXT
  5
29D
100
AcDbEntity
  8
枠・器具表
  6
CONTINUOUS
 62
     2
100
AcDbText
 10
251.0
 20
662.75
 30
0.0
 40
9.5
  1
ブッシングＡ
 41
0.84
  7
EXCADSTD
 72
     5
 11
307.999999
 21
662.75
 31
0.0
100
AcDbText
  0
TEXT
  5
29E
100
AcDbEntity
  8
枠・器具表
  6
CONTINUOUS
 62
     2
100
AcDbText
 10
251.0
 20
650.25
 30
0.0
 40
9.5
  1
ブッシングＢ
 41
0.84
  7
EXCADSTD
 72
     5
 11
307.999999
 21
650.25
 31
0.0
100
AcDbText
  0
TEXT
  5
29F
100
AcDbEntity
  8
枠・器具表
  6
CONTINUOUS
 62
     2
100
AcDbText
 10
251.0
 20
637.75
 30
0.0
 40
9.5
  1
リング
 41
0.84
  7
EXCADSTD
 72
     5
 11
279.5
 21
637.75
 31
0.0
100
AcDbText
  0
TEXT
  5
2A0
100
AcDbEntity
  8
枠・器具表
  6
CONTINUOUS
 62
     2
100
AcDbText
 10
251.0
 20
625.25
 30
0.0
 40
9.5
  1
取付ネジ
 41
0.84
  7
EXCADSTD
 72
     5
 11
289.0
 21
625.25
 31
0.0
100
AcDbText
  0
TEXT
  5
2A1
100
AcDbEntity
  8
枠・器具表
  6
CONTINUOUS
 62
     2
100
AcDbText
 10
428.5
 20
625.25
 30
0.0
 40
9.5
  1
呼ビ４×３０
 41
0.884211
  7
EXCADSTD
 72
     5
 11
488.5
 21
625.25
 31
0.0
100
AcDbText
  0
LINE
  5
2A2
100
AcDbEntity
  8
図
  6
EXLTYPE1
 62
     2
100
AcDbLine
 10
95.125012
 20
418.501168
 30
0.0
 11
120.625012
 21
418.501168
 31
0.0
  0
LINE
  5
2A3
100
AcDbEntity
  8
図
  6
EXLTYPE1
 62
     2
100
AcDbLine
 10
120.625012
 20
419.980976
 30
0.0
 11
120.625012
 21
417.151169
 31
0.0
  0
LINE
  5
2A4
100
AcDbEntity
  8
図
  6
EXLTYPE1
 62
     2
100
AcDbLine
 10
122.425012
 20
417.151169
 30
0.0
 11
120.625012
 21
417.151169
 31
0.0
  0
LINE
  5
2A5
100
AcDbEntity
  8
図
  6
EXLTYPE1
 62
     2
100
AcDbLine
 10
122.425012
 20
417.151169
 30
0.0
 11
122.425012
 21
432.151169
 31
0.0
  0
LINE
  5
2A6
100
AcDbEntity
  8
図
  6
EXLTYPE1
 62
     2
100
AcDbLine
 10
120.625012
 20
432.151169
 30
0.0
 11
122.425012
 21
432.151169
 31
0.0
  0
LINE
  5
2A7
100
AcDbEntity
  8
図
  6
EXLTYPE1
 62
     2
100
AcDbLine
 10
95.125022
 20
419.980976
 30
0.0
 11
120.625012
 21
419.980976
 31
0.0
  0
LINE
  5
2A8
100
AcDbEntity
  8
図
  6
EXLTYPE1
 62
     2
100
AcDbLine
 10
95.125022
 20
431.203612
 30
0.0
 11
120.625012
 21
431.203612
 31
0.0
  0
LINE
  5
2A9
100
AcDbEntity
  8
図
  6
EXLTYPE1
 62
     2
100
AcDbLine
 10
220.125009
 20
419.980976
 30
0.0
 11
194.625016
 21
419.980976
 31
0.0
  0
LINE
  5
2AA
100
AcDbEntity
  8
図
  6
EXLTYPE1
 62
     2
100
AcDbLine
 10
194.625016
 20
419.980976
 30
0.0
 11
194.625016
 21
417.151169
 31
0.0
  0
LINE
  5
2AB
100
AcDbEntity
  8
図
  6
EXLTYPE1
 62
     2
100
AcDbLine
 10
220.125009
 20
431.203612
 30
0.0
 11
194.625016
 21
431.203612
 31
0.0
  0
LINE
  5
2AC
100
AcDbEntity
  8
図
  6
EXLTYPE1
 62
     2
100
AcDbLine
 10
192.825016
 20
417.151169
 30
0.0
 11
194.625016
 21
417.151169
 31
0.0
  0
LINE
  5
2AD
100
AcDbEntity
  8
図
  6
EXLTYPE1
 62
     2
100
AcDbLine
 10
194.625016
 20
431.203612
 30
0.0
 11
194.625016
 21
432.151169
 31
0.0
  0
LINE
  5
2AE
100
AcDbEntity
  8
図
  6
EXLTYPE1
 62
     2
100
AcDbLine
 10
192.825016
 20
417.151169
 30
0.0
 11
192.825016
 21
432.151169
 31
0.0
  0
LINE
  5
2AF
100
AcDbEntity
  8
図
  6
EXLTYPE1
 62
     2
100
AcDbLine
 10
194.625016
 20
432.151169
 30
0.0
 11
192.825016
 21
432.151169
 31
0.0
  0
LINE
  5
2B0
100
AcDbEntity
  8
図
  6
EXLTYPE4
 62
     6
100
AcDbLine
 10
102.476002
 20
408.638428
 30
0.0
 11
217.475969
 21
408.638428
 31
0.0
  0
LINE
  5
2B1
100
AcDbEntity
  8
図
  6
CONTINUOUS
 62
     2
100
AcDbLine
 10
122.625032
 20
434.651165
 30
0.0
 11
192.624986
 21
434.651165
 31
0.0
  0
LINE
  5
2B2
100
AcDbEntity
  8
図
  6
CONTINUOUS
 62
     2
100
AcDbLine
 10
122.625032
 20
382.151169
 30
0.0
 11
192.624986
 21
382.151169
 31
0.0
  0
LINE
  5
2B3
100
AcDbEntity
  8
図
  6
CONTINUOUS
 62
     2
100
AcDbLine
 10
122.625032
 20
434.651165
 30
0.0
 11
122.625032
 21
432.716238
 31
0.0
  0
LINE
  5
2B4
100
AcDbEntity
  8
図
  6
CONTINUOUS
 62
     2
100
AcDbLine
 10
192.625016
 20
434.651165
 30
0.0
 11
192.625016
 21
432.716238
 31
0.0
  0
LINE
  5
2B5
100
AcDbEntity
  8
図
  6
CONTINUOUS
 62
     2
100
AcDbLine
 10
122.625032
 20
398.596232
 30
0.0
 11
122.625032
 21
382.151169
 31
0.0
  0
LINE
  5
2B6
100
AcDbEntity
  8
図
  6
CONTINUOUS
 62
     2
100
AcDbLine
 10
192.625016
 20
398.388462
 30
0.0
 11
192.625016
 21
382.151169
 31
0.0
  0
LINE
  5
2B7
100
AcDbEntity
  8
図
  6
CONTINUOUS
 62
     2
100
AcDbLine
 10
158.225012
 20
389.151169
 30
0.0
 11
157.025012
 21
389.151169
 31
0.0
  0
LINE
  5
2B8
100
AcDbEntity
  8
図
  6
CONTINUOUS
 62
     2
100
AcDbLine
 10
158.225012
 20
393.151169
 30
0.0
 11
157.025012
 21
393.151169
 31
0.0
  0
LINE
  5
2B9
100
AcDbEntity
  8
図
  6
CONTINUOUS
 62
     2
100
AcDbLine
 10
159.625012
 20
390.551171
 30
0.0
 11
159.625012
 21
391.751168
 31
0.0
  0
LINE
  5
2BA
100
AcDbEntity
  8
図
  6
CONTINUOUS
 62
     2
100
AcDbLine
 10
155.625012
 20
390.551171
 30
0.0
 11
155.625012
 21
391.751168
 31
0.0
  0
LINE
  5
2BB
100
AcDbEntity
  8
図
  6
CONTINUOUS
 62
     2
100
AcDbLine
 10
158.225022
 20
392.751171
 30
0.0
 11
158.225022
 21
395.105911
 31
0.0
  0
LINE
  5
2BC
100
AcDbEntity
  8
図
  6
CONTINUOUS
 62
     2
100
AcDbLine
 10
157.025012
 20
392.751168
 30
0.0
 11
157.025012
 21
395.105911
 31
0.0
  0
LINE
  5
2BD
100
AcDbEntity
  8
図
  6
CONTINUOUS
 62
     2
100
AcDbLine
 10
157.025012
 20
389.551167
 30
0.0
 11
157.025012
 21
387.196427
 31
0.0
  0
LINE
  5
2BE
100
AcDbEntity
  8
図
  6
CONTINUOUS
 62
     2
100
AcDbLine
 10
158.225022
 20
389.551171
 30
0.0
 11
158.225022
 21
387.196427
 31
0.0
  0
LINE
  5
2BF
100
AcDbEntity
  8
図
  6
CONTINUOUS
 62
     2
100
AcDbLine
 10
156.025012
 20
391.751168
 30
0.0
 11
153.670262
 21
391.751168
 31
0.0
  0
LINE
  5
2C0
100
AcDbEntity
  8
図
  6
CONTINUOUS
 62
     2
100
AcDbLine
 10
156.025012
 20
390.551171
 30
0.0
 11
153.670262
 21
390.551171
 31
0.0
  0
LINE
  5
2C1
100
AcDbEntity
  8
図
  6
CONTINUOUS
 62
     2
100
AcDbLine
 10
159.225012
 20
390.551171
 30
0.0
 11
161.579762
 21
390.551171
 31
0.0
  0
LINE
  5
2C2
100
AcDbEntity
  8
図
  6
CONTINUOUS
 62
     2
100
AcDbLine
 10
159.225012
 20
391.751168
 30
0.0
 11
161.579762
 21
391.751168
 31
0.0
  0
LINE
  5
2C3
100
AcDbEntity
  8
図
  6
CONTINUOUS
 62
     2
100
AcDbLine
 10
240.12502
 20
409.651165
 30
0.0
 11
240.12502
 21
376.971085
 31
0.0
  0
LINE
  5
2C4
100
AcDbEntity
  8
図
  6
CONTINUOUS
 62
     2
100
AcDbLine
 10
90.721282
 20
363.781975
 30
0.0
 11
72.143722
 21
376.801827
 31
0.0
  0
LINE
  5
2C5
100
AcDbEntity
  8
図
  6
CONTINUOUS
 62
     2
100
AcDbLine
 10
96.210512
 20
361.97107
 30
0.0
 11
98.626002
 21
361.97107
 31
0.0
  0
LINE
  5
2C6
100
AcDbEntity
  8
図
  6
CONTINUOUS
 62
     2
100
AcDbLine
 10
230.125047
 20
414.651169
 30
0.0
 11
230.125047
 21
376.971085
 31
0.0
  0
LINE
  5
2C7
100
AcDbEntity
  8
図
  6
CONTINUOUS
 62
     2
100
AcDbLine
 10
240.125047
 20
414.751175
 30
0.0
 11
240.125047
 21
376.971085
 31
0.0
  0
LINE
  5
2C8
100
AcDbEntity
  8
図
  6
CONTINUOUS
 62
     2
100
AcDbLine
 10
94.413852
 20
373.673619
 30
0.0
 11
77.506032
 21
385.04696
 31
0.0
  0
LINE
  5
2C9
100
AcDbEntity
  8
図
  6
CONTINUOUS
 62
     2
100
AcDbLine
 10
102.326002
 20
361.97107
 30
0.0
 11
217.625969
 21
361.97107
 31
0.0
  0
LINE
  5
2CA
100
AcDbEntity
  8
図
  6
CONTINUOUS
 62
     2
100
AcDbLine
 10
221.325969
 20
361.97107
 30
0.0
 11
225.125016
 21
361.97107
 31
0.0
  0
LINE
  5
2CB
100
AcDbEntity
  8
図
  6
CONTINUOUS
 62
     2
100
AcDbLine
 10
220.125016
 20
432.716238
 30
0.0
 11
220.125016
 21
402.581616
 31
0.0
  0
LINE
  5
2CC
100
AcDbEntity
  8
図
  6
EXLTYPE1
 62
     2
100
AcDbLine
 10
131.025022
 20
409.751168
 30
0.0
 11
128.670272
 21
409.751168
 31
0.0
  0
LINE
  5
2CD
100
AcDbEntity
  8
図
  6
EXLTYPE1
 62
     2
100
AcDbLine
 10
131.025022
 20
408.551171
 30
0.0
 11
128.670272
 21
408.551171
 31
0.0
  0
LINE
  5
2CE
100
AcDbEntity
  8
図
  6
EXLTYPE1
 62
     2
100
AcDbLine
 10
134.225022
 20
408.551171
 30
0.0
 11
136.579762
 21
408.551171
 31
0.0
  0
LINE
  5
2CF
100
AcDbEntity
  8
図
  6
EXLTYPE1
 62
     2
100
AcDbLine
 10
134.225022
 20
409.751168
 30
0.0
 11
136.579762
 21
409.751168
 31
0.0
  0
LINE
  5
2D0
100
AcDbEntity
  8
図
  6
EXLTYPE1
 62
     2
100
AcDbLine
 10
132.025012
 20
407.551171
 30
0.0
 11
132.025012
 21
405.196427
 31
0.0
  0
LINE
  5
2D1
100
AcDbEntity
  8
図
  6
EXLTYPE1
 62
     2
100
AcDbLine
 10
133.225022
 20
407.551167
 30
0.0
 11
133.225022
 21
405.196427
 31
0.0
  0
LINE
  5
2D2
100
AcDbEntity
  8
図
  6
EXLTYPE1
 62
     2
100
AcDbLine
 10
133.225022
 20
410.751168
 30
0.0
 11
133.225022
 21
413.105911
 31
0.0
  0
LINE
  5
2D3
100
AcDbEntity
  8
図
  6
EXLTYPE1
 62
     2
100
AcDbLine
 10
132.025012
 20
410.751171
 30
0.0
 11
132.025012
 21
413.105911
 31
0.0
  0
LINE
  5
2D4
100
AcDbEntity
  8
図
  6
EXLTYPE1
 62
     2
100
AcDbLine
 10
134.625012
 20
408.551171
 30
0.0
 11
134.625012
 21
409.751168
 31
0.0
  0
LINE
  5
2D5
100
AcDbEntity
  8
図
  6
EXLTYPE1
 62
     2
100
AcDbLine
 10
130.625012
 20
408.551171
 30
0.0
 11
130.625012
 21
409.751168
 31
0.0
  0
LINE
  5
2D6
100
AcDbEntity
  8
図
  6
EXLTYPE1
 62
     2
100
AcDbLine
 10
132.025022
 20
411.151169
 30
0.0
 11
133.225022
 21
411.151169
 31
0.0
  0
LINE
  5
2D7
100
AcDbEntity
  8
図
  6
EXLTYPE1
 62
     2
100
AcDbLine
 10
132.025022
 20
407.151169
 30
0.0
 11
133.225022
 21
407.151169
 31
0.0
  0
LINE
  5
2D8
100
AcDbEntity
  8
図
  6
EXLTYPE1
 62
     2
100
AcDbLine
 10
120.625012
 20
431.203612
 30
0.0
 11
120.625012
 21
432.151169
 31
0.0
  0
LINE
  5
2D9
100
AcDbEntity
  8
図
  6
EXLTYPE1
 62
     2
100
AcDbLine
 10
184.225015
 20
408.551171
 30
0.0
 11
186.579759
 21
408.551171
 31
0.0
  0
LINE
  5
2DA
100
AcDbEntity
  8
図
  6
EXLTYPE1
 62
     2
100
AcDbLine
 10
184.225015
 20
409.751168
 30
0.0
 11
186.579759
 21
409.751168
 31
0.0
  0
LINE
  5
2DB
100
AcDbEntity
  8
図
  6
EXLTYPE1
 62
     2
100
AcDbLine
 10
181.02501
 20
408.551171
 30
0.0
 11
178.670266
 21
408.551171
 31
0.0
  0
LINE
  5
2DC
100
AcDbEntity
  8
図
  6
EXLTYPE1
 62
     2
100
AcDbLine
 10
182.02501
 20
407.551167
 30
0.0
 11
182.02501
 21
405.196427
 31
0.0
  0
LINE
  5
2DD
100
AcDbEntity
  8
図
  6
EXLTYPE1
 62
     2
100
AcDbLine
 10
183.225023
 20
407.551171
 30
0.0
 11
183.225023
 21
405.196427
 31
0.0
  0
LINE
  5
2DE
100
AcDbEntity
  8
図
  6
EXLTYPE1
 62
     2
100
AcDbLine
 10
182.02501
 20
410.751168
 30
0.0
 11
182.02501
 21
413.105911
 31
0.0
  0
LINE
  5
2DF
100
AcDbEntity
  8
図
  6
EXLTYPE1
 62
     2
100
AcDbLine
 10
181.02501
 20
409.751168
 30
0.0
 11
178.670266
 21
409.751168
 31
0.0
  0
LINE
  5
2E0
100
AcDbEntity
  8
図
  6
EXLTYPE1
 62
     2
100
AcDbLine
 10
183.225023
 20
410.751171
 30
0.0
 11
183.225023
 21
413.105911
 31
0.0
  0
LINE
  5
2E1
100
AcDbEntity
  8
図
  6
EXLTYPE1
 62
     2
100
AcDbLine
 10
180.625016
 20
408.551171
 30
0.0
 11
180.625016
 21
409.751168
 31
0.0
  0
LINE
  5
2E2
100
AcDbEntity
  8
図
  6
EXLTYPE1
 62
     2
100
AcDbLine
 10
184.625016
 20
408.551171
 30
0.0
 11
184.625016
 21
409.751168
 31
0.0
  0
LINE
  5
2E3
100
AcDbEntity
  8
図
  6
EXLTYPE1
 62
     2
100
AcDbLine
 10
183.225007
 20
411.151169
 30
0.0
 11
182.02501
 21
411.151169
 31
0.0
  0
LINE
  5
2E4
100
AcDbEntity
  8
図
  6
EXLTYPE1
 62
     2
100
AcDbLine
 10
183.225007
 20
407.151169
 30
0.0
 11
182.02501
 21
407.151169
 31
0.0
  0
LINE
  5
2E5
100
AcDbEntity
  8
図
  6
CONTINUOUS
 62
     2
100
AcDbLine
 10
95.125022
 20
403.476003
 30
0.0
 11
220.022982
 21
403.476003
 31
0.0
  0
LINE
  5
2E6
100
AcDbEntity
  8
図
  6
CONTINUOUS
 62
     2
100
AcDbLine
 10
95.125022
 20
432.716238
 30
0.0
 11
220.125009
 21
432.716238
 31
0.0
  0
LINE
  5
2E7
100
AcDbEntity
  8
図
  6
CONTINUOUS
 62
     2
100
AcDbLine
 10
217.625969
 20
373.489019
 30
0.0
 11
217.625969
 21
366.97107
 31
0.0
  0
LINE
  5
2E8
100
AcDbEntity
  8
図
  6
CONTINUOUS
 62
     2
100
AcDbLine
 10
221.325969
 20
373.489019
 30
0.0
 11
221.325969
 21
366.97107
 31
0.0
  0
LINE
  5
2E9
100
AcDbEntity
  8
図
  6
CONTINUOUS
 62
     2
100
AcDbLine
 10
221.325969
 20
360.453121
 30
0.0
 11
221.325969
 21
366.97107
 31
0.0
  0
LINE
  5
2EA
100
AcDbEntity
  8
図
  6
CONTINUOUS
 62
     2
100
AcDbLine
 10
217.625969
 20
360.453121
 30
0.0
 11
217.625969
 21
366.97107
 31
0.0
  0
LINE
  5
2EB
100
AcDbEntity
  8
図
  6
CONTINUOUS
 62
     2
100
AcDbLine
 10
98.626002
 20
373.489019
 30
0.0
 11
98.626002
 21
366.97107
 31
0.0
  0
LINE
  5
2EC
100
AcDbEntity
  8
図
  6
CONTINUOUS
 62
     2
100
AcDbLine
 10
102.326002
 20
360.453121
 30
0.0
 11
102.326002
 21
366.97107
 31
0.0
  0
LINE
  5
2ED
100
AcDbEntity
  8
図
  6
CONTINUOUS
 62
     2
100
AcDbLine
 10
102.326002
 20
373.489019
 30
0.0
 11
102.326002
 21
366.97107
 31
0.0
  0
LINE
  5
2EE
100
AcDbEntity
  8
図
  6
CONTINUOUS
 62
     2
100
AcDbLine
 10
98.626002
 20
360.453121
 30
0.0
 11
98.626002
 21
366.97107
 31
0.0
  0
CIRCLE
  5
2EF
100
AcDbEntity
  8
図
  6
CONTINUOUS
 62
     2
100
AcDbCircle
 10
157.625012
 20
391.151169
 30
0.0
 40
4.0
  0
ARC
  5
2F0
100
AcDbEntity
  8
図
  6
CONTINUOUS
 62
     2
100
AcDbCircle
 10
159.225022
 20
389.551171
 30
0.0
 40
1.0
100
AcDbArc
 50
89.999982
 51
179.99998
  0
ARC
  5
2F1
100
AcDbEntity
  8
図
  6
CONTINUOUS
 62
     2
100
AcDbCircle
 10
156.025012
 20
392.751168
 30
0.0
 40
1.0
100
AcDbArc
 50
269.99998
 51
359.99996
  0
ARC
  5
2F2
100
AcDbEntity
  8
図
  6
CONTINUOUS
 62
     2
100
AcDbCircle
 10
156.025012
 20
389.551167
 30
0.0
 40
1.0
100
AcDbArc
 50
359.99995
 51
89.999982
  0
ARC
  5
2F3
100
AcDbEntity
  8
図
  6
CONTINUOUS
 62
     2
100
AcDbCircle
 10
159.225022
 20
392.751171
 30
0.0
 40
1.0
100
AcDbArc
 50
179.99999
 51
269.99998
  0
ARC
  5
2F4
100
AcDbEntity
  8
図
  6
CONTINUOUS
 62
     2
100
AcDbCircle
 10
157.625012
 20
391.151169
 30
0.0
 40
2.8
100
AcDbArc
 50
192.37362
 51
257.62637
  0
ARC
  5
2F5
100
AcDbEntity
  8
図
  6
CONTINUOUS
 62
     2
100
AcDbCircle
 10
157.625012
 20
391.151169
 30
0.0
 40
2.8
100
AcDbArc
 50
12.373571
 51
77.626329
  0
ARC
  5
2F6
100
AcDbEntity
  8
図
  6
CONTINUOUS
 62
     2
100
AcDbCircle
 10
157.625012
 20
391.151169
 30
0.0
 40
2.8
100
AcDbArc
 50
102.37361
 51
167.62635
  0
ARC
  5
2F7
100
AcDbEntity
  8
図
  6
CONTINUOUS
 62
     2
100
AcDbCircle
 10
157.625012
 20
391.151169
 30
0.0
 40
2.8
100
AcDbArc
 50
282.37364
 51
347.62639
  0
CIRCLE
  5
2F8
100
AcDbEntity
  8
図
  6
CONTINUOUS
 62
     2
100
AcDbCircle
 10
157.625012
 20
391.151169
 30
0.0
 40
4.35
  0
ARC
  5
2F9
100
AcDbEntity
  8
図
  6
CONTINUOUS
 62
     2
100
AcDbCircle
 10
99.995272
 20
381.97107
 30
0.0
 40
10.0
100
AcDbArc
 50
236.07256
 51
262.12994
  0
ARC
  5
2FA
100
AcDbEntity
  8
図
  6
CONTINUOUS
 62
     2
100
AcDbCircle
 10
225.125016
 20
376.971085
 30
0.0
 40
5.0
100
AcDbArc
 50
270.0
 51
359.99999
  0
ARC
  5
2FB
100
AcDbEntity
  8
図
  6
CONTINUOUS
 62
     2
100
AcDbCircle
 10
225.125016
 20
376.971085
 30
0.0
 40
15.0
100
AcDbArc
 50
270.0
 51
359.99999
  0
ARC
  5
2FC
100
AcDbEntity
  8
図
  6
CONTINUOUS
 62
     2
100
AcDbCircle
 10
96.460512
 20
371.97107
 30
0.0
 40
10.0
100
AcDbArc
 50
234.97578
 51
270.0
  0
ARC
  5
2FD
100
AcDbEntity
  8
図
  6
CONTINUOUS
 62
     2
100
AcDbCircle
 10
225.125047
 20
414.651169
 30
0.0
 40
5.0
100
AcDbArc
 50
0.0
 51
90.0
  0
ARC
  5
2FE
100
AcDbEntity
  8
図
  6
CONTINUOUS
 62
     2
100
AcDbCircle
 10
225.125047
 20
414.651169
 30
0.0
 40
15.0
100
AcDbArc
 50
0.0
 51
90.0
  0
CIRCLE
  5
2FF
100
AcDbEntity
  8
図
  6
EXLTYPE1
 62
     2
100
AcDbCircle
 10
132.625012
 20
409.151169
 30
0.0
 40
4.35
  0
ARC
  5
300
100
AcDbEntity
  8
図
  6
EXLTYPE1
 62
     2
100
AcDbCircle
 10
132.625012
 20
409.151169
 30
0.0
 40
2.8
100
AcDbArc
 50
192.37361
 51
257.62636
  0
ARC
  5
301
100
AcDbEntity
  8
図
  6
EXLTYPE1
 62
     2
100
AcDbCircle
 10
132.625012
 20
409.151169
 30
0.0
 40
2.8
100
AcDbArc
 50
12.373648
 51
77.626393
  0
ARC
  5
302
100
AcDbEntity
  8
図
  6
EXLTYPE1
 62
     2
100
AcDbCircle
 10
132.625012
 20
409.151169
 30
0.0
 40
2.8
100
AcDbArc
 50
102.37367
 51
167.62643
  0
ARC
  5
303
100
AcDbEntity
  8
図
  6
EXLTYPE1
 62
     2
100
AcDbCircle
 10
132.625012
 20
409.151169
 30
0.0
 40
2.8
100
AcDbArc
 50
282.37363
 51
347.62638
  0
ARC
  5
304
100
AcDbEntity
  8
図
  6
EXLTYPE1
 62
     2
100
AcDbCircle
 10
131.025012
 20
410.751171
 30
0.0
 40
1.0
100
AcDbArc
 50
270.00002
 51
0.0
  0
ARC
  5
305
100
AcDbEntity
  8
図
  6
EXLTYPE1
 62
     2
100
AcDbCircle
 10
134.225022
 20
407.551167
 30
0.0
 40
1.0
100
AcDbArc
 50
90.000018
 51
180.00005
  0
ARC
  5
306
100
AcDbEntity
  8
図
  6
EXLTYPE1
 62
     2
100
AcDbCircle
 10
134.225022
 20
410.751168
 30
0.0
 40
1.0
100
AcDbArc
 50
180.00004
 51
270.00002
  0
ARC
  5
307
100
AcDbEntity
  8
図
  6
EXLTYPE1
 62
     2
100
AcDbCircle
 10
131.025012
 20
407.551171
 30
0.0
 40
1.0
100
AcDbArc
 50
0.000022
 51
90.000018
  0
CIRCLE
  5
308
100
AcDbEntity
  8
図
  6
EXLTYPE1
 62
     2
100
AcDbCircle
 10
132.625012
 20
409.151169
 30
0.0
 40
4.0
  0
CIRCLE
  5
309
100
AcDbEntity
  8
図
  6
EXLTYPE1
 62
     2
100
AcDbCircle
 10
182.625016
 20
409.151169
 30
0.0
 40
4.35
  0
ARC
  5
30A
100
AcDbEntity
  8
図
  6
EXLTYPE1
 62
     2
100
AcDbCircle
 10
182.625016
 20
409.151169
 30
0.0
 40
2.8
100
AcDbArc
 50
282.37364
 51
347.62639
  0
ARC
  5
30B
100
AcDbEntity
  8
図
  6
EXLTYPE1
 62
     2
100
AcDbCircle
 10
182.625016
 20
409.151169
 30
0.0
 40
2.8
100
AcDbArc
 50
192.37362
 51
257.62637
  0
ARC
  5
30C
100
AcDbEntity
  8
図
  6
EXLTYPE1
 62
     2
100
AcDbCircle
 10
182.625016
 20
409.151169
 30
0.0
 40
2.8
100
AcDbArc
 50
12.373571
 51
77.626329
  0
CIRCLE
  5
30D
100
AcDbEntity
  8
図
  6
EXLTYPE1
 62
     2
100
AcDbCircle
 10
182.625016
 20
409.151169
 30
0.0
 40
4.0
  0
ARC
  5
30E
100
AcDbEntity
  8
図
  6
EXLTYPE1
 62
     2
100
AcDbCircle
 10
182.625016
 20
409.151169
 30
0.0
 40
2.8
100
AcDbArc
 50
102.37361
 51
167.62635
  0
ARC
  5
30F
100
AcDbEntity
  8
図
  6
EXLTYPE1
 62
     2
100
AcDbCircle
 10
181.02501
 20
407.551167
 30
0.0
 40
1.0
100
AcDbArc
 50
359.99995
 51
89.999982
  0
ARC
  5
310
100
AcDbEntity
  8
図
  6
EXLTYPE1
 62
     2
100
AcDbCircle
 10
184.225023
 20
407.551171
 30
0.0
 40
1.0
100
AcDbArc
 50
89.999982
 51
179.99998
  0
ARC
  5
311
100
AcDbEntity
  8
図
  6
EXLTYPE1
 62
     2
100
AcDbCircle
 10
181.02501
 20
410.751168
 30
0.0
 40
1.0
100
AcDbArc
 50
269.99998
 51
359.99996
  0
ARC
  5
312
100
AcDbEntity
  8
図
  6
EXLTYPE1
 62
     2
100
AcDbCircle
 10
184.225023
 20
410.751171
 30
0.0
 40
1.0
100
AcDbArc
 50
179.99999
 51
269.99998
  0
ARC
  5
313
100
AcDbEntity
  8
図
  6
CONTINUOUS
 62
     2
100
AcDbCircle
 10
219.475969
 20
358.72107
 30
0.0
 40
1.25
100
AcDbArc
 50
212.20423
 51
270.0
  0
ARC
  5
314
100
AcDbEntity
  8
図
  6
CONTINUOUS
 62
     2
100
AcDbCircle
 10
216.825969
 20
373.339581
 30
0.0
 40
4.5
100
AcDbArc
 50
0.0
 51
35.37459
  0
ARC
  5
315
100
AcDbEntity
  8
図
  6
CONTINUOUS
 62
     2
100
AcDbCircle
 10
219.475969
 20
375.22107
 30
0.0
 40
1.25
100
AcDbArc
 50
35.37459
 51
90.0
  0
ARC
  5
316
100
AcDbEntity
  8
図
  6
CONTINUOUS
 62
     2
100
AcDbCircle
 10
216.825969
 20
360.602559
 30
0.0
 40
4.5
100
AcDbArc
 50
324.62541
 51
0.0
  0
ARC
  5
317
100
AcDbEntity
  8
図
  6
CONTINUOUS
 62
     2
100
AcDbCircle
 10
219.475969
 20
375.22107
 30
0.0
 40
1.25
100
AcDbArc
 50
90.0
 51
147.79577
  0
ARC
  5
318
100
AcDbEntity
  8
図
  6
CONTINUOUS
 62
     2
100
AcDbCircle
 10
222.125969
 20
360.602559
 30
0.0
 40
4.5
100
AcDbArc
 50
180.0
 51
215.37459
  0
ARC
  5
319
100
AcDbEntity
  8
図
  6
CONTINUOUS
 62
     2
100
AcDbCircle
 10
222.125969
 20
373.339581
 30
0.0
 40
4.5
100
AcDbArc
 50
144.62541
 51
180.0
  0
ARC
  5
31A
100
AcDbEntity
  8
図
  6
CONTINUOUS
 62
     2
100
AcDbCircle
 10
219.475969
 20
358.72107
 30
0.0
 40
1.25
100
AcDbArc
 50
270.0
 51
324.62541
  0
ARC
  5
31B
100
AcDbEntity
  8
図
  6
CONTINUOUS
 62
     2
100
AcDbCircle
 10
100.476002
 20
375.22107
 30
0.0
 40
1.25
100
AcDbArc
 50
90.0
 51
147.79577
  0
ARC
  5
31C
100
AcDbEntity
  8
図
  6
CONTINUOUS
 62
     2
100
AcDbCircle
 10
100.476002
 20
358.72107
 30
0.0
 40
1.25
100
AcDbArc
 50
270.0
 51
324.62541
  0
ARC
  5
31D
100
AcDbEntity
  8
図
  6
CONTINUOUS
 62
     2
100
AcDbCircle
 10
100.476002
 20
358.72107
 30
0.0
 40
1.25
100
AcDbArc
 50
212.20423
 51
270.0
  0
ARC
  5
31E
100
AcDbEntity
  8
図
  6
CONTINUOUS
 62
     2
100
AcDbCircle
 10
103.126002
 20
373.339581
 30
0.0
 40
4.5
100
AcDbArc
 50
144.62541
 51
180.0
  0
ARC
  5
31F
100
AcDbEntity
  8
図
  6
CONTINUOUS
 62
     2
100
AcDbCircle
 10
103.126002
 20
360.602559
 30
0.0
 40
4.5
100
AcDbArc
 50
180.0
 51
215.37459
  0
ARC
  5
320
100
AcDbEntity
  8
図
  6
CONTINUOUS
 62
     2
100
AcDbCircle
 10
100.476002
 20
375.22107
 30
0.0
 40
1.25
100
AcDbArc
 50
35.37459
 51
90.0
  0
ARC
  5
321
100
AcDbEntity
  8
図
  6
CONTINUOUS
 62
     2
100
AcDbCircle
 10
97.826002
 20
373.339581
 30
0.0
 40
4.5
100
AcDbArc
 50
0.0
 51
35.37459
  0
ARC
  5
322
100
AcDbEntity
  8
図
  6
CONTINUOUS
 62
     2
100
AcDbCircle
 10
97.826002
 20
360.602559
 30
0.0
 40
4.5
100
AcDbArc
 50
324.62541
 51
0.0
  0
ARC
  5
323
100
AcDbEntity
  8
図
  6
CONTINUOUS
 62
     2
100
AcDbCircle
 10
76.632353
 20
383.134191
 30
0.0
 40
2.097073
100
AcDbArc
 50
64.114786
 51
75.450797
  0
ARC
  5
324
100
AcDbEntity
  8
図
  6
CONTINUOUS
 62
     2
100
AcDbCircle
 10
77.031459
 20
382.735838
 30
0.0
 40
2.431534
100
AcDbArc
 50
86.989472
 51
98.325483
  0
ARC
  5
325
100
AcDbEntity
  8
図
  6
CONTINUOUS
 62
     2
100
AcDbCircle
 10
77.344472
 20
382.266757
 30
0.0
 40
2.950917
100
AcDbArc
 50
103.02547
 51
114.361481
  0
ARC
  5
326
100
AcDbEntity
  8
図
  6
CONTINUOUS
 62
     2
100
AcDbCircle
 10
77.559174
 20
381.745337
 30
0.0
 40
3.514528
100
AcDbArc
 50
114.043636
 51
125.379648
  0
ARC
  5
327
100
AcDbEntity
  8
図
  6
CONTINUOUS
 62
     2
100
AcDbCircle
 10
77.667198
 20
381.191858
 30
0.0
 40
4.035041
100
AcDbArc
 50
122.078076
 51
133.414087
  0
ARC
  5
328
100
AcDbEntity
  8
図
  6
CONTINUOUS
 62
     2
100
AcDbCircle
 10
77.664313
 20
380.627891
 30
0.0
 40
4.459784
100
AcDbArc
 50
128.401251
 51
139.737262
  0
ARC
  5
329
100
AcDbEntity
  8
図
  6
CONTINUOUS
 62
     2
100
AcDbCircle
 10
77.550643
 20
380.075615
 30
0.0
 40
4.755797
100
AcDbArc
 50
133.764108
 51
145.100119
  0
ARC
  5
32A
100
AcDbEntity
  8
図
  6
CONTINUOUS
 62
     2
100
AcDbCircle
 10
77.330626
 20
379.556368
 30
0.0
 40
4.903573
100
AcDbArc
 50
138.639596
 51
149.975607
  0
ARC
  5
32B
100
AcDbEntity
  8
図
  6
CONTINUOUS
 62
     2
100
AcDbCircle
 10
77.012838
 20
379.090503
 30
0.0
 40
4.89395
100
AcDbArc
 50
143.377183
 51
154.713194
  0
ARC
  5
32C
100
AcDbEntity
  8
図
  6
CONTINUOUS
 62
     2
100
AcDbCircle
 10
76.609681
 20
378.696239
 30
0.0
 40
4.727489
100
AcDbArc
 50
148.292145
 51
159.628156
  0
ARC
  5
32D
100
AcDbEntity
  8
図
  6
CONTINUOUS
 62
     2
100
AcDbCircle
 10
76.136882
 20
378.388838
 30
0.0
 40
4.414551
100
AcDbArc
 50
153.741489
 51
165.0775
  0
ARC
  5
32E
100
AcDbEntity
  8
図
  6
CONTINUOUS
 62
     2
100
AcDbCircle
 10
75.612898
 20
378.180441
 30
0.0
 40
3.976151
100
AcDbArc
 50
160.22565
 51
171.561662
  0
ARC
  5
32F
100
AcDbEntity
  8
図
  6
CONTINUOUS
 62
     2
100
AcDbCircle
 10
75.05816
 20
378.079062
 30
0.0
 40
3.447086
100
AcDbArc
 50
168.540359
 51
179.87637
  0
ARC
  5
330
100
AcDbEntity
  8
図
  6
CONTINUOUS
 62
     2
100
AcDbCircle
 10
74.494323
 20
378.088748
 30
0.0
 40
2.883242
100
AcDbArc
 50
180.04466
 51
191.380671
  0
ARC
  5
331
100
AcDbEntity
  8
図
  6
CONTINUOUS
 62
     2
100
AcDbCircle
 10
73.943394
 20
378.209032
 30
0.0
 40
2.377706
100
AcDbArc
 50
196.850136
 51
208.186147
  0
ARC
  5
332
100
AcDbEntity
  8
図
  6
CONTINUOUS
 62
     2
100
AcDbCircle
 10
73.426845
 20
378.435252
 30
0.0
 40
2.077136
100
AcDbArc
 50
220.511187
 51
231.847199
  0
ARC
  5
333
100
AcDbEntity
  8
図
  6
CONTINUOUS
 62
     2
100
AcDbCircle
 10
75.834492
 20
382.241521
 30
0.0
 40
3.271218
100
AcDbArc
 50
60.922429
 51
72.06614
  0
ARC
  5
334
100
AcDbEntity
  8
図
  6
CONTINUOUS
 62
     2
100
AcDbCircle
 10
76.070013
 20
382.021531
 30
0.0
 40
3.420468
100
AcDbArc
 50
76.960276
 51
88.103987
  0
ARC
  5
335
100
AcDbEntity
  8
図
  6
CONTINUOUS
 62
     2
100
AcDbCircle
 10
76.258578
 20
381.760199
 30
0.0
 40
3.6807
100
AcDbArc
 50
91.173737
 51
102.317448
  0
ARC
  5
336
100
AcDbEntity
  8
図
  6
CONTINUOUS
 62
     2
100
AcDbCircle
 10
76.39308
 20
381.46732
 30
0.0
 40
3.996125
100
AcDbArc
 50
103.305764
 51
114.449475
  0
ARC
  5
337
100
AcDbEntity
  8
図
  6
CONTINUOUS
 62
     2
100
AcDbCircle
 10
76.468447
 20
381.154028
 30
0.0
 40
4.312948
100
AcDbArc
 50
113.638281
 51
124.781991
  0
ARC
  5
338
100
AcDbEntity
  8
図
  6
CONTINUOUS
 62
     2
100
AcDbCircle
 10
76.481836
 20
380.831994
 30
0.0
 40
4.588334
100
AcDbArc
 50
122.624826
 51
133.768537
  0
ARC
  5
339
100
AcDbEntity
  8
図
  6
CONTINUOUS
 62
     2
100
AcDbCircle
 10
76.432732
 20
380.513523
 30
0.0
 40
4.791179
100
AcDbArc
 50
130.708531
 51
141.852242
  0
ARC
  5
33A
100
AcDbEntity
  8
図
  6
CONTINUOUS
 62
     2
100
AcDbCircle
 10
76.323006
 20
380.210506
 30
0.0
 40
4.901624
100
AcDbArc
 50
138.272154
 51
149.415864
  0
ARC
  5
33B
100
AcDbEntity
  8
図
  6
CONTINUOUS
 62
     2
100
AcDbCircle
 10
76.156783
 20
379.934378
 30
0.0
 40
4.90961
100
AcDbArc
 50
145.652002
 51
156.795713
  0
ARC
  5
33C
100
AcDbEntity
  8
図
  6
CONTINUOUS
 62
     2
100
AcDbCircle
 10
75.940331
 20
379.695651
 30
0.0
 40
4.81438
100
AcDbArc
 50
153.167066
 51
164.310777
  0
ARC
  5
33D
100
AcDbEntity
  8
図
  6
CONTINUOUS
 62
     2
100
AcDbCircle
 10
75.681816
 20
379.50324
 30
0.0
 40
4.624573
100
AcDbArc
 50
161.148016
 51
172.291727
  0
ARC
  5
33E
100
AcDbEntity
  8
図
  6
CONTINUOUS
 62
     2
100
AcDbCircle
 10
75.390997
 20
379.364424
 30
0.0
 40
4.358579
100
AcDbArc
 50
169.970007
 51
181.113718
  0
ARC
  5
33F
100
AcDbEntity
  8
図
  6
CONTINUOUS
 62
     2
100
AcDbCircle
 10
75.078815
 20
379.284378
 30
0.0
 40
4.045576
100
AcDbArc
 50
180.066153
 51
191.209864
  0
ARC
  5
340
100
AcDbEntity
  8
図
  6
CONTINUOUS
 62
     2
100
AcDbCircle
 10
74.757063
 20
379.266229
 30
0.0
 40
3.726703
100
AcDbArc
 50
191.897837
 51
203.041548
  0
ARC
  5
341
100
AcDbEntity
  8
図
  6
CONTINUOUS
 62
     2
100
AcDbCircle
 10
74.437859
 20
379.310569
 30
0.0
 40
3.454298
100
AcDbArc
 50
205.791669
 51
216.93538
  0
ARC
  5
342
100
AcDbEntity
  8
図
  6
CONTINUOUS
 62
     2
100
AcDbCircle
 10
74.133259
 20
379.415841
 30
0.0
 40
3.28497
100
AcDbArc
 50
221.600702
 51
232.744413
  0
ARC
  5
343
100
AcDbEntity
  8
図
  6
CONTINUOUS
 62
     2
100
AcDbCircle
 10
99.110441
 20
402.582321
 30
0.0
 40
3.985419
100
AcDbArc
 50
180.010138
 51
185.635138
  0
ARC
  5
344
100
AcDbEntity
  8
図
  6
CONTINUOUS
 62
     2
100
AcDbCircle
 10
99.110582
 20
402.583781
 30
0.0
 40
3.985704
100
AcDbArc
 50
185.655815
 51
191.280815
  0
ARC
  5
345
100
AcDbEntity
  8
図
  6
CONTINUOUS
 62
     2
100
AcDbCircle
 10
99.110861
 20
402.585166
 30
0.0
 40
3.986248
100
AcDbArc
 50
191.299549
 51
196.924549
  0
ARC
  5
346
100
AcDbEntity
  8
図
  6
CONTINUOUS
 62
     2
100
AcDbCircle
 10
99.115219
 20
402.592393
 30
0.0
 40
3.993382
100
AcDbArc
 50
225.104004
 51
230.729004
  0
ARC
  5
347
100
AcDbEntity
  8
図
  6
CONTINUOUS
 62
     2
100
AcDbCircle
 10
99.116325
 20
402.59332
 30
0.0
 40
3.9948
100
AcDbArc
 50
230.725134
 51
236.350134
  0
ARC
  5
348
100
AcDbEntity
  8
図
  6
CONTINUOUS
 62
     2
100
AcDbCircle
 10
99.117518
 20
402.5942
 30
0.0
 40
3.996194
100
AcDbArc
 50
236.342885
 51
241.967885
  0
ARC
  5
349
100
AcDbEntity
  8
図
  6
CONTINUOUS
 62
     2
100
AcDbCircle
 10
99.118787
 20
402.594781
 30
0.0
 40
3.997303
100
AcDbArc
 50
241.955747
 51
247.580747
  0
ARC
  5
34A
100
AcDbEntity
  8
図
  6
CONTINUOUS
 62
     2
100
AcDbCircle
 10
99.120105
 20
402.595311
 30
0.0
 40
3.998296
100
AcDbArc
 50
247.566189
 51
253.191189
  0
ARC
  5
34B
100
AcDbEntity
  8
図
  6
CONTINUOUS
 62
     2
100
AcDbCircle
 10
99.121472
 20
402.595804
 30
0.0
 40
3.999163
100
AcDbArc
 50
253.174484
 51
258.799484
  0
ARC
  5
34C
100
AcDbEntity
  8
図
  6
CONTINUOUS
 62
     2
100
AcDbCircle
 10
99.122886
 20
402.59603
 30
0.0
 40
3.999659
100
AcDbArc
 50
258.780233
 51
264.405233
  0
ARC
  5
34D
100
AcDbEntity
  8
図
  6
CONTINUOUS
 62
     2
100
AcDbCircle
 10
99.124297
 20
402.596212
 30
0.0
 40
3.999979
100
AcDbArc
 50
264.385375
 51
270.010375
  0
ARC
  5
34E
100
AcDbEntity
  8
図
  6
CONTINUOUS
 62
     2
100
AcDbCircle
 10
99.114207
 20
402.591474
 30
0.0
 40
3.992017
100
AcDbArc
 50
219.47998
 51
225.10498
  0
ARC
  5
34F
100
AcDbEntity
  8
図
  6
CONTINUOUS
 62
     2
100
AcDbCircle
 10
99.113295
 20
402.590347
 30
0.0
 40
3.990596
100
AcDbArc
 50
213.850814
 51
219.475814
  0
ARC
  5
350
100
AcDbEntity
  8
図
  6
CONTINUOUS
 62
     2
100
AcDbCircle
 10
99.112505
 20
402.589054
 30
0.0
 40
3.98922
100
AcDbArc
 50
208.216717
 51
213.841717
  0
ARC
  5
351
100
AcDbEntity
  8
図
  6
CONTINUOUS
 62
     2
100
AcDbCircle
 10
99.111831
 20
402.587929
 30
0.0
 40
3.988094
100
AcDbArc
 50
202.582051
 51
208.207051
  0
ARC
  5
352
100
AcDbEntity
  8
図
  6
CONTINUOUS
 62
     2
100
AcDbCircle
 10
99.111271
 20
402.586502
 30
0.0
 40
3.987029
100
AcDbArc
 50
196.941207
 51
202.566207
  0
LINE
  5
353
100
AcDbEntity
  8
図
  6
CONTINUOUS
 62
     2
100
AcDbLine
 10
102.326002
 20
371.97107
 30
0.0
 11
217.625969
 21
371.97107
 31
0.0
  0
LINE
  5
354
100
AcDbEntity
  8
図
  6
CONTINUOUS
 62
     2
100
AcDbLine
 10
221.325969
 20
371.97107
 30
0.0
 11
225.125016
 21
371.97107
 31
0.0
  0
LINE
  5
355
100
AcDbEntity
  8
図
  6
EXLTYPE4
 62
     6
100
AcDbLine
 10
102.476002
 20
408.638428
 30
0.0
 11
102.476002
 21
298.638424
 31
0.0
  0
LINE
  5
356
100
AcDbEntity
  8
図
  6
EXLTYPE4
 62
     6
100
AcDbLine
 10
217.475969
 20
408.638428
 30
0.0
 11
217.475969
 21
298.638424
 31
0.0
  0
LINE
  5
357
100
AcDbEntity
  8
図
  6
EXLTYPE4
 62
     6
100
AcDbLine
 10
102.475992
 20
298.638424
 30
0.0
 11
217.475969
 21
298.638424
 31
0.0
  0
LINE
  5
358
100
AcDbEntity
  8
図
  6
CONTINUOUS
 62
     2
100
AcDbLine
 10
216.125009
 20
398.596232
 30
0.0
 11
98.732952
 21
398.596232
 31
0.0
  0
ARC
  5
359
100
AcDbEntity
  8
図
  6
CONTINUOUS
 62
     2
100
AcDbCircle
 10
216.125732
 20
402.596192
 30
0.0
 40
3.999959
100
AcDbArc
 50
269.98964
 51
275.61464
  0
ARC
  5
35A
100
AcDbEntity
  8
図
  6
CONTINUOUS
 62
     2
100
AcDbCircle
 10
216.127143
 20
402.59606
 30
0.0
 40
3.99969
100
AcDbArc
 50
275.594703
 51
281.219703
  0
ARC
  5
35B
100
AcDbEntity
  8
図
  6
CONTINUOUS
 62
     2
100
AcDbCircle
 10
216.128558
 20
402.595784
 30
0.0
 40
3.999144
100
AcDbArc
 50
281.200586
 51
286.825586
  0
ARC
  5
35C
100
AcDbEntity
  8
図
  6
CONTINUOUS
 62
     2
100
AcDbCircle
 10
216.129927
 20
402.595362
 30
0.0
 40
3.998344
100
AcDbArc
 50
286.808566
 51
292.433566
  0
ARC
  5
35D
100
AcDbEntity
  8
図
  6
CONTINUOUS
 62
     2
100
AcDbCircle
 10
216.131249
 20
402.594812
 30
0.0
 40
3.997331
100
AcDbArc
 50
292.419066
 51
298.044066
  0
ARC
  5
35E
100
AcDbEntity
  8
図
  6
CONTINUOUS
 62
     2
100
AcDbCircle
 10
216.132516
 20
402.594139
 30
0.0
 40
3.996141
100
AcDbArc
 50
298.032565
 51
303.657565
  0
ARC
  5
35F
100
AcDbEntity
  8
図
  6
CONTINUOUS
 62
     2
100
AcDbCircle
 10
216.133707
 20
402.59334
 30
0.0
 40
3.994817
100
AcDbArc
 50
303.649693
 51
309.274693
  0
ARC
  5
360
100
AcDbEntity
  8
図
  6
CONTINUOUS
 62
     2
100
AcDbCircle
 10
216.134817
 20
402.592433
 30
0.0
 40
3.993412
100
AcDbArc
 50
309.270604
 51
314.895604
  0
ARC
  5
361
100
AcDbEntity
  8
図
  6
CONTINUOUS
 62
     2
100
AcDbCircle
 10
216.135827
 20
402.591423
 30
0.0
 40
3.991983
100
AcDbArc
 50
314.895561
 51
320.520561
  0
ARC
  5
362
100
AcDbEntity
  8
図
  6
CONTINUOUS
 62
     2
100
AcDbCircle
 10
216.136735
 20
402.590306
 30
0.0
 40
3.990572
100
AcDbArc
 50
320.524655
 51
326.149655
  0
ARC
  5
363
100
AcDbEntity
  8
図
  6
CONTINUOUS
 62
     2
100
AcDbCircle
 10
216.137527
 20
402.589125
 30
0.0
 40
3.989257
100
AcDbArc
 50
326.157405
 51
331.782405
  0
ARC
  5
364
100
AcDbEntity
  8
図
  6
CONTINUOUS
 62
     2
100
AcDbCircle
 10
216.138201
 20
402.587857
 30
0.0
 40
3.988063
100
AcDbArc
 50
331.793875
 51
337.418875
  0
ARC
  5
365
100
AcDbEntity
  8
図
  6
CONTINUOUS
 62
     2
100
AcDbCircle
 10
216.138759
 20
402.586532
 30
0.0
 40
3.98704
100
AcDbArc
 50
337.43338
 51
343.05838
  0
ARC
  5
366
100
AcDbEntity
  8
図
  6
CONTINUOUS
 62
     2
100
AcDbCircle
 10
216.13917
 20
402.585166
 30
0.0
 40
3.986248
100
AcDbArc
 50
343.075451
 51
348.700451
  0
ARC
  5
367
100
AcDbEntity
  8
図
  6
CONTINUOUS
 62
     2
100
AcDbCircle
 10
216.139448
 20
402.58376
 30
0.0
 40
3.985701
100
AcDbArc
 50
348.719475
 51
354.344475
  0
ARC
  5
368
100
AcDbEntity
  8
図
  6
CONTINUOUS
 62
     2
100
AcDbCircle
 10
216.139589
 20
402.582332
 30
0.0
 40
3.98542
100
AcDbArc
 50
354.364716
 51
359.989716
  0
LINE
  5
369
100
AcDbEntity
  8
図
  6
EXLTYPE1
 62
     2
100
AcDbLine
 10
220.125016
 20
418.501168
 30
0.0
 11
194.625016
 21
418.501168
 31
0.0
  0
LINE
  5
36A
100
AcDbEntity
  8
図
  6
CONTINUOUS
 62
     2
100
AcDbLine
 10
220.125016
 20
429.651169
 30
0.0
 11
225.125047
 21
429.651169
 31
0.0
  0
LINE
  5
36B
100
AcDbEntity
  8
図
  6
CONTINUOUS
 62
     2
100
AcDbLine
 10
220.125016
 20
419.651169
 30
0.0
 11
225.125047
 21
419.651169
 31
0.0
  0
DIMENSION
  5
378
100
AcDbEntity
  8
図
  6
CONTINUOUS
 62
     3
100
AcDbDimension
  2
*D14
 10
182.625016
 20
341.97107
 30
0.0
 11
157.625014
 21
347.84607
 31
0.0
 70
   160
  3
STANDARD
100
AcDbAlignedDimension
 13
132.625012
 23
403.476003
 33
0.0
 14
182.625016
 24
403.476003
 34
0.0
100
AcDbRotatedDimension
1001
ACAD
1000
DSTYLE
1002
{
1070
     6
1000
_EX_NORM
1070
     7
1000
_EX_NORM
1070
    41
1040
7.5
1070
    42
1040
1.75
1070
    44
1040
2.5
1070
    73
1070
     0
1070
    74
1070
     0
1070
    75
1070
     0
1070
    76
1070
     0
1070
    77
1070
     1
1070
    78
1070
     8
1070
   140
1040
10.0
1070
   147
1040
0.875
1070
   173
1070
     1
1070
   176
1070
     3
1070
   177
1070
     3
1070
   178
1070
     2
1070
   271
1070
     2
1070
   279
1070
     2
1070
   280
1070
     0
1070
   287
1070
     5
1070
   340
1005
377
1002
}
  0
DIMENSION
  5
384
100
AcDbEntity
  8
図
  6
CONTINUOUS
 62
     3
100
AcDbDimension
  2
*D15
 10
192.624986
 20
326.97107
 30
0.0
 11
157.625009
 21
332.84607
 31
0.0
 70
   160
  3
STANDARD
100
AcDbAlignedDimension
 13
122.625032
 23
382.151169
 33
0.0
 14
192.624986
 24
382.151169
 34
0.0
100
AcDbRotatedDimension
1001
ACAD
1000
DSTYLE
1002
{
1070
     6
1000
_EX_NORM
1070
     7
1000
_EX_NORM
1070
    41
1040
7.5
1070
    42
1040
1.75
1070
    44
1040
2.5
1070
    73
1070
     0
1070
    74
1070
     0
1070
    75
1070
     0
1070
    76
1070
     0
1070
    77
1070
     1
1070
    78
1070
     8
1070
   140
1040
10.0
1070
   147
1040
0.875
1070
   173
1070
     1
1070
   176
1070
     3
1070
   177
1070
     3
1070
   178
1070
     2
1070
   271
1070
     2
1070
   279
1070
     2
1070
   280
1070
     0
1070
   287
1070
     5
1070
   340
1005
377
1002
}
  0
DIMENSION
  5
390
100
AcDbEntity
  8
図
  6
CONTINUOUS
 62
     3
100
AcDbDimension
  2
*D16
 10
240.125016
 20
311.97107
 30
0.0
 11
155.579127
 21
317.84607
 31
0.0
 70
   160
  1
170
  3
STANDARD
100
AcDbAlignedDimension
 13
71.033239
 23
379.449002
 33
0.0
 14
240.125016
 24
376.971083
 34
0.0
100
AcDbRotatedDimension
1001
ACAD
1000
DSTYLE
1002
{
1070
     6
1000
_EX_NORM
1070
     7
1000
_EX_NORM
1070
    41
1040
7.5
1070
    42
1040
1.75
1070
    44
1040
2.5
1070
    73
1070
     0
1070
    74
1070
     0
1070
    75
1070
     0
1070
    76
1070
     0
1070
    77
1070
     1
1070
    78
1070
     8
1070
   140
1040
10.0
1070
   147
1040
0.875
1070
   173
1070
     1
1070
   176
1070
     3
1070
   177
1070
     3
1070
   178
1070
     2
1070
   271
1070
     2
1070
   279
1070
     2
1070
   280
1070
     0
1070
   287
1070
     5
1070
   340
1005
377
1002
}
  0
LINE
  5
391
100
AcDbEntity
  8
図
  6
CONTINUOUS
 62
     2
100
AcDbLine
 10
433.044442
 20
382.151169
 30
0.0
 11
435.044472
 21
382.151169
 31
0.0
  0
LINE
  5
392
100
AcDbEntity
  8
図
  6
CONTINUOUS
 62
     2
100
AcDbLine
 10
430.044442
 20
417.151169
 30
0.0
 11
430.044442
 21
385.151169
 31
0.0
  0
LINE
  5
393
100
AcDbEntity
  8
図
  6
CONTINUOUS
 62
     2
100
AcDbLine
 10
435.044442
 20
427.151169
 30
0.0
 11
435.044442
 21
382.151169
 31
0.0
  0
LINE
  5
394
100
AcDbEntity
  8
図
  6
CONTINUOUS
 62
     2
100
AcDbLine
 10
430.044442
 20
411.950752
 30
0.0
 11
430.044442
 21
409.750755
 31
0.0
  0
LINE
  5
395
100
AcDbEntity
  8
図
  6
CONTINUOUS
 62
     2
100
AcDbLine
 10
430.044442
 20
408.550743
 30
0.0
 11
430.044442
 21
406.350746
 31
0.0
  0
LINE
  5
396
100
AcDbEntity
  8
図
  6
EXLTYPE1
 62
     2
100
AcDbLine
 10
433.739012
 20
392.378324
 30
0.0
 11
434.358612
 21
391.042893
 31
0.0
  0
LINE
  5
397
100
AcDbEntity
  8
図
  6
CONTINUOUS
 62
     2
100
AcDbLine
 10
435.477752
 20
393.15117
 30
0.0
 11
435.766422
 21
392.651173
 31
0.0
  0
LINE
  5
398
100
AcDbEntity
  8
図
  6
EXLTYPE1
 62
     2
100
AcDbLine
 10
430.044442
 20
391.751175
 30
0.0
 11
431.244452
 21
391.751175
 31
0.0
  0
LINE
  5
399
100
AcDbEntity
  8
図
  6
EXLTYPE1
 62
     2
100
AcDbLine
 10
433.828202
 20
390.933509
 30
0.0
 11
434.255582
 21
389.651171
 31
0.0
  0
LINE
  5
39A
100
AcDbEntity
  8
図
  6
CONTINUOUS
 62
     2
100
AcDbLine
 10
435.189072
 20
392.651166
 30
0.0
 11
435.477742
 21
393.151163
 31
0.0
  0
LINE
  5
39B
100
AcDbEntity
  8
図
  6
EXLTYPE1
 62
     2
100
AcDbLine
 10
433.829242
 20
390.916566
 30
0.0
 11
433.739012
 21
392.378323
 31
0.0
  0
LINE
  5
39C
100
AcDbEntity
  8
図
  6
CONTINUOUS
 62
     2
100
AcDbLine
 10
436.477602
 20
389.15117
 30
0.0
 11
435.477742
 21
393.151169
 31
0.0
  0
LINE
  5
39D
100
AcDbEntity
  8
図
  6
EXLTYPE1
 62
     2
100
AcDbLine
 10
434.832962
 20
389.651158
 30
0.0
 11
434.544282
 21
389.151162
 31
0.0
  0
LINE
  5
39E
100
AcDbEntity
  8
図
  6
EXLTYPE1
 62
     2
100
AcDbLine
 10
434.544262
 20
389.151167
 30
0.0
 11
434.255582
 21
389.651167
 31
0.0
  0
LINE
  5
39F
100
AcDbEntity
  8
図
  6
EXLTYPE1
 62
     2
100
AcDbLine
 10
434.544272
 20
389.151167
 30
0.0
 11
433.735932
 21
392.38495
 31
0.0
  0
LINE
  5
3A0
100
AcDbEntity
  8
図
  6
EXLTYPE1
 62
     2
100
AcDbLine
 10
432.544412
 20
393.651166
 30
0.0
 11
433.544412
 21
392.651165
 31
0.0
  0
LINE
  5
3A1
100
AcDbEntity
  8
図
  6
CONTINUOUS
 62
     2
100
AcDbLine
 10
435.766422
 20
392.651171
 30
0.0
 11
436.766302
 21
389.65117
 31
0.0
  0
LINE
  5
3A2
100
AcDbEntity
  8
図
  6
EXLTYPE1
 62
     2
100
AcDbLine
 10
433.544412
 20
392.651169
 30
0.0
 11
433.544412
 21
389.651169
 31
0.0
  0
LINE
  5
3A3
100
AcDbEntity
  8
図
  6
EXLTYPE1
 62
     2
100
AcDbLine
 10
431.244422
 20
387.151169
 30
0.0
 11
431.244422
 21
395.151169
 31
0.0
  0
LINE
  5
3A4
100
AcDbEntity
  8
図
  6
CONTINUOUS
 62
     2
100
AcDbLine
 10
435.189062
 20
392.651168
 30
0.0
 11
436.188912
 21
389.651167
 31
0.0
  0
LINE
  5
3A5
100
AcDbEntity
  8
図
  6
CONTINUOUS
 62
     2
100
AcDbLine
 10
436.766292
 20
389.651162
 30
0.0
 11
436.477612
 21
389.151165
 31
0.0
  0
LINE
  5
3A6
100
AcDbEntity
  8
図
  6
CONTINUOUS
 62
     2
100
AcDbLine
 10
435.044412
 20
392.651169
 30
0.0
 11
435.189062
 21
392.651169
 31
0.0
  0
LINE
  5
3A7
100
AcDbEntity
  8
図
  6
CONTINUOUS
 62
     2
100
AcDbLine
 10
436.477592
 20
389.151163
 30
0.0
 11
436.188912
 21
389.651164
 31
0.0
  0
LINE
  5
3A8
100
AcDbEntity
  8
図
  6
EXLTYPE1
 62
     2
100
AcDbLine
 10
433.544412
 20
389.651169
 30
0.0
 11
434.255582
 21
389.651169
 31
0.0
  0
LINE
  5
3A9
100
AcDbEntity
  8
図
  6
EXLTYPE1
 62
     2
100
AcDbLine
 10
432.544412
 20
388.651169
 30
0.0
 11
433.544412
 21
389.65117
 31
0.0
  0
LINE
  5
3AA
100
AcDbEntity
  8
図
  6
EXLTYPE1
 62
     2
100
AcDbLine
 10
433.544412
 20
392.651169
 30
0.0
 11
435.044412
 21
392.651169
 31
0.0
  0
LINE
  5
3AB
100
AcDbEntity
  8
図
  6
EXLTYPE1
 62
     2
100
AcDbLine
 10
434.368062
 20
391.046043
 30
0.0
 11
434.832972
 21
389.651171
 31
0.0
  0
LINE
  5
3AC
100
AcDbEntity
  8
図
  6
EXLTYPE1
 62
     2
100
AcDbLine
 10
432.544442
 20
393.401169
 30
0.0
 11
435.044412
 21
393.401169
 31
0.0
  0
LINE
  5
3AD
100
AcDbEntity
  8
図
  6
EXLTYPE1
 62
     2
100
AcDbLine
 10
432.544442
 20
388.901169
 30
0.0
 11
435.044412
 21
388.901169
 31
0.0
  0
LINE
  5
3AE
100
AcDbEntity
  8
図
  6
EXLTYPE1
 62
     2
100
AcDbLine
 10
430.044412
 20
386.801171
 30
0.0
 11
432.544442
 21
386.801171
 31
0.0
  0
LINE
  5
3AF
100
AcDbEntity
  8
図
  6
CONTINUOUS
 62
     2
100
AcDbLine
 10
438.411022
 20
389.151234
 30
0.0
 11
438.122352
 21
389.651231
 31
0.0
  0
LINE
  5
3B0
100
AcDbEntity
  8
図
  6
CONTINUOUS
 62
     2
100
AcDbLine
 10
438.699912
 20
389.651066
 30
0.0
 11
438.411232
 21
389.151056
 31
0.0
  0
LINE
  5
3B1
100
AcDbEntity
  8
図
  6
CONTINUOUS
 62
     2
100
AcDbLine
 10
438.699382
 20
389.651113
 30
0.0
 11
437.699512
 21
392.651108
 31
0.0
  0
LINE
  5
3B2
100
AcDbEntity
  8
図
  6
CONTINUOUS
 62
     2
100
AcDbLine
 10
437.122672
 20
392.651143
 30
0.0
 11
437.411342
 21
393.151127
 31
0.0
  0
LINE
  5
3B3
100
AcDbEntity
  8
図
  6
CONTINUOUS
 62
     2
100
AcDbLine
 10
437.411382
 20
393.151291
 30
0.0
 11
437.700062
 21
392.651287
 31
0.0
  0
LINE
  5
3B4
100
AcDbEntity
  8
図
  6
CONTINUOUS
 62
     2
100
AcDbLine
 10
437.123202
 20
392.651458
 30
0.0
 11
438.123062
 21
389.651441
 31
0.0
  0
LINE
  5
3B5
100
AcDbEntity
  8
図
  6
CONTINUOUS
 62
     2
100
AcDbLine
 10
435.766432
 20
392.651165
 30
0.0
 11
437.122382
 21
392.651165
 31
0.0
  0
LINE
  5
3B6
100
AcDbEntity
  8
図
  6
CONTINUOUS
 62
     2
100
AcDbLine
 10
435.044412
 20
389.651169
 30
0.0
 11
436.188912
 21
389.651169
 31
0.0
  0
LINE
  5
3B7
100
AcDbEntity
  8
図
  6
EXLTYPE1
 62
     2
100
AcDbLine
 10
430.044412
 20
395.501168
 30
0.0
 11
432.544442
 21
395.501168
 31
0.0
  0
LINE
  5
3B8
100
AcDbEntity
  8
図
  6
CONTINUOUS
 62
     2
100
AcDbLine
 10
436.766302
 20
389.651165
 30
0.0
 11
438.122262
 21
389.651165
 31
0.0
  0
LINE
  5
3B9
100
AcDbEntity
  8
図
  6
CONTINUOUS
 62
     2
100
AcDbLine
 10
444.210392
 20
389.151288
 30
0.0
 11
443.921722
 21
389.651285
 31
0.0
  0
LINE
  5
3BA
100
AcDbEntity
  8
図
  6
CONTINUOUS
 62
     2
100
AcDbLine
 10
445.432382
 20
392.651165
 30
0.0
 11
446.788342
 21
392.651165
 31
0.0
  0
LINE
  5
3BB
100
AcDbEntity
  8
図
  6
CONTINUOUS
 62
     2
100
AcDbLine
 10
445.144072
 20
393.15131
 30
0.0
 11
445.432752
 21
392.6513
 31
0.0
  0
LINE
  5
3BC
100
AcDbEntity
  8
図
  6
CONTINUOUS
 62
     2
100
AcDbLine
 10
444.855262
 20
392.651171
 30
0.0
 11
445.143942
 21
393.151182
 31
0.0
  0
LINE
  5
3BD
100
AcDbEntity
  8
図
  6
CONTINUOUS
 62
     2
100
AcDbLine
 10
442.921912
 20
392.6511
 30
0.0
 11
443.210562
 21
393.151058
 31
0.0
  0
LINE
  5
3BE
100
AcDbEntity
  8
図
  6
CONTINUOUS
 62
     2
100
AcDbLine
 10
443.210752
 20
393.151314
 30
0.0
 11
443.499432
 21
392.651318
 31
0.0
  0
LINE
  5
3BF
100
AcDbEntity
  8
図
  6
CONTINUOUS
 62
     2
100
AcDbLine
 10
443.499032
 20
392.651165
 30
0.0
 11
444.855052
 21
392.651165
 31
0.0
  0
LINE
  5
3C0
100
AcDbEntity
  8
図
  6
CONTINUOUS
 62
     2
100
AcDbLine
 10
444.498582
 20
389.651106
 30
0.0
 11
443.498722
 21
392.651094
 31
0.0
  0
LINE
  5
3C1
100
AcDbEntity
  8
図
  6
CONTINUOUS
 62
     2
100
AcDbLine
 10
442.922632
 20
392.651532
 30
0.0
 11
443.922482
 21
389.651516
 31
0.0
  0
LINE
  5
3C2
100
AcDbEntity
  8
図
  6
CONTINUOUS
 62
     2
100
AcDbLine
 10
442.276992
 20
389.151232
 30
0.0
 11
441.988312
 21
389.651229
 31
0.0
  0
LINE
  5
3C3
100
AcDbEntity
  8
図
  6
CONTINUOUS
 62
     2
100
AcDbLine
 10
442.565872
 20
389.651067
 30
0.0
 11
442.277192
 21
389.151056
 31
0.0
  0
LINE
  5
3C4
100
AcDbEntity
  8
図
  6
CONTINUOUS
 62
     2
100
AcDbLine
 10
442.565342
 20
389.65111
 30
0.0
 11
441.565472
 21
392.651106
 31
0.0
  0
LINE
  5
3C5
100
AcDbEntity
  8
図
  6
CONTINUOUS
 62
     2
100
AcDbLine
 10
441.565682
 20
392.651165
 30
0.0
 11
442.921702
 21
392.651165
 31
0.0
  0
LINE
  5
3C6
100
AcDbEntity
  8
図
  6
CONTINUOUS
 62
     2
100
AcDbLine
 10
440.988642
 20
392.651145
 30
0.0
 11
441.277302
 21
393.151128
 31
0.0
  0
LINE
  5
3C7
100
AcDbEntity
  8
図
  6
CONTINUOUS
 62
     2
100
AcDbLine
 10
441.277342
 20
393.151293
 30
0.0
 11
441.566022
 21
392.651289
 31
0.0
  0
LINE
  5
3C8
100
AcDbEntity
  8
図
  6
CONTINUOUS
 62
     2
100
AcDbLine
 10
440.989172
 20
392.651459
 30
0.0
 11
441.989022
 21
389.651442
 31
0.0
  0
LINE
  5
3C9
100
AcDbEntity
  8
図
  6
CONTINUOUS
 62
     2
100
AcDbLine
 10
439.632392
 20
392.651165
 30
0.0
 11
440.988352
 21
392.651165
 31
0.0
  0
LINE
  5
3CA
100
AcDbEntity
  8
図
  6
CONTINUOUS
 62
     2
100
AcDbLine
 10
439.344062
 20
393.151303
 30
0.0
 11
439.632732
 21
392.651306
 31
0.0
  0
LINE
  5
3CB
100
AcDbEntity
  8
図
  6
CONTINUOUS
 62
     2
100
AcDbLine
 10
439.055212
 20
392.651171
 30
0.0
 11
439.343912
 21
393.151207
 31
0.0
  0
LINE
  5
3CC
100
AcDbEntity
  8
図
  6
CONTINUOUS
 62
     2
100
AcDbLine
 10
437.699042
 20
392.651165
 30
0.0
 11
439.055002
 21
392.651165
 31
0.0
  0
LINE
  5
3CD
100
AcDbEntity
  8
図
  6
CONTINUOUS
 62
     2
100
AcDbLine
 10
440.631922
 20
389.651149
 30
0.0
 11
439.632052
 21
392.651145
 31
0.0
  0
LINE
  5
3CE
100
AcDbEntity
  8
図
  6
CONTINUOUS
 62
     2
100
AcDbLine
 10
440.632532
 20
389.650941
 30
0.0
 11
440.343862
 21
389.150957
 31
0.0
  0
LINE
  5
3CF
100
AcDbEntity
  8
図
  6
CONTINUOUS
 62
     2
100
AcDbLine
 10
440.343632
 20
389.151245
 30
0.0
 11
440.054952
 21
389.651248
 31
0.0
  0
LINE
  5
3D0
100
AcDbEntity
  8
図
  6
CONTINUOUS
 62
     2
100
AcDbLine
 10
439.055932
 20
392.651462
 30
0.0
 11
440.055772
 21
389.651467
 31
0.0
  0
LINE
  5
3D1
100
AcDbEntity
  8
図
  6
EXLTYPE1
 62
     2
100
AcDbLine
 10
432.544442
 20
386.801171
 30
0.0
 11
432.544442
 21
395.501168
 31
0.0
  0
LINE
  5
3D2
100
AcDbEntity
  8
図
  6
CONTINUOUS
 62
     2
100
AcDbLine
 10
438.410752
 20
389.151165
 30
0.0
 11
437.410892
 21
393.151171
 31
0.0
  0
LINE
  5
3D3
100
AcDbEntity
  8
図
  6
CONTINUOUS
 62
     2
100
AcDbLine
 10
460.966592
 20
390.511175
 30
0.0
 11
460.888012
 21
390.647291
 31
0.0
  0
LINE
  5
3D4
100
AcDbEntity
  8
図
  6
CONTINUOUS
 62
     2
100
AcDbLine
 10
459.389282
 20
389.871025
 30
0.0
 11
459.232122
 21
390.143243
 31
0.0
  0
LINE
  5
3D5
100
AcDbEntity
  8
図
  6
CONTINUOUS
 62
     2
100
AcDbLine
 10
446.143732
 20
389.151315
 30
0.0
 11
445.855062
 21
389.651309
 31
0.0
  0
LINE
  5
3D6
100
AcDbEntity
  8
図
  6
CONTINUOUS
 62
     2
100
AcDbLine
 10
446.432032
 20
389.651088
 30
0.0
 11
445.432162
 21
392.651081
 31
0.0
  0
LINE
  5
3D7
100
AcDbEntity
  8
図
  6
CONTINUOUS
 62
     2
100
AcDbLine
 10
444.855942
 20
392.651501
 30
0.0
 11
445.855792
 21
389.651498
 31
0.0
  0
LINE
  5
3D8
100
AcDbEntity
  8
図
  6
CONTINUOUS
 62
     2
100
AcDbLine
 10
446.143662
 20
389.151168
 30
0.0
 11
445.143802
 21
393.151174
 31
0.0
  0
LINE
  5
3D9
100
AcDbEntity
  8
図
  6
CONTINUOUS
 62
     2
100
AcDbLine
 10
446.432532
 20
389.651131
 30
0.0
 11
446.143842
 21
389.151095
 31
0.0
  0
LINE
  5
3DA
100
AcDbEntity
  8
図
  6
CONTINUOUS
 62
     2
100
AcDbLine
 10
448.077042
 20
389.151286
 30
0.0
 11
447.788362
 21
389.651296
 31
0.0
  0
LINE
  5
3DB
100
AcDbEntity
  8
図
  6
CONTINUOUS
 62
     2
100
AcDbLine
 10
448.365322
 20
389.651136
 30
0.0
 11
447.365452
 21
392.651123
 31
0.0
  0
LINE
  5
3DC
100
AcDbEntity
  8
図
  6
CONTINUOUS
 62
     2
100
AcDbLine
 10
446.789202
 20
392.651494
 30
0.0
 11
447.789052
 21
389.651478
 31
0.0
  0
LINE
  5
3DD
100
AcDbEntity
  8
図
  6
CONTINUOUS
 62
     2
100
AcDbLine
 10
446.788532
 20
392.651038
 30
0.0
 11
447.077222
 21
393.151062
 31
0.0
  0
LINE
  5
3DE
100
AcDbEntity
  8
図
  6
CONTINUOUS
 62
     2
100
AcDbLine
 10
447.077322
 20
393.151284
 30
0.0
 11
447.365992
 21
392.651287
 31
0.0
  0
LINE
  5
3DF
100
AcDbEntity
  8
図
  6
CONTINUOUS
 62
     2
100
AcDbLine
 10
447.365732
 20
392.651165
 30
0.0
 11
448.721692
 21
392.651165
 31
0.0
  0
LINE
  5
3E0
100
AcDbEntity
  8
図
  6
CONTINUOUS
 62
     2
100
AcDbLine
 10
449.010692
 20
393.151304
 30
0.0
 11
449.299372
 21
392.651307
 31
0.0
  0
LINE
  5
3E1
100
AcDbEntity
  8
図
  6
CONTINUOUS
 62
     2
100
AcDbLine
 10
448.721952
 20
392.651081
 30
0.0
 11
449.010612
 21
393.151065
 31
0.0
  0
LINE
  5
3E2
100
AcDbEntity
  8
図
  6
CONTINUOUS
 62
     2
100
AcDbLine
 10
450.298702
 20
389.651112
 30
0.0
 11
449.298832
 21
392.651122
 31
0.0
  0
LINE
  5
3E3
100
AcDbEntity
  8
図
  6
CONTINUOUS
 62
     2
100
AcDbLine
 10
448.722702
 20
392.651485
 30
0.0
 11
449.722552
 21
389.651476
 31
0.0
  0
LINE
  5
3E4
100
AcDbEntity
  8
図
  6
CONTINUOUS
 62
     2
100
AcDbLine
 10
448.365872
 20
389.650981
 30
0.0
 11
448.077202
 21
389.150997
 31
0.0
  0
LINE
  5
3E5
100
AcDbEntity
  8
図
  6
CONTINUOUS
 62
     2
100
AcDbLine
 10
448.365612
 20
389.651165
 30
0.0
 11
449.721562
 21
389.651165
 31
0.0
  0
LINE
  5
3E6
100
AcDbEntity
  8
図
  6
CONTINUOUS
 62
     2
100
AcDbLine
 10
450.010342
 20
389.151318
 30
0.0
 11
449.721672
 21
389.651315
 31
0.0
  0
LINE
  5
3E7
100
AcDbEntity
  8
図
  6
CONTINUOUS
 62
     2
100
AcDbLine
 10
450.299192
 20
389.65105
 30
0.0
 11
450.010522
 21
389.151066
 31
0.0
  0
LINE
  5
3E8
100
AcDbEntity
  8
図
  6
CONTINUOUS
 62
     2
100
AcDbLine
 10
452.232252
 20
389.651165
 30
0.0
 11
453.588202
 21
389.651165
 31
0.0
  0
LINE
  5
3E9
100
AcDbEntity
  8
図
  6
CONTINUOUS
 62
     2
100
AcDbLine
 10
451.943652
 20
389.151268
 30
0.0
 11
451.654982
 21
389.651272
 31
0.0
  0
LINE
  5
3EA
100
AcDbEntity
  8
図
  6
CONTINUOUS
 62
     2
100
AcDbLine
 10
452.232592
 20
389.651005
 30
0.0
 11
451.943922
 21
389.151021
 31
0.0
  0
LINE
  5
3EB
100
AcDbEntity
  8
図
  6
CONTINUOUS
 62
     2
100
AcDbLine
 10
452.231922
 20
389.651084
 30
0.0
 11
451.232052
 21
392.651081
 31
0.0
  0
LINE
  5
3EC
100
AcDbEntity
  8
図
  6
CONTINUOUS
 62
     2
100
AcDbLine
 10
449.299022
 20
392.651165
 30
0.0
 11
450.655042
 21
392.651165
 31
0.0
  0
LINE
  5
3ED
100
AcDbEntity
  8
図
  6
CONTINUOUS
 62
     2
100
AcDbLine
 10
450.655942
 20
392.651479
 30
0.0
 11
451.655792
 21
389.65147
 31
0.0
  0
LINE
  5
3EE
100
AcDbEntity
  8
図
  6
CONTINUOUS
 62
     2
100
AcDbLine
 10
450.655222
 20
392.651092
 30
0.0
 11
450.943902
 21
393.151102
 31
0.0
  0
LINE
  5
3EF
100
AcDbEntity
  8
図
  6
CONTINUOUS
 62
     2
100
AcDbLine
 10
450.944022
 20
393.151314
 30
0.0
 11
451.232692
 21
392.651317
 31
0.0
  0
LINE
  5
3F0
100
AcDbEntity
  8
図
  6
CONTINUOUS
 62
     2
100
AcDbLine
 10
451.232372
 20
392.651165
 30
0.0
 11
452.588392
 21
392.651165
 31
0.0
  0
LINE
  5
3F1
100
AcDbEntity
  8
図
  6
CONTINUOUS
 62
     2
100
AcDbLine
 10
452.877322
 20
393.151291
 30
0.0
 11
453.165992
 21
392.651294
 31
0.0
  0
LINE
  5
3F2
100
AcDbEntity
  8
図
  6
CONTINUOUS
 62
     2
100
AcDbLine
 10
452.588612
 20
392.651109
 30
0.0
 11
452.877282
 21
393.151093
 31
0.0
  0
LINE
  5
3F3
100
AcDbEntity
  8
図
  6
CONTINUOUS
 62
     2
100
AcDbLine
 10
452.589202
 20
392.651476
 30
0.0
 11
453.589052
 21
389.651472
 31
0.0
  0
LINE
  5
3F4
100
AcDbEntity
  8
図
  6
CONTINUOUS
 62
     2
100
AcDbLine
 10
454.165252
 20
389.651116
 30
0.0
 11
453.165392
 21
392.651111
 31
0.0
  0
LINE
  5
3F5
100
AcDbEntity
  8
図
  6
CONTINUOUS
 62
     2
100
AcDbLine
 10
453.876832
 20
389.151164
 30
0.0
 11
452.876972
 21
393.151155
 31
0.0
  0
LINE
  5
3F6
100
AcDbEntity
  8
図
  6
CONTINUOUS
 62
     2
100
AcDbLine
 10
454.165912
 20
389.651019
 30
0.0
 11
453.877232
 21
389.151008
 31
0.0
  0
LINE
  5
3F7
100
AcDbEntity
  8
図
  6
CONTINUOUS
 62
     2
100
AcDbLine
 10
454.165602
 20
389.651165
 30
0.0
 11
455.521552
 21
389.651165
 31
0.0
  0
LINE
  5
3F8
100
AcDbEntity
  8
図
  6
CONTINUOUS
 62
     2
100
AcDbLine
 10
456.099302
 20
389.650954
 30
0.0
 11
455.810632
 21
389.15097
 31
0.0
  0
LINE
  5
3F9
100
AcDbEntity
  8
図
  6
CONTINUOUS
 62
     2
100
AcDbLine
 10
456.098652
 20
389.651038
 30
0.0
 11
455.098782
 21
392.651041
 31
0.0
  0
LINE
  5
3FA
100
AcDbEntity
  8
図
  6
CONTINUOUS
 62
     2
100
AcDbLine
 10
454.522762
 20
392.651536
 30
0.0
 11
455.522612
 21
389.651527
 31
0.0
  0
LINE
  5
3FB
100
AcDbEntity
  8
図
  6
CONTINUOUS
 62
     2
100
AcDbLine
 10
454.521832
 20
392.651006
 30
0.0
 11
454.810522
 21
393.151016
 31
0.0
  0
LINE
  5
3FC
100
AcDbEntity
  8
図
  6
CONTINUOUS
 62
     2
100
AcDbLine
 10
453.165722
 20
392.651165
 30
0.0
 11
454.521672
 21
392.651165
 31
0.0
  0
LINE
  5
3FD
100
AcDbEntity
  8
図
  6
CONTINUOUS
 62
     2
100
AcDbLine
 10
455.810072
 20
389.151154
 30
0.0
 11
454.810212
 21
393.151152
 31
0.0
  0
LINE
  5
3FE
100
AcDbEntity
  8
図
  6
CONTINUOUS
 62
     2
100
AcDbLine
 10
454.810792
 20
393.151354
 30
0.0
 11
455.099462
 21
392.651357
 31
0.0
  0
LINE
  5
3FF
100
AcDbEntity
  8
図
  6
CONTINUOUS
 62
     2
100
AcDbLine
 10
458.484592
 20
392.3867
 30
0.0
 11
458.677242
 21
392.720393
 31
0.0
  0
LINE
  5
400
100
AcDbEntity
  8
図
  6
CONTINUOUS
 62
     2
100
AcDbLine
 10
456.455162
 20
392.651027
 30
0.0
 11
456.743862
 21
393.151064
 31
0.0
  0
LINE
  5
401
100
AcDbEntity
  8
図
  6
CONTINUOUS
 62
     2
100
AcDbLine
 10
456.455942
 20
392.651458
 30
0.0
 11
457.455802
 21
389.651438
 31
0.0
  0
LINE
  5
402
100
AcDbEntity
  8
図
  6
CONTINUOUS
 62
     2
100
AcDbLine
 10
455.099072
 20
392.651165
 30
0.0
 11
456.455022
 21
392.651165
 31
0.0
  0
LINE
  5
403
100
AcDbEntity
  8
図
  6
CONTINUOUS
 62
     2
100
AcDbLine
 10
457.032362
 20
392.651165
 30
0.0
 11
457.615792
 21
392.651165
 31
0.0
  0
LINE
  5
404
100
AcDbEntity
  8
図
  6
CONTINUOUS
 62
     2
100
AcDbLine
 10
456.744042
 20
393.151294
 30
0.0
 11
457.032712
 21
392.651297
 31
0.0
  0
LINE
  5
405
100
AcDbEntity
  8
図
  6
CONTINUOUS
 62
     2
100
AcDbLine
 10
458.677372
 20
392.720626
 30
0.0
 11
458.966052
 21
392.220622
 31
0.0
  0
LINE
  5
406
100
AcDbEntity
  8
図
  6
EXLTYPE1
 62
     2
100
AcDbLine
 10
430.044472
 20
409.751175
 30
0.0
 11
431.244482
 21
409.751175
 31
0.0
  0
LINE
  5
407
100
AcDbEntity
  8
図
  6
EXLTYPE1
 62
     2
100
AcDbLine
 10
431.244452
 20
405.151169
 30
0.0
 11
431.244452
 21
413.151169
 31
0.0
  0
LINE
  5
408
100
AcDbEntity
  8
図
  6
EXLTYPE1
 62
     2
100
AcDbLine
 10
431.244452
 20
413.151169
 30
0.0
 11
432.544472
 21
413.151169
 31
0.0
  0
LINE
  5
409
100
AcDbEntity
  8
図
  6
EXLTYPE1
 62
     2
100
AcDbLine
 10
430.044522
 20
411.950986
 30
0.0
 11
431.244532
 21
413.150993
 31
0.0
  0
LINE
  5
40A
100
AcDbEntity
  8
図
  6
EXLTYPE1
 62
     2
100
AcDbLine
 10
430.044472
 20
408.551163
 30
0.0
 11
431.244482
 21
408.551163
 31
0.0
  0
LINE
  5
40B
100
AcDbEntity
  8
図
  6
EXLTYPE1
 62
     2
100
AcDbLine
 10
430.045012
 20
406.35177
 30
0.0
 11
431.245022
 21
405.151762
 31
0.0
  0
LINE
  5
40C
100
AcDbEntity
  8
図
  6
EXLTYPE1
 62
     2
100
AcDbLine
 10
431.244452
 20
405.151169
 30
0.0
 11
432.544472
 21
405.151169
 31
0.0
  0
LINE
  5
40D
100
AcDbEntity
  8
図
  6
CONTINUOUS
 62
     2
100
AcDbLine
 10
438.698952
 20
407.651165
 30
0.0
 11
440.054912
 21
407.651165
 31
0.0
  0
LINE
  5
40E
100
AcDbEntity
  8
図
  6
CONTINUOUS
 62
     2
100
AcDbLine
 10
440.343542
 20
407.151151
 30
0.0
 11
439.343682
 21
411.151142
 31
0.0
  0
LINE
  5
40F
100
AcDbEntity
  8
図
  6
CONTINUOUS
 62
     2
100
AcDbLine
 10
440.632302
 20
407.651165
 30
0.0
 11
441.988262
 21
407.651165
 31
0.0
  0
LINE
  5
410
100
AcDbEntity
  8
図
  6
CONTINUOUS
 62
     2
100
AcDbLine
 10
442.276742
 20
407.151164
 30
0.0
 11
441.276882
 21
411.15117
 31
0.0
  0
LINE
  5
411
100
AcDbEntity
  8
図
  6
CONTINUOUS
 62
     2
100
AcDbLine
 10
442.565592
 20
407.651165
 30
0.0
 11
443.921552
 21
407.651165
 31
0.0
  0
LINE
  5
412
100
AcDbEntity
  8
図
  6
CONTINUOUS
 62
     2
100
AcDbLine
 10
444.210222
 20
407.151162
 30
0.0
 11
443.210362
 21
411.151153
 31
0.0
  0
LINE
  5
413
100
AcDbEntity
  8
図
  6
CONTINUOUS
 62
     2
100
AcDbLine
 10
444.499242
 20
407.651018
 30
0.0
 11
444.210562
 21
407.151008
 31
0.0
  0
LINE
  5
414
100
AcDbEntity
  8
図
  6
CONTINUOUS
 62
     2
100
AcDbLine
 10
444.498942
 20
407.651165
 30
0.0
 11
445.854902
 21
407.651165
 31
0.0
  0
LINE
  5
415
100
AcDbEntity
  8
図
  6
CONTINUOUS
 62
     2
100
AcDbLine
 10
446.432292
 20
407.651165
 30
0.0
 11
447.788252
 21
407.651165
 31
0.0
  0
LINE
  5
416
100
AcDbEntity
  8
図
  6
CONTINUOUS
 62
     2
100
AcDbLine
 10
448.076932
 20
407.151177
 30
0.0
 11
447.077072
 21
411.151182
 31
0.0
  0
LINE
  5
417
100
AcDbEntity
  8
図
  6
CONTINUOUS
 62
     2
100
AcDbLine
 10
450.010302
 20
407.15122
 30
0.0
 11
449.010442
 21
411.151225
 31
0.0
  0
LINE
  5
418
100
AcDbEntity
  8
図
  6
CONTINUOUS
 62
     2
100
AcDbLine
 10
450.298932
 20
407.651165
 30
0.0
 11
451.654882
 21
407.651165
 31
0.0
  0
LINE
  5
419
100
AcDbEntity
  8
図
  6
CONTINUOUS
 62
     2
100
AcDbLine
 10
451.943552
 20
407.151181
 30
0.0
 11
450.943692
 21
411.151186
 31
0.0
  0
LINE
  5
41A
100
AcDbEntity
  8
図
  6
CONTINUOUS
 62
     2
100
AcDbLine
 10
453.877012
 20
407.151356
 30
0.0
 11
453.588332
 21
407.651353
 31
0.0
  0
LINE
  5
41B
100
AcDbEntity
  8
図
  6
CONTINUOUS
 62
     2
100
AcDbLine
 10
455.810322
 20
407.151269
 30
0.0
 11
455.521642
 21
407.651279
 31
0.0
  0
LINE
  5
41C
100
AcDbEntity
  8
図
  6
CONTINUOUS
 62
     2
100
AcDbLine
 10
456.098982
 20
407.651165
 30
0.0
 11
457.454932
 21
407.651165
 31
0.0
  0
LINE
  5
41D
100
AcDbEntity
  8
図
  6
CONTINUOUS
 62
     2
100
AcDbLine
 10
457.743532
 20
407.151146
 30
0.0
 11
456.743672
 21
411.151166
 31
0.0
  0
LINE
  5
41E
100
AcDbEntity
  8
図
  6
CONTINUOUS
 62
     2
100
AcDbLine
 10
457.743732
 20
407.151294
 30
0.0
 11
457.455062
 21
407.651291
 31
0.0
  0
LINE
  5
41F
100
AcDbEntity
  8
図
  6
CONTINUOUS
 62
     2
100
AcDbLine
 10
458.032642
 20
407.650924
 30
0.0
 11
457.743972
 21
407.150941
 31
0.0
  0
LINE
  5
420
100
AcDbEntity
  8
図
  6
CONTINUOUS
 62
     2
100
AcDbLine
 10
457.615882
 20
407.65105
 30
0.0
 11
459.232212
 21
408.143044
 31
0.0
  0
LINE
  5
421
100
AcDbEntity
  8
図
  6
CONTINUOUS
 62
     2
100
AcDbLine
 10
458.031902
 20
407.651096
 30
0.0
 11
457.032032
 21
410.651091
 31
0.0
  0
LINE
  5
422
100
AcDbEntity
  8
図
  6
CONTINUOUS
 62
     2
100
AcDbLine
 10
458.484682
 20
410.38689
 30
0.0
 11
459.232432
 21
408.143277
 31
0.0
  0
LINE
  5
423
100
AcDbEntity
  8
図
  6
CONTINUOUS
 62
     2
100
AcDbLine
 10
459.613852
 20
408.259092
 30
0.0
 11
459.389662
 21
407.870771
 31
0.0
  0
LINE
  5
424
100
AcDbEntity
  8
図
  6
CONTINUOUS
 62
     2
100
AcDbLine
 10
459.389202
 20
407.870955
 30
0.0
 11
458.676922
 21
410.720483
 31
0.0
  0
LINE
  5
425
100
AcDbEntity
  8
図
  6
CONTINUOUS
 62
     2
100
AcDbLine
 10
458.950942
 20
410.244261
 30
0.0
 11
459.612572
 21
408.258997
 31
0.0
  0
LINE
  5
426
100
AcDbEntity
  8
図
  6
CONTINUOUS
 62
     2
100
AcDbLine
 10
459.613552
 20
408.259122
 30
0.0
 11
460.888002
 21
408.647052
 31
0.0
  0
LINE
  5
427
100
AcDbEntity
  8
図
  6
CONTINUOUS
 62
     2
100
AcDbLine
 10
461.079022
 20
408.70507
 30
0.0
 11
460.966932
 21
408.510923
 31
0.0
  0
LINE
  5
428
100
AcDbEntity
  8
図
  6
CONTINUOUS
 62
     2
100
AcDbLine
 10
460.888922
 20
408.647521
 30
0.0
 11
460.515062
 21
409.769336
 31
0.0
  0
LINE
  5
429
100
AcDbEntity
  8
図
  6
CONTINUOUS
 62
     2
100
AcDbLine
 10
460.966742
 20
408.511031
 30
0.0
 11
460.610602
 21
409.935806
 31
0.0
  0
LINE
  5
42A
100
AcDbEntity
  8
図
  6
CONTINUOUS
 62
     2
100
AcDbLine
 10
460.747842
 20
409.697802
 30
0.0
 11
461.078642
 21
408.70516
 31
0.0
  0
LINE
  5
42B
100
AcDbEntity
  8
図
  6
CONTINUOUS
 62
     2
100
AcDbLine
 10
460.747552
 20
409.69731
 30
0.0
 11
462.543452
 21
409.150655
 31
0.0
  0
LINE
  5
42C
100
AcDbEntity
  8
図
  6
CONTINUOUS
 62
     2
100
AcDbLine
 10
461.078652
 20
408.705082
 30
0.0
 11
462.543772
 21
409.151051
 31
0.0
  0
LINE
  5
42D
100
AcDbEntity
  8
図
  6
CONTINUOUS
 62
     2
100
AcDbLine
 10
460.610722
 20
409.93596
 30
0.0
 11
460.748132
 21
409.697954
 31
0.0
  0
LINE
  5
42E
100
AcDbEntity
  8
図
  6
CONTINUOUS
 62
     2
100
AcDbLine
 10
458.951592
 20
410.243983
 30
0.0
 11
460.513822
 21
409.768457
 31
0.0
  0
LINE
  5
42F
100
AcDbEntity
  8
図
  6
CONTINUOUS
 62
     2
100
AcDbLine
 10
457.615572
 20
410.650656
 30
0.0
 11
458.484122
 21
410.386277
 31
0.0
  0
LINE
  5
430
100
AcDbEntity
  8
図
  6
CONTINUOUS
 62
     2
100
AcDbLine
 10
458.677392
 20
410.720622
 30
0.0
 11
458.966072
 21
410.220618
 31
0.0
  0
LINE
  5
431
100
AcDbEntity
  8
図
  6
CONTINUOUS
 62
     2
100
AcDbLine
 10
456.744062
 20
411.151286
 30
0.0
 11
457.032732
 21
410.651289
 31
0.0
  0
LINE
  5
432
100
AcDbEntity
  8
図
  6
CONTINUOUS
 62
     2
100
AcDbLine
 10
457.032392
 20
410.651165
 30
0.0
 11
457.615822
 21
410.651165
 31
0.0
  0
LINE
  5
433
100
AcDbEntity
  8
図
  6
CONTINUOUS
 62
     2
100
AcDbLine
 10
455.099102
 20
410.651165
 30
0.0
 11
456.455052
 21
410.651165
 31
0.0
  0
LINE
  5
434
100
AcDbEntity
  8
図
  6
CONTINUOUS
 62
     2
100
AcDbLine
 10
456.455992
 20
410.651462
 30
0.0
 11
457.455842
 21
407.651444
 31
0.0
  0
LINE
  5
435
100
AcDbEntity
  8
図
  6
CONTINUOUS
 62
     2
100
AcDbLine
 10
456.455182
 20
410.651031
 30
0.0
 11
456.743882
 21
411.151068
 31
0.0
  0
LINE
  5
436
100
AcDbEntity
  8
図
  6
CONTINUOUS
 62
     2
100
AcDbLine
 10
458.484622
 20
410.386696
 30
0.0
 11
458.677282
 21
410.720389
 31
0.0
  0
LINE
  5
437
100
AcDbEntity
  8
図
  6
CONTINUOUS
 62
     2
100
AcDbLine
 10
454.810812
 20
411.151346
 30
0.0
 11
455.099482
 21
410.651349
 31
0.0
  0
LINE
  5
438
100
AcDbEntity
  8
図
  6
CONTINUOUS
 62
     2
100
AcDbLine
 10
455.810102
 20
407.151155
 30
0.0
 11
454.810242
 21
411.151153
 31
0.0
  0
LINE
  5
439
100
AcDbEntity
  8
図
  6
CONTINUOUS
 62
     2
100
AcDbLine
 10
453.165752
 20
410.651165
 30
0.0
 11
454.521702
 21
410.651165
 31
0.0
  0
LINE
  5
43A
100
AcDbEntity
  8
図
  6
CONTINUOUS
 62
     2
100
AcDbLine
 10
454.521862
 20
410.65101
 30
0.0
 11
454.810542
 21
411.15102
 31
0.0
  0
LINE
  5
43B
100
AcDbEntity
  8
図
  6
CONTINUOUS
 62
     2
100
AcDbLine
 10
454.522802
 20
410.651541
 30
0.0
 11
455.522652
 21
407.651532
 31
0.0
  0
LINE
  5
43C
100
AcDbEntity
  8
図
  6
CONTINUOUS
 62
     2
100
AcDbLine
 10
456.098692
 20
407.651041
 30
0.0
 11
455.098812
 21
410.651044
 31
0.0
  0
LINE
  5
43D
100
AcDbEntity
  8
図
  6
CONTINUOUS
 62
     2
100
AcDbLine
 10
456.099332
 20
407.65095
 30
0.0
 11
455.810672
 21
407.150966
 31
0.0
  0
LINE
  5
43E
100
AcDbEntity
  8
図
  6
CONTINUOUS
 62
     2
100
AcDbLine
 10
454.165632
 20
407.651165
 30
0.0
 11
455.521582
 21
407.651165
 31
0.0
  0
LINE
  5
43F
100
AcDbEntity
  8
図
  6
CONTINUOUS
 62
     2
100
AcDbLine
 10
454.165952
 20
407.651015
 30
0.0
 11
453.877272
 21
407.151005
 31
0.0
  0
LINE
  5
440
100
AcDbEntity
  8
図
  6
CONTINUOUS
 62
     2
100
AcDbLine
 10
453.876862
 20
407.151164
 30
0.0
 11
452.877002
 21
411.151155
 31
0.0
  0
LINE
  5
441
100
AcDbEntity
  8
図
  6
CONTINUOUS
 62
     2
100
AcDbLine
 10
454.165292
 20
407.651119
 30
0.0
 11
453.165422
 21
410.651113
 31
0.0
  0
LINE
  5
442
100
AcDbEntity
  8
図
  6
CONTINUOUS
 62
     2
100
AcDbLine
 10
452.589242
 20
410.651481
 30
0.0
 11
453.589092
 21
407.651477
 31
0.0
  0
LINE
  5
443
100
AcDbEntity
  8
図
  6
CONTINUOUS
 62
     2
100
AcDbLine
 10
452.588632
 20
410.651113
 30
0.0
 11
452.877302
 21
411.151096
 31
0.0
  0
LINE
  5
444
100
AcDbEntity
  8
図
  6
CONTINUOUS
 62
     2
100
AcDbLine
 10
452.877342
 20
411.151283
 30
0.0
 11
453.166012
 21
410.651286
 31
0.0
  0
LINE
  5
445
100
AcDbEntity
  8
図
  6
CONTINUOUS
 62
     2
100
AcDbLine
 10
451.232402
 20
410.651165
 30
0.0
 11
452.588422
 21
410.651165
 31
0.0
  0
LINE
  5
446
100
AcDbEntity
  8
図
  6
CONTINUOUS
 62
     2
100
AcDbLine
 10
450.944042
 20
411.151306
 30
0.0
 11
451.232722
 21
410.651309
 31
0.0
  0
LINE
  5
447
100
AcDbEntity
  8
図
  6
CONTINUOUS
 62
     2
100
AcDbLine
 10
450.655242
 20
410.651092
 30
0.0
 11
450.943922
 21
411.151102
 31
0.0
  0
LINE
  5
448
100
AcDbEntity
  8
図
  6
CONTINUOUS
 62
     2
100
AcDbLine
 10
450.655992
 20
410.651484
 30
0.0
 11
451.655842
 21
407.651475
 31
0.0
  0
LINE
  5
449
100
AcDbEntity
  8
図
  6
CONTINUOUS
 62
     2
100
AcDbLine
 10
449.299052
 20
410.651165
 30
0.0
 11
450.655072
 21
410.651165
 31
0.0
  0
LINE
  5
44A
100
AcDbEntity
  8
図
  6
CONTINUOUS
 62
     2
100
AcDbLine
 10
452.231962
 20
407.651087
 30
0.0
 11
451.232092
 21
410.651082
 31
0.0
  0
LINE
  5
44B
100
AcDbEntity
  8
図
  6
CONTINUOUS
 62
     2
100
AcDbLine
 10
452.232622
 20
407.651005
 30
0.0
 11
451.943952
 21
407.151021
 31
0.0
  0
LINE
  5
44C
100
AcDbEntity
  8
図
  6
CONTINUOUS
 62
     2
100
AcDbLine
 10
451.943682
 20
407.151261
 30
0.0
 11
451.655002
 21
407.651264
 31
0.0
  0
LINE
  5
44D
100
AcDbEntity
  8
図
  6
CONTINUOUS
 62
     2
100
AcDbLine
 10
452.232282
 20
407.651165
 30
0.0
 11
453.588232
 21
407.651165
 31
0.0
  0
LINE
  5
44E
100
AcDbEntity
  8
図
  6
CONTINUOUS
 62
     2
100
AcDbLine
 10
450.299222
 20
407.65105
 30
0.0
 11
450.010552
 21
407.151066
 31
0.0
  0
LINE
  5
44F
100
AcDbEntity
  8
図
  6
CONTINUOUS
 62
     2
100
AcDbLine
 10
450.010372
 20
407.15131
 30
0.0
 11
449.721692
 21
407.651307
 31
0.0
  0
LINE
  5
450
100
AcDbEntity
  8
図
  6
CONTINUOUS
 62
     2
100
AcDbLine
 10
448.365642
 20
407.651165
 30
0.0
 11
449.721592
 21
407.651165
 31
0.0
  0
LINE
  5
451
100
AcDbEntity
  8
図
  6
CONTINUOUS
 62
     2
100
AcDbLine
 10
448.365902
 20
407.650981
 30
0.0
 11
448.077232
 21
407.150997
 31
0.0
  0
LINE
  5
452
100
AcDbEntity
  8
図
  6
CONTINUOUS
 62
     2
100
AcDbLine
 10
448.722742
 20
410.65149
 30
0.0
 11
449.722592
 21
407.65148
 31
0.0
  0
LINE
  5
453
100
AcDbEntity
  8
図
  6
CONTINUOUS
 62
     2
100
AcDbLine
 10
450.298742
 20
407.651113
 30
0.0
 11
449.298862
 21
410.651124
 31
0.0
  0
LINE
  5
454
100
AcDbEntity
  8
図
  6
CONTINUOUS
 62
     2
100
AcDbLine
 10
448.721972
 20
410.651085
 30
0.0
 11
449.010632
 21
411.151069
 31
0.0
  0
LINE
  5
455
100
AcDbEntity
  8
図
  6
CONTINUOUS
 62
     2
100
AcDbLine
 10
449.010712
 20
411.151296
 30
0.0
 11
449.299392
 21
410.651299
 31
0.0
  0
LINE
  5
456
100
AcDbEntity
  8
図
  6
CONTINUOUS
 62
     2
100
AcDbLine
 10
447.365762
 20
410.651165
 30
0.0
 11
448.721722
 21
410.651165
 31
0.0
  0
LINE
  5
457
100
AcDbEntity
  8
図
  6
CONTINUOUS
 62
     2
100
AcDbLine
 10
447.077342
 20
411.151277
 30
0.0
 11
447.366012
 21
410.65128
 31
0.0
  0
LINE
  5
458
100
AcDbEntity
  8
図
  6
CONTINUOUS
 62
     2
100
AcDbLine
 10
446.788562
 20
410.651042
 30
0.0
 11
447.077242
 21
411.151065
 31
0.0
  0
LINE
  5
459
100
AcDbEntity
  8
図
  6
CONTINUOUS
 62
     2
100
AcDbLine
 10
446.789242
 20
410.651499
 30
0.0
 11
447.789102
 21
407.651482
 31
0.0
  0
LINE
  5
45A
100
AcDbEntity
  8
図
  6
CONTINUOUS
 62
     2
100
AcDbLine
 10
448.365352
 20
407.651137
 30
0.0
 11
447.365492
 21
410.651125
 31
0.0
  0
LINE
  5
45B
100
AcDbEntity
  8
図
  6
CONTINUOUS
 62
     2
100
AcDbLine
 10
448.077072
 20
407.151279
 30
0.0
 11
447.788392
 21
407.651289
 31
0.0
  0
LINE
  5
45C
100
AcDbEntity
  8
図
  6
CONTINUOUS
 62
     2
100
AcDbLine
 10
446.432562
 20
407.651135
 30
0.0
 11
446.143862
 21
407.151099
 31
0.0
  0
LINE
  5
45D
100
AcDbEntity
  8
図
  6
CONTINUOUS
 62
     2
100
AcDbLine
 10
446.143692
 20
407.151168
 30
0.0
 11
445.143832
 21
411.151173
 31
0.0
  0
LINE
  5
45E
100
AcDbEntity
  8
図
  6
CONTINUOUS
 62
     2
100
AcDbLine
 10
444.855982
 20
410.651506
 30
0.0
 11
445.855832
 21
407.651504
 31
0.0
  0
LINE
  5
45F
100
AcDbEntity
  8
図
  6
CONTINUOUS
 62
     2
100
AcDbLine
 10
446.432062
 20
407.651088
 30
0.0
 11
445.432192
 21
410.651083
 31
0.0
  0
LINE
  5
460
100
AcDbEntity
  8
図
  6
CONTINUOUS
 62
     2
100
AcDbLine
 10
446.143752
 20
407.151307
 30
0.0
 11
445.855082
 21
407.651304
 31
0.0
  0
LINE
  5
461
100
AcDbEntity
  8
図
  6
CONTINUOUS
 62
     2
100
AcDbLine
 10
459.389302
 20
407.871021
 30
0.0
 11
459.232142
 21
408.143239
 31
0.0
  0
LINE
  5
462
100
AcDbEntity
  8
図
  6
CONTINUOUS
 62
     2
100
AcDbLine
 10
460.966622
 20
408.511168
 30
0.0
 11
460.888032
 21
408.647284
 31
0.0
  0
LINE
  5
463
100
AcDbEntity
  8
図
  6
CONTINUOUS
 62
     2
100
AcDbLine
 10
438.410782
 20
407.151165
 30
0.0
 11
437.410922
 21
411.151171
 31
0.0
  0
LINE
  5
464
100
AcDbEntity
  8
図
  6
CONTINUOUS
 62
     2
100
AcDbLine
 10
439.055972
 20
410.651466
 30
0.0
 11
440.055822
 21
407.651471
 31
0.0
  0
LINE
  5
465
100
AcDbEntity
  8
図
  6
CONTINUOUS
 62
     2
100
AcDbLine
 10
440.343652
 20
407.151241
 30
0.0
 11
440.054972
 21
407.651244
 31
0.0
  0
LINE
  5
466
100
AcDbEntity
  8
図
  6
CONTINUOUS
 62
     2
100
AcDbLine
 10
440.632562
 20
407.650941
 30
0.0
 11
440.343892
 21
407.150957
 31
0.0
  0
LINE
  5
467
100
AcDbEntity
  8
図
  6
CONTINUOUS
 62
     2
100
AcDbLine
 10
440.631952
 20
407.651151
 30
0.0
 11
439.632082
 21
410.651146
 31
0.0
  0
LINE
  5
468
100
AcDbEntity
  8
図
  6
CONTINUOUS
 62
     2
100
AcDbLine
 10
437.699072
 20
410.651165
 30
0.0
 11
439.055032
 21
410.651165
 31
0.0
  0
LINE
  5
469
100
AcDbEntity
  8
図
  6
CONTINUOUS
 62
     2
100
AcDbLine
 10
439.055242
 20
410.651171
 30
0.0
 11
439.343942
 21
411.151207
 31
0.0
  0
LINE
  5
46A
100
AcDbEntity
  8
図
  6
CONTINUOUS
 62
     2
100
AcDbLine
 10
439.344082
 20
411.151295
 30
0.0
 11
439.632752
 21
410.651298
 31
0.0
  0
LINE
  5
46B
100
AcDbEntity
  8
図
  6
CONTINUOUS
 62
     2
100
AcDbLine
 10
439.632422
 20
410.651165
 30
0.0
 11
440.988382
 21
410.651165
 31
0.0
  0
LINE
  5
46C
100
AcDbEntity
  8
図
  6
CONTINUOUS
 62
     2
100
AcDbLine
 10
440.989212
 20
410.651463
 30
0.0
 11
441.989072
 21
407.651447
 31
0.0
  0
LINE
  5
46D
100
AcDbEntity
  8
図
  6
CONTINUOUS
 62
     2
100
AcDbLine
 10
441.277372
 20
411.151286
 30
0.0
 11
441.566042
 21
410.651282
 31
0.0
  0
LINE
  5
46E
100
AcDbEntity
  8
図
  6
CONTINUOUS
 62
     2
100
AcDbLine
 10
440.988672
 20
410.651145
 30
0.0
 11
441.277332
 21
411.151128
 31
0.0
  0
LINE
  5
46F
100
AcDbEntity
  8
図
  6
CONTINUOUS
 62
     2
100
AcDbLine
 10
441.565712
 20
410.651165
 30
0.0
 11
442.921732
 21
410.651165
 31
0.0
  0
LINE
  5
470
100
AcDbEntity
  8
図
  6
CONTINUOUS
 62
     2
100
AcDbLine
 10
442.565372
 20
407.651112
 30
0.0
 11
441.565502
 21
410.651108
 31
0.0
  0
LINE
  5
471
100
AcDbEntity
  8
図
  6
CONTINUOUS
 62
     2
100
AcDbLine
 10
442.565902
 20
407.651067
 30
0.0
 11
442.277222
 21
407.151056
 31
0.0
  0
LINE
  5
472
100
AcDbEntity
  8
図
  6
CONTINUOUS
 62
     2
100
AcDbLine
 10
442.277012
 20
407.151228
 30
0.0
 11
441.988332
 21
407.651225
 31
0.0
  0
LINE
  5
473
100
AcDbEntity
  8
図
  6
CONTINUOUS
 62
     2
100
AcDbLine
 10
442.922672
 20
410.651537
 30
0.0
 11
443.922522
 21
407.651521
 31
0.0
  0
LINE
  5
474
100
AcDbEntity
  8
図
  6
CONTINUOUS
 62
     2
100
AcDbLine
 10
444.498622
 20
407.651107
 30
0.0
 11
443.498752
 21
410.651095
 31
0.0
  0
LINE
  5
475
100
AcDbEntity
  8
図
  6
CONTINUOUS
 62
     2
100
AcDbLine
 10
443.499062
 20
410.651165
 30
0.0
 11
444.855082
 21
410.651165
 31
0.0
  0
LINE
  5
476
100
AcDbEntity
  8
図
  6
CONTINUOUS
 62
     2
100
AcDbLine
 10
443.210782
 20
411.151307
 30
0.0
 11
443.499452
 21
410.65131
 31
0.0
  0
LINE
  5
477
100
AcDbEntity
  8
図
  6
CONTINUOUS
 62
     2
100
AcDbLine
 10
442.921942
 20
410.6511
 30
0.0
 11
443.210592
 21
411.151058
 31
0.0
  0
LINE
  5
478
100
AcDbEntity
  8
図
  6
CONTINUOUS
 62
     2
100
AcDbLine
 10
444.855282
 20
410.651175
 30
0.0
 11
445.143962
 21
411.151185
 31
0.0
  0
LINE
  5
479
100
AcDbEntity
  8
図
  6
CONTINUOUS
 62
     2
100
AcDbLine
 10
445.144092
 20
411.151303
 30
0.0
 11
445.432782
 21
410.651293
 31
0.0
  0
LINE
  5
47A
100
AcDbEntity
  8
図
  6
CONTINUOUS
 62
     2
100
AcDbLine
 10
445.432412
 20
410.651165
 30
0.0
 11
446.788372
 21
410.651165
 31
0.0
  0
LINE
  5
47B
100
AcDbEntity
  8
図
  6
CONTINUOUS
 62
     2
100
AcDbLine
 10
444.210412
 20
407.151284
 30
0.0
 11
443.921742
 21
407.651281
 31
0.0
  0
LINE
  5
47C
100
AcDbEntity
  8
図
  6
EXLTYPE1
 62
     2
100
AcDbLine
 10
434.832982
 20
407.651169
 30
0.0
 11
435.044442
 21
407.651169
 31
0.0
  0
LINE
  5
47D
100
AcDbEntity
  8
図
  6
CONTINUOUS
 62
     2
100
AcDbLine
 10
436.766332
 20
407.651165
 30
0.0
 11
438.122292
 21
407.651165
 31
0.0
  0
LINE
  5
47E
100
AcDbEntity
  8
図
  6
CONTINUOUS
 62
     2
100
AcDbLine
 10
457.615532
 20
392.650659
 30
0.0
 11
458.484092
 21
392.38628
 31
0.0
  0
LINE
  5
47F
100
AcDbEntity
  8
図
  6
CONTINUOUS
 62
     2
100
AcDbLine
 10
458.951562
 20
392.243987
 30
0.0
 11
460.513782
 21
391.76846
 31
0.0
  0
LINE
  5
480
100
AcDbEntity
  8
図
  6
CONTINUOUS
 62
     2
100
AcDbLine
 10
460.610702
 20
391.935964
 30
0.0
 11
460.748112
 21
391.697958
 31
0.0
  0
LINE
  5
481
100
AcDbEntity
  8
図
  6
CONTINUOUS
 62
     2
100
AcDbLine
 10
461.078622
 20
390.705083
 30
0.0
 11
462.543742
 21
391.151052
 31
0.0
  0
LINE
  5
482
100
AcDbEntity
  8
図
  6
CONTINUOUS
 62
     2
100
AcDbLine
 10
460.747522
 20
391.697313
 30
0.0
 11
462.543422
 21
391.150658
 31
0.0
  0
LINE
  5
483
100
AcDbEntity
  8
図
  6
CONTINUOUS
 62
     2
100
AcDbLine
 10
435.044442
 20
407.651169
 30
0.0
 11
436.188942
 21
407.651169
 31
0.0
  0
LINE
  5
484
100
AcDbEntity
  8
図
  6
CONTINUOUS
 62
     2
100
AcDbLine
 10
460.747812
 20
391.697802
 30
0.0
 11
461.078612
 21
390.70516
 31
0.0
  0
LINE
  5
485
100
AcDbEntity
  8
図
  6
CONTINUOUS
 62
     2
100
AcDbLine
 10
460.966712
 20
390.511031
 30
0.0
 11
460.610562
 21
391.935806
 31
0.0
  0
LINE
  5
486
100
AcDbEntity
  8
図
  6
CONTINUOUS
 62
     2
100
AcDbLine
 10
435.766462
 20
410.651165
 30
0.0
 11
437.122412
 21
410.651165
 31
0.0
  0
LINE
  5
487
100
AcDbEntity
  8
図
  6
CONTINUOUS
 62
     2
100
AcDbLine
 10
437.123252
 20
410.651463
 30
0.0
 11
438.123102
 21
407.651447
 31
0.0
  0
LINE
  5
488
100
AcDbEntity
  8
図
  6
CONTINUOUS
 62
     2
100
AcDbLine
 10
437.411402
 20
411.151287
 30
0.0
 11
437.700082
 21
410.651283
 31
0.0
  0
LINE
  5
489
100
AcDbEntity
  8
図
  6
CONTINUOUS
 62
     2
100
AcDbLine
 10
437.122702
 20
410.651143
 30
0.0
 11
437.411372
 21
411.151127
 31
0.0
  0
LINE
  5
48A
100
AcDbEntity
  8
図
  6
CONTINUOUS
 62
     2
100
AcDbLine
 10
438.699412
 20
407.651114
 30
0.0
 11
437.699542
 21
410.651109
 31
0.0
  0
LINE
  5
48B
100
AcDbEntity
  8
図
  6
CONTINUOUS
 62
     2
100
AcDbLine
 10
438.699942
 20
407.651066
 30
0.0
 11
438.411262
 21
407.151056
 31
0.0
  0
LINE
  5
48C
100
AcDbEntity
  8
図
  6
CONTINUOUS
 62
     2
100
AcDbLine
 10
438.411042
 20
407.15123
 30
0.0
 11
438.122372
 21
407.651227
 31
0.0
  0
LINE
  5
48D
100
AcDbEntity
  8
図
  6
EXLTYPE1
 62
     2
100
AcDbLine
 10
432.544472
 20
404.801171
 30
0.0
 11
432.544472
 21
413.501168
 31
0.0
  0
LINE
  5
48E
100
AcDbEntity
  8
図
  6
EXLTYPE1
 62
     2
100
AcDbLine
 10
430.044442
 20
413.501168
 30
0.0
 11
432.544472
 21
413.501168
 31
0.0
  0
LINE
  5
48F
100
AcDbEntity
  8
図
  6
EXLTYPE1
 62
     2
100
AcDbLine
 10
430.044442
 20
404.801171
 30
0.0
 11
432.544472
 21
404.801171
 31
0.0
  0
LINE
  5
490
100
AcDbEntity
  8
図
  6
EXLTYPE1
 62
     2
100
AcDbLine
 10
432.544472
 20
406.901169
 30
0.0
 11
435.044442
 21
406.901169
 31
0.0
  0
LINE
  5
491
100
AcDbEntity
  8
図
  6
EXLTYPE1
 62
     2
100
AcDbLine
 10
432.544472
 20
411.401169
 30
0.0
 11
435.044442
 21
411.401169
 31
0.0
  0
LINE
  5
492
100
AcDbEntity
  8
図
  6
CONTINUOUS
 62
     2
100
AcDbLine
 10
436.477622
 20
407.151167
 30
0.0
 11
436.188952
 21
407.651167
 31
0.0
  0
LINE
  5
493
100
AcDbEntity
  8
図
  6
CONTINUOUS
 62
     2
100
AcDbLine
 10
460.888902
 20
390.647525
 30
0.0
 11
460.515042
 21
391.76934
 31
0.0
  0
LINE
  5
494
100
AcDbEntity
  8
図
  6
CONTINUOUS
 62
     2
100
AcDbLine
 10
435.044442
 20
410.651169
 30
0.0
 11
435.189092
 21
410.651169
 31
0.0
  0
LINE
  5
495
100
AcDbEntity
  8
図
  6
CONTINUOUS
 62
     2
100
AcDbLine
 10
461.078992
 20
390.705074
 30
0.0
 11
460.966902
 21
390.510927
 31
0.0
  0
LINE
  5
496
100
AcDbEntity
  8
図
  6
CONTINUOUS
 62
     2
100
AcDbLine
 10
436.766322
 20
407.651162
 30
0.0
 11
436.477642
 21
407.151165
 31
0.0
  0
LINE
  5
497
100
AcDbEntity
  8
図
  6
CONTINUOUS
 62
     2
100
AcDbLine
 10
435.189102
 20
410.65117
 30
0.0
 11
436.188952
 21
407.65117
 31
0.0
  0
LINE
  5
498
100
AcDbEntity
  8
図
  6
EXLTYPE1
 62
     2
100
AcDbLine
 10
434.368102
 20
409.046043
 30
0.0
 11
434.833002
 21
407.651171
 31
0.0
  0
LINE
  5
499
100
AcDbEntity
  8
図
  6
EXLTYPE1
 62
     2
100
AcDbLine
 10
433.544442
 20
410.651169
 30
0.0
 11
435.044442
 21
410.651169
 31
0.0
  0
LINE
  5
49A
100
AcDbEntity
  8
図
  6
CONTINUOUS
 62
     2
100
AcDbLine
 10
435.766452
 20
410.65117
 30
0.0
 11
436.766322
 21
407.65117
 31
0.0
  0
LINE
  5
49B
100
AcDbEntity
  8
図
  6
EXLTYPE1
 62
     2
100
AcDbLine
 10
432.544442
 20
406.651169
 30
0.0
 11
433.544442
 21
407.65117
 31
0.0
  0
LINE
  5
49C
100
AcDbEntity
  8
図
  6
EXLTYPE1
 62
     2
100
AcDbLine
 10
433.544442
 20
407.651169
 30
0.0
 11
434.255612
 21
407.651169
 31
0.0
  0
LINE
  5
49D
100
AcDbEntity
  8
図
  6
EXLTYPE1
 62
     2
100
AcDbLine
 10
433.544442
 20
410.651169
 30
0.0
 11
433.544442
 21
407.651169
 31
0.0
  0
LINE
  5
49E
100
AcDbEntity
  8
図
  6
EXLTYPE1
 62
     2
100
AcDbLine
 10
432.544442
 20
411.651166
 30
0.0
 11
433.544442
 21
410.651165
 31
0.0
  0
LINE
  5
49F
100
AcDbEntity
  8
図
  6
CONTINUOUS
 62
     2
100
AcDbLine
 10
436.477632
 20
407.15117
 30
0.0
 11
435.477772
 21
411.151169
 31
0.0
  0
LINE
  5
4A0
100
AcDbEntity
  8
図
  6
EXLTYPE1
 62
     2
100
AcDbLine
 10
434.544302
 20
407.151167
 30
0.0
 11
433.735962
 21
410.38495
 31
0.0
  0
LINE
  5
4A1
100
AcDbEntity
  8
図
  6
CONTINUOUS
 62
     2
100
AcDbLine
 10
435.189102
 20
410.651166
 30
0.0
 11
435.477782
 21
411.15117
 31
0.0
  0
LINE
  5
4A2
100
AcDbEntity
  8
図
  6
EXLTYPE1
 62
     2
100
AcDbLine
 10
434.544292
 20
407.151167
 30
0.0
 11
434.255612
 21
407.651167
 31
0.0
  0
LINE
  5
4A3
100
AcDbEntity
  8
図
  6
EXLTYPE1
 62
     2
100
AcDbLine
 10
434.832992
 20
407.651158
 30
0.0
 11
434.544312
 21
407.151162
 31
0.0
  0
LINE
  5
4A4
100
AcDbEntity
  8
図
  6
CONTINUOUS
 62
     2
100
AcDbLine
 10
459.613522
 20
390.259122
 30
0.0
 11
460.887972
 21
390.647053
 31
0.0
  0
LINE
  5
4A5
100
AcDbEntity
  8
図
  6
CONTINUOUS
 62
     2
100
AcDbLine
 10
435.477772
 20
411.151166
 30
0.0
 11
435.766442
 21
410.651166
 31
0.0
  0
LINE
  5
4A6
100
AcDbEntity
  8
図
  6
EXLTYPE1
 62
     2
100
AcDbLine
 10
433.829272
 20
408.916566
 30
0.0
 11
433.739042
 21
410.378323
 31
0.0
  0
LINE
  5
4A7
100
AcDbEntity
  8
図
  6
EXLTYPE1
 62
     2
100
AcDbLine
 10
433.828232
 20
408.933509
 30
0.0
 11
434.255612
 21
407.651171
 31
0.0
  0
LINE
  5
4A8
100
AcDbEntity
  8
図
  6
EXLTYPE1
 62
     2
100
AcDbLine
 10
433.739042
 20
410.378324
 30
0.0
 11
434.358642
 21
409.042893
 31
0.0
  0
LINE
  5
4A9
100
AcDbEntity
  8
図
  6
CONTINUOUS
 62
     2
100
AcDbLine
 10
458.950912
 20
392.244262
 30
0.0
 11
459.612542
 21
390.258998
 31
0.0
  0
LINE
  5
4AA
100
AcDbEntity
  8
図
  6
CONTINUOUS
 62
     2
100
AcDbLine
 10
459.389172
 20
389.870955
 30
0.0
 11
458.676892
 21
392.720483
 31
0.0
  0
LINE
  5
4AB
100
AcDbEntity
  8
図
  6
CONTINUOUS
 62
     2
100
AcDbLine
 10
459.613822
 20
390.259096
 30
0.0
 11
459.389622
 21
389.870775
 31
0.0
  0
LINE
  5
4AC
100
AcDbEntity
  8
図
  6
CONTINUOUS
 62
     2
100
AcDbLine
 10
458.484642
 20
392.386887
 30
0.0
 11
459.232392
 21
390.143274
 31
0.0
  0
LINE
  5
4AD
100
AcDbEntity
  8
図
  6
CONTINUOUS
 62
     2
100
AcDbLine
 10
458.031862
 20
389.651095
 30
0.0
 11
457.031992
 21
392.65109
 31
0.0
  0
LINE
  5
4AE
100
AcDbEntity
  8
図
  6
CONTINUOUS
 62
     2
100
AcDbLine
 10
457.993562
 20
389.766021
 30
0.0
 11
459.232182
 21
390.143045
 31
0.0
  0
LINE
  5
4AF
100
AcDbEntity
  8
図
  6
CONTINUOUS
 62
     2
100
AcDbLine
 10
458.032602
 20
389.650928
 30
0.0
 11
457.743932
 21
389.150944
 31
0.0
  0
LINE
  5
4B0
100
AcDbEntity
  8
図
  6
CONTINUOUS
 62
     2
100
AcDbLine
 10
457.743712
 20
389.151298
 30
0.0
 11
457.455032
 21
389.651295
 31
0.0
  0
LINE
  5
4B1
100
AcDbEntity
  8
図
  6
CONTINUOUS
 62
     2
100
AcDbLine
 10
457.743502
 20
389.151146
 30
0.0
 11
456.743642
 21
393.151166
 31
0.0
  0
LINE
  5
4B2
100
AcDbEntity
  8
図
  6
CONTINUOUS
 62
     2
100
AcDbLine
 10
456.098942
 20
389.651165
 30
0.0
 11
457.454902
 21
389.651165
 31
0.0
  0
LINE
  5
4B3
100
AcDbEntity
  8
図
  6
CONTINUOUS
 62
     2
100
AcDbLine
 10
455.810302
 20
389.151273
 30
0.0
 11
455.521622
 21
389.651283
 31
0.0
  0
LINE
  5
4B4
100
AcDbEntity
  8
図
  6
CONTINUOUS
 62
     2
100
AcDbLine
 10
453.876982
 20
389.151364
 30
0.0
 11
453.588312
 21
389.651361
 31
0.0
  0
LINE
  5
4B5
100
AcDbEntity
  8
図
  6
CONTINUOUS
 62
     2
100
AcDbLine
 10
451.943522
 20
389.151181
 30
0.0
 11
450.943662
 21
393.151187
 31
0.0
  0
LINE
  5
4B6
100
AcDbEntity
  8
図
  6
CONTINUOUS
 62
     2
100
AcDbLine
 10
450.298902
 20
389.651165
 30
0.0
 11
451.654852
 21
389.651165
 31
0.0
  0
LINE
  5
4B7
100
AcDbEntity
  8
図
  6
CONTINUOUS
 62
     2
100
AcDbLine
 10
450.010272
 20
389.151219
 30
0.0
 11
449.010412
 21
393.151224
 31
0.0
  0
LINE
  5
4B8
100
AcDbEntity
  8
図
  6
CONTINUOUS
 62
     2
100
AcDbLine
 10
448.076902
 20
389.151177
 30
0.0
 11
447.077042
 21
393.151182
 31
0.0
  0
LINE
  5
4B9
100
AcDbEntity
  8
図
  6
CONTINUOUS
 62
     2
100
AcDbLine
 10
446.432262
 20
389.651165
 30
0.0
 11
447.788212
 21
389.651165
 31
0.0
  0
LINE
  5
4BA
100
AcDbEntity
  8
図
  6
CONTINUOUS
 62
     2
100
AcDbLine
 10
444.498912
 20
389.651165
 30
0.0
 11
445.854872
 21
389.651165
 31
0.0
  0
LINE
  5
4BB
100
AcDbEntity
  8
図
  6
CONTINUOUS
 62
     2
100
AcDbLine
 10
444.499222
 20
389.651014
 30
0.0
 11
444.210542
 21
389.151004
 31
0.0
  0
LINE
  5
4BC
100
AcDbEntity
  8
図
  6
CONTINUOUS
 62
     2
100
AcDbLine
 10
444.210192
 20
389.151162
 30
0.0
 11
443.210332
 21
393.151153
 31
0.0
  0
LINE
  5
4BD
100
AcDbEntity
  8
図
  6
CONTINUOUS
 62
     2
100
AcDbLine
 10
442.565562
 20
389.651165
 30
0.0
 11
443.921522
 21
389.651165
 31
0.0
  0
LINE
  5
4BE
100
AcDbEntity
  8
図
  6
CONTINUOUS
 62
     2
100
AcDbLine
 10
442.276712
 20
389.151164
 30
0.0
 11
441.276852
 21
393.151169
 31
0.0
  0
LINE
  5
4BF
100
AcDbEntity
  8
図
  6
CONTINUOUS
 62
     2
100
AcDbLine
 10
440.632272
 20
389.651165
 30
0.0
 11
441.988232
 21
389.651165
 31
0.0
  0
LINE
  5
4C0
100
AcDbEntity
  8
図
  6
CONTINUOUS
 62
     2
100
AcDbLine
 10
440.343502
 20
389.151152
 30
0.0
 11
439.343652
 21
393.151142
 31
0.0
  0
LINE
  5
4C1
100
AcDbEntity
  8
図
  6
CONTINUOUS
 62
     2
100
AcDbLine
 10
438.698922
 20
389.651165
 30
0.0
 11
440.054882
 21
389.651165
 31
0.0
  0
LINE
  5
4C2
100
AcDbEntity
  8
図
  6
EXLTYPE1
 62
     2
100
AcDbLine
 10
431.244422
 20
387.151169
 30
0.0
 11
432.544442
 21
387.151169
 31
0.0
  0
LINE
  5
4C3
100
AcDbEntity
  8
図
  6
EXLTYPE1
 62
     2
100
AcDbLine
 10
430.044982
 20
388.35177
 30
0.0
 11
431.244992
 21
387.151762
 31
0.0
  0
LINE
  5
4C4
100
AcDbEntity
  8
図
  6
EXLTYPE1
 62
     2
100
AcDbLine
 10
430.044442
 20
390.551163
 30
0.0
 11
431.244452
 21
390.551163
 31
0.0
  0
LINE
  5
4C5
100
AcDbEntity
  8
図
  6
EXLTYPE1
 62
     2
100
AcDbLine
 10
430.044492
 20
393.950986
 30
0.0
 11
431.244502
 21
395.150993
 31
0.0
  0
LINE
  5
4C6
100
AcDbEntity
  8
図
  6
EXLTYPE1
 62
     2
100
AcDbLine
 10
431.244422
 20
395.151169
 30
0.0
 11
432.544442
 21
395.151169
 31
0.0
  0
LINE
  5
4C7
100
AcDbEntity
  8
図
  6
EXLTYPE1
 62
     2
100
AcDbLine
 10
434.832952
 20
389.651169
 30
0.0
 11
435.044412
 21
389.651169
 31
0.0
  0
LINE
  5
4C8
100
AcDbEntity
  8
図
  6
CONTINUOUS
 62
     2
100
AcDbLine
 10
460.515512
 20
391.767936
 30
0.0
 11
460.610392
 21
391.936504
 31
0.0
  0
ARC
  5
4C9
100
AcDbEntity
  8
図
  6
CONTINUOUS
 62
     2
100
AcDbCircle
 10
425.044442
 20
417.151169
 30
0.0
 40
5.0
100
AcDbArc
 50
0.0
 51
89.999982
  0
ARC
  5
4CA
100
AcDbEntity
  8
図
  6
CONTINUOUS
 62
     2
100
AcDbCircle
 10
433.044442
 20
385.151169
 30
0.0
 40
3.0
100
AcDbArc
 50
179.99998
 51
270.00002
  0
LINE
  5
4CB
100
AcDbEntity
  8
図
  6
CONTINUOUS
 62
     2
100
AcDbLine
 10
348.98999
 20
364.442575
 30
0.0
 11
389.140229
 21
421.783262
 31
0.0
  0
LINE
  5
4CC
100
AcDbEntity
  8
図
  6
CONTINUOUS
 62
     2
100
AcDbLine
 10
340.798376
 20
370.178305
 30
0.0
 11
380.948653
 21
427.519046
 31
0.0
  0
LINE
  5
4CD
100
AcDbEntity
  8
図
  6
CONTINUOUS
 62
     2
100
AcDbLine
 10
386.237567
 20
430.684324
 30
0.0
 11
381.395379
 21
431.203612
 31
0.0
  0
LINE
  5
4CE
100
AcDbEntity
  8
図
  6
CONTINUOUS
 62
     2
100
AcDbLine
 10
310.567094
 20
403.253145
 30
0.0
 11
310.957505
 21
398.698704
 31
0.0
  0
LINE
  5
4CF
100
AcDbEntity
  8
図
  6
CONTINUOUS
 62
     2
100
AcDbLine
 10
310.957502
 20
398.698719
 30
0.0
 11
309.761882
 21
398.596229
 31
0.0
  0
LINE
  5
4D0
100
AcDbEntity
  8
図
  6
EXLTYPE1
 62
     2
100
AcDbLine
 10
380.232248
 20
420.821611
 30
0.0
 11
379.175918
 21
419.980978
 31
0.0
  0
ARC
  5
4D1
100
AcDbEntity
  8
図
  6
CONTINUOUS
 62
     2
100
AcDbCircle
 10
385.04442
 20
424.651169
 30
0.0
 40
10.0
100
AcDbArc
 50
14.477515
 51
126.95012
  0
ARC
  5
4D2
100
AcDbEntity
  8
図
  6
CONTINUOUS
 62
     2
100
AcDbCircle
 10
344.894166
 20
367.310471
 30
0.0
 40
5.0
100
AcDbArc
 50
145.00016
 51
325.00015
  0
ARC
  5
4D3
100
AcDbEntity
  8
図
  6
CONTINUOUS
 62
     2
100
AcDbCircle
 10
385.04442
 20
424.651169
 30
0.0
 40
10.0
100
AcDbArc
 50
136.88994
 51
205.00008
  0
ARC
  5
4D4
100
AcDbEntity
  8
図
  6
CONTINUOUS
 62
     2
100
AcDbCircle
 10
385.04442
 20
424.651169
 30
0.0
 40
5.1
100
AcDbArc
 50
313.63834
 51
156.36485
  0
ARC
  5
4D5
100
AcDbEntity
  8
図
  6
EXLTYPE1
 62
     2
100
AcDbCircle
 10
385.04442
 20
424.651169
 30
0.0
 40
6.150001
100
AcDbArc
 50
218.51304
 51
289.39185
  0
ARC
  5
4D6
100
AcDbEntity
  8
図
  6
CONTINUOUS
 62
     2
100
AcDbCircle
 10
375.393248
 20
342.516241
 30
0.0
 40
89.0
100
AcDbArc
 50
83.29827
 51
136.62459
  0
ARC
  5
4D7
100
AcDbEntity
  8
図
  6
CONTINUOUS
 62
     2
100
AcDbCircle
 10
311.065265
 20
403.295852
 30
0.0
 40
0.5
100
AcDbArc
 50
136.62452
 51
184.89945
  0
ARC
  5
4D8
100
AcDbEntity
  8
図
  6
EXLTYPE1
 62
     2
100
AcDbCircle
 10
385.04442
 20
424.651169
 30
0.0
 40
6.3
100
AcDbArc
 50
218.513
 51
287.52892
  0
ARC
  5
4D9
100
AcDbEntity
  8
図
  6
CONTINUOUS
 62
     2
100
AcDbCircle
 10
385.04442
 20
424.651169
 30
0.0
 40
7.5
100
AcDbArc
 50
117.5422
 51
193.18976
  0
ARC
  5
4DA
100
AcDbEntity
  8
図
  6
CONTINUOUS
 62
     2
100
AcDbCircle
 10
310.547993
 20
403.476003
 30
0.0
 40
1.200008
100
AcDbArc
 50
136.76904
 51
184.89945
  0
ARC
  5
4DB
100
AcDbEntity
  8
図
  6
CONTINUOUS
 62
     2
100
AcDbCircle
 10
385.04442
 20
424.651169
 30
0.0
 40
5.0
100
AcDbArc
 50
325.0001
 51
145.0001
  0
ARC
  5
4DC
100
AcDbEntity
  8
図
  6
EXLTYPE1
 62
     2
100
AcDbCircle
 10
385.04442
 20
424.651169
 30
0.0
 40
7.5
100
AcDbArc
 50
193.18976
 51
276.81097
  0
ARC
  5
4DD
100
AcDbEntity
  8
図
  6
CONTINUOUS
 62
     2
100
AcDbCircle
 10
385.04442
 20
424.651169
 30
0.0
 40
7.5
100
AcDbArc
 50
276.81097
 51
83.40704
  0
ARC
  5
4DE
100
AcDbEntity
  8
図
  6
CONTINUOUS
 62
     2
100
AcDbCircle
 10
385.04442
 20
424.651169
 30
0.0
 40
6.3
100
AcDbArc
 50
287.52892
 51
83.298256
  0
ARC
  5
4DF
100
AcDbEntity
  8
図
  6
CONTINUOUS
 62
     2
100
AcDbCircle
 10
385.04442
 20
424.651169
 30
0.0
 40
6.150001
100
AcDbArc
 50
289.39185
 51
78.813193
  0
ARC
  5
4E0
100
AcDbEntity
  8
図
  6
EXLTYPE1
 62
     2
100
AcDbCircle
 10
385.04442
 20
424.651169
 30
0.0
 40
5.1
100
AcDbArc
 50
156.36485
 51
313.63834
  0
ARC
  5
4E1
100
AcDbEntity
  8
図
  6
CONTINUOUS
 62
     2
100
AcDbCircle
 10
385.04442
 20
424.651169
 30
0.0
 40
10.0
100
AcDbArc
 50
265.00046
 51
345.52249
  0
ARC
  5
4E2
100
AcDbEntity
  8
図
  6
CONTINUOUS
 62
     2
100
AcDbCircle
 10
344.69341
 20
367.023759
 30
0.0
 40
9.5
100
AcDbArc
 50
86.756947
 51
23.242814
  0
LINE
  5
4E3
100
AcDbEntity
  8
図
  6
CONTINUOUS
 62
     2
100
AcDbLine
 10
394.726902
 20
422.151169
 30
0.0
 11
425.044472
 21
422.151169
 31
0.0
  0
LINE
  5
4E4
100
AcDbEntity
  8
図
  6
CONTINUOUS
 62
     2
100
AcDbLine
 10
394.726902
 20
427.151169
 30
0.0
 11
435.044472
 21
427.151169
 31
0.0
  0
ARC
  5
4E5
100
AcDbEntity
  8
図
  6
EXLTYPE4
 62
     6
100
AcDbCircle
 10
342.494333
 20
353.638428
 30
0.0
 40
19.0
100
AcDbArc
 50
108.75823
 51
52.582194
  0
ARC
  5
4E6
100
AcDbEntity
  8
図
  6
EXLTYPE4
 62
     6
100
AcDbCircle
 10
342.494333
 20
353.638428
 30
0.0
 40
55.0
100
AcDbArc
 50
66.405367
 51
55.912754
  0
LINE
  5
4E7
100
AcDbEntity
  8
図
  6
CONTINUOUS
 62
     2
100
AcDbLine
 10
95.125012
 20
432.716238
 30
0.0
 11
95.125012
 21
402.581616
 31
0.0
  0
LINE
  5
4E8
100
AcDbEntity
  8
図
  6
CONTINUOUS
 62
     2
100
AcDbLine
 10
309.352077
 20
403.376982
 30
0.0
 11
309.761889
 21
398.596214
 31
0.0
  0
ARC
  5
4E9
100
AcDbEntity
  8
図
  6
CONTINUOUS
 62
     2
100
AcDbCircle
 10
375.393248
 20
342.516241
 30
0.0
 40
90.199997
100
AcDbArc
 50
83.29827
 51
136.76902
  0
LINE
  5
4EA
100
AcDbEntity
  8
図
  6
EXLTYPE3
 62
     6
100
AcDbLine
 10
157.625012
 20
442.174625
 30
0.0
 11
157.625012
 21
396.632735
 31
0.0
  0
LINE
  5
4EB
100
AcDbEntity
  8
図
  6
EXLTYPE3
 62
     6
100
AcDbLine
 10
127.535462
 20
409.151169
 30
0.0
 11
137.165022
 21
409.151169
 31
0.0
  0
LINE
  5
4EC
100
AcDbEntity
  8
図
  6
EXLTYPE3
 62
     6
100
AcDbLine
 10
132.625012
 20
414.048114
 30
0.0
 11
132.625012
 21
403.448346
 31
0.0
  0
LINE
  5
4ED
100
AcDbEntity
  8
図
  6
EXLTYPE3
 62
     6
100
AcDbLine
 10
162.165012
 20
391.151169
 30
0.0
 11
153.085012
 21
391.151169
 31
0.0
  0
LINE
  5
4EE
100
AcDbEntity
  8
図
  6
EXLTYPE3
 62
     6
100
AcDbLine
 10
157.625012
 20
396.718334
 30
0.0
 11
157.625012
 21
385.277315
 31
0.0
  0
LINE
  5
4EF
100
AcDbEntity
  8
図
  6
EXLTYPE3
 62
     6
100
AcDbLine
 10
182.625016
 20
414.048114
 30
0.0
 11
182.625016
 21
403.448346
 31
0.0
  0
LINE
  5
4F0
100
AcDbEntity
  8
図
  6
EXLTYPE3
 62
     6
100
AcDbLine
 10
187.714575
 20
409.151169
 30
0.0
 11
178.085008
 21
409.151169
 31
0.0
  0
DIMENSION
  5
4FC
100
AcDbEntity
  8
寸法
  6
CONTINUOUS
 62
     3
100
AcDbDimension
  2
*D17
 10
220.125016
 20
464.8
 30
0.0
 11
157.625019
 21
470.675
 31
0.0
 70
   160
  3
STANDARD
100
AcDbAlignedDimension
 13
95.125022
 23
432.716238
 33
0.0
 14
220.125016
 24
432.716238
 34
0.0
100
AcDbRotatedDimension
1001
ACAD
1000
DSTYLE
1002
{
1070
     6
1000
_EX_NORM
1070
     7
1000
_EX_NORM
1070
    41
1040
7.5
1070
    42
1040
1.75
1070
    44
1040
2.5
1070
    73
1070
     0
1070
    74
1070
     0
1070
    75
1070
     0
1070
    76
1070
     0
1070
    77
1070
     1
1070
    78
1070
     8
1070
   140
1040
10.0
1070
   147
1040
0.875
1070
   173
1070
     1
1070
   176
1070
     3
1070
   177
1070
     3
1070
   178
1070
     2
1070
   271
1070
     2
1070
   279
1070
     2
1070
   280
1070
     0
1070
   287
1070
     5
1070
   340
1005
377
1002
}
  0
CIRCLE
  5
4FD
100
AcDbEntity
  8
寸法
  6
CONTINUOUS
 62
     3
100
AcDbCircle
 10
103.769073
 20
451.923121
 30
0.0
 40
6.5
  0
TEXT
  5
4FE
100
AcDbEntity
  8
寸法
  6
CONTINUOUS
 62
     2
100
AcDbText
 10
98.047956
 20
445.673121
 30
0.0
 40
12.5
  1
４
 41
0.84
  7
EXCADSTD
 72
     5
 11
108.047956
 21
445.673121
 31
0.0
100
AcDbText
  0
POLYLINE
  5
4FF
100
AcDbEntity
  8
寸法
  6
CONTINUOUS
 62
     3
100
AcDb2dPolyline
 66
     1
 10
0.0
 20
0.0
 30
0.0
 70
   128
  0
VERTEX
  5
500
100
AcDbEntity
  8
寸法
  6
CONTINUOUS
 62
     3
100
AcDbVertex
100
AcDb2dVertex
 10
110.704718
 20
431.203614
 30
0.0
  0
VERTEX
  5
501
100
AcDbEntity
  8
寸法
  6
CONTINUOUS
 62
     3
100
AcDbVertex
100
AcDb2dVertex
 10
105.832354
 20
445.759286
 30
0.0
  0
SEQEND
  5
502
100
AcDbEntity
  8
寸法
  6
CONTINUOUS
 62
     3
  0
LINE
  5
503
100
AcDbEntity
  8
寸法
  6
CONTINUOUS
 62
     3
100
AcDbLine
 10
106.544312
 20
439.03817
 30
0.0
 11
110.704718
 21
431.203614
 31
0.0
  0
LINE
  5
504
100
AcDbEntity
  8
寸法
  6
CONTINUOUS
 62
     3
100
AcDbLine
 10
110.704718
 20
431.203614
 30
0.0
 11
109.310135
 21
439.964001
 31
0.0
  0
CIRCLE
  5
505
100
AcDbEntity
  8
寸法
  6
CONTINUOUS
 62
     3
100
AcDbCircle
 10
212.471748
 20
451.923121
 30
0.0
 40
6.5
  0
TEXT
  5
506
100
AcDbEntity
  8
寸法
  6
CONTINUOUS
 62
     2
100
AcDbText
 10
206.750631
 20
445.673121
 30
0.0
 40
12.5
  1
５
 41
0.84
  7
EXCADSTD
 72
     5
 11
216.750631
 21
445.673121
 31
0.0
100
AcDbText
  0
POLYLINE
  5
507
100
AcDbEntity
  8
寸法
  6
CONTINUOUS
 62
     3
100
AcDb2dPolyline
 66
     1
 10
0.0
 20
0.0
 30
0.0
 70
   128
  0
VERTEX
  5
508
100
AcDbEntity
  8
寸法
  6
CONTINUOUS
 62
     3
100
AcDbVertex
100
AcDb2dVertex
 10
204.856574
 20
431.203615
 30
0.0
  0
VERTEX
  5
509
100
AcDbEntity
  8
寸法
  6
CONTINUOUS
 62
     3
100
AcDbVertex
100
AcDb2dVertex
 10
210.229415
 20
445.822142
 30
0.0
  0
SEQEND
  5
50A
100
AcDbEntity
  8
寸法
  6
CONTINUOUS
 62
     3
  0
LINE
  5
50B
100
AcDbEntity
  8
寸法
  6
CONTINUOUS
 62
     3
100
AcDbLine
 10
206.506288
 20
439.919559
 30
0.0
 11
204.856574
 21
431.203615
 31
0.0
  0
LINE
  5
50C
100
AcDbEntity
  8
寸法
  6
CONTINUOUS
 62
     3
100
AcDbLine
 10
204.856574
 20
431.203615
 30
0.0
 11
209.243907
 21
438.913384
 31
0.0
  0
CIRCLE
  5
50D
100
AcDbEntity
  8
寸法
  6
CONTINUOUS
 62
     3
100
AcDbCircle
 10
244.831467
 20
451.923121
 30
0.0
 40
6.5
  0
TEXT
  5
50E
100
AcDbEntity
  8
寸法
  6
CONTINUOUS
 62
     2
100
AcDbText
 10
239.11035
 20
445.673121
 30
0.0
 40
12.5
  1
３
 41
0.84
  7
EXCADSTD
 72
     5
 11
249.11035
 21
445.673121
 31
0.0
100
AcDbText
  0
LEADER
  5
50F
100
AcDbEntity
  8
寸法
  6
CONTINUOUS
 62
     3
100
AcDbLeader
  3
STANDARD
 73
     3
 74
     1
 75
     0
 40
0.0
 76
     2
 10
231.517034
 20
428.221081
 30
0.0
 10
241.648033
 20
446.256046
 30
0.0
 77
     3
1001
ACAD
1000
DSTYLE
1002
{
1070
    41
1040
8.75
1070
     5
1000
_EX_NORM
1070
     6
1000
_EX_NORM
1070
     7
1000
_EX_NORM
1070
   341
1005
28
1002
}
  0
DIMENSION
  5
51B
100
AcDbEntity
  8
寸法
  6
CONTINUOUS
 62
     3
100
AcDbDimension
  2
*D18
 10
85.2
 20
391.151169
 30
0.0
 11
79.325
 21
400.151169
 31
0.0
 70
   160
  3
STANDARD
100
AcDbAlignedDimension
 13
127.535462
 23
409.151169
 33
0.0
 14
153.275012
 24
391.151169
 34
0.0
 50
90.0
100
AcDbRotatedDimension
1001
ACAD
1000
DSTYLE
1002
{
1070
     6
1000
_EX_NORM
1070
     7
1000
_EX_NORM
1070
    41
1040
7.5
1070
    42
1040
1.75
1070
    44
1040
2.5
1070
    73
1070
     0
1070
    74
1070
     0
1070
    75
1070
     0
1070
    76
1070
     0
1070
    77
1070
     1
1070
    78
1070
     8
1070
   140
1040
10.0
1070
   147
1040
0.875
1070
   173
1070
     1
1070
   176
1070
     3
1070
   177
1070
     3
1070
   178
1070
     2
1070
   271
1070
     2
1070
   279
1070
     2
1070
   280
1070
     0
1070
   287
1070
     5
1070
   340
1005
377
1002
}
  0
CIRCLE
  5
51C
100
AcDbEntity
  8
寸法
  6
CONTINUOUS
 62
     3
100
AcDbCircle
 10
64.8
 20
393.0
 30
0.0
 40
6.5
  0
TEXT
  5
51D
100
AcDbEntity
  8
寸法
  6
CONTINUOUS
 62
     2
100
AcDbText
 10
59.078883
 20
386.75
 30
0.0
 40
12.5
  1
６
 41
0.84
  7
EXCADSTD
 72
     5
 11
69.078883
 21
386.75
 31
0.0
100
AcDbText
  0
LEADER
  5
51E
100
AcDbEntity
  8
寸法
  6
CONTINUOUS
 62
     3
100
AcDbLeader
  3
STANDARD
 73
     3
 74
     1
 75
     0
 40
0.0
 76
     2
 10
100.476002
 20
376.47107
 30
0.0
 10
70.697762
 20
390.267528
 30
0.0
 77
     3
1001
ACAD
1000
DSTYLE
1002
{
1070
    41
1040
8.75
1070
     5
1000
_EX_NORM
1070
     6
1000
_EX_NORM
1070
     7
1000
_EX_NORM
1070
   341
1005
28
1002
}
  0
DIMENSION
  5
52A
100
AcDbEntity
  8
寸法
  6
CONTINUOUS
 62
     3
100
AcDbDimension
  2
*D19
 10
489.9
 20
427.151169
 30
0.0
 11
484.025
 21
404.651169
 31
0.0
 70
   160
  3
STANDARD
100
AcDbAlignedDimension
 13
435.044442
 23
382.151169
 33
0.0
 14
435.044442
 24
427.151169
 34
0.0
 50
90.0
100
AcDbRotatedDimension
1001
ACAD
1000
DSTYLE
1002
{
1070
     6
1000
_EX_NORM
1070
     7
1000
_EX_NORM
1070
    41
1040
7.5
1070
    42
1040
1.75
1070
    44
1040
2.5
1070
    73
1070
     0
1070
    74
1070
     0
1070
    75
1070
     0
1070
    76
1070
     0
1070
    77
1070
     1
1070
    78
1070
     8
1070
   140
1040
10.0
1070
   147
1040
0.875
1070
   173
1070
     1
1070
   176
1070
     3
1070
   177
1070
     3
1070
   178
1070
     2
1070
   271
1070
     2
1070
   279
1070
     2
1070
   280
1070
     0
1070
   287
1070
     5
1070
   340
1005
377
1002
}
  0
DIMENSION
  5
536
100
AcDbEntity
  8
寸法
  6
CONTINUOUS
 62
     3
100
AcDbDimension
  2
*D20
 10
435.044442
 20
464.8
 30
0.0
 11
372.175614
 21
470.675
 31
0.0
 70
   160
  1
126
  3
STANDARD
100
AcDbAlignedDimension
 13
309.306787
 23
403.905322
 33
0.0
 14
435.044442
 24
427.151169
 34
0.0
100
AcDbRotatedDimension
1001
ACAD
1000
DSTYLE
1002
{
1070
     6
1000
_EX_NORM
1070
     7
1000
_EX_NORM
1070
    41
1040
7.5
1070
    42
1040
1.75
1070
    44
1040
2.5
1070
    73
1070
     0
1070
    74
1070
     0
1070
    75
1070
     0
1070
    76
1070
     0
1070
    77
1070
     1
1070
    78
1070
     8
1070
   140
1040
10.0
1070
   147
1040
0.875
1070
   173
1070
     1
1070
   176
1070
     3
1070
   177
1070
     3
1070
   178
1070
     2
1070
   271
1070
     2
1070
   279
1070
     2
1070
   280
1070
     0
1070
   287
1070
     5
1070
   340
1005
377
1002
}
  0
CIRCLE
  5
537
100
AcDbEntity
  8
寸法
  6
CONTINUOUS
 62
     3
100
AcDbCircle
 10
408.6
 20
454.560063
 30
0.0
 40
6.5
  0
TEXT
  5
538
100
AcDbEntity
  8
寸法
  6
CONTINUOUS
 62
     2
100
AcDbText
 10
402.878883
 20
448.310063
 30
0.0
 40
12.5
  1
１
 41
0.84
  7
EXCADSTD
 72
     5
 11
412.878883
 21
448.310063
 31
0.0
100
AcDbText
  0
LEADER
  5
539
100
AcDbEntity
  8
寸法
  6
CONTINUOUS
 62
     3
100
AcDbLeader
  3
STANDARD
 73
     3
 74
     1
 75
     0
 40
0.0
 76
     2
 10
423.40855
 20
427.15117
 30
0.0
 10
411.689719
 20
448.841354
 30
0.0
 77
     3
1001
ACAD
1000
DSTYLE
1002
{
1070
    41
1040
8.75
1070
     5
1000
_EX_NORM
1070
     6
1000
_EX_NORM
1070
     7
1000
_EX_NORM
1070
   341
1005
28
1002
}
  0
DIMENSION
  5
545
100
AcDbEntity
  8
寸法
  6
CONTINUOUS
 62
     3
100
AcDbDimension
  2
*D21
 10
462.542934
 20
362.151169
 30
0.0
 11
446.293688
 21
368.026169
 31
0.0
 70
   160
  3
STANDARD
100
AcDbAlignedDimension
 13
430.044442
 23
385.151169
 33
0.0
 14
462.542934
 24
391.150807
 34
0.0
100
AcDbRotatedDimension
1001
ACAD
1000
DSTYLE
1002
{
1070
     6
1000
_EX_NORM
1070
     7
1000
_EX_NORM
1070
    41
1040
7.5
1070
    42
1040
1.75
1070
    44
1040
2.5
1070
    73
1070
     0
1070
    74
1070
     0
1070
    75
1070
     0
1070
    76
1070
     0
1070
    77
1070
     1
1070
    78
1070
     8
1070
   140
1040
10.0
1070
   147
1040
0.875
1070
   173
1070
     1
1070
   176
1070
     3
1070
   177
1070
     3
1070
   178
1070
     2
1070
   271
1070
     2
1070
   279
1070
     2
1070
   280
1070
     0
1070
   287
1070
     5
1070
   340
1005
377
1002
}
  0
DIMENSION
  5
551
100
AcDbEntity
  8
寸法
  6
CONTINUOUS
 62
     2
100
AcDbDimension
  2
*D22
 10
272.8
 20
434.651169
 30
0.0
 11
266.925
 21
396.087464
 31
0.0
 70
   160
  1
77
  3
STANDARD
100
AcDbAlignedDimension
 13
344.69341
 23
357.523759
 33
0.0
 14
385.04442
 24
434.651169
 34
0.0
 50
90.0
100
AcDbRotatedDimension
1001
ACAD
1000
DSTYLE
1002
{
1070
     6
1000
_EX_NORM
1070
     7
1000
_EX_NORM
1070
    41
1040
7.5
1070
    42
1040
1.75
1070
    44
1040
2.5
1070
    73
1070
     0
1070
    74
1070
     0
1070
    75
1070
     0
1070
    76
1070
     0
1070
    77
1070
     1
1070
    78
1070
     8
1070
   140
1040
10.0
1070
   147
1040
0.875
1070
   173
1070
     1
1070
   176
1070
     3
1070
   177
1070
     3
1070
   178
1070
     2
1070
   271
1070
     2
1070
   279
1070
     2
1070
   280
1070
     0
1070
   287
1070
     5
1070
   340
1005
377
1002
}
  0
CIRCLE
  5
552
100
AcDbEntity
  8
寸法
  6
CONTINUOUS
 62
     3
100
AcDbCircle
 10
342.154471
 20
454.560063
 30
0.0
 40
6.5
  0
TEXT
  5
553
100
AcDbEntity
  8
寸法
  6
CONTINUOUS
 62
     2
100
AcDbText
 10
336.433354
 20
448.310063
 30
0.0
 40
12.5
  1
２
 41
0.84
  7
EXCADSTD
 72
     5
 11
346.433354
 21
448.310063
 31
0.0
100
AcDbText
  0
LEADER
  5
554
100
AcDbEntity
  8
寸法
  6
CONTINUOUS
 62
     3
100
AcDbLeader
  3
STANDARD
 73
     3
 74
     1
 75
     0
 40
0.0
 76
     2
 10
324.306246
 20
416.854372
 30
0.0
 10
339.373484
 20
448.685022
 30
0.0
 77
     3
1001
ACAD
1000
DSTYLE
1002
{
1070
    41
1040
8.75
1070
     5
1000
_EX_NORM
1070
     6
1000
_EX_NORM
1070
     7
1000
_EX_NORM
1070
   341
1005
28
1002
}
  0
CIRCLE
  5
555
100
AcDbEntity
  8
寸法
  6
CONTINUOUS
 62
     3
100
AcDbCircle
 10
468.371117
 20
454.560063
 30
0.0
 40
6.5
  0
TEXT
  5
556
100
AcDbEntity
  8
寸法
  6
CONTINUOUS
 62
     2
100
AcDbText
 10
462.65
 20
448.310063
 30
0.0
 40
12.5
  1
７
 41
0.84
  7
EXCADSTD
 72
     5
 11
472.65
 21
448.310063
 31
0.0
100
AcDbText
  0
LEADER
  5
557
100
AcDbEntity
  8
寸法
  6
CONTINUOUS
 62
     3
100
AcDbLeader
  3
STANDARD
 73
     3
 74
     1
 75
     0
 40
0.0
 76
     2
 10
446.04
 20
410.651165
 30
0.0
 10
465.793423
 20
448.59303
 30
0.0
 77
     3
1001
ACAD
1000
DSTYLE
1002
{
1070
    41
1040
8.75
1070
     5
1000
_EX_NORM
1070
     6
1000
_EX_NORM
1070
     7
1000
_EX_NORM
1070
   341
1005
28
1002
}
  0
ENDSEC
  0
SECTION
  2
OBJECTS
  0
DICTIONARY
  5
19
100
AcDbDictionary
  3
ACAD_GROUP
350
1A
  3
ACAD_MLINESTYLE
350
1B
  0
DICTIONARY
  5
1A
102
{ACAD_REACTORS
330
19
102
}
100
AcDbDictionary
  0
DICTIONARY
  5
1B
102
{ACAD_REACTORS
330
19
102
}
100
AcDbDictionary
  3
STANDARD
350
1C
  0
MLINESTYLE
  5
1C
102
{ACAD_REACTORS
330
1B
102
}
100
AcDbMlineStyle
  2
Standard
 70
     0
  3

 62
     0
 51
90.0
 52
90.0
 71
     2
 49
0.5
 62
   256
  6
ByLayer
 49
-0.5
 62
   256
  6
ByLayer
  0
ENDSEC
  0
EOF
