  0
SECTION
  2
HEADER
  9
$ACADVER
  1
AC1014
  9
$ACADMAINTVER
 70
     0
  9
$DWGCODEPAGE
  3
ANSI_932
  9
$INSBASE
 10
0.0
 20
0.0
 30
0.0
  9
$EXTMIN
 10
2.41
 20
10.0
 30
0.0
  9
$EXTMAX
 10
198.0
 20
286.0
 30
0.0
  9
$LIMMIN
 10
0.0
 20
0.0
  9
$LIMMAX
 10
210.0
 20
297.0
  9
$ORTHOMODE
 70
     0
  9
$REGENMODE
 70
     1
  9
$FILLMODE
 70
     1
  9
$QTEXTMODE
 70
     0
  9
$MIRRTEXT
 70
     1
  9
$DRAGMODE
 70
     2
  9
$LTSCALE
 40
1.0
  9
$OSMODE
 70
     0
  9
$ATTMODE
 70
     1
  9
$TEXTSIZE
 40
0.2
  9
$TRACEWID
 40
0.05
  9
$TEXTSTYLE
  7
STANDARD
  9
$CLAYER
  8
LAY-1
  9
$CELTYPE
  6
CONTINUOUS
  9
$CECOLOR
 62
   256
  9
$CELTSCALE
 40
1.0
  9
$DELOBJ
 70
     1
  9
$DISPSILH
 70
     0
  9
$DIMSCALE
 40
1.0
  9
$DIMASZ
 40
0.18
  9
$DIMEXO
 40
0.0625
  9
$DIMDLI
 40
0.38
  9
$DIMRND
 40
0.0
  9
$DIMDLE
 40
0.0
  9
$DIMEXE
 40
0.18
  9
$DIMTP
 40
0.0
  9
$DIMTM
 40
0.0
  9
$DIMTXT
 40
0.18
  9
$DIMCEN
 40
0.09
  9
$DIMTSZ
 40
0.0
  9
$DIMTOL
 70
     0
  9
$DIMLIM
 70
     0
  9
$DIMTIH
 70
     1
  9
$DIMTOH
 70
     1
  9
$DIMSE1
 70
     0
  9
$DIMSE2
 70
     0
  9
$DIMTAD
 70
     0
  9
$DIMZIN
 70
     0
  9
$DIMBLK
  1

  9
$DIMASO
 70
     1
  9
$DIMSHO
 70
     1
  9
$DIMPOST
  1

  9
$DIMAPOST
  1

  9
$DIMALT
 70
     0
  9
$DIMALTD
 70
     2
  9
$DIMALTF
 40
25.4
  9
$DIMLFAC
 40
1.0
  9
$DIMTOFL
 70
     0
  9
$DIMTVP
 40
0.0
  9
$DIMTIX
 70
     0
  9
$DIMSOXD
 70
     0
  9
$DIMSAH
 70
     0
  9
$DIMBLK1
  1

  9
$DIMBLK2
  1

  9
$DIMSTYLE
  2
STANDARD
  9
$DIMCLRD
 70
     0
  9
$DIMCLRE
 70
     0
  9
$DIMCLRT
 70
     0
  9
$DIMTFAC
 40
1.0
  9
$DIMGAP
 40
0.09
  9
$DIMJUST
 70
     0
  9
$DIMSD1
 70
     0
  9
$DIMSD2
 70
     0
  9
$DIMTOLJ
 70
     1
  9
$DIMTZIN
 70
     0
  9
$DIMALTZ
 70
     0
  9
$DIMALTTZ
 70
     0
  9
$DIMFIT
 70
     3
  9
$DIMUPT
 70
     0
  9
$DIMUNIT
 70
     2
  9
$DIMDEC
 70
     4
  9
$DIMTDEC
 70
     4
  9
$DIMALTU
 70
     2
  9
$DIMALTTD
 70
     2
  9
$DIMTXSTY
  7
STANDARD
  9
$DIMAUNIT
 70
     0
  9
$LUNITS
 70
     2
  9
$LUPREC
 70
     4
  9
$SKETCHINC
 40
0.1
  9
$FILLETRAD
 40
0.0
  9
$AUNITS
 70
     0
  9
$AUPREC
 70
     0
  9
$MENU
  1
acad
  9
$ELEVATION
 40
0.0
  9
$PELEVATION
 40
0.0
  9
$THICKNESS
 40
0.0
  9
$LIMCHECK
 70
     0
  9
$BLIPMODE
 70
     1
  9
$CHAMFERA
 40
0.0
  9
$CHAMFERB
 40
0.0
  9
$CHAMFERC
 40
0.0
  9
$CHAMFERD
 40
0.0
  9
$SKPOLY
 70
     0
  9
$TDCREATE
 40
2454515.213783773
  9
$TDUPDATE
 40
2454515.213783773
  9
$TDINDWG
 40
0.0000000000
  9
$TDUSRTIMER
 40
0.0000000000
  9
$USRTIMER
 70
     1
  9
$ANGBASE
 50
0.0
  9
$ANGDIR
 70
     0
  9
$PDMODE
 70
     0
  9
$PDSIZE
 40
0.0
  9
$PLINEWID
 40
0.0
  9
$COORDS
 70
     1
  9
$SPLFRAME
 70
     0
  9
$SPLINETYPE
 70
     6
  9
$SPLINESEGS
 70
     8
  9
$ATTDIA
 70
     0
  9
$ATTREQ
 70
     1
  9
$HANDLING
 70
     1
  9
$HANDSEED
  5
86F
  9
$SURFTAB1
 70
     6
  9
$SURFTAB2
 70
     6
  9
$SURFTYPE
 70
     6
  9
$SURFU
 70
     6
  9
$SURFV
 70
     6
  9
$UCSNAME
  2

  9
$UCSORG
 10
0.0
 20
0.0
 30
0.0
  9
$UCSXDIR
 10
1.0
 20
0.0
 30
0.0
  9
$UCSYDIR
 10
0.0
 20
1.0
 30
0.0
  9
$PUCSNAME
  2

  9
$PUCSORG
 10
0.0
 20
0.0
 30
0.0
  9
$PUCSXDIR
 10
1.0
 20
0.0
 30
0.0
  9
$PUCSYDIR
 10
0.0
 20
1.0
 30
0.0
  9
$USERI1
 70
     0
  9
$USERI2
 70
     0
  9
$USERI3
 70
     0
  9
$USERI4
 70
     0
  9
$USERI5
 70
     0
  9
$USERR1
 40
0.0
  9
$USERR2
 40
0.0
  9
$USERR3
 40
0.0
  9
$USERR4
 40
0.0
  9
$USERR5
 40
0.0
  9
$WORLDVIEW
 70
     1
  9
$SHADEDGE
 70
     3
  9
$SHADEDIF
 70
    70
  9
$TILEMODE
 70
     1
  9
$MAXACTVP
 70
    16
  9
$PINSBASE
 10
0.0
 20
0.0
 30
0.0
  9
$PLIMCHECK
 70
     0
  9
$PEXTMIN
 10
1.000000E+20
 20
1.000000E+20
 30
1.000000E+20
  9
$PEXTMAX
 10
-1.000000E+20
 20
-1.000000E+20
 30
-1.000000E+20
  9
$PLIMMIN
 10
0.0
 20
0.0
  9
$PLIMMAX
 10
12.0
 20
9.0
  9
$UNITMODE
 70
     0
  9
$VISRETAIN
 70
     0
  9
$PLINEGEN
 70
     1
  9
$PSLTSCALE
 70
     0
  9
$TREEDEPTH
 70
  3020
  9
$PICKSTYLE
 70
     1
  9
$CMLSTYLE
  2
Standard
  9
$CMLJUST
 70
     0
  9
$CMLSCALE
 40
1.0
  9
$PROXYGRAPHICS
 70
     0
  9
$MEASUREMENT
 70
     0
  0
ENDSEC
  0
SECTION
  2
CLASSES
  0
CLASS
  1
LWPOLYLINE
  2
AcDbPolyline
  3
"AutoCAD"
 90
        0
280
     0
281
     1
  0
CLASS
  1
IMAGE
  2
AcDbRasterImage
  3
ISM
 90
      127
280
     0
281
     1
  0
CLASS
  1
OLE2FRAME
  2
AcDbOle2Frame
  3
""
 90
        0
280
     0
281
     1
  0
CLASS
  1
HATCH
  2
AcDbHatch
  3
"ACAD_SEDONA"
 90
        0
280
     0
281
     1
  0
CLASS
  1
DICTIONARYVAR
  2
AcDbDictionaryVar
  3
"AutoCAD"
 90
        0
280
     0
281
     0
  0
CLASS
  1
RASTERVARIABLES
  2
AcDbRasterVariables
  3
ISM
 90
        0
280
     0
281
     0
  0
CLASS
  1
IMAGEDEF
  2
AcDbRasterImageDef
  3
ISM
 90
        0
280
     0
281
     0
  0
CLASS
  1
IMAGEDEF_REACTOR
  2
AcDbRasterImageDefReactor
  3
ISM
 90
        1
280
     0
281
     0
  0
CLASS
  1
IDBUFFER
  2
AcDbIdBuffer
  3
"Acad"
 90
        0
280
     0
281
     0
  0
CLASS
  1
SPATIAL_FILTER
  2
AcDbSpatialFilter
  3
"Acad"
 90
        0
280
     0
281
     0
  0
CLASS
  1
XRECORD
  2
AcDbXrecord
  3
"<Built In>"
 90
        0
280
     0
281
     0
  0
CLASS
  1
SORTENTSTABLE
  2
AcDbSortentsTable
  3
"AutoCAD"
 90
        0
280
     0
281
     0
  0
CLASS
  1
LAYER_INDEX
  2
AcDbLayerIndex
  3
"Acad"
 90
        0
280
     0
281
     0
  0
CLASS
  1
SPATIAL_INDEX
  2
AcDbSpatialIndex
  3
"Acad"
 90
        0
280
     0
281
     0
  0
CLASS
  1
OBJECT_PTR
  2
CAseDLPNTableRecord
  3
"ASE-LPNTableRecord"
 90
        1
280
     0
281
     0
  0
CLASS
  1
LAYOUT
  2
AcDbLayout
  3
"AutoCAD 2000"
 90
        1
280
     0
281
     0
  0
CLASS
  1
PLOTSETTINGS
  2
AcDbPlotSettings
  3
"AutoCAD 2000"
 90
        1
280
     0
281
     0
  0
CLASS
  1
ACDBDICTIONARYWDFLT
  2
AcDbDictionaryWithDefault
  3
"AutoCAD 2000"
 90
        1
280
     0
281
     0
  0
CLASS
  1
ACDBPLACEHOLDER
  2
AcDbPlaceHolder
  3
"AutoCAD 2000"
 90
        1
280
     0
281
     0
  0
CLASS
  1
VBA_PROJECT
  2
AcDbVbaProject
  3
"acadvba"
 90
        1
280
     0
281
     0
  0
CLASS
  1
WIPEOUT
  2
AcDbWipeout
  3
WipeOut|AutoCAD Express Tool|expresstools@autodesk.com
 90
      127
280
     0
281
     1
  0
CLASS
  1
WIPEOUTVARIABLES
  2
AcDbWipeoutVariables
  3
WipeOut|AutoCAD Express Tool|expresstools@autodesk.com
 90
        0
280
     0
281
     0
  0
CLASS
  1
RTEXT
  2
RText
  3
RText|AutoCAD Express Tool|expresstools@autodesk.com
 90
        0
280
     0
281
     1
  0
CLASS
  1
ARCALIGNEDTEXT
  2
AcDbArcAlignedText
  3
ATEXT|AutoCAD Express Tool|expresstools@autodesk.com
 90
        0
280
     0
281
     1
  0
ENDSEC
  0
SECTION
  2
TABLES
  0
TABLE
  2
VPORT
  5
7
100
AcDbSymbolTable
 70
     1
  0
VPORT
  5
15
100
AcDbSymbolTableRecord
100
AcDbViewportTableRecord
  2
*ACTIVE
 70
     0
 10
0.0
 20
0.0
 11
1.0
 21
1.0
 12
200.41
 22
296.0
 13
0.0
 23
0.0
 14
1.0
 24
1.0
 15
0.0
 25
0.0
 16
0.0
 26
0.0
 36
1.0
 17
0.0
 27
0.0
 37
0.0
 40
552.0
 41
1.722533
 42
50.0
 43
0.0
 44
0.0
 50
0.0
 51
0.0
 71
     0
 72
   100
 73
     1
 74
     1
 75
     0
 76
     0
 77
     0
 78
     0
  0
ENDTAB
  0
TABLE
  2
LTYPE
  5
4
100
AcDbSymbolTable
 70
     9
  0
LTYPE
  5
11
100
AcDbSymbolTableRecord
100
AcDbLinetypeTableRecord
  2
BYBLOCK
 70
    64
  3

 72
    65
 73
     0
 40
0.0
  0
LTYPE
  5
12
100
AcDbSymbolTableRecord
100
AcDbLinetypeTableRecord
  2
BYLAYER
 70
    64
  3

 72
    65
 73
     0
 40
0.0
  0
LTYPE
  5
13
100
AcDbSymbolTableRecord
100
AcDbLinetypeTableRecord
  2
CONTINUOUS
 70
    64
  3
実線
 72
    65
 73
     0
 40
0.0
  0
LTYPE
  5
1D
100
AcDbSymbolTableRecord
100
AcDbLinetypeTableRecord
  2
EXLTYPE1
 70
    64
  3
破線
 72
    65
 73
     2
 40
3.0
 49
2.0
 74
     0
 49
-1.0
 74
     0
  0
LTYPE
  5
1E
100
AcDbSymbolTableRecord
100
AcDbLinetypeTableRecord
  2
EXLTYPE2
 70
    64
  3
点線
 72
    65
 73
     2
 40
2.0
 49
1.0
 74
     0
 49
-1.0
 74
     0
  0
LTYPE
  5
1F
100
AcDbSymbolTableRecord
100
AcDbLinetypeTableRecord
  2
EXLTYPE3
 70
    64
  3
一点鎖線
 72
    65
 73
     4
 40
10.0
 49
7.0
 74
     0
 49
-1.0
 74
     0
 49
1.0
 74
     0
 49
-1.0
 74
     0
  0
LTYPE
  5
20
100
AcDbSymbolTableRecord
100
AcDbLinetypeTableRecord
  2
EXLTYPE4
 70
    64
  3
二点鎖線
 72
    65
 73
     6
 40
12.0
 49
7.0
 74
     0
 49
-1.0
 74
     0
 49
1.0
 74
     0
 49
-1.0
 74
     0
 49
1.0
 74
     0
 49
-1.0
 74
     0
  0
LTYPE
  5
21
100
AcDbSymbolTableRecord
100
AcDbLinetypeTableRecord
  2
EXLTYPE5
 70
    64
  3
三点鎖線
 72
    65
 73
     8
 40
37.0
 49
30.0
 74
     0
 49
-1.0
 74
     0
 49
1.0
 74
     0
 49
-1.0
 74
     0
 49
1.0
 74
     0
 49
-1.0
 74
     0
 49
1.0
 74
     0
 49
-1.0
 74
     0
  0
LTYPE
  5
22
100
AcDbSymbolTableRecord
100
AcDbLinetypeTableRecord
  2
EXLTYPE6
 70
    64
  3
四点鎖線
 72
    65
 73
    10
 40
39.0
 49
30.0
 74
     0
 49
-1.0
 74
     0
 49
1.0
 74
     0
 49
-1.0
 74
     0
 49
1.0
 74
     0
 49
-1.0
 74
     0
 49
1.0
 74
     0
 49
-1.0
 74
     0
 49
1.0
 74
     0
 49
-1.0
 74
     0
  0
ENDTAB
  0
TABLE
  2
LAYER
  5
2
100
AcDbSymbolTable
 70
     3
  0
LAYER
  5
14
100
AcDbSymbolTableRecord
100
AcDbLayerTableRecord
  2
0
 70
     0
 62
     7
  6
CONTINUOUS
  0
LAYER
  5
25
100
AcDbSymbolTableRecord
100
AcDbLayerTableRecord
  2
LAY-1
 70
    64
 62
     7
  6
CONTINUOUS
  0
LAYER
  5
26
100
AcDbSymbolTableRecord
100
AcDbLayerTableRecord
  2
LAY-2
 70
    64
 62
     7
  6
CONTINUOUS
  0
ENDTAB
  0
TABLE
  2
STYLE
  5
3
100
AcDbSymbolTable
 70
     4
  0
STYLE
  5
17
100
AcDbSymbolTableRecord
100
AcDbTextStyleTableRecord
  2
STANDARD
 70
     0
 40
0.0
 41
1.0
 50
0.0
 71
     0
 42
0.0
  3
monotxt
  4
extfont
  0
STYLE
  5
23
100
AcDbSymbolTableRecord
100
AcDbTextStyleTableRecord
  2
EXCADSTD
 70
    64
 40
0.0
 41
1.0
 50
0.0
 71
     0
 42
0.2
  3
monotxt
  4
extfont
  0
STYLE
  5
24
100
AcDbSymbolTableRecord
100
AcDbTextStyleTableRecord
  2
EXCADVERT
 70
    68
 40
0.0
 41
1.0
 50
0.0
 71
     0
 42
0.286885
  3
monotxt
  4
extfont
  0
STYLE
  5
5E5
100
AcDbSymbolTableRecord
100
AcDbTextStyleTableRecord
  2
EXCADDIM1
 70
    64
 40
0.0
 41
0.84
 50
0.0
 71
     0
 42
0.2
  3
monotxt
  4
extfont
  0
ENDTAB
  0
TABLE
  2
VIEW
  5
5
100
AcDbSymbolTable
 70
     0
  0
ENDTAB
  0
TABLE
  2
UCS
  5
6
100
AcDbSymbolTable
 70
     0
  0
ENDTAB
  0
TABLE
  2
APPID
  5
8
100
AcDbSymbolTable
 70
     1
  0
APPID
  5
16
100
AcDbSymbolTableRecord
100
AcDbRegAppTableRecord
  2
ACAD
 70
     0
  0
ENDTAB
  0
TABLE
  2
DIMSTYLE
  5
9
100
AcDbSymbolTable
 70
     1
  0
DIMSTYLE
105
18
100
AcDbSymbolTableRecord
100
AcDbDimStyleTableRecord
  2
STANDARD
 70
     0
  3

  4

  5

  6

  7

 40
1.0
 41
0.18
 42
0.0625
 43
0.38
 44
0.18
 45
0.0
 46
0.0
 47
0.0
 48
0.0
 71
     0
 72
     0
 73
     1
 74
     1
 75
     0
 76
     0
 77
     0
 78
     0
140
0.18
141
0.09
142
0.0
143
25.4
144
1.0
145
0.0
146
1.0
147
0.09
170
     0
171
     2
172
     1
173
     0
174
     0
175
     0
176
     0
177
     0
178
     0
270
     2
271
     4
272
     4
273
     2
274
     2
275
     0
280
     0
281
     0
282
     0
283
     1
284
     0
285
     0
286
     0
287
     0
288
     0
340
17
  0
ENDTAB
  0
TABLE
  2
BLOCK_RECORD
  5
1
100
AcDbSymbolTable
 70
    24
  0
BLOCK_RECORD
  5
A
100
AcDbSymbolTableRecord
100
AcDbBlockTableRecord
  2
*MODEL_SPACE
  0
BLOCK_RECORD
  5
B
100
AcDbSymbolTableRecord
100
AcDbBlockTableRecord
  2
*PAPER_SPACE
  0
BLOCK_RECORD
  5
27
100
AcDbSymbolTableRecord
100
AcDbBlockTableRecord
  2
_EX_NORM
  0
BLOCK_RECORD
  5
28
100
AcDbSymbolTableRecord
100
AcDbBlockTableRecord
  2
_EX_BNORM
  0
BLOCK_RECORD
  5
29
100
AcDbSymbolTableRecord
100
AcDbBlockTableRecord
  2
_EX_BCIR
  0
BLOCK_RECORD
  5
2A
100
AcDbSymbolTableRecord
100
AcDbBlockTableRecord
  2
_EX_RCIVIL
  0
BLOCK_RECORD
  5
2B
100
AcDbSymbolTableRecord
100
AcDbBlockTableRecord
  2
_EX_SLANT
  0
BLOCK_RECORD
  5
2C
100
AcDbSymbolTableRecord
100
AcDbBlockTableRecord
  2
_EX_NONE
  0
BLOCK_RECORD
  5
2D
100
AcDbSymbolTableRecord
100
AcDbBlockTableRecord
  2
_EX_CIVIL
  0
BLOCK_RECORD
  5
2E
100
AcDbSymbolTableRecord
100
AcDbBlockTableRecord
  2
_EX_WCIR
  0
BLOCK_RECORD
  5
2F
100
AcDbSymbolTableRecord
100
AcDbBlockTableRecord
  2
_EX_WCIR2
  0
BLOCK_RECORD
  5
30
100
AcDbSymbolTableRecord
100
AcDbBlockTableRecord
  2
_EX_WNORM
  0
BLOCK_RECORD
  5
31
100
AcDbSymbolTableRecord
100
AcDbBlockTableRecord
  2
_EX_NNORM
  0
BLOCK_RECORD
  5
32
100
AcDbSymbolTableRecord
100
AcDbBlockTableRecord
  2
_EX_BBOX
  0
BLOCK_RECORD
  5
33
100
AcDbSymbolTableRecord
100
AcDbBlockTableRecord
  2
_EX_WBOX
  0
BLOCK_RECORD
  5
34
100
AcDbSymbolTableRecord
100
AcDbBlockTableRecord
  2
_EX_INTEGRAL
  0
BLOCK_RECORD
  5
5DA
100
AcDbSymbolTableRecord
100
AcDbBlockTableRecord
  2
*D14
  0
BLOCK_RECORD
  5
5E7
100
AcDbSymbolTableRecord
100
AcDbBlockTableRecord
  2
*D15
  0
BLOCK_RECORD
  5
5F3
100
AcDbSymbolTableRecord
100
AcDbBlockTableRecord
  2
*D16
  0
BLOCK_RECORD
  5
5FF
100
AcDbSymbolTableRecord
100
AcDbBlockTableRecord
  2
*D17
  0
BLOCK_RECORD
  5
60A
100
AcDbSymbolTableRecord
100
AcDbBlockTableRecord
  2
*D18
  0
BLOCK_RECORD
  5
616
100
AcDbSymbolTableRecord
100
AcDbBlockTableRecord
  2
*D19
  0
BLOCK_RECORD
  5
622
100
AcDbSymbolTableRecord
100
AcDbBlockTableRecord
  2
*D20
  0
BLOCK_RECORD
  5
62E
100
AcDbSymbolTableRecord
100
AcDbBlockTableRecord
  2
*D21
  0
BLOCK_RECORD
  5
665
100
AcDbSymbolTableRecord
100
AcDbBlockTableRecord
  2
*D22
  0
BLOCK_RECORD
  5
752
100
AcDbSymbolTableRecord
100
AcDbBlockTableRecord
  2
*D23
  0
ENDTAB
  0
ENDSEC
  0
SECTION
  2
BLOCKS
  0
BLOCK
  5
D
100
AcDbEntity
  8
0
100
AcDbBlockBegin
  2
*MODEL_SPACE
 70
     0
 10
0.0
 20
0.0
 30
0.0
  3
*MODEL_SPACE
  1

  0
ENDBLK
  5
E
100
AcDbEntity
  8
0
100
AcDbBlockEnd
  0
BLOCK
  5
F
100
AcDbEntity
 67
     1
  8
0
100
AcDbBlockBegin
  2
*PAPER_SPACE
 70
     0
 10
0.0
 20
0.0
 30
0.0
  3
*PAPER_SPACE
  1

  0
ENDBLK
  5
10
100
AcDbEntity
 67
     1
  8
0
100
AcDbBlockEnd
  0
BLOCK
  5
35
100
AcDbEntity
  8
0
100
AcDbBlockBegin
  2
_EX_NORM
 70
     0
 10
0.0
 20
0.0
 30
0.0
  3
_EX_NORM
  1

  0
LINE
  5
36
100
AcDbEntity
  8
0
  6
CONTINUOUS
 62
     0
100
AcDbLine
 10
0.0
 20
0.0
 30
0.0
 11
-1.0
 21
0.0
 31
0.0
  0
LINE
  5
37
100
AcDbEntity
  8
0
  6
CONTINUOUS
 62
     0
100
AcDbLine
 10
0.0
 20
0.0
 30
0.0
 11
-1.0
 21
0.166667
 31
0.0
  0
LINE
  5
38
100
AcDbEntity
  8
0
  6
CONTINUOUS
 62
     0
100
AcDbLine
 10
0.0
 20
0.0
 30
0.0
 11
-1.0
 21
-0.166667
 31
0.0
  0
ENDBLK
  5
39
100
AcDbEntity
  8
0
100
AcDbBlockEnd
  0
BLOCK
  5
3A
100
AcDbEntity
  8
0
100
AcDbBlockBegin
  2
_EX_BNORM
 70
     0
 10
0.0
 20
0.0
 30
0.0
  3
_EX_BNORM
  1

  0
LINE
  5
3B
100
AcDbEntity
  8
0
  6
CONTINUOUS
 62
     0
100
AcDbLine
 10
0.0
 20
0.0
 30
0.0
 11
-1.0
 21
0.0
 31
0.0
  0
LINE
  5
3C
100
AcDbEntity
  8
0
  6
CONTINUOUS
 62
     0
100
AcDbLine
 10
0.0
 20
0.0
 30
0.0
 11
-1.0
 21
0.166667
 31
0.0
  0
LINE
  5
3D
100
AcDbEntity
  8
0
  6
CONTINUOUS
 62
     0
100
AcDbLine
 10
0.0
 20
0.0
 30
0.0
 11
-1.0
 21
-0.166667
 31
0.0
  0
LINE
  5
3E
100
AcDbEntity
  8
0
  6
CONTINUOUS
 62
     0
100
AcDbLine
 10
0.0
 20
0.0
 30
0.0
 11
-1.0
 21
0.083333
 31
0.0
  0
LINE
  5
3F
100
AcDbEntity
  8
0
  6
CONTINUOUS
 62
     0
100
AcDbLine
 10
0.0
 20
0.0
 30
0.0
 11
-1.0
 21
-0.083333
 31
0.0
  0
LINE
  5
40
100
AcDbEntity
  8
0
  6
CONTINUOUS
 62
     0
100
AcDbLine
 10
-1.0
 20
0.166667
 30
0.0
 11
-1.0
 21
-0.166667
 31
0.0
  0
ENDBLK
  5
41
100
AcDbEntity
  8
0
100
AcDbBlockEnd
  0
BLOCK
  5
42
100
AcDbEntity
  8
0
100
AcDbBlockBegin
  2
_EX_BCIR
 70
     0
 10
0.0
 20
0.0
 30
0.0
  3
_EX_BCIR
  1

  0
LINE
  5
43
100
AcDbEntity
  8
0
  6
CONTINUOUS
 62
     0
100
AcDbLine
 10
0.0
 20
0.0
 30
0.0
 11
-1.0
 21
0.0
 31
0.0
  0
CIRCLE
  5
44
100
AcDbEntity
  8
0
  6
CONTINUOUS
 62
     0
100
AcDbCircle
 10
0.0
 20
0.0
 30
0.0
 40
0.5
  0
CIRCLE
  5
45
100
AcDbEntity
  8
0
  6
CONTINUOUS
 62
     0
100
AcDbCircle
 10
0.0
 20
0.0
 30
0.0
 40
0.25
  0
ENDBLK
  5
46
100
AcDbEntity
  8
0
100
AcDbBlockEnd
  0
BLOCK
  5
47
100
AcDbEntity
  8
0
100
AcDbBlockBegin
  2
_EX_RCIVIL
 70
     0
 10
0.0
 20
0.0
 30
0.0
  3
_EX_RCIVIL
  1

  0
LINE
  5
48
100
AcDbEntity
  8
0
  6
CONTINUOUS
 62
     0
100
AcDbLine
 10
0.0
 20
0.0
 30
0.0
 11
-1.0
 21
0.0
 31
0.0
  0
LINE
  5
49
100
AcDbEntity
  8
0
  6
CONTINUOUS
 62
     0
100
AcDbLine
 10
-1.0
 20
-0.25
 30
0.0
 11
0.0
 21
-0.25
 31
0.0
  0
LINE
  5
4A
100
AcDbEntity
  8
0
  6
CONTINUOUS
 62
     0
100
AcDbLine
 10
-1.0
 20
-0.125
 30
0.0
 11
0.0
 21
-0.125
 31
0.0
  0
ENDBLK
  5
4B
100
AcDbEntity
  8
0
100
AcDbBlockEnd
  0
BLOCK
  5
4C
100
AcDbEntity
  8
0
100
AcDbBlockBegin
  2
_EX_SLANT
 70
     0
 10
0.0
 20
0.0
 30
0.0
  3
_EX_SLANT
  1

  0
LINE
  5
4D
100
AcDbEntity
  8
0
  6
CONTINUOUS
 62
     0
100
AcDbLine
 10
0.0
 20
0.0
 30
0.0
 11
-1.0
 21
0.0
 31
0.0
  0
LINE
  5
4E
100
AcDbEntity
  8
0
  6
CONTINUOUS
 62
     0
100
AcDbLine
 10
0.707107
 20
0.707107
 30
0.0
 11
-0.707107
 21
-0.707107
 31
0.0
  0
ENDBLK
  5
4F
100
AcDbEntity
  8
0
100
AcDbBlockEnd
  0
BLOCK
  5
50
100
AcDbEntity
  8
0
100
AcDbBlockBegin
  2
_EX_NONE
 70
     0
 10
0.0
 20
0.0
 30
0.0
  3
_EX_NONE
  1

  0
LINE
  5
51
100
AcDbEntity
  8
0
  6
CONTINUOUS
 62
     0
100
AcDbLine
 10
0.0
 20
0.0
 30
0.0
 11
-1.0
 21
0.0
 31
0.0
  0
ENDBLK
  5
52
100
AcDbEntity
  8
0
100
AcDbBlockEnd
  0
BLOCK
  5
53
100
AcDbEntity
  8
0
100
AcDbBlockBegin
  2
_EX_CIVIL
 70
     0
 10
0.0
 20
0.0
 30
0.0
  3
_EX_CIVIL
  1

  0
LINE
  5
54
100
AcDbEntity
  8
0
  6
CONTINUOUS
 62
     0
100
AcDbLine
 10
0.0
 20
0.0
 30
0.0
 11
-1.0
 21
0.0
 31
0.0
  0
LINE
  5
55
100
AcDbEntity
  8
0
  6
CONTINUOUS
 62
     0
100
AcDbLine
 10
-1.0
 20
0.25
 30
0.0
 11
0.0
 21
0.25
 31
0.0
  0
LINE
  5
56
100
AcDbEntity
  8
0
  6
CONTINUOUS
 62
     0
100
AcDbLine
 10
-1.0
 20
0.125
 30
0.0
 11
0.0
 21
0.125
 31
0.0
  0
ENDBLK
  5
57
100
AcDbEntity
  8
0
100
AcDbBlockEnd
  0
BLOCK
  5
58
100
AcDbEntity
  8
0
100
AcDbBlockBegin
  2
_EX_WCIR
 70
     0
 10
0.0
 20
0.0
 30
0.0
  3
_EX_WCIR
  1

  0
LINE
  5
59
100
AcDbEntity
  8
0
  6
CONTINUOUS
 62
     0
100
AcDbLine
 10
0.0
 20
0.0
 30
0.0
 11
-1.0
 21
0.0
 31
0.0
  0
CIRCLE
  5
5A
100
AcDbEntity
  8
0
  6
CONTINUOUS
 62
     0
100
AcDbCircle
 10
0.0
 20
0.0
 30
0.0
 40
0.5
  0
ENDBLK
  5
5B
100
AcDbEntity
  8
0
100
AcDbBlockEnd
  0
BLOCK
  5
5C
100
AcDbEntity
  8
0
100
AcDbBlockBegin
  2
_EX_WCIR2
 70
     0
 10
0.0
 20
0.0
 30
0.0
  3
_EX_WCIR2
  1

  0
LINE
  5
5D
100
AcDbEntity
  8
0
  6
CONTINUOUS
 62
     0
100
AcDbLine
 10
-0.5
 20
0.0
 30
0.0
 11
-1.0
 21
0.0
 31
0.0
  0
CIRCLE
  5
5E
100
AcDbEntity
  8
0
  6
CONTINUOUS
 62
     0
100
AcDbCircle
 10
0.0
 20
0.0
 30
0.0
 40
0.5
  0
ENDBLK
  5
5F
100
AcDbEntity
  8
0
100
AcDbBlockEnd
  0
BLOCK
  5
60
100
AcDbEntity
  8
0
100
AcDbBlockBegin
  2
_EX_WNORM
 70
     0
 10
0.0
 20
0.0
 30
0.0
  3
_EX_WNORM
  1

  0
LINE
  5
61
100
AcDbEntity
  8
0
  6
CONTINUOUS
 62
     0
100
AcDbLine
 10
-1.0
 20
0.0
 30
0.0
 11
-1.0
 21
0.0
 31
0.0
  0
LINE
  5
62
100
AcDbEntity
  8
0
  6
CONTINUOUS
 62
     0
100
AcDbLine
 10
0.0
 20
0.0
 30
0.0
 11
-1.0
 21
0.166667
 31
0.0
  0
LINE
  5
63
100
AcDbEntity
  8
0
  6
CONTINUOUS
 62
     0
100
AcDbLine
 10
0.0
 20
0.0
 30
0.0
 11
-1.0
 21
-0.166667
 31
0.0
  0
LINE
  5
64
100
AcDbEntity
  8
0
  6
CONTINUOUS
 62
     0
100
AcDbLine
 10
-1.0
 20
0.166667
 30
0.0
 11
-1.0
 21
-0.166667
 31
0.0
  0
ENDBLK
  5
65
100
AcDbEntity
  8
0
100
AcDbBlockEnd
  0
BLOCK
  5
66
100
AcDbEntity
  8
0
100
AcDbBlockBegin
  2
_EX_NNORM
 70
     0
 10
0.0
 20
0.0
 30
0.0
  3
_EX_NNORM
  1

  0
LINE
  5
67
100
AcDbEntity
  8
0
  6
CONTINUOUS
 62
     0
100
AcDbLine
 10
0.0
 20
0.0
 30
0.0
 11
-1.0
 21
0.0
 31
0.0
  0
LINE
  5
68
100
AcDbEntity
  8
0
  6
CONTINUOUS
 62
     0
100
AcDbLine
 10
0.0
 20
0.0
 30
0.0
 11
-1.0
 21
0.166667
 31
0.0
  0
LINE
  5
69
100
AcDbEntity
  8
0
  6
CONTINUOUS
 62
     0
100
AcDbLine
 10
0.0
 20
0.0
 30
0.0
 11
-1.0
 21
-0.166667
 31
0.0
  0
LINE
  5
6A
100
AcDbEntity
  8
0
  6
CONTINUOUS
 62
     0
100
AcDbLine
 10
-1.0
 20
0.166667
 30
0.0
 11
-1.0
 21
-0.166667
 31
0.0
  0
ENDBLK
  5
6B
100
AcDbEntity
  8
0
100
AcDbBlockEnd
  0
BLOCK
  5
6C
100
AcDbEntity
  8
0
100
AcDbBlockBegin
  2
_EX_BBOX
 70
     0
 10
0.0
 20
0.0
 30
0.0
  3
_EX_BBOX
  1

  0
LINE
  5
6D
100
AcDbEntity
  8
0
  6
CONTINUOUS
 62
     0
100
AcDbLine
 10
0.0
 20
0.0
 30
0.0
 11
-1.0
 21
0.0
 31
0.0
  0
LINE
  5
6E
100
AcDbEntity
  8
0
  6
CONTINUOUS
 62
     0
100
AcDbLine
 10
-0.5
 20
0.5
 30
0.0
 11
0.5
 21
0.5
 31
0.0
  0
LINE
  5
6F
100
AcDbEntity
  8
0
  6
CONTINUOUS
 62
     0
100
AcDbLine
 10
0.5
 20
0.5
 30
0.0
 11
0.5
 21
-0.5
 31
0.0
  0
LINE
  5
70
100
AcDbEntity
  8
0
  6
CONTINUOUS
 62
     0
100
AcDbLine
 10
0.5
 20
-0.5
 30
0.0
 11
-0.5
 21
-0.5
 31
0.0
  0
LINE
  5
71
100
AcDbEntity
  8
0
  6
CONTINUOUS
 62
     0
100
AcDbLine
 10
-0.5
 20
-0.5
 30
0.0
 11
-0.5
 21
0.5
 31
0.0
  0
LINE
  5
72
100
AcDbEntity
  8
0
  6
CONTINUOUS
 62
     0
100
AcDbLine
 10
-0.25
 20
0.25
 30
0.0
 11
0.25
 21
0.25
 31
0.0
  0
LINE
  5
73
100
AcDbEntity
  8
0
  6
CONTINUOUS
 62
     0
100
AcDbLine
 10
0.25
 20
0.25
 30
0.0
 11
0.25
 21
-0.25
 31
0.0
  0
LINE
  5
74
100
AcDbEntity
  8
0
  6
CONTINUOUS
 62
     0
100
AcDbLine
 10
0.25
 20
-0.25
 30
0.0
 11
-0.25
 21
-0.25
 31
0.0
  0
LINE
  5
75
100
AcDbEntity
  8
0
  6
CONTINUOUS
 62
     0
100
AcDbLine
 10
-0.25
 20
-0.25
 30
0.0
 11
-0.25
 21
0.25
 31
0.0
  0
ENDBLK
  5
76
100
AcDbEntity
  8
0
100
AcDbBlockEnd
  0
BLOCK
  5
77
100
AcDbEntity
  8
0
100
AcDbBlockBegin
  2
_EX_WBOX
 70
     0
 10
0.0
 20
0.0
 30
0.0
  3
_EX_WBOX
  1

  0
LINE
  5
78
100
AcDbEntity
  8
0
  6
CONTINUOUS
 62
     0
100
AcDbLine
 10
-0.5
 20
0.0
 30
0.0
 11
-1.0
 21
0.0
 31
0.0
  0
LINE
  5
79
100
AcDbEntity
  8
0
  6
CONTINUOUS
 62
     0
100
AcDbLine
 10
-0.5
 20
0.5
 30
0.0
 11
0.5
 21
0.5
 31
0.0
  0
LINE
  5
7A
100
AcDbEntity
  8
0
  6
CONTINUOUS
 62
     0
100
AcDbLine
 10
0.5
 20
0.5
 30
0.0
 11
0.5
 21
-0.5
 31
0.0
  0
LINE
  5
7B
100
AcDbEntity
  8
0
  6
CONTINUOUS
 62
     0
100
AcDbLine
 10
0.5
 20
-0.5
 30
0.0
 11
-0.5
 21
-0.5
 31
0.0
  0
LINE
  5
7C
100
AcDbEntity
  8
0
  6
CONTINUOUS
 62
     0
100
AcDbLine
 10
-0.5
 20
-0.5
 30
0.0
 11
-0.5
 21
0.5
 31
0.0
  0
ENDBLK
  5
7D
100
AcDbEntity
  8
0
100
AcDbBlockEnd
  0
BLOCK
  5
7E
100
AcDbEntity
  8
0
100
AcDbBlockBegin
  2
_EX_INTEGRAL
 70
     0
 10
0.0
 20
0.0
 30
0.0
  3
_EX_INTEGRAL
  1

  0
LINE
  5
7F
100
AcDbEntity
  8
0
  6
CONTINUOUS
 62
     0
100
AcDbLine
 10
0.0
 20
0.0
 30
0.0
 11
-1.0
 21
0.0
 31
0.0
  0
ARC
  5
80
100
AcDbEntity
  8
0
  6
CONTINUOUS
 62
     0
100
AcDbCircle
 10
0.542115
 20
0.164992
 30
0.0
 40
0.56667
100
AcDbArc
 50
73.07249
 51
196.927513
  0
ARC
  5
81
100
AcDbEntity
  8
0
  6
CONTINUOUS
 62
     0
100
AcDbCircle
 10
-0.542115
 20
-0.164992
 30
0.0
 40
0.56667
100
AcDbArc
 50
253.072487
 51
16.927513
  0
ENDBLK
  5
82
100
AcDbEntity
  8
0
100
AcDbBlockEnd
  0
BLOCK
  5
5DB
100
AcDbEntity
  8
0
100
AcDbBlockBegin
  2
*D14
 70
    65
 10
0.0
 20
0.0
 30
0.0
  3
*D14
  1

  0
LINE
  5
5DC
100
AcDbEntity
  8
LAY-2
  6
CONTINUOUS
 62
     3
100
AcDbLine
 10
58.0
 20
136.111164
 30
0.0
 11
238.0
 21
136.111164
 31
0.0
  0
LINE
  5
5DD
100
AcDbEntity
  8
LAY-2
  6
CONTINUOUS
 62
     3
100
AcDbLine
 10
64.0
 20
137.111164
 30
0.0
 11
58.0
 21
136.111164
 31
0.0
  0
LINE
  5
5DE
100
AcDbEntity
  8
LAY-2
  6
CONTINUOUS
 62
     3
100
AcDbLine
 10
58.0
 20
136.111164
 30
0.0
 11
64.0
 21
135.111164
 31
0.0
  0
LINE
  5
5DF
100
AcDbEntity
  8
LAY-2
  6
CONTINUOUS
 62
     3
100
AcDbLine
 10
232.0
 20
135.111164
 30
0.0
 11
238.0
 21
136.111164
 31
0.0
  0
LINE
  5
5E0
100
AcDbEntity
  8
LAY-2
  6
CONTINUOUS
 62
     3
100
AcDbLine
 10
238.0
 20
136.111164
 30
0.0
 11
232.0
 21
137.111164
 31
0.0
  0
TEXT
  5
5E1
100
AcDbEntity
  8
LAY-2
  6
CONTINUOUS
 62
     2
100
AcDbText
 10
139.6
 20
136.711164
 30
0.0
 40
8.0
  1
180
 41
0.84
  7
EXCADSTD
 72
     1
 11
148.0
 21
136.711164
 31
0.0
100
AcDbText
  0
LINE
  5
5E2
100
AcDbEntity
  8
LAY-2
  6
CONTINUOUS
 62
     3
100
AcDbLine
 10
58.0
 20
205.115582
 30
0.0
 11
58.0
 21
134.111164
 31
0.0
  0
LINE
  5
5E3
100
AcDbEntity
  8
LAY-2
  6
CONTINUOUS
 62
     3
100
AcDbLine
 10
238.0
 20
205.115582
 30
0.0
 11
238.0
 21
134.111164
 31
0.0
  0
ENDBLK
  5
5E4
100
AcDbEntity
  8
0
100
AcDbBlockEnd
  0
BLOCK
  5
5E8
100
AcDbEntity
  8
0
100
AcDbBlockBegin
  2
*D15
 70
    65
 10
0.0
 20
0.0
 30
0.0
  3
*D15
  1

  0
LINE
  5
5E9
100
AcDbEntity
  8
LAY-2
  6
CONTINUOUS
 62
     3
100
AcDbLine
 10
290.382497
 20
171.0
 30
0.0
 11
290.382497
 21
134.111164
 31
0.0
  0
LINE
  5
5EA
100
AcDbEntity
  8
LAY-2
  6
CONTINUOUS
 62
     3
100
AcDbLine
 10
300.382497
 20
171.0
 30
0.0
 11
300.382497
 21
134.111164
 31
0.0
  0
LINE
  5
5EB
100
AcDbEntity
  8
LAY-2
  6
CONTINUOUS
 62
     3
100
AcDbLine
 10
284.382497
 20
136.111164
 30
0.0
 11
320.982497
 21
136.111164
 31
0.0
  0
LINE
  5
5EC
100
AcDbEntity
  8
LAY-2
  6
CONTINUOUS
 62
     3
100
AcDbLine
 10
284.382497
 20
135.111164
 30
0.0
 11
290.382497
 21
136.111164
 31
0.0
  0
LINE
  5
5ED
100
AcDbEntity
  8
LAY-2
  6
CONTINUOUS
 62
     3
100
AcDbLine
 10
290.382497
 20
136.111164
 30
0.0
 11
284.382497
 21
137.111164
 31
0.0
  0
LINE
  5
5EE
100
AcDbEntity
  8
LAY-2
  6
CONTINUOUS
 62
     3
100
AcDbLine
 10
306.382497
 20
137.111164
 30
0.0
 11
300.382497
 21
136.111164
 31
0.0
  0
LINE
  5
5EF
100
AcDbEntity
  8
LAY-2
  6
CONTINUOUS
 62
     3
100
AcDbLine
 10
300.382497
 20
136.111164
 30
0.0
 11
306.382497
 21
135.111164
 31
0.0
  0
TEXT
  5
5F0
100
AcDbEntity
  8
LAY-2
  6
CONTINUOUS
 62
     2
100
AcDbText
 10
304.982497
 20
136.711164
 30
0.0
 40
8.0
  1
%%c10
 41
0.84
  7
EXCADSTD
 72
     1
 11
313.382497
 21
136.711164
 31
0.0
100
AcDbText
  0
ENDBLK
  5
5F1
100
AcDbEntity
  8
0
100
AcDbBlockEnd
  0
BLOCK
  5
5F4
100
AcDbEntity
  8
0
100
AcDbBlockBegin
  2
*D16
 70
    65
 10
0.0
 20
0.0
 30
0.0
  3
*D16
  1

  0
LINE
  5
5F5
100
AcDbEntity
  8
LAY-2
  6
CONTINUOUS
 62
     3
100
AcDbLine
 10
133.0
 20
353.905045
 30
0.0
 11
133.0
 21
373.6
 31
0.0
  0
LINE
  5
5F6
100
AcDbEntity
  8
LAY-2
  6
CONTINUOUS
 62
     3
100
AcDbLine
 10
163.0
 20
353.905045
 30
0.0
 11
163.0
 21
373.6
 31
0.0
  0
TEXT
  5
5F7
100
AcDbEntity
  8
LAY-2
  6
CONTINUOUS
 62
     2
100
AcDbText
 10
142.12
 20
372.2
 30
0.0
 40
8.0
  1
30
 41
0.84
  7
EXCADSTD
 72
     1
 11
148.0
 21
372.2
 31
0.0
100
AcDbText
  0
LINE
  5
5F8
100
AcDbEntity
  8
LAY-2
  6
CONTINUOUS
 62
     3
100
AcDbLine
 10
133.0
 20
371.6
 30
0.0
 11
163.0
 21
371.6
 31
0.0
  0
LINE
  5
5F9
100
AcDbEntity
  8
LAY-2
  6
CONTINUOUS
 62
     3
100
AcDbLine
 10
139.0
 20
372.6
 30
0.0
 11
133.0
 21
371.6
 31
0.0
  0
LINE
  5
5FA
100
AcDbEntity
  8
LAY-2
  6
CONTINUOUS
 62
     3
100
AcDbLine
 10
133.0
 20
371.6
 30
0.0
 11
139.0
 21
370.6
 31
0.0
  0
LINE
  5
5FB
100
AcDbEntity
  8
LAY-2
  6
CONTINUOUS
 62
     3
100
AcDbLine
 10
157.0
 20
370.6
 30
0.0
 11
163.0
 21
371.6
 31
0.0
  0
LINE
  5
5FC
100
AcDbEntity
  8
LAY-2
  6
CONTINUOUS
 62
     3
100
AcDbLine
 10
163.0
 20
371.6
 30
0.0
 11
157.0
 21
372.6
 31
0.0
  0
ENDBLK
  5
5FD
100
AcDbEntity
  8
0
100
AcDbBlockEnd
  0
BLOCK
  5
600
100
AcDbEntity
  8
0
100
AcDbBlockBegin
  2
*D17
 70
    65
 10
0.0
 20
0.0
 30
0.0
  3
*D17
  1

  0
LINE
  5
601
100
AcDbEntity
  8
LAY-2
  6
CONTINUOUS
 62
     3
100
AcDbLine
 10
295.382497
 20
343.535411
 30
0.0
 11
295.382497
 21
368.789463
 31
0.0
  0
TEXT
  5
602
100
AcDbEntity
  8
LAY-2
  6
CONTINUOUS
 62
     2
100
AcDbText
 10
309.502497
 20
367.389463
 30
0.0
 40
8.0
  1
40
 41
0.84
  7
EXCADSTD
 72
     1
 11
315.382497
 21
367.389463
 31
0.0
100
AcDbText
  0
LINE
  5
603
100
AcDbEntity
  8
LAY-2
  6
CONTINUOUS
 62
     3
100
AcDbLine
 10
335.382497
 20
366.789463
 30
0.0
 11
295.382497
 21
366.789463
 31
0.0
  0
LINE
  5
604
100
AcDbEntity
  8
LAY-2
  6
CONTINUOUS
 62
     3
100
AcDbLine
 10
329.382497
 20
365.789463
 30
0.0
 11
335.382497
 21
366.789463
 31
0.0
  0
LINE
  5
605
100
AcDbEntity
  8
LAY-2
  6
CONTINUOUS
 62
     3
100
AcDbLine
 10
335.382497
 20
366.789463
 30
0.0
 11
329.382497
 21
367.789463
 31
0.0
  0
LINE
  5
606
100
AcDbEntity
  8
LAY-2
  6
CONTINUOUS
 62
     3
100
AcDbLine
 10
301.382497
 20
367.789463
 30
0.0
 11
295.382497
 21
366.789463
 31
0.0
  0
LINE
  5
607
100
AcDbEntity
  8
LAY-2
  6
CONTINUOUS
 62
     3
100
AcDbLine
 10
295.382497
 20
366.789463
 30
0.0
 11
301.382497
 21
365.789463
 31
0.0
  0
ENDBLK
  5
608
100
AcDbEntity
  8
0
100
AcDbBlockEnd
  0
BLOCK
  5
60B
100
AcDbEntity
  8
0
100
AcDbBlockBegin
  2
*D18
 70
    65
 10
0.0
 20
0.0
 30
0.0
  3
*D18
  1

  0
LINE
  5
60C
100
AcDbEntity
  8
LAY-2
  6
CONTINUOUS
 62
     3
100
AcDbLine
 10
284.382497
 20
325.0
 30
0.0
 11
284.382497
 21
383.789463
 31
0.0
  0
TEXT
  5
60D
100
AcDbEntity
  8
LAY-2
  6
CONTINUOUS
 62
     2
100
AcDbText
 10
304.002497
 20
382.389463
 30
0.0
 40
8.0
  1
51
 41
0.84
  7
EXCADSTD
 72
     1
 11
309.882497
 21
382.389463
 31
0.0
100
AcDbText
  0
LINE
  5
60E
100
AcDbEntity
  8
LAY-2
  6
CONTINUOUS
 62
     3
100
AcDbLine
 10
335.382497
 20
381.789463
 30
0.0
 11
284.382497
 21
381.789463
 31
0.0
  0
LINE
  5
60F
100
AcDbEntity
  8
LAY-2
  6
CONTINUOUS
 62
     3
100
AcDbLine
 10
329.382497
 20
380.789463
 30
0.0
 11
335.382497
 21
381.789463
 31
0.0
  0
LINE
  5
610
100
AcDbEntity
  8
LAY-2
  6
CONTINUOUS
 62
     3
100
AcDbLine
 10
335.382497
 20
381.789463
 30
0.0
 11
329.382497
 21
382.789463
 31
0.0
  0
LINE
  5
611
100
AcDbEntity
  8
LAY-2
  6
CONTINUOUS
 62
     3
100
AcDbLine
 10
290.382497
 20
382.789463
 30
0.0
 11
284.382497
 21
381.789463
 31
0.0
  0
LINE
  5
612
100
AcDbEntity
  8
LAY-2
  6
CONTINUOUS
 62
     3
100
AcDbLine
 10
284.382497
 20
381.789463
 30
0.0
 11
290.382497
 21
380.789463
 31
0.0
  0
LINE
  5
613
100
AcDbEntity
  8
LAY-2
  6
CONTINUOUS
 62
     3
100
AcDbLine
 10
335.382497
 20
355.789463
 30
0.0
 11
335.382497
 21
383.789463
 31
0.0
  0
ENDBLK
  5
614
100
AcDbEntity
  8
0
100
AcDbBlockEnd
  0
BLOCK
  5
617
100
AcDbEntity
  8
0
100
AcDbBlockBegin
  2
*D19
 70
    65
 10
0.0
 20
0.0
 30
0.0
  3
*D19
  1

  0
LINE
  5
618
100
AcDbEntity
  8
LAY-2
  6
CONTINUOUS
 62
     3
100
AcDbLine
 10
284.62
 20
324.0
 30
0.0
 11
270.382497
 21
324.0
 31
0.0
  0
LINE
  5
619
100
AcDbEntity
  8
LAY-2
  6
CONTINUOUS
 62
     3
100
AcDbLine
 10
334.382497
 20
354.789463
 30
0.0
 11
270.382497
 21
354.789463
 31
0.0
  0
TEXT
  5
61A
100
AcDbEntity
  8
LAY-2
  6
CONTINUOUS
 62
     2
100
AcDbText
 10
271.782497
 20
333.514732
 30
0.0
 40
8.0
  1
31
 50
90.0
 41
0.84
  7
EXCADSTD
 72
     1
 11
271.782497
 21
339.394732
 31
0.0
100
AcDbText
  0
LINE
  5
61B
100
AcDbEntity
  8
LAY-2
  6
CONTINUOUS
 62
     3
100
AcDbLine
 10
272.382497
 20
324.0
 30
0.0
 11
272.382497
 21
354.789463
 31
0.0
  0
LINE
  5
61C
100
AcDbEntity
  8
LAY-2
  6
CONTINUOUS
 62
     3
100
AcDbLine
 10
271.382497
 20
330.0
 30
0.0
 11
272.382497
 21
324.0
 31
0.0
  0
LINE
  5
61D
100
AcDbEntity
  8
LAY-2
  6
CONTINUOUS
 62
     3
100
AcDbLine
 10
272.382497
 20
324.0
 30
0.0
 11
273.382497
 21
330.0
 31
0.0
  0
LINE
  5
61E
100
AcDbEntity
  8
LAY-2
  6
CONTINUOUS
 62
     3
100
AcDbLine
 10
273.382497
 20
348.789463
 30
0.0
 11
272.382497
 21
354.789463
 31
0.0
  0
LINE
  5
61F
100
AcDbEntity
  8
LAY-2
  6
CONTINUOUS
 62
     3
100
AcDbLine
 10
272.382497
 20
354.789463
 30
0.0
 11
271.382497
 21
348.789463
 31
0.0
  0
ENDBLK
  5
620
100
AcDbEntity
  8
0
100
AcDbBlockEnd
  0
BLOCK
  5
623
100
AcDbEntity
  8
0
100
AcDbBlockBegin
  2
*D20
 70
    65
 10
0.0
 20
0.0
 30
0.0
  3
*D20
  1

  0
LINE
  5
624
100
AcDbEntity
  8
LAY-2
  6
CONTINUOUS
 62
     3
100
AcDbLine
 10
358.582497
 20
336.289463
 30
0.0
 11
371.582497
 21
336.289463
 31
0.0
  0
LINE
  5
625
100
AcDbEntity
  8
LAY-2
  6
CONTINUOUS
 62
     3
100
AcDbLine
 10
358.582497
 20
307.289463
 30
0.0
 11
371.582497
 21
307.289463
 31
0.0
  0
TEXT
  5
626
100
AcDbEntity
  8
LAY-2
  6
CONTINUOUS
 62
     2
100
AcDbText
 10
368.982497
 20
315.909463
 30
0.0
 40
8.0
  1
29
 50
90.0
 41
0.84
  7
EXCADSTD
 72
     1
 11
368.982497
 21
321.789463
 31
0.0
100
AcDbText
  0
LINE
  5
627
100
AcDbEntity
  8
LAY-2
  6
CONTINUOUS
 62
     3
100
AcDbLine
 10
369.582497
 20
336.289463
 30
0.0
 11
369.582497
 21
307.289463
 31
0.0
  0
LINE
  5
628
100
AcDbEntity
  8
LAY-2
  6
CONTINUOUS
 62
     3
100
AcDbLine
 10
370.582497
 20
330.289463
 30
0.0
 11
369.582497
 21
336.289463
 31
0.0
  0
LINE
  5
629
100
AcDbEntity
  8
LAY-2
  6
CONTINUOUS
 62
     3
100
AcDbLine
 10
369.582497
 20
336.289463
 30
0.0
 11
368.582497
 21
330.289463
 31
0.0
  0
LINE
  5
62A
100
AcDbEntity
  8
LAY-2
  6
CONTINUOUS
 62
     3
100
AcDbLine
 10
368.582497
 20
313.289463
 30
0.0
 11
369.582497
 21
307.289463
 31
0.0
  0
LINE
  5
62B
100
AcDbEntity
  8
LAY-2
  6
CONTINUOUS
 62
     3
100
AcDbLine
 10
369.582497
 20
307.289463
 30
0.0
 11
370.582497
 21
313.289463
 31
0.0
  0
ENDBLK
  5
62C
100
AcDbEntity
  8
0
100
AcDbBlockEnd
  0
BLOCK
  5
62F
100
AcDbEntity
  8
0
100
AcDbBlockBegin
  2
*D21
 70
    65
 10
0.0
 20
0.0
 30
0.0
  3
*D21
  1

  0
LINE
  5
630
100
AcDbEntity
  8
LAY-2
  6
CONTINUOUS
 62
     3
100
AcDbLine
 10
336.382497
 20
354.789463
 30
0.0
 11
386.582497
 21
354.789463
 31
0.0
  0
LINE
  5
631
100
AcDbEntity
  8
LAY-2
  6
CONTINUOUS
 62
     3
100
AcDbLine
 10
336.382497
 20
288.789463
 30
0.0
 11
386.582497
 21
288.789463
 31
0.0
  0
TEXT
  5
632
100
AcDbEntity
  8
LAY-2
  6
CONTINUOUS
 62
     2
100
AcDbText
 10
383.982497
 20
315.909463
 30
0.0
 40
8.0
  1
66
 50
90.0
 41
0.84
  7
EXCADSTD
 72
     1
 11
383.982497
 21
321.789463
 31
0.0
100
AcDbText
  0
LINE
  5
633
100
AcDbEntity
  8
LAY-2
  6
CONTINUOUS
 62
     3
100
AcDbLine
 10
384.582497
 20
354.789463
 30
0.0
 11
384.582497
 21
288.789463
 31
0.0
  0
LINE
  5
634
100
AcDbEntity
  8
LAY-2
  6
CONTINUOUS
 62
     3
100
AcDbLine
 10
385.582497
 20
348.789463
 30
0.0
 11
384.582497
 21
354.789463
 31
0.0
  0
LINE
  5
635
100
AcDbEntity
  8
LAY-2
  6
CONTINUOUS
 62
     3
100
AcDbLine
 10
384.582497
 20
354.789463
 30
0.0
 11
383.582497
 21
348.789463
 31
0.0
  0
LINE
  5
636
100
AcDbEntity
  8
LAY-2
  6
CONTINUOUS
 62
     3
100
AcDbLine
 10
383.582497
 20
294.789463
 30
0.0
 11
384.582497
 21
288.789463
 31
0.0
  0
LINE
  5
637
100
AcDbEntity
  8
LAY-2
  6
CONTINUOUS
 62
     3
100
AcDbLine
 10
384.582497
 20
288.789463
 30
0.0
 11
385.582497
 21
294.789463
 31
0.0
  0
ENDBLK
  5
638
100
AcDbEntity
  8
0
100
AcDbBlockEnd
  0
BLOCK
  5
666
100
AcDbEntity
  8
0
100
AcDbBlockBegin
  2
*D22
 70
    65
 10
0.0
 20
0.0
 30
0.0
  3
*D22
  1

  0
LINE
  5
667
100
AcDbEntity
  8
LAY-2
  6
CONTINUOUS
 62
     3
100
AcDbLine
 10
204.0
 20
171.115582
 30
0.0
 11
260.0
 21
171.115582
 31
0.0
  0
LINE
  5
668
100
AcDbEntity
  8
LAY-2
  6
CONTINUOUS
 62
     3
100
AcDbLine
 10
162.417169
 20
323.115582
 30
0.0
 11
260.0
 21
323.115582
 31
0.0
  0
TEXT
  5
669
100
AcDbEntity
  8
LAY-2
  6
CONTINUOUS
 62
     2
100
AcDbText
 10
257.4
 20
238.715582
 30
0.0
 40
8.0
  1
152
 50
90.0
 41
0.84
  7
EXCADSTD
 72
     1
 11
257.4
 21
247.115582
 31
0.0
100
AcDbText
  0
LINE
  5
66A
100
AcDbEntity
  8
LAY-2
  6
CONTINUOUS
 62
     3
100
AcDbLine
 10
258.0
 20
171.115582
 30
0.0
 11
258.0
 21
323.115582
 31
0.0
  0
LINE
  5
66B
100
AcDbEntity
  8
LAY-2
  6
CONTINUOUS
 62
     3
100
AcDbLine
 10
257.0
 20
177.115582
 30
0.0
 11
258.0
 21
171.115582
 31
0.0
  0
LINE
  5
66C
100
AcDbEntity
  8
LAY-2
  6
CONTINUOUS
 62
     3
100
AcDbLine
 10
258.0
 20
171.115582
 30
0.0
 11
259.0
 21
177.115582
 31
0.0
  0
LINE
  5
66D
100
AcDbEntity
  8
LAY-2
  6
CONTINUOUS
 62
     3
100
AcDbLine
 10
259.0
 20
317.115582
 30
0.0
 11
258.0
 21
323.115582
 31
0.0
  0
LINE
  5
66E
100
AcDbEntity
  8
LAY-2
  6
CONTINUOUS
 62
     3
100
AcDbLine
 10
258.0
 20
323.115582
 30
0.0
 11
257.0
 21
317.115582
 31
0.0
  0
ENDBLK
  5
66F
100
AcDbEntity
  8
0
100
AcDbBlockEnd
  0
BLOCK
  5
753
100
AcDbEntity
  8
0
100
AcDbBlockBegin
  2
*D23
 70
    65
 10
0.0
 20
0.0
 30
0.0
  3
*D23
  1

  0
TEXT
  5
754
100
AcDbEntity
  8
LAY-2
  6
CONTINUOUS
 62
     2
100
AcDbText
 10
368.982497
 20
336.299463
 30
0.0
 40
8.0
  1
18.5
 50
90.0
 41
0.84
  7
EXCADSTD
 72
     1
 11
368.982497
 21
345.539463
 31
0.0
100
AcDbText
  0
LINE
  5
755
100
AcDbEntity
  8
LAY-2
  6
CONTINUOUS
 62
     3
100
AcDbLine
 10
369.582497
 20
336.289463
 30
0.0
 11
369.582497
 21
354.789463
 31
0.0
  0
LINE
  5
756
100
AcDbEntity
  8
LAY-2
  6
CONTINUOUS
 62
     3
100
AcDbLine
 10
368.582497
 20
342.289463
 30
0.0
 11
369.582497
 21
336.289463
 31
0.0
  0
LINE
  5
757
100
AcDbEntity
  8
LAY-2
  6
CONTINUOUS
 62
     3
100
AcDbLine
 10
369.582497
 20
336.289463
 30
0.0
 11
370.582497
 21
342.289463
 31
0.0
  0
LINE
  5
758
100
AcDbEntity
  8
LAY-2
  6
CONTINUOUS
 62
     3
100
AcDbLine
 10
370.582497
 20
348.789463
 30
0.0
 11
369.582497
 21
354.789463
 31
0.0
  0
LINE
  5
759
100
AcDbEntity
  8
LAY-2
  6
CONTINUOUS
 62
     3
100
AcDbLine
 10
369.582497
 20
354.789463
 30
0.0
 11
368.582497
 21
348.789463
 31
0.0
  0
ENDBLK
  5
75A
100
AcDbEntity
  8
0
100
AcDbBlockEnd
  0
ENDSEC
  0
SECTION
  2
ENTITIES
  0
CIRCLE
  5
83
100
AcDbEntity
  8
LAY-1
  6
CONTINUOUS
 62
     6
100
AcDbCircle
 10
338.4
 20
268.0
 30
0.0
 40
8.0
  0
TEXT
  5
84
100
AcDbEntity
  8
LAY-1
  6
CONTINUOUS
 62
     2
100
AcDbText
 10
332.4
 20
263.0
 30
0.0
 40
10.0
  1
４
 41
1.008
  7
EXCADSTD
 72
     5
 11
342.0
 21
263.0
 31
0.0
100
AcDbText
  0
CIRCLE
  5
85
100
AcDbEntity
  8
LAY-1
  6
CONTINUOUS
 62
     6
100
AcDbCircle
 10
363.4
 20
268.0
 30
0.0
 40
8.0
  0
TEXT
  5
86
100
AcDbEntity
  8
LAY-1
  6
CONTINUOUS
 62
     2
100
AcDbText
 10
357.4
 20
263.0
 30
0.0
 40
10.0
  1
３
 41
1.008
  7
EXCADSTD
 72
     5
 11
367.0
 21
263.0
 31
0.0
100
AcDbText
  0
CIRCLE
  5
87
100
AcDbEntity
  8
LAY-1
  6
CONTINUOUS
 62
     6
100
AcDbCircle
 10
190.8
 20
356.2
 30
0.0
 40
8.0
  0
TEXT
  5
88
100
AcDbEntity
  8
LAY-1
  6
CONTINUOUS
 62
     2
100
AcDbText
 10
184.8
 20
351.2
 30
0.0
 40
10.0
  1
１
 41
1.008
  7
EXCADSTD
 72
     5
 11
194.4
 21
351.2
 31
0.0
100
AcDbText
  0
CIRCLE
  5
89
100
AcDbEntity
  8
LAY-1
  6
CONTINUOUS
 62
     6
100
AcDbCircle
 10
215.8
 20
356.2
 30
0.0
 40
8.0
  0
TEXT
  5
8A
100
AcDbEntity
  8
LAY-1
  6
CONTINUOUS
 62
     2
100
AcDbText
 10
209.8
 20
351.2
 30
0.0
 40
10.0
  1
２
 41
1.008
  7
EXCADSTD
 72
     5
 11
219.4
 21
351.2
 31
0.0
100
AcDbText
  0
LINE
  5
8B
100
AcDbEntity
  8
LAY-1
  6
CONTINUOUS
 62
     7
100
AcDbLine
 10
40.0
 20
20.0
 30
0.0
 11
396.0
 21
20.0
 31
0.0
  0
LINE
  5
8C
100
AcDbEntity
  8
LAY-1
  6
CONTINUOUS
 62
     7
100
AcDbLine
 10
396.0
 20
572.0
 30
0.0
 11
396.0
 21
20.0
 31
0.0
  0
LINE
  5
8D
100
AcDbEntity
  8
LAY-1
  6
CONTINUOUS
 62
     7
100
AcDbLine
 10
40.0
 20
572.0
 30
0.0
 11
40.0
 21
20.0
 31
0.0
  0
LINE
  5
8E
100
AcDbEntity
  8
LAY-1
  6
CONTINUOUS
 62
     7
100
AcDbLine
 10
396.0
 20
64.0
 30
0.0
 11
40.0
 21
64.0
 31
0.0
  0
TEXT
  5
8F
100
AcDbEntity
  8
LAY-1
  6
CONTINUOUS
 62
     2
100
AcDbText
 10
45.0
 20
55.2
 30
0.0
 40
7.6
  1
設計
 41
1.105263
  7
EXCADSTD
 72
     5
 11
63.332
 21
55.2
 31
0.0
100
AcDbText
  0
TEXT
  5
90
100
AcDbEntity
  8
LAY-1
  6
CONTINUOUS
 62
     2
100
AcDbText
 10
75.0
 20
55.2
 30
0.0
 40
7.6
  1
製図
 41
1.105263
  7
EXCADSTD
 72
     5
 11
93.332
 21
55.2
 31
0.0
100
AcDbText
  0
TEXT
  5
91
100
AcDbEntity
  8
LAY-1
  6
CONTINUOUS
 62
     2
100
AcDbText
 10
103.0
 20
55.2
 30
0.0
 40
7.6
  1
検図
 41
1.105263
  7
EXCADSTD
 72
     5
 11
121.332
 21
55.2
 31
0.0
100
AcDbText
  0
CIRCLE
  5
92
100
AcDbEntity
  8
LAY-1
  6
CONTINUOUS
 62
     7
100
AcDbCircle
 10
50.0
 20
24.8
 30
0.0
 40
0.3
  0
CIRCLE
  5
93
100
AcDbEntity
  8
LAY-1
  6
CONTINUOUS
 62
     7
100
AcDbCircle
 10
60.0
 20
24.8
 30
0.0
 40
0.3
  0
CIRCLE
  5
94
100
AcDbEntity
  8
LAY-1
  6
CONTINUOUS
 62
     7
100
AcDbCircle
 10
80.0
 20
24.8
 30
0.0
 40
0.3
  0
CIRCLE
  5
95
100
AcDbEntity
  8
LAY-1
  6
CONTINUOUS
 62
     7
100
AcDbCircle
 10
90.0
 20
24.8
 30
0.0
 40
0.3
  0
TEXT
  5
96
100
AcDbEntity
  8
LAY-1
  6
CONTINUOUS
 62
     2
100
AcDbText
 10
129.0
 20
55.2
 30
0.0
 40
7.6
  1
承認
 41
1.105263
  7
EXCADSTD
 72
     5
 11
147.332
 21
55.2
 31
0.0
100
AcDbText
  0
TEXT
  5
97
100
AcDbEntity
  8
LAY-1
  6
CONTINUOUS
 62
     2
100
AcDbText
 10
157.0
 20
61.6
 30
0.0
 40
7.6
  1
品名
 41
1.052632
  7
EXCADVERT
 72
     3
 11
157.0
 21
42.4
 31
0.0
100
AcDbText
  0
TEXT
  5
98
100
AcDbEntity
  8
LAY-1
  6
CONTINUOUS
 62
     2
100
AcDbText
 10
382.758519
 20
41.74
 30
0.0
 40
8.0
  1
２
 41
1.05
  7
EXCADSTD
 72
     5
 11
390.758519
 21
41.74
 31
0.0
100
AcDbText
  0
TEXT
  5
99
100
AcDbEntity
  8
LAY-1
  6
CONTINUOUS
 62
     2
100
AcDbText
 10
285.0
 20
38.6
 30
0.0
 40
7.6
  1
図番
 41
1.052632
  7
EXCADVERT
 72
     3
 11
285.0
 21
21.4
 31
0.0
100
AcDbText
  0
TEXT
  5
9A
100
AcDbEntity
  8
LAY-1
  6
CONTINUOUS
 62
     2
100
AcDbText
 10
369.0
 20
61.6
 30
0.0
 40
7.6
  1
尺度
 41
1.052632
  7
EXCADVERT
 72
     3
 11
369.0
 21
42.4
 31
0.0
100
AcDbText
  0
TEXT
  5
9B
100
AcDbEntity
  8
LAY-1
  6
CONTINUOUS
 62
     2
100
AcDbText
 10
285.0
 20
61.6
 30
0.0
 40
7.6
  1
品番
 41
1.052632
  7
EXCADVERT
 72
     3
 11
285.0
 21
42.4
 31
0.0
100
AcDbText
  0
TEXT
  5
9C
100
AcDbEntity
  8
LAY-1
  6
CONTINUOUS
 62
     2
100
AcDbText
 10
374.538519
 20
53.98
 30
0.0
 40
8.0
  1
１
 41
1.05
  7
EXCADSTD
 72
     5
 11
382.538519
 21
53.98
 31
0.0
100
AcDbText
  0
TEXT
  5
9D
100
AcDbEntity
  8
LAY-1
  6
CONTINUOUS
 62
     7
100
AcDbText
 10
178.6
 20
45.7
 30
0.0
 40
12.0
  1
タオルリング
 41
0.98
  7
EXCADSTD
 72
     5
 11
262.6
 21
45.7
 31
0.0
100
AcDbText
  0
LINE
  5
9E
100
AcDbEntity
  8
LAY-1
  6
CONTINUOUS
 62
     7
100
AcDbLine
 10
40.0
 20
572.0
 30
0.0
 11
396.0
 21
572.0
 31
0.0
  0
TEXT
  5
9F
100
AcDbEntity
  8
LAY-1
  6
CONTINUOUS
 62
     2
100
AcDbText
 10
174.0
 20
563.2
 30
0.0
 40
7.6
  1
番号
 41
0.994737
  7
EXCADSTD
 72
     5
 11
190.4988
 21
563.2
 31
0.0
100
AcDbText
  0
TEXT
  5
A0
100
AcDbEntity
  8
LAY-1
  6
CONTINUOUS
 62
     2
100
AcDbText
 10
206.0
 20
563.2
 30
0.0
 40
7.6
  1
品名
 41
1.989474
  7
EXCADSTD
 72
     5
 11
238.9976
 21
563.2
 31
0.0
100
AcDbText
  0
TEXT
  5
A1
100
AcDbEntity
  8
LAY-1
  6
CONTINUOUS
 62
     2
100
AcDbText
 10
266.0
 20
563.2
 30
0.0
 40
7.6
  1
材質
 41
1.989474
  7
EXCADSTD
 72
     5
 11
298.9976
 21
563.2
 31
0.0
100
AcDbText
  0
TEXT
  5
A2
100
AcDbEntity
  8
LAY-1
  6
CONTINUOUS
 62
     2
100
AcDbText
 10
316.0
 20
563.2
 30
0.0
 40
7.6
  1
個数
 41
0.994737
  7
EXCADSTD
 72
     5
 11
332.4988
 21
563.2
 31
0.0
100
AcDbText
  0
TEXT
  5
A3
100
AcDbEntity
  8
LAY-1
  6
CONTINUOUS
 62
     2
100
AcDbText
 10
348.0
 20
563.2
 30
0.0
 40
7.6
  1
備考
 41
1.989474
  7
EXCADSTD
 72
     5
 11
380.9976
 21
563.2
 31
0.0
100
AcDbText
  0
TEXT
  5
A4
100
AcDbEntity
  8
LAY-1
  6
CONTINUOUS
 62
     2
100
AcDbText
 10
179.0
 20
553.2
 30
0.0
 40
7.6
  1
１
 41
0.884211
  7
EXCADSTD
 72
     5
 11
185.4
 21
553.2
 31
0.0
100
AcDbText
  0
TEXT
  5
A5
100
AcDbEntity
  8
LAY-1
  6
CONTINUOUS
 62
     2
100
AcDbText
 10
321.0
 20
553.2
 30
0.0
 40
7.6
  1
１
 41
0.884211
  7
EXCADSTD
 72
     5
 11
327.4
 21
553.2
 31
0.0
100
AcDbText
  0
TEXT
  5
A6
100
AcDbEntity
  8
LAY-1
  6
CONTINUOUS
 62
     2
100
AcDbText
 10
179.0
 20
543.2
 30
0.0
 40
7.6
  1
２
 41
0.884211
  7
EXCADSTD
 72
     5
 11
185.4
 21
543.2
 31
0.0
100
AcDbText
  0
TEXT
  5
A7
100
AcDbEntity
  8
LAY-1
  6
CONTINUOUS
 62
     2
100
AcDbText
 10
179.0
 20
533.2
 30
0.0
 40
7.6
  1
３
 41
0.884211
  7
EXCADSTD
 72
     5
 11
185.4
 21
533.2
 31
0.0
100
AcDbText
  0
TEXT
  5
A8
100
AcDbEntity
  8
LAY-1
  6
CONTINUOUS
 62
     2
100
AcDbText
 10
196.8
 20
543.2
 30
0.0
 40
7.6
  1
リング
 41
0.884211
  7
EXCADSTD
 72
     5
 11
220.8
 21
543.2
 31
0.0
100
AcDbText
  0
TEXT
  5
A9
100
AcDbEntity
  8
LAY-1
  6
CONTINUOUS
 62
     2
100
AcDbText
 10
321.0
 20
543.2
 30
0.0
 40
7.6
  1
１
 41
0.884211
  7
EXCADSTD
 72
     5
 11
327.4
 21
543.2
 31
0.0
100
AcDbText
  0
TEXT
  5
AA
100
AcDbEntity
  8
LAY-1
  6
CONTINUOUS
 62
     2
100
AcDbText
 10
179.0
 20
523.2
 30
0.0
 40
7.6
  1
４
 41
0.884211
  7
EXCADSTD
 72
     5
 11
185.4
 21
523.2
 31
0.0
100
AcDbText
  0
TEXT
  5
AB
100
AcDbEntity
  8
LAY-1
  6
CONTINUOUS
 62
     2
100
AcDbText
 10
256.8
 20
523.2
 30
0.0
 40
7.6
  1
ステンレス
 41
0.884211
  7
EXCADSTD
 72
     5
 11
296.8
 21
523.2
 31
0.0
100
AcDbText
  0
TEXT
  5
AC
100
AcDbEntity
  8
LAY-1
  6
CONTINUOUS
 62
     2
100
AcDbText
 10
256.8
 20
543.2
 30
0.0
 40
7.6
  1
ステンレス
 41
0.884211
  7
EXCADSTD
 72
     5
 11
296.8
 21
543.2
 31
0.0
100
AcDbText
  0
LINE
  5
AD
100
AcDbEntity
  8
LAY-1
  6
CONTINUOUS
 62
     2
100
AcDbLine
 10
156.236
 20
33.156
 30
0.0
 11
156.236
 21
34.24
 31
0.0
  0
LINE
  5
AE
100
AcDbEntity
  8
LAY-1
  6
CONTINUOUS
 62
     2
100
AcDbLine
 10
156.236
 20
34.24
 30
0.0
 11
161.416
 21
34.24
 31
0.0
  0
LINE
  5
AF
100
AcDbEntity
  8
LAY-1
  6
CONTINUOUS
 62
     2
100
AcDbLine
 10
161.416
 20
34.24
 30
0.0
 11
161.416
 21
33.156
 31
0.0
  0
LINE
  5
B0
100
AcDbEntity
  8
LAY-1
  6
CONTINUOUS
 62
     2
100
AcDbLine
 10
161.416
 20
33.156
 30
0.0
 11
156.236
 21
33.156
 31
0.0
  0
LINE
  5
B1
100
AcDbEntity
  8
LAY-1
  6
CONTINUOUS
 62
     2
100
AcDbLine
 10
156.536
 20
33.456
 30
0.0
 11
156.536
 21
33.94
 31
0.0
  0
LINE
  5
B2
100
AcDbEntity
  8
LAY-1
  6
CONTINUOUS
 62
     2
100
AcDbLine
 10
156.536
 20
33.94
 30
0.0
 11
161.116
 21
33.94
 31
0.0
  0
LINE
  5
B3
100
AcDbEntity
  8
LAY-1
  6
CONTINUOUS
 62
     2
100
AcDbLine
 10
161.116
 20
33.94
 30
0.0
 11
161.116
 21
33.456
 31
0.0
  0
LINE
  5
B4
100
AcDbEntity
  8
LAY-1
  6
CONTINUOUS
 62
     2
100
AcDbLine
 10
161.116
 20
33.456
 30
0.0
 11
156.536
 21
33.456
 31
0.0
  0
LINE
  5
B5
100
AcDbEntity
  8
LAY-1
  6
CONTINUOUS
 62
     2
100
AcDbLine
 10
156.236
 20
30.504
 30
0.0
 11
156.236
 21
31.588
 31
0.0
  0
LINE
  5
B6
100
AcDbEntity
  8
LAY-1
  6
CONTINUOUS
 62
     2
100
AcDbLine
 10
156.236
 20
31.588
 30
0.0
 11
161.416
 21
31.588
 31
0.0
  0
LINE
  5
B7
100
AcDbEntity
  8
LAY-1
  6
CONTINUOUS
 62
     2
100
AcDbLine
 10
161.416
 20
31.588
 30
0.0
 11
161.416
 21
30.504
 31
0.0
  0
LINE
  5
B8
100
AcDbEntity
  8
LAY-1
  6
CONTINUOUS
 62
     2
100
AcDbLine
 10
161.416
 20
30.504
 30
0.0
 11
156.236
 21
30.504
 31
0.0
  0
LINE
  5
B9
100
AcDbEntity
  8
LAY-1
  6
CONTINUOUS
 62
     2
100
AcDbLine
 10
156.536
 20
30.804
 30
0.0
 11
156.536
 21
31.288
 31
0.0
  0
LINE
  5
BA
100
AcDbEntity
  8
LAY-1
  6
CONTINUOUS
 62
     2
100
AcDbLine
 10
156.536
 20
31.288
 30
0.0
 11
161.116
 21
31.288
 31
0.0
  0
LINE
  5
BB
100
AcDbEntity
  8
LAY-1
  6
CONTINUOUS
 62
     2
100
AcDbLine
 10
161.116
 20
31.288
 30
0.0
 11
161.116
 21
30.804
 31
0.0
  0
LINE
  5
BC
100
AcDbEntity
  8
LAY-1
  6
CONTINUOUS
 62
     2
100
AcDbLine
 10
161.116
 20
30.804
 30
0.0
 11
156.536
 21
30.804
 31
0.0
  0
LINE
  5
BD
100
AcDbEntity
  8
LAY-1
  6
CONTINUOUS
 62
     2
100
AcDbLine
 10
163.876
 20
33.156
 30
0.0
 11
163.876
 21
34.24
 31
0.0
  0
LINE
  5
BE
100
AcDbEntity
  8
LAY-1
  6
CONTINUOUS
 62
     2
100
AcDbLine
 10
163.876
 20
34.24
 30
0.0
 11
164.928
 21
34.24
 31
0.0
  0
LINE
  5
BF
100
AcDbEntity
  8
LAY-1
  6
CONTINUOUS
 62
     2
100
AcDbLine
 10
164.928
 20
34.24
 30
0.0
 11
164.928
 21
33.156
 31
0.0
  0
LINE
  5
C0
100
AcDbEntity
  8
LAY-1
  6
CONTINUOUS
 62
     2
100
AcDbLine
 10
164.928
 20
33.156
 30
0.0
 11
163.876
 21
33.156
 31
0.0
  0
LINE
  5
C1
100
AcDbEntity
  8
LAY-1
  6
CONTINUOUS
 62
     2
100
AcDbLine
 10
164.176
 20
33.456
 30
0.0
 11
164.176
 21
33.94
 31
0.0
  0
LINE
  5
C2
100
AcDbEntity
  8
LAY-1
  6
CONTINUOUS
 62
     2
100
AcDbLine
 10
164.176
 20
33.94
 30
0.0
 11
164.628
 21
33.94
 31
0.0
  0
LINE
  5
C3
100
AcDbEntity
  8
LAY-1
  6
CONTINUOUS
 62
     2
100
AcDbLine
 10
164.628
 20
33.94
 30
0.0
 11
164.628
 21
33.456
 31
0.0
  0
LINE
  5
C4
100
AcDbEntity
  8
LAY-1
  6
CONTINUOUS
 62
     2
100
AcDbLine
 10
164.628
 20
33.456
 30
0.0
 11
164.176
 21
33.456
 31
0.0
  0
LINE
  5
C5
100
AcDbEntity
  8
LAY-1
  6
CONTINUOUS
 62
     2
100
AcDbLine
 10
166.144
 20
33.156
 30
0.0
 11
166.144
 21
34.24
 31
0.0
  0
LINE
  5
C6
100
AcDbEntity
  8
LAY-1
  6
CONTINUOUS
 62
     2
100
AcDbLine
 10
166.144
 20
34.24
 30
0.0
 11
167.196
 21
34.24
 31
0.0
  0
LINE
  5
C7
100
AcDbEntity
  8
LAY-1
  6
CONTINUOUS
 62
     2
100
AcDbLine
 10
167.196
 20
34.24
 30
0.0
 11
167.196
 21
33.156
 31
0.0
  0
LINE
  5
C8
100
AcDbEntity
  8
LAY-1
  6
CONTINUOUS
 62
     2
100
AcDbLine
 10
167.196
 20
33.156
 30
0.0
 11
166.144
 21
33.156
 31
0.0
  0
LINE
  5
C9
100
AcDbEntity
  8
LAY-1
  6
CONTINUOUS
 62
     2
100
AcDbLine
 10
166.444
 20
33.456
 30
0.0
 11
166.444
 21
33.94
 31
0.0
  0
LINE
  5
CA
100
AcDbEntity
  8
LAY-1
  6
CONTINUOUS
 62
     2
100
AcDbLine
 10
166.444
 20
33.94
 30
0.0
 11
166.896
 21
33.94
 31
0.0
  0
LINE
  5
CB
100
AcDbEntity
  8
LAY-1
  6
CONTINUOUS
 62
     2
100
AcDbLine
 10
166.896
 20
33.94
 30
0.0
 11
166.896
 21
33.456
 31
0.0
  0
LINE
  5
CC
100
AcDbEntity
  8
LAY-1
  6
CONTINUOUS
 62
     2
100
AcDbLine
 10
166.896
 20
33.456
 30
0.0
 11
166.444
 21
33.456
 31
0.0
  0
LINE
  5
CD
100
AcDbEntity
  8
LAY-1
  6
CONTINUOUS
 62
     2
100
AcDbLine
 10
156.236
 20
27.224
 30
0.0
 11
161.619962
 21
27.224
 31
0.0
  0
ARC
  5
CE
100
AcDbEntity
  8
LAY-1
  6
CONTINUOUS
 62
     2
100
AcDbCircle
 10
161.619962
 20
29.176
 30
0.0
 40
1.952
100
AcDbArc
 50
270.0
 51
334.0
  0
LINE
  5
CF
100
AcDbEntity
  8
LAY-1
  6
CONTINUOUS
 62
     2
100
AcDbLine
 10
163.374407
 20
28.3203
 30
0.0
 11
165.155461
 21
31.972
 31
0.0
  0
LINE
  5
D0
100
AcDbEntity
  8
LAY-1
  6
CONTINUOUS
 62
     2
100
AcDbLine
 10
165.155461
 20
31.972
 30
0.0
 11
167.0159
 21
31.972
 31
0.0
  0
LINE
  5
D1
100
AcDbEntity
  8
LAY-1
  6
CONTINUOUS
 62
     2
100
AcDbLine
 10
167.0159
 20
31.972
 30
0.0
 11
164.921832
 21
27.678524
 31
0.0
  0
ARC
  5
D2
100
AcDbEntity
  8
LAY-1
  6
CONTINUOUS
 62
     2
100
AcDbCircle
 10
161.851551
 20
29.176
 30
0.0
 40
3.416
100
AcDbArc
 50
270.0
 51
334.0
  0
LINE
  5
D3
100
AcDbEntity
  8
LAY-1
  6
CONTINUOUS
 62
     2
100
AcDbLine
 10
161.851551
 20
25.76
 30
0.0
 11
156.236
 21
25.76
 31
0.0
  0
LINE
  5
D4
100
AcDbEntity
  8
LAY-1
  6
CONTINUOUS
 62
     2
100
AcDbLine
 10
156.236
 20
25.76
 30
0.0
 11
156.236
 21
27.224
 31
0.0
  0
LINE
  5
D5
100
AcDbEntity
  8
LAY-1
  6
CONTINUOUS
 62
     2
100
AcDbLine
 10
156.536
 20
26.06
 30
0.0
 11
156.536
 21
26.924
 31
0.0
  0
LINE
  5
D6
100
AcDbEntity
  8
LAY-1
  6
CONTINUOUS
 62
     2
100
AcDbLine
 10
156.536
 20
26.924
 30
0.0
 11
161.619962
 21
26.924
 31
0.0
  0
ARC
  5
D7
100
AcDbEntity
  8
LAY-1
  6
CONTINUOUS
 62
     2
100
AcDbCircle
 10
161.619962
 20
29.176
 30
0.0
 40
2.252
100
AcDbArc
 50
270.0
 51
334.0
  0
LINE
  5
D8
100
AcDbEntity
  8
LAY-1
  6
CONTINUOUS
 62
     2
100
AcDbLine
 10
163.644046
 20
28.188788
 30
0.0
 11
165.342922
 21
31.672
 31
0.0
  0
LINE
  5
D9
100
AcDbEntity
  8
LAY-1
  6
CONTINUOUS
 62
     2
100
AcDbLine
 10
165.342922
 20
31.672
 30
0.0
 11
166.535799
 21
31.672
 31
0.0
  0
LINE
  5
DA
100
AcDbEntity
  8
LAY-1
  6
CONTINUOUS
 62
     2
100
AcDbLine
 10
166.535799
 20
31.672
 30
0.0
 11
164.652193
 21
27.810036
 31
0.0
  0
ARC
  5
DB
100
AcDbEntity
  8
LAY-1
  6
CONTINUOUS
 62
     2
100
AcDbCircle
 10
161.851551
 20
29.176
 30
0.0
 40
3.116
100
AcDbArc
 50
270.0
 51
334.0
  0
LINE
  5
DC
100
AcDbEntity
  8
LAY-1
  6
CONTINUOUS
 62
     2
100
AcDbLine
 10
161.851551
 20
26.06
 30
0.0
 11
156.536
 21
26.06
 31
0.0
  0
LINE
  5
DD
100
AcDbEntity
  8
LAY-1
  6
CONTINUOUS
 62
     2
100
AcDbLine
 10
156.836
 20
26.624
 30
0.0
 11
161.619962
 21
26.624
 31
0.0
  0
ARC
  5
DE
100
AcDbEntity
  8
LAY-1
  6
CONTINUOUS
 62
     2
100
AcDbCircle
 10
161.619962
 20
29.176
 30
0.0
 40
2.552
100
AcDbArc
 50
270.0
 51
334.0
  0
LINE
  5
DF
100
AcDbEntity
  8
LAY-1
  6
CONTINUOUS
 62
     2
100
AcDbLine
 10
163.913684
 20
28.057277
 30
0.0
 11
165.530382
 21
31.372
 31
0.0
  0
LINE
  5
E0
100
AcDbEntity
  8
LAY-1
  6
CONTINUOUS
 62
     2
100
AcDbLine
 10
165.530382
 20
31.372
 30
0.0
 11
166.055699
 21
31.372
 31
0.0
  0
LINE
  5
E1
100
AcDbEntity
  8
LAY-1
  6
CONTINUOUS
 62
     2
100
AcDbLine
 10
166.055699
 20
31.372
 30
0.0
 11
164.382555
 21
27.941547
 31
0.0
  0
ARC
  5
E2
100
AcDbEntity
  8
LAY-1
  6
CONTINUOUS
 62
     2
100
AcDbCircle
 10
161.851551
 20
29.176
 30
0.0
 40
2.816
100
AcDbArc
 50
270.0
 51
334.0
  0
LINE
  5
E3
100
AcDbEntity
  8
LAY-1
  6
CONTINUOUS
 62
     2
100
AcDbLine
 10
161.851551
 20
26.36
 30
0.0
 11
156.836
 21
26.36
 31
0.0
  0
LINE
  5
E4
100
AcDbEntity
  8
LAY-1
  6
CONTINUOUS
 62
     2
100
AcDbLine
 10
156.836
 20
26.36
 30
0.0
 11
156.836
 21
26.624
 31
0.0
  0
LINE
  5
E5
100
AcDbEntity
  8
LAY-1
  6
CONTINUOUS
 62
     2
100
AcDbLine
 10
170.343962
 20
31.972
 30
0.0
 11
170.115255
 21
33.416
 31
0.0
  0
LINE
  5
E6
100
AcDbEntity
  8
LAY-1
  6
CONTINUOUS
 62
     2
100
AcDbLine
 10
170.115255
 20
33.416
 30
0.0
 11
171.807776
 21
33.416
 31
0.0
  0
LINE
  5
E7
100
AcDbEntity
  8
LAY-1
  6
CONTINUOUS
 62
     2
100
AcDbLine
 10
171.807776
 20
33.416
 30
0.0
 11
172.036483
 21
31.972
 31
0.0
  0
LINE
  5
E8
100
AcDbEntity
  8
LAY-1
  6
CONTINUOUS
 62
     2
100
AcDbLine
 10
172.036483
 20
31.972
 30
0.0
 11
177.558041
 21
31.972
 31
0.0
  0
LINE
  5
E9
100
AcDbEntity
  8
LAY-1
  6
CONTINUOUS
 62
     2
100
AcDbLine
 10
177.558041
 20
31.972
 30
0.0
 11
176.547712
 21
29.702764
 31
0.0
  0
ARC
  5
EA
100
AcDbEntity
  8
LAY-1
  6
CONTINUOUS
 62
     2
100
AcDbCircle
 10
173.993439
 20
30.84
 30
0.0
 40
2.796
100
AcDbArc
 50
270.0
 51
336.0
  0
LINE
  5
EB
100
AcDbEntity
  8
LAY-1
  6
CONTINUOUS
 62
     2
100
AcDbLine
 10
173.993439
 20
28.044
 30
0.0
 11
173.893824
 21
28.044
 31
0.0
  0
LINE
  5
EC
100
AcDbEntity
  8
LAY-1
  6
CONTINUOUS
 62
     2
100
AcDbLine
 10
173.893824
 20
28.044
 30
0.0
 11
173.746581
 21
28.973658
 31
0.0
  0
ARC
  5
ED
100
AcDbEntity
  8
LAY-1
  6
CONTINUOUS
 62
     2
100
AcDbCircle
 10
173.374369
 20
30.468
 30
0.0
 40
1.54
100
AcDbArc
 50
283.986683
 51
336.0
  0
LINE
  5
EE
100
AcDbEntity
  8
LAY-1
  6
CONTINUOUS
 62
     2
100
AcDbLine
 10
174.781229
 20
29.841626
 30
0.0
 11
175.353959
 21
31.128
 31
0.0
  0
LINE
  5
EF
100
AcDbEntity
  8
LAY-1
  6
CONTINUOUS
 62
     2
100
AcDbLine
 10
175.353959
 20
31.128
 30
0.0
 11
172.170159
 21
31.128
 31
0.0
  0
LINE
  5
F0
100
AcDbEntity
  8
LAY-1
  6
CONTINUOUS
 62
     2
100
AcDbLine
 10
172.170159
 20
31.128
 30
0.0
 11
173.020367
 21
25.76
 31
0.0
  0
LINE
  5
F1
100
AcDbEntity
  8
LAY-1
  6
CONTINUOUS
 62
     2
100
AcDbLine
 10
173.020367
 20
25.76
 30
0.0
 11
171.327846
 21
25.76
 31
0.0
  0
LINE
  5
F2
100
AcDbEntity
  8
LAY-1
  6
CONTINUOUS
 62
     2
100
AcDbLine
 10
171.327846
 20
25.76
 30
0.0
 11
170.477638
 21
31.128
 31
0.0
  0
LINE
  5
F3
100
AcDbEntity
  8
LAY-1
  6
CONTINUOUS
 62
     2
100
AcDbLine
 10
170.477638
 20
31.128
 30
0.0
 11
168.412
 21
31.128
 31
0.0
  0
LINE
  5
F4
100
AcDbEntity
  8
LAY-1
  6
CONTINUOUS
 62
     2
100
AcDbLine
 10
168.412
 20
31.128
 30
0.0
 11
168.412
 21
31.972
 31
0.0
  0
LINE
  5
F5
100
AcDbEntity
  8
LAY-1
  6
CONTINUOUS
 62
     2
100
AcDbLine
 10
168.412
 20
31.972
 30
0.0
 11
170.343962
 21
31.972
 31
0.0
  0
LINE
  5
F6
100
AcDbEntity
  8
LAY-1
  6
CONTINUOUS
 62
     2
100
AcDbLine
 10
170.695217
 20
31.672
 30
0.0
 11
170.46651
 21
33.116
 31
0.0
  0
LINE
  5
F7
100
AcDbEntity
  8
LAY-1
  6
CONTINUOUS
 62
     2
100
AcDbLine
 10
170.46651
 20
33.116
 30
0.0
 11
171.551552
 21
33.116
 31
0.0
  0
LINE
  5
F8
100
AcDbEntity
  8
LAY-1
  6
CONTINUOUS
 62
     2
100
AcDbLine
 10
171.551552
 20
33.116
 30
0.0
 11
171.780259
 21
31.672
 31
0.0
  0
LINE
  5
F9
100
AcDbEntity
  8
LAY-1
  6
CONTINUOUS
 62
     2
100
AcDbLine
 10
171.780259
 20
31.672
 30
0.0
 11
177.096081
 21
31.672
 31
0.0
  0
LINE
  5
FA
100
AcDbEntity
  8
LAY-1
  6
CONTINUOUS
 62
     2
100
AcDbLine
 10
177.096081
 20
31.672
 30
0.0
 11
176.273648
 21
29.824785
 31
0.0
  0
ARC
  5
FB
100
AcDbEntity
  8
LAY-1
  6
CONTINUOUS
 62
     2
100
AcDbCircle
 10
173.993439
 20
30.84
 30
0.0
 40
2.496
100
AcDbArc
 50
270.0
 51
336.0
  0
LINE
  5
FC
100
AcDbEntity
  8
LAY-1
  6
CONTINUOUS
 62
     2
100
AcDbLine
 10
173.993439
 20
28.344
 30
0.0
 11
174.150049
 21
28.344
 31
0.0
  0
LINE
  5
FD
100
AcDbEntity
  8
LAY-1
  6
CONTINUOUS
 62
     2
100
AcDbLine
 10
174.150049
 20
28.344
 30
0.0
 11
174.082614
 21
28.769769
 31
0.0
  0
ARC
  5
FE
100
AcDbEntity
  8
LAY-1
  6
CONTINUOUS
 62
     2
100
AcDbCircle
 10
173.374369
 20
30.468
 30
0.0
 40
1.84
100
AcDbArc
 50
292.638505
 51
336.0
  0
LINE
  5
FF
100
AcDbEntity
  8
LAY-1
  6
CONTINUOUS
 62
     2
100
AcDbLine
 10
175.055292
 20
29.719605
 30
0.0
 11
175.815919
 21
31.428
 31
0.0
  0
LINE
  5
100
100
AcDbEntity
  8
LAY-1
  6
CONTINUOUS
 62
     2
100
AcDbLine
 10
175.815919
 20
31.428
 30
0.0
 11
171.818905
 21
31.428
 31
0.0
  0
LINE
  5
101
100
AcDbEntity
  8
LAY-1
  6
CONTINUOUS
 62
     2
100
AcDbLine
 10
171.818905
 20
31.428
 30
0.0
 11
172.669112
 21
26.06
 31
0.0
  0
LINE
  5
102
100
AcDbEntity
  8
LAY-1
  6
CONTINUOUS
 62
     2
100
AcDbLine
 10
172.669112
 20
26.06
 30
0.0
 11
171.58407
 21
26.06
 31
0.0
  0
LINE
  5
103
100
AcDbEntity
  8
LAY-1
  6
CONTINUOUS
 62
     2
100
AcDbLine
 10
171.58407
 20
26.06
 30
0.0
 11
170.733863
 21
31.428
 31
0.0
  0
LINE
  5
104
100
AcDbEntity
  8
LAY-1
  6
CONTINUOUS
 62
     2
100
AcDbLine
 10
170.733863
 20
31.428
 30
0.0
 11
168.712
 21
31.428
 31
0.0
  0
LINE
  5
105
100
AcDbEntity
  8
LAY-1
  6
CONTINUOUS
 62
     2
100
AcDbLine
 10
168.712
 20
31.428
 30
0.0
 11
168.712
 21
31.672
 31
0.0
  0
LINE
  5
106
100
AcDbEntity
  8
LAY-1
  6
CONTINUOUS
 62
     2
100
AcDbLine
 10
168.712
 20
31.672
 30
0.0
 11
170.695217
 21
31.672
 31
0.0
  0
LINE
  5
107
100
AcDbEntity
  8
LAY-1
  6
CONTINUOUS
 62
     2
100
AcDbLine
 10
171.26
 20
32.74
 30
0.0
 11
172.26
 21
26.36
 31
0.0
  0
LINE
  5
108
100
AcDbEntity
  8
LAY-1
  6
CONTINUOUS
 62
     2
100
AcDbLine
 10
170.88
 20
32.82
 30
0.0
 11
171.9
 21
26.34
 31
0.0
  0
LINE
  5
109
100
AcDbEntity
  8
LAY-1
  6
CONTINUOUS
 62
     2
100
AcDbLine
 10
176.1
 20
31.36
 30
0.0
 11
175.12
 21
29.1
 31
0.0
  0
LINE
  5
10A
100
AcDbEntity
  8
LAY-1
  6
CONTINUOUS
 62
     2
100
AcDbLine
 10
176.6
 20
31.4
 30
0.0
 11
175.56
 21
29.18
 31
0.0
  0
LINE
  5
10B
100
AcDbEntity
  8
LAY-1
  6
CONTINUOUS
 62
     2
100
AcDbLine
 10
175.28
 20
29.02
 30
0.0
 11
174.38
 21
28.64
 31
0.0
  0
LINE
  5
10C
100
AcDbEntity
  8
LAY-1
  6
CONTINUOUS
 62
     2
100
AcDbLine
 10
178.842
 20
34.24
 30
0.0
 11
188.15
 21
34.24
 31
0.0
  0
LINE
  5
10D
100
AcDbEntity
  8
LAY-1
  6
CONTINUOUS
 62
     2
100
AcDbLine
 10
188.15
 20
34.24
 30
0.0
 11
188.15
 21
32.776
 31
0.0
  0
LINE
  5
10E
100
AcDbEntity
  8
LAY-1
  6
CONTINUOUS
 62
     2
100
AcDbLine
 10
188.15
 20
32.776
 30
0.0
 11
178.842
 21
32.776
 31
0.0
  0
LINE
  5
10F
100
AcDbEntity
  8
LAY-1
  6
CONTINUOUS
 62
     2
100
AcDbLine
 10
178.842
 20
32.776
 30
0.0
 11
178.842
 21
34.24
 31
0.0
  0
LINE
  5
110
100
AcDbEntity
  8
LAY-1
  6
CONTINUOUS
 62
     2
100
AcDbLine
 10
179.142
 20
33.94
 30
0.0
 11
187.85
 21
33.94
 31
0.0
  0
LINE
  5
111
100
AcDbEntity
  8
LAY-1
  6
CONTINUOUS
 62
     2
100
AcDbLine
 10
187.85
 20
33.94
 30
0.0
 11
187.85
 21
33.076
 31
0.0
  0
LINE
  5
112
100
AcDbEntity
  8
LAY-1
  6
CONTINUOUS
 62
     2
100
AcDbLine
 10
187.85
 20
33.076
 30
0.0
 11
179.142
 21
33.076
 31
0.0
  0
LINE
  5
113
100
AcDbEntity
  8
LAY-1
  6
CONTINUOUS
 62
     2
100
AcDbLine
 10
179.142
 20
33.076
 30
0.0
 11
179.142
 21
33.94
 31
0.0
  0
LINE
  5
114
100
AcDbEntity
  8
LAY-1
  6
CONTINUOUS
 62
     2
100
AcDbLine
 10
179.46
 20
33.48
 30
0.0
 11
187.64
 21
33.48
 31
0.0
  0
LINE
  5
115
100
AcDbEntity
  8
LAY-1
  6
CONTINUOUS
 62
     2
100
AcDbLine
 10
178.116
 20
27.224
 30
0.0
 11
188.876
 21
27.224
 31
0.0
  0
LINE
  5
116
100
AcDbEntity
  8
LAY-1
  6
CONTINUOUS
 62
     2
100
AcDbLine
 10
188.876
 20
27.224
 30
0.0
 11
188.876
 21
25.76
 31
0.0
  0
LINE
  5
117
100
AcDbEntity
  8
LAY-1
  6
CONTINUOUS
 62
     2
100
AcDbLine
 10
188.876
 20
25.76
 30
0.0
 11
178.116
 21
25.76
 31
0.0
  0
LINE
  5
118
100
AcDbEntity
  8
LAY-1
  6
CONTINUOUS
 62
     2
100
AcDbLine
 10
178.116
 20
25.76
 30
0.0
 11
178.116
 21
27.224
 31
0.0
  0
LINE
  5
119
100
AcDbEntity
  8
LAY-1
  6
CONTINUOUS
 62
     2
100
AcDbLine
 10
178.416
 20
26.924
 30
0.0
 11
188.576
 21
26.924
 31
0.0
  0
LINE
  5
11A
100
AcDbEntity
  8
LAY-1
  6
CONTINUOUS
 62
     2
100
AcDbLine
 10
188.576
 20
26.924
 30
0.0
 11
188.576
 21
26.06
 31
0.0
  0
LINE
  5
11B
100
AcDbEntity
  8
LAY-1
  6
CONTINUOUS
 62
     2
100
AcDbLine
 10
188.576
 20
26.06
 30
0.0
 11
178.416
 21
26.06
 31
0.0
  0
LINE
  5
11C
100
AcDbEntity
  8
LAY-1
  6
CONTINUOUS
 62
     2
100
AcDbLine
 10
178.416
 20
26.06
 30
0.0
 11
178.416
 21
26.924
 31
0.0
  0
LINE
  5
11D
100
AcDbEntity
  8
LAY-1
  6
CONTINUOUS
 62
     2
100
AcDbLine
 10
178.74
 20
26.48
 30
0.0
 11
188.34
 21
26.48
 31
0.0
  0
LINE
  5
11E
100
AcDbEntity
  8
LAY-1
  6
CONTINUOUS
 62
     2
100
AcDbLine
 10
191.12
 20
34.24
 30
0.0
 11
200.963217
 21
34.24
 31
0.0
  0
LINE
  5
11F
100
AcDbEntity
  8
LAY-1
  6
CONTINUOUS
 62
     2
100
AcDbLine
 10
200.963217
 20
34.24
 30
0.0
 11
197.42334
 21
29.367778
 31
0.0
  0
LINE
  5
120
100
AcDbEntity
  8
LAY-1
  6
CONTINUOUS
 62
     2
100
AcDbLine
 10
197.42334
 20
29.367778
 30
0.0
 11
201.573614
 21
25.76
 31
0.0
  0
LINE
  5
121
100
AcDbEntity
  8
LAY-1
  6
CONTINUOUS
 62
     2
100
AcDbLine
 10
201.573614
 20
25.76
 30
0.0
 11
199.480165
 21
25.76
 31
0.0
  0
LINE
  5
122
100
AcDbEntity
  8
LAY-1
  6
CONTINUOUS
 62
     2
100
AcDbLine
 10
199.480165
 20
25.76
 30
0.0
 11
196.612977
 21
28.252409
 31
0.0
  0
LINE
  5
123
100
AcDbEntity
  8
LAY-1
  6
CONTINUOUS
 62
     2
100
AcDbLine
 10
196.612977
 20
28.252409
 30
0.0
 11
195.825199
 21
27.168126
 31
0.0
  0
ARC
  5
124
100
AcDbEntity
  8
LAY-1
  6
CONTINUOUS
 62
     2
100
AcDbCircle
 10
193.061597
 20
29.176
 30
0.0
 40
3.416
100
AcDbArc
 50
270.0
 51
324.0
  0
LINE
  5
125
100
AcDbEntity
  8
LAY-1
  6
CONTINUOUS
 62
     2
100
AcDbLine
 10
193.061597
 20
25.76
 30
0.0
 11
190.492
 21
25.76
 31
0.0
  0
LINE
  5
126
100
AcDbEntity
  8
LAY-1
  6
CONTINUOUS
 62
     2
100
AcDbLine
 10
190.492
 20
25.76
 30
0.0
 11
190.492
 21
27.224
 31
0.0
  0
LINE
  5
127
100
AcDbEntity
  8
LAY-1
  6
CONTINUOUS
 62
     2
100
AcDbLine
 10
190.492
 20
27.224
 30
0.0
 11
192.598501
 21
27.224
 31
0.0
  0
ARC
  5
128
100
AcDbEntity
  8
LAY-1
  6
CONTINUOUS
 62
     2
100
AcDbCircle
 10
192.598501
 20
29.588
 30
0.0
 40
2.364
100
AcDbArc
 50
270.0
 51
324.0
  0
LINE
  5
129
100
AcDbEntity
  8
LAY-1
  6
CONTINUOUS
 62
     2
100
AcDbLine
 10
194.511017
 20
28.198476
 30
0.0
 11
197.836783
 21
32.776
 31
0.0
  0
LINE
  5
12A
100
AcDbEntity
  8
LAY-1
  6
CONTINUOUS
 62
     2
100
AcDbLine
 10
197.836783
 20
32.776
 30
0.0
 11
191.12
 21
32.776
 31
0.0
  0
LINE
  5
12B
100
AcDbEntity
  8
LAY-1
  6
CONTINUOUS
 62
     2
100
AcDbLine
 10
191.12
 20
32.776
 30
0.0
 11
191.12
 21
34.24
 31
0.0
  0
LINE
  5
12C
100
AcDbEntity
  8
LAY-1
  6
CONTINUOUS
 62
     2
100
AcDbLine
 10
190.792
 20
26.924
 30
0.0
 11
192.598501
 21
26.924
 31
0.0
  0
ARC
  5
12D
100
AcDbEntity
  8
LAY-1
  6
CONTINUOUS
 62
     2
100
AcDbCircle
 10
192.598501
 20
29.588
 30
0.0
 40
2.664
100
AcDbArc
 50
270.0
 51
324.0
  0
LINE
  5
12E
100
AcDbEntity
  8
LAY-1
  6
CONTINUOUS
 62
     2
100
AcDbLine
 10
194.753722
 20
28.02214
 30
0.0
 11
198.425566
 21
33.076
 31
0.0
  0
LINE
  5
12F
100
AcDbEntity
  8
LAY-1
  6
CONTINUOUS
 62
     2
100
AcDbLine
 10
198.425566
 20
33.076
 30
0.0
 11
191.42
 21
33.076
 31
0.0
  0
LINE
  5
130
100
AcDbEntity
  8
LAY-1
  6
CONTINUOUS
 62
     2
100
AcDbLine
 10
191.42
 20
33.076
 30
0.0
 11
191.42
 21
33.94
 31
0.0
  0
LINE
  5
131
100
AcDbEntity
  8
LAY-1
  6
CONTINUOUS
 62
     2
100
AcDbLine
 10
191.42
 20
33.94
 30
0.0
 11
200.374434
 21
33.94
 31
0.0
  0
LINE
  5
132
100
AcDbEntity
  8
LAY-1
  6
CONTINUOUS
 62
     2
100
AcDbLine
 10
200.374434
 20
33.94
 30
0.0
 11
197.019053
 21
29.321715
 31
0.0
  0
LINE
  5
133
100
AcDbEntity
  8
LAY-1
  6
CONTINUOUS
 62
     2
100
AcDbLine
 10
197.019053
 20
29.321715
 30
0.0
 11
200.771227
 21
26.06
 31
0.0
  0
LINE
  5
134
100
AcDbEntity
  8
LAY-1
  6
CONTINUOUS
 62
     2
100
AcDbLine
 10
200.771227
 20
26.06
 30
0.0
 11
199.592331
 21
26.06
 31
0.0
  0
LINE
  5
135
100
AcDbEntity
  8
LAY-1
  6
CONTINUOUS
 62
     2
100
AcDbLine
 10
199.592331
 20
26.06
 30
0.0
 11
196.562709
 21
28.69361
 31
0.0
  0
LINE
  5
136
100
AcDbEntity
  8
LAY-1
  6
CONTINUOUS
 62
     2
100
AcDbLine
 10
196.562709
 20
28.69361
 30
0.0
 11
195.582494
 21
27.344461
 31
0.0
  0
ARC
  5
137
100
AcDbEntity
  8
LAY-1
  6
CONTINUOUS
 62
     2
100
AcDbCircle
 10
193.061597
 20
29.176
 30
0.0
 40
3.116
100
AcDbArc
 50
270.0
 51
324.0
  0
LINE
  5
138
100
AcDbEntity
  8
LAY-1
  6
CONTINUOUS
 62
     2
100
AcDbLine
 10
193.061597
 20
26.06
 30
0.0
 11
190.792
 21
26.06
 31
0.0
  0
LINE
  5
139
100
AcDbEntity
  8
LAY-1
  6
CONTINUOUS
 62
     2
100
AcDbLine
 10
190.792
 20
26.06
 30
0.0
 11
190.792
 21
26.924
 31
0.0
  0
LINE
  5
13A
100
AcDbEntity
  8
LAY-1
  6
CONTINUOUS
 62
     2
100
AcDbLine
 10
191.72
 20
33.64
 30
0.0
 11
199.785651
 21
33.64
 31
0.0
  0
LINE
  5
13B
100
AcDbEntity
  8
LAY-1
  6
CONTINUOUS
 62
     2
100
AcDbLine
 10
199.785651
 20
33.64
 30
0.0
 11
196.614766
 21
29.275652
 31
0.0
  0
LINE
  5
13C
100
AcDbEntity
  8
LAY-1
  6
CONTINUOUS
 62
     2
100
AcDbLine
 10
196.614766
 20
29.275652
 30
0.0
 11
199.968841
 21
26.36
 31
0.0
  0
LINE
  5
13D
100
AcDbEntity
  8
LAY-1
  6
CONTINUOUS
 62
     2
100
AcDbLine
 10
199.968841
 20
26.36
 30
0.0
 11
199.704496
 21
26.36
 31
0.0
  0
LINE
  5
13E
100
AcDbEntity
  8
LAY-1
  6
CONTINUOUS
 62
     2
100
AcDbLine
 10
199.704496
 20
26.36
 30
0.0
 11
196.51244
 21
29.134812
 31
0.0
  0
LINE
  5
13F
100
AcDbEntity
  8
LAY-1
  6
CONTINUOUS
 62
     2
100
AcDbLine
 10
196.51244
 20
29.134812
 30
0.0
 11
195.339789
 21
27.520797
 31
0.0
  0
ARC
  5
140
100
AcDbEntity
  8
LAY-1
  6
CONTINUOUS
 62
     2
100
AcDbCircle
 10
193.061597
 20
29.176
 30
0.0
 40
2.816
100
AcDbArc
 50
270.0
 51
324.0
  0
LINE
  5
141
100
AcDbEntity
  8
LAY-1
  6
CONTINUOUS
 62
     2
100
AcDbLine
 10
193.061597
 20
26.36
 30
0.0
 11
191.092
 21
26.36
 31
0.0
  0
LINE
  5
142
100
AcDbEntity
  8
LAY-1
  6
CONTINUOUS
 62
     2
100
AcDbLine
 10
191.092
 20
26.36
 30
0.0
 11
191.092
 21
26.624
 31
0.0
  0
LINE
  5
143
100
AcDbEntity
  8
LAY-1
  6
CONTINUOUS
 62
     2
100
AcDbLine
 10
191.092
 20
26.624
 30
0.0
 11
192.598501
 21
26.624
 31
0.0
  0
ARC
  5
144
100
AcDbEntity
  8
LAY-1
  6
CONTINUOUS
 62
     2
100
AcDbCircle
 10
192.598501
 20
29.588
 30
0.0
 40
2.964
100
AcDbArc
 50
270.0
 51
324.0
  0
LINE
  5
145
100
AcDbEntity
  8
LAY-1
  6
CONTINUOUS
 62
     2
100
AcDbLine
 10
194.996427
 20
27.845805
 30
0.0
 11
199.014349
 21
33.376
 31
0.0
  0
LINE
  5
146
100
AcDbEntity
  8
LAY-1
  6
CONTINUOUS
 62
     2
100
AcDbLine
 10
199.014349
 20
33.376
 30
0.0
 11
191.72
 21
33.376
 31
0.0
  0
LINE
  5
147
100
AcDbEntity
  8
LAY-1
  6
CONTINUOUS
 62
     2
100
AcDbLine
 10
191.72
 20
33.376
 30
0.0
 11
191.72
 21
33.64
 31
0.0
  0
LINE
  5
148
100
AcDbEntity
  8
LAY-1
  6
CONTINUOUS
 62
     2
100
AcDbLine
 10
205.154
 20
34.24
 30
0.0
 11
215.286
 21
34.24
 31
0.0
  0
LINE
  5
149
100
AcDbEntity
  8
LAY-1
  6
CONTINUOUS
 62
     2
100
AcDbLine
 10
215.286
 20
34.24
 30
0.0
 11
215.286
 21
33.396
 31
0.0
  0
LINE
  5
14A
100
AcDbEntity
  8
LAY-1
  6
CONTINUOUS
 62
     2
100
AcDbLine
 10
215.286
 20
33.396
 30
0.0
 11
211.056
 21
33.396
 31
0.0
  0
LINE
  5
14B
100
AcDbEntity
  8
LAY-1
  6
CONTINUOUS
 62
     2
100
AcDbLine
 10
211.056
 20
33.396
 30
0.0
 11
211.056
 21
26.812
 31
0.0
  0
LINE
  5
14C
100
AcDbEntity
  8
LAY-1
  6
CONTINUOUS
 62
     2
100
AcDbLine
 10
211.056
 20
26.812
 30
0.0
 11
215.7
 21
26.812
 31
0.0
  0
LINE
  5
14D
100
AcDbEntity
  8
LAY-1
  6
CONTINUOUS
 62
     2
100
AcDbLine
 10
215.7
 20
26.812
 30
0.0
 11
215.7
 21
25.76
 31
0.0
  0
LINE
  5
14E
100
AcDbEntity
  8
LAY-1
  6
CONTINUOUS
 62
     2
100
AcDbLine
 10
215.7
 20
25.76
 30
0.0
 11
204.74
 21
25.76
 31
0.0
  0
LINE
  5
14F
100
AcDbEntity
  8
LAY-1
  6
CONTINUOUS
 62
     2
100
AcDbLine
 10
204.74
 20
25.76
 30
0.0
 11
204.74
 21
26.812
 31
0.0
  0
LINE
  5
150
100
AcDbEntity
  8
LAY-1
  6
CONTINUOUS
 62
     2
100
AcDbLine
 10
204.74
 20
26.812
 30
0.0
 11
209.384
 21
26.812
 31
0.0
  0
LINE
  5
151
100
AcDbEntity
  8
LAY-1
  6
CONTINUOUS
 62
     2
100
AcDbLine
 10
209.384
 20
26.812
 30
0.0
 11
209.384
 21
33.396
 31
0.0
  0
LINE
  5
152
100
AcDbEntity
  8
LAY-1
  6
CONTINUOUS
 62
     2
100
AcDbLine
 10
209.384
 20
33.396
 30
0.0
 11
205.154
 21
33.396
 31
0.0
  0
LINE
  5
153
100
AcDbEntity
  8
LAY-1
  6
CONTINUOUS
 62
     2
100
AcDbLine
 10
205.154
 20
33.396
 30
0.0
 11
205.154
 21
34.24
 31
0.0
  0
LINE
  5
154
100
AcDbEntity
  8
LAY-1
  6
CONTINUOUS
 62
     2
100
AcDbLine
 10
205.454
 20
33.94
 30
0.0
 11
214.986
 21
33.94
 31
0.0
  0
LINE
  5
155
100
AcDbEntity
  8
LAY-1
  6
CONTINUOUS
 62
     2
100
AcDbLine
 10
214.986
 20
33.94
 30
0.0
 11
214.986
 21
33.696
 31
0.0
  0
LINE
  5
156
100
AcDbEntity
  8
LAY-1
  6
CONTINUOUS
 62
     2
100
AcDbLine
 10
214.986
 20
33.696
 30
0.0
 11
210.756
 21
33.696
 31
0.0
  0
LINE
  5
157
100
AcDbEntity
  8
LAY-1
  6
CONTINUOUS
 62
     2
100
AcDbLine
 10
210.756
 20
33.696
 30
0.0
 11
210.756
 21
26.512
 31
0.0
  0
LINE
  5
158
100
AcDbEntity
  8
LAY-1
  6
CONTINUOUS
 62
     2
100
AcDbLine
 10
210.756
 20
26.512
 30
0.0
 11
215.4
 21
26.512
 31
0.0
  0
LINE
  5
159
100
AcDbEntity
  8
LAY-1
  6
CONTINUOUS
 62
     2
100
AcDbLine
 10
215.4
 20
26.512
 30
0.0
 11
215.4
 21
26.06
 31
0.0
  0
LINE
  5
15A
100
AcDbEntity
  8
LAY-1
  6
CONTINUOUS
 62
     2
100
AcDbLine
 10
215.4
 20
26.06
 30
0.0
 11
205.04
 21
26.06
 31
0.0
  0
LINE
  5
15B
100
AcDbEntity
  8
LAY-1
  6
CONTINUOUS
 62
     2
100
AcDbLine
 10
205.04
 20
26.06
 30
0.0
 11
205.04
 21
26.512
 31
0.0
  0
LINE
  5
15C
100
AcDbEntity
  8
LAY-1
  6
CONTINUOUS
 62
     2
100
AcDbLine
 10
205.04
 20
26.512
 30
0.0
 11
209.684
 21
26.512
 31
0.0
  0
LINE
  5
15D
100
AcDbEntity
  8
LAY-1
  6
CONTINUOUS
 62
     2
100
AcDbLine
 10
209.684
 20
26.512
 30
0.0
 11
209.684
 21
33.696
 31
0.0
  0
LINE
  5
15E
100
AcDbEntity
  8
LAY-1
  6
CONTINUOUS
 62
     2
100
AcDbLine
 10
209.684
 20
33.696
 30
0.0
 11
205.454
 21
33.696
 31
0.0
  0
LINE
  5
15F
100
AcDbEntity
  8
LAY-1
  6
CONTINUOUS
 62
     2
100
AcDbLine
 10
205.454
 20
33.696
 30
0.0
 11
205.454
 21
33.94
 31
0.0
  0
LINE
  5
160
100
AcDbEntity
  8
LAY-1
  6
CONTINUOUS
 62
     2
100
AcDbLine
 10
210.08
 20
33.56
 30
0.0
 11
210.08
 21
26.4
 31
0.0
  0
LINE
  5
161
100
AcDbEntity
  8
LAY-1
  6
CONTINUOUS
 62
     2
100
AcDbLine
 10
210.38
 20
33.54
 30
0.0
 11
210.38
 21
26.3
 31
0.0
  0
LINE
  5
162
100
AcDbEntity
  8
LAY-1
  6
CONTINUOUS
 62
     2
100
AcDbLine
 10
220.22
 20
34.24
 30
0.0
 11
221.376
 21
34.24
 31
0.0
  0
LINE
  5
163
100
AcDbEntity
  8
LAY-1
  6
CONTINUOUS
 62
     2
100
AcDbLine
 10
221.376
 20
34.24
 30
0.0
 11
221.376
 21
33.0
 31
0.0
  0
LINE
  5
164
100
AcDbEntity
  8
LAY-1
  6
CONTINUOUS
 62
     2
100
AcDbLine
 10
221.376
 20
33.0
 30
0.0
 11
222.592
 21
33.0
 31
0.0
  0
LINE
  5
165
100
AcDbEntity
  8
LAY-1
  6
CONTINUOUS
 62
     2
100
AcDbLine
 10
222.592
 20
33.0
 30
0.0
 11
222.592
 21
34.24
 31
0.0
  0
LINE
  5
166
100
AcDbEntity
  8
LAY-1
  6
CONTINUOUS
 62
     2
100
AcDbLine
 10
222.592
 20
34.24
 30
0.0
 11
223.748
 21
34.24
 31
0.0
  0
LINE
  5
167
100
AcDbEntity
  8
LAY-1
  6
CONTINUOUS
 62
     2
100
AcDbLine
 10
223.748
 20
34.24
 30
0.0
 11
223.748
 21
33.0
 31
0.0
  0
LINE
  5
168
100
AcDbEntity
  8
LAY-1
  6
CONTINUOUS
 62
     2
100
AcDbLine
 10
223.748
 20
33.0
 30
0.0
 11
224.589526
 21
33.0
 31
0.0
  0
LINE
  5
169
100
AcDbEntity
  8
LAY-1
  6
CONTINUOUS
 62
     2
100
AcDbLine
 10
224.589526
 20
33.0
 30
0.0
 11
225.55832
 21
34.24
 31
0.0
  0
LINE
  5
16A
100
AcDbEntity
  8
LAY-1
  6
CONTINUOUS
 62
     2
100
AcDbLine
 10
225.55832
 20
34.24
 30
0.0
 11
226.628909
 21
34.24
 31
0.0
  0
LINE
  5
16B
100
AcDbEntity
  8
LAY-1
  6
CONTINUOUS
 62
     2
100
AcDbLine
 10
226.628909
 20
34.24
 30
0.0
 11
225.660115
 21
33.0
 31
0.0
  0
LINE
  5
16C
100
AcDbEntity
  8
LAY-1
  6
CONTINUOUS
 62
     2
100
AcDbLine
 10
225.660115
 20
33.0
 30
0.0
 11
227.464
 21
33.0
 31
0.0
  0
LINE
  5
16D
100
AcDbEntity
  8
LAY-1
  6
CONTINUOUS
 62
     2
100
AcDbLine
 10
227.464
 20
33.0
 30
0.0
 11
227.464
 21
32.652
 31
0.0
  0
LINE
  5
16E
100
AcDbEntity
  8
LAY-1
  6
CONTINUOUS
 62
     2
100
AcDbLine
 10
227.464
 20
32.652
 30
0.0
 11
225.377555
 21
32.652
 31
0.0
  0
LINE
  5
16F
100
AcDbEntity
  8
LAY-1
  6
CONTINUOUS
 62
     2
100
AcDbLine
 10
225.377555
 20
32.652
 30
0.0
 11
224.783556
 21
31.02
 31
0.0
  0
LINE
  5
170
100
AcDbEntity
  8
LAY-1
  6
CONTINUOUS
 62
     2
100
AcDbLine
 10
224.783556
 20
31.02
 30
0.0
 11
227.464
 21
31.02
 31
0.0
  0
LINE
  5
171
100
AcDbEntity
  8
LAY-1
  6
CONTINUOUS
 62
     2
100
AcDbLine
 10
227.464
 20
31.02
 30
0.0
 11
227.464
 21
30.844
 31
0.0
  0
LINE
  5
172
100
AcDbEntity
  8
LAY-1
  6
CONTINUOUS
 62
     2
100
AcDbLine
 10
227.464
 20
30.844
 30
0.0
 11
222.716
 21
30.844
 31
0.0
  0
LINE
  5
173
100
AcDbEntity
  8
LAY-1
  6
CONTINUOUS
 62
     2
100
AcDbLine
 10
222.716
 20
30.844
 30
0.0
 11
222.716
 21
29.596
 31
0.0
  0
LINE
  5
174
100
AcDbEntity
  8
LAY-1
  6
CONTINUOUS
 62
     2
100
AcDbLine
 10
222.716
 20
29.596
 30
0.0
 11
227.464
 21
29.596
 31
0.0
  0
LINE
  5
175
100
AcDbEntity
  8
LAY-1
  6
CONTINUOUS
 62
     2
100
AcDbLine
 10
227.464
 20
29.596
 30
0.0
 11
227.464
 21
29.248
 31
0.0
  0
LINE
  5
176
100
AcDbEntity
  8
LAY-1
  6
CONTINUOUS
 62
     2
100
AcDbLine
 10
227.464
 20
29.248
 30
0.0
 11
222.716
 21
29.248
 31
0.0
  0
LINE
  5
177
100
AcDbEntity
  8
LAY-1
  6
CONTINUOUS
 62
     2
100
AcDbLine
 10
222.716
 20
29.248
 30
0.0
 11
222.716
 21
28.0
 31
0.0
  0
LINE
  5
178
100
AcDbEntity
  8
LAY-1
  6
CONTINUOUS
 62
     2
100
AcDbLine
 10
222.93671
 20
28.0
 30
0.0
 11
227.464
 21
28.0
 31
0.0
  0
LINE
  5
179
100
AcDbEntity
  8
LAY-1
  6
CONTINUOUS
 62
     2
100
AcDbLine
 10
227.464
 20
28.0
 30
0.0
 11
227.464
 21
27.824
 31
0.0
  0
LINE
  5
17A
100
AcDbEntity
  8
LAY-1
  6
CONTINUOUS
 62
     2
100
AcDbLine
 10
227.464
 20
27.824
 30
0.0
 11
224.700577
 21
27.824
 31
0.0
  0
LINE
  5
17B
100
AcDbEntity
  8
LAY-1
  6
CONTINUOUS
 62
     2
100
AcDbLine
 10
224.700577
 20
27.824
 30
0.0
 11
226.984577
 21
25.76
 31
0.0
  0
LINE
  5
17C
100
AcDbEntity
  8
LAY-1
  6
CONTINUOUS
 62
     2
100
AcDbLine
 10
226.984577
 20
25.76
 30
0.0
 11
225.41547
 21
25.76
 31
0.0
  0
LINE
  5
17D
100
AcDbEntity
  8
LAY-1
  6
CONTINUOUS
 62
     2
100
AcDbLine
 10
225.41547
 20
25.76
 30
0.0
 11
222.93671
 21
28.0
 31
0.0
  0
LINE
  5
17E
100
AcDbEntity
  8
LAY-1
  6
CONTINUOUS
 62
     2
100
AcDbLine
 10
222.716
 20
28.199451
 30
0.0
 11
222.716
 21
25.76
 31
0.0
  0
LINE
  5
17F
100
AcDbEntity
  8
LAY-1
  6
CONTINUOUS
 62
     2
100
AcDbLine
 10
222.716
 20
25.76
 30
0.0
 11
221.252
 21
25.76
 31
0.0
  0
LINE
  5
180
100
AcDbEntity
  8
LAY-1
  6
CONTINUOUS
 62
     2
100
AcDbLine
 10
221.252
 20
25.76
 30
0.0
 11
221.252
 21
28.199451
 31
0.0
  0
LINE
  5
181
100
AcDbEntity
  8
LAY-1
  6
CONTINUOUS
 62
     2
100
AcDbLine
 10
221.03129
 20
28.0
 30
0.0
 11
218.55253
 21
25.76
 31
0.0
  0
LINE
  5
182
100
AcDbEntity
  8
LAY-1
  6
CONTINUOUS
 62
     2
100
AcDbLine
 10
218.55253
 20
25.76
 30
0.0
 11
216.983423
 21
25.76
 31
0.0
  0
LINE
  5
183
100
AcDbEntity
  8
LAY-1
  6
CONTINUOUS
 62
     2
100
AcDbLine
 10
216.983423
 20
25.76
 30
0.0
 11
219.267423
 21
27.824
 31
0.0
  0
LINE
  5
184
100
AcDbEntity
  8
LAY-1
  6
CONTINUOUS
 62
     2
100
AcDbLine
 10
219.267423
 20
27.824
 30
0.0
 11
216.504
 21
27.824
 31
0.0
  0
LINE
  5
185
100
AcDbEntity
  8
LAY-1
  6
CONTINUOUS
 62
     2
100
AcDbLine
 10
216.504
 20
27.824
 30
0.0
 11
216.504
 21
28.0
 31
0.0
  0
LINE
  5
186
100
AcDbEntity
  8
LAY-1
  6
CONTINUOUS
 62
     2
100
AcDbLine
 10
216.504
 20
28.0
 30
0.0
 11
221.03129
 21
28.0
 31
0.0
  0
LINE
  5
187
100
AcDbEntity
  8
LAY-1
  6
CONTINUOUS
 62
     2
100
AcDbLine
 10
221.252
 20
28.0
 30
0.0
 11
221.252
 21
29.248
 31
0.0
  0
LINE
  5
188
100
AcDbEntity
  8
LAY-1
  6
CONTINUOUS
 62
     2
100
AcDbLine
 10
221.252
 20
29.248
 30
0.0
 11
216.504
 21
29.248
 31
0.0
  0
LINE
  5
189
100
AcDbEntity
  8
LAY-1
  6
CONTINUOUS
 62
     2
100
AcDbLine
 10
216.504
 20
29.248
 30
0.0
 11
216.504
 21
29.596
 31
0.0
  0
LINE
  5
18A
100
AcDbEntity
  8
LAY-1
  6
CONTINUOUS
 62
     2
100
AcDbLine
 10
216.504
 20
29.596
 30
0.0
 11
221.252
 21
29.596
 31
0.0
  0
LINE
  5
18B
100
AcDbEntity
  8
LAY-1
  6
CONTINUOUS
 62
     2
100
AcDbLine
 10
221.252
 20
29.596
 30
0.0
 11
221.252
 21
30.844
 31
0.0
  0
LINE
  5
18C
100
AcDbEntity
  8
LAY-1
  6
CONTINUOUS
 62
     2
100
AcDbLine
 10
221.252
 20
30.844
 30
0.0
 11
216.504
 21
30.844
 31
0.0
  0
LINE
  5
18D
100
AcDbEntity
  8
LAY-1
  6
CONTINUOUS
 62
     2
100
AcDbLine
 10
216.504
 20
30.844
 30
0.0
 11
216.504
 21
31.02
 31
0.0
  0
LINE
  5
18E
100
AcDbEntity
  8
LAY-1
  6
CONTINUOUS
 62
     2
100
AcDbLine
 10
216.504
 20
31.02
 30
0.0
 11
219.184444
 21
31.02
 31
0.0
  0
LINE
  5
18F
100
AcDbEntity
  8
LAY-1
  6
CONTINUOUS
 62
     2
100
AcDbLine
 10
219.184444
 20
31.02
 30
0.0
 11
218.590445
 21
32.652
 31
0.0
  0
LINE
  5
190
100
AcDbEntity
  8
LAY-1
  6
CONTINUOUS
 62
     2
100
AcDbLine
 10
218.590445
 20
32.652
 30
0.0
 11
216.504
 21
32.652
 31
0.0
  0
LINE
  5
191
100
AcDbEntity
  8
LAY-1
  6
CONTINUOUS
 62
     2
100
AcDbLine
 10
216.504
 20
32.652
 30
0.0
 11
216.504
 21
33.0
 31
0.0
  0
LINE
  5
192
100
AcDbEntity
  8
LAY-1
  6
CONTINUOUS
 62
     2
100
AcDbLine
 10
216.504
 20
33.0
 30
0.0
 11
218.307885
 21
33.0
 31
0.0
  0
LINE
  5
193
100
AcDbEntity
  8
LAY-1
  6
CONTINUOUS
 62
     2
100
AcDbLine
 10
218.307885
 20
33.0
 30
0.0
 11
217.339091
 21
34.24
 31
0.0
  0
LINE
  5
194
100
AcDbEntity
  8
LAY-1
  6
CONTINUOUS
 62
     2
100
AcDbLine
 10
217.339091
 20
34.24
 30
0.0
 11
218.40968
 21
34.24
 31
0.0
  0
LINE
  5
195
100
AcDbEntity
  8
LAY-1
  6
CONTINUOUS
 62
     2
100
AcDbLine
 10
218.40968
 20
34.24
 30
0.0
 11
219.378474
 21
33.0
 31
0.0
  0
LINE
  5
196
100
AcDbEntity
  8
LAY-1
  6
CONTINUOUS
 62
     2
100
AcDbLine
 10
219.378474
 20
33.0
 30
0.0
 11
220.22
 21
33.0
 31
0.0
  0
LINE
  5
197
100
AcDbEntity
  8
LAY-1
  6
CONTINUOUS
 62
     2
100
AcDbLine
 10
220.22
 20
33.0
 30
0.0
 11
220.22
 21
34.24
 31
0.0
  0
LINE
  5
198
100
AcDbEntity
  8
LAY-1
  6
CONTINUOUS
 62
     2
100
AcDbLine
 10
219.26
 20
32.6
 30
0.0
 11
224.94
 21
32.6
 31
0.0
  0
LINE
  5
199
100
AcDbEntity
  8
LAY-1
  6
CONTINUOUS
 62
     2
100
AcDbLine
 10
220.6
 20
33.92
 30
0.0
 11
220.6
 21
32.86
 31
0.0
  0
LINE
  5
19A
100
AcDbEntity
  8
LAY-1
  6
CONTINUOUS
 62
     2
100
AcDbLine
 10
221.12
 20
33.96
 30
0.0
 11
221.12
 21
32.92
 31
0.0
  0
LINE
  5
19B
100
AcDbEntity
  8
LAY-1
  6
CONTINUOUS
 62
     2
100
AcDbLine
 10
222.94
 20
33.88
 30
0.0
 11
222.94
 21
32.88
 31
0.0
  0
LINE
  5
19C
100
AcDbEntity
  8
LAY-1
  6
CONTINUOUS
 62
     2
100
AcDbLine
 10
223.44
 20
33.96
 30
0.0
 11
223.44
 21
33.0
 31
0.0
  0
LINE
  5
19D
100
AcDbEntity
  8
LAY-1
  6
CONTINUOUS
 62
     2
100
AcDbLine
 10
221.68
 20
30.78
 30
0.0
 11
221.68
 21
26.12
 31
0.0
  0
LINE
  5
19E
100
AcDbEntity
  8
LAY-1
  6
CONTINUOUS
 62
     2
100
AcDbLine
 10
222.26
 20
30.72
 30
0.0
 11
222.26
 21
26.2
 31
0.0
  0
LINE
  5
19F
100
AcDbEntity
  8
LAY-1
  6
CONTINUOUS
 62
     2
100
AcDbLine
 10
217.84
 20
33.98
 30
0.0
 11
218.66
 21
32.92
 31
0.0
  0
LINE
  5
1A0
100
AcDbEntity
  8
LAY-1
  6
CONTINUOUS
 62
     2
100
AcDbLine
 10
218.28
 20
33.98
 30
0.0
 11
219.12
 21
32.86
 31
0.0
  0
LINE
  5
1A1
100
AcDbEntity
  8
LAY-1
  6
CONTINUOUS
 62
     2
100
AcDbLine
 10
225.72
 20
33.98
 30
0.0
 11
224.88
 21
32.92
 31
0.0
  0
LINE
  5
1A2
100
AcDbEntity
  8
LAY-1
  6
CONTINUOUS
 62
     2
100
AcDbLine
 10
226.14
 20
34.04
 30
0.0
 11
225.28
 21
32.88
 31
0.0
  0
LINE
  5
1A3
100
AcDbEntity
  8
LAY-1
  6
CONTINUOUS
 62
     2
100
AcDbLine
 10
223.76
 20
32.24
 30
0.0
 11
223.36
 21
31.08
 31
0.0
  0
LINE
  5
1A4
100
AcDbEntity
  8
LAY-1
  6
CONTINUOUS
 62
     2
100
AcDbLine
 10
224.34
 20
32.36
 30
0.0
 11
223.84
 21
31.08
 31
0.0
  0
LINE
  5
1A5
100
AcDbEntity
  8
LAY-1
  6
CONTINUOUS
 62
     2
100
AcDbLine
 10
224.94
 20
32.32
 30
0.0
 11
224.38
 21
31.08
 31
0.0
  0
LINE
  5
1A6
100
AcDbEntity
  8
LAY-1
  6
CONTINUOUS
 62
     2
100
AcDbLine
 10
220.16
 20
32.32
 30
0.0
 11
220.68
 21
31.12
 31
0.0
  0
LINE
  5
1A7
100
AcDbEntity
  8
LAY-1
  6
CONTINUOUS
 62
     2
100
AcDbLine
 10
219.64
 20
32.4
 30
0.0
 11
220.16
 21
31.12
 31
0.0
  0
LINE
  5
1A8
100
AcDbEntity
  8
LAY-1
  6
CONTINUOUS
 62
     2
100
AcDbLine
 10
219.14
 20
32.32
 30
0.0
 11
219.76
 21
30.94
 31
0.0
  0
LINE
  5
1A9
100
AcDbEntity
  8
LAY-1
  6
CONTINUOUS
 62
     2
100
AcDbLine
 10
219.6
 20
27.66
 30
0.0
 11
217.84
 21
26.06
 31
0.0
  0
LINE
  5
1AA
100
AcDbEntity
  8
LAY-1
  6
CONTINUOUS
 62
     2
100
AcDbLine
 10
220.12
 20
27.68
 30
0.0
 11
218.38
 21
26.06
 31
0.0
  0
LINE
  5
1AB
100
AcDbEntity
  8
LAY-1
  6
CONTINUOUS
 62
     2
100
AcDbLine
 10
223.72
 20
27.64
 30
0.0
 11
225.44
 21
26.06
 31
0.0
  0
LINE
  5
1AC
100
AcDbEntity
  8
LAY-1
  6
CONTINUOUS
 62
     2
100
AcDbLine
 10
224.34
 20
27.54
 30
0.0
 11
225.98
 21
26.08
 31
0.0
  0
LINE
  5
1AD
100
AcDbEntity
  8
LAY-1
  6
CONTINUOUS
 62
     2
100
AcDbLine
 10
231.88
 20
34.2
 30
0.0
 11
231.88
 21
25.8
 31
0.0
  0
LINE
  5
1AE
100
AcDbEntity
  8
LAY-1
  6
CONTINUOUS
 62
     2
100
AcDbLine
 10
231.44
 20
34.16
 30
0.0
 11
231.44
 21
25.88
 31
0.0
  0
LINE
  5
1AF
100
AcDbEntity
  8
LAY-1
  6
CONTINUOUS
 62
     2
100
AcDbLine
 10
231.02
 20
34.16
 30
0.0
 11
231.02
 21
25.84
 31
0.0
  0
LINE
  5
1B0
100
AcDbEntity
  8
LAY-1
  6
CONTINUOUS
 62
     2
100
AcDbLine
 10
230.68
 20
34.16
 30
0.0
 11
230.68
 21
25.94
 31
0.0
  0
LINE
  5
1B1
100
AcDbEntity
  8
LAY-1
  6
CONTINUOUS
 62
     2
100
AcDbLine
 10
228.54
 20
33.22
 30
0.0
 11
230.34
 21
33.22
 31
0.0
  0
LINE
  5
1B2
100
AcDbEntity
  8
LAY-1
  6
CONTINUOUS
 62
     2
100
AcDbLine
 10
232.08
 20
32.08
 30
0.0
 11
232.48
 21
31.54
 31
0.0
  0
LINE
  5
1B3
100
AcDbEntity
  8
LAY-1
  6
CONTINUOUS
 62
     2
100
AcDbLine
 10
232.08
 20
31.56
 30
0.0
 11
232.5
 21
30.98
 31
0.0
  0
LINE
  5
1B4
100
AcDbEntity
  8
LAY-1
  6
CONTINUOUS
 62
     2
100
AcDbLine
 10
232.14
 20
30.72
 30
0.0
 11
232.42
 21
30.32
 31
0.0
  0
LINE
  5
1B5
100
AcDbEntity
  8
LAY-1
  6
CONTINUOUS
 62
     2
100
AcDbLine
 10
229.24
 20
32.32
 30
0.0
 11
228.46
 21
25.66
 31
0.0
  0
LINE
  5
1B6
100
AcDbEntity
  8
LAY-1
  6
CONTINUOUS
 62
     2
100
AcDbLine
 10
229.62
 20
32.36
 30
0.0
 11
228.86
 21
25.6
 31
0.0
  0
LINE
  5
1B7
100
AcDbEntity
  8
LAY-1
  6
CONTINUOUS
 62
     2
100
AcDbLine
 10
229.92
 20
32.36
 30
0.0
 11
229.22
 21
25.8
 31
0.0
  0
LINE
  5
1B8
100
AcDbEntity
  8
LAY-1
  6
CONTINUOUS
 62
     2
100
AcDbLine
 10
232.12
 20
33.2
 30
0.0
 11
232.46
 21
33.2
 31
0.0
  0
LINE
  5
1B9
100
AcDbEntity
  8
LAY-1
  6
CONTINUOUS
 62
     2
100
AcDbLine
 10
233.8
 20
34.24
 30
0.0
 11
233.18
 21
31.98
 31
0.0
  0
LINE
  5
1BA
100
AcDbEntity
  8
LAY-1
  6
CONTINUOUS
 62
     2
100
AcDbLine
 10
234.3
 20
34.26
 30
0.0
 11
233.6
 21
32.1
 31
0.0
  0
LINE
  5
1BB
100
AcDbEntity
  8
LAY-1
  6
CONTINUOUS
 62
     2
100
AcDbLine
 10
234.78
 20
34.24
 30
0.0
 11
234.14
 21
32.04
 31
0.0
  0
LINE
  5
1BC
100
AcDbEntity
  8
LAY-1
  6
CONTINUOUS
 62
     2
100
AcDbLine
 10
235.8
 20
34.24
 30
0.0
 11
235.8
 21
25.66
 31
0.0
  0
LINE
  5
1BD
100
AcDbEntity
  8
LAY-1
  6
CONTINUOUS
 62
     2
100
AcDbLine
 10
236.14
 20
34.24
 30
0.0
 11
236.14
 21
25.66
 31
0.0
  0
LINE
  5
1BE
100
AcDbEntity
  8
LAY-1
  6
CONTINUOUS
 62
     2
100
AcDbLine
 10
236.52
 20
34.26
 30
0.0
 11
236.52
 21
25.74
 31
0.0
  0
LINE
  5
1BF
100
AcDbEntity
  8
LAY-1
  6
CONTINUOUS
 62
     2
100
AcDbLine
 10
236.92
 20
34.26
 30
0.0
 11
236.92
 21
25.66
 31
0.0
  0
LINE
  5
1C0
100
AcDbEntity
  8
LAY-1
  6
CONTINUOUS
 62
     2
100
AcDbLine
 10
237.2
 20
34.18
 30
0.0
 11
237.2
 21
25.66
 31
0.0
  0
LINE
  5
1C1
100
AcDbEntity
  8
LAY-1
  6
CONTINUOUS
 62
     2
100
AcDbLine
 10
234.76
 20
33.26
 30
0.0
 11
235.6
 21
33.26
 31
0.0
  0
LINE
  5
1C2
100
AcDbEntity
  8
LAY-1
  6
CONTINUOUS
 62
     2
100
AcDbLine
 10
237.52
 20
33.28
 30
0.0
 11
239.64
 21
33.28
 31
0.0
  0
LINE
  5
1C3
100
AcDbEntity
  8
LAY-1
  6
CONTINUOUS
 62
     2
100
AcDbLine
 10
233.22
 20
31.22
 30
0.0
 11
235.48
 21
31.22
 31
0.0
  0
LINE
  5
1C4
100
AcDbEntity
  8
LAY-1
  6
CONTINUOUS
 62
     2
100
AcDbLine
 10
237.52
 20
31.2
 30
0.0
 11
239.56
 21
31.2
 31
0.0
  0
LINE
  5
1C5
100
AcDbEntity
  8
LAY-1
  6
CONTINUOUS
 62
     2
100
AcDbLine
 10
234.16
 20
30.42
 30
0.0
 11
233.3
 21
25.74
 31
0.0
  0
LINE
  5
1C6
100
AcDbEntity
  8
LAY-1
  6
CONTINUOUS
 62
     2
100
AcDbLine
 10
234.76
 20
30.38
 30
0.0
 11
233.94
 21
25.74
 31
0.0
  0
LINE
  5
1C7
100
AcDbEntity
  8
LAY-1
  6
CONTINUOUS
 62
     2
100
AcDbLine
 10
235.26
 20
30.36
 30
0.0
 11
234.34
 21
25.7
 31
0.0
  0
LINE
  5
1C8
100
AcDbEntity
  8
LAY-1
  6
CONTINUOUS
 62
     2
100
AcDbLine
 10
237.62
 20
30.28
 30
0.0
 11
238.5
 21
25.72
 31
0.0
  0
LINE
  5
1C9
100
AcDbEntity
  8
LAY-1
  6
CONTINUOUS
 62
     2
100
AcDbLine
 10
238.068799
 20
30.29783
 30
0.0
 11
238.94
 21
25.8
 31
0.0
  0
LINE
  5
1CA
100
AcDbEntity
  8
LAY-1
  6
CONTINUOUS
 62
     2
100
AcDbLine
 10
238.555713
 20
30.291842
 30
0.0
 11
239.42
 21
25.6
 31
0.0
  0
LINE
  5
1CB
100
AcDbEntity
  8
LAY-1
  6
CONTINUOUS
 62
     2
100
AcDbLine
 10
246.968
 20
30.94
 30
0.0
 11
246.968
 21
30.3
 31
0.0
  0
LINE
  5
1CC
100
AcDbEntity
  8
LAY-1
  6
CONTINUOUS
 62
     2
100
AcDbLine
 10
246.968
 20
30.3
 30
0.0
 11
244.904
 21
30.3
 31
0.0
  0
LINE
  5
1CD
100
AcDbEntity
  8
LAY-1
  6
CONTINUOUS
 62
     2
100
AcDbLine
 10
244.904
 20
30.3
 30
0.0
 11
244.904
 21
27.911176
 31
0.0
  0
LINE
  5
1CE
100
AcDbEntity
  8
LAY-1
  6
CONTINUOUS
 62
     2
100
AcDbLine
 10
244.904
 20
27.911176
 30
0.0
 11
246.968
 21
28.349893
 31
0.0
  0
LINE
  5
1CF
100
AcDbEntity
  8
LAY-1
  6
CONTINUOUS
 62
     2
100
AcDbLine
 10
246.968
 20
28.349893
 30
0.0
 11
246.968
 21
27.063297
 31
0.0
  0
LINE
  5
1D0
100
AcDbEntity
  8
LAY-1
  6
CONTINUOUS
 62
     2
100
AcDbLine
 10
246.968
 20
27.063297
 30
0.0
 11
241.168
 21
25.830469
 31
0.0
  0
LINE
  5
1D1
100
AcDbEntity
  8
LAY-1
  6
CONTINUOUS
 62
     2
100
AcDbLine
 10
241.168
 20
25.830469
 30
0.0
 11
241.168
 21
27.117065
 31
0.0
  0
LINE
  5
1D2
100
AcDbEntity
  8
LAY-1
  6
CONTINUOUS
 62
     2
100
AcDbLine
 10
241.168
 20
27.117065
 30
0.0
 11
243.232
 21
27.555782
 31
0.0
  0
LINE
  5
1D3
100
AcDbEntity
  8
LAY-1
  6
CONTINUOUS
 62
     2
100
AcDbLine
 10
243.232
 20
27.555782
 30
0.0
 11
243.232
 21
30.3
 31
0.0
  0
LINE
  5
1D4
100
AcDbEntity
  8
LAY-1
  6
CONTINUOUS
 62
     2
100
AcDbLine
 10
243.232
 20
30.3
 30
0.0
 11
241.168
 21
30.3
 31
0.0
  0
LINE
  5
1D5
100
AcDbEntity
  8
LAY-1
  6
CONTINUOUS
 62
     2
100
AcDbLine
 10
241.168
 20
30.3
 30
0.0
 11
241.168
 21
30.94
 31
0.0
  0
LINE
  5
1D6
100
AcDbEntity
  8
LAY-1
  6
CONTINUOUS
 62
     2
100
AcDbLine
 10
241.168
 20
30.94
 30
0.0
 11
246.968
 21
30.94
 31
0.0
  0
LINE
  5
1D7
100
AcDbEntity
  8
LAY-1
  6
CONTINUOUS
 62
     2
100
AcDbLine
 10
241.468
 20
30.64
 30
0.0
 11
246.668
 21
30.64
 31
0.0
  0
LINE
  5
1D8
100
AcDbEntity
  8
LAY-1
  6
CONTINUOUS
 62
     2
100
AcDbLine
 10
244.604
 20
30.6
 30
0.0
 11
244.604
 21
27.540707
 31
0.0
  0
LINE
  5
1D9
100
AcDbEntity
  8
LAY-1
  6
CONTINUOUS
 62
     2
100
AcDbLine
 10
244.604
 20
27.540707
 30
0.0
 11
246.668
 21
27.979424
 31
0.0
  0
LINE
  5
1DA
100
AcDbEntity
  8
LAY-1
  6
CONTINUOUS
 62
     2
100
AcDbLine
 10
246.668
 20
27.979424
 30
0.0
 11
246.668
 21
27.306232
 31
0.0
  0
LINE
  5
1DB
100
AcDbEntity
  8
LAY-1
  6
CONTINUOUS
 62
     2
100
AcDbLine
 10
246.668
 20
27.306232
 30
0.0
 11
241.468
 21
26.200938
 31
0.0
  0
LINE
  5
1DC
100
AcDbEntity
  8
LAY-1
  6
CONTINUOUS
 62
     2
100
AcDbLine
 10
241.468
 20
26.200938
 30
0.0
 11
241.468
 21
26.87413
 31
0.0
  0
LINE
  5
1DD
100
AcDbEntity
  8
LAY-1
  6
CONTINUOUS
 62
     2
100
AcDbLine
 10
241.468
 20
26.87413
 30
0.0
 11
243.532
 21
27.312846
 31
0.0
  0
LINE
  5
1DE
100
AcDbEntity
  8
LAY-1
  6
CONTINUOUS
 62
     2
100
AcDbLine
 10
243.532
 20
27.312846
 30
0.0
 11
243.532
 21
30.6
 31
0.0
  0
LINE
  5
1DF
100
AcDbEntity
  8
LAY-1
  6
CONTINUOUS
 62
     2
100
AcDbLine
 10
243.9
 20
30.38
 30
0.0
 11
243.9
 21
27.4
 31
0.0
  0
LINE
  5
1E0
100
AcDbEntity
  8
LAY-1
  6
CONTINUOUS
 62
     2
100
AcDbLine
 10
244.3
 20
30.32
 30
0.0
 11
244.3
 21
27.58
 31
0.0
  0
LINE
  5
1E1
100
AcDbEntity
  8
LAY-1
  6
CONTINUOUS
 62
     2
100
AcDbLine
 10
241.8
 20
26.58
 30
0.0
 11
246.36
 21
27.58
 31
0.0
  0
LINE
  5
1E2
100
AcDbEntity
  8
LAY-1
  6
CONTINUOUS
 62
     2
100
AcDbLine
 10
248.397088
 20
34.24
 30
0.0
 11
248.696999
 21
33.416
 31
0.0
  0
LINE
  5
1E3
100
AcDbEntity
  8
LAY-1
  6
CONTINUOUS
 62
     2
100
AcDbLine
 10
248.696999
 20
33.416
 30
0.0
 11
249.736
 21
33.416
 31
0.0
  0
LINE
  5
1E4
100
AcDbEntity
  8
LAY-1
  6
CONTINUOUS
 62
     2
100
AcDbLine
 10
249.736
 20
33.416
 30
0.0
 11
249.736
 21
34.24
 31
0.0
  0
LINE
  5
1E5
100
AcDbEntity
  8
LAY-1
  6
CONTINUOUS
 62
     2
100
AcDbLine
 10
249.736
 20
34.24
 30
0.0
 11
250.992
 21
34.24
 31
0.0
  0
LINE
  5
1E6
100
AcDbEntity
  8
LAY-1
  6
CONTINUOUS
 62
     2
100
AcDbLine
 10
250.992
 20
34.24
 30
0.0
 11
250.992
 21
33.416
 31
0.0
  0
LINE
  5
1E7
100
AcDbEntity
  8
LAY-1
  6
CONTINUOUS
 62
     2
100
AcDbLine
 10
250.992
 20
33.416
 30
0.0
 11
251.612
 21
33.416
 31
0.0
  0
LINE
  5
1E8
100
AcDbEntity
  8
LAY-1
  6
CONTINUOUS
 62
     2
100
AcDbLine
 10
251.612
 20
33.416
 30
0.0
 11
251.612
 21
32.776
 31
0.0
  0
LINE
  5
1E9
100
AcDbEntity
  8
LAY-1
  6
CONTINUOUS
 62
     2
100
AcDbLine
 10
251.612
 20
32.776
 30
0.0
 11
248.92994
 21
32.776
 31
0.0
  0
LINE
  5
1EA
100
AcDbEntity
  8
LAY-1
  6
CONTINUOUS
 62
     2
100
AcDbLine
 10
248.92994
 20
32.776
 30
0.0
 11
251.483556
 21
25.76
 31
0.0
  0
LINE
  5
1EB
100
AcDbEntity
  8
LAY-1
  6
CONTINUOUS
 62
     2
100
AcDbLine
 10
251.483556
 20
25.76
 30
0.0
 11
249.706062
 21
25.76
 31
0.0
  0
LINE
  5
1EC
100
AcDbEntity
  8
LAY-1
  6
CONTINUOUS
 62
     2
100
AcDbLine
 10
249.706062
 20
25.76
 30
0.0
 11
247.152447
 21
32.776
 31
0.0
  0
LINE
  5
1ED
100
AcDbEntity
  8
LAY-1
  6
CONTINUOUS
 62
     2
100
AcDbLine
 10
247.152447
 20
32.776
 30
0.0
 11
240.652
 21
32.776
 31
0.0
  0
LINE
  5
1EE
100
AcDbEntity
  8
LAY-1
  6
CONTINUOUS
 62
     2
100
AcDbLine
 10
240.652
 20
32.776
 30
0.0
 11
240.652
 21
33.416
 31
0.0
  0
LINE
  5
1EF
100
AcDbEntity
  8
LAY-1
  6
CONTINUOUS
 62
     2
100
AcDbLine
 10
240.652
 20
33.416
 30
0.0
 11
246.919506
 21
33.416
 31
0.0
  0
LINE
  5
1F0
100
AcDbEntity
  8
LAY-1
  6
CONTINUOUS
 62
     2
100
AcDbLine
 10
246.919506
 20
33.416
 30
0.0
 11
246.619595
 21
34.24
 31
0.0
  0
LINE
  5
1F1
100
AcDbEntity
  8
LAY-1
  6
CONTINUOUS
 62
     2
100
AcDbLine
 10
246.619595
 20
34.24
 30
0.0
 11
248.397088
 21
34.24
 31
0.0
  0
LINE
  5
1F2
100
AcDbEntity
  8
LAY-1
  6
CONTINUOUS
 62
     2
100
AcDbLine
 10
247.347951
 20
33.116
 30
0.0
 11
247.048039
 21
33.94
 31
0.0
  0
LINE
  5
1F3
100
AcDbEntity
  8
LAY-1
  6
CONTINUOUS
 62
     2
100
AcDbLine
 10
247.048039
 20
33.94
 30
0.0
 11
248.187026
 21
33.94
 31
0.0
  0
LINE
  5
1F4
100
AcDbEntity
  8
LAY-1
  6
CONTINUOUS
 62
     2
100
AcDbLine
 10
248.187026
 20
33.94
 30
0.0
 11
248.486937
 21
33.116
 31
0.0
  0
LINE
  5
1F5
100
AcDbEntity
  8
LAY-1
  6
CONTINUOUS
 62
     2
100
AcDbLine
 10
248.486937
 20
33.116
 30
0.0
 11
250.036
 21
33.116
 31
0.0
  0
LINE
  5
1F6
100
AcDbEntity
  8
LAY-1
  6
CONTINUOUS
 62
     2
100
AcDbLine
 10
250.036
 20
33.116
 30
0.0
 11
250.036
 21
33.94
 31
0.0
  0
LINE
  5
1F7
100
AcDbEntity
  8
LAY-1
  6
CONTINUOUS
 62
     2
100
AcDbLine
 10
250.036
 20
33.94
 30
0.0
 11
250.692
 21
33.94
 31
0.0
  0
LINE
  5
1F8
100
AcDbEntity
  8
LAY-1
  6
CONTINUOUS
 62
     2
100
AcDbLine
 10
250.692
 20
33.94
 30
0.0
 11
250.692
 21
33.116
 31
0.0
  0
LINE
  5
1F9
100
AcDbEntity
  8
LAY-1
  6
CONTINUOUS
 62
     2
100
AcDbLine
 10
250.692
 20
33.116
 30
0.0
 11
251.312
 21
33.116
 31
0.0
  0
LINE
  5
1FA
100
AcDbEntity
  8
LAY-1
  6
CONTINUOUS
 62
     2
100
AcDbLine
 10
248.501496
 20
33.076
 30
0.0
 11
251.055111
 21
26.06
 31
0.0
  0
LINE
  5
1FB
100
AcDbEntity
  8
LAY-1
  6
CONTINUOUS
 62
     2
100
AcDbLine
 10
251.055111
 20
26.06
 30
0.0
 11
249.916125
 21
26.06
 31
0.0
  0
LINE
  5
1FC
100
AcDbEntity
  8
LAY-1
  6
CONTINUOUS
 62
     2
100
AcDbLine
 10
249.916125
 20
26.06
 30
0.0
 11
247.362509
 21
33.076
 31
0.0
  0
LINE
  5
1FD
100
AcDbEntity
  8
LAY-1
  6
CONTINUOUS
 62
     2
100
AcDbLine
 10
240.952
 20
33.116
 30
0.0
 11
247.347951
 21
33.116
 31
0.0
  0
LINE
  5
1FE
100
AcDbEntity
  8
LAY-1
  6
CONTINUOUS
 62
     2
100
AcDbLine
 10
247.88
 20
33.54
 30
0.0
 11
250.54
 21
26.4
 31
0.0
  0
LINE
  5
1FF
100
AcDbEntity
  8
LAY-1
  6
CONTINUOUS
 62
     2
100
AcDbLine
 10
247.56
 20
33.56
 30
0.0
 11
250.14
 21
26.28
 31
0.0
  0
LINE
  5
200
100
AcDbEntity
  8
LAY-1
  6
CONTINUOUS
 62
     2
100
AcDbLine
 10
258.206
 20
34.431652
 30
0.0
 11
263.788
 21
32.563941
 31
0.0
  0
LINE
  5
201
100
AcDbEntity
  8
LAY-1
  6
CONTINUOUS
 62
     2
100
AcDbLine
 10
263.788
 20
32.563941
 30
0.0
 11
263.788
 21
31.892637
 31
0.0
  0
LINE
  5
202
100
AcDbEntity
  8
LAY-1
  6
CONTINUOUS
 62
     2
100
AcDbLine
 10
263.788
 20
31.892637
 30
0.0
 11
262.026
 21
32.482194
 31
0.0
  0
LINE
  5
203
100
AcDbEntity
  8
LAY-1
  6
CONTINUOUS
 62
     2
100
AcDbLine
 10
262.026
 20
32.482194
 30
0.0
 11
262.026
 21
31.332
 31
0.0
  0
LINE
  5
204
100
AcDbEntity
  8
LAY-1
  6
CONTINUOUS
 62
     2
100
AcDbLine
 10
262.026
 20
31.332
 30
0.0
 11
254.386
 21
31.332
 31
0.0
  0
LINE
  5
205
100
AcDbEntity
  8
LAY-1
  6
CONTINUOUS
 62
     2
100
AcDbLine
 10
254.386
 20
31.332
 30
0.0
 11
254.386
 21
32.482194
 31
0.0
  0
LINE
  5
206
100
AcDbEntity
  8
LAY-1
  6
CONTINUOUS
 62
     2
100
AcDbLine
 10
254.386
 20
32.482194
 30
0.0
 11
252.624
 21
31.892637
 31
0.0
  0
LINE
  5
207
100
AcDbEntity
  8
LAY-1
  6
CONTINUOUS
 62
     2
100
AcDbLine
 10
252.624
 20
31.892637
 30
0.0
 11
252.624
 21
32.563941
 31
0.0
  0
LINE
  5
208
100
AcDbEntity
  8
LAY-1
  6
CONTINUOUS
 62
     2
100
AcDbLine
 10
252.624
 20
32.563941
 30
0.0
 11
258.206
 21
34.431652
 31
0.0
  0
LINE
  5
209
100
AcDbEntity
  8
LAY-1
  6
CONTINUOUS
 62
     2
100
AcDbLine
 10
254.667794
 20
32.57648
 30
0.0
 11
258.206
 21
33.760348
 31
0.0
  0
LINE
  5
20A
100
AcDbEntity
  8
LAY-1
  6
CONTINUOUS
 62
     2
100
AcDbLine
 10
258.206
 20
33.760348
 30
0.0
 11
261.877305
 21
32.531946
 31
0.0
  0
LINE
  5
20B
100
AcDbEntity
  8
LAY-1
  6
CONTINUOUS
 62
     2
100
AcDbLine
 10
261.6
 20
31.972
 30
0.0
 11
254.6
 21
31.972
 31
0.0
  0
LINE
  5
20C
100
AcDbEntity
  8
LAY-1
  6
CONTINUOUS
 62
     2
100
AcDbLine
 10
252.98
 20
32.32
 30
0.0
 11
258.26
 21
34.12
 31
0.0
  0
LINE
  5
20D
100
AcDbEntity
  8
LAY-1
  6
CONTINUOUS
 62
     2
100
AcDbLine
 10
258.24
 20
34.06
 30
0.0
 11
263.48
 21
32.32
 31
0.0
  0
LINE
  5
20E
100
AcDbEntity
  8
LAY-1
  6
CONTINUOUS
 62
     2
100
AcDbLine
 10
254.66
 20
31.6
 30
0.0
 11
261.72
 21
31.62
 31
0.0
  0
LINE
  5
20F
100
AcDbEntity
  8
LAY-1
  6
CONTINUOUS
 62
     2
100
AcDbLine
 10
263.788
 20
29.908
 30
0.0
 11
263.788
 21
29.268
 31
0.0
  0
LINE
  5
210
100
AcDbEntity
  8
LAY-1
  6
CONTINUOUS
 62
     2
100
AcDbLine
 10
263.788
 20
29.268
 30
0.0
 11
261.981287
 21
29.268
 31
0.0
  0
LINE
  5
211
100
AcDbEntity
  8
LAY-1
  6
CONTINUOUS
 62
     2
100
AcDbLine
 10
261.981287
 20
29.268
 30
0.0
 11
263.617094
 21
25.76
 31
0.0
  0
LINE
  5
212
100
AcDbEntity
  8
LAY-1
  6
CONTINUOUS
 62
     2
100
AcDbLine
 10
263.617094
 20
25.76
 30
0.0
 11
252.794906
 21
25.76
 31
0.0
  0
LINE
  5
213
100
AcDbEntity
  8
LAY-1
  6
CONTINUOUS
 62
     2
100
AcDbLine
 10
252.794906
 20
25.76
 30
0.0
 11
254.430713
 21
29.268
 31
0.0
  0
LINE
  5
214
100
AcDbEntity
  8
LAY-1
  6
CONTINUOUS
 62
     2
100
AcDbLine
 10
254.430713
 20
29.268
 30
0.0
 11
252.624
 21
29.268
 31
0.0
  0
LINE
  5
215
100
AcDbEntity
  8
LAY-1
  6
CONTINUOUS
 62
     2
100
AcDbLine
 10
252.624
 20
29.268
 30
0.0
 11
252.624
 21
29.908
 31
0.0
  0
LINE
  5
216
100
AcDbEntity
  8
LAY-1
  6
CONTINUOUS
 62
     2
100
AcDbLine
 10
252.624
 20
29.908
 30
0.0
 11
263.788
 21
29.908
 31
0.0
  0
LINE
  5
217
100
AcDbEntity
  8
LAY-1
  6
CONTINUOUS
 62
     2
100
AcDbLine
 10
252.924
 20
29.608
 30
0.0
 11
263.488
 21
29.608
 31
0.0
  0
LINE
  5
218
100
AcDbEntity
  8
LAY-1
  6
CONTINUOUS
 62
     2
100
AcDbLine
 10
261.510381
 20
29.568
 30
0.0
 11
263.146189
 21
26.06
 31
0.0
  0
LINE
  5
219
100
AcDbEntity
  8
LAY-1
  6
CONTINUOUS
 62
     2
100
AcDbLine
 10
263.146189
 20
26.06
 30
0.0
 11
253.265811
 21
26.06
 31
0.0
  0
LINE
  5
21A
100
AcDbEntity
  8
LAY-1
  6
CONTINUOUS
 62
     2
100
AcDbLine
 10
253.265811
 20
26.06
 30
0.0
 11
254.901619
 21
29.568
 31
0.0
  0
LINE
  5
21B
100
AcDbEntity
  8
LAY-1
  6
CONTINUOUS
 62
     2
100
AcDbLine
 10
256.046465
 20
29.268
 30
0.0
 11
260.365535
 21
29.268
 31
0.0
  0
LINE
  5
21C
100
AcDbEntity
  8
LAY-1
  6
CONTINUOUS
 62
     2
100
AcDbLine
 10
260.365535
 20
29.268
 30
0.0
 11
261.702906
 21
26.4
 31
0.0
  0
LINE
  5
21D
100
AcDbEntity
  8
LAY-1
  6
CONTINUOUS
 62
     2
100
AcDbLine
 10
261.702906
 20
26.4
 30
0.0
 11
254.709094
 21
26.4
 31
0.0
  0
LINE
  5
21E
100
AcDbEntity
  8
LAY-1
  6
CONTINUOUS
 62
     2
100
AcDbLine
 10
254.709094
 20
26.4
 30
0.0
 11
256.046465
 21
29.268
 31
0.0
  0
LINE
  5
21F
100
AcDbEntity
  8
LAY-1
  6
CONTINUOUS
 62
     2
100
AcDbLine
 10
255.22
 20
29.28
 30
0.0
 11
253.88
 21
26.44
 31
0.0
  0
LINE
  5
220
100
AcDbEntity
  8
LAY-1
  6
CONTINUOUS
 62
     2
100
AcDbLine
 10
255.7
 20
29.32
 30
0.0
 11
254.38
 21
26.44
 31
0.0
  0
LINE
  5
221
100
AcDbEntity
  8
LAY-1
  6
CONTINUOUS
 62
     2
100
AcDbLine
 10
260.74
 20
29.26
 30
0.0
 11
262.14
 21
26.34
 31
0.0
  0
LINE
  5
222
100
AcDbEntity
  8
LAY-1
  6
CONTINUOUS
 62
     2
100
AcDbLine
 10
261.26
 20
29.26
 30
0.0
 11
262.64
 21
26.28
 31
0.0
  0
LINE
  5
223
100
AcDbEntity
  8
LAY-1
  6
CONTINUOUS
 62
     2
100
AcDbLine
 10
268.124
 20
34.24
 30
0.0
 11
268.124
 21
33.416
 31
0.0
  0
LINE
  5
224
100
AcDbEntity
  8
LAY-1
  6
CONTINUOUS
 62
     2
100
AcDbLine
 10
268.124
 20
33.416
 30
0.0
 11
269.708619
 21
33.416
 31
0.0
  0
LINE
  5
225
100
AcDbEntity
  8
LAY-1
  6
CONTINUOUS
 62
     2
100
AcDbLine
 10
269.708619
 20
33.416
 30
0.0
 11
267.667493
 21
30.50097
 31
0.0
  0
LINE
  5
226
100
AcDbEntity
  8
LAY-1
  6
CONTINUOUS
 62
     2
100
AcDbLine
 10
267.667493
 20
30.50097
 30
0.0
 11
269.776
 21
29.024577
 31
0.0
  0
LINE
  5
227
100
AcDbEntity
  8
LAY-1
  6
CONTINUOUS
 62
     2
100
AcDbLine
 10
269.776
 20
29.024577
 30
0.0
 11
269.776
 21
27.530194
 31
0.0
  0
LINE
  5
228
100
AcDbEntity
  8
LAY-1
  6
CONTINUOUS
 62
     2
100
AcDbLine
 10
269.776
 20
27.530194
 30
0.0
 11
268.124
 21
28.686937
 31
0.0
  0
LINE
  5
229
100
AcDbEntity
  8
LAY-1
  6
CONTINUOUS
 62
     2
100
AcDbLine
 10
268.124
 20
28.686937
 30
0.0
 11
268.124
 21
25.76
 31
0.0
  0
LINE
  5
22A
100
AcDbEntity
  8
LAY-1
  6
CONTINUOUS
 62
     2
100
AcDbLine
 10
268.124
 20
25.76
 30
0.0
 11
266.66
 21
25.76
 31
0.0
  0
LINE
  5
22B
100
AcDbEntity
  8
LAY-1
  6
CONTINUOUS
 62
     2
100
AcDbLine
 10
266.66
 20
25.76
 30
0.0
 11
266.66
 21
29.062121
 31
0.0
  0
LINE
  5
22C
100
AcDbEntity
  8
LAY-1
  6
CONTINUOUS
 62
     2
100
AcDbLine
 10
266.66
 20
29.062121
 30
0.0
 11
264.804
 21
26.411478
 31
0.0
  0
LINE
  5
22D
100
AcDbEntity
  8
LAY-1
  6
CONTINUOUS
 62
     2
100
AcDbLine
 10
264.804
 20
26.411478
 30
0.0
 11
264.804
 21
28.60541
 31
0.0
  0
LINE
  5
22E
100
AcDbEntity
  8
LAY-1
  6
CONTINUOUS
 62
     2
100
AcDbLine
 10
264.804
 20
28.60541
 30
0.0
 11
267.724278
 21
32.776
 31
0.0
  0
LINE
  5
22F
100
AcDbEntity
  8
LAY-1
  6
CONTINUOUS
 62
     2
100
AcDbLine
 10
267.724278
 20
32.776
 30
0.0
 11
264.804
 21
32.776
 31
0.0
  0
LINE
  5
230
100
AcDbEntity
  8
LAY-1
  6
CONTINUOUS
 62
     2
100
AcDbLine
 10
264.804
 20
32.776
 30
0.0
 11
264.804
 21
33.416
 31
0.0
  0
LINE
  5
231
100
AcDbEntity
  8
LAY-1
  6
CONTINUOUS
 62
     2
100
AcDbLine
 10
264.804
 20
33.416
 30
0.0
 11
266.66
 21
33.416
 31
0.0
  0
LINE
  5
232
100
AcDbEntity
  8
LAY-1
  6
CONTINUOUS
 62
     2
100
AcDbLine
 10
266.66
 20
33.416
 30
0.0
 11
266.66
 21
34.24
 31
0.0
  0
LINE
  5
233
100
AcDbEntity
  8
LAY-1
  6
CONTINUOUS
 62
     2
100
AcDbLine
 10
266.66
 20
34.24
 30
0.0
 11
268.124
 21
34.24
 31
0.0
  0
LINE
  5
234
100
AcDbEntity
  8
LAY-1
  6
CONTINUOUS
 62
     2
100
AcDbLine
 10
267.824
 20
33.94
 30
0.0
 11
267.824
 21
33.116
 31
0.0
  0
LINE
  5
235
100
AcDbEntity
  8
LAY-1
  6
CONTINUOUS
 62
     2
100
AcDbLine
 10
267.824
 20
33.116
 30
0.0
 11
269.132324
 21
33.116
 31
0.0
  0
LINE
  5
236
100
AcDbEntity
  8
LAY-1
  6
CONTINUOUS
 62
     2
100
AcDbLine
 10
269.132324
 20
33.116
 30
0.0
 11
267.249674
 21
30.427297
 31
0.0
  0
LINE
  5
237
100
AcDbEntity
  8
LAY-1
  6
CONTINUOUS
 62
     2
100
AcDbLine
 10
267.249674
 20
30.427297
 30
0.0
 11
269.476
 21
28.868407
 31
0.0
  0
LINE
  5
238
100
AcDbEntity
  8
LAY-1
  6
CONTINUOUS
 62
     2
100
AcDbLine
 10
269.476
 20
28.868407
 30
0.0
 11
269.476
 21
28.106489
 31
0.0
  0
LINE
  5
239
100
AcDbEntity
  8
LAY-1
  6
CONTINUOUS
 62
     2
100
AcDbLine
 10
269.476
 20
28.106489
 30
0.0
 11
267.824
 21
29.263232
 31
0.0
  0
LINE
  5
23A
100
AcDbEntity
  8
LAY-1
  6
CONTINUOUS
 62
     2
100
AcDbLine
 10
267.824
 20
29.263232
 30
0.0
 11
267.824
 21
26.06
 31
0.0
  0
LINE
  5
23B
100
AcDbEntity
  8
LAY-1
  6
CONTINUOUS
 62
     2
100
AcDbLine
 10
267.824
 20
26.06
 30
0.0
 11
266.96
 21
26.06
 31
0.0
  0
LINE
  5
23C
100
AcDbEntity
  8
LAY-1
  6
CONTINUOUS
 62
     2
100
AcDbLine
 10
266.96
 20
26.06
 30
0.0
 11
266.96
 21
30.0136
 31
0.0
  0
LINE
  5
23D
100
AcDbEntity
  8
LAY-1
  6
CONTINUOUS
 62
     2
100
AcDbLine
 10
266.96
 20
30.0136
 30
0.0
 11
265.104
 21
27.362957
 31
0.0
  0
LINE
  5
23E
100
AcDbEntity
  8
LAY-1
  6
CONTINUOUS
 62
     2
100
AcDbLine
 10
265.104
 20
27.362957
 30
0.0
 11
265.104
 21
28.510821
 31
0.0
  0
LINE
  5
23F
100
AcDbEntity
  8
LAY-1
  6
CONTINUOUS
 62
     2
100
AcDbLine
 10
265.104
 20
28.510821
 30
0.0
 11
268.300573
 21
33.076
 31
0.0
  0
LINE
  5
240
100
AcDbEntity
  8
LAY-1
  6
CONTINUOUS
 62
     2
100
AcDbLine
 10
265.104
 20
33.116
 30
0.0
 11
266.96
 21
33.116
 31
0.0
  0
LINE
  5
241
100
AcDbEntity
  8
LAY-1
  6
CONTINUOUS
 62
     2
100
AcDbLine
 10
266.96
 20
33.116
 30
0.0
 11
266.96
 21
33.94
 31
0.0
  0
LINE
  5
242
100
AcDbEntity
  8
LAY-1
  6
CONTINUOUS
 62
     2
100
AcDbLine
 10
266.96
 20
33.94
 30
0.0
 11
267.824
 21
33.94
 31
0.0
  0
LINE
  5
243
100
AcDbEntity
  8
LAY-1
  6
CONTINUOUS
 62
     2
100
AcDbLine
 10
267.32
 20
33.64
 30
0.0
 11
267.32
 21
33.08
 31
0.0
  0
LINE
  5
244
100
AcDbEntity
  8
LAY-1
  6
CONTINUOUS
 62
     2
100
AcDbLine
 10
267.38
 20
29.62
 30
0.0
 11
267.38
 21
26.4
 31
0.0
  0
LINE
  5
245
100
AcDbEntity
  8
LAY-1
  6
CONTINUOUS
 62
     2
100
AcDbLine
 10
268.4
 20
32.72
 30
0.0
 11
265.38
 21
28.36
 31
0.0
  0
LINE
  5
246
100
AcDbEntity
  8
LAY-1
  6
CONTINUOUS
 62
     2
100
AcDbLine
 10
267.04
 20
30.22
 30
0.0
 11
269.2
 21
28.7
 31
0.0
  0
LINE
  5
247
100
AcDbEntity
  8
LAY-1
  6
CONTINUOUS
 62
     2
100
AcDbLine
 10
272.236
 20
34.24
 30
0.0
 11
273.7
 21
34.24
 31
0.0
  0
LINE
  5
248
100
AcDbEntity
  8
LAY-1
  6
CONTINUOUS
 62
     2
100
AcDbLine
 10
273.7
 20
34.24
 30
0.0
 11
273.7
 21
31.972
 31
0.0
  0
LINE
  5
249
100
AcDbEntity
  8
LAY-1
  6
CONTINUOUS
 62
     2
100
AcDbLine
 10
273.7
 20
31.972
 30
0.0
 11
275.56
 21
31.972
 31
0.0
  0
LINE
  5
24A
100
AcDbEntity
  8
LAY-1
  6
CONTINUOUS
 62
     2
100
AcDbLine
 10
275.56
 20
31.972
 30
0.0
 11
275.56
 21
31.332
 31
0.0
  0
LINE
  5
24B
100
AcDbEntity
  8
LAY-1
  6
CONTINUOUS
 62
     2
100
AcDbLine
 10
275.56
 20
31.332
 30
0.0
 11
273.7
 21
31.332
 31
0.0
  0
LINE
  5
24C
100
AcDbEntity
  8
LAY-1
  6
CONTINUOUS
 62
     2
100
AcDbLine
 10
273.7
 20
31.332
 30
0.0
 11
273.7
 21
26.4
 31
0.0
  0
LINE
  5
24D
100
AcDbEntity
  8
LAY-1
  6
CONTINUOUS
 62
     2
100
AcDbLine
 10
273.7
 20
26.4
 30
0.0
 11
275.764
 21
26.4
 31
0.0
  0
LINE
  5
24E
100
AcDbEntity
  8
LAY-1
  6
CONTINUOUS
 62
     2
100
AcDbLine
 10
275.764
 20
26.4
 30
0.0
 11
275.764
 21
25.76
 31
0.0
  0
LINE
  5
24F
100
AcDbEntity
  8
LAY-1
  6
CONTINUOUS
 62
     2
100
AcDbLine
 10
275.764
 20
25.76
 30
0.0
 11
269.552
 21
25.76
 31
0.0
  0
LINE
  5
250
100
AcDbEntity
  8
LAY-1
  6
CONTINUOUS
 62
     2
100
AcDbLine
 10
269.552
 20
25.76
 30
0.0
 11
269.552
 21
26.4
 31
0.0
  0
LINE
  5
251
100
AcDbEntity
  8
LAY-1
  6
CONTINUOUS
 62
     2
100
AcDbLine
 10
269.552
 20
26.4
 30
0.0
 11
272.236
 21
26.4
 31
0.0
  0
LINE
  5
252
100
AcDbEntity
  8
LAY-1
  6
CONTINUOUS
 62
     2
100
AcDbLine
 10
272.236
 20
26.4
 30
0.0
 11
272.236
 21
31.332
 31
0.0
  0
LINE
  5
253
100
AcDbEntity
  8
LAY-1
  6
CONTINUOUS
 62
     2
100
AcDbLine
 10
272.236
 20
31.332
 30
0.0
 11
270.376
 21
31.332
 31
0.0
  0
LINE
  5
254
100
AcDbEntity
  8
LAY-1
  6
CONTINUOUS
 62
     2
100
AcDbLine
 10
270.376
 20
31.332
 30
0.0
 11
270.376
 21
31.972
 31
0.0
  0
LINE
  5
255
100
AcDbEntity
  8
LAY-1
  6
CONTINUOUS
 62
     2
100
AcDbLine
 10
270.376
 20
31.972
 30
0.0
 11
272.236
 21
31.972
 31
0.0
  0
LINE
  5
256
100
AcDbEntity
  8
LAY-1
  6
CONTINUOUS
 62
     2
100
AcDbLine
 10
272.236
 20
31.972
 30
0.0
 11
272.236
 21
34.24
 31
0.0
  0
LINE
  5
257
100
AcDbEntity
  8
LAY-1
  6
CONTINUOUS
 62
     2
100
AcDbLine
 10
273.4
 20
33.94
 30
0.0
 11
273.4
 21
31.672
 31
0.0
  0
LINE
  5
258
100
AcDbEntity
  8
LAY-1
  6
CONTINUOUS
 62
     2
100
AcDbLine
 10
273.4
 20
31.672
 30
0.0
 11
275.26
 21
31.672
 31
0.0
  0
LINE
  5
259
100
AcDbEntity
  8
LAY-1
  6
CONTINUOUS
 62
     2
100
AcDbLine
 10
273.4
 20
31.632
 30
0.0
 11
273.4
 21
26.1
 31
0.0
  0
LINE
  5
25A
100
AcDbEntity
  8
LAY-1
  6
CONTINUOUS
 62
     2
100
AcDbLine
 10
275.464
 20
26.06
 30
0.0
 11
269.852
 21
26.06
 31
0.0
  0
LINE
  5
25B
100
AcDbEntity
  8
LAY-1
  6
CONTINUOUS
 62
     2
100
AcDbLine
 10
272.536
 20
26.1
 30
0.0
 11
272.536
 21
31.632
 31
0.0
  0
LINE
  5
25C
100
AcDbEntity
  8
LAY-1
  6
CONTINUOUS
 62
     2
100
AcDbLine
 10
270.676
 20
31.672
 30
0.0
 11
272.536
 21
31.672
 31
0.0
  0
LINE
  5
25D
100
AcDbEntity
  8
LAY-1
  6
CONTINUOUS
 62
     2
100
AcDbLine
 10
272.536
 20
31.672
 30
0.0
 11
272.536
 21
33.94
 31
0.0
  0
LINE
  5
25E
100
AcDbEntity
  8
LAY-1
  6
CONTINUOUS
 62
     2
100
AcDbLine
 10
272.536
 20
33.94
 30
0.0
 11
273.4
 21
33.94
 31
0.0
  0
LINE
  5
25F
100
AcDbEntity
  8
LAY-1
  6
CONTINUOUS
 62
     2
100
AcDbLine
 10
272.94
 20
33.62
 30
0.0
 11
272.94
 21
26.36
 31
0.0
  0
LINE
  5
260
100
AcDbEntity
  8
LAY-1
  6
CONTINUOUS
 62
     2
100
AcDbLine
 10
221.12
 20
31.04
 30
0.0
 11
222.96
 21
31.04
 31
0.0
  0
LINE
  5
261
100
AcDbEntity
  8
LAY-1
  6
CONTINUOUS
 62
     2
100
AcDbLine
 10
232.36
 20
32.776
 30
0.0
 11
232.06
 21
32.776
 31
0.0
  0
LINE
  5
262
100
AcDbEntity
  8
LAY-1
  6
CONTINUOUS
 62
     2
100
AcDbLine
 10
230.46
 20
32.776
 30
0.0
 11
228.52
 21
32.776
 31
0.0
  0
LINE
  5
263
100
AcDbEntity
  8
LAY-1
  6
CONTINUOUS
 62
     2
100
AcDbLine
 10
239.54
 20
32.776
 30
0.0
 11
237.6
 21
32.776
 31
0.0
  0
LINE
  5
264
100
AcDbEntity
  8
LAY-1
  6
CONTINUOUS
 62
     2
100
AcDbLine
 10
235.62
 20
32.776
 30
0.0
 11
234.64
 21
32.776
 31
0.0
  0
LINE
  5
265
100
AcDbEntity
  8
LAY-1
  6
CONTINUOUS
 62
     2
100
AcDbLine
 10
233.16
 20
30.712
 30
0.0
 11
235.52
 21
30.712
 31
0.0
  0
LINE
  5
266
100
AcDbEntity
  8
LAY-1
  6
CONTINUOUS
 62
     2
100
AcDbLine
 10
237.48
 20
30.712
 30
0.0
 11
239.56
 21
30.712
 31
0.0
  0
TEXT
  5
267
100
AcDbEntity
  8
LAY-1
  6
CONTINUOUS
 62
     2
100
AcDbText
 10
338.8
 20
553.2
 30
0.0
 40
7.6
  1
クロムメッキ
 41
0.884211
  7
EXCADSTD
 72
     5
 11
386.8
 21
553.2
 31
0.0
100
AcDbText
  0
TEXT
  5
268
100
AcDbEntity
  8
LAY-1
  6
CONTINUOUS
 62
     2
100
AcDbText
 10
321.0
 20
533.2
 30
0.0
 40
7.6
  1
２
 41
0.884211
  7
EXCADSTD
 72
     5
 11
327.4
 21
533.2
 31
0.0
100
AcDbText
  0
LINE
  5
269
100
AcDbEntity
  8
LAY-1
  6
CONTINUOUS
 62
     6
100
AcDbLine
 10
336.0
 20
572.0
 30
0.0
 11
336.0
 21
522.0
 31
0.0
  0
LINE
  5
26A
100
AcDbEntity
  8
LAY-1
  6
CONTINUOUS
 62
     6
100
AcDbLine
 10
314.0
 20
572.0
 30
0.0
 11
314.0
 21
522.0
 31
0.0
  0
LINE
  5
26B
100
AcDbEntity
  8
LAY-1
  6
CONTINUOUS
 62
     6
100
AcDbLine
 10
254.0
 20
572.0
 30
0.0
 11
254.0
 21
522.0
 31
0.0
  0
LINE
  5
26C
100
AcDbEntity
  8
LAY-1
  6
CONTINUOUS
 62
     6
100
AcDbLine
 10
194.0
 20
572.0
 30
0.0
 11
194.0
 21
522.0
 31
0.0
  0
LINE
  5
26D
100
AcDbEntity
  8
LAY-1
  6
CONTINUOUS
 62
     6
100
AcDbLine
 10
172.0
 20
572.0
 30
0.0
 11
172.0
 21
522.0
 31
0.0
  0
LINE
  5
26E
100
AcDbEntity
  8
LAY-1
  6
CONTINUOUS
 62
     6
100
AcDbLine
 10
172.0
 20
562.0
 30
0.0
 11
396.0
 21
562.0
 31
0.0
  0
LINE
  5
26F
100
AcDbEntity
  8
LAY-1
  6
CONTINUOUS
 62
     6
100
AcDbLine
 10
172.0
 20
552.0
 30
0.0
 11
396.0
 21
552.0
 31
0.0
  0
LINE
  5
270
100
AcDbEntity
  8
LAY-1
  6
CONTINUOUS
 62
     6
100
AcDbLine
 10
172.0
 20
542.0
 30
0.0
 11
396.0
 21
542.0
 31
0.0
  0
LINE
  5
271
100
AcDbEntity
  8
LAY-1
  6
CONTINUOUS
 62
     6
100
AcDbLine
 10
172.0
 20
532.0
 30
0.0
 11
396.0
 21
532.0
 31
0.0
  0
LINE
  5
272
100
AcDbEntity
  8
LAY-1
  6
CONTINUOUS
 62
     6
100
AcDbLine
 10
172.0
 20
522.0
 30
0.0
 11
396.0
 21
522.0
 31
0.0
  0
LINE
  5
273
100
AcDbEntity
  8
LAY-1
  6
CONTINUOUS
 62
     6
100
AcDbLine
 10
152.0
 20
54.0
 30
0.0
 11
40.0
 21
54.0
 31
0.0
  0
LINE
  5
274
100
AcDbEntity
  8
LAY-1
  6
CONTINUOUS
 62
     6
100
AcDbLine
 10
70.0
 20
20.0
 30
0.0
 11
70.0
 21
64.0
 31
0.0
  0
LINE
  5
275
100
AcDbEntity
  8
LAY-1
  6
CONTINUOUS
 62
     6
100
AcDbLine
 10
100.0
 20
20.0
 30
0.0
 11
100.0
 21
64.0
 31
0.0
  0
LINE
  5
276
100
AcDbEntity
  8
LAY-1
  6
CONTINUOUS
 62
     6
100
AcDbLine
 10
126.0
 20
20.0
 30
0.0
 11
126.0
 21
64.0
 31
0.0
  0
LINE
  5
277
100
AcDbEntity
  8
LAY-1
  6
CONTINUOUS
 62
     6
100
AcDbLine
 10
152.0
 20
20.0
 30
0.0
 11
152.0
 21
64.0
 31
0.0
  0
LINE
  5
278
100
AcDbEntity
  8
LAY-1
  6
CONTINUOUS
 62
     6
100
AcDbLine
 10
152.0
 20
40.0
 30
0.0
 11
396.0
 21
40.0
 31
0.0
  0
LINE
  5
279
100
AcDbEntity
  8
LAY-1
  6
CONTINUOUS
 62
     6
100
AcDbLine
 10
364.0
 20
40.0
 30
0.0
 11
364.0
 21
64.0
 31
0.0
  0
LINE
  5
27A
100
AcDbEntity
  8
LAY-1
  6
CONTINUOUS
 62
     6
100
AcDbLine
 10
162.0
 20
40.0
 30
0.0
 11
162.0
 21
64.0
 31
0.0
  0
LINE
  5
27B
100
AcDbEntity
  8
LAY-1
  6
EXLTYPE2
 62
     6
100
AcDbLine
 10
40.0
 20
30.0
 30
0.0
 11
152.0
 21
30.0
 31
0.0
  0
LINE
  5
27C
100
AcDbEntity
  8
LAY-1
  6
CONTINUOUS
 62
     6
100
AcDbLine
 10
393.8
 20
59.625
 30
0.0
 11
376.2
 21
44.775
 31
0.0
  0
LINE
  5
27D
100
AcDbEntity
  8
LAY-1
  6
CONTINUOUS
 62
     6
100
AcDbLine
 10
168.112
 20
32.272
 30
0.0
 11
168.112
 21
30.828
 31
0.0
  0
LINE
  5
27E
100
AcDbEntity
  8
LAY-1
  6
CONTINUOUS
 62
     6
100
AcDbLine
 10
177.816
 20
27.524
 30
0.0
 11
177.816
 21
25.46
 31
0.0
  0
LINE
  5
27F
100
AcDbEntity
  8
LAY-1
  6
CONTINUOUS
 62
     6
100
AcDbLine
 10
190.192
 20
27.524
 30
0.0
 11
190.192
 21
25.46
 31
0.0
  0
LINE
  5
280
100
AcDbEntity
  8
LAY-1
  6
CONTINUOUS
 62
     6
100
AcDbLine
 10
204.44
 20
27.112
 30
0.0
 11
204.44
 21
25.46
 31
0.0
  0
LINE
  5
281
100
AcDbEntity
  8
LAY-1
  6
CONTINUOUS
 62
     6
100
AcDbLine
 10
240.352
 20
33.716
 30
0.0
 11
240.352
 21
32.476
 31
0.0
  0
LINE
  5
282
100
AcDbEntity
  8
LAY-1
  6
CONTINUOUS
 62
     6
100
AcDbLine
 10
167.496
 20
34.54
 30
0.0
 11
167.496
 21
32.856
 31
0.0
  0
LINE
  5
283
100
AcDbEntity
  8
LAY-1
  6
CONTINUOUS
 62
     6
100
AcDbLine
 10
155.936
 20
30.204
 30
0.0
 11
161.716
 21
30.204
 31
0.0
  0
LINE
  5
284
100
AcDbEntity
  8
LAY-1
  6
CONTINUOUS
 62
     6
100
AcDbLine
 10
155.936
 20
31.888
 30
0.0
 11
161.716
 21
31.888
 31
0.0
  0
LINE
  5
285
100
AcDbEntity
  8
LAY-1
  6
CONTINUOUS
 62
     6
100
AcDbLine
 10
155.936
 20
27.524
 30
0.0
 11
161.619962
 21
27.524
 31
0.0
  0
LINE
  5
286
100
AcDbEntity
  8
LAY-1
  6
CONTINUOUS
 62
     6
100
AcDbLine
 10
165.844
 20
34.54
 30
0.0
 11
165.844
 21
32.856
 31
0.0
  0
LINE
  5
287
100
AcDbEntity
  8
LAY-1
  6
CONTINUOUS
 62
     6
100
AcDbLine
 10
163.576
 20
34.54
 30
0.0
 11
163.576
 21
32.856
 31
0.0
  0
LINE
  5
288
100
AcDbEntity
  8
LAY-1
  6
CONTINUOUS
 62
     6
100
AcDbLine
 10
165.228
 20
34.54
 30
0.0
 11
165.228
 21
32.856
 31
0.0
  0
LINE
  5
289
100
AcDbEntity
  8
LAY-1
  6
CONTINUOUS
 62
     6
100
AcDbLine
 10
167.496
 20
32.272
 30
0.0
 11
164.968
 21
32.272
 31
0.0
  0
LINE
  5
28A
100
AcDbEntity
  8
LAY-1
  6
CONTINUOUS
 62
     6
100
AcDbLine
 10
167.496
 20
32.272
 30
0.0
 11
165.19147
 21
27.547013
 31
0.0
  0
LINE
  5
28B
100
AcDbEntity
  8
LAY-1
  6
CONTINUOUS
 62
     6
100
AcDbLine
 10
164.968
 20
32.272
 30
0.0
 11
163.104769
 21
28.451811
 31
0.0
  0
ARC
  5
28C
100
AcDbEntity
  8
LAY-1
  6
CONTINUOUS
 62
     6
100
AcDbCircle
 10
161.851551
 20
29.176
 30
0.0
 40
3.716
100
AcDbArc
 50
270.0
 51
334.0
  0
ARC
  5
28D
100
AcDbEntity
  8
LAY-1
  6
CONTINUOUS
 62
     6
100
AcDbCircle
 10
161.619962
 20
29.176
 30
0.0
 40
1.652
100
AcDbArc
 50
270.0
 51
334.0
  0
LINE
  5
28E
100
AcDbEntity
  8
LAY-1
  6
CONTINUOUS
 62
     6
100
AcDbLine
 10
155.936
 20
34.54
 30
0.0
 11
155.936
 21
32.856
 31
0.0
  0
LINE
  5
28F
100
AcDbEntity
  8
LAY-1
  6
CONTINUOUS
 62
     6
100
AcDbLine
 10
155.936
 20
31.888
 30
0.0
 11
155.936
 21
30.204
 31
0.0
  0
LINE
  5
290
100
AcDbEntity
  8
LAY-1
  6
CONTINUOUS
 62
     6
100
AcDbLine
 10
155.936
 20
27.524
 30
0.0
 11
155.936
 21
25.46
 31
0.0
  0
LINE
  5
291
100
AcDbEntity
  8
LAY-1
  6
CONTINUOUS
 62
     6
100
AcDbLine
 10
165.844
 20
34.54
 30
0.0
 11
167.496
 21
34.54
 31
0.0
  0
LINE
  5
292
100
AcDbEntity
  8
LAY-1
  6
CONTINUOUS
 62
     6
100
AcDbLine
 10
155.936
 20
34.54
 30
0.0
 11
161.716
 21
34.54
 31
0.0
  0
LINE
  5
293
100
AcDbEntity
  8
LAY-1
  6
CONTINUOUS
 62
     6
100
AcDbLine
 10
163.576
 20
34.54
 30
0.0
 11
165.228
 21
34.54
 31
0.0
  0
LINE
  5
294
100
AcDbEntity
  8
LAY-1
  6
CONTINUOUS
 62
     6
100
AcDbLine
 10
155.936
 20
32.856
 30
0.0
 11
161.716
 21
32.856
 31
0.0
  0
LINE
  5
295
100
AcDbEntity
  8
LAY-1
  6
CONTINUOUS
 62
     6
100
AcDbLine
 10
163.576
 20
32.856
 30
0.0
 11
165.228
 21
32.856
 31
0.0
  0
LINE
  5
296
100
AcDbEntity
  8
LAY-1
  6
CONTINUOUS
 62
     6
100
AcDbLine
 10
165.844
 20
32.856
 30
0.0
 11
167.496
 21
32.856
 31
0.0
  0
LINE
  5
297
100
AcDbEntity
  8
LAY-1
  6
CONTINUOUS
 62
     6
100
AcDbLine
 10
161.716
 20
34.54
 30
0.0
 11
161.716
 21
32.856
 31
0.0
  0
LINE
  5
298
100
AcDbEntity
  8
LAY-1
  6
CONTINUOUS
 62
     6
100
AcDbLine
 10
161.716
 20
31.888
 30
0.0
 11
161.716
 21
30.204
 31
0.0
  0
LINE
  5
299
100
AcDbEntity
  8
LAY-1
  6
CONTINUOUS
 62
     6
100
AcDbLine
 10
155.936
 20
25.46
 30
0.0
 11
161.851551
 21
25.46
 31
0.0
  0
LINE
  5
29A
100
AcDbEntity
  8
LAY-1
  6
CONTINUOUS
 62
     6
100
AcDbLine
 10
169.764
 20
33.716
 30
0.0
 11
172.064
 21
33.716
 31
0.0
  0
LINE
  5
29B
100
AcDbEntity
  8
LAY-1
  6
CONTINUOUS
 62
     6
100
AcDbLine
 10
178.02
 20
32.272
 30
0.0
 11
176.821775
 21
29.580743
 31
0.0
  0
LINE
  5
29C
100
AcDbEntity
  8
LAY-1
  6
CONTINUOUS
 62
     6
100
AcDbLine
 10
173.6376
 20
27.744
 30
0.0
 11
173.993439
 21
27.744
 31
0.0
  0
LINE
  5
29D
100
AcDbEntity
  8
LAY-1
  6
CONTINUOUS
 62
     6
100
AcDbLine
 10
174.892
 20
30.828
 30
0.0
 11
174.507165
 21
29.963647
 31
0.0
  0
LINE
  5
29E
100
AcDbEntity
  8
LAY-1
  6
CONTINUOUS
 62
     6
100
AcDbLine
 10
173.402507
 20
29.228319
 30
0.0
 11
173.6376
 21
27.744
 31
0.0
  0
ARC
  5
29F
100
AcDbEntity
  8
LAY-1
  6
CONTINUOUS
 62
     6
100
AcDbCircle
 10
173.993439
 20
30.84
 30
0.0
 40
3.096
100
AcDbArc
 50
270.0
 51
336.0
  0
ARC
  5
2A0
100
AcDbEntity
  8
LAY-1
  6
CONTINUOUS
 62
     6
100
AcDbCircle
 10
173.374369
 20
30.468
 30
0.0
 40
1.24
100
AcDbArc
 50
271.300286
 51
336.0
  0
LINE
  5
2A1
100
AcDbEntity
  8
LAY-1
  6
CONTINUOUS
 62
     6
100
AcDbLine
 10
171.071622
 20
25.46
 30
0.0
 11
173.371622
 21
25.46
 31
0.0
  0
LINE
  5
2A2
100
AcDbEntity
  8
LAY-1
  6
CONTINUOUS
 62
     6
100
AcDbLine
 10
168.112
 20
32.272
 30
0.0
 11
169.992707
 21
32.272
 31
0.0
  0
LINE
  5
2A3
100
AcDbEntity
  8
LAY-1
  6
CONTINUOUS
 62
     6
100
AcDbLine
 10
172.292707
 20
32.272
 30
0.0
 11
178.02
 21
32.272
 31
0.0
  0
LINE
  5
2A4
100
AcDbEntity
  8
LAY-1
  6
CONTINUOUS
 62
     6
100
AcDbLine
 10
168.112
 20
30.828
 30
0.0
 11
170.221414
 21
30.828
 31
0.0
  0
LINE
  5
2A5
100
AcDbEntity
  8
LAY-1
  6
CONTINUOUS
 62
     6
100
AcDbLine
 10
172.521414
 20
30.828
 30
0.0
 11
174.892
 21
30.828
 31
0.0
  0
LINE
  5
2A6
100
AcDbEntity
  8
LAY-1
  6
CONTINUOUS
 62
     6
100
AcDbLine
 10
169.764
 20
33.716
 30
0.0
 11
169.992707
 21
32.272
 31
0.0
  0
LINE
  5
2A7
100
AcDbEntity
  8
LAY-1
  6
CONTINUOUS
 62
     6
100
AcDbLine
 10
170.221414
 20
30.828
 30
0.0
 11
171.071622
 21
25.46
 31
0.0
  0
LINE
  5
2A8
100
AcDbEntity
  8
LAY-1
  6
CONTINUOUS
 62
     6
100
AcDbLine
 10
172.064
 20
33.716
 30
0.0
 11
172.292707
 21
32.272
 31
0.0
  0
LINE
  5
2A9
100
AcDbEntity
  8
LAY-1
  6
CONTINUOUS
 62
     6
100
AcDbLine
 10
172.521414
 20
30.828
 30
0.0
 11
173.371622
 21
25.46
 31
0.0
  0
LINE
  5
2AA
100
AcDbEntity
  8
LAY-1
  6
CONTINUOUS
 62
     6
100
AcDbLine
 10
178.542
 20
32.476
 30
0.0
 11
188.45
 21
32.476
 31
0.0
  0
LINE
  5
2AB
100
AcDbEntity
  8
LAY-1
  6
CONTINUOUS
 62
     6
100
AcDbLine
 10
177.816
 20
27.524
 30
0.0
 11
189.176
 21
27.524
 31
0.0
  0
LINE
  5
2AC
100
AcDbEntity
  8
LAY-1
  6
CONTINUOUS
 62
     6
100
AcDbLine
 10
178.542
 20
34.54
 30
0.0
 11
178.542
 21
32.476
 31
0.0
  0
LINE
  5
2AD
100
AcDbEntity
  8
LAY-1
  6
CONTINUOUS
 62
     6
100
AcDbLine
 10
188.45
 20
34.54
 30
0.0
 11
188.45
 21
32.476
 31
0.0
  0
LINE
  5
2AE
100
AcDbEntity
  8
LAY-1
  6
CONTINUOUS
 62
     6
100
AcDbLine
 10
189.176
 20
27.524
 30
0.0
 11
189.176
 21
25.46
 31
0.0
  0
LINE
  5
2AF
100
AcDbEntity
  8
LAY-1
  6
CONTINUOUS
 62
     6
100
AcDbLine
 10
178.542
 20
34.54
 30
0.0
 11
188.45
 21
34.54
 31
0.0
  0
LINE
  5
2B0
100
AcDbEntity
  8
LAY-1
  6
CONTINUOUS
 62
     6
100
AcDbLine
 10
177.816
 20
25.46
 30
0.0
 11
189.176
 21
25.46
 31
0.0
  0
LINE
  5
2B1
100
AcDbEntity
  8
LAY-1
  6
CONTINUOUS
 62
     6
100
AcDbLine
 10
190.82
 20
34.54
 30
0.0
 11
190.82
 21
32.476
 31
0.0
  0
LINE
  5
2B2
100
AcDbEntity
  8
LAY-1
  6
CONTINUOUS
 62
     6
100
AcDbLine
 10
190.82
 20
32.476
 30
0.0
 11
197.248
 21
32.476
 31
0.0
  0
LINE
  5
2B3
100
AcDbEntity
  8
LAY-1
  6
CONTINUOUS
 62
     6
100
AcDbLine
 10
190.192
 20
27.524
 30
0.0
 11
192.598501
 21
27.524
 31
0.0
  0
LINE
  5
2B4
100
AcDbEntity
  8
LAY-1
  6
CONTINUOUS
 62
     6
100
AcDbLine
 10
197.248
 20
32.476
 30
0.0
 11
194.268312
 21
28.374811
 31
0.0
  0
LINE
  5
2B5
100
AcDbEntity
  8
LAY-1
  6
CONTINUOUS
 62
     6
100
AcDbLine
 10
202.376
 20
25.46
 30
0.0
 11
197.827627
 21
29.41384
 31
0.0
  0
LINE
  5
2B6
100
AcDbEntity
  8
LAY-1
  6
CONTINUOUS
 62
     6
100
AcDbLine
 10
199.368
 20
25.46
 30
0.0
 11
196.663246
 21
27.811207
 31
0.0
  0
ARC
  5
2B7
100
AcDbEntity
  8
LAY-1
  6
CONTINUOUS
 62
     6
100
AcDbCircle
 10
193.061597
 20
29.176
 30
0.0
 40
3.716
100
AcDbArc
 50
270.0
 51
324.0
  0
ARC
  5
2B8
100
AcDbEntity
  8
LAY-1
  6
CONTINUOUS
 62
     6
100
AcDbCircle
 10
192.598501
 20
29.588
 30
0.0
 40
2.064
100
AcDbArc
 50
270.0
 51
324.0
  0
LINE
  5
2B9
100
AcDbEntity
  8
LAY-1
  6
CONTINUOUS
 62
     6
100
AcDbLine
 10
190.192
 20
25.46
 30
0.0
 11
193.061597
 21
25.46
 31
0.0
  0
LINE
  5
2BA
100
AcDbEntity
  8
LAY-1
  6
CONTINUOUS
 62
     6
100
AcDbLine
 10
199.368
 20
25.46
 30
0.0
 11
202.376
 21
25.46
 31
0.0
  0
LINE
  5
2BB
100
AcDbEntity
  8
LAY-1
  6
CONTINUOUS
 62
     6
100
AcDbLine
 10
201.552
 20
34.54
 30
0.0
 11
197.827627
 21
29.41384
 31
0.0
  0
LINE
  5
2BC
100
AcDbEntity
  8
LAY-1
  6
CONTINUOUS
 62
     6
100
AcDbLine
 10
196.663246
 20
27.811207
 30
0.0
 11
196.067904
 21
26.99179
 31
0.0
  0
LINE
  5
2BD
100
AcDbEntity
  8
LAY-1
  6
CONTINUOUS
 62
     6
100
AcDbLine
 10
190.82
 20
34.54
 30
0.0
 11
201.552
 21
34.54
 31
0.0
  0
LINE
  5
2BE
100
AcDbEntity
  8
LAY-1
  6
CONTINUOUS
 62
     6
100
AcDbLine
 10
216.0
 20
27.112
 30
0.0
 11
216.0
 21
25.46
 31
0.0
  0
LINE
  5
2BF
100
AcDbEntity
  8
LAY-1
  6
CONTINUOUS
 62
     6
100
AcDbLine
 10
204.44
 20
25.46
 30
0.0
 11
216.0
 21
25.46
 31
0.0
  0
LINE
  5
2C0
100
AcDbEntity
  8
LAY-1
  6
CONTINUOUS
 62
     6
100
AcDbLine
 10
209.084
 20
33.096
 30
0.0
 11
209.084
 21
27.112
 31
0.0
  0
LINE
  5
2C1
100
AcDbEntity
  8
LAY-1
  6
CONTINUOUS
 62
     6
100
AcDbLine
 10
211.356
 20
33.096
 30
0.0
 11
211.356
 21
27.112
 31
0.0
  0
LINE
  5
2C2
100
AcDbEntity
  8
LAY-1
  6
CONTINUOUS
 62
     6
100
AcDbLine
 10
204.854
 20
34.54
 30
0.0
 11
204.854
 21
33.096
 31
0.0
  0
LINE
  5
2C3
100
AcDbEntity
  8
LAY-1
  6
CONTINUOUS
 62
     6
100
AcDbLine
 10
215.586
 20
34.54
 30
0.0
 11
215.586
 21
33.096
 31
0.0
  0
LINE
  5
2C4
100
AcDbEntity
  8
LAY-1
  6
CONTINUOUS
 62
     6
100
AcDbLine
 10
204.854
 20
33.096
 30
0.0
 11
209.084
 21
33.096
 31
0.0
  0
LINE
  5
2C5
100
AcDbEntity
  8
LAY-1
  6
CONTINUOUS
 62
     6
100
AcDbLine
 10
211.356
 20
33.096
 30
0.0
 11
215.586
 21
33.096
 31
0.0
  0
LINE
  5
2C6
100
AcDbEntity
  8
LAY-1
  6
CONTINUOUS
 62
     6
100
AcDbLine
 10
204.44
 20
27.112
 30
0.0
 11
209.084
 21
27.112
 31
0.0
  0
LINE
  5
2C7
100
AcDbEntity
  8
LAY-1
  6
CONTINUOUS
 62
     6
100
AcDbLine
 10
211.356
 20
27.112
 30
0.0
 11
216.0
 21
27.112
 31
0.0
  0
LINE
  5
2C8
100
AcDbEntity
  8
LAY-1
  6
CONTINUOUS
 62
     6
100
AcDbLine
 10
204.854
 20
34.54
 30
0.0
 11
215.586
 21
34.54
 31
0.0
  0
LINE
  5
2C9
100
AcDbEntity
  8
LAY-1
  6
CONTINUOUS
 62
     6
100
AcDbLine
 10
223.016
 20
27.524
 30
0.0
 11
225.3
 21
25.46
 31
0.0
  0
LINE
  5
2CA
100
AcDbEntity
  8
LAY-1
  6
CONTINUOUS
 62
     6
100
AcDbLine
 10
220.952
 20
27.524
 30
0.0
 11
218.668
 21
25.46
 31
0.0
  0
LINE
  5
2CB
100
AcDbEntity
  8
LAY-1
  6
CONTINUOUS
 62
     6
100
AcDbLine
 10
225.48
 20
27.524
 30
0.0
 11
227.764
 21
25.46
 31
0.0
  0
LINE
  5
2CC
100
AcDbEntity
  8
LAY-1
  6
CONTINUOUS
 62
     6
100
AcDbLine
 10
218.488
 20
27.524
 30
0.0
 11
216.204
 21
25.46
 31
0.0
  0
LINE
  5
2CD
100
AcDbEntity
  8
LAY-1
  6
CONTINUOUS
 62
     6
100
AcDbLine
 10
222.292
 20
34.54
 30
0.0
 11
222.292
 21
33.3
 31
0.0
  0
LINE
  5
2CE
100
AcDbEntity
  8
LAY-1
  6
CONTINUOUS
 62
     6
100
AcDbLine
 10
221.676
 20
34.54
 30
0.0
 11
221.676
 21
33.3
 31
0.0
  0
LINE
  5
2CF
100
AcDbEntity
  8
LAY-1
  6
CONTINUOUS
 62
     6
100
AcDbLine
 10
224.048
 20
34.54
 30
0.0
 11
224.048
 21
33.3
 31
0.0
  0
LINE
  5
2D0
100
AcDbEntity
  8
LAY-1
  6
CONTINUOUS
 62
     6
100
AcDbLine
 10
227.244
 20
34.54
 30
0.0
 11
226.275206
 21
33.3
 31
0.0
  0
LINE
  5
2D1
100
AcDbEntity
  8
LAY-1
  6
CONTINUOUS
 62
     6
100
AcDbLine
 10
225.412
 20
34.54
 30
0.0
 11
224.443206
 21
33.3
 31
0.0
  0
LINE
  5
2D2
100
AcDbEntity
  8
LAY-1
  6
CONTINUOUS
 62
     6
100
AcDbLine
 10
219.92
 20
34.54
 30
0.0
 11
219.92
 21
33.3
 31
0.0
  0
LINE
  5
2D3
100
AcDbEntity
  8
LAY-1
  6
CONTINUOUS
 62
     6
100
AcDbLine
 10
218.556
 20
34.54
 30
0.0
 11
219.524794
 21
33.3
 31
0.0
  0
LINE
  5
2D4
100
AcDbEntity
  8
LAY-1
  6
CONTINUOUS
 62
     6
100
AcDbLine
 10
216.724
 20
34.54
 30
0.0
 11
217.692794
 21
33.3
 31
0.0
  0
LINE
  5
2D5
100
AcDbEntity
  8
LAY-1
  6
CONTINUOUS
 62
     6
100
AcDbLine
 10
225.212
 20
31.32
 30
0.0
 11
225.587617
 21
32.352
 31
0.0
  0
LINE
  5
2D6
100
AcDbEntity
  8
LAY-1
  6
CONTINUOUS
 62
     6
100
AcDbLine
 10
223.016
 20
31.32
 30
0.0
 11
223.391617
 21
32.352
 31
0.0
  0
LINE
  5
2D7
100
AcDbEntity
  8
LAY-1
  6
CONTINUOUS
 62
     6
100
AcDbLine
 10
220.952
 20
31.32
 30
0.0
 11
220.576383
 21
32.352
 31
0.0
  0
LINE
  5
2D8
100
AcDbEntity
  8
LAY-1
  6
CONTINUOUS
 62
     6
100
AcDbLine
 10
218.756
 20
31.32
 30
0.0
 11
218.380383
 21
32.352
 31
0.0
  0
LINE
  5
2D9
100
AcDbEntity
  8
LAY-1
  6
CONTINUOUS
 62
     6
100
AcDbLine
 10
216.724
 20
34.54
 30
0.0
 11
218.556
 21
34.54
 31
0.0
  0
LINE
  5
2DA
100
AcDbEntity
  8
LAY-1
  6
CONTINUOUS
 62
     6
100
AcDbLine
 10
219.92
 20
34.54
 30
0.0
 11
221.676
 21
34.54
 31
0.0
  0
LINE
  5
2DB
100
AcDbEntity
  8
LAY-1
  6
CONTINUOUS
 62
     6
100
AcDbLine
 10
222.292
 20
34.54
 30
0.0
 11
224.048
 21
34.54
 31
0.0
  0
LINE
  5
2DC
100
AcDbEntity
  8
LAY-1
  6
CONTINUOUS
 62
     6
100
AcDbLine
 10
225.412
 20
34.54
 30
0.0
 11
227.244
 21
34.54
 31
0.0
  0
LINE
  5
2DD
100
AcDbEntity
  8
LAY-1
  6
CONTINUOUS
 62
     6
100
AcDbLine
 10
216.204
 20
33.3
 30
0.0
 11
216.204
 21
32.352
 31
0.0
  0
LINE
  5
2DE
100
AcDbEntity
  8
LAY-1
  6
CONTINUOUS
 62
     6
100
AcDbLine
 10
216.204
 20
31.32
 30
0.0
 11
216.204
 21
30.544
 31
0.0
  0
LINE
  5
2DF
100
AcDbEntity
  8
LAY-1
  6
CONTINUOUS
 62
     6
100
AcDbLine
 10
216.204
 20
29.896
 30
0.0
 11
216.204
 21
28.948
 31
0.0
  0
LINE
  5
2E0
100
AcDbEntity
  8
LAY-1
  6
CONTINUOUS
 62
     6
100
AcDbLine
 10
216.204
 20
28.3
 30
0.0
 11
216.204
 21
27.524
 31
0.0
  0
LINE
  5
2E1
100
AcDbEntity
  8
LAY-1
  6
CONTINUOUS
 62
     6
100
AcDbLine
 10
216.204
 20
25.46
 30
0.0
 11
218.668
 21
25.46
 31
0.0
  0
LINE
  5
2E2
100
AcDbEntity
  8
LAY-1
  6
CONTINUOUS
 62
     6
100
AcDbLine
 10
220.952
 20
25.46
 30
0.0
 11
223.016
 21
25.46
 31
0.0
  0
LINE
  5
2E3
100
AcDbEntity
  8
LAY-1
  6
CONTINUOUS
 62
     6
100
AcDbLine
 10
225.3
 20
25.46
 30
0.0
 11
227.764
 21
25.46
 31
0.0
  0
LINE
  5
2E4
100
AcDbEntity
  8
LAY-1
  6
CONTINUOUS
 62
     6
100
AcDbLine
 10
227.764
 20
27.524
 30
0.0
 11
227.764
 21
28.3
 31
0.0
  0
LINE
  5
2E5
100
AcDbEntity
  8
LAY-1
  6
CONTINUOUS
 62
     6
100
AcDbLine
 10
227.764
 20
28.948
 30
0.0
 11
227.764
 21
29.896
 31
0.0
  0
LINE
  5
2E6
100
AcDbEntity
  8
LAY-1
  6
CONTINUOUS
 62
     6
100
AcDbLine
 10
227.764
 20
30.544
 30
0.0
 11
227.764
 21
31.32
 31
0.0
  0
LINE
  5
2E7
100
AcDbEntity
  8
LAY-1
  6
CONTINUOUS
 62
     6
100
AcDbLine
 10
227.764
 20
32.352
 30
0.0
 11
227.764
 21
33.3
 31
0.0
  0
LINE
  5
2E8
100
AcDbEntity
  8
LAY-1
  6
CONTINUOUS
 62
     6
100
AcDbLine
 10
220.952
 20
27.524
 30
0.0
 11
220.952
 21
25.46
 31
0.0
  0
LINE
  5
2E9
100
AcDbEntity
  8
LAY-1
  6
CONTINUOUS
 62
     6
100
AcDbLine
 10
223.016
 20
27.524
 30
0.0
 11
223.016
 21
25.46
 31
0.0
  0
LINE
  5
2EA
100
AcDbEntity
  8
LAY-1
  6
CONTINUOUS
 62
     6
100
AcDbLine
 10
220.952
 20
30.544
 30
0.0
 11
220.952
 21
29.896
 31
0.0
  0
LINE
  5
2EB
100
AcDbEntity
  8
LAY-1
  6
CONTINUOUS
 62
     6
100
AcDbLine
 10
220.952
 20
28.948
 30
0.0
 11
220.952
 21
28.3
 31
0.0
  0
LINE
  5
2EC
100
AcDbEntity
  8
LAY-1
  6
CONTINUOUS
 62
     6
100
AcDbLine
 10
223.016
 20
30.544
 30
0.0
 11
223.016
 21
29.896
 31
0.0
  0
LINE
  5
2ED
100
AcDbEntity
  8
LAY-1
  6
CONTINUOUS
 62
     6
100
AcDbLine
 10
223.016
 20
28.948
 30
0.0
 11
223.016
 21
28.3
 31
0.0
  0
LINE
  5
2EE
100
AcDbEntity
  8
LAY-1
  6
CONTINUOUS
 62
     6
100
AcDbLine
 10
216.204
 20
33.3
 30
0.0
 11
217.692794
 21
33.3
 31
0.0
  0
LINE
  5
2EF
100
AcDbEntity
  8
LAY-1
  6
CONTINUOUS
 62
     6
100
AcDbLine
 10
219.524794
 20
33.3
 30
0.0
 11
219.92
 21
33.3
 31
0.0
  0
LINE
  5
2F0
100
AcDbEntity
  8
LAY-1
  6
CONTINUOUS
 62
     6
100
AcDbLine
 10
221.676
 20
33.3
 30
0.0
 11
222.292
 21
33.3
 31
0.0
  0
LINE
  5
2F1
100
AcDbEntity
  8
LAY-1
  6
CONTINUOUS
 62
     6
100
AcDbLine
 10
224.048
 20
33.3
 30
0.0
 11
224.443206
 21
33.3
 31
0.0
  0
LINE
  5
2F2
100
AcDbEntity
  8
LAY-1
  6
CONTINUOUS
 62
     6
100
AcDbLine
 10
226.275206
 20
33.3
 30
0.0
 11
227.764
 21
33.3
 31
0.0
  0
LINE
  5
2F3
100
AcDbEntity
  8
LAY-1
  6
CONTINUOUS
 62
     6
100
AcDbLine
 10
225.587617
 20
32.352
 30
0.0
 11
227.764
 21
32.352
 31
0.0
  0
LINE
  5
2F4
100
AcDbEntity
  8
LAY-1
  6
CONTINUOUS
 62
     6
100
AcDbLine
 10
216.204
 20
32.352
 30
0.0
 11
218.380383
 21
32.352
 31
0.0
  0
LINE
  5
2F5
100
AcDbEntity
  8
LAY-1
  6
CONTINUOUS
 62
     6
100
AcDbLine
 10
220.576383
 20
32.352
 30
0.0
 11
223.391617
 21
32.352
 31
0.0
  0
LINE
  5
2F6
100
AcDbEntity
  8
LAY-1
  6
CONTINUOUS
 62
     6
100
AcDbLine
 10
216.204
 20
31.32
 30
0.0
 11
218.756
 21
31.32
 31
0.0
  0
LINE
  5
2F7
100
AcDbEntity
  8
LAY-1
  6
CONTINUOUS
 62
     6
100
AcDbLine
 10
220.952
 20
31.32
 30
0.0
 11
223.016
 21
31.32
 31
0.0
  0
LINE
  5
2F8
100
AcDbEntity
  8
LAY-1
  6
CONTINUOUS
 62
     6
100
AcDbLine
 10
225.212
 20
31.32
 30
0.0
 11
227.764
 21
31.32
 31
0.0
  0
LINE
  5
2F9
100
AcDbEntity
  8
LAY-1
  6
CONTINUOUS
 62
     6
100
AcDbLine
 10
216.204
 20
30.544
 30
0.0
 11
220.952
 21
30.544
 31
0.0
  0
LINE
  5
2FA
100
AcDbEntity
  8
LAY-1
  6
CONTINUOUS
 62
     6
100
AcDbLine
 10
223.016
 20
30.544
 30
0.0
 11
227.764
 21
30.544
 31
0.0
  0
LINE
  5
2FB
100
AcDbEntity
  8
LAY-1
  6
CONTINUOUS
 62
     6
100
AcDbLine
 10
216.204
 20
29.896
 30
0.0
 11
220.952
 21
29.896
 31
0.0
  0
LINE
  5
2FC
100
AcDbEntity
  8
LAY-1
  6
CONTINUOUS
 62
     6
100
AcDbLine
 10
223.016
 20
29.896
 30
0.0
 11
227.764
 21
29.896
 31
0.0
  0
LINE
  5
2FD
100
AcDbEntity
  8
LAY-1
  6
CONTINUOUS
 62
     6
100
AcDbLine
 10
216.204
 20
28.948
 30
0.0
 11
220.952
 21
28.948
 31
0.0
  0
LINE
  5
2FE
100
AcDbEntity
  8
LAY-1
  6
CONTINUOUS
 62
     6
100
AcDbLine
 10
223.016
 20
28.948
 30
0.0
 11
227.764
 21
28.948
 31
0.0
  0
LINE
  5
2FF
100
AcDbEntity
  8
LAY-1
  6
CONTINUOUS
 62
     6
100
AcDbLine
 10
216.204
 20
28.3
 30
0.0
 11
220.952
 21
28.3
 31
0.0
  0
LINE
  5
300
100
AcDbEntity
  8
LAY-1
  6
CONTINUOUS
 62
     6
100
AcDbLine
 10
223.016
 20
28.3
 30
0.0
 11
227.764
 21
28.3
 31
0.0
  0
LINE
  5
301
100
AcDbEntity
  8
LAY-1
  6
CONTINUOUS
 62
     6
100
AcDbLine
 10
216.204
 20
27.524
 30
0.0
 11
218.488
 21
27.524
 31
0.0
  0
LINE
  5
302
100
AcDbEntity
  8
LAY-1
  6
CONTINUOUS
 62
     6
100
AcDbLine
 10
225.48
 20
27.524
 30
0.0
 11
227.764
 21
27.524
 31
0.0
  0
LINE
  5
303
100
AcDbEntity
  8
LAY-1
  6
CONTINUOUS
 62
     6
100
AcDbLine
 10
228.278
 20
33.508
 30
0.0
 11
228.278
 21
32.476
 31
0.0
  0
LINE
  5
304
100
AcDbEntity
  8
LAY-1
  6
CONTINUOUS
 62
     6
100
AcDbLine
 10
228.176
 20
25.46
 30
0.0
 11
228.913411
 21
32.476
 31
0.0
  0
LINE
  5
305
100
AcDbEntity
  8
LAY-1
  6
CONTINUOUS
 62
     6
100
AcDbLine
 10
229.42
 20
25.46
 30
0.0
 11
230.157411
 21
32.476
 31
0.0
  0
LINE
  5
306
100
AcDbEntity
  8
LAY-1
  6
CONTINUOUS
 62
     6
100
AcDbLine
 10
232.198
 20
32.476
 30
0.0
 11
232.716
 21
31.763034
 31
0.0
  0
LINE
  5
307
100
AcDbEntity
  8
LAY-1
  6
CONTINUOUS
 62
     6
100
AcDbLine
 10
232.198
 20
30.172966
 30
0.0
 11
232.716
 21
29.46
 31
0.0
  0
LINE
  5
308
100
AcDbEntity
  8
LAY-1
  6
CONTINUOUS
 62
     6
100
AcDbLine
 10
239.94
 20
25.46
 30
0.0
 11
239.038283
 21
30.412
 31
0.0
  0
LINE
  5
309
100
AcDbEntity
  8
LAY-1
  6
CONTINUOUS
 62
     6
100
AcDbLine
 10
238.26
 20
25.46
 30
0.0
 11
237.36
 21
30.402572
 31
0.0
  0
LINE
  5
30A
100
AcDbEntity
  8
LAY-1
  6
CONTINUOUS
 62
     6
100
AcDbLine
 10
234.604
 20
25.46
 30
0.0
 11
235.504
 21
30.402572
 31
0.0
  0
LINE
  5
30B
100
AcDbEntity
  8
LAY-1
  6
CONTINUOUS
 62
     6
100
AcDbLine
 10
233.825717
 20
30.412
 30
0.0
 11
232.924
 21
25.46
 31
0.0
  0
LINE
  5
30C
100
AcDbEntity
  8
LAY-1
  6
CONTINUOUS
 62
     6
100
AcDbLine
 10
234.525801
 20
31.86
 30
0.0
 11
232.825801
 21
31.86
 31
0.0
  0
LINE
  5
30D
100
AcDbEntity
  8
LAY-1
  6
CONTINUOUS
 62
     6
100
AcDbLine
 10
233.494
 20
34.54
 30
0.0
 11
233.236694
 21
33.508
 31
0.0
  0
LINE
  5
30E
100
AcDbEntity
  8
LAY-1
  6
CONTINUOUS
 62
     6
100
AcDbLine
 10
233.234699
 20
33.5
 30
0.0
 11
232.825801
 21
31.86
 31
0.0
  0
LINE
  5
30F
100
AcDbEntity
  8
LAY-1
  6
CONTINUOUS
 62
     6
100
AcDbLine
 10
228.176
 20
25.46
 30
0.0
 11
229.42
 21
25.46
 31
0.0
  0
LINE
  5
310
100
AcDbEntity
  8
LAY-1
  6
CONTINUOUS
 62
     6
100
AcDbLine
 10
230.342
 20
25.46
 30
0.0
 11
232.198
 21
25.46
 31
0.0
  0
LINE
  5
311
100
AcDbEntity
  8
LAY-1
  6
CONTINUOUS
 62
     6
100
AcDbLine
 10
232.924
 20
25.46
 30
0.0
 11
234.604
 21
25.46
 31
0.0
  0
LINE
  5
312
100
AcDbEntity
  8
LAY-1
  6
CONTINUOUS
 62
     6
100
AcDbLine
 10
235.504
 20
25.46
 30
0.0
 11
237.36
 21
25.46
 31
0.0
  0
LINE
  5
313
100
AcDbEntity
  8
LAY-1
  6
CONTINUOUS
 62
     6
100
AcDbLine
 10
238.26
 20
25.46
 30
0.0
 11
239.94
 21
25.46
 31
0.0
  0
LINE
  5
314
100
AcDbEntity
  8
LAY-1
  6
CONTINUOUS
 62
     6
100
AcDbLine
 10
237.36
 20
34.54
 30
0.0
 11
237.36
 21
33.508
 31
0.0
  0
LINE
  5
315
100
AcDbEntity
  8
LAY-1
  6
CONTINUOUS
 62
     6
100
AcDbLine
 10
237.36
 20
32.476
 30
0.0
 11
237.36
 21
31.444
 31
0.0
  0
LINE
  5
316
100
AcDbEntity
  8
LAY-1
  6
CONTINUOUS
 62
     6
100
AcDbLine
 10
237.36
 20
30.412
 30
0.0
 11
237.36
 21
25.46
 31
0.0
  0
LINE
  5
317
100
AcDbEntity
  8
LAY-1
  6
CONTINUOUS
 62
     6
100
AcDbLine
 10
235.504
 20
34.54
 30
0.0
 11
235.504
 21
33.508
 31
0.0
  0
LINE
  5
318
100
AcDbEntity
  8
LAY-1
  6
CONTINUOUS
 62
     6
100
AcDbLine
 10
235.504
 20
32.476
 30
0.0
 11
235.504
 21
31.444
 31
0.0
  0
LINE
  5
319
100
AcDbEntity
  8
LAY-1
  6
CONTINUOUS
 62
     6
100
AcDbLine
 10
235.504
 20
30.412
 30
0.0
 11
235.504
 21
25.46
 31
0.0
  0
LINE
  5
31A
100
AcDbEntity
  8
LAY-1
  6
CONTINUOUS
 62
     6
100
AcDbLine
 10
230.342
 20
34.54
 30
0.0
 11
230.342
 21
33.508
 31
0.0
  0
LINE
  5
31B
100
AcDbEntity
  8
LAY-1
  6
CONTINUOUS
 62
     6
100
AcDbLine
 10
230.342
 20
32.476
 30
0.0
 11
230.342
 21
25.46
 31
0.0
  0
LINE
  5
31C
100
AcDbEntity
  8
LAY-1
  6
CONTINUOUS
 62
     6
100
AcDbLine
 10
228.278
 20
32.476
 30
0.0
 11
228.913411
 21
32.476
 31
0.0
  0
LINE
  5
31D
100
AcDbEntity
  8
LAY-1
  6
CONTINUOUS
 62
     6
100
AcDbLine
 10
230.157411
 20
32.476
 30
0.0
 11
230.342
 21
32.476
 31
0.0
  0
LINE
  5
31E
100
AcDbEntity
  8
LAY-1
  6
CONTINUOUS
 62
     6
100
AcDbLine
 10
237.36
 20
32.476
 30
0.0
 11
239.838
 21
32.476
 31
0.0
  0
LINE
  5
31F
100
AcDbEntity
  8
LAY-1
  6
CONTINUOUS
 62
     6
100
AcDbLine
 10
237.36
 20
33.508
 30
0.0
 11
239.838
 21
33.508
 31
0.0
  0
LINE
  5
320
100
AcDbEntity
  8
LAY-1
  6
CONTINUOUS
 62
     6
100
AcDbLine
 10
228.278
 20
33.508
 30
0.0
 11
230.342
 21
33.508
 31
0.0
  0
LINE
  5
321
100
AcDbEntity
  8
LAY-1
  6
CONTINUOUS
 62
     6
100
AcDbLine
 10
232.198
 20
33.508
 30
0.0
 11
232.716
 21
33.508
 31
0.0
  0
LINE
  5
322
100
AcDbEntity
  8
LAY-1
  6
CONTINUOUS
 62
     6
100
AcDbLine
 10
232.198
 20
30.172966
 30
0.0
 11
232.198
 21
25.46
 31
0.0
  0
LINE
  5
323
100
AcDbEntity
  8
LAY-1
  6
CONTINUOUS
 62
     6
100
AcDbLine
 10
233.825717
 20
30.412
 30
0.0
 11
232.924
 21
30.412
 31
0.0
  0
LINE
  5
324
100
AcDbEntity
  8
LAY-1
  6
CONTINUOUS
 62
     6
100
AcDbLine
 10
239.838
 20
30.412
 30
0.0
 11
239.038283
 21
30.412
 31
0.0
  0
LINE
  5
325
100
AcDbEntity
  8
LAY-1
  6
CONTINUOUS
 62
     6
100
AcDbLine
 10
239.838
 20
31.444
 30
0.0
 11
237.36
 21
31.444
 31
0.0
  0
LINE
  5
326
100
AcDbEntity
  8
LAY-1
  6
CONTINUOUS
 62
     6
100
AcDbLine
 10
235.194
 20
34.54
 30
0.0
 11
234.936694
 21
33.508
 31
0.0
  0
LINE
  5
327
100
AcDbEntity
  8
LAY-1
  6
CONTINUOUS
 62
     6
100
AcDbLine
 10
234.936694
 20
33.508
 30
0.0
 11
235.504
 21
33.508
 31
0.0
  0
LINE
  5
328
100
AcDbEntity
  8
LAY-1
  6
CONTINUOUS
 62
     6
100
AcDbLine
 10
239.838
 20
33.508
 30
0.0
 11
239.838
 21
32.476
 31
0.0
  0
LINE
  5
329
100
AcDbEntity
  8
LAY-1
  6
CONTINUOUS
 62
     6
100
AcDbLine
 10
239.838
 20
31.444
 30
0.0
 11
239.838
 21
30.412
 31
0.0
  0
LINE
  5
32A
100
AcDbEntity
  8
LAY-1
  6
CONTINUOUS
 62
     6
100
AcDbLine
 10
232.198
 20
32.476
 30
0.0
 11
232.716
 21
32.476
 31
0.0
  0
LINE
  5
32B
100
AcDbEntity
  8
LAY-1
  6
CONTINUOUS
 62
     6
100
AcDbLine
 10
234.675398
 20
32.46
 30
0.0
 11
234.525801
 21
31.86
 31
0.0
  0
LINE
  5
32C
100
AcDbEntity
  8
LAY-1
  6
CONTINUOUS
 62
     6
100
AcDbLine
 10
234.679387
 20
32.476
 30
0.0
 11
235.504
 21
32.476
 31
0.0
  0
LINE
  5
32D
100
AcDbEntity
  8
LAY-1
  6
CONTINUOUS
 62
     6
100
AcDbLine
 10
232.716
 20
33.5
 30
0.0
 11
232.716
 21
32.476
 31
0.0
  0
LINE
  5
32E
100
AcDbEntity
  8
LAY-1
  6
CONTINUOUS
 62
     6
100
AcDbLine
 10
232.716
 20
31.763034
 30
0.0
 11
232.716
 21
29.46
 31
0.0
  0
LINE
  5
32F
100
AcDbEntity
  8
LAY-1
  6
CONTINUOUS
 62
     6
100
AcDbLine
 10
232.198
 20
34.54
 30
0.0
 11
232.198
 21
33.508
 31
0.0
  0
LINE
  5
330
100
AcDbEntity
  8
LAY-1
  6
CONTINUOUS
 62
     6
100
AcDbLine
 10
235.504
 20
31.444
 30
0.0
 11
232.924
 21
31.444
 31
0.0
  0
LINE
  5
331
100
AcDbEntity
  8
LAY-1
  6
CONTINUOUS
 62
     6
100
AcDbLine
 10
232.924
 20
31.444
 30
0.0
 11
232.924
 21
30.412
 31
0.0
  0
LINE
  5
332
100
AcDbEntity
  8
LAY-1
  6
CONTINUOUS
 62
     6
100
AcDbLine
 10
230.342
 20
34.54
 30
0.0
 11
232.198
 21
34.54
 31
0.0
  0
LINE
  5
333
100
AcDbEntity
  8
LAY-1
  6
CONTINUOUS
 62
     6
100
AcDbLine
 10
233.494
 20
34.54
 30
0.0
 11
235.194
 21
34.54
 31
0.0
  0
LINE
  5
334
100
AcDbEntity
  8
LAY-1
  6
CONTINUOUS
 62
     6
100
AcDbLine
 10
235.504
 20
34.54
 30
0.0
 11
237.36
 21
34.54
 31
0.0
  0
LINE
  5
335
100
AcDbEntity
  8
LAY-1
  6
CONTINUOUS
 62
     6
100
AcDbLine
 10
251.912
 20
33.716
 30
0.0
 11
251.912
 21
32.476
 31
0.0
  0
LINE
  5
336
100
AcDbEntity
  8
LAY-1
  6
CONTINUOUS
 62
     6
100
AcDbLine
 10
251.292
 20
34.54
 30
0.0
 11
251.292
 21
33.716
 31
0.0
  0
LINE
  5
337
100
AcDbEntity
  8
LAY-1
  6
CONTINUOUS
 62
     6
100
AcDbLine
 10
249.436
 20
34.54
 30
0.0
 11
249.436
 21
33.716
 31
0.0
  0
LINE
  5
338
100
AcDbEntity
  8
LAY-1
  6
CONTINUOUS
 62
     6
100
AcDbLine
 10
240.868
 20
31.24
 30
0.0
 11
247.268
 21
31.24
 31
0.0
  0
LINE
  5
339
100
AcDbEntity
  8
LAY-1
  6
CONTINUOUS
 62
     6
100
AcDbLine
 10
242.932
 20
30.0
 30
0.0
 11
242.932
 21
27.798717
 31
0.0
  0
LINE
  5
33A
100
AcDbEntity
  8
LAY-1
  6
CONTINUOUS
 62
     6
100
AcDbLine
 10
245.204
 20
30.0
 30
0.0
 11
245.204
 21
28.281645
 31
0.0
  0
LINE
  5
33B
100
AcDbEntity
  8
LAY-1
  6
CONTINUOUS
 62
     6
100
AcDbLine
 10
240.868
 20
25.46
 30
0.0
 11
247.268
 21
26.820362
 31
0.0
  0
LINE
  5
33C
100
AcDbEntity
  8
LAY-1
  6
CONTINUOUS
 62
     6
100
AcDbLine
 10
240.868
 20
31.24
 30
0.0
 11
240.868
 21
30.0
 31
0.0
  0
LINE
  5
33D
100
AcDbEntity
  8
LAY-1
  6
CONTINUOUS
 62
     6
100
AcDbLine
 10
240.868
 20
27.36
 30
0.0
 11
240.868
 21
25.46
 31
0.0
  0
LINE
  5
33E
100
AcDbEntity
  8
LAY-1
  6
CONTINUOUS
 62
     6
100
AcDbLine
 10
247.268
 20
31.24
 30
0.0
 11
247.268
 21
30.0
 31
0.0
  0
LINE
  5
33F
100
AcDbEntity
  8
LAY-1
  6
CONTINUOUS
 62
     6
100
AcDbLine
 10
247.268
 20
28.720362
 30
0.0
 11
247.268
 21
26.820362
 31
0.0
  0
LINE
  5
340
100
AcDbEntity
  8
LAY-1
  6
CONTINUOUS
 62
     6
100
AcDbLine
 10
240.868
 20
30.0
 30
0.0
 11
242.932
 21
30.0
 31
0.0
  0
LINE
  5
341
100
AcDbEntity
  8
LAY-1
  6
CONTINUOUS
 62
     6
100
AcDbLine
 10
245.204
 20
30.0
 30
0.0
 11
247.268
 21
30.0
 31
0.0
  0
LINE
  5
342
100
AcDbEntity
  8
LAY-1
  6
CONTINUOUS
 62
     6
100
AcDbLine
 10
240.868
 20
27.36
 30
0.0
 11
242.932
 21
27.798717
 31
0.0
  0
LINE
  5
343
100
AcDbEntity
  8
LAY-1
  6
CONTINUOUS
 62
     6
100
AcDbLine
 10
245.204
 20
28.281645
 30
0.0
 11
247.268
 21
28.720362
 31
0.0
  0
LINE
  5
344
100
AcDbEntity
  8
LAY-1
  6
CONTINUOUS
 62
     6
100
AcDbLine
 10
240.352
 20
33.716
 30
0.0
 11
246.491062
 21
33.716
 31
0.0
  0
LINE
  5
345
100
AcDbEntity
  8
LAY-1
  6
CONTINUOUS
 62
     6
100
AcDbLine
 10
248.907062
 20
33.716
 30
0.0
 11
249.436
 21
33.716
 31
0.0
  0
LINE
  5
346
100
AcDbEntity
  8
LAY-1
  6
CONTINUOUS
 62
     6
100
AcDbLine
 10
251.292
 20
33.716
 30
0.0
 11
251.912
 21
33.716
 31
0.0
  0
LINE
  5
347
100
AcDbEntity
  8
LAY-1
  6
CONTINUOUS
 62
     6
100
AcDbLine
 10
251.912
 20
25.46
 30
0.0
 11
249.358385
 21
32.476
 31
0.0
  0
LINE
  5
348
100
AcDbEntity
  8
LAY-1
  6
CONTINUOUS
 62
     6
100
AcDbLine
 10
248.907062
 20
33.716
 30
0.0
 11
248.60715
 21
34.54
 31
0.0
  0
LINE
  5
349
100
AcDbEntity
  8
LAY-1
  6
CONTINUOUS
 62
     6
100
AcDbLine
 10
240.352
 20
32.476
 30
0.0
 11
246.942385
 21
32.476
 31
0.0
  0
LINE
  5
34A
100
AcDbEntity
  8
LAY-1
  6
CONTINUOUS
 62
     6
100
AcDbLine
 10
249.358385
 20
32.476
 30
0.0
 11
251.912
 21
32.476
 31
0.0
  0
LINE
  5
34B
100
AcDbEntity
  8
LAY-1
  6
CONTINUOUS
 62
     6
100
AcDbLine
 10
249.496
 20
25.46
 30
0.0
 11
246.942385
 21
32.476
 31
0.0
  0
LINE
  5
34C
100
AcDbEntity
  8
LAY-1
  6
CONTINUOUS
 62
     6
100
AcDbLine
 10
246.491062
 20
33.716
 30
0.0
 11
246.19115
 21
34.54
 31
0.0
  0
LINE
  5
34D
100
AcDbEntity
  8
LAY-1
  6
CONTINUOUS
 62
     6
100
AcDbLine
 10
246.19115
 20
34.54
 30
0.0
 11
248.60715
 21
34.54
 31
0.0
  0
LINE
  5
34E
100
AcDbEntity
  8
LAY-1
  6
CONTINUOUS
 62
     6
100
AcDbLine
 10
249.436
 20
34.54
 30
0.0
 11
251.292
 21
34.54
 31
0.0
  0
LINE
  5
34F
100
AcDbEntity
  8
LAY-1
  6
CONTINUOUS
 62
     6
100
AcDbLine
 10
252.324
 20
30.208
 30
0.0
 11
264.088
 21
30.208
 31
0.0
  0
LINE
  5
350
100
AcDbEntity
  8
LAY-1
  6
CONTINUOUS
 62
     6
100
AcDbLine
 10
254.086
 20
31.032
 30
0.0
 11
262.326
 21
31.032
 31
0.0
  0
LINE
  5
351
100
AcDbEntity
  8
LAY-1
  6
CONTINUOUS
 62
     6
100
AcDbLine
 10
254.703261
 20
32.272
 30
0.0
 11
261.708739
 21
32.272
 31
0.0
  0
LINE
  5
352
100
AcDbEntity
  8
LAY-1
  6
CONTINUOUS
 62
     6
100
AcDbLine
 10
249.496
 20
25.46
 30
0.0
 11
251.912
 21
25.46
 31
0.0
  0
LINE
  5
353
100
AcDbEntity
  8
LAY-1
  6
CONTINUOUS
 62
     6
100
AcDbLine
 10
252.324
 20
25.46
 30
0.0
 11
264.088
 21
25.46
 31
0.0
  0
LINE
  5
354
100
AcDbEntity
  8
LAY-1
  6
CONTINUOUS
 62
     6
100
AcDbLine
 10
258.206
 20
34.748
 30
0.0
 11
252.324
 21
32.77991
 31
0.0
  0
LINE
  5
355
100
AcDbEntity
  8
LAY-1
  6
CONTINUOUS
 62
     6
100
AcDbLine
 10
258.206
 20
34.748
 30
0.0
 11
264.088
 21
32.77991
 31
0.0
  0
LINE
  5
356
100
AcDbEntity
  8
LAY-1
  6
CONTINUOUS
 62
     6
100
AcDbLine
 10
254.086
 20
31.032
 30
0.0
 11
254.086
 21
32.065467
 31
0.0
  0
LINE
  5
357
100
AcDbEntity
  8
LAY-1
  6
CONTINUOUS
 62
     6
100
AcDbLine
 10
262.326
 20
31.032
 30
0.0
 11
262.326
 21
32.065467
 31
0.0
  0
LINE
  5
358
100
AcDbEntity
  8
LAY-1
  6
CONTINUOUS
 62
     6
100
AcDbLine
 10
252.324
 20
25.46
 30
0.0
 11
253.959807
 21
28.968
 31
0.0
  0
LINE
  5
359
100
AcDbEntity
  8
LAY-1
  6
CONTINUOUS
 62
     6
100
AcDbLine
 10
255.18
 20
26.7
 30
0.0
 11
256.237586
 21
28.968
 31
0.0
  0
LINE
  5
35A
100
AcDbEntity
  8
LAY-1
  6
CONTINUOUS
 62
     6
100
AcDbLine
 10
261.232
 20
26.7
 30
0.0
 11
260.174414
 21
28.968
 31
0.0
  0
LINE
  5
35B
100
AcDbEntity
  8
LAY-1
  6
CONTINUOUS
 62
     6
100
AcDbLine
 10
264.088
 20
25.46
 30
0.0
 11
262.452193
 21
28.968
 31
0.0
  0
LINE
  5
35C
100
AcDbEntity
  8
LAY-1
  6
CONTINUOUS
 62
     6
100
AcDbLine
 10
252.324
 20
32.77991
 30
0.0
 11
252.324
 21
31.47591
 31
0.0
  0
LINE
  5
35D
100
AcDbEntity
  8
LAY-1
  6
CONTINUOUS
 62
     6
100
AcDbLine
 10
252.324
 20
30.208
 30
0.0
 11
252.324
 21
28.968
 31
0.0
  0
LINE
  5
35E
100
AcDbEntity
  8
LAY-1
  6
CONTINUOUS
 62
     6
100
AcDbLine
 10
264.088
 20
32.77991
 30
0.0
 11
264.088
 21
31.47591
 31
0.0
  0
LINE
  5
35F
100
AcDbEntity
  8
LAY-1
  6
CONTINUOUS
 62
     6
100
AcDbLine
 10
264.088
 20
30.208
 30
0.0
 11
264.088
 21
28.968
 31
0.0
  0
LINE
  5
360
100
AcDbEntity
  8
LAY-1
  6
CONTINUOUS
 62
     6
100
AcDbLine
 10
262.452193
 20
28.968
 30
0.0
 11
264.088
 21
28.968
 31
0.0
  0
LINE
  5
361
100
AcDbEntity
  8
LAY-1
  6
CONTINUOUS
 62
     6
100
AcDbLine
 10
252.324
 20
28.968
 30
0.0
 11
253.959807
 21
28.968
 31
0.0
  0
LINE
  5
362
100
AcDbEntity
  8
LAY-1
  6
CONTINUOUS
 62
     6
100
AcDbLine
 10
256.237586
 20
28.968
 30
0.0
 11
260.174414
 21
28.968
 31
0.0
  0
LINE
  5
363
100
AcDbEntity
  8
LAY-1
  6
CONTINUOUS
 62
     6
100
AcDbLine
 10
258.206
 20
33.444
 30
0.0
 11
261.708739
 21
32.272
 31
0.0
  0
LINE
  5
364
100
AcDbEntity
  8
LAY-1
  6
CONTINUOUS
 62
     6
100
AcDbLine
 10
262.326
 20
32.065467
 30
0.0
 11
264.088
 21
31.47591
 31
0.0
  0
LINE
  5
365
100
AcDbEntity
  8
LAY-1
  6
CONTINUOUS
 62
     6
100
AcDbLine
 10
258.206
 20
33.444
 30
0.0
 11
254.703261
 21
32.272
 31
0.0
  0
LINE
  5
366
100
AcDbEntity
  8
LAY-1
  6
CONTINUOUS
 62
     6
100
AcDbLine
 10
254.086
 20
32.065467
 30
0.0
 11
252.324
 21
31.47591
 31
0.0
  0
LINE
  5
367
100
AcDbEntity
  8
LAY-1
  6
CONTINUOUS
 62
     6
100
AcDbLine
 10
255.18
 20
26.7
 30
0.0
 11
261.232
 21
26.7
 31
0.0
  0
LINE
  5
368
100
AcDbEntity
  8
LAY-1
  6
CONTINUOUS
 62
     6
100
AcDbLine
 10
276.064
 20
26.7
 30
0.0
 11
276.064
 21
25.46
 31
0.0
  0
LINE
  5
369
100
AcDbEntity
  8
LAY-1
  6
CONTINUOUS
 62
     6
100
AcDbLine
 10
269.252
 20
26.7
 30
0.0
 11
269.252
 21
25.46
 31
0.0
  0
LINE
  5
36A
100
AcDbEntity
  8
LAY-1
  6
CONTINUOUS
 62
     6
100
AcDbLine
 10
264.504
 20
32.476
 30
0.0
 11
267.147984
 21
32.476
 31
0.0
  0
LINE
  5
36B
100
AcDbEntity
  8
LAY-1
  6
CONTINUOUS
 62
     6
100
AcDbLine
 10
264.504
 20
28.7
 30
0.0
 11
267.147984
 21
32.476
 31
0.0
  0
LINE
  5
36C
100
AcDbEntity
  8
LAY-1
  6
CONTINUOUS
 62
     6
100
AcDbLine
 10
275.86
 20
32.272
 30
0.0
 11
275.86
 21
31.032
 31
0.0
  0
LINE
  5
36D
100
AcDbEntity
  8
LAY-1
  6
CONTINUOUS
 62
     6
100
AcDbLine
 10
266.36
 20
34.54
 30
0.0
 11
268.424
 21
34.54
 31
0.0
  0
LINE
  5
36E
100
AcDbEntity
  8
LAY-1
  6
CONTINUOUS
 62
     6
100
AcDbLine
 10
271.936
 20
34.54
 30
0.0
 11
274.0
 21
34.54
 31
0.0
  0
LINE
  5
36F
100
AcDbEntity
  8
LAY-1
  6
CONTINUOUS
 62
     6
100
AcDbLine
 10
268.424
 20
28.110643
 30
0.0
 11
270.076
 21
26.9539
 31
0.0
  0
LINE
  5
370
100
AcDbEntity
  8
LAY-1
  6
CONTINUOUS
 62
     6
100
AcDbLine
 10
268.085311
 20
30.574643
 30
0.0
 11
270.076
 21
29.180748
 31
0.0
  0
LINE
  5
371
100
AcDbEntity
  8
LAY-1
  6
CONTINUOUS
 62
     6
100
AcDbLine
 10
264.504
 20
28.7
 30
0.0
 11
264.504
 21
25.46
 31
0.0
  0
LINE
  5
372
100
AcDbEntity
  8
LAY-1
  6
CONTINUOUS
 62
     6
100
AcDbLine
 10
264.504
 20
33.716
 30
0.0
 11
264.504
 21
32.476
 31
0.0
  0
LINE
  5
373
100
AcDbEntity
  8
LAY-1
  6
CONTINUOUS
 62
     6
100
AcDbLine
 10
266.36
 20
34.54
 30
0.0
 11
266.36
 21
33.716
 31
0.0
  0
LINE
  5
374
100
AcDbEntity
  8
LAY-1
  6
CONTINUOUS
 62
     6
100
AcDbLine
 10
266.36
 20
28.110643
 30
0.0
 11
266.36
 21
25.46
 31
0.0
  0
LINE
  5
375
100
AcDbEntity
  8
LAY-1
  6
CONTINUOUS
 62
     6
100
AcDbLine
 10
268.424
 20
34.54
 30
0.0
 11
268.424
 21
33.716
 31
0.0
  0
LINE
  5
376
100
AcDbEntity
  8
LAY-1
  6
CONTINUOUS
 62
     6
100
AcDbLine
 10
268.424
 20
28.110643
 30
0.0
 11
268.424
 21
25.46
 31
0.0
  0
LINE
  5
377
100
AcDbEntity
  8
LAY-1
  6
CONTINUOUS
 62
     6
100
AcDbLine
 10
270.076
 20
32.272
 30
0.0
 11
270.076
 21
31.032
 31
0.0
  0
LINE
  5
378
100
AcDbEntity
  8
LAY-1
  6
CONTINUOUS
 62
     6
100
AcDbLine
 10
270.076
 20
29.180748
 30
0.0
 11
270.076
 21
26.9539
 31
0.0
  0
LINE
  5
379
100
AcDbEntity
  8
LAY-1
  6
CONTINUOUS
 62
     6
100
AcDbLine
 10
264.504
 20
33.716
 30
0.0
 11
266.36
 21
33.716
 31
0.0
  0
LINE
  5
37A
100
AcDbEntity
  8
LAY-1
  6
CONTINUOUS
 62
     6
100
AcDbLine
 10
268.424
 20
33.716
 30
0.0
 11
270.284913
 21
33.716
 31
0.0
  0
LINE
  5
37B
100
AcDbEntity
  8
LAY-1
  6
CONTINUOUS
 62
     6
100
AcDbLine
 10
264.504
 20
25.46
 30
0.0
 11
266.36
 21
28.110643
 31
0.0
  0
LINE
  5
37C
100
AcDbEntity
  8
LAY-1
  6
CONTINUOUS
 62
     6
100
AcDbLine
 10
268.085311
 20
30.574643
 30
0.0
 11
270.284913
 21
33.716
 31
0.0
  0
LINE
  5
37D
100
AcDbEntity
  8
LAY-1
  6
CONTINUOUS
 62
     6
100
AcDbLine
 10
271.936
 20
34.54
 30
0.0
 11
271.936
 21
32.272
 31
0.0
  0
LINE
  5
37E
100
AcDbEntity
  8
LAY-1
  6
CONTINUOUS
 62
     6
100
AcDbLine
 10
270.076
 20
31.032
 30
0.0
 11
271.936
 21
31.032
 31
0.0
  0
LINE
  5
37F
100
AcDbEntity
  8
LAY-1
  6
CONTINUOUS
 62
     6
100
AcDbLine
 10
274.0
 20
31.032
 30
0.0
 11
275.86
 21
31.032
 31
0.0
  0
LINE
  5
380
100
AcDbEntity
  8
LAY-1
  6
CONTINUOUS
 62
     6
100
AcDbLine
 10
274.0
 20
34.54
 30
0.0
 11
274.0
 21
32.272
 31
0.0
  0
LINE
  5
381
100
AcDbEntity
  8
LAY-1
  6
CONTINUOUS
 62
     6
100
AcDbLine
 10
270.076
 20
32.272
 30
0.0
 11
271.936
 21
32.272
 31
0.0
  0
LINE
  5
382
100
AcDbEntity
  8
LAY-1
  6
CONTINUOUS
 62
     6
100
AcDbLine
 10
274.0
 20
32.272
 30
0.0
 11
275.86
 21
32.272
 31
0.0
  0
LINE
  5
383
100
AcDbEntity
  8
LAY-1
  6
CONTINUOUS
 62
     6
100
AcDbLine
 10
271.936
 20
31.032
 30
0.0
 11
271.936
 21
26.7
 31
0.0
  0
LINE
  5
384
100
AcDbEntity
  8
LAY-1
  6
CONTINUOUS
 62
     6
100
AcDbLine
 10
269.252
 20
26.7
 30
0.0
 11
271.936
 21
26.7
 31
0.0
  0
LINE
  5
385
100
AcDbEntity
  8
LAY-1
  6
CONTINUOUS
 62
     6
100
AcDbLine
 10
274.0
 20
26.7
 30
0.0
 11
276.064
 21
26.7
 31
0.0
  0
LINE
  5
386
100
AcDbEntity
  8
LAY-1
  6
CONTINUOUS
 62
     6
100
AcDbLine
 10
274.0
 20
31.032
 30
0.0
 11
274.0
 21
26.7
 31
0.0
  0
LINE
  5
387
100
AcDbEntity
  8
LAY-1
  6
CONTINUOUS
 62
     6
100
AcDbLine
 10
269.252
 20
25.46
 30
0.0
 11
276.064
 21
25.46
 31
0.0
  0
LINE
  5
388
100
AcDbEntity
  8
LAY-1
  6
CONTINUOUS
 62
     6
100
AcDbLine
 10
266.36
 20
25.46
 30
0.0
 11
268.424
 21
25.46
 31
0.0
  0
LINE
  5
389
100
AcDbEntity
  8
LAY-1
  6
CONTINUOUS
 62
     6
100
AcDbLine
 10
280.0
 20
64.0
 30
0.0
 11
280.0
 21
20.0
 31
0.0
  0
LINE
  5
38A
100
AcDbEntity
  8
LAY-1
  6
CONTINUOUS
 62
     6
100
AcDbLine
 10
290.0
 20
20.0
 30
0.0
 11
290.0
 21
64.0
 31
0.0
  0
LINE
  5
38B
100
AcDbEntity
  8
LAY-1
  6
CONTINUOUS
 62
     6
100
AcDbLine
 10
374.0
 20
64.0
 30
0.0
 11
374.0
 21
40.0
 31
0.0
  0
TEXT
  5
38C
100
AcDbEntity
  8
LAY-1
  6
CONTINUOUS
 62
     2
100
AcDbText
 10
74.6
 20
37.4
 30
0.0
 40
10.0
  1
風穴
 41
0.84
  7
EXCADSTD
 72
     5
 11
92.932
 21
37.4
 31
0.0
100
AcDbText
  0
TEXT
  5
38D
100
AcDbEntity
  8
LAY-1
  6
CONTINUOUS
 62
     2
100
AcDbText
 10
68.5
 20
21.8
 30
0.0
 40
6.0
  1
１５
 41
0.91
  7
EXCADSTD
 72
     5
 11
80.4158
 21
21.8
 31
0.0
100
AcDbText
  0
TEXT
  5
38E
100
AcDbEntity
  8
LAY-1
  6
CONTINUOUS
 62
     2
100
AcDbText
 10
78.5
 20
21.8
 30
0.0
 40
6.0
  1
１０
 41
0.91
  7
EXCADSTD
 72
     5
 11
90.4158
 21
21.8
 31
0.0
100
AcDbText
  0
TEXT
  5
38F
100
AcDbEntity
  8
LAY-1
  6
CONTINUOUS
 62
     2
100
AcDbText
 10
88.5
 20
21.8
 30
0.0
 40
6.0
  1
１６
 41
0.91
  7
EXCADSTD
 72
     5
 11
100.4158
 21
21.8
 31
0.0
100
AcDbText
  0
TEXT
  5
390
100
AcDbEntity
  8
LAY-1
  6
CONTINUOUS
 62
     7
100
AcDbText
 10
296.0
 20
46.0
 30
0.0
 40
12.0
  1
ＮＡ１１７
 41
0.868
  7
EXCADSTD
 72
     5
 11
358.0
 21
46.0
 31
0.0
100
AcDbText
  0
TEXT
  5
391
100
AcDbEntity
  8
LAY-1
  6
CONTINUOUS
 62
     7
100
AcDbText
 10
300.0
 20
23.5
 30
0.0
 40
13.0
  1
９４４３００
 41
0.926154
  7
EXCADSTD
 72
     5
 11
386.0
 21
23.5
 31
0.0
100
AcDbText
  0
TEXT
  5
392
100
AcDbEntity
  8
LAY-1
  6
CONTINUOUS
 62
     2
100
AcDbText
 10
196.8
 20
553.2
 30
0.0
 40
7.6
  1
ブラケット
 41
0.884211
  7
EXCADSTD
 72
     5
 11
236.8
 21
553.2
 31
0.0
100
AcDbText
  0
TEXT
  5
393
100
AcDbEntity
  8
LAY-1
  6
CONTINUOUS
 62
     2
100
AcDbText
 10
196.8
 20
533.2
 30
0.0
 40
7.6
  1
タッピンネジ
 41
0.773684
  7
EXCADSTD
 72
     5
 11
238.8
 21
533.2
 31
0.0
100
AcDbText
  0
TEXT
  5
394
100
AcDbEntity
  8
LAY-1
  6
CONTINUOUS
 62
     2
100
AcDbText
 10
196.8
 20
523.2
 30
0.0
 40
7.6
  1
止メネジ
 41
0.784737
  7
EXCADSTD
 72
     5
 11
225.2
 21
523.2
 31
0.0
100
AcDbText
  0
TEXT
  5
395
100
AcDbEntity
  8
LAY-1
  6
CONTINUOUS
 62
     2
100
AcDbText
 10
256.8
 20
553.2
 30
0.0
 40
7.6
  1
亜鉛合金
 41
0.884211
  7
EXCADSTD
 72
     5
 11
288.8
 21
553.2
 31
0.0
100
AcDbText
  0
TEXT
  5
396
100
AcDbEntity
  8
LAY-1
  6
CONTINUOUS
 62
     2
100
AcDbText
 10
321.0
 20
523.2
 30
0.0
 40
7.6
  1
１
 41
0.884211
  7
EXCADSTD
 72
     5
 11
327.4
 21
523.2
 31
0.0
100
AcDbText
  0
TEXT
  5
397
100
AcDbEntity
  8
LAY-1
  6
CONTINUOUS
 62
     2
100
AcDbText
 10
338.8
 20
533.2
 30
0.0
 40
7.6
  1
ナベ
 41
0.884211
  7
EXCADSTD
 72
     5
 11
353.4656
 21
533.2
 31
0.0
100
AcDbText
  0
TEXT
  5
398
100
AcDbEntity
  8
LAY-1
  6
CONTINUOUS
 62
     2
100
AcDbText
 10
256.8
 20
533.2
 30
0.0
 40
7.6
  1
鋼線
 41
0.884211
  7
EXCADSTD
 72
     5
 11
271.4656
 21
533.2
 31
0.0
100
AcDbText
  0
TEXT
  5
399
100
AcDbEntity
  8
LAY-1
  6
CONTINUOUS
 62
     2
100
AcDbText
 10
102.82
 20
37.4
 30
0.0
 40
10.0
  1
平野
 41
0.84
  7
EXCADSTD
 72
     5
 11
121.152
 21
37.4
 31
0.0
100
AcDbText
  0
TEXT
  5
39A
100
AcDbEntity
  8
LAY-1
  6
CONTINUOUS
 62
     2
100
AcDbText
 10
129.28
 20
37.4
 30
0.0
 40
10.0
  1
又場
 41
0.84
  7
EXCADSTD
 72
     5
 11
147.612
 21
37.4
 31
0.0
100
AcDbText
  0
LINE
  5
39B
100
AcDbEntity
  8
LAY-1
  6
EXLTYPE2
 62
     6
100
AcDbLine
 10
4.82
 20
292.5
 30
0.0
 11
40.0
 21
292.5
 31
0.0
  0
LINE
  5
39C
100
AcDbEntity
  8
LAY-2
  6
CONTINUOUS
 62
     2
100
AcDbLine
 10
148.0
 20
464.931067
 30
0.0
 11
148.098873
 21
465.169767
 31
0.0
  0
LINE
  5
39D
100
AcDbEntity
  8
LAY-2
  6
CONTINUOUS
 62
     2
100
AcDbLine
 10
148.0
 20
464.931067
 30
0.0
 11
147.89539
 21
465.183617
 31
0.0
  0
LINE
  5
39E
100
AcDbEntity
  8
LAY-2
  6
EXLTYPE3
 62
     6
100
AcDbLine
 10
148.0
 20
388.783046
 30
0.0
 11
148.0
 21
468.169767
 31
0.0
  0
LINE
  5
39F
100
AcDbEntity
  8
LAY-2
  6
CONTINUOUS
 62
     2
100
AcDbLine
 10
146.3
 20
442.731067
 30
0.0
 11
146.3
 21
442.781067
 31
0.0
  0
LINE
  5
3A0
100
AcDbEntity
  8
LAY-2
  6
CONTINUOUS
 62
     2
100
AcDbLine
 10
149.7
 20
442.731067
 30
0.0
 11
149.7
 21
443.731067
 31
0.0
  0
LINE
  5
3A1
100
AcDbEntity
  8
LAY-2
  6
CONTINUOUS
 62
     2
100
AcDbLine
 10
150.25
 20
444.04861
 30
0.0
 11
149.7
 21
444.366152
 31
0.0
  0
LINE
  5
3A2
100
AcDbEntity
  8
LAY-2
  6
CONTINUOUS
 62
     2
100
AcDbLine
 10
149.7
 20
443.731067
 30
0.0
 11
150.25
 21
444.04861
 31
0.0
  0
LINE
  5
3A3
100
AcDbEntity
  8
LAY-2
  6
CONTINUOUS
 62
     2
100
AcDbLine
 10
150.25
 20
445.94861
 30
0.0
 11
149.7
 21
446.266152
 31
0.0
  0
LINE
  5
3A4
100
AcDbEntity
  8
LAY-2
  6
CONTINUOUS
 62
     2
100
AcDbLine
 10
149.7
 20
445.631067
 30
0.0
 11
150.25
 21
445.94861
 31
0.0
  0
LINE
  5
3A5
100
AcDbEntity
  8
LAY-2
  6
CONTINUOUS
 62
     2
100
AcDbLine
 10
150.25
 20
447.84861
 30
0.0
 11
149.7
 21
448.166152
 31
0.0
  0
LINE
  5
3A6
100
AcDbEntity
  8
LAY-2
  6
CONTINUOUS
 62
     2
100
AcDbLine
 10
149.7
 20
447.531067
 30
0.0
 11
150.25
 21
447.84861
 31
0.0
  0
LINE
  5
3A7
100
AcDbEntity
  8
LAY-2
  6
CONTINUOUS
 62
     2
100
AcDbLine
 10
150.25
 20
449.74861
 30
0.0
 11
149.7
 21
450.066152
 31
0.0
  0
LINE
  5
3A8
100
AcDbEntity
  8
LAY-2
  6
CONTINUOUS
 62
     2
100
AcDbLine
 10
149.7
 20
449.431067
 30
0.0
 11
150.25
 21
449.74861
 31
0.0
  0
LINE
  5
3A9
100
AcDbEntity
  8
LAY-2
  6
CONTINUOUS
 62
     2
100
AcDbLine
 10
150.25
 20
451.64861
 30
0.0
 11
149.7
 21
451.966152
 31
0.0
  0
LINE
  5
3AA
100
AcDbEntity
  8
LAY-2
  6
CONTINUOUS
 62
     2
100
AcDbLine
 10
149.7
 20
451.331067
 30
0.0
 11
150.25
 21
451.64861
 31
0.0
  0
LINE
  5
3AB
100
AcDbEntity
  8
LAY-2
  6
CONTINUOUS
 62
     2
100
AcDbLine
 10
150.25
 20
453.54861
 30
0.0
 11
149.7
 21
453.866152
 31
0.0
  0
LINE
  5
3AC
100
AcDbEntity
  8
LAY-2
  6
CONTINUOUS
 62
     2
100
AcDbLine
 10
149.7
 20
453.231067
 30
0.0
 11
150.25
 21
453.54861
 31
0.0
  0
LINE
  5
3AD
100
AcDbEntity
  8
LAY-2
  6
CONTINUOUS
 62
     2
100
AcDbLine
 10
150.25
 20
455.44861
 30
0.0
 11
149.7
 21
455.766152
 31
0.0
  0
LINE
  5
3AE
100
AcDbEntity
  8
LAY-2
  6
CONTINUOUS
 62
     2
100
AcDbLine
 10
149.7
 20
455.131067
 30
0.0
 11
150.25
 21
455.44861
 31
0.0
  0
LINE
  5
3AF
100
AcDbEntity
  8
LAY-2
  6
CONTINUOUS
 62
     2
100
AcDbLine
 10
149.7
 20
457.031067
 30
0.0
 11
150.25
 21
457.34861
 31
0.0
  0
LINE
  5
3B0
100
AcDbEntity
  8
LAY-2
  6
CONTINUOUS
 62
     2
100
AcDbLine
 10
150.25
 20
457.34861
 30
0.0
 11
149.7
 21
457.666152
 31
0.0
  0
LINE
  5
3B1
100
AcDbEntity
  8
LAY-2
  6
CONTINUOUS
 62
     2
100
AcDbLine
 10
149.7
 20
458.931067
 30
0.0
 11
150.25
 21
459.24861
 31
0.0
  0
LINE
  5
3B2
100
AcDbEntity
  8
LAY-2
  6
CONTINUOUS
 62
     2
100
AcDbLine
 10
150.25
 20
459.24861
 30
0.0
 11
149.7
 21
459.566152
 31
0.0
  0
LINE
  5
3B3
100
AcDbEntity
  8
LAY-2
  6
CONTINUOUS
 62
     2
100
AcDbLine
 10
146.3
 20
460.516152
 30
0.0
 11
145.75
 21
460.19861
 31
0.0
  0
LINE
  5
3B4
100
AcDbEntity
  8
LAY-2
  6
CONTINUOUS
 62
     2
100
AcDbLine
 10
145.75
 20
460.19861
 30
0.0
 11
146.3
 21
459.881067
 31
0.0
  0
LINE
  5
3B5
100
AcDbEntity
  8
LAY-2
  6
CONTINUOUS
 62
     2
100
AcDbLine
 10
146.3
 20
458.616152
 30
0.0
 11
145.75
 21
458.29861
 31
0.0
  0
LINE
  5
3B6
100
AcDbEntity
  8
LAY-2
  6
CONTINUOUS
 62
     2
100
AcDbLine
 10
145.75
 20
458.29861
 30
0.0
 11
146.3
 21
457.981067
 31
0.0
  0
LINE
  5
3B7
100
AcDbEntity
  8
LAY-2
  6
CONTINUOUS
 62
     2
100
AcDbLine
 10
146.3
 20
456.716152
 30
0.0
 11
145.75
 21
456.39861
 31
0.0
  0
LINE
  5
3B8
100
AcDbEntity
  8
LAY-2
  6
CONTINUOUS
 62
     2
100
AcDbLine
 10
145.75
 20
456.39861
 30
0.0
 11
146.3
 21
456.081067
 31
0.0
  0
LINE
  5
3B9
100
AcDbEntity
  8
LAY-2
  6
CONTINUOUS
 62
     2
100
AcDbLine
 10
145.75
 20
454.49861
 30
0.0
 11
146.3
 21
454.181067
 31
0.0
  0
LINE
  5
3BA
100
AcDbEntity
  8
LAY-2
  6
CONTINUOUS
 62
     2
100
AcDbLine
 10
146.3
 20
454.816152
 30
0.0
 11
145.75
 21
454.49861
 31
0.0
  0
LINE
  5
3BB
100
AcDbEntity
  8
LAY-2
  6
CONTINUOUS
 62
     2
100
AcDbLine
 10
145.75
 20
452.59861
 30
0.0
 11
146.3
 21
452.281067
 31
0.0
  0
LINE
  5
3BC
100
AcDbEntity
  8
LAY-2
  6
CONTINUOUS
 62
     2
100
AcDbLine
 10
146.3
 20
452.916152
 30
0.0
 11
145.75
 21
452.59861
 31
0.0
  0
LINE
  5
3BD
100
AcDbEntity
  8
LAY-2
  6
CONTINUOUS
 62
     2
100
AcDbLine
 10
145.75
 20
450.69861
 30
0.0
 11
146.3
 21
450.381067
 31
0.0
  0
LINE
  5
3BE
100
AcDbEntity
  8
LAY-2
  6
CONTINUOUS
 62
     2
100
AcDbLine
 10
146.3
 20
451.016152
 30
0.0
 11
145.75
 21
450.69861
 31
0.0
  0
LINE
  5
3BF
100
AcDbEntity
  8
LAY-2
  6
CONTINUOUS
 62
     2
100
AcDbLine
 10
145.75
 20
448.79861
 30
0.0
 11
146.3
 21
448.481067
 31
0.0
  0
LINE
  5
3C0
100
AcDbEntity
  8
LAY-2
  6
CONTINUOUS
 62
     2
100
AcDbLine
 10
146.3
 20
449.116152
 30
0.0
 11
145.75
 21
448.79861
 31
0.0
  0
LINE
  5
3C1
100
AcDbEntity
  8
LAY-2
  6
CONTINUOUS
 62
     2
100
AcDbLine
 10
145.75
 20
446.89861
 30
0.0
 11
146.3
 21
446.581067
 31
0.0
  0
LINE
  5
3C2
100
AcDbEntity
  8
LAY-2
  6
CONTINUOUS
 62
     2
100
AcDbLine
 10
146.3
 20
447.216152
 30
0.0
 11
145.75
 21
446.89861
 31
0.0
  0
LINE
  5
3C3
100
AcDbEntity
  8
LAY-2
  6
CONTINUOUS
 62
     2
100
AcDbLine
 10
145.75
 20
444.99861
 30
0.0
 11
146.3
 21
444.681067
 31
0.0
  0
LINE
  5
3C4
100
AcDbEntity
  8
LAY-2
  6
CONTINUOUS
 62
     2
100
AcDbLine
 10
146.3
 20
445.316152
 30
0.0
 11
145.75
 21
444.99861
 31
0.0
  0
LINE
  5
3C5
100
AcDbEntity
  8
LAY-2
  6
CONTINUOUS
 62
     2
100
AcDbLine
 10
145.75
 20
443.09861
 30
0.0
 11
146.3
 21
442.781067
 31
0.0
  0
LINE
  5
3C6
100
AcDbEntity
  8
LAY-2
  6
CONTINUOUS
 62
     2
100
AcDbLine
 10
146.3
 20
443.416152
 30
0.0
 11
145.75
 21
443.09861
 31
0.0
  0
LINE
  5
3C7
100
AcDbEntity
  8
LAY-2
  6
CONTINUOUS
 62
     2
100
AcDbLine
 10
146.3
 20
443.416152
 30
0.0
 11
146.3
 21
444.681067
 31
0.0
  0
LINE
  5
3C8
100
AcDbEntity
  8
LAY-2
  6
CONTINUOUS
 62
     2
100
AcDbLine
 10
149.7
 20
444.366152
 30
0.0
 11
149.7
 21
445.631067
 31
0.0
  0
LINE
  5
3C9
100
AcDbEntity
  8
LAY-2
  6
CONTINUOUS
 62
     2
100
AcDbLine
 10
149.7
 20
446.266152
 30
0.0
 11
149.7
 21
447.531067
 31
0.0
  0
LINE
  5
3CA
100
AcDbEntity
  8
LAY-2
  6
CONTINUOUS
 62
     2
100
AcDbLine
 10
149.7
 20
448.166152
 30
0.0
 11
149.7
 21
449.431067
 31
0.0
  0
LINE
  5
3CB
100
AcDbEntity
  8
LAY-2
  6
CONTINUOUS
 62
     2
100
AcDbLine
 10
149.7
 20
450.066152
 30
0.0
 11
149.7
 21
451.331067
 31
0.0
  0
LINE
  5
3CC
100
AcDbEntity
  8
LAY-2
  6
CONTINUOUS
 62
     2
100
AcDbLine
 10
149.7
 20
451.966152
 30
0.0
 11
149.7
 21
453.231067
 31
0.0
  0
LINE
  5
3CD
100
AcDbEntity
  8
LAY-2
  6
CONTINUOUS
 62
     2
100
AcDbLine
 10
149.7
 20
453.866152
 30
0.0
 11
149.7
 21
455.131067
 31
0.0
  0
LINE
  5
3CE
100
AcDbEntity
  8
LAY-2
  6
CONTINUOUS
 62
     2
100
AcDbLine
 10
149.7
 20
455.766152
 30
0.0
 11
149.7
 21
457.031067
 31
0.0
  0
LINE
  5
3CF
100
AcDbEntity
  8
LAY-2
  6
CONTINUOUS
 62
     2
100
AcDbLine
 10
149.7
 20
457.666152
 30
0.0
 11
149.7
 21
458.931067
 31
0.0
  0
LINE
  5
3D0
100
AcDbEntity
  8
LAY-2
  6
CONTINUOUS
 62
     2
100
AcDbLine
 10
149.7
 20
459.566152
 30
0.0
 11
149.7
 21
460.831067
 31
0.0
  0
LINE
  5
3D1
100
AcDbEntity
  8
LAY-2
  6
CONTINUOUS
 62
     2
100
AcDbLine
 10
146.3
 20
445.316152
 30
0.0
 11
146.3
 21
446.581067
 31
0.0
  0
LINE
  5
3D2
100
AcDbEntity
  8
LAY-2
  6
CONTINUOUS
 62
     2
100
AcDbLine
 10
146.3
 20
447.216152
 30
0.0
 11
146.3
 21
448.481067
 31
0.0
  0
LINE
  5
3D3
100
AcDbEntity
  8
LAY-2
  6
CONTINUOUS
 62
     2
100
AcDbLine
 10
146.3
 20
449.116152
 30
0.0
 11
146.3
 21
450.381067
 31
0.0
  0
LINE
  5
3D4
100
AcDbEntity
  8
LAY-2
  6
CONTINUOUS
 62
     2
100
AcDbLine
 10
146.3
 20
451.016152
 30
0.0
 11
146.3
 21
452.281067
 31
0.0
  0
LINE
  5
3D5
100
AcDbEntity
  8
LAY-2
  6
CONTINUOUS
 62
     2
100
AcDbLine
 10
146.3
 20
452.916152
 30
0.0
 11
146.3
 21
454.181067
 31
0.0
  0
LINE
  5
3D6
100
AcDbEntity
  8
LAY-2
  6
CONTINUOUS
 62
     2
100
AcDbLine
 10
146.3
 20
454.816152
 30
0.0
 11
146.3
 21
456.081067
 31
0.0
  0
LINE
  5
3D7
100
AcDbEntity
  8
LAY-2
  6
CONTINUOUS
 62
     2
100
AcDbLine
 10
146.3
 20
456.716152
 30
0.0
 11
146.3
 21
457.981067
 31
0.0
  0
LINE
  5
3D8
100
AcDbEntity
  8
LAY-2
  6
CONTINUOUS
 62
     2
100
AcDbLine
 10
146.3
 20
458.616152
 30
0.0
 11
146.3
 21
459.881067
 31
0.0
  0
LINE
  5
3D9
100
AcDbEntity
  8
LAY-2
  6
CONTINUOUS
 62
     2
100
AcDbLine
 10
149.7
 20
443.731067
 30
0.0
 11
146.3
 21
442.781067
 31
0.0
  0
LINE
  5
3DA
100
AcDbEntity
  8
LAY-2
  6
CONTINUOUS
 62
     2
100
AcDbLine
 10
150.25
 20
444.04861
 30
0.0
 11
145.75
 21
443.09861
 31
0.0
  0
LINE
  5
3DB
100
AcDbEntity
  8
LAY-2
  6
CONTINUOUS
 62
     2
100
AcDbLine
 10
149.7
 20
444.366152
 30
0.0
 11
146.3
 21
443.416152
 31
0.0
  0
LINE
  5
3DC
100
AcDbEntity
  8
LAY-2
  6
CONTINUOUS
 62
     2
100
AcDbLine
 10
149.7
 20
445.631067
 30
0.0
 11
146.3
 21
444.681067
 31
0.0
  0
LINE
  5
3DD
100
AcDbEntity
  8
LAY-2
  6
CONTINUOUS
 62
     2
100
AcDbLine
 10
150.25
 20
445.94861
 30
0.0
 11
145.75
 21
444.99861
 31
0.0
  0
LINE
  5
3DE
100
AcDbEntity
  8
LAY-2
  6
CONTINUOUS
 62
     2
100
AcDbLine
 10
149.7
 20
446.266152
 30
0.0
 11
146.3
 21
445.316152
 31
0.0
  0
LINE
  5
3DF
100
AcDbEntity
  8
LAY-2
  6
CONTINUOUS
 62
     2
100
AcDbLine
 10
149.7
 20
447.531067
 30
0.0
 11
146.3
 21
446.581067
 31
0.0
  0
LINE
  5
3E0
100
AcDbEntity
  8
LAY-2
  6
CONTINUOUS
 62
     2
100
AcDbLine
 10
150.25
 20
447.84861
 30
0.0
 11
145.75
 21
446.89861
 31
0.0
  0
LINE
  5
3E1
100
AcDbEntity
  8
LAY-2
  6
CONTINUOUS
 62
     2
100
AcDbLine
 10
149.7
 20
448.166152
 30
0.0
 11
146.3
 21
447.216152
 31
0.0
  0
LINE
  5
3E2
100
AcDbEntity
  8
LAY-2
  6
CONTINUOUS
 62
     2
100
AcDbLine
 10
149.7
 20
449.431067
 30
0.0
 11
146.3
 21
448.481067
 31
0.0
  0
LINE
  5
3E3
100
AcDbEntity
  8
LAY-2
  6
CONTINUOUS
 62
     2
100
AcDbLine
 10
150.25
 20
449.74861
 30
0.0
 11
145.75
 21
448.79861
 31
0.0
  0
LINE
  5
3E4
100
AcDbEntity
  8
LAY-2
  6
CONTINUOUS
 62
     2
100
AcDbLine
 10
149.7
 20
450.066152
 30
0.0
 11
146.3
 21
449.116152
 31
0.0
  0
LINE
  5
3E5
100
AcDbEntity
  8
LAY-2
  6
CONTINUOUS
 62
     2
100
AcDbLine
 10
149.7
 20
451.331067
 30
0.0
 11
146.3
 21
450.381067
 31
0.0
  0
LINE
  5
3E6
100
AcDbEntity
  8
LAY-2
  6
CONTINUOUS
 62
     2
100
AcDbLine
 10
150.25
 20
451.64861
 30
0.0
 11
145.75
 21
450.69861
 31
0.0
  0
LINE
  5
3E7
100
AcDbEntity
  8
LAY-2
  6
CONTINUOUS
 62
     2
100
AcDbLine
 10
149.7
 20
451.966152
 30
0.0
 11
146.3
 21
451.016152
 31
0.0
  0
LINE
  5
3E8
100
AcDbEntity
  8
LAY-2
  6
CONTINUOUS
 62
     2
100
AcDbLine
 10
149.7
 20
453.231067
 30
0.0
 11
146.3
 21
452.281067
 31
0.0
  0
LINE
  5
3E9
100
AcDbEntity
  8
LAY-2
  6
CONTINUOUS
 62
     2
100
AcDbLine
 10
150.25
 20
453.54861
 30
0.0
 11
145.75
 21
452.59861
 31
0.0
  0
LINE
  5
3EA
100
AcDbEntity
  8
LAY-2
  6
CONTINUOUS
 62
     2
100
AcDbLine
 10
149.7
 20
453.866152
 30
0.0
 11
146.3
 21
452.916152
 31
0.0
  0
LINE
  5
3EB
100
AcDbEntity
  8
LAY-2
  6
CONTINUOUS
 62
     2
100
AcDbLine
 10
149.7
 20
455.131067
 30
0.0
 11
146.3
 21
454.181067
 31
0.0
  0
LINE
  5
3EC
100
AcDbEntity
  8
LAY-2
  6
CONTINUOUS
 62
     2
100
AcDbLine
 10
150.25
 20
455.44861
 30
0.0
 11
145.75
 21
454.49861
 31
0.0
  0
LINE
  5
3ED
100
AcDbEntity
  8
LAY-2
  6
CONTINUOUS
 62
     2
100
AcDbLine
 10
149.7
 20
455.766152
 30
0.0
 11
146.3
 21
454.816152
 31
0.0
  0
LINE
  5
3EE
100
AcDbEntity
  8
LAY-2
  6
CONTINUOUS
 62
     2
100
AcDbLine
 10
149.7
 20
457.031067
 30
0.0
 11
146.3
 21
456.081067
 31
0.0
  0
LINE
  5
3EF
100
AcDbEntity
  8
LAY-2
  6
CONTINUOUS
 62
     2
100
AcDbLine
 10
150.25
 20
457.34861
 30
0.0
 11
145.75
 21
456.39861
 31
0.0
  0
LINE
  5
3F0
100
AcDbEntity
  8
LAY-2
  6
CONTINUOUS
 62
     2
100
AcDbLine
 10
149.7
 20
457.666152
 30
0.0
 11
146.3
 21
456.716152
 31
0.0
  0
LINE
  5
3F1
100
AcDbEntity
  8
LAY-2
  6
CONTINUOUS
 62
     2
100
AcDbLine
 10
149.7
 20
458.931067
 30
0.0
 11
146.3
 21
457.981067
 31
0.0
  0
LINE
  5
3F2
100
AcDbEntity
  8
LAY-2
  6
CONTINUOUS
 62
     2
100
AcDbLine
 10
150.25
 20
459.24861
 30
0.0
 11
145.75
 21
458.29861
 31
0.0
  0
LINE
  5
3F3
100
AcDbEntity
  8
LAY-2
  6
CONTINUOUS
 62
     2
100
AcDbLine
 10
149.7
 20
459.566152
 30
0.0
 11
146.3
 21
458.616152
 31
0.0
  0
LINE
  5
3F4
100
AcDbEntity
  8
LAY-2
  6
CONTINUOUS
 62
     2
100
AcDbLine
 10
150.073633
 20
461.14861
 30
0.0
 11
149.664571
 21
460.912437
 31
0.0
  0
LINE
  5
3F5
100
AcDbEntity
  8
LAY-2
  6
CONTINUOUS
 62
     2
100
AcDbLine
 10
150.073633
 20
461.14861
 30
0.0
 11
149.407424
 21
461.533246
 31
0.0
  0
LINE
  5
3F6
100
AcDbEntity
  8
LAY-2
  6
CONTINUOUS
 62
     2
100
AcDbLine
 10
149.664571
 20
460.912437
 30
0.0
 11
149.7
 21
460.831067
 31
0.0
  0
LINE
  5
3F7
100
AcDbEntity
  8
LAY-2
  6
CONTINUOUS
 62
     2
100
AcDbLine
 10
149.032008
 20
463.04861
 30
0.0
 11
148.828425
 21
462.931071
 31
0.0
  0
LINE
  5
3F8
100
AcDbEntity
  8
LAY-2
  6
CONTINUOUS
 62
     2
100
AcDbLine
 10
149.032008
 20
463.04861
 30
0.0
 11
148.700448
 21
463.240036
 31
0.0
  0
LINE
  5
3F9
100
AcDbEntity
  8
LAY-2
  6
CONTINUOUS
 62
     2
100
AcDbLine
 10
146.447179
 20
462.09861
 30
0.0
 11
146.753502
 21
461.921754
 31
0.0
  0
LINE
  5
3FA
100
AcDbEntity
  8
LAY-2
  6
CONTINUOUS
 62
     2
100
AcDbLine
 10
146.447179
 20
462.09861
 30
0.0
 11
146.946064
 21
462.386641
 31
0.0
  0
LINE
  5
3FB
100
AcDbEntity
  8
LAY-2
  6
CONTINUOUS
 62
     2
100
AcDbLine
 10
147.488805
 20
463.99861
 30
0.0
 11
147.589647
 21
463.940388
 31
0.0
  0
LINE
  5
3FC
100
AcDbEntity
  8
LAY-2
  6
CONTINUOUS
 62
     2
100
AcDbLine
 10
147.488805
 20
463.99861
 30
0.0
 11
147.65304
 21
464.093431
 31
0.0
  0
LINE
  5
3FD
100
AcDbEntity
  8
LAY-2
  6
CONTINUOUS
 62
     2
100
AcDbLine
 10
148.0
 20
464.931067
 30
0.0
 11
147.65304
 21
464.093431
 31
0.0
  0
LINE
  5
3FE
100
AcDbEntity
  8
LAY-2
  6
CONTINUOUS
 62
     2
100
AcDbLine
 10
147.589647
 20
463.940388
 30
0.0
 11
146.946064
 21
462.386641
 31
0.0
  0
LINE
  5
3FF
100
AcDbEntity
  8
LAY-2
  6
CONTINUOUS
 62
     2
100
AcDbLine
 10
146.753502
 20
461.921754
 30
0.0
 11
146.3
 21
460.826904
 31
0.0
  0
LINE
  5
400
100
AcDbEntity
  8
LAY-2
  6
CONTINUOUS
 62
     2
100
AcDbLine
 10
146.3
 20
460.826904
 30
0.0
 11
146.3
 21
460.516152
 31
0.0
  0
LINE
  5
401
100
AcDbEntity
  8
LAY-2
  6
CONTINUOUS
 62
     2
100
AcDbLine
 10
148.0
 20
464.931067
 30
0.0
 11
148.700448
 21
463.240036
 31
0.0
  0
LINE
  5
402
100
AcDbEntity
  8
LAY-2
  6
CONTINUOUS
 62
     2
100
AcDbLine
 10
148.828425
 20
462.931071
 30
0.0
 11
149.407424
 21
461.533246
 31
0.0
  0
LINE
  5
403
100
AcDbEntity
  8
LAY-2
  6
CONTINUOUS
 62
     2
100
AcDbLine
 10
149.664571
 20
460.912437
 30
0.0
 11
146.3
 21
459.881067
 31
0.0
  0
LINE
  5
404
100
AcDbEntity
  8
LAY-2
  6
CONTINUOUS
 62
     2
100
AcDbLine
 10
150.073633
 20
461.14861
 30
0.0
 11
145.75
 21
460.19861
 31
0.0
  0
LINE
  5
405
100
AcDbEntity
  8
LAY-2
  6
CONTINUOUS
 62
     2
100
AcDbLine
 10
149.407424
 20
461.533246
 30
0.0
 11
146.3
 21
460.516152
 31
0.0
  0
LINE
  5
406
100
AcDbEntity
  8
LAY-2
  6
CONTINUOUS
 62
     2
100
AcDbLine
 10
148.828425
 20
462.931071
 30
0.0
 11
146.753502
 21
461.921754
 31
0.0
  0
LINE
  5
407
100
AcDbEntity
  8
LAY-2
  6
CONTINUOUS
 62
     2
100
AcDbLine
 10
149.032008
 20
463.04861
 30
0.0
 11
146.447179
 21
462.09861
 31
0.0
  0
LINE
  5
408
100
AcDbEntity
  8
LAY-2
  6
CONTINUOUS
 62
     2
100
AcDbLine
 10
148.700448
 20
463.240036
 30
0.0
 11
146.946064
 21
462.386641
 31
0.0
  0
LINE
  5
409
100
AcDbEntity
  8
LAY-2
  6
CONTINUOUS
 62
     2
100
AcDbLine
 10
148.0
 20
464.186489
 30
0.0
 11
147.488805
 21
463.99861
 31
0.0
  0
LINE
  5
40A
100
AcDbEntity
  8
LAY-2
  6
CONTINUOUS
 62
     2
100
AcDbLine
 10
147.65304
 20
464.093431
 30
0.0
 11
148.0
 21
464.186489
 31
0.0
  0
LINE
  5
40B
100
AcDbEntity
  8
LAY-2
  6
CONTINUOUS
 62
     2
100
AcDbLine
 10
147.589647
 20
463.940388
 30
0.0
 11
148.0
 21
464.186489
 31
0.0
  0
LINE
  5
40C
100
AcDbEntity
  8
LAY-2
  6
CONTINUOUS
 62
     2
100
AcDbLine
 10
137.92464
 20
391.731067
 30
0.0
 11
158.07536
 21
391.731067
 31
0.0
  0
LINE
  5
40D
100
AcDbEntity
  8
LAY-2
  6
CONTINUOUS
 62
     2
100
AcDbLine
 10
163.0
 20
442.731067
 30
0.0
 11
159.072299
 21
392.652876
 31
0.0
  0
LINE
  5
40E
100
AcDbEntity
  8
LAY-2
  6
CONTINUOUS
 62
     2
100
AcDbLine
 10
133.0
 20
442.731067
 30
0.0
 11
163.0
 21
442.731067
 31
0.0
  0
LINE
  5
40F
100
AcDbEntity
  8
LAY-2
  6
CONTINUOUS
 62
     2
100
AcDbLine
 10
133.0
 20
442.731067
 30
0.0
 11
136.927701
 21
392.652876
 31
0.0
  0
LINE
  5
410
100
AcDbEntity
  8
LAY-2
  6
CONTINUOUS
 62
     2
100
AcDbLine
 10
157.862745
 20
312.114859
 30
0.0
 11
136.147048
 21
312.114859
 31
0.0
  0
LINE
  5
411
100
AcDbEntity
  8
LAY-2
  6
CONTINUOUS
 62
     2
100
AcDbLine
 10
162.294118
 20
300.485588
 30
0.0
 11
162.294118
 21
295.199163
 31
0.0
  0
LINE
  5
412
100
AcDbEntity
  8
LAY-2
  6
CONTINUOUS
 62
     2
100
AcDbLine
 10
160.08604
 20
312.490398
 30
0.0
 11
160.813154
 21
314.974476
 31
0.0
  0
LINE
  5
413
100
AcDbEntity
  8
LAY-2
  6
CONTINUOUS
 62
     2
100
AcDbLine
 10
155.0
 20
287.905045
 30
0.0
 11
148.0
 21
287.905045
 31
0.0
  0
LINE
  5
414
100
AcDbEntity
  8
LAY-2
  6
CONTINUOUS
 62
     2
100
AcDbLine
 10
148.0
 20
353.905045
 30
0.0
 11
162.0
 21
353.905045
 31
0.0
  0
LINE
  5
415
100
AcDbEntity
  8
LAY-2
  6
CONTINUOUS
 62
     2
100
AcDbLine
 10
133.705882
 20
295.199163
 30
0.0
 11
133.705882
 21
300.485588
 31
0.0
  0
LINE
  5
416
100
AcDbEntity
  8
LAY-2
  6
CONTINUOUS
 62
     2
100
AcDbLine
 10
135.186846
 20
314.974476
 30
0.0
 11
135.91396
 21
312.490398
 31
0.0
  0
LINE
  5
417
100
AcDbEntity
  8
LAY-2
  6
CONTINUOUS
 62
     2
100
AcDbLine
 10
136.501867
 20
333.084967
 30
0.0
 11
133.096212
 21
353.333025
 31
0.0
  0
LINE
  5
418
100
AcDbEntity
  8
LAY-2
  6
CONTINUOUS
 62
     2
100
AcDbLine
 10
148.0
 20
287.905045
 30
0.0
 11
141.0
 21
287.905045
 31
0.0
  0
LINE
  5
419
100
AcDbEntity
  8
LAY-2
  6
CONTINUOUS
 62
     2
100
AcDbLine
 10
134.0
 20
353.905045
 30
0.0
 11
148.0
 21
353.905045
 31
0.0
  0
LINE
  5
41A
100
AcDbEntity
  8
LAY-2
  6
CONTINUOUS
 62
     2
100
AcDbLine
 10
159.862745
 20
312.114859
 30
0.0
 11
157.862745
 21
312.114859
 31
0.0
  0
ARC
  5
41B
100
AcDbEntity
  8
LAY-2
  6
CONTINUOUS
 62
     2
100
AcDbCircle
 10
155.0
 20
295.199163
 30
0.0
 40
7.294118
100
AcDbArc
 50
270.0
 51
0.0
  0
ARC
  5
41C
100
AcDbEntity
  8
LAY-2
  6
CONTINUOUS
 62
     2
100
AcDbCircle
 10
141.0
 20
295.199163
 30
0.0
 40
7.294118
100
AcDbArc
 50
180.0
 51
270.0
  0
ARC
  5
41D
100
AcDbEntity
  8
LAY-2
  6
CONTINUOUS
 62
     2
100
AcDbCircle
 10
158.07536
 20
392.731067
 30
0.0
 40
1.0
100
AcDbArc
 50
337.61408
 51
355.515394
  0
ARC
  5
41E
100
AcDbEntity
  8
LAY-2
  6
CONTINUOUS
 62
     2
100
AcDbCircle
 10
158.07536
 20
392.731067
 30
0.0
 40
1.0
100
AcDbArc
 50
270.0
 51
337.61408
  0
ARC
  5
41F
100
AcDbEntity
  8
LAY-2
  6
CONTINUOUS
 62
     2
100
AcDbCircle
 10
137.92464
 20
392.731067
 30
0.0
 40
1.0
100
AcDbArc
 50
202.38592
 51
270.0
  0
ARC
  5
420
100
AcDbEntity
  8
LAY-2
  6
CONTINUOUS
 62
     2
100
AcDbCircle
 10
137.92464
 20
392.731067
 30
0.0
 40
1.0
100
AcDbArc
 50
184.484606
 51
202.38592
  0
ARC
  5
421
100
AcDbEntity
  8
LAY-2
  6
CONTINUOUS
 62
     2
100
AcDbCircle
 10
162.0
 20
352.905045
 30
0.0
 40
1.0
100
AcDbArc
 50
0.0
 51
25.339438
  0
ARC
  5
422
100
AcDbEntity
  8
LAY-2
  6
CONTINUOUS
 62
     2
100
AcDbCircle
 10
155.0
 20
295.905045
 30
0.0
 40
8.0
100
AcDbArc
 50
270.0
 51
0.0
  0
ARC
  5
423
100
AcDbEntity
  8
LAY-2
  6
CONTINUOUS
 62
     2
100
AcDbCircle
 10
162.0
 20
352.905045
 30
0.0
 40
1.0
100
AcDbArc
 50
25.339438
 51
90.0
  0
ARC
  5
424
100
AcDbEntity
  8
LAY-2
  6
CONTINUOUS
 62
     2
100
AcDbCircle
 10
134.0
 20
352.905045
 30
0.0
 40
1.0
100
AcDbArc
 50
154.660562
 51
180.0
  0
ARC
  5
425
100
AcDbEntity
  8
LAY-2
  6
CONTINUOUS
 62
     2
100
AcDbCircle
 10
141.0
 20
295.905045
 30
0.0
 40
8.0
100
AcDbArc
 50
180.0
 51
270.0
  0
ARC
  5
426
100
AcDbEntity
  8
LAY-2
  6
CONTINUOUS
 62
     2
100
AcDbCircle
 10
134.0
 20
352.905045
 30
0.0
 40
1.0
100
AcDbArc
 50
90.0
 51
154.660562
  0
ARC
  5
427
100
AcDbEntity
  8
LAY-2
  6
CONTINUOUS
 62
     2
100
AcDbCircle
 10
-93.098978
 20
301.332794
 30
0.0
 40
231.785997
100
AcDbArc
 50
7.810605
 51
7.87366
  0
ARC
  5
428
100
AcDbEntity
  8
LAY-2
  6
CONTINUOUS
 62
     2
100
AcDbCircle
 10
60.004876
 20
322.334279
 30
0.0
 40
77.248453
100
AcDbArc
 50
7.621421
 51
7.810609
  0
ARC
  5
429
100
AcDbEntity
  8
LAY-2
  6
CONTINUOUS
 62
     2
100
AcDbCircle
 10
90.6454
 20
326.434254
 30
0.0
 40
46.33484
100
AcDbArc
 50
7.306049
 51
7.621426
  0
ARC
  5
42A
100
AcDbEntity
  8
LAY-2
  6
CONTINUOUS
 62
     2
100
AcDbCircle
 10
103.787984
 20
328.119265
 30
0.0
 40
33.084679
100
AcDbArc
 50
6.864421
 51
7.306053
  0
ARC
  5
42B
100
AcDbEntity
  8
LAY-2
  6
CONTINUOUS
 62
     2
100
AcDbCircle
 10
111.094206
 20
328.998813
 30
0.0
 40
25.725705
100
AcDbArc
 50
6.296506
 51
6.864419
  0
ARC
  5
42C
100
AcDbEntity
  8
LAY-2
  6
CONTINUOUS
 62
     2
100
AcDbCircle
 10
111.723537
 20
329.078312
 30
0.0
 40
25.091454
100
AcDbArc
 50
5.392473
 51
6.273676
  0
ARC
  5
42D
100
AcDbEntity
  8
LAY-2
  6
CONTINUOUS
 62
     2
100
AcDbCircle
 10
106.690481
 20
328.603217
 30
0.0
 40
30.146883
100
AcDbArc
 50
4.658942
 51
5.392469
  0
ARC
  5
42E
100
AcDbEntity
  8
LAY-2
  6
CONTINUOUS
 62
     2
100
AcDbCircle
 10
99.115909
 20
327.98593
 30
0.0
 40
37.746567
100
AcDbArc
 50
4.073009
 51
4.658955
  0
ARC
  5
42F
100
AcDbEntity
  8
LAY-2
  6
CONTINUOUS
 62
     2
100
AcDbCircle
 10
86.457559
 20
327.084545
 30
0.0
 40
50.436968
100
AcDbArc
 50
3.634454
 51
4.073027
  0
ARC
  5
430
100
AcDbEntity
  8
LAY-2
  6
CONTINUOUS
 62
     2
100
AcDbCircle
 10
61.03665
 20
325.46983
 30
0.0
 40
75.909109
100
AcDbArc
 50
3.343059
 51
3.634468
  0
ARC
  5
431
100
AcDbEntity
  8
LAY-2
  6
CONTINUOUS
 62
     2
100
AcDbCircle
 10
34.554321
 20
323.901926
 30
0.0
 40
102.437806
100
AcDbArc
 50
0.843087
 51
3.35477
  0
ARC
  5
432
100
AcDbEntity
  8
LAY-2
  6
CONTINUOUS
 62
     2
100
AcDbCircle
 10
15.371589
 20
323.562704
 30
0.0
 40
121.623465
100
AcDbArc
 50
0.653795
 51
0.869906
  0
ARC
  5
433
100
AcDbEntity
  8
LAY-2
  6
CONTINUOUS
 62
     2
100
AcDbCircle
 10
-19.371414
 20
323.16624
 30
0.0
 40
156.368731
100
AcDbArc
 50
0.485705
 51
0.653794
  0
ARC
  5
434
100
AcDbEntity
  8
LAY-2
  6
CONTINUOUS
 62
     2
100
AcDbCircle
 10
-81.916994
 20
322.63602
 30
0.0
 40
218.916558
100
AcDbArc
 50
0.365641
 51
0.485705
  0
ARC
  5
435
100
AcDbEntity
  8
LAY-2
  6
CONTINUOUS
 62
     2
100
AcDbCircle
 10
-227.862611
 20
321.704635
 30
0.0
 40
364.865147
100
AcDbArc
 50
0.293603
 51
0.365641
  0
ARC
  5
436
100
AcDbEntity
  8
LAY-2
  6
CONTINUOUS
 62
     2
100
AcDbCircle
 10
-957.59311
 20
317.965211
 30
0.0
 40
1094.605227
100
AcDbArc
 50
0.269591
 51
0.293603
  0
ARC
  5
437
100
AcDbEntity
  8
LAY-2
  6
CONTINUOUS
 62
     2
100
AcDbCircle
 10
-1147.368698
 20
325.532088
 30
0.0
 40
1284.370971
100
AcDbArc
 50
359.884728
 51
359.8922
  0
ARC
  5
438
100
AcDbEntity
  8
LAY-2
  6
CONTINUOUS
 62
     2
100
AcDbCircle
 10
-291.123187
 20
323.809422
 30
0.0
 40
428.123727
100
AcDbArc
 50
359.862312
 51
359.884728
  0
ARC
  5
439
100
AcDbEntity
  8
LAY-2
  6
CONTINUOUS
 62
     2
100
AcDbCircle
 10
-119.874432
 20
323.397891
 30
0.0
 40
256.874477
100
AcDbArc
 50
359.824952
 51
359.862312
  0
ARC
  5
43A
100
AcDbEntity
  8
LAY-2
  6
CONTINUOUS
 62
     2
100
AcDbCircle
 10
-46.482605
 20
323.173667
 30
0.0
 40
183.482309
100
AcDbArc
 50
359.772649
 51
359.824952
  0
ARC
  5
43B
100
AcDbEntity
  8
LAY-2
  6
CONTINUOUS
 62
     2
100
AcDbCircle
 10
-5.710047
 20
323.01188
 30
0.0
 40
142.709429
100
AcDbArc
 50
359.705403
 51
359.772649
  0
ARC
  5
43C
100
AcDbEntity
  8
LAY-2
  6
CONTINUOUS
 62
     2
100
AcDbCircle
 10
10.842499
 20
322.928454
 30
0.0
 40
126.156674
100
AcDbArc
 50
359.542274
 51
359.704638
  0
ARC
  5
43D
100
AcDbEntity
  8
LAY-2
  6
CONTINUOUS
 62
     2
100
AcDbCircle
 10
15.174551
 20
322.893845
 30
0.0
 40
121.824483
100
AcDbArc
 50
359.374136
 51
359.542275
  0
ARC
  5
43E
100
AcDbEntity
  8
LAY-2
  6
CONTINUOUS
 62
     2
100
AcDbCircle
 10
19.221658
 20
322.849635
 30
0.0
 40
117.777135
100
AcDbArc
 50
359.20022
 51
359.374136
  0
ARC
  5
43F
100
AcDbEntity
  8
LAY-2
  6
CONTINUOUS
 62
     2
100
AcDbCircle
 10
23.010817
 20
322.796739
 30
0.0
 40
113.987606
100
AcDbArc
 50
359.020522
 51
359.20022
  0
ARC
  5
440
100
AcDbEntity
  8
LAY-2
  6
CONTINUOUS
 62
     2
100
AcDbCircle
 10
25.498851
 20
322.755064
 30
0.0
 40
111.499223
100
AcDbArc
 50
358.719443
 51
359.020079
  0
ARC
  5
441
100
AcDbEntity
  8
LAY-2
  6
CONTINUOUS
 62
     2
100
AcDbCircle
 10
-18.327243
 20
323.72062
 30
0.0
 40
155.335951
100
AcDbArc
 50
358.640719
 51
358.724649
  0
ARC
  5
442
100
AcDbEntity
  8
LAY-2
  6
CONTINUOUS
 62
     2
100
AcDbCircle
 10
-80.445121
 20
325.194577
 30
0.0
 40
217.471314
100
AcDbArc
 50
358.580769
 51
358.640719
  0
ARC
  5
443
100
AcDbEntity
  8
LAY-2
  6
CONTINUOUS
 62
     2
100
AcDbCircle
 10
-225.383564
 20
328.785474
 30
0.0
 40
362.454233
100
AcDbArc
 50
358.544799
 51
358.580769
  0
ARC
  5
444
100
AcDbEntity
  8
LAY-2
  6
CONTINUOUS
 62
     2
100
AcDbCircle
 10
-950.062159
 20
347.194856
 30
0.0
 40
1087.366622
100
AcDbArc
 50
358.532809
 51
358.544799
  0
ARC
  5
445
100
AcDbEntity
  8
LAY-2
  6
CONTINUOUS
 62
     2
100
AcDbCircle
 10
-551.363153
 20
341.2669
 30
0.0
 40
688.659862
100
AcDbArc
 50
358.150566
 51
358.176509
  0
ARC
  5
446
100
AcDbEntity
  8
LAY-2
  6
CONTINUOUS
 62
     2
100
AcDbCircle
 10
-92.625494
 20
326.454316
 30
0.0
 40
229.683117
100
AcDbArc
 50
358.072764
 51
358.150561
  0
ARC
  5
447
100
AcDbEntity
  8
LAY-2
  6
CONTINUOUS
 62
     2
100
AcDbCircle
 10
-0.961027
 20
323.369894
 30
0.0
 40
137.966771
100
AcDbArc
 50
357.94319
 51
358.072754
  0
ARC
  5
448
100
AcDbEntity
  8
LAY-2
  6
CONTINUOUS
 62
     2
100
AcDbCircle
 10
38.262682
 20
321.961258
 30
0.0
 40
98.717776
100
AcDbArc
 50
357.761993
 51
357.943175
  0
ARC
  5
449
100
AcDbEntity
  8
LAY-2
  6
CONTINUOUS
 62
     2
100
AcDbCircle
 10
60.004115
 20
321.11162
 30
0.0
 40
76.959747
100
AcDbArc
 50
357.529386
 51
357.761972
  0
ARC
  5
44A
100
AcDbEntity
  8
LAY-2
  6
CONTINUOUS
 62
     2
100
AcDbCircle
 10
64.098769
 20
320.943509
 30
0.0
 40
72.861653
100
AcDbArc
 50
357.227413
 51
357.52266
  0
ARC
  5
44B
100
AcDbEntity
  8
LAY-2
  6
CONTINUOUS
 62
     2
100
AcDbCircle
 10
56.211043
 20
321.325391
 30
0.0
 40
80.758619
100
AcDbArc
 50
356.961089
 51
357.227491
  0
ARC
  5
44C
100
AcDbEntity
  8
LAY-2
  6
CONTINUOUS
 62
     2
100
AcDbCircle
 10
46.829662
 20
321.823338
 30
0.0
 40
90.153205
100
AcDbArc
 50
356.722751
 51
356.961152
  0
ARC
  5
44D
100
AcDbEntity
  8
LAY-2
  6
CONTINUOUS
 62
     2
100
AcDbCircle
 10
35.387988
 20
322.478417
 30
0.0
 40
101.613616
100
AcDbArc
 50
356.511731
 51
356.722799
  0
ARC
  5
44E
100
AcDbEntity
  8
LAY-2
  6
CONTINUOUS
 62
     2
100
AcDbCircle
 10
20.984706
 20
323.356331
 30
0.0
 40
116.04363
100
AcDbArc
 50
356.32754
 51
356.511765
  0
ARC
  5
44F
100
AcDbEntity
  8
LAY-2
  6
CONTINUOUS
 62
     2
100
AcDbCircle
 10
60.62243
 20
320.788702
 30
0.0
 40
76.322841
100
AcDbArc
 50
356.106643
 51
356.345148
  0
ARC
  5
450
100
AcDbEntity
  8
LAY-2
  6
CONTINUOUS
 62
     2
100
AcDbCircle
 10
93.706298
 20
318.537356
 30
0.0
 40
43.16246
100
AcDbArc
 50
355.6846
 51
356.106335
  0
ARC
  5
451
100
AcDbEntity
  8
LAY-2
  6
CONTINUOUS
 62
     2
100
AcDbCircle
 10
106.340543
 20
317.584314
 30
0.0
 40
30.49232
100
AcDbArc
 50
355.084733
 51
355.683951
  0
ARC
  5
452
100
AcDbEntity
  8
LAY-2
  6
CONTINUOUS
 62
     2
100
AcDbCircle
 10
112.804754
 20
317.028809
 30
0.0
 40
24.004284
100
AcDbArc
 50
354.316806
 51
355.083761
  0
ARC
  5
453
100
AcDbEntity
  8
LAY-2
  6
CONTINUOUS
 62
     2
100
AcDbCircle
 10
116.612446
 20
316.650184
 30
0.0
 40
20.177814
100
AcDbArc
 50
352.668415
 51
354.315943
  0
ARC
  5
454
100
AcDbEntity
  8
LAY-2
  6
CONTINUOUS
 62
     2
100
AcDbCircle
 10
107.385244
 20
317.823373
 30
0.0
 40
29.479292
100
AcDbArc
 50
352.199641
 51
352.69543
  0
ARC
  5
455
100
AcDbEntity
  8
LAY-2
  6
CONTINUOUS
 62
     2
100
AcDbCircle
 10
93.735971
 20
319.69259
 30
0.0
 40
43.255961
100
AcDbArc
 50
351.866857
 51
352.200413
  0
ARC
  5
456
100
AcDbEntity
  8
LAY-2
  6
CONTINUOUS
 62
     2
100
AcDbCircle
 10
56.87643
 20
324.960528
 30
0.0
 40
80.490044
100
AcDbArc
 50
351.691972
 51
351.86665
  0
ARC
  5
457
100
AcDbEntity
  8
LAY-2
  6
CONTINUOUS
 62
     2
100
AcDbCircle
 10
-1928.858169
 20
614.982409
 30
0.0
 40
2087.292124
100
AcDbArc
 50
351.684131
 51
351.690604
  0
ARC
  5
458
100
AcDbEntity
  8
LAY-2
  6
CONTINUOUS
 62
     2
100
AcDbCircle
 10
123.401212
 20
314.978986
 30
0.0
 40
13.221133
100
AcDbArc
 50
351.180274
 51
351.815547
  0
ARC
  5
459
100
AcDbEntity
  8
LAY-2
  6
CONTINUOUS
 62
     2
100
AcDbCircle
 10
132.21434
 20
313.612673
 30
0.0
 40
4.302724
100
AcDbArc
 50
349.204279
 51
351.165301
  0
ARC
  5
45A
100
AcDbEntity
  8
LAY-2
  6
CONTINUOUS
 62
     2
100
AcDbCircle
 10
133.513012
 20
313.367006
 30
0.0
 40
2.981022
100
AcDbArc
 50
346.204292
 51
349.167132
  0
ARC
  5
45B
100
AcDbEntity
  8
LAY-2
  6
CONTINUOUS
 62
     2
100
AcDbCircle
 10
133.715385
 20
313.319433
 30
0.0
 40
2.773144
100
AcDbArc
 50
342.698787
 51
346.161782
  0
ARC
  5
45C
100
AcDbEntity
  8
LAY-2
  6
CONTINUOUS
 62
     2
100
AcDbCircle
 10
133.412595
 20
313.415544
 30
0.0
 40
3.090817
100
AcDbArc
 50
339.182101
 51
342.66701
  0
ARC
  5
45D
100
AcDbEntity
  8
LAY-2
  6
CONTINUOUS
 62
     2
100
AcDbCircle
 10
134.882554
 20
312.848522
 30
0.0
 40
1.515325
100
AcDbArc
 50
336.988327
 51
339.46877
  0
ARC
  5
45E
100
AcDbEntity
  8
LAY-2
  6
CONTINUOUS
 62
     2
100
AcDbCircle
 10
135.710624
 20
312.495514
 30
0.0
 40
0.615152
100
AcDbArc
 50
331.210017
 51
337.101011
  0
ARC
  5
45F
100
AcDbEntity
  8
LAY-2
  6
CONTINUOUS
 62
     2
100
AcDbCircle
 10
136.007113
 20
312.330867
 30
0.0
 40
0.276022
100
AcDbArc
 50
319.789845
 51
331.522624
  0
ARC
  5
460
100
AcDbEntity
  8
LAY-2
  6
CONTINUOUS
 62
     2
100
AcDbCircle
 10
136.124971
 20
312.229788
 30
0.0
 40
0.120765
100
AcDbArc
 50
297.513365
 51
320.31353
  0
ARC
  5
461
100
AcDbEntity
  8
LAY-2
  6
CONTINUOUS
 62
     2
100
AcDbCircle
 10
136.147604
 20
312.189012
 30
0.0
 40
0.074156
100
AcDbArc
 50
261.978029
 51
296.558055
  0
ARC
  5
462
100
AcDbEntity
  8
LAY-2
  6
CONTINUOUS
 62
     2
100
AcDbCircle
 10
136.150263
 20
312.208057
 30
0.0
 40
0.093386
100
AcDbArc
 50
253.58964
 51
261.992937
  0
ARC
  5
463
100
AcDbEntity
  8
LAY-2
  6
CONTINUOUS
 62
     2
100
AcDbCircle
 10
136.157717
 20
312.233769
 30
0.0
 40
0.120156
100
AcDbArc
 50
246.751374
 51
253.643703
  0
ARC
  5
464
100
AcDbEntity
  8
LAY-2
  6
CONTINUOUS
 62
     2
100
AcDbCircle
 10
136.166972
 20
312.255578
 30
0.0
 40
0.143848
100
AcDbArc
 50
240.822289
 51
246.79344
  0
ARC
  5
465
100
AcDbEntity
  8
LAY-2
  6
CONTINUOUS
 62
     2
100
AcDbCircle
 10
136.174424
 20
312.269076
 30
0.0
 40
0.159266
100
AcDbArc
 50
222.110728
 51
240.848719
  0
ARC
  5
466
100
AcDbEntity
  8
LAY-2
  6
CONTINUOUS
 62
     2
100
AcDbCircle
 10
136.199922
 20
312.292369
 30
0.0
 40
0.1938
100
AcDbArc
 50
215.866065
 51
222.164639
  0
ARC
  5
467
100
AcDbEntity
  8
LAY-2
  6
CONTINUOUS
 62
     2
100
AcDbCircle
 10
136.249652
 20
312.328267
 30
0.0
 40
0.255134
100
AcDbArc
 50
211.086591
 51
215.856012
  0
ARC
  5
468
100
AcDbEntity
  8
LAY-2
  6
CONTINUOUS
 62
     2
100
AcDbCircle
 10
136.357858
 20
312.393508
 30
0.0
 40
0.381486
100
AcDbArc
 50
207.89026
 51
211.086682
  0
ARC
  5
469
100
AcDbEntity
  8
LAY-2
  6
CONTINUOUS
 62
     2
100
AcDbCircle
 10
136.676231
 20
312.562044
 30
0.0
 40
0.741716
100
AcDbArc
 50
206.24602
 51
207.892745
  0
ARC
  5
46A
100
AcDbEntity
  8
LAY-2
  6
CONTINUOUS
 62
     2
100
AcDbCircle
 10
137.223125
 20
312.835215
 30
0.0
 40
1.353035
100
AcDbArc
 50
203.840683
 51
206.379689
  0
ARC
  5
46B
100
AcDbEntity
  8
LAY-2
  6
CONTINUOUS
 62
     2
100
AcDbCircle
 10
137.162254
 20
312.808016
 30
0.0
 40
1.286364
100
AcDbArc
 50
201.166847
 51
203.828456
  0
ARC
  5
46C
100
AcDbEntity
  8
LAY-2
  6
CONTINUOUS
 62
     2
100
AcDbCircle
 10
137.122205
 20
312.792217
 30
0.0
 40
1.243312
100
AcDbArc
 50
199.778489
 51
201.154336
  0
ARC
  5
46D
100
AcDbEntity
  8
LAY-2
  6
CONTINUOUS
 62
     2
100
AcDbCircle
 10
137.242082
 20
312.834779
 30
0.0
 40
1.37052
100
AcDbArc
 50
198.713685
 51
199.756997
  0
ARC
  5
46E
100
AcDbEntity
  8
LAY-2
  6
CONTINUOUS
 62
     2
100
AcDbCircle
 10
137.616069
 20
312.961467
 30
0.0
 40
1.765382
100
AcDbArc
 50
197.903256
 51
198.713712
  0
ARC
  5
46F
100
AcDbEntity
  8
LAY-2
  6
CONTINUOUS
 62
     2
100
AcDbCircle
 10
138.292524
 20
313.180001
 30
0.0
 40
2.47626
100
AcDbArc
 50
197.325152
 51
197.903311
  0
ARC
  5
470
100
AcDbEntity
  8
LAY-2
  6
CONTINUOUS
 62
     2
100
AcDbCircle
 10
139.874447
 20
313.673481
 30
0.0
 40
4.133367
100
AcDbArc
 50
196.97866
 51
197.325204
  0
ARC
  5
471
100
AcDbEntity
  8
LAY-2
  6
CONTINUOUS
 62
     2
100
AcDbCircle
 10
147.790727
 20
316.090514
 30
0.0
 40
12.410416
100
AcDbArc
 50
196.863241
 51
196.978692
  0
ARC
  5
472
100
AcDbEntity
  8
LAY-2
  6
CONTINUOUS
 62
     2
100
AcDbCircle
 10
118.962463
 20
310.020514
 30
0.0
 40
16.963854
100
AcDbArc
 50
16.979554
 51
17.109257
  0
ARC
  5
473
100
AcDbEntity
  8
LAY-2
  6
CONTINUOUS
 62
     2
100
AcDbCircle
 10
129.771684
 20
313.347776
 30
0.0
 40
5.654126
100
AcDbArc
 50
17.109257
 51
17.498385
  0
ARC
  5
474
100
AcDbEntity
  8
LAY-2
  6
CONTINUOUS
 62
     2
100
AcDbCircle
 10
131.928926
 20
314.027885
 30
0.0
 40
3.392216
100
AcDbArc
 50
17.498385
 51
18.146977
  0
ARC
  5
475
100
AcDbEntity
  8
LAY-2
  6
CONTINUOUS
 62
     2
100
AcDbCircle
 10
132.849053
 20
314.329464
 30
0.0
 40
2.423926
100
AcDbArc
 50
18.146977
 51
19.054794
  0
ARC
  5
476
100
AcDbEntity
  8
LAY-2
  6
CONTINUOUS
 62
     2
100
AcDbCircle
 10
133.355792
 20
314.504491
 30
0.0
 40
1.887812
100
AcDbArc
 50
19.054794
 51
20.220975
  0
ARC
  5
477
100
AcDbEntity
  8
LAY-2
  6
CONTINUOUS
 62
     2
100
AcDbCircle
 10
133.612873
 20
314.599185
 30
0.0
 40
1.613846
100
AcDbArc
 50
20.220975
 51
21.710838
  0
ARC
  5
478
100
AcDbEntity
  8
LAY-2
  6
CONTINUOUS
 62
     2
100
AcDbCircle
 10
133.666416
 20
314.620504
 30
0.0
 40
1.556214
100
AcDbArc
 50
21.710838
 51
23.256367
  0
ARC
  5
479
100
AcDbEntity
  8
LAY-2
  6
CONTINUOUS
 62
     2
100
AcDbCircle
 10
133.803054
 20
314.679226
 30
0.0
 40
1.407492
100
AcDbArc
 50
23.256367
 51
24.964613
  0
ARC
  5
47A
100
AcDbEntity
  8
LAY-2
  6
CONTINUOUS
 62
     2
100
AcDbCircle
 10
133.850336
 20
314.701239
 30
0.0
 40
1.355337
100
AcDbArc
 50
24.964613
 51
26.737084
  0
ARC
  5
47B
100
AcDbEntity
  8
LAY-2
  6
CONTINUOUS
 62
     2
100
AcDbCircle
 10
133.958022
 20
314.755486
 30
0.0
 40
1.23476
100
AcDbArc
 50
26.737084
 51
28.680369
  0
ARC
  5
47C
100
AcDbEntity
  8
LAY-2
  6
CONTINUOUS
 62
     2
100
AcDbCircle
 10
134.258724
 20
314.919982
 30
0.0
 40
0.892005
100
AcDbArc
 50
28.680369
 51
30.179386
  0
ARC
  5
47D
100
AcDbEntity
  8
LAY-2
  6
CONTINUOUS
 62
     2
100
AcDbCircle
 10
134.658844
 20
315.152665
 30
0.0
 40
0.429147
100
AcDbArc
 50
30.179386
 51
33.292799
  0
ARC
  5
47E
100
AcDbEntity
  8
LAY-2
  6
CONTINUOUS
 62
     2
100
AcDbCircle
 10
134.730639
 20
315.199813
 30
0.0
 40
0.343255
100
AcDbArc
 50
33.292799
 51
37.191337
  0
ARC
  5
47F
100
AcDbEntity
  8
LAY-2
  6
CONTINUOUS
 62
     2
100
AcDbCircle
 10
134.806407
 20
315.257306
 30
0.0
 40
0.248143
100
AcDbArc
 50
37.191337
 51
42.626318
  0
ARC
  5
480
100
AcDbEntity
  8
LAY-2
  6
CONTINUOUS
 62
     2
100
AcDbCircle
 10
134.82017
 20
315.269973
 30
0.0
 40
0.229438
100
AcDbArc
 50
42.626318
 51
48.613849
  0
ARC
  5
481
100
AcDbEntity
  8
LAY-2
  6
CONTINUOUS
 62
     2
100
AcDbCircle
 10
134.834245
 20
315.285946
 30
0.0
 40
0.208149
100
AcDbArc
 50
48.613849
 51
60.146462
  0
ARC
  5
482
100
AcDbEntity
  8
LAY-2
  6
CONTINUOUS
 62
     2
100
AcDbCircle
 10
134.848062
 20
315.31002
 30
0.0
 40
0.180392
100
AcDbArc
 50
60.146462
 51
66.686115
  0
ARC
  5
483
100
AcDbEntity
  8
LAY-2
  6
CONTINUOUS
 62
     2
100
AcDbCircle
 10
134.863337
 20
315.345464
 30
0.0
 40
0.141796
100
AcDbArc
 50
66.686115
 51
74.686137
  0
ARC
  5
484
100
AcDbEntity
  8
LAY-2
  6
CONTINUOUS
 62
     2
100
AcDbCircle
 10
134.872256
 20
315.378034
 30
0.0
 40
0.108027
100
AcDbArc
 50
74.686137
 51
84.636828
  0
ARC
  5
485
100
AcDbEntity
  8
LAY-2
  6
CONTINUOUS
 62
     2
100
AcDbCircle
 10
134.87405
 20
315.397145
 30
0.0
 40
0.088832
100
AcDbArc
 50
84.636828
 51
114.592723
  0
ARC
  5
486
100
AcDbEntity
  8
LAY-2
  6
CONTINUOUS
 62
     2
100
AcDbCircle
 10
134.897226
 20
315.346508
 30
0.0
 40
0.14452
100
AcDbArc
 50
114.592723
 51
134.210452
  0
ARC
  5
487
100
AcDbEntity
  8
LAY-2
  6
CONTINUOUS
 62
     2
100
AcDbCircle
 10
135.011565
 20
315.228973
 30
0.0
 40
0.308497
100
AcDbArc
 50
134.210452
 51
144.630894
  0
ARC
  5
488
100
AcDbEntity
  8
LAY-2
  6
CONTINUOUS
 62
     2
100
AcDbCircle
 10
135.219355
 20
315.081473
 30
0.0
 40
0.563316
100
AcDbArc
 50
144.630894
 51
150.87203
  0
ARC
  5
489
100
AcDbEntity
  8
LAY-2
  6
CONTINUOUS
 62
     2
100
AcDbCircle
 10
135.962454
 20
314.667394
 30
0.0
 40
1.413997
100
AcDbArc
 50
150.87203
 51
153.427973
  0
ARC
  5
48A
100
AcDbEntity
  8
LAY-2
  6
CONTINUOUS
 62
     2
100
AcDbCircle
 10
136.551497
 20
314.372783
 30
0.0
 40
2.072606
100
AcDbArc
 50
153.427973
 51
157.825888
  0
ARC
  5
48B
100
AcDbEntity
  8
LAY-2
  6
CONTINUOUS
 62
     2
100
AcDbCircle
 10
136.339414
 20
314.459221
 30
0.0
 40
1.843585
100
AcDbArc
 50
157.825888
 51
162.34618
  0
ARC
  5
48C
100
AcDbEntity
  8
LAY-2
  6
CONTINUOUS
 62
     2
100
AcDbCircle
 10
136.720699
 20
314.337876
 30
0.0
 40
2.243714
100
AcDbArc
 50
162.34618
 51
165.833851
  0
ARC
  5
48D
100
AcDbEntity
  8
LAY-2
  6
CONTINUOUS
 62
     2
100
AcDbCircle
 10
137.326599
 20
314.18494
 30
0.0
 40
2.868616
100
AcDbArc
 50
165.833851
 51
168.470801
  0
ARC
  5
48E
100
AcDbEntity
  8
LAY-2
  6
CONTINUOUS
 62
     2
100
AcDbCircle
 10
143.170119
 20
312.992961
 30
0.0
 40
8.832469
100
AcDbArc
 50
168.470801
 51
169.322655
  0
ARC
  5
48F
100
AcDbEntity
  8
LAY-2
  6
CONTINUOUS
 62
     2
100
AcDbCircle
 10
165.631633
 20
308.758012
 30
0.0
 40
31.689731
100
AcDbArc
 50
169.322655
 51
170.741332
  0
ARC
  5
490
100
AcDbEntity
  8
LAY-2
  6
CONTINUOUS
 62
     2
100
AcDbCircle
 10
156.840042
 20
310.191179
 30
0.0
 40
22.782092
100
AcDbArc
 50
170.741332
 51
171.422224
  0
ARC
  5
491
100
AcDbEntity
  8
LAY-2
  6
CONTINUOUS
 62
     2
100
AcDbCircle
 10
160.222241
 20
309.681011
 30
0.0
 40
26.202551
100
AcDbArc
 50
171.422224
 51
173.276024
  0
ARC
  5
492
100
AcDbEntity
  8
LAY-2
  6
CONTINUOUS
 62
     2
100
AcDbCircle
 10
161.639638
 20
309.513904
 30
0.0
 40
27.629765
100
AcDbArc
 50
173.276024
 51
174.458928
  0
ARC
  5
493
100
AcDbEntity
  8
LAY-2
  6
CONTINUOUS
 62
     2
100
AcDbCircle
 10
176.003024
 20
308.120474
 30
0.0
 40
42.060583
100
AcDbArc
 50
174.458928
 51
175.230707
  0
ARC
  5
494
100
AcDbEntity
  8
LAY-2
  6
CONTINUOUS
 62
     2
100
AcDbCircle
 10
180.001866
 20
307.78684
 30
0.0
 40
46.073319
100
AcDbArc
 50
175.230707
 51
175.933001
  0
ARC
  5
495
100
AcDbEntity
  8
LAY-2
  6
CONTINUOUS
 62
     2
100
AcDbCircle
 10
253.129959
 20
302.587288
 30
0.0
 40
119.386028
100
AcDbArc
 50
175.933001
 51
176.204089
  0
ARC
  5
496
100
AcDbEntity
  8
LAY-2
  6
CONTINUOUS
 62
     2
100
AcDbCircle
 10
259.303729
 20
302.17767
 30
0.0
 40
125.573372
100
AcDbArc
 50
176.204089
 51
176.716126
  0
ARC
  5
497
100
AcDbEntity
  8
LAY-2
  6
CONTINUOUS
 62
     2
100
AcDbCircle
 10
275.85167
 20
301.228194
 30
0.0
 40
142.14853
100
AcDbArc
 50
176.716126
 51
177.170064
  0
ARC
  5
498
100
AcDbEntity
  8
LAY-2
  6
CONTINUOUS
 62
     2
100
AcDbCircle
 10
252.30871
 20
302.391967
 30
0.0
 40
118.576823
100
AcDbArc
 50
177.170064
 51
178.15129
  0
ARC
  5
499
100
AcDbEntity
  8
LAY-2
  6
CONTINUOUS
 62
     2
100
AcDbCircle
 10
303.007686
 20
300.755542
 30
0.0
 40
169.302202
100
AcDbArc
 50
178.15129
 51
178.399347
  0
ARC
  5
49A
100
AcDbEntity
  8
LAY-2
  6
CONTINUOUS
 62
     2
100
AcDbCircle
 10
249.173273
 20
302.259887
 30
0.0
 40
115.446774
100
AcDbArc
 50
178.399347
 51
178.763026
  0
ARC
  5
49B
100
AcDbEntity
  8
LAY-2
  6
CONTINUOUS
 62
     2
100
AcDbCircle
 10
323.512356
 20
300.654711
 30
0.0
 40
189.803186
100
AcDbArc
 50
178.763026
 51
178.984229
  0
ARC
  5
49C
100
AcDbEntity
  8
LAY-2
  6
CONTINUOUS
 62
     2
100
AcDbCircle
 10
263.059334
 20
301.726568
 30
0.0
 40
129.340662
100
AcDbArc
 50
178.984229
 51
179.297236
  0
ARC
  5
49D
100
AcDbEntity
  8
LAY-2
  6
CONTINUOUS
 62
     2
100
AcDbCircle
 10
480.168379
 20
299.063473
 30
0.0
 40
346.466039
100
AcDbArc
 50
179.297236
 51
179.414109
  0
ARC
  5
49E
100
AcDbEntity
  8
LAY-2
  6
CONTINUOUS
 62
     2
100
AcDbCircle
 10
330.865838
 20
300.590252
 30
0.0
 40
197.155692
100
AcDbArc
 50
179.414109
 51
179.619527
  0
ARC
  5
49F
100
AcDbEntity
  8
LAY-2
  6
CONTINUOUS
 62
     2
100
AcDbCircle
 10
4449.998174
 20
273.236757
 30
0.0
 40
4316.378849
100
AcDbArc
 50
179.619527
 51
179.628911
  0
ARC
  5
4A0
100
AcDbEntity
  8
LAY-2
  6
CONTINUOUS
 62
     2
100
AcDbCircle
 10
547.035093
 20
298.515514
 30
0.0
 40
413.333906
100
AcDbArc
 50
179.628911
 51
179.72691
  0
ARC
  5
4A1
100
AcDbEntity
  8
LAY-2
  6
CONTINUOUS
 62
     2
100
AcDbCircle
 10
177.037537
 20
310.020514
 30
0.0
 40
16.963854
100
AcDbArc
 50
162.890743
 51
163.020446
  0
ARC
  5
4A2
100
AcDbEntity
  8
LAY-2
  6
CONTINUOUS
 62
     2
100
AcDbCircle
 10
166.228217
 20
313.347807
 30
0.0
 40
5.654022
100
AcDbArc
 50
162.501612
 51
162.890747
  0
ARC
  5
4A3
100
AcDbEntity
  8
LAY-2
  6
CONTINUOUS
 62
     2
100
AcDbCircle
 10
164.071178
 20
314.027852
 30
0.0
 40
3.392324
100
AcDbArc
 50
161.853033
 51
162.501605
  0
ARC
  5
4A4
100
AcDbEntity
  8
LAY-2
  6
CONTINUOUS
 62
     2
100
AcDbCircle
 10
163.151122
 20
314.329405
 30
0.0
 40
2.424111
100
AcDbArc
 50
160.945241
 51
161.852988
  0
ARC
  5
4A5
100
AcDbEntity
  8
LAY-2
  6
CONTINUOUS
 62
     2
100
AcDbCircle
 10
162.644483
 20
314.504393
 30
0.0
 40
1.888104
100
AcDbArc
 50
159.779115
 51
160.945116
  0
ARC
  5
4A6
100
AcDbEntity
  8
LAY-2
  6
CONTINUOUS
 62
     2
100
AcDbCircle
 10
162.413197
 20
314.589196
 30
0.0
 40
1.641761
100
AcDbArc
 50
158.301829
 51
159.766358
  0
ARC
  5
4A7
100
AcDbEntity
  8
LAY-2
  6
CONTINUOUS
 62
     2
100
AcDbCircle
 10
162.30978
 20
314.630356
 30
0.0
 40
1.530454
100
AcDbArc
 50
156.730626
 51
158.302169
  0
ARC
  5
4A8
100
AcDbEntity
  8
LAY-2
  6
CONTINUOUS
 62
     2
100
AcDbCircle
 10
162.216301
 20
314.670564
 30
0.0
 40
1.428695
100
AcDbArc
 50
155.048064
 51
156.730957
  0
ARC
  5
4A9
100
AcDbEntity
  8
LAY-2
  6
CONTINUOUS
 62
     2
100
AcDbCircle
 10
162.132053
 20
314.709771
 30
0.0
 40
1.335771
100
AcDbArc
 50
153.249933
 51
155.048369
  0
ARC
  5
4AA
100
AcDbEntity
  8
LAY-2
  6
CONTINUOUS
 62
     2
100
AcDbCircle
 10
162.05648
 20
314.74787
 30
0.0
 40
1.251138
100
AcDbArc
 50
151.332352
 51
153.250195
  0
ARC
  5
4AB
100
AcDbEntity
  8
LAY-2
  6
CONTINUOUS
 62
     2
100
AcDbCircle
 10
161.647708
 20
314.972769
 30
0.0
 40
0.784585
100
AcDbArc
 50
149.717989
 51
151.422256
  0
ARC
  5
4AC
100
AcDbEntity
  8
LAY-2
  6
CONTINUOUS
 62
     2
100
AcDbCircle
 10
161.366923
 20
315.136728
 30
0.0
 40
0.459434
100
AcDbArc
 50
146.809845
 51
149.717971
  0
ARC
  5
4AD
100
AcDbEntity
  8
LAY-2
  6
CONTINUOUS
 62
     2
100
AcDbCircle
 10
161.255749
 20
315.20943
 30
0.0
 40
0.326598
100
AcDbArc
 50
142.709205
 51
146.806658
  0
ARC
  5
4AE
100
AcDbEntity
  8
LAY-2
  6
CONTINUOUS
 62
     2
100
AcDbCircle
 10
161.201585
 20
315.250621
 30
0.0
 40
0.258551
100
AcDbArc
 50
137.483148
 51
142.699197
  0
ARC
  5
4AF
100
AcDbEntity
  8
LAY-2
  6
CONTINUOUS
 62
     2
100
AcDbCircle
 10
161.175172
 20
315.274733
 30
0.0
 40
0.222788
100
AcDbArc
 50
131.296702
 51
137.463132
  0
ARC
  5
4B0
100
AcDbEntity
  8
LAY-2
  6
CONTINUOUS
 62
     2
100
AcDbCircle
 10
161.168589
 20
315.28199
 30
0.0
 40
0.212992
100
AcDbArc
 50
119.985084
 51
131.254605
  0
ARC
  5
4B1
100
AcDbEntity
  8
LAY-2
  6
CONTINUOUS
 62
     2
100
AcDbCircle
 10
161.150706
 20
315.312482
 30
0.0
 40
0.177643
100
AcDbArc
 50
113.263237
 51
119.904186
  0
ARC
  5
4B2
100
AcDbEntity
  8
LAY-2
  6
CONTINUOUS
 62
     2
100
AcDbCircle
 10
161.13665
 20
315.345502
 30
0.0
 40
0.141756
100
AcDbArc
 50
105.312738
 51
113.315009
  0
ARC
  5
4B3
100
AcDbEntity
  8
LAY-2
  6
CONTINUOUS
 62
     2
100
AcDbCircle
 10
161.127517
 20
315.379277
 30
0.0
 40
0.106769
100
AcDbArc
 50
95.304367
 51
105.372668
  0
ARC
  5
4B4
100
AcDbEntity
  8
LAY-2
  6
CONTINUOUS
 62
     2
100
AcDbCircle
 10
161.125448
 20
315.394184
 30
0.0
 40
0.091736
100
AcDbArc
 50
65.891998
 51
94.878451
  0
ARC
  5
4B5
100
AcDbEntity
  8
LAY-2
  6
CONTINUOUS
 62
     2
100
AcDbCircle
 10
161.102776
 20
315.34651
 30
0.0
 40
0.144518
100
AcDbArc
 50
45.789391
 51
65.407434
  0
ARC
  5
4B6
100
AcDbEntity
  8
LAY-2
  6
CONTINUOUS
 62
     2
100
AcDbCircle
 10
161.00218
 20
315.240746
 30
0.0
 40
0.290478
100
AcDbArc
 50
35.044926
 51
46.113728
  0
ARC
  5
4B7
100
AcDbEntity
  8
LAY-2
  6
CONTINUOUS
 62
     2
100
AcDbCircle
 10
160.765703
 20
315.072046
 30
0.0
 40
0.580957
100
AcDbArc
 50
29.222819
 51
35.274257
  0
ARC
  5
4B8
100
AcDbEntity
  8
LAY-2
  6
CONTINUOUS
 62
     2
100
AcDbCircle
 10
160.200162
 20
314.753313
 30
0.0
 40
1.23013
100
AcDbArc
 50
26.380971
 51
29.319026
  0
ARC
  5
4B9
100
AcDbEntity
  8
LAY-2
  6
CONTINUOUS
 62
     2
100
AcDbCircle
 10
159.502583
 20
314.397284
 30
0.0
 40
2.01328
100
AcDbArc
 50
22.109281
 51
26.636858
  0
ARC
  5
4BA
100
AcDbEntity
  8
LAY-2
  6
CONTINUOUS
 62
     2
100
AcDbCircle
 10
159.578474
 20
314.429474
 30
0.0
 40
1.930855
100
AcDbArc
 50
17.756022
 51
22.071909
  0
ARC
  5
4BB
100
AcDbEntity
  8
LAY-2
  6
CONTINUOUS
 62
     2
100
AcDbCircle
 10
159.352298
 20
314.358683
 30
0.0
 40
2.167845
100
AcDbArc
 50
14.105099
 51
17.71487
  0
ARC
  5
4BC
100
AcDbEntity
  8
LAY-2
  6
CONTINUOUS
 62
     2
100
AcDbCircle
 10
158.460653
 20
314.136419
 30
0.0
 40
3.086775
100
AcDbArc
 50
11.622397
 51
14.072951
  0
ARC
  5
4BD
100
AcDbEntity
  8
LAY-2
  6
CONTINUOUS
 62
     2
100
AcDbCircle
 10
154.189897
 20
313.259866
 30
0.0
 40
7.446556
100
AcDbArc
 50
10.598072
 51
11.608472
  0
ARC
  5
4BE
100
AcDbEntity
  8
LAY-2
  6
CONTINUOUS
 62
     2
100
AcDbCircle
 10
132.279686
 20
309.093929
 30
0.0
 40
29.749276
100
AcDbArc
 50
9.212397
 51
10.723616
  0
ARC
  5
4BF
100
AcDbEntity
  8
LAY-2
  6
CONTINUOUS
 62
     2
100
AcDbCircle
 10
134.78954
 20
309.505365
 30
0.0
 40
27.205926
100
AcDbArc
 50
8.633135
 51
9.203309
  0
ARC
  5
4C0
100
AcDbEntity
  8
LAY-2
  6
CONTINUOUS
 62
     2
100
AcDbCircle
 10
137.312184
 20
309.887134
 30
0.0
 40
24.654559
100
AcDbArc
 50
6.665773
 51
8.635979
  0
ARC
  5
4C1
100
AcDbEntity
  8
LAY-2
  6
CONTINUOUS
 62
     2
100
AcDbCircle
 10
132.095861
 20
309.270598
 30
0.0
 40
29.907187
100
AcDbArc
 50
5.586112
 51
6.678936
  0
ARC
  5
4C2
100
AcDbEntity
  8
LAY-2
  6
CONTINUOUS
 62
     2
100
AcDbCircle
 10
124.263685
 20
308.50541
 30
0.0
 40
37.776653
100
AcDbArc
 50
4.725531
 51
5.584833
  0
ARC
  5
4C3
100
AcDbEntity
  8
LAY-2
  6
CONTINUOUS
 62
     2
100
AcDbCircle
 10
109.314691
 20
307.270448
 30
0.0
 40
52.776571
100
AcDbArc
 50
4.111599
 51
4.724692
  0
ARC
  5
4C4
100
AcDbEntity
  8
LAY-2
  6
CONTINUOUS
 62
     2
100
AcDbCircle
 10
72.16101
 20
304.600302
 30
0.0
 40
90.026077
100
AcDbArc
 50
3.751706
 51
4.111203
  0
ARC
  5
4C5
100
AcDbEntity
  8
LAY-2
  6
CONTINUOUS
 62
     2
100
AcDbCircle
 10
24.938801
 20
301.450335
 30
0.0
 40
137.35321
100
AcDbArc
 50
3.305831
 51
3.773954
  0
ARC
  5
4C6
100
AcDbEntity
  8
LAY-2
  6
CONTINUOUS
 62
     2
100
AcDbCircle
 10
31.792361
 20
301.850029
 30
0.0
 40
130.488005
100
AcDbArc
 50
2.809653
 51
3.304156
  0
ARC
  5
4C7
100
AcDbEntity
  8
LAY-2
  6
CONTINUOUS
 62
     2
100
AcDbCircle
 10
37.752628
 20
302.149364
 30
0.0
 40
124.520231
100
AcDbArc
 50
1.872128
 51
2.806518
  0
ARC
  5
4C8
100
AcDbEntity
  8
LAY-2
  6
CONTINUOUS
 62
     2
100
AcDbCircle
 10
27.890817
 20
301.806352
 30
0.0
 40
134.387986
100
AcDbArc
 50
1.56843
 51
1.880933
  0
ARC
  5
4C9
100
AcDbEntity
  8
LAY-2
  6
CONTINUOUS
 62
     2
100
AcDbCircle
 10
21.951602
 20
301.64378
 30
0.0
 40
140.329425
100
AcDbArc
 50
1.269217
 51
1.56841
  0
ARC
  5
4CA
100
AcDbEntity
  8
LAY-2
  6
CONTINUOUS
 62
     2
100
AcDbCircle
 10
15.303234
 20
301.496527
 30
0.0
 40
146.979424
100
AcDbArc
 50
0.983546
 51
1.269199
  0
ARC
  5
4CB
100
AcDbEntity
  8
LAY-2
  6
CONTINUOUS
 62
     2
100
AcDbCircle
 10
-5.105008
 20
301.155952
 30
0.0
 40
167.390505
100
AcDbArc
 50
0.738339
 51
0.980196
  0
ARC
  5
4CC
100
AcDbEntity
  8
LAY-2
  6
CONTINUOUS
 62
     2
100
AcDbCircle
 10
-53.058841
 20
300.537945
 30
0.0
 40
215.34832
100
AcDbArc
 50
0.55031
 51
0.738344
  0
ARC
  5
4CD
100
AcDbEntity
  8
LAY-2
  6
CONTINUOUS
 62
     2
100
AcDbCircle
 10
-139.341145
 20
299.709179
 30
0.0
 40
301.634605
100
AcDbArc
 50
0.416048
 51
0.550315
  0
ARC
  5
4CE
100
AcDbEntity
  8
LAY-2
  6
CONTINUOUS
 62
     2
100
AcDbCircle
 10
-340.595533
 20
298.247736
 30
0.0
 40
502.894298
100
AcDbArc
 50
0.33551
 51
0.416051
  0
ARC
  5
4CF
100
AcDbEntity
  8
LAY-2
  6
CONTINUOUS
 62
     2
100
AcDbCircle
 10
-1346.627823
 20
292.356552
 30
0.0
 40
1508.943838
100
AcDbArc
 50
0.308667
 51
0.335511
  0
ARC
  5
4D0
100
AcDbEntity
  8
LAY-2
  6
CONTINUOUS
 62
     2
100
AcDbCircle
 10
159.383595
 20
313.375959
 30
0.0
 40
1.349058
100
AcDbArc
 50
290.804109
 51
291.439786
  0
ARC
  5
4D1
100
AcDbEntity
  8
LAY-2
  6
CONTINUOUS
 62
     2
100
AcDbCircle
 10
159.714978
 20
312.532094
 30
0.0
 40
0.442459
100
AcDbArc
 50
291.439786
 51
293.364685
  0
ARC
  5
4D2
100
AcDbEntity
  8
LAY-2
  6
CONTINUOUS
 62
     2
100
AcDbCircle
 10
159.78928
 20
312.3601
 30
0.0
 40
0.255102
100
AcDbArc
 50
293.364685
 51
296.662365
  0
ARC
  5
4D3
100
AcDbEntity
  8
LAY-2
  6
CONTINUOUS
 62
     2
100
AcDbCircle
 10
159.825553
 20
312.287861
 30
0.0
 40
0.174267
100
AcDbArc
 50
296.662365
 51
301.419171
  0
ARC
  5
4D4
100
AcDbEntity
  8
LAY-2
  6
CONTINUOUS
 62
     2
100
AcDbCircle
 10
159.848447
 20
312.250384
 30
0.0
 40
0.130351
100
AcDbArc
 50
301.419171
 51
307.703358
  0
ARC
  5
4D5
100
AcDbEntity
  8
LAY-2
  6
CONTINUOUS
 62
     2
100
AcDbCircle
 10
159.853815
 20
312.24344
 30
0.0
 40
0.121573
100
AcDbArc
 50
307.703358
 51
317.478229
  0
ARC
  5
4D6
100
AcDbEntity
  8
LAY-2
  6
CONTINUOUS
 62
     2
100
AcDbCircle
 10
159.805762
 20
312.287505
 30
0.0
 40
0.186772
100
AcDbArc
 50
317.478229
 51
323.936221
  0
ARC
  5
4D7
100
AcDbEntity
  8
LAY-2
  6
CONTINUOUS
 62
     2
100
AcDbCircle
 10
159.777938
 20
312.307768
 30
0.0
 40
0.221193
100
AcDbArc
 50
323.936221
 51
329.501009
  0
ARC
  5
4D8
100
AcDbEntity
  8
LAY-2
  6
CONTINUOUS
 62
     2
100
AcDbCircle
 10
159.556774
 20
312.438039
 30
0.0
 40
0.477871
100
AcDbArc
 50
329.501009
 51
332.114299
  0
ARC
  5
4D9
100
AcDbEntity
  8
LAY-2
  6
CONTINUOUS
 62
     2
100
AcDbCircle
 10
159.458833
 20
312.489864
 30
0.0
 40
0.588679
100
AcDbArc
 50
332.114299
 51
334.241596
  0
ARC
  5
4DA
100
AcDbEntity
  8
LAY-2
  6
CONTINUOUS
 62
     2
100
AcDbCircle
 10
154.348748
 20
314.955601
 30
0.0
 40
6.262551
100
AcDbArc
 50
334.241596
 51
334.520305
  0
ARC
  5
4DB
100
AcDbEntity
  8
LAY-2
  6
CONTINUOUS
 62
     2
100
AcDbCircle
 10
159.250972
 20
312.619492
 30
0.0
 40
0.832154
100
AcDbArc
 50
334.520305
 51
336.589556
  0
ARC
  5
4DC
100
AcDbEntity
  8
LAY-2
  6
CONTINUOUS
 62
     2
100
AcDbCircle
 10
156.478982
 20
313.819639
 30
0.0
 40
3.852797
100
AcDbArc
 50
336.589556
 51
337.032353
  0
ARC
  5
4DD
100
AcDbEntity
  8
LAY-2
  6
CONTINUOUS
 62
     2
100
AcDbCircle
 10
159.317104
 20
312.616819
 30
0.0
 40
0.770313
100
AcDbArc
 50
337.032353
 51
339.23683
  0
ARC
  5
4DE
100
AcDbEntity
  8
LAY-2
  6
CONTINUOUS
 62
     2
100
AcDbCircle
 10
157.120073
 20
313.449777
 30
0.0
 40
3.119942
100
AcDbArc
 50
339.23683
 51
339.781086
  0
ARC
  5
4DF
100
AcDbEntity
  8
LAY-2
  6
CONTINUOUS
 62
     2
100
AcDbCircle
 10
159.362303
 20
312.623956
 30
0.0
 40
0.730471
100
AcDbArc
 50
339.781086
 51
341.730349
  0
ARC
  5
4E0
100
AcDbEntity
  8
LAY-2
  6
CONTINUOUS
 62
     2
100
AcDbCircle
 10
158.394613
 20
312.957856
 30
0.0
 40
1.754109
100
AcDbArc
 50
341.282597
 51
342.097111
  0
ARC
  5
4E1
100
AcDbEntity
  8
LAY-2
  6
CONTINUOUS
 62
     2
100
AcDbCircle
 10
157.705101
 20
313.180601
 30
0.0
 40
2.478707
100
AcDbArc
 50
342.097111
 51
342.675107
  0
ARC
  5
4E2
100
AcDbEntity
  8
LAY-2
  6
CONTINUOUS
 62
     2
100
AcDbCircle
 10
156.11106
 20
313.677849
 30
0.0
 40
4.148504
100
AcDbArc
 50
342.675107
 51
343.021116
  0
ARC
  5
4E3
100
AcDbEntity
  8
LAY-2
  6
CONTINUOUS
 62
     2
100
AcDbCircle
 10
148.093219
 20
316.125919
 30
0.0
 40
12.531751
100
AcDbArc
 50
343.021116
 51
343.135771
  0
POLYLINE
  5
4E4
100
AcDbEntity
  8
LAY-2
  6
EXLTYPE3
 62
     6
100
AcDb2dPolyline
 66
     1
 10
0.0
 20
0.0
 30
0.0
 70
   128
  0
VERTEX
  5
4E5
100
AcDbEntity
  8
LAY-2
  6
EXLTYPE3
 62
     6
100
AcDbVertex
100
AcDb2dVertex
 10
48.8
 20
402.731067
 30
0.0
  0
VERTEX
  5
4E6
100
AcDbEntity
  8
LAY-2
  6
EXLTYPE3
 62
     6
100
AcDbVertex
100
AcDb2dVertex
 10
159.862745
 20
402.731067
 30
0.0
  0
VERTEX
  5
4E7
100
AcDbEntity
  8
LAY-2
  6
EXLTYPE3
 62
     6
100
AcDbVertex
100
AcDb2dVertex
 10
247.0
 20
402.731067
 30
0.0
  0
SEQEND
  5
4E8
100
AcDbEntity
  8
LAY-2
  6
EXLTYPE3
 62
     6
  0
ARC
  5
4E9
100
AcDbEntity
  8
LAY-2
  6
CONTINUOUS
 62
     2
100
AcDbCircle
 10
58.0
 20
402.731067
 30
0.0
 40
5.0
100
AcDbArc
 50
90.0
 51
270.0
  0
LINE
  5
4EA
100
AcDbEntity
  8
LAY-2
  6
CONTINUOUS
 62
     2
100
AcDbLine
 10
135.745098
 20
407.731067
 30
0.0
 11
58.0
 21
407.731067
 31
0.0
  0
LINE
  5
4EB
100
AcDbEntity
  8
LAY-2
  6
CONTINUOUS
 62
     2
100
AcDbLine
 10
136.529412
 20
397.731067
 30
0.0
 11
58.0
 21
397.731067
 31
0.0
  0
LINE
  5
4EC
100
AcDbEntity
  8
LAY-2
  6
CONTINUOUS
 62
     2
100
AcDbLine
 10
238.0
 20
407.731067
 30
0.0
 11
160.254902
 21
407.731067
 31
0.0
  0
LINE
  5
4ED
100
AcDbEntity
  8
LAY-2
  6
CONTINUOUS
 62
     2
100
AcDbLine
 10
238.0
 20
397.731067
 30
0.0
 11
159.470588
 21
397.731067
 31
0.0
  0
ARC
  5
4EE
100
AcDbEntity
  8
LAY-2
  6
CONTINUOUS
 62
     2
100
AcDbCircle
 10
238.0
 20
402.731067
 30
0.0
 40
5.0
100
AcDbArc
 50
270.0
 51
90.0
  0
LINE
  5
4EF
100
AcDbEntity
  8
LAY-2
  6
EXLTYPE3
 62
     6
100
AcDbLine
 10
93.0
 20
171.115582
 30
0.0
 11
203.0
 21
171.115582
 31
0.0
  0
ARC
  5
4F0
100
AcDbEntity
  8
LAY-2
  6
EXLTYPE3
 62
     6
100
AcDbCircle
 10
93.0
 20
206.115582
 30
0.0
 40
35.0
100
AcDbArc
 50
151.48162
 51
270.0
  0
LINE
  5
4F1
100
AcDbEntity
  8
LAY-2
  6
EXLTYPE3
 62
     6
100
AcDbLine
 10
108.798372
 20
308.497859
 30
0.0
 11
62.24676
 21
222.826004
 31
0.0
  0
ARC
  5
4F2
100
AcDbEntity
  8
LAY-2
  6
EXLTYPE3
 62
     6
100
AcDbCircle
 10
134.582831
 20
293.115582
 30
0.0
 40
30.0
100
AcDbArc
 50
90.0
 51
151.48162
  0
LINE
  5
4F3
100
AcDbEntity
  8
LAY-2
  6
EXLTYPE3
 62
     6
100
AcDbLine
 10
134.582831
 20
323.115582
 30
0.0
 11
161.417169
 21
323.115582
 31
0.0
  0
ARC
  5
4F4
100
AcDbEntity
  8
LAY-2
  6
EXLTYPE3
 62
     6
100
AcDbCircle
 10
161.417169
 20
293.115582
 30
0.0
 40
30.0
100
AcDbArc
 50
28.51838
 51
90.0
  0
LINE
  5
4F5
100
AcDbEntity
  8
LAY-2
  6
EXLTYPE3
 62
     6
100
AcDbLine
 10
187.478373
 20
307.988548
 30
0.0
 11
233.75324
 21
222.826004
 31
0.0
  0
ARC
  5
4F6
100
AcDbEntity
  8
LAY-2
  6
EXLTYPE3
 62
     6
100
AcDbCircle
 10
203.0
 20
206.115582
 30
0.0
 40
35.0
100
AcDbArc
 50
270.0
 51
28.51838
  0
ARC
  5
4F7
100
AcDbEntity
  8
LAY-2
  6
CONTINUOUS
 62
     2
100
AcDbCircle
 10
161.417169
 20
293.111164
 30
0.0
 40
25.0
100
AcDbArc
 50
28.51838
 51
72.489445
  0
ARC
  5
4F8
100
AcDbEntity
  8
LAY-2
  6
CONTINUOUS
 62
     2
100
AcDbCircle
 10
161.417169
 20
293.111164
 30
0.0
 40
25.0
100
AcDbArc
 50
72.489445
 51
90.0
  0
ARC
  5
4F9
100
AcDbEntity
  8
LAY-2
  6
CONTINUOUS
 62
     2
100
AcDbCircle
 10
161.417169
 20
293.111164
 30
0.0
 40
35.0
100
AcDbArc
 50
73.355155
 51
90.0
  0
ARC
  5
4FA
100
AcDbEntity
  8
LAY-2
  6
CONTINUOUS
 62
     2
100
AcDbCircle
 10
161.417169
 20
293.111164
 30
0.0
 40
35.0
100
AcDbArc
 50
28.51838
 51
73.355155
  0
ARC
  5
4FB
100
AcDbEntity
  8
LAY-2
  6
CONTINUOUS
 62
     2
100
AcDbCircle
 10
134.582831
 20
293.111164
 30
0.0
 40
35.0
100
AcDbArc
 50
90.0
 51
151.48162
  0
ARC
  5
4FC
100
AcDbEntity
  8
LAY-2
  6
CONTINUOUS
 62
     2
100
AcDbCircle
 10
134.582831
 20
293.111164
 30
0.0
 40
25.0
100
AcDbArc
 50
90.0
 51
151.48162
  0
ARC
  5
4FD
100
AcDbEntity
  8
LAY-2
  6
CONTINUOUS
 62
     2
100
AcDbCircle
 10
99.115909
 20
327.981511
 30
0.0
 40
37.746567
100
AcDbArc
 50
4.073009
 51
4.658955
  0
ARC
  5
4FE
100
AcDbEntity
  8
LAY-2
  6
CONTINUOUS
 62
     2
100
AcDbCircle
 10
194.25585
 20
322.587788
 30
0.0
 40
58.704857
100
AcDbArc
 50
174.478599
 51
174.601215
  0
ARC
  5
4FF
100
AcDbEntity
  8
LAY-2
  6
CONTINUOUS
 62
     2
100
AcDbCircle
 10
155.415654
 20
326.342233
 30
0.0
 40
19.683623
100
AcDbArc
 50
174.111948
 51
174.478359
  0
ARC
  5
500
100
AcDbEntity
  8
LAY-2
  6
CONTINUOUS
 62
     2
100
AcDbCircle
 10
147.72415
 20
327.13535
 30
0.0
 40
11.951336
100
AcDbArc
 50
173.505597
 51
174.111464
  0
ARC
  5
501
100
AcDbEntity
  8
LAY-2
  6
CONTINUOUS
 62
     2
100
AcDbCircle
 10
144.486594
 20
327.503791
 30
0.0
 40
8.692883
100
AcDbArc
 50
172.666839
 51
173.504863
  0
ARC
  5
502
100
AcDbEntity
  8
LAY-2
  6
CONTINUOUS
 62
     2
100
AcDbCircle
 10
142.699403
 20
327.73385
 30
0.0
 40
6.890945
100
AcDbArc
 50
170.777865
 51
172.667363
  0
ARC
  5
503
100
AcDbEntity
  8
LAY-2
  6
CONTINUOUS
 62
     2
100
AcDbCircle
 10
147.180148
 20
327.012989
 30
0.0
 40
11.429303
100
AcDbArc
 50
170.314536
 51
170.810711
  0
ARC
  5
504
100
AcDbEntity
  8
LAY-2
  6
CONTINUOUS
 62
     2
100
AcDbCircle
 10
158.492703
 20
325.082346
 30
0.0
 40
22.90542
100
AcDbArc
 50
170.069598
 51
170.314766
  0
ARC
  5
505
100
AcDbEntity
  8
LAY-2
  6
CONTINUOUS
 62
     2
100
AcDbCircle
 10
-403.047474
 20
423.403053
 30
0.0
 40
547.17732
100
AcDbArc
 50
350.06865
 51
350.078718
  0
ARC
  5
506
100
AcDbEntity
  8
LAY-2
  6
CONTINUOUS
 62
     2
100
AcDbCircle
 10
117.132004
 20
332.418086
 30
0.0
 40
19.100665
100
AcDbArc
 50
350.078718
 51
350.358847
  0
ARC
  5
507
100
AcDbEntity
  8
LAY-2
  6
CONTINUOUS
 62
     2
100
AcDbCircle
 10
140.824197
 20
328.409529
 30
0.0
 40
4.928265
100
AcDbArc
 50
169.87878
 51
170.544343
  0
ARC
  5
508
100
AcDbEntity
  8
LAY-2
  6
CONTINUOUS
 62
     2
100
AcDbCircle
 10
137.265448
 20
329.0445
 30
0.0
 40
1.313312
100
AcDbArc
 50
167.36108
 51
169.865961
  0
ARC
  5
509
100
AcDbEntity
  8
LAY-2
  6
CONTINUOUS
 62
     2
100
AcDbCircle
 10
136.806583
 20
329.146817
 30
0.0
 40
0.84318
100
AcDbArc
 50
163.28958
 51
167.322676
  0
ARC
  5
50A
100
AcDbEntity
  8
LAY-2
  6
CONTINUOUS
 62
     2
100
AcDbCircle
 10
136.699621
 20
329.1781
 30
0.0
 40
0.73174
100
AcDbArc
 50
150.276257
 51
163.227441
  0
ARC
  5
50B
100
AcDbEntity
  8
LAY-2
  6
CONTINUOUS
 62
     2
100
AcDbCircle
 10
136.380472
 20
329.359399
 30
0.0
 40
0.364692
100
AcDbArc
 50
145.172403
 51
150.151422
  0
ARC
  5
50C
100
AcDbEntity
  8
LAY-2
  6
CONTINUOUS
 62
     2
100
AcDbCircle
 10
136.239143
 20
329.458559
 30
0.0
 40
0.192049
100
AcDbArc
 50
136.78047
 51
145.376327
  0
ARC
  5
50D
100
AcDbEntity
  8
LAY-2
  6
CONTINUOUS
 62
     2
100
AcDbCircle
 10
136.163028
 20
329.53108
 30
0.0
 40
0.086923
100
AcDbArc
 50
121.174554
 51
137.258531
  0
ARC
  5
50E
100
AcDbEntity
  8
LAY-2
  6
CONTINUOUS
 62
     2
100
AcDbCircle
 10
136.138265
 20
329.572574
 30
0.0
 40
0.038603
100
AcDbArc
 50
91.499391
 51
121.608108
  0
ARC
  5
50F
100
AcDbEntity
  8
LAY-2
  6
CONTINUOUS
 62
     2
100
AcDbCircle
 10
136.136244
 20
329.572575
 30
0.0
 40
0.038602
100
AcDbArc
 50
58.391086
 51
88.500041
  0
ARC
  5
510
100
AcDbEntity
  8
LAY-2
  6
CONTINUOUS
 62
     2
100
AcDbCircle
 10
136.11148
 20
329.53108
 30
0.0
 40
0.086923
100
AcDbArc
 50
42.740733
 51
58.824599
  0
ARC
  5
511
100
AcDbEntity
  8
LAY-2
  6
CONTINUOUS
 62
     2
100
AcDbCircle
 10
136.035357
 20
329.458553
 30
0.0
 40
0.192059
100
AcDbArc
 50
34.623464
 51
43.218804
  0
ARC
  5
512
100
AcDbEntity
  8
LAY-2
  6
CONTINUOUS
 62
     2
100
AcDbCircle
 10
135.893984
 20
329.359364
 30
0.0
 40
0.364756
100
AcDbArc
 50
29.849248
 51
34.827386
  0
ARC
  5
513
100
AcDbEntity
  8
LAY-2
  6
CONTINUOUS
 62
     2
100
AcDbCircle
 10
135.672618
 20
329.23129
 30
0.0
 40
0.6205
100
AcDbArc
 50
26.940192
 51
29.93281
  0
ARC
  5
514
100
AcDbEntity
  8
LAY-2
  6
CONTINUOUS
 62
     2
100
AcDbCircle
 10
135.555377
 20
329.169157
 30
0.0
 40
0.753171
100
AcDbArc
 50
21.813787
 51
27.113099
  0
ARC
  5
515
100
AcDbEntity
  8
LAY-2
  6
CONTINUOUS
 62
     2
100
AcDbCircle
 10
135.579869
 20
329.179647
 30
0.0
 40
0.726536
100
AcDbArc
 50
16.76908
 51
21.7635
  0
ARC
  5
516
100
AcDbEntity
  8
LAY-2
  6
CONTINUOUS
 62
     2
100
AcDbCircle
 10
135.468703
 20
329.146969
 30
0.0
 40
0.842402
100
AcDbArc
 50
12.678874
 51
16.715684
  0
ARC
  5
517
100
AcDbEntity
  8
LAY-2
  6
CONTINUOUS
 62
     2
100
AcDbCircle
 10
135.012909
 20
329.045329
 30
0.0
 40
1.309391
100
AcDbArc
 50
10.128054
 51
12.640451
  0
ARC
  5
518
100
AcDbEntity
  8
LAY-2
  6
CONTINUOUS
 62
     2
100
AcDbCircle
 10
131.527883
 20
328.423897
 30
0.0
 40
4.849389
100
AcDbArc
 50
9.438771
 51
10.115177
  0
ARC
  5
519
100
AcDbEntity
  8
LAY-2
  6
CONTINUOUS
 62
     2
100
AcDbCircle
 10
155.575859
 20
332.484475
 30
0.0
 40
19.539018
100
AcDbArc
 50
189.620259
 51
189.894119
  0
ARC
  5
51A
100
AcDbEntity
  8
LAY-2
  6
CONTINUOUS
 62
     2
100
AcDbCircle
 10
668.220564
 20
421.901078
 30
0.0
 40
539.923417
100
AcDbArc
 50
189.894119
 51
189.904323
  0
ARC
  5
51B
100
AcDbEntity
  8
LAY-2
  6
CONTINUOUS
 62
     2
100
AcDbCircle
 10
111.857975
 20
324.756418
 30
0.0
 40
24.856554
100
AcDbArc
 50
9.679727
 51
9.905658
  0
ARC
  5
51C
100
AcDbEntity
  8
LAY-2
  6
CONTINUOUS
 62
     2
100
AcDbCircle
 10
124.273298
 20
326.874041
 30
0.0
 40
12.261929
100
AcDbArc
 50
9.217468
 51
9.679939
  0
ARC
  5
51D
100
AcDbEntity
  8
LAY-2
  6
CONTINUOUS
 62
     2
100
AcDbCircle
 10
128.464671
 20
327.554026
 30
0.0
 40
8.015756
100
AcDbArc
 50
8.510829
 51
9.218743
  0
ARC
  5
51E
100
AcDbEntity
  8
LAY-2
  6
CONTINUOUS
 62
     2
100
AcDbCircle
 10
129.233944
 20
327.673528
 30
0.0
 40
7.23727
100
AcDbArc
 50
7.428731
 51
8.476501
  0
ARC
  5
51F
100
AcDbEntity
  8
LAY-2
  6
CONTINUOUS
 62
     2
100
AcDbCircle
 10
127.916942
 20
327.501958
 30
0.0
 40
8.5654
100
AcDbArc
 50
6.549876
 51
7.427732
  0
ARC
  5
520
100
AcDbEntity
  8
LAY-2
  6
CONTINUOUS
 62
     2
100
AcDbCircle
 10
125.776481
 20
327.25634
 30
0.0
 40
10.719907
100
AcDbArc
 50
5.851755
 51
6.549108
  0
ARC
  5
521
100
AcDbEntity
  8
LAY-2
  6
CONTINUOUS
 62
     2
100
AcDbCircle
 10
121.880518
 20
326.857183
 30
0.0
 40
14.636265
100
AcDbArc
 50
5.342141
 51
5.851226
  0
ARC
  5
522
100
AcDbEntity
  8
LAY-2
  6
CONTINUOUS
 62
     2
100
AcDbCircle
 10
112.989812
 20
326.02594
 30
0.0
 40
23.565745
100
AcDbArc
 50
5.025925
 51
5.341852
  0
ARC
  5
523
100
AcDbEntity
  8
LAY-2
  6
CONTINUOUS
 62
     2
100
AcDbCircle
 10
101.110998
 20
324.973494
 30
0.0
 40
35.491089
100
AcDbArc
 50
4.481197
 51
5.038418
  0
ARC
  5
524
100
AcDbEntity
  8
LAY-2
  6
CONTINUOUS
 62
     2
100
AcDbCircle
 10
98.131147
 20
324.739841
 30
0.0
 40
38.480086
100
AcDbArc
 50
3.9658
 51
4.481371
  0
ARC
  5
525
100
AcDbEntity
  8
LAY-2
  6
CONTINUOUS
 62
     2
100
AcDbCircle
 10
94.841873
 20
324.511693
 30
0.0
 40
41.777263
100
AcDbArc
 50
3.490063
 51
3.965954
  0
ARC
  5
526
100
AcDbEntity
  8
LAY-2
  6
CONTINUOUS
 62
     2
100
AcDbCircle
 10
91.179208
 20
324.288207
 30
0.0
 40
45.44674
100
AcDbArc
 50
3.052261
 51
3.490196
  0
ARC
  5
527
100
AcDbEntity
  8
LAY-2
  6
CONTINUOUS
 62
     2
100
AcDbCircle
 10
87.056839
 20
324.068293
 30
0.0
 40
49.57497
100
AcDbArc
 50
2.650908
 51
3.052375
  0
ARC
  5
528
100
AcDbEntity
  8
LAY-2
  6
CONTINUOUS
 62
     2
100
AcDbCircle
 10
82.702748
 20
323.866775
 30
0.0
 40
53.933723
100
AcDbArc
 50
2.199379
 51
2.650827
  0
ARC
  5
529
100
AcDbEntity
  8
LAY-2
  6
CONTINUOUS
 62
     2
100
AcDbCircle
 10
77.911894
 20
323.682829
 30
0.0
 40
58.728107
100
AcDbArc
 50
1.785133
 51
2.199332
  0
ARC
  5
52A
100
AcDbEntity
  8
LAY-2
  6
CONTINUOUS
 62
     2
100
AcDbCircle
 10
72.062139
 20
323.500556
 30
0.0
 40
64.5807
100
AcDbArc
 50
1.408654
 51
1.785094
  0
ARC
  5
52B
100
AcDbEntity
  8
LAY-2
  6
CONTINUOUS
 62
     2
100
AcDbCircle
 10
64.792533
 20
323.321832
 30
0.0
 40
71.852504
100
AcDbArc
 50
1.070363
 51
1.408622
  0
ARC
  5
52C
100
AcDbEntity
  8
LAY-2
  6
CONTINUOUS
 62
     2
100
AcDbCircle
 10
55.554307
 20
323.149265
 30
0.0
 40
81.092341
100
AcDbArc
 50
0.770595
 51
1.070338
  0
ARC
  5
52D
100
AcDbEntity
  8
LAY-2
  6
CONTINUOUS
 62
     2
100
AcDbCircle
 10
51.172316
 20
323.084819
 30
0.0
 40
85.474803
100
AcDbArc
 50
0.320343
 51
0.774286
  0
ARC
  5
52E
100
AcDbEntity
  8
LAY-2
  6
CONTINUOUS
 62
     2
100
AcDbCircle
 10
54.235517
 20
323.104629
 30
0.0
 40
82.411538
100
AcDbArc
 50
359.847583
 51
0.318478
  0
ARC
  5
52F
100
AcDbEntity
  8
LAY-2
  6
CONTINUOUS
 62
     2
100
AcDbCircle
 10
56.132297
 20
323.10153
 30
0.0
 40
80.514757
100
AcDbArc
 50
358.73624
 51
359.846197
  0
ARC
  5
530
100
AcDbEntity
  8
LAY-2
  6
CONTINUOUS
 62
     2
100
AcDbCircle
 10
65.154684
 20
322.926414
 30
0.0
 40
71.490707
100
AcDbArc
 50
358.541607
 51
358.717074
  0
ARC
  5
531
100
AcDbEntity
  8
LAY-2
  6
CONTINUOUS
 62
     2
100
AcDbCircle
 10
67.441452
 20
322.868195
 30
0.0
 40
69.203198
100
AcDbArc
 50
358.360329
 51
358.541606
  0
ARC
  5
532
100
AcDbEntity
  8
LAY-2
  6
CONTINUOUS
 62
     2
100
AcDbCircle
 10
70.225492
 20
322.788035
 30
0.0
 40
66.418004
100
AcDbArc
 50
358.006113
 51
358.360731
  0
ARC
  5
533
100
AcDbEntity
  8
LAY-2
  6
CONTINUOUS
 62
     2
100
AcDbCircle
 10
74.011458
 20
322.65816
 30
0.0
 40
62.629811
100
AcDbArc
 50
357.628328
 51
358.004349
  0
ARC
  5
534
100
AcDbEntity
  8
LAY-2
  6
CONTINUOUS
 62
     2
100
AcDbCircle
 10
76.89672
 20
322.541015
 30
0.0
 40
59.742173
100
AcDbArc
 50
357.429024
 51
357.626073
  0
ARC
  5
535
100
AcDbEntity
  8
LAY-2
  6
CONTINUOUS
 62
     2
100
AcDbCircle
 10
82.08726
 20
322.306086
 30
0.0
 40
54.54632
100
AcDbArc
 50
357.235787
 51
357.430978
  0
ARC
  5
536
100
AcDbEntity
  8
LAY-2
  6
CONTINUOUS
 62
     2
100
AcDbCircle
 10
89.104023
 20
321.967311
 30
0.0
 40
47.521383
100
AcDbArc
 50
357.01173
 51
357.235775
  0
ARC
  5
537
100
AcDbEntity
  8
LAY-2
  6
CONTINUOUS
 62
     2
100
AcDbCircle
 10
94.483472
 20
321.686501
 30
0.0
 40
42.13461
100
AcDbArc
 50
356.758971
 51
357.011715
  0
ARC
  5
538
100
AcDbEntity
  8
LAY-2
  6
CONTINUOUS
 62
     2
100
AcDbCircle
 10
98.729755
 20
321.446059
 30
0.0
 40
37.881525
100
AcDbArc
 50
356.477707
 51
356.758953
  0
ARC
  5
539
100
AcDbEntity
  8
LAY-2
  6
CONTINUOUS
 62
     2
100
AcDbCircle
 10
102.158903
 20
321.234997
 30
0.0
 40
34.445888
100
AcDbArc
 50
356.168176
 51
356.477685
  0
ARC
  5
53A
100
AcDbEntity
  8
LAY-2
  6
CONTINUOUS
 62
     2
100
AcDbCircle
 10
102.894156
 20
321.187722
 30
0.0
 40
33.70912
100
AcDbArc
 50
355.891208
 51
356.164835
  0
ARC
  5
53B
100
AcDbEntity
  8
LAY-2
  6
CONTINUOUS
 62
     2
100
AcDbCircle
 10
101.390533
 20
321.295702
 30
0.0
 40
35.216615
100
AcDbArc
 50
355.629346
 51
355.891262
  0
ARC
  5
53C
100
AcDbEntity
  8
LAY-2
  6
CONTINUOUS
 62
     2
100
AcDbCircle
 10
99.866429
 20
321.412158
 30
0.0
 40
36.745161
100
AcDbArc
 50
355.378574
 51
355.629396
  0
ARC
  5
53D
100
AcDbEntity
  8
LAY-2
  6
CONTINUOUS
 62
     2
100
AcDbCircle
 10
98.322889
 20
321.536899
 30
0.0
 40
38.293734
100
AcDbArc
 50
355.138324
 51
355.378619
  0
ARC
  5
53E
100
AcDbEntity
  8
LAY-2
  6
CONTINUOUS
 62
     2
100
AcDbCircle
 10
96.760781
 20
321.669737
 30
0.0
 40
39.86148
100
AcDbArc
 50
354.908075
 51
355.138366
  0
ARC
  5
53F
100
AcDbEntity
  8
LAY-2
  6
CONTINUOUS
 62
     2
100
AcDbCircle
 10
110.468693
 20
320.440149
 30
0.0
 40
26.098535
100
AcDbArc
 50
354.64032
 51
354.925869
  0
ARC
  5
540
100
AcDbEntity
  8
LAY-2
  6
CONTINUOUS
 62
     2
100
AcDbCircle
 10
121.253455
 20
319.428415
 30
0.0
 40
15.266421
100
AcDbArc
 50
354.151877
 51
354.640058
  0
ARC
  5
541
100
AcDbEntity
  8
LAY-2
  6
CONTINUOUS
 62
     2
100
AcDbCircle
 10
125.602846
 20
318.983032
 30
0.0
 40
10.894285
100
AcDbArc
 50
353.465331
 51
354.151335
  0
ARC
  5
542
100
AcDbEntity
  8
LAY-2
  6
CONTINUOUS
 62
     2
100
AcDbCircle
 10
127.899671
 20
318.720058
 30
0.0
 40
8.582455
100
AcDbArc
 50
352.588837
 51
353.464512
  0
ARC
  5
543
100
AcDbEntity
  8
LAY-2
  6
CONTINUOUS
 62
     2
100
AcDbCircle
 10
129.268329
 20
318.542215
 30
0.0
 40
7.202291
100
AcDbArc
 50
350.747288
 51
352.587367
  0
ARC
  5
544
100
AcDbEntity
  8
LAY-2
  6
CONTINUOUS
 62
     2
100
AcDbCircle
 10
124.379259
 20
319.330384
 30
0.0
 40
12.15448
100
AcDbArc
 50
350.319389
 51
350.785926
  0
ARC
  5
545
100
AcDbEntity
  8
LAY-2
  6
CONTINUOUS
 62
     2
100
AcDbCircle
 10
112.099354
 20
321.425051
 30
0.0
 40
24.611755
100
AcDbArc
 50
350.091423
 51
350.319617
  0
ARC
  5
546
100
AcDbEntity
  8
LAY-2
  6
CONTINUOUS
 62
     2
100
AcDbCircle
 10
520.435794
 20
250.089706
 30
0.0
 40
389.908908
100
AcDbArc
 50
170.09052
 51
170.104651
  0
ARC
  5
547
100
AcDbEntity
  8
LAY-2
  6
CONTINUOUS
 62
     2
100
AcDbCircle
 10
155.808732
 20
313.696813
 30
0.0
 40
19.775474
100
AcDbArc
 50
170.104651
 51
170.375264
  0
ARC
  5
548
100
AcDbEntity
  8
LAY-2
  6
CONTINUOUS
 62
     2
100
AcDbCircle
 10
131.518339
 20
317.800191
 30
0.0
 40
4.859092
100
AcDbArc
 50
349.884113
 51
350.559202
  0
ARC
  5
549
100
AcDbEntity
  8
LAY-2
  6
CONTINUOUS
 62
     2
100
AcDbCircle
 10
135.012454
 20
317.177093
 30
0.0
 40
1.309855
100
AcDbArc
 50
347.359724
 51
349.871257
  0
ARC
  5
54A
100
AcDbEntity
  8
LAY-2
  6
CONTINUOUS
 62
     2
100
AcDbCircle
 10
135.468651
 20
317.075363
 30
0.0
 40
0.842453
100
AcDbArc
 50
343.284791
 51
347.321298
  0
ARC
  5
54B
100
AcDbEntity
  8
LAY-2
  6
CONTINUOUS
 62
     2
100
AcDbCircle
 10
135.574763
 20
317.04433
 30
0.0
 40
0.731899
100
AcDbArc
 50
330.274165
 51
343.22235
  0
ARC
  5
54C
100
AcDbEntity
  8
LAY-2
  6
CONTINUOUS
 62
     2
100
AcDbCircle
 10
135.893986
 20
316.862962
 30
0.0
 40
0.364754
100
AcDbArc
 50
325.172608
 51
330.150769
  0
ARC
  5
54D
100
AcDbEntity
  8
LAY-2
  6
CONTINUOUS
 62
     2
100
AcDbCircle
 10
136.035356
 20
316.763775
 30
0.0
 40
0.19206
100
AcDbArc
 50
316.781218
 51
325.376528
  0
ARC
  5
54E
100
AcDbEntity
  8
LAY-2
  6
CONTINUOUS
 62
     2
100
AcDbCircle
 10
136.11148
 20
316.691248
 30
0.0
 40
0.086924
100
AcDbArc
 50
301.175528
 51
317.259287
  0
ARC
  5
54F
100
AcDbEntity
  8
LAY-2
  6
CONTINUOUS
 62
     2
100
AcDbCircle
 10
136.136244
 20
316.649753
 30
0.0
 40
0.038602
100
AcDbArc
 50
271.500216
 51
301.609063
  0
ARC
  5
550
100
AcDbEntity
  8
LAY-2
  6
CONTINUOUS
 62
     2
100
AcDbCircle
 10
136.138265
 20
316.649753
 30
0.0
 40
0.038602
100
AcDbArc
 50
238.392002
 51
268.500856
  0
ARC
  5
551
100
AcDbEntity
  8
LAY-2
  6
CONTINUOUS
 62
     2
100
AcDbCircle
 10
136.163028
 20
316.691247
 30
0.0
 40
0.086922
100
AcDbArc
 50
222.741461
 51
238.825542
  0
ARC
  5
552
100
AcDbEntity
  8
LAY-2
  6
CONTINUOUS
 62
     2
100
AcDbCircle
 10
136.239142
 20
316.763767
 30
0.0
 40
0.192048
100
AcDbArc
 50
214.623623
 51
223.219525
  0
ARC
  5
553
100
AcDbEntity
  8
LAY-2
  6
CONTINUOUS
 62
     2
100
AcDbCircle
 10
136.380471
 20
316.862927
 30
0.0
 40
0.364691
100
AcDbArc
 50
209.848515
 51
214.827549
  0
ARC
  5
554
100
AcDbEntity
  8
LAY-2
  6
CONTINUOUS
 62
     2
100
AcDbCircle
 10
136.601649
 20
316.990889
 30
0.0
 40
0.620217
100
AcDbArc
 50
206.938117
 51
209.932095
  0
ARC
  5
555
100
AcDbEntity
  8
LAY-2
  6
CONTINUOUS
 62
     2
100
AcDbCircle
 10
136.718778
 20
317.052955
 30
0.0
 40
0.752758
100
AcDbArc
 50
201.808622
 51
207.110816
  0
ARC
  5
556
100
AcDbEntity
  8
LAY-2
  6
CONTINUOUS
 62
     2
100
AcDbCircle
 10
136.694672
 20
317.042621
 30
0.0
 40
0.726538
100
AcDbArc
 50
196.763855
 51
201.758244
  0
ARC
  5
557
100
AcDbEntity
  8
LAY-2
  6
CONTINUOUS
 62
     2
100
AcDbCircle
 10
136.806586
 20
317.075511
 30
0.0
 40
0.843183
100
AcDbArc
 50
192.677341
 51
196.710422
  0
ARC
  5
558
100
AcDbEntity
  8
LAY-2
  6
CONTINUOUS
 62
     2
100
AcDbCircle
 10
137.26545
 20
317.177828
 30
0.0
 40
1.313315
100
AcDbArc
 50
190.134062
 51
192.638938
  0
ARC
  5
559
100
AcDbEntity
  8
LAY-2
  6
CONTINUOUS
 62
     2
100
AcDbCircle
 10
140.824167
 20
317.812795
 30
0.0
 40
4.928236
100
AcDbArc
 50
189.455677
 51
190.121242
  0
ARC
  5
55A
100
AcDbEntity
  8
LAY-2
  6
CONTINUOUS
 62
     2
100
AcDbCircle
 10
117.442943
 20
313.857841
 30
0.0
 40
18.785142
100
AcDbArc
 50
9.638813
 51
9.923647
  0
ARC
  5
55B
100
AcDbEntity
  8
LAY-2
  6
CONTINUOUS
 62
     2
100
AcDbCircle
 10
-879.453028
 20
139.447639
 30
0.0
 40
1030.822934
100
AcDbArc
 50
9.923647
 51
9.928991
  0
ARC
  5
55C
100
AcDbEntity
  8
LAY-2
  6
CONTINUOUS
 62
     2
100
AcDbCircle
 10
158.49229
 20
321.139909
 30
0.0
 40
22.905002
100
AcDbArc
 50
189.685229
 51
189.930402
  0
ARC
  5
55D
100
AcDbEntity
  8
LAY-2
  6
CONTINUOUS
 62
     2
100
AcDbCircle
 10
147.180113
 20
319.209331
 30
0.0
 40
11.429267
100
AcDbArc
 50
189.189282
 51
189.685459
  0
ARC
  5
55E
100
AcDbEntity
  8
LAY-2
  6
CONTINUOUS
 62
     2
100
AcDbCircle
 10
143.301761
 20
318.582099
 30
0.0
 40
7.500522
100
AcDbArc
 50
188.433986
 51
189.190632
  0
ARC
  5
55F
100
AcDbEntity
  8
LAY-2
  6
CONTINUOUS
 62
     2
100
AcDbCircle
 10
142.738581
 20
318.493703
 30
0.0
 40
6.930469
100
AcDbArc
 50
187.33415
 51
188.393989
  0
ARC
  5
560
100
AcDbEntity
  8
LAY-2
  6
CONTINUOUS
 62
     2
100
AcDbCircle
 10
144.486617
 20
318.718539
 30
0.0
 40
8.692906
100
AcDbArc
 50
186.495137
 51
187.333159
  0
ARC
  5
561
100
AcDbEntity
  8
LAY-2
  6
CONTINUOUS
 62
     2
100
AcDbCircle
 10
147.72418
 20
319.08698
 30
0.0
 40
11.951366
100
AcDbArc
 50
185.888537
 51
186.494403
  0
ARC
  5
562
100
AcDbEntity
  8
LAY-2
  6
CONTINUOUS
 62
     2
100
AcDbCircle
 10
155.415702
 20
319.880099
 30
0.0
 40
19.683672
100
AcDbArc
 50
185.521643
 51
185.888053
  0
ARC
  5
563
100
AcDbEntity
  8
LAY-2
  6
CONTINUOUS
 62
     2
100
AcDbCircle
 10
194.255992
 20
323.634555
 30
0.0
 40
58.705
100
AcDbArc
 50
185.398787
 51
185.521403
  0
ARC
  5
564
100
AcDbEntity
  8
LAY-2
  6
CONTINUOUS
 62
     2
100
AcDbCircle
 10
-233.25946
 20
391.080233
 30
0.0
 40
374.506698
100
AcDbArc
 50
350.320383
 51
350.33324
  0
ARC
  5
565
100
AcDbEntity
  8
LAY-2
  6
CONTINUOUS
 62
     2
100
AcDbCircle
 10
14.781377
 20
348.829927
 30
0.0
 40
122.893214
100
AcDbArc
 50
350.33324
 51
350.372158
  0
ARC
  5
566
100
AcDbEntity
  8
LAY-2
  6
CONTINUOUS
 62
     2
100
AcDbCircle
 10
66.261592
 20
340.096966
 30
0.0
 40
70.677536
100
AcDbArc
 50
350.372158
 51
350.438914
  0
ARC
  5
567
100
AcDbEntity
  8
LAY-2
  6
CONTINUOUS
 62
     2
100
AcDbCircle
 10
89.115835
 20
336.247424
 30
0.0
 40
47.501354
100
AcDbArc
 50
350.438914
 51
350.536202
  0
ARC
  5
568
100
AcDbEntity
  8
LAY-2
  6
CONTINUOUS
 62
     2
100
AcDbCircle
 10
102.511773
 20
334.014413
 30
0.0
 40
33.920577
100
AcDbArc
 50
350.536202
 51
350.668638
  0
ARC
  5
569
100
AcDbEntity
  8
LAY-2
  6
CONTINUOUS
 62
     2
100
AcDbCircle
 10
139.473085
 20
327.95089
 30
0.0
 40
3.534807
100
AcDbArc
 50
170.007404
 51
170.826971
  0
ARC
  5
56A
100
AcDbEntity
  8
LAY-2
  6
CONTINUOUS
 62
     2
100
AcDbCircle
 10
137.089388
 20
328.370605
 30
0.0
 40
1.114441
100
AcDbArc
 50
167.384001
 51
169.993359
  0
ARC
  5
56B
100
AcDbEntity
  8
LAY-2
  6
CONTINUOUS
 62
     2
100
AcDbCircle
 10
136.721483
 20
328.452439
 30
0.0
 40
0.737546
100
AcDbArc
 50
163.266539
 51
167.345321
  0
ARC
  5
56C
100
AcDbEntity
  8
LAY-2
  6
CONTINUOUS
 62
     2
100
AcDbCircle
 10
136.637381
 20
328.476976
 30
0.0
 40
0.64994
100
AcDbArc
 50
152.825205
 51
163.203381
  0
ARC
  5
56D
100
AcDbEntity
  8
LAY-2
  6
CONTINUOUS
 62
     2
100
AcDbCircle
 10
136.552326
 20
328.523641
 30
0.0
 40
0.552968
100
AcDbArc
 50
150.132807
 51
153.101763
  0
ARC
  5
56E
100
AcDbEntity
  8
LAY-2
  6
CONTINUOUS
 62
     2
100
AcDbCircle
 10
136.353693
 20
328.638252
 30
0.0
 40
0.323642
100
AcDbArc
 50
145.257141
 51
150.216221
  0
ARC
  5
56F
100
AcDbEntity
  8
LAY-2
  6
CONTINUOUS
 62
     2
100
AcDbCircle
 10
136.227743
 20
328.726341
 30
0.0
 40
0.169947
100
AcDbArc
 50
136.879396
 51
145.461561
  0
ARC
  5
570
100
AcDbEntity
  8
LAY-2
  6
CONTINUOUS
 62
     2
100
AcDbCircle
 10
136.160113
 20
328.790556
 30
0.0
 40
0.076692
100
AcDbArc
 50
121.266781
 51
137.360493
  0
ARC
  5
571
100
AcDbEntity
  8
LAY-2
  6
CONTINUOUS
 62
     2
100
AcDbCircle
 10
136.138147
 20
328.827233
 30
0.0
 40
0.033943
100
AcDbArc
 50
91.506638
 51
121.706038
  0
ARC
  5
572
100
AcDbEntity
  8
LAY-2
  6
CONTINUOUS
 62
     2
100
AcDbCircle
 10
136.136357
 20
328.827217
 30
0.0
 40
0.033958
100
AcDbArc
 50
58.294927
 51
88.484962
  0
ARC
  5
573
100
AcDbEntity
  8
LAY-2
  6
CONTINUOUS
 62
     2
100
AcDbCircle
 10
136.114381
 20
328.79052
 30
0.0
 40
0.076731
100
AcDbArc
 50
42.646699
 51
58.735628
  0
ARC
  5
574
100
AcDbEntity
  8
LAY-2
  6
CONTINUOUS
 62
     2
100
AcDbCircle
 10
136.046821
 20
328.726355
 30
0.0
 40
0.1699
100
AcDbArc
 50
34.542182
 51
43.127538
  0
ARC
  5
575
100
AcDbEntity
  8
LAY-2
  6
CONTINUOUS
 62
     2
100
AcDbCircle
 10
135.921346
 20
328.638584
 30
0.0
 40
0.323025
100
AcDbArc
 50
29.778214
 51
34.746531
  0
ARC
  5
576
100
AcDbEntity
  8
LAY-2
  6
CONTINUOUS
 62
     2
100
AcDbCircle
 10
135.72484
 20
328.525219
 30
0.0
 40
0.549886
100
AcDbArc
 50
26.876898
 51
29.86179
  0
ARC
  5
577
100
AcDbEntity
  8
LAY-2
  6
CONTINUOUS
 62
     2
100
AcDbCircle
 10
135.620908
 20
328.470284
 30
0.0
 40
0.667429
100
AcDbArc
 50
21.759006
 51
27.049927
  0
ARC
  5
578
100
AcDbEntity
  8
LAY-2
  6
CONTINUOUS
 62
     2
100
AcDbCircle
 10
135.643069
 20
328.479737
 30
0.0
 40
0.643343
100
AcDbArc
 50
16.719955
 51
21.708714
  0
ARC
  5
579
100
AcDbEntity
  8
LAY-2
  6
CONTINUOUS
 62
     2
100
AcDbCircle
 10
135.544897
 20
328.450974
 30
0.0
 40
0.745639
100
AcDbArc
 50
12.633526
 51
16.666437
  0
ARC
  5
57A
100
AcDbEntity
  8
LAY-2
  6
CONTINUOUS
 62
     2
100
AcDbCircle
 10
135.14089
 20
328.361219
 30
0.0
 40
1.159496
100
AcDbArc
 50
10.086417
 51
12.594969
  0
ARC
  5
57B
100
AcDbEntity
  8
LAY-2
  6
CONTINUOUS
 62
     2
100
AcDbCircle
 10
132.030578
 20
327.808936
 30
0.0
 40
4.31846
100
AcDbArc
 50
9.401923
 51
10.073518
  0
ARC
  5
57C
100
AcDbEntity
  8
LAY-2
  6
CONTINUOUS
 62
     2
100
AcDbCircle
 10
152.93455
 20
331.324596
 30
0.0
 40
16.879102
100
AcDbArc
 50
189.583797
 51
189.864189
  0
ARC
  5
57D
100
AcDbEntity
  8
LAY-2
  6
CONTINUOUS
 62
     2
100
AcDbCircle
 10
489.432002
 20
389.836104
 30
0.0
 40
358.425778
100
AcDbArc
 50
189.864189
 51
189.877786
  0
ARC
  5
57E
100
AcDbEntity
  8
LAY-2
  6
CONTINUOUS
 62
     2
100
AcDbCircle
 10
114.577035
 20
324.562654
 30
0.0
 40
22.06978
100
AcDbArc
 50
9.654049
 51
9.879152
  0
ARC
  5
57F
100
AcDbEntity
  8
LAY-2
  6
CONTINUOUS
 62
     2
100
AcDbCircle
 10
125.682345
 20
326.451712
 30
0.0
 40
10.804948
100
AcDbArc
 50
9.190017
 51
9.654268
  0
ARC
  5
580
100
AcDbEntity
  8
LAY-2
  6
CONTINUOUS
 62
     2
100
AcDbCircle
 10
129.395817
 20
327.052336
 30
0.0
 40
7.043217
100
AcDbArc
 50
8.478779
 51
9.191324
  0
ARC
  5
581
100
AcDbEntity
  8
LAY-2
  6
CONTINUOUS
 62
     2
100
AcDbCircle
 10
130.060729
 20
327.155413
 30
0.0
 40
6.370374
100
AcDbArc
 50
7.391031
 51
8.443577
  0
ARC
  5
582
100
AcDbEntity
  8
LAY-2
  6
CONTINUOUS
 62
     2
100
AcDbCircle
 10
128.83837
 20
326.996997
 30
0.0
 40
7.602956
100
AcDbArc
 50
6.515529
 51
7.389941
  0
ARC
  5
583
100
AcDbEntity
  8
LAY-2
  6
CONTINUOUS
 62
     2
100
AcDbCircle
 10
126.80103
 20
326.764451
 30
0.0
 40
9.653525
100
AcDbArc
 50
5.829895
 51
6.514707
  0
ARC
  5
584
100
AcDbEntity
  8
LAY-2
  6
CONTINUOUS
 62
     2
100
AcDbCircle
 10
122.938761
 20
326.370229
 30
0.0
 40
13.535861
100
AcDbArc
 50
5.342319
 51
5.829351
  0
ARC
  5
585
100
AcDbEntity
  8
LAY-2
  6
CONTINUOUS
 62
     2
100
AcDbCircle
 10
113.340013
 20
325.472736
 30
0.0
 40
23.176475
100
AcDbArc
 50
5.057626
 51
5.342056
  0
ARC
  5
586
100
AcDbEntity
  8
LAY-2
  6
CONTINUOUS
 62
     2
100
AcDbCircle
 10
101.10623
 20
324.378958
 30
0.0
 40
35.459054
100
AcDbArc
 50
4.846425
 51
5.075429
  0
ARC
  5
587
100
AcDbEntity
  8
LAY-2
  6
CONTINUOUS
 62
     2
100
AcDbCircle
 10
102.522159
 20
324.498988
 30
0.0
 40
34.038046
100
AcDbArc
 50
4.607326
 51
4.846467
  0
ARC
  5
588
100
AcDbEntity
  8
LAY-2
  6
CONTINUOUS
 62
     2
100
AcDbCircle
 10
103.917642
 20
324.611419
 30
0.0
 40
32.638041
100
AcDbArc
 50
4.357574
 51
4.607371
  0
ARC
  5
589
100
AcDbEntity
  8
LAY-2
  6
CONTINUOUS
 62
     2
100
AcDbCircle
 10
105.292383
 20
324.716149
 30
0.0
 40
31.259316
100
AcDbArc
 50
4.0966
 51
4.357623
  0
ARC
  5
58A
100
AcDbEntity
  8
LAY-2
  6
CONTINUOUS
 62
     2
100
AcDbCircle
 10
106.647084
 20
324.813145
 30
0.0
 40
29.901148
100
AcDbArc
 50
3.508369
 51
4.096656
  0
ARC
  5
58B
100
AcDbEntity
  8
LAY-2
  6
CONTINUOUS
 62
     2
100
AcDbCircle
 10
102.958783
 20
324.585072
 30
0.0
 40
33.596493
100
AcDbArc
 50
3.231157
 51
3.511682
  0
ARC
  5
58C
100
AcDbEntity
  8
LAY-2
  6
CONTINUOUS
 62
     2
100
AcDbCircle
 10
99.189559
 20
324.372295
 30
0.0
 40
37.371718
100
AcDbArc
 50
2.979066
 51
3.231139
  0
ARC
  5
58D
100
AcDbEntity
  8
LAY-2
  6
CONTINUOUS
 62
     2
100
AcDbCircle
 10
94.413274
 20
324.123742
 30
0.0
 40
42.154466
100
AcDbArc
 50
2.755626
 51
2.979051
  0
ARC
  5
58E
100
AcDbEntity
  8
LAY-2
  6
CONTINUOUS
 62
     2
100
AcDbCircle
 10
88.181321
 20
323.823796
 30
0.0
 40
48.393633
100
AcDbArc
 50
2.560994
 51
2.755615
  0
ARC
  5
58F
100
AcDbEntity
  8
LAY-2
  6
CONTINUOUS
 62
     2
100
AcDbCircle
 10
83.065313
 20
323.593577
 30
0.0
 40
53.514818
100
AcDbArc
 50
2.173255
 51
2.562483
  0
ARC
  5
590
100
AcDbEntity
  8
LAY-2
  6
CONTINUOUS
 62
     2
100
AcDbCircle
 10
79.889518
 20
323.471234
 30
0.0
 40
56.692968
100
AcDbArc
 50
1.807599
 51
2.175099
  0
ARC
  5
591
100
AcDbEntity
  8
LAY-2
  6
CONTINUOUS
 62
     2
100
AcDbCircle
 10
76.990658
 20
323.377406
 30
0.0
 40
59.593346
100
AcDbArc
 50
1.635039
 51
1.80985
  0
ARC
  5
592
100
AcDbEntity
  8
LAY-2
  6
CONTINUOUS
 62
     2
100
AcDbCircle
 10
75.140727
 20
323.324622
 30
0.0
 40
61.44403
100
AcDbArc
 50
1.45441
 51
1.635019
  0
ARC
  5
593
100
AcDbEntity
  8
LAY-2
  6
CONTINUOUS
 62
     2
100
AcDbCircle
 10
73.187734
 20
323.275037
 30
0.0
 40
63.397652
100
AcDbArc
 50
1.279375
 51
1.454409
  0
ARC
  5
594
100
AcDbEntity
  8
LAY-2
  6
CONTINUOUS
 62
     2
100
AcDbCircle
 10
71.101467
 20
323.228445
 30
0.0
 40
65.484439
100
AcDbArc
 50
1.109923
 51
1.279374
  0
ARC
  5
595
100
AcDbEntity
  8
LAY-2
  6
CONTINUOUS
 62
     2
100
AcDbCircle
 10
68.868421
 20
323.185183
 30
0.0
 40
67.717904
100
AcDbArc
 50
0.946063
 51
1.109923
  0
ARC
  5
596
100
AcDbEntity
  8
LAY-2
  6
CONTINUOUS
 62
     2
100
AcDbCircle
 10
65.853806
 20
323.13583
 30
0.0
 40
70.732924
100
AcDbArc
 50
0.627079
 51
0.945716
  0
ARC
  5
597
100
AcDbEntity
  8
LAY-2
  6
CONTINUOUS
 62
     2
100
AcDbCircle
 10
63.857175
 20
323.112721
 30
0.0
 40
72.729688
100
AcDbArc
 50
359.841449
 51
0.628068
  0
ARC
  5
598
100
AcDbEntity
  8
LAY-2
  6
CONTINUOUS
 62
     2
100
AcDbCircle
 10
64.213553
 20
323.107308
 30
0.0
 40
72.373296
100
AcDbArc
 50
359.059237
 51
359.844954
  0
ARC
  5
599
100
AcDbEntity
  8
LAY-2
  6
CONTINUOUS
 62
     2
100
AcDbCircle
 10
68.848169
 20
323.037652
 30
0.0
 40
67.738162
100
AcDbArc
 50
358.889967
 51
359.053784
  0
ARC
  5
59A
100
AcDbEntity
  8
LAY-2
  6
CONTINUOUS
 62
     2
100
AcDbCircle
 10
71.062084
 20
322.994754
 30
0.0
 40
65.523831
100
AcDbArc
 50
358.720615
 51
358.889967
  0
ARC
  5
59B
100
AcDbEntity
  8
LAY-2
  6
CONTINUOUS
 62
     2
100
AcDbCircle
 10
73.137334
 20
322.948407
 30
0.0
 40
63.448063
100
AcDbArc
 50
358.545723
 51
358.720615
  0
ARC
  5
59C
100
AcDbEntity
  8
LAY-2
  6
CONTINUOUS
 62
     2
100
AcDbCircle
 10
75.69639
 20
322.882959
 30
0.0
 40
60.888171
100
AcDbArc
 50
358.192864
 51
358.546175
  0
ARC
  5
59D
100
AcDbEntity
  8
LAY-2
  6
CONTINUOUS
 62
     2
100
AcDbCircle
 10
78.802588
 20
322.787294
 30
0.0
 40
57.780501
100
AcDbArc
 50
358.010276
 51
358.190546
  0
ARC
  5
59E
100
AcDbEntity
  8
LAY-2
  6
CONTINUOUS
 62
     2
100
AcDbCircle
 10
81.066721
 20
322.708191
 30
0.0
 40
55.514986
100
AcDbArc
 50
357.635473
 51
358.010735
  0
ARC
  5
59F
100
AcDbEntity
  8
LAY-2
  6
CONTINUOUS
 62
     2
100
AcDbCircle
 10
83.65194
 20
322.603565
 30
0.0
 40
52.927652
100
AcDbArc
 50
357.436361
 51
357.633176
  0
ARC
  5
5A0
100
AcDbEntity
  8
LAY-2
  6
CONTINUOUS
 62
     2
100
AcDbCircle
 10
88.180255
 20
322.399202
 30
0.0
 40
48.394728
100
AcDbArc
 50
357.243549
 51
357.438269
  0
ARC
  5
5A1
100
AcDbEntity
  8
LAY-2
  6
CONTINUOUS
 62
     2
100
AcDbCircle
 10
94.336215
 20
322.102813
 30
0.0
 40
42.231637
100
AcDbArc
 50
357.020414
 51
357.243552
  0
ARC
  5
5A2
100
AcDbEntity
  8
LAY-2
  6
CONTINUOUS
 62
     2
100
AcDbCircle
 10
99.108095
 20
321.854432
 30
0.0
 40
37.453298
100
AcDbArc
 50
356.768825
 51
357.020418
  0
ARC
  5
5A3
100
AcDbEntity
  8
LAY-2
  6
CONTINUOUS
 62
     2
100
AcDbCircle
 10
102.91608
 20
321.639452
 30
0.0
 40
33.639249
100
AcDbArc
 50
356.488736
 51
356.768828
  0
ARC
  5
5A4
100
AcDbEntity
  8
LAY-2
  6
CONTINUOUS
 62
     2
100
AcDbCircle
 10
106.025595
 20
321.44865
 30
0.0
 40
30.523886
100
AcDbArc
 50
356.1801
 51
356.48874
  0
ARC
  5
5A5
100
AcDbEntity
  8
LAY-2
  6
CONTINUOUS
 62
     2
100
AcDbCircle
 10
106.879591
 20
321.393184
 30
0.0
 40
29.668091
100
AcDbArc
 50
355.962579
 51
356.177105
  0
ARC
  5
5A6
100
AcDbEntity
  8
LAY-2
  6
CONTINUOUS
 62
     2
100
AcDbCircle
 10
105.824141
 20
321.467684
 30
0.0
 40
30.726167
100
AcDbArc
 50
355.755431
 51
355.962573
  0
ARC
  5
5A7
100
AcDbEntity
  8
LAY-2
  6
CONTINUOUS
 62
     2
100
AcDbCircle
 10
104.675412
 20
321.552944
 30
0.0
 40
31.878056
100
AcDbArc
 50
355.55574
 51
355.755425
  0
ARC
  5
5A8
100
AcDbEntity
  8
LAY-2
  6
CONTINUOUS
 62
     2
100
AcDbCircle
 10
103.422361
 20
321.650337
 30
0.0
 40
33.134887
100
AcDbArc
 50
355.363573
 51
355.555735
  0
ARC
  5
5A9
100
AcDbEntity
  8
LAY-2
  6
CONTINUOUS
 62
     2
100
AcDbCircle
 10
102.047558
 20
321.761838
 30
0.0
 40
34.514204
100
AcDbArc
 50
354.921143
 51
355.363562
  0
ARC
  5
5AA
100
AcDbEntity
  8
LAY-2
  6
CONTINUOUS
 62
     2
100
AcDbCircle
 10
114.637178
 20
320.638021
 30
0.0
 40
21.874526
100
AcDbArc
 50
354.621296
 51
354.933943
  0
ARC
  5
5AB
100
AcDbEntity
  8
LAY-2
  6
CONTINUOUS
 62
     2
100
AcDbCircle
 10
123.199784
 20
319.831889
 30
0.0
 40
13.274057
100
AcDbArc
 50
354.106558
 51
354.621031
  0
ARC
  5
5AC
100
AcDbEntity
  8
LAY-2
  6
CONTINUOUS
 62
     2
100
AcDbCircle
 10
126.832696
 20
319.456986
 30
0.0
 40
9.621851
100
AcDbArc
 50
353.394862
 51
354.105953
  0
ARC
  5
5AD
100
AcDbEntity
  8
LAY-2
  6
CONTINUOUS
 62
     2
100
AcDbCircle
 10
128.785776
 20
319.230956
 30
0.0
 40
7.655736
100
AcDbArc
 50
352.495466
 51
353.393923
  0
ARC
  5
5AE
100
AcDbEntity
  8
LAY-2
  6
CONTINUOUS
 62
     2
100
AcDbCircle
 10
129.946232
 20
319.078305
 30
0.0
 40
6.485283
100
AcDbArc
 50
350.687057
 51
352.493542
  0
ARC
  5
5AF
100
AcDbEntity
  8
LAY-2
  6
CONTINUOUS
 62
     2
100
AcDbCircle
 10
125.338192
 20
319.826335
 30
0.0
 40
11.153639
100
AcDbArc
 50
350.297714
 51
350.725756
  0
ARC
  5
5B0
100
AcDbEntity
  8
LAY-2
  6
CONTINUOUS
 62
     2
100
AcDbCircle
 10
113.119553
 20
321.915334
 30
0.0
 40
23.549568
100
AcDbArc
 50
350.097073
 51
350.297889
  0
ARC
  5
5B1
100
AcDbEntity
  8
LAY-2
  6
CONTINUOUS
 62
     2
100
AcDbCircle
 10
285.5766
 20
291.80529
 30
0.0
 40
151.516271
100
AcDbArc
 50
170.096182
 51
170.126811
  0
ARC
  5
5B2
100
AcDbEntity
  8
LAY-2
  6
CONTINUOUS
 62
     2
100
AcDbCircle
 10
152.41105
 20
314.982193
 30
0.0
 40
16.348846
100
AcDbArc
 50
170.126811
 51
170.402625
  0
ARC
  5
5B3
100
AcDbEntity
  8
LAY-2
  6
CONTINUOUS
 62
     2
100
AcDbCircle
 10
131.974345
 20
318.423668
 30
0.0
 40
4.375617
100
AcDbArc
 50
349.922295
 51
350.585595
  0
ARC
  5
5B4
100
AcDbEntity
  8
LAY-2
  6
CONTINUOUS
 62
     2
100
AcDbCircle
 10
135.138426
 20
317.861591
 30
0.0
 40
1.161999
100
AcDbArc
 50
347.406118
 51
349.909627
  0
ARC
  5
5B5
100
AcDbEntity
  8
LAY-2
  6
CONTINUOUS
 62
     2
100
AcDbCircle
 10
135.544906
 20
317.771292
 30
0.0
 40
0.745611
100
AcDbArc
 50
343.335293
 51
347.367505
  0
ARC
  5
5B6
100
AcDbEntity
  8
LAY-2
  6
CONTINUOUS
 62
     2
100
AcDbCircle
 10
135.638601
 20
317.743994
 30
0.0
 40
0.648023
100
AcDbArc
 50
330.339974
 51
343.271879
  0
ARC
  5
5B7
100
AcDbEntity
  8
LAY-2
  6
CONTINUOUS
 62
     2
100
AcDbCircle
 10
135.921324
 20
317.583763
 30
0.0
 40
0.323053
100
AcDbArc
 50
325.253477
 51
330.221242
  0
ARC
  5
5B8
100
AcDbEntity
  8
LAY-2
  6
CONTINUOUS
 62
     2
100
AcDbCircle
 10
136.046802
 20
317.495989
 30
0.0
 40
0.169925
100
AcDbArc
 50
316.873445
 51
325.457799
  0
ARC
  5
5B9
100
AcDbEntity
  8
LAY-2
  6
CONTINUOUS
 62
     2
100
AcDbCircle
 10
136.114372
 20
317.431817
 30
0.0
 40
0.076743
100
AcDbArc
 50
301.267042
 51
317.354273
  0
ARC
  5
5BA
100
AcDbEntity
  8
LAY-2
  6
CONTINUOUS
 62
     2
100
AcDbCircle
 10
136.136355
 20
317.395112
 30
0.0
 40
0.033961
100
AcDbArc
 50
271.518997
 51
301.708085
  0
ARC
  5
5BB
100
AcDbEntity
  8
LAY-2
  6
CONTINUOUS
 62
     2
100
AcDbCircle
 10
136.138145
 20
317.395092
 30
0.0
 40
0.03394
100
AcDbArc
 50
238.295332
 51
268.497023
  0
ARC
  5
5BC
100
AcDbEntity
  8
LAY-2
  6
CONTINUOUS
 62
     2
100
AcDbCircle
 10
136.160108
 20
317.431765
 30
0.0
 40
0.076685
100
AcDbArc
 50
222.639384
 51
238.734458
  0
ARC
  5
5BD
100
AcDbEntity
  8
LAY-2
  6
CONTINUOUS
 62
     2
100
AcDbCircle
 10
136.227736
 20
317.495978
 30
0.0
 40
0.169937
100
AcDbArc
 50
214.537848
 51
223.120535
  0
ARC
  5
5BE
100
AcDbEntity
  8
LAY-2
  6
CONTINUOUS
 62
     2
100
AcDbCircle
 10
136.353689
 20
317.584067
 30
0.0
 40
0.323635
100
AcDbArc
 50
209.783068
 51
214.742291
  0
ARC
  5
5BF
100
AcDbEntity
  8
LAY-2
  6
CONTINUOUS
 62
     2
100
AcDbCircle
 10
136.552345
 20
317.698689
 30
0.0
 40
0.552987
100
AcDbArc
 50
206.897603
 51
209.866487
  0
ARC
  5
5C0
100
AcDbEntity
  8
LAY-2
  6
CONTINUOUS
 62
     2
100
AcDbCircle
 10
136.658089
 20
317.754634
 30
0.0
 40
0.672604
100
AcDbArc
 50
201.819395
 51
207.072651
  0
ARC
  5
5C1
100
AcDbEntity
  8
LAY-2
  6
CONTINUOUS
 62
     2
100
AcDbCircle
 10
136.632035
 20
317.743613
 30
0.0
 40
0.64432
100
AcDbArc
 50
196.786009
 51
201.770709
  0
ARC
  5
5C2
100
AcDbEntity
  8
LAY-2
  6
CONTINUOUS
 62
     2
100
AcDbCircle
 10
136.721509
 20
317.769897
 30
0.0
 40
0.737572
100
AcDbArc
 50
192.654854
 51
196.733479
  0
ARC
  5
5C3
100
AcDbEntity
  8
LAY-2
  6
CONTINUOUS
 62
     2
100
AcDbCircle
 10
137.089402
 20
317.85173
 30
0.0
 40
1.114457
100
AcDbArc
 50
190.006864
 51
192.616173
  0
ARC
  5
5C4
100
AcDbEntity
  8
LAY-2
  6
CONTINUOUS
 62
     2
100
AcDbCircle
 10
139.472909
 20
318.271421
 30
0.0
 40
3.534631
100
AcDbArc
 50
189.173215
 51
189.992819
  0
ARC
  5
5C5
100
AcDbEntity
  8
LAY-2
  6
CONTINUOUS
 62
     2
100
AcDbCircle
 10
102.614195
 20
312.224789
 30
0.0
 40
33.816774
100
AcDbArc
 50
9.331287
 51
9.464128
  0
ARC
  5
5C6
100
AcDbEntity
  8
LAY-2
  6
CONTINUOUS
 62
     2
100
AcDbCircle
 10
88.835649
 20
309.927918
 30
0.0
 40
47.785451
100
AcDbArc
 50
9.464128
 51
9.560838
  0
ARC
  5
5C7
100
AcDbEntity
  8
LAY-2
  6
CONTINUOUS
 62
     2
100
AcDbCircle
 10
66.732932
 20
306.205061
 30
0.0
 40
70.199505
100
AcDbArc
 50
9.560838
 51
9.628049
  0
ARC
  5
5C8
100
AcDbEntity
  8
LAY-2
  6
CONTINUOUS
 62
     2
100
AcDbCircle
 10
13.093184
 20
297.105564
 30
0.0
 40
124.605602
100
AcDbArc
 50
9.628049
 51
9.666432
  0
ARC
  5
5C9
100
AcDbEntity
  8
LAY-2
  6
CONTINUOUS
 62
     2
100
AcDbCircle
 10
-219.562736
 20
257.477234
 30
0.0
 40
360.612342
100
AcDbArc
 50
9.666432
 51
9.679784
  0
LINE
  5
5CA
100
AcDbEntity
  8
LAY-2
  6
CONTINUOUS
 62
     2
100
AcDbLine
 10
136.358993
 20
318.111164
 30
0.0
 11
134.582831
 21
318.111164
 31
0.0
  0
LINE
  5
5CB
100
AcDbEntity
  8
LAY-2
  6
CONTINUOUS
 62
     2
100
AcDbLine
 10
136.358993
 20
328.111164
 30
0.0
 11
134.582831
 21
328.111164
 31
0.0
  0
LINE
  5
5CC
100
AcDbEntity
  8
LAY-2
  6
CONTINUOUS
 62
     2
100
AcDbLine
 10
229.35992
 20
220.434383
 30
0.0
 11
183.383769
 21
305.04718
 31
0.0
  0
LINE
  5
5CD
100
AcDbEntity
  8
LAY-2
  6
CONTINUOUS
 62
     2
100
AcDbLine
 10
238.14656
 20
225.208789
 30
0.0
 11
192.170409
 21
309.821586
 31
0.0
  0
LINE
  5
5CE
100
AcDbEntity
  8
LAY-2
  6
CONTINUOUS
 62
     2
100
AcDbLine
 10
112.616231
 20
305.04718
 30
0.0
 11
66.64008
 21
220.434383
 31
0.0
  0
LINE
  5
5CF
100
AcDbEntity
  8
LAY-2
  6
CONTINUOUS
 62
     2
100
AcDbLine
 10
103.829591
 20
309.821586
 30
0.0
 11
57.85344
 21
225.208789
 31
0.0
  0
ARC
  5
5D0
100
AcDbEntity
  8
LAY-2
  6
CONTINUOUS
 62
     2
100
AcDbCircle
 10
93.0
 20
206.111164
 30
0.0
 40
30.0
100
AcDbArc
 50
151.48162
 51
270.0
  0
ARC
  5
5D1
100
AcDbEntity
  8
LAY-2
  6
CONTINUOUS
 62
     2
100
AcDbCircle
 10
93.0
 20
206.111164
 30
0.0
 40
40.0
100
AcDbArc
 50
151.48162
 51
180.0
  0
ARC
  5
5D2
100
AcDbEntity
  8
LAY-2
  6
CONTINUOUS
 62
     2
100
AcDbCircle
 10
93.0
 20
206.111164
 30
0.0
 40
40.0
100
AcDbArc
 50
180.0
 51
270.0
  0
LINE
  5
5D3
100
AcDbEntity
  8
LAY-2
  6
CONTINUOUS
 62
     2
100
AcDbLine
 10
93.0
 20
176.111164
 30
0.0
 11
169.835583
 21
176.111164
 31
0.0
  0
LINE
  5
5D4
100
AcDbEntity
  8
LAY-2
  6
CONTINUOUS
 62
     2
100
AcDbLine
 10
93.0
 20
166.111164
 30
0.0
 11
169.835583
 21
166.111164
 31
0.0
  0
LINE
  5
5D5
100
AcDbEntity
  8
LAY-2
  6
CONTINUOUS
 62
     2
100
AcDbLine
 10
169.835583
 20
166.111164
 30
0.0
 11
203.0
 21
166.111164
 31
0.0
  0
ARC
  5
5D6
100
AcDbEntity
  8
LAY-2
  6
CONTINUOUS
 62
     2
100
AcDbCircle
 10
203.0
 20
206.111164
 30
0.0
 40
40.0
100
AcDbArc
 50
270.0
 51
0.0
  0
ARC
  5
5D7
100
AcDbEntity
  8
LAY-2
  6
CONTINUOUS
 62
     2
100
AcDbCircle
 10
203.0
 20
206.111164
 30
0.0
 40
30.0
100
AcDbArc
 50
270.0
 51
28.51838
  0
LINE
  5
5D8
100
AcDbEntity
  8
LAY-2
  6
CONTINUOUS
 62
     2
100
AcDbLine
 10
169.835583
 20
176.111164
 30
0.0
 11
203.0
 21
176.111164
 31
0.0
  0
ARC
  5
5D9
100
AcDbEntity
  8
LAY-2
  6
CONTINUOUS
 62
     2
100
AcDbCircle
 10
203.0
 20
206.111164
 30
0.0
 40
40.0
100
AcDbArc
 50
0.0
 51
28.51838
  0
DIMENSION
  5
5E6
100
AcDbEntity
  8
LAY-2
  6
CONTINUOUS
 62
     3
100
AcDbDimension
  2
*D14
 10
238.0
 20
136.111164
 30
0.0
 11
148.0
 21
140.711164
 31
0.0
 70
   160
  3
STANDARD
100
AcDbAlignedDimension
 13
58.0
 23
206.115582
 33
0.0
 14
238.0
 24
206.115582
 34
0.0
100
AcDbRotatedDimension
1001
ACAD
1000
DSTYLE
1002
{
1070
     6
1000
_EX_NORM
1070
     7
1000
_EX_NORM
1070
    41
1040
6.0
1070
    42
1040
1.0
1070
    44
1040
2.0
1070
    73
1070
     0
1070
    74
1070
     0
1070
    75
1070
     0
1070
    76
1070
     0
1070
    77
1070
     1
1070
    78
1070
     8
1070
   140
1040
8.0
1070
   147
1040
0.6
1070
   173
1070
     1
1070
   176
1070
     3
1070
   177
1070
     3
1070
   178
1070
     2
1070
   271
1070
     2
1070
   279
1070
     2
1070
   280
1070
     0
1070
   287
1070
     5
1070
   340
1005
5E5
1002
}
  0
DIMENSION
  5
5F2
100
AcDbEntity
  8
LAY-2
  6
CONTINUOUS
 62
     2
100
AcDbDimension
  2
*D15
 10
300.382497
 20
136.111164
 30
0.0
 11
313.382497
 21
140.711164
 31
0.0
 70
   160
  1
%%c10
  3
STANDARD
100
AcDbAlignedDimension
 13
290.382497
 23
172.0
 33
0.0
 14
300.382497
 24
172.0
 34
0.0
100
AcDbRotatedDimension
1001
ACAD
1000
DSTYLE
1002
{
1070
     6
1000
_EX_NORM
1070
     7
1000
_EX_NORM
1070
    41
1040
6.0
1070
    42
1040
1.0
1070
    44
1040
2.0
1070
    73
1070
     0
1070
    74
1070
     0
1070
    75
1070
     0
1070
    76
1070
     0
1070
    77
1070
     1
1070
    78
1070
     8
1070
   140
1040
8.0
1070
   147
1040
0.6
1070
   173
1070
     1
1070
   176
1070
     3
1070
   177
1070
     3
1070
   178
1070
     2
1070
   271
1070
     2
1070
   279
1070
     2
1070
   280
1070
     2
1070
   287
1070
     5
1070
   340
1005
5E5
1002
}
  0
DIMENSION
  5
5FE
100
AcDbEntity
  8
LAY-2
  6
CONTINUOUS
 62
     3
100
AcDbDimension
  2
*D16
 10
163.0
 20
371.6
 30
0.0
 11
148.0
 21
376.2
 31
0.0
 70
   160
  3
STANDARD
100
AcDbAlignedDimension
 13
133.0
 23
352.905045
 33
0.0
 14
163.0
 24
352.905045
 34
0.0
100
AcDbRotatedDimension
1001
ACAD
1000
DSTYLE
1002
{
1070
     6
1000
_EX_NORM
1070
     7
1000
_EX_NORM
1070
    41
1040
6.0
1070
    42
1040
1.0
1070
    44
1040
2.0
1070
    73
1070
     0
1070
    74
1070
     0
1070
    75
1070
     0
1070
    76
1070
     0
1070
    77
1070
     1
1070
    78
1070
     8
1070
   140
1040
8.0
1070
   147
1040
0.6
1070
   173
1070
     1
1070
   176
1070
     3
1070
   177
1070
     3
1070
   178
1070
     2
1070
   271
1070
     2
1070
   279
1070
     2
1070
   280
1070
     0
1070
   287
1070
     5
1070
   340
1005
5E5
1002
}
  0
DIMENSION
  5
609
100
AcDbEntity
  8
LAY-2
  6
CONTINUOUS
 62
     3
100
AcDbDimension
  2
*D17
 10
295.382497
 20
366.789463
 30
0.0
 11
315.382497
 21
371.389463
 31
0.0
 70
   160
  3
STANDARD
100
AcDbAlignedDimension
 13
335.382497
 23
354.789463
 33
0.0
 14
295.382497
 24
342.535411
 34
0.0
100
AcDbRotatedDimension
1001
ACAD
1000
DSTYLE
1002
{
1070
     6
1000
_EX_NORM
1070
     7
1000
_EX_NORM
1070
    41
1040
6.0
1070
    42
1040
1.0
1070
    44
1040
2.0
1070
    73
1070
     0
1070
    74
1070
     0
1070
    75
1070
     1
1070
    76
1070
     0
1070
    77
1070
     1
1070
    78
1070
     8
1070
   140
1040
8.0
1070
   147
1040
0.6
1070
   173
1070
     1
1070
   176
1070
     3
1070
   177
1070
     3
1070
   178
1070
     2
1070
   271
1070
     2
1070
   279
1070
     2
1070
   280
1070
     0
1070
   287
1070
     5
1070
   340
1005
5E5
1002
}
  0
DIMENSION
  5
615
100
AcDbEntity
  8
LAY-2
  6
CONTINUOUS
 62
     3
100
AcDbDimension
  2
*D18
 10
284.382497
 20
381.789463
 30
0.0
 11
309.882497
 21
386.389463
 31
0.0
 70
   160
  3
STANDARD
100
AcDbAlignedDimension
 13
335.382497
 23
368.5
 33
0.0
 14
284.382497
 24
324.0
 34
0.0
100
AcDbRotatedDimension
1001
ACAD
1000
DSTYLE
1002
{
1070
     6
1000
_EX_NORM
1070
     7
1000
_EX_NORM
1070
    41
1040
6.0
1070
    42
1040
1.0
1070
    44
1040
2.0
1070
    73
1070
     0
1070
    74
1070
     0
1070
    75
1070
     0
1070
    76
1070
     0
1070
    77
1070
     1
1070
    78
1070
     8
1070
   140
1040
8.0
1070
   147
1040
0.6
1070
   173
1070
     1
1070
   176
1070
     3
1070
   177
1070
     3
1070
   178
1070
     2
1070
   271
1070
     2
1070
   279
1070
     2
1070
   280
1070
     0
1070
   287
1070
     5
1070
   340
1005
5E5
1002
}
  0
DIMENSION
  5
621
100
AcDbEntity
  8
LAY-2
  6
CONTINUOUS
 62
     3
100
AcDbDimension
  2
*D19
 10
272.382497
 20
354.789463
 30
0.0
 11
267.782497
 21
339.394732
 31
0.0
 70
   160
  1
31
  3
STANDARD
100
AcDbAlignedDimension
 13
285.62
 23
324.0
 33
0.0
 14
335.382497
 24
354.789463
 34
0.0
 50
90.0
100
AcDbRotatedDimension
1001
ACAD
1000
DSTYLE
1002
{
1070
     6
1000
_EX_NORM
1070
     7
1000
_EX_NORM
1070
    41
1040
6.0
1070
    42
1040
1.0
1070
    44
1040
2.0
1070
    73
1070
     0
1070
    74
1070
     0
1070
    75
1070
     0
1070
    76
1070
     0
1070
    77
1070
     1
1070
    78
1070
     8
1070
   140
1040
8.0
1070
   147
1040
0.6
1070
   173
1070
     1
1070
   176
1070
     3
1070
   177
1070
     3
1070
   178
1070
     2
1070
   271
1070
     2
1070
   279
1070
     2
1070
   280
1070
     0
1070
   287
1070
     5
1070
   340
1005
5E5
1002
}
  0
DIMENSION
  5
62D
100
AcDbEntity
  8
LAY-2
  6
CONTINUOUS
 62
     3
100
AcDbDimension
  2
*D20
 10
369.582497
 20
307.289463
 30
0.0
 11
364.982497
 21
321.789463
 31
0.0
 70
   160
  3
STANDARD
100
AcDbAlignedDimension
 13
357.582497
 23
336.289463
 33
0.0
 14
357.582497
 24
307.289463
 34
0.0
 50
90.0
100
AcDbRotatedDimension
1001
ACAD
1000
DSTYLE
1002
{
1070
     6
1000
_EX_NORM
1070
     7
1000
_EX_NORM
1070
    41
1040
6.0
1070
    42
1040
1.0
1070
    44
1040
2.0
1070
    73
1070
     0
1070
    74
1070
     0
1070
    75
1070
     0
1070
    76
1070
     0
1070
    77
1070
     1
1070
    78
1070
     8
1070
   140
1040
8.0
1070
   147
1040
0.6
1070
   173
1070
     1
1070
   176
1070
     3
1070
   177
1070
     3
1070
   178
1070
     2
1070
   271
1070
     2
1070
   279
1070
     2
1070
   280
1070
     0
1070
   287
1070
     5
1070
   340
1005
5E5
1002
}
  0
DIMENSION
  5
639
100
AcDbEntity
  8
LAY-2
  6
CONTINUOUS
 62
     3
100
AcDbDimension
  2
*D21
 10
384.582497
 20
288.789463
 30
0.0
 11
379.982497
 21
321.789463
 31
0.0
 70
   160
  3
STANDARD
100
AcDbAlignedDimension
 13
335.382497
 23
354.789463
 33
0.0
 14
335.382497
 24
288.789463
 34
0.0
 50
90.0
100
AcDbRotatedDimension
1001
ACAD
1000
DSTYLE
1002
{
1070
     6
1000
_EX_NORM
1070
     7
1000
_EX_NORM
1070
    41
1040
6.0
1070
    42
1040
1.0
1070
    44
1040
2.0
1070
    73
1070
     0
1070
    74
1070
     0
1070
    75
1070
     0
1070
    76
1070
     0
1070
    77
1070
     1
1070
    78
1070
     8
1070
   140
1040
8.0
1070
   147
1040
0.6
1070
   173
1070
     1
1070
   176
1070
     3
1070
   177
1070
     3
1070
   178
1070
     2
1070
   271
1070
     2
1070
   279
1070
     2
1070
   280
1070
     0
1070
   287
1070
     5
1070
   340
1005
5E5
1002
}
  0
ARC
  5
63A
100
AcDbEntity
  8
LAY-2
  6
CONTINUOUS
 62
     2
100
AcDbCircle
 10
295.382497
 20
324.0
 30
0.0
 40
5.75
100
AcDbArc
 50
90.0
 51
209.591846
  0
ARC
  5
63B
100
AcDbEntity
  8
LAY-2
  6
CONTINUOUS
 62
     2
100
AcDbCircle
 10
295.382497
 20
324.0
 30
0.0
 40
5.75
100
AcDbArc
 50
330.408154
 51
90.0
  0
ARC
  5
63C
100
AcDbEntity
  8
LAY-2
  6
CONTINUOUS
 62
     2
100
AcDbCircle
 10
295.382497
 20
324.0
 30
0.0
 40
6.5
100
AcDbArc
 50
320.284863
 51
183.283989
  0
ARC
  5
63D
100
AcDbEntity
  8
LAY-2
  6
CONTINUOUS
 62
     2
100
AcDbCircle
 10
295.382497
 20
324.0
 30
0.0
 40
6.5
100
AcDbArc
 50
183.283989
 51
219.715137
  0
LINE
  5
63E
100
AcDbEntity
  8
LAY-2
  6
CONTINUOUS
 62
     2
100
AcDbLine
 10
331.382497
 20
288.548944
 30
0.0
 11
331.382497
 21
288.789463
 31
0.0
  0
LINE
  5
63F
100
AcDbEntity
  8
LAY-2
  6
CONTINUOUS
 62
     2
100
AcDbLine
 10
331.382497
 20
288.548944
 30
0.0
 11
329.782497
 21
288.548944
 31
0.0
  0
LINE
  5
640
100
AcDbEntity
  8
LAY-2
  6
CONTINUOUS
 62
     2
100
AcDbLine
 10
332.382497
 20
288.548944
 30
0.0
 11
332.382497
 21
288.789463
 31
0.0
  0
LINE
  5
641
100
AcDbEntity
  8
LAY-2
  6
CONTINUOUS
 62
     2
100
AcDbLine
 10
329.782497
 20
288.548944
 30
0.0
 11
329.382497
 21
288.548944
 31
0.0
  0
LINE
  5
642
100
AcDbEntity
  8
LAY-2
  6
CONTINUOUS
 62
     2
100
AcDbLine
 10
333.982497
 20
288.548944
 30
0.0
 11
332.382497
 21
288.548944
 31
0.0
  0
LINE
  5
643
100
AcDbEntity
  8
LAY-2
  6
CONTINUOUS
 62
     2
100
AcDbLine
 10
334.382497
 20
288.548944
 30
0.0
 11
333.982497
 21
288.548944
 31
0.0
  0
LINE
  5
644
100
AcDbEntity
  8
LAY-2
  6
CONTINUOUS
 62
     2
100
AcDbLine
 10
331.382497
 20
287.583592
 30
0.0
 11
331.382497
 21
288.548944
 31
0.0
  0
LINE
  5
645
100
AcDbEntity
  8
LAY-2
  6
CONTINUOUS
 62
     2
100
AcDbLine
 10
332.382497
 20
287.583592
 30
0.0
 11
332.382497
 21
288.548944
 31
0.0
  0
LINE
  5
646
100
AcDbEntity
  8
LAY-2
  6
CONTINUOUS
 62
     2
100
AcDbLine
 10
329.382497
 20
288.548944
 30
0.0
 11
329.382497
 21
288.789463
 31
0.0
  0
LINE
  5
647
100
AcDbEntity
  8
LAY-2
  6
CONTINUOUS
 62
     2
100
AcDbLine
 10
334.382497
 20
288.548944
 30
0.0
 11
334.382497
 21
288.789463
 31
0.0
  0
ARC
  5
648
100
AcDbEntity
  8
LAY-2
  6
CONTINUOUS
 62
     2
100
AcDbCircle
 10
331.882497
 20
291.173944
 30
0.0
 40
3.625
100
AcDbArc
 50
226.397181
 51
234.597949
  0
ARC
  5
649
100
AcDbEntity
  8
LAY-2
  6
CONTINUOUS
 62
     2
100
AcDbCircle
 10
331.882497
 20
291.173944
 30
0.0
 40
3.625
100
AcDbArc
 50
277.928142
 51
305.402051
  0
ARC
  5
64A
100
AcDbEntity
  8
LAY-2
  6
CONTINUOUS
 62
     2
100
AcDbCircle
 10
331.882497
 20
291.173944
 30
0.0
 40
3.625
100
AcDbArc
 50
234.597949
 51
262.071858
  0
ARC
  5
64B
100
AcDbEntity
  8
LAY-2
  6
CONTINUOUS
 62
     2
100
AcDbCircle
 10
331.882497
 20
291.173944
 30
0.0
 40
3.625
100
AcDbArc
 50
305.402051
 51
313.602819
  0
ARC
  5
64C
100
AcDbEntity
  8
LAY-2
  6
CONTINUOUS
 62
     2
100
AcDbCircle
 10
295.382497
 20
324.0
 30
0.0
 40
5.0
100
AcDbArc
 50
0.0
 51
180.0
  0
LINE
  5
64D
100
AcDbEntity
  8
LAY-2
  6
CONTINUOUS
 62
     2
100
AcDbLine
 10
335.382497
 20
338.228944
 30
0.0
 11
335.382497
 21
354.789463
 31
0.0
  0
LINE
  5
64E
100
AcDbEntity
  8
LAY-2
  6
CONTINUOUS
 62
     2
100
AcDbLine
 10
318.485735
 20
346.910374
 30
0.0
 11
290.733696
 21
333.969386
 31
0.0
  0
LINE
  5
64F
100
AcDbEntity
  8
LAY-2
  6
CONTINUOUS
 62
     2
100
AcDbLine
 10
335.382497
 20
288.789463
 30
0.0
 11
335.382497
 21
309.228944
 31
0.0
  0
LINE
  5
650
100
AcDbEntity
  8
LAY-2
  6
CONTINUOUS
 62
     2
100
AcDbLine
 10
334.382497
 20
288.789463
 30
0.0
 11
327.382497
 21
288.789463
 31
0.0
  0
LINE
  5
651
100
AcDbEntity
  8
LAY-2
  6
CONTINUOUS
 62
     2
100
AcDbLine
 10
335.382497
 20
288.789463
 30
0.0
 11
334.382497
 21
288.789463
 31
0.0
  0
LINE
  5
652
100
AcDbEntity
  8
LAY-2
  6
CONTINUOUS
 62
     2
100
AcDbLine
 10
326.382497
 20
301.370006
 30
0.0
 11
326.382497
 21
289.789463
 31
0.0
  0
LINE
  5
653
100
AcDbEntity
  8
LAY-2
  6
CONTINUOUS
 62
     2
100
AcDbLine
 10
335.382497
 20
354.789463
 30
0.0
 11
318.485735
 21
346.910374
 31
0.0
  0
LINE
  5
654
100
AcDbEntity
  8
LAY-2
  6
CONTINUOUS
 62
     2
100
AcDbLine
 10
300.382497
 20
313.951708
 30
0.0
 11
307.500211
 21
315.858894
 31
0.0
  0
ARC
  5
655
100
AcDbEntity
  8
LAY-2
  6
CONTINUOUS
 62
     2
100
AcDbCircle
 10
295.382497
 20
324.0
 30
0.0
 40
11.0
100
AcDbArc
 50
180.0
 51
200.0
  0
ARC
  5
656
100
AcDbEntity
  8
LAY-2
  6
CONTINUOUS
 62
     2
100
AcDbCircle
 10
295.382497
 20
324.0
 30
0.0
 40
11.0
100
AcDbArc
 50
115.0
 51
180.0
  0
ARC
  5
657
100
AcDbEntity
  8
LAY-2
  6
CONTINUOUS
 62
     2
100
AcDbCircle
 10
295.382497
 20
324.0
 30
0.0
 40
11.0
100
AcDbArc
 50
200.0
 51
242.964308
  0
ARC
  5
658
100
AcDbEntity
  8
LAY-2
  6
CONTINUOUS
 62
     2
100
AcDbCircle
 10
311.382497
 20
301.370006
 30
0.0
 40
15.0
100
AcDbArc
 50
0.0
 51
63.767885
  0
ARC
  5
659
100
AcDbEntity
  8
LAY-2
  6
CONTINUOUS
 62
     2
100
AcDbCircle
 10
327.382497
 20
289.789463
 30
0.0
 40
1.0
100
AcDbArc
 50
180.0
 51
270.0
  0
ARC
  5
65A
100
AcDbEntity
  8
LAY-2
  6
CONTINUOUS
 62
     2
100
AcDbCircle
 10
311.382497
 20
301.370006
 30
0.0
 40
15.0
100
AcDbArc
 50
63.767885
 51
105.0
  0
LINE
  5
65B
100
AcDbEntity
  8
LAY-2
  6
CONTINUOUS
 62
     2
100
AcDbLine
 10
290.382497
 20
172.0
 30
0.0
 11
290.382497
 21
324.0
 31
0.0
  0
LINE
  5
65C
100
AcDbEntity
  8
LAY-2
  6
CONTINUOUS
 62
     2
100
AcDbLine
 10
300.382497
 20
172.0
 30
0.0
 11
300.382497
 21
324.0
 31
0.0
  0
ARC
  5
65D
100
AcDbEntity
  8
LAY-2
  6
CONTINUOUS
 62
     2
100
AcDbCircle
 10
295.382497
 20
172.0
 30
0.0
 40
5.0
100
AcDbArc
 50
180.0
 51
270.0
  0
ARC
  5
65E
100
AcDbEntity
  8
LAY-2
  6
CONTINUOUS
 62
     2
100
AcDbCircle
 10
295.382497
 20
172.0
 30
0.0
 40
5.0
100
AcDbArc
 50
270.0
 51
0.0
  0
LINE
  5
65F
100
AcDbEntity
  8
LAY-2
  6
EXLTYPE3
 62
     6
100
AcDbLine
 10
295.382497
 20
342.535411
 30
0.0
 11
295.382497
 21
155.963098
 31
0.0
  0
LINE
  5
660
100
AcDbEntity
  8
LAY-2
  6
EXLTYPE3
 62
     6
100
AcDbLine
 10
285.62
 20
324.0
 30
0.0
 11
305.5
 21
324.0
 31
0.0
  0
LEADER
  5
661
100
AcDbEntity
  8
LAY-2
  6
CONTINUOUS
 62
     6
100
AcDbLeader
  3
STANDARD
 73
     3
 74
     1
 75
     0
 40
0.0
 76
     2
 10
331.382497
 20
287.583592
 30
0.0
 10
335.701342
 20
275.531085
 30
0.0
 77
     6
1001
ACAD
1000
DSTYLE
1002
{
1070
    41
1040
6.0
1070
     5
1000
_EX_NORM
1070
     6
1000
_EX_NORM
1070
     7
1000
_EX_NORM
1070
   341
1005
27
1002
}
  0
LEADER
  5
662
100
AcDbEntity
  8
LAY-2
  6
CONTINUOUS
 62
     6
100
AcDbLeader
  3
STANDARD
 73
     3
 74
     1
 75
     0
 40
0.0
 76
     2
 10
163.0
 20
344.4
 30
0.0
 10
183.435923
 20
353.074241
 30
0.0
 77
     6
1001
ACAD
1000
DSTYLE
1002
{
1070
    41
1040
6.0
1070
     5
1000
_EX_NORM
1070
     6
1000
_EX_NORM
1070
     7
1000
_EX_NORM
1070
   341
1005
27
1002
}
  0
LEADER
  5
663
100
AcDbEntity
  8
LAY-2
  6
CONTINUOUS
 62
     6
100
AcDbLeader
  3
STANDARD
 73
     3
 74
     1
 75
     0
 40
0.0
 76
     2
 10
189.113326
 20
314.510296
 30
0.0
 10
211.486967
 20
349.462215
 30
0.0
 77
     6
1001
ACAD
1000
DSTYLE
1002
{
1070
    41
1040
6.0
1070
     5
1000
_EX_NORM
1070
     6
1000
_EX_NORM
1070
     7
1000
_EX_NORM
1070
   341
1005
27
1002
}
  0
LEADER
  5
664
100
AcDbEntity
  8
LAY-2
  6
CONTINUOUS
 62
     6
100
AcDbLeader
  3
STANDARD
 73
     3
 74
     1
 75
     0
 40
0.0
 76
     2
 10
341.45004
 20
338.778944
 30
0.0
 10
353.2
 20
363.6
 30
0.0
 77
     6
1001
ACAD
1000
DSTYLE
1002
{
1070
    41
1040
6.0
1070
     5
1000
_EX_NORM
1070
     6
1000
_EX_NORM
1070
     7
1000
_EX_NORM
1070
   341
1005
27
1002
}
  0
DIMENSION
  5
670
100
AcDbEntity
  8
LAY-2
  6
CONTINUOUS
 62
     3
100
AcDbDimension
  2
*D22
 10
258.0
 20
323.115582
 30
0.0
 11
253.4
 21
247.115582
 31
0.0
 70
   160
  3
STANDARD
100
AcDbAlignedDimension
 13
203.0
 23
171.115582
 33
0.0
 14
161.417169
 24
323.115582
 34
0.0
 50
90.0
100
AcDbRotatedDimension
1001
ACAD
1000
DSTYLE
1002
{
1070
     6
1000
_EX_NORM
1070
     7
1000
_EX_NORM
1070
    41
1040
6.0
1070
    42
1040
1.0
1070
    44
1040
2.0
1070
    73
1070
     0
1070
    74
1070
     0
1070
    75
1070
     0
1070
    76
1070
     0
1070
    77
1070
     1
1070
    78
1070
     8
1070
   140
1040
8.0
1070
   147
1040
0.6
1070
   173
1070
     1
1070
   176
1070
     3
1070
   177
1070
     3
1070
   178
1070
     2
1070
   271
1070
     2
1070
   279
1070
     2
1070
   280
1070
     0
1070
   287
1070
     5
1070
   340
1005
5E5
1002
}
  0
TEXT
  5
671
100
AcDbEntity
  8
LAY-2
  6
CONTINUOUS
 62
     2
100
AcDbText
 10
353.2
 20
363.6
 30
0.0
 40
8.0
  1
４.５×２５
 41
0.613889
  7
EXCADSTD
 72
     5
 11
387.2
 21
363.6
 31
0.0
100
AcDbText
  0
LINE
  5
672
100
AcDbEntity
  8
LAY-2
  6
CONTINUOUS
 62
     6
100
AcDbLine
 10
353.2
 20
363.6
 30
0.0
 11
385.8
 21
363.6
 31
0.0
  0
LINE
  5
673
100
AcDbEntity
  8
LAY-2
  6
CONTINUOUS
 62
     2
100
AcDbLine
 10
335.382497
 20
305.589463
 30
0.0
 11
335.382497
 21
304.75403
 31
0.0
  0
LINE
  5
674
100
AcDbEntity
  8
LAY-2
  6
CONTINUOUS
 62
     2
100
AcDbLine
 10
335.382497
 20
337.989463
 30
0.0
 11
335.382497
 21
340.030797
 31
0.0
  0
LINE
  5
675
100
AcDbEntity
  8
LAY-2
  6
CONTINUOUS
 62
     2
100
AcDbLine
 10
335.382497
 20
334.589463
 30
0.0
 11
335.382497
 21
333.181415
 31
0.0
  0
LINE
  5
676
100
AcDbEntity
  8
LAY-2
  6
CONTINUOUS
 62
     2
100
AcDbLine
 10
335.382497
 20
310.270683
 30
0.0
 11
335.382497
 21
308.989463
 31
0.0
  0
LINE
  5
677
100
AcDbEntity
  8
LAY-2
  6
CONTINUOUS
 62
     2
100
AcDbLine
 10
335.382497
 20
305.589463
 30
0.0
 11
336.382497
 21
305.589463
 31
0.0
  0
LINE
  5
678
100
AcDbEntity
  8
LAY-2
  6
CONTINUOUS
 62
     2
100
AcDbLine
 10
335.382497
 20
308.989463
 30
0.0
 11
335.432497
 21
308.989463
 31
0.0
  0
LINE
  5
679
100
AcDbEntity
  8
LAY-2
  6
CONTINUOUS
 62
     2
100
AcDbLine
 10
336.70004
 20
305.039463
 30
0.0
 11
337.017582
 21
305.589463
 31
0.0
  0
LINE
  5
67A
100
AcDbEntity
  8
LAY-2
  6
CONTINUOUS
 62
     2
100
AcDbLine
 10
336.382497
 20
305.589463
 30
0.0
 11
336.70004
 21
305.039463
 31
0.0
  0
LINE
  5
67B
100
AcDbEntity
  8
LAY-2
  6
CONTINUOUS
 62
     2
100
AcDbLine
 10
338.60004
 20
305.039463
 30
0.0
 11
338.917582
 21
305.589463
 31
0.0
  0
LINE
  5
67C
100
AcDbEntity
  8
LAY-2
  6
CONTINUOUS
 62
     2
100
AcDbLine
 10
338.282497
 20
305.589463
 30
0.0
 11
338.60004
 21
305.039463
 31
0.0
  0
LINE
  5
67D
100
AcDbEntity
  8
LAY-2
  6
CONTINUOUS
 62
     2
100
AcDbLine
 10
340.50004
 20
305.039463
 30
0.0
 11
340.817582
 21
305.589463
 31
0.0
  0
LINE
  5
67E
100
AcDbEntity
  8
LAY-2
  6
CONTINUOUS
 62
     2
100
AcDbLine
 10
340.182497
 20
305.589463
 30
0.0
 11
340.50004
 21
305.039463
 31
0.0
  0
LINE
  5
67F
100
AcDbEntity
  8
LAY-2
  6
CONTINUOUS
 62
     2
100
AcDbLine
 10
342.40004
 20
305.039463
 30
0.0
 11
342.717582
 21
305.589463
 31
0.0
  0
LINE
  5
680
100
AcDbEntity
  8
LAY-2
  6
CONTINUOUS
 62
     2
100
AcDbLine
 10
342.082497
 20
305.589463
 30
0.0
 11
342.40004
 21
305.039463
 31
0.0
  0
LINE
  5
681
100
AcDbEntity
  8
LAY-2
  6
CONTINUOUS
 62
     2
100
AcDbLine
 10
344.30004
 20
305.039463
 30
0.0
 11
344.617582
 21
305.589463
 31
0.0
  0
LINE
  5
682
100
AcDbEntity
  8
LAY-2
  6
CONTINUOUS
 62
     2
100
AcDbLine
 10
343.982497
 20
305.589463
 30
0.0
 11
344.30004
 21
305.039463
 31
0.0
  0
LINE
  5
683
100
AcDbEntity
  8
LAY-2
  6
CONTINUOUS
 62
     2
100
AcDbLine
 10
346.20004
 20
305.039463
 30
0.0
 11
346.517582
 21
305.589463
 31
0.0
  0
LINE
  5
684
100
AcDbEntity
  8
LAY-2
  6
CONTINUOUS
 62
     2
100
AcDbLine
 10
345.882497
 20
305.589463
 30
0.0
 11
346.20004
 21
305.039463
 31
0.0
  0
LINE
  5
685
100
AcDbEntity
  8
LAY-2
  6
CONTINUOUS
 62
     2
100
AcDbLine
 10
348.10004
 20
305.039463
 30
0.0
 11
348.417582
 21
305.589463
 31
0.0
  0
LINE
  5
686
100
AcDbEntity
  8
LAY-2
  6
CONTINUOUS
 62
     2
100
AcDbLine
 10
347.782497
 20
305.589463
 30
0.0
 11
348.10004
 21
305.039463
 31
0.0
  0
LINE
  5
687
100
AcDbEntity
  8
LAY-2
  6
CONTINUOUS
 62
     2
100
AcDbLine
 10
349.682497
 20
305.589463
 30
0.0
 11
350.00004
 21
305.039463
 31
0.0
  0
LINE
  5
688
100
AcDbEntity
  8
LAY-2
  6
CONTINUOUS
 62
     2
100
AcDbLine
 10
350.00004
 20
305.039463
 30
0.0
 11
350.317582
 21
305.589463
 31
0.0
  0
LINE
  5
689
100
AcDbEntity
  8
LAY-2
  6
CONTINUOUS
 62
     2
100
AcDbLine
 10
351.582497
 20
305.589463
 30
0.0
 11
351.90004
 21
305.039463
 31
0.0
  0
LINE
  5
68A
100
AcDbEntity
  8
LAY-2
  6
CONTINUOUS
 62
     2
100
AcDbLine
 10
351.90004
 20
305.039463
 30
0.0
 11
352.217582
 21
305.589463
 31
0.0
  0
LINE
  5
68B
100
AcDbEntity
  8
LAY-2
  6
CONTINUOUS
 62
     2
100
AcDbLine
 10
353.167582
 20
308.989463
 30
0.0
 11
352.85004
 21
309.539463
 31
0.0
  0
LINE
  5
68C
100
AcDbEntity
  8
LAY-2
  6
CONTINUOUS
 62
     2
100
AcDbLine
 10
352.85004
 20
309.539463
 30
0.0
 11
352.532497
 21
308.989463
 31
0.0
  0
LINE
  5
68D
100
AcDbEntity
  8
LAY-2
  6
CONTINUOUS
 62
     2
100
AcDbLine
 10
351.267582
 20
308.989463
 30
0.0
 11
350.95004
 21
309.539463
 31
0.0
  0
LINE
  5
68E
100
AcDbEntity
  8
LAY-2
  6
CONTINUOUS
 62
     2
100
AcDbLine
 10
350.95004
 20
309.539463
 30
0.0
 11
350.632497
 21
308.989463
 31
0.0
  0
LINE
  5
68F
100
AcDbEntity
  8
LAY-2
  6
CONTINUOUS
 62
     2
100
AcDbLine
 10
349.367582
 20
308.989463
 30
0.0
 11
349.05004
 21
309.539463
 31
0.0
  0
LINE
  5
690
100
AcDbEntity
  8
LAY-2
  6
CONTINUOUS
 62
     2
100
AcDbLine
 10
349.05004
 20
309.539463
 30
0.0
 11
348.732497
 21
308.989463
 31
0.0
  0
LINE
  5
691
100
AcDbEntity
  8
LAY-2
  6
CONTINUOUS
 62
     2
100
AcDbLine
 10
347.15004
 20
309.539463
 30
0.0
 11
346.832497
 21
308.989463
 31
0.0
  0
LINE
  5
692
100
AcDbEntity
  8
LAY-2
  6
CONTINUOUS
 62
     2
100
AcDbLine
 10
347.467582
 20
308.989463
 30
0.0
 11
347.15004
 21
309.539463
 31
0.0
  0
LINE
  5
693
100
AcDbEntity
  8
LAY-2
  6
CONTINUOUS
 62
     2
100
AcDbLine
 10
345.25004
 20
309.539463
 30
0.0
 11
344.932497
 21
308.989463
 31
0.0
  0
LINE
  5
694
100
AcDbEntity
  8
LAY-2
  6
CONTINUOUS
 62
     2
100
AcDbLine
 10
345.567582
 20
308.989463
 30
0.0
 11
345.25004
 21
309.539463
 31
0.0
  0
LINE
  5
695
100
AcDbEntity
  8
LAY-2
  6
CONTINUOUS
 62
     2
100
AcDbLine
 10
343.35004
 20
309.539463
 30
0.0
 11
343.032497
 21
308.989463
 31
0.0
  0
LINE
  5
696
100
AcDbEntity
  8
LAY-2
  6
CONTINUOUS
 62
     2
100
AcDbLine
 10
343.667582
 20
308.989463
 30
0.0
 11
343.35004
 21
309.539463
 31
0.0
  0
LINE
  5
697
100
AcDbEntity
  8
LAY-2
  6
CONTINUOUS
 62
     2
100
AcDbLine
 10
341.45004
 20
309.539463
 30
0.0
 11
341.132497
 21
308.989463
 31
0.0
  0
LINE
  5
698
100
AcDbEntity
  8
LAY-2
  6
CONTINUOUS
 62
     2
100
AcDbLine
 10
341.767582
 20
308.989463
 30
0.0
 11
341.45004
 21
309.539463
 31
0.0
  0
LINE
  5
699
100
AcDbEntity
  8
LAY-2
  6
CONTINUOUS
 62
     2
100
AcDbLine
 10
339.55004
 20
309.539463
 30
0.0
 11
339.232497
 21
308.989463
 31
0.0
  0
LINE
  5
69A
100
AcDbEntity
  8
LAY-2
  6
CONTINUOUS
 62
     2
100
AcDbLine
 10
339.867582
 20
308.989463
 30
0.0
 11
339.55004
 21
309.539463
 31
0.0
  0
LINE
  5
69B
100
AcDbEntity
  8
LAY-2
  6
CONTINUOUS
 62
     2
100
AcDbLine
 10
337.65004
 20
309.539463
 30
0.0
 11
337.332497
 21
308.989463
 31
0.0
  0
LINE
  5
69C
100
AcDbEntity
  8
LAY-2
  6
CONTINUOUS
 62
     2
100
AcDbLine
 10
337.967582
 20
308.989463
 30
0.0
 11
337.65004
 21
309.539463
 31
0.0
  0
LINE
  5
69D
100
AcDbEntity
  8
LAY-2
  6
CONTINUOUS
 62
     2
100
AcDbLine
 10
335.75004
 20
309.539463
 30
0.0
 11
335.432497
 21
308.989463
 31
0.0
  0
LINE
  5
69E
100
AcDbEntity
  8
LAY-2
  6
CONTINUOUS
 62
     2
100
AcDbLine
 10
336.067582
 20
308.989463
 30
0.0
 11
335.75004
 21
309.539463
 31
0.0
  0
LINE
  5
69F
100
AcDbEntity
  8
LAY-2
  6
CONTINUOUS
 62
     2
100
AcDbLine
 10
336.067582
 20
308.989463
 30
0.0
 11
337.332497
 21
308.989463
 31
0.0
  0
LINE
  5
6A0
100
AcDbEntity
  8
LAY-2
  6
CONTINUOUS
 62
     2
100
AcDbLine
 10
337.017582
 20
305.589463
 30
0.0
 11
338.282497
 21
305.589463
 31
0.0
  0
LINE
  5
6A1
100
AcDbEntity
  8
LAY-2
  6
CONTINUOUS
 62
     2
100
AcDbLine
 10
338.917582
 20
305.589463
 30
0.0
 11
340.182497
 21
305.589463
 31
0.0
  0
LINE
  5
6A2
100
AcDbEntity
  8
LAY-2
  6
CONTINUOUS
 62
     2
100
AcDbLine
 10
340.817582
 20
305.589463
 30
0.0
 11
342.082497
 21
305.589463
 31
0.0
  0
LINE
  5
6A3
100
AcDbEntity
  8
LAY-2
  6
CONTINUOUS
 62
     2
100
AcDbLine
 10
342.717582
 20
305.589463
 30
0.0
 11
343.982497
 21
305.589463
 31
0.0
  0
LINE
  5
6A4
100
AcDbEntity
  8
LAY-2
  6
CONTINUOUS
 62
     2
100
AcDbLine
 10
344.617582
 20
305.589463
 30
0.0
 11
345.882497
 21
305.589463
 31
0.0
  0
LINE
  5
6A5
100
AcDbEntity
  8
LAY-2
  6
CONTINUOUS
 62
     2
100
AcDbLine
 10
346.517582
 20
305.589463
 30
0.0
 11
347.782497
 21
305.589463
 31
0.0
  0
LINE
  5
6A6
100
AcDbEntity
  8
LAY-2
  6
CONTINUOUS
 62
     2
100
AcDbLine
 10
348.417582
 20
305.589463
 30
0.0
 11
349.682497
 21
305.589463
 31
0.0
  0
LINE
  5
6A7
100
AcDbEntity
  8
LAY-2
  6
CONTINUOUS
 62
     2
100
AcDbLine
 10
350.317582
 20
305.589463
 30
0.0
 11
351.582497
 21
305.589463
 31
0.0
  0
LINE
  5
6A8
100
AcDbEntity
  8
LAY-2
  6
CONTINUOUS
 62
     2
100
AcDbLine
 10
352.217582
 20
305.589463
 30
0.0
 11
353.482497
 21
305.589463
 31
0.0
  0
LINE
  5
6A9
100
AcDbEntity
  8
LAY-2
  6
CONTINUOUS
 62
     2
100
AcDbLine
 10
337.967582
 20
308.989463
 30
0.0
 11
339.232497
 21
308.989463
 31
0.0
  0
LINE
  5
6AA
100
AcDbEntity
  8
LAY-2
  6
CONTINUOUS
 62
     2
100
AcDbLine
 10
339.867582
 20
308.989463
 30
0.0
 11
341.132497
 21
308.989463
 31
0.0
  0
LINE
  5
6AB
100
AcDbEntity
  8
LAY-2
  6
CONTINUOUS
 62
     2
100
AcDbLine
 10
341.767582
 20
308.989463
 30
0.0
 11
343.032497
 21
308.989463
 31
0.0
  0
LINE
  5
6AC
100
AcDbEntity
  8
LAY-2
  6
CONTINUOUS
 62
     2
100
AcDbLine
 10
343.667582
 20
308.989463
 30
0.0
 11
344.932497
 21
308.989463
 31
0.0
  0
LINE
  5
6AD
100
AcDbEntity
  8
LAY-2
  6
CONTINUOUS
 62
     2
100
AcDbLine
 10
345.567582
 20
308.989463
 30
0.0
 11
346.832497
 21
308.989463
 31
0.0
  0
LINE
  5
6AE
100
AcDbEntity
  8
LAY-2
  6
CONTINUOUS
 62
     2
100
AcDbLine
 10
347.467582
 20
308.989463
 30
0.0
 11
348.732497
 21
308.989463
 31
0.0
  0
LINE
  5
6AF
100
AcDbEntity
  8
LAY-2
  6
CONTINUOUS
 62
     2
100
AcDbLine
 10
349.367582
 20
308.989463
 30
0.0
 11
350.632497
 21
308.989463
 31
0.0
  0
LINE
  5
6B0
100
AcDbEntity
  8
LAY-2
  6
CONTINUOUS
 62
     2
100
AcDbLine
 10
351.267582
 20
308.989463
 30
0.0
 11
352.532497
 21
308.989463
 31
0.0
  0
LINE
  5
6B1
100
AcDbEntity
  8
LAY-2
  6
CONTINUOUS
 62
     2
100
AcDbLine
 10
336.382497
 20
305.589463
 30
0.0
 11
335.432497
 21
308.989463
 31
0.0
  0
LINE
  5
6B2
100
AcDbEntity
  8
LAY-2
  6
CONTINUOUS
 62
     2
100
AcDbLine
 10
336.70004
 20
305.039463
 30
0.0
 11
335.75004
 21
309.539463
 31
0.0
  0
LINE
  5
6B3
100
AcDbEntity
  8
LAY-2
  6
CONTINUOUS
 62
     2
100
AcDbLine
 10
337.017582
 20
305.589463
 30
0.0
 11
336.067582
 21
308.989463
 31
0.0
  0
LINE
  5
6B4
100
AcDbEntity
  8
LAY-2
  6
CONTINUOUS
 62
     2
100
AcDbLine
 10
338.282497
 20
305.589463
 30
0.0
 11
337.332497
 21
308.989463
 31
0.0
  0
LINE
  5
6B5
100
AcDbEntity
  8
LAY-2
  6
CONTINUOUS
 62
     2
100
AcDbLine
 10
338.60004
 20
305.039463
 30
0.0
 11
337.65004
 21
309.539463
 31
0.0
  0
LINE
  5
6B6
100
AcDbEntity
  8
LAY-2
  6
CONTINUOUS
 62
     2
100
AcDbLine
 10
338.917582
 20
305.589463
 30
0.0
 11
337.967582
 21
308.989463
 31
0.0
  0
LINE
  5
6B7
100
AcDbEntity
  8
LAY-2
  6
CONTINUOUS
 62
     2
100
AcDbLine
 10
340.182497
 20
305.589463
 30
0.0
 11
339.232497
 21
308.989463
 31
0.0
  0
LINE
  5
6B8
100
AcDbEntity
  8
LAY-2
  6
CONTINUOUS
 62
     2
100
AcDbLine
 10
340.50004
 20
305.039463
 30
0.0
 11
339.55004
 21
309.539463
 31
0.0
  0
LINE
  5
6B9
100
AcDbEntity
  8
LAY-2
  6
CONTINUOUS
 62
     2
100
AcDbLine
 10
340.817582
 20
305.589463
 30
0.0
 11
339.867582
 21
308.989463
 31
0.0
  0
LINE
  5
6BA
100
AcDbEntity
  8
LAY-2
  6
CONTINUOUS
 62
     2
100
AcDbLine
 10
342.082497
 20
305.589463
 30
0.0
 11
341.132497
 21
308.989463
 31
0.0
  0
LINE
  5
6BB
100
AcDbEntity
  8
LAY-2
  6
CONTINUOUS
 62
     2
100
AcDbLine
 10
342.40004
 20
305.039463
 30
0.0
 11
341.45004
 21
309.539463
 31
0.0
  0
LINE
  5
6BC
100
AcDbEntity
  8
LAY-2
  6
CONTINUOUS
 62
     2
100
AcDbLine
 10
342.717582
 20
305.589463
 30
0.0
 11
341.767582
 21
308.989463
 31
0.0
  0
LINE
  5
6BD
100
AcDbEntity
  8
LAY-2
  6
CONTINUOUS
 62
     2
100
AcDbLine
 10
343.982497
 20
305.589463
 30
0.0
 11
343.032497
 21
308.989463
 31
0.0
  0
LINE
  5
6BE
100
AcDbEntity
  8
LAY-2
  6
CONTINUOUS
 62
     2
100
AcDbLine
 10
344.30004
 20
305.039463
 30
0.0
 11
343.35004
 21
309.539463
 31
0.0
  0
LINE
  5
6BF
100
AcDbEntity
  8
LAY-2
  6
CONTINUOUS
 62
     2
100
AcDbLine
 10
344.617582
 20
305.589463
 30
0.0
 11
343.667582
 21
308.989463
 31
0.0
  0
LINE
  5
6C0
100
AcDbEntity
  8
LAY-2
  6
CONTINUOUS
 62
     2
100
AcDbLine
 10
345.882497
 20
305.589463
 30
0.0
 11
344.932497
 21
308.989463
 31
0.0
  0
LINE
  5
6C1
100
AcDbEntity
  8
LAY-2
  6
CONTINUOUS
 62
     2
100
AcDbLine
 10
346.20004
 20
305.039463
 30
0.0
 11
345.25004
 21
309.539463
 31
0.0
  0
LINE
  5
6C2
100
AcDbEntity
  8
LAY-2
  6
CONTINUOUS
 62
     2
100
AcDbLine
 10
346.517582
 20
305.589463
 30
0.0
 11
345.567582
 21
308.989463
 31
0.0
  0
LINE
  5
6C3
100
AcDbEntity
  8
LAY-2
  6
CONTINUOUS
 62
     2
100
AcDbLine
 10
347.782497
 20
305.589463
 30
0.0
 11
346.832497
 21
308.989463
 31
0.0
  0
LINE
  5
6C4
100
AcDbEntity
  8
LAY-2
  6
CONTINUOUS
 62
     2
100
AcDbLine
 10
348.10004
 20
305.039463
 30
0.0
 11
347.15004
 21
309.539463
 31
0.0
  0
LINE
  5
6C5
100
AcDbEntity
  8
LAY-2
  6
CONTINUOUS
 62
     2
100
AcDbLine
 10
348.417582
 20
305.589463
 30
0.0
 11
347.467582
 21
308.989463
 31
0.0
  0
LINE
  5
6C6
100
AcDbEntity
  8
LAY-2
  6
CONTINUOUS
 62
     2
100
AcDbLine
 10
349.682497
 20
305.589463
 30
0.0
 11
348.732497
 21
308.989463
 31
0.0
  0
LINE
  5
6C7
100
AcDbEntity
  8
LAY-2
  6
CONTINUOUS
 62
     2
100
AcDbLine
 10
350.00004
 20
305.039463
 30
0.0
 11
349.05004
 21
309.539463
 31
0.0
  0
LINE
  5
6C8
100
AcDbEntity
  8
LAY-2
  6
CONTINUOUS
 62
     2
100
AcDbLine
 10
350.317582
 20
305.589463
 30
0.0
 11
349.367582
 21
308.989463
 31
0.0
  0
LINE
  5
6C9
100
AcDbEntity
  8
LAY-2
  6
CONTINUOUS
 62
     2
100
AcDbLine
 10
351.582497
 20
305.589463
 30
0.0
 11
350.632497
 21
308.989463
 31
0.0
  0
LINE
  5
6CA
100
AcDbEntity
  8
LAY-2
  6
CONTINUOUS
 62
     2
100
AcDbLine
 10
351.90004
 20
305.039463
 30
0.0
 11
350.95004
 21
309.539463
 31
0.0
  0
LINE
  5
6CB
100
AcDbEntity
  8
LAY-2
  6
CONTINUOUS
 62
     2
100
AcDbLine
 10
352.217582
 20
305.589463
 30
0.0
 11
351.267582
 21
308.989463
 31
0.0
  0
LINE
  5
6CC
100
AcDbEntity
  8
LAY-2
  6
CONTINUOUS
 62
     2
100
AcDbLine
 10
353.80004
 20
305.21583
 30
0.0
 11
353.563867
 21
305.624893
 31
0.0
  0
LINE
  5
6CD
100
AcDbEntity
  8
LAY-2
  6
CONTINUOUS
 62
     2
100
AcDbLine
 10
353.80004
 20
305.21583
 30
0.0
 11
354.184676
 21
305.88204
 31
0.0
  0
LINE
  5
6CE
100
AcDbEntity
  8
LAY-2
  6
CONTINUOUS
 62
     2
100
AcDbLine
 10
353.563867
 20
305.624893
 30
0.0
 11
353.482497
 21
305.589463
 31
0.0
  0
LINE
  5
6CF
100
AcDbEntity
  8
LAY-2
  6
CONTINUOUS
 62
     2
100
AcDbLine
 10
355.70004
 20
306.257455
 30
0.0
 11
355.582501
 21
306.461038
 31
0.0
  0
LINE
  5
6D0
100
AcDbEntity
  8
LAY-2
  6
CONTINUOUS
 62
     2
100
AcDbLine
 10
355.70004
 20
306.257455
 30
0.0
 11
355.891466
 21
306.589015
 31
0.0
  0
LINE
  5
6D1
100
AcDbEntity
  8
LAY-2
  6
CONTINUOUS
 62
     2
100
AcDbLine
 10
354.75004
 20
308.842284
 30
0.0
 11
354.573184
 21
308.535962
 31
0.0
  0
LINE
  5
6D2
100
AcDbEntity
  8
LAY-2
  6
CONTINUOUS
 62
     2
100
AcDbLine
 10
354.75004
 20
308.842284
 30
0.0
 11
355.038071
 21
308.343399
 31
0.0
  0
LINE
  5
6D3
100
AcDbEntity
  8
LAY-2
  6
CONTINUOUS
 62
     2
100
AcDbLine
 10
356.65004
 20
307.800659
 30
0.0
 11
356.591818
 21
307.699816
 31
0.0
  0
LINE
  5
6D4
100
AcDbEntity
  8
LAY-2
  6
CONTINUOUS
 62
     2
100
AcDbLine
 10
356.65004
 20
307.800659
 30
0.0
 11
356.744861
 21
307.636424
 31
0.0
  0
LINE
  5
6D5
100
AcDbEntity
  8
LAY-2
  6
CONTINUOUS
 62
     2
100
AcDbLine
 10
357.582497
 20
307.289463
 30
0.0
 11
356.744861
 21
307.636424
 31
0.0
  0
LINE
  5
6D6
100
AcDbEntity
  8
LAY-2
  6
CONTINUOUS
 62
     2
100
AcDbLine
 10
356.591818
 20
307.699816
 30
0.0
 11
355.038071
 21
308.343399
 31
0.0
  0
LINE
  5
6D7
100
AcDbEntity
  8
LAY-2
  6
CONTINUOUS
 62
     2
100
AcDbLine
 10
354.573184
 20
308.535962
 30
0.0
 11
353.478334
 21
308.989463
 31
0.0
  0
LINE
  5
6D8
100
AcDbEntity
  8
LAY-2
  6
CONTINUOUS
 62
     2
100
AcDbLine
 10
353.478334
 20
308.989463
 30
0.0
 11
353.167582
 21
308.989463
 31
0.0
  0
LINE
  5
6D9
100
AcDbEntity
  8
LAY-2
  6
CONTINUOUS
 62
     2
100
AcDbLine
 10
357.582497
 20
307.289463
 30
0.0
 11
355.891466
 21
306.589015
 31
0.0
  0
LINE
  5
6DA
100
AcDbEntity
  8
LAY-2
  6
CONTINUOUS
 62
     2
100
AcDbLine
 10
355.582501
 20
306.461038
 30
0.0
 11
354.184676
 21
305.88204
 31
0.0
  0
LINE
  5
6DB
100
AcDbEntity
  8
LAY-2
  6
CONTINUOUS
 62
     2
100
AcDbLine
 10
353.563867
 20
305.624893
 30
0.0
 11
352.532497
 21
308.989463
 31
0.0
  0
LINE
  5
6DC
100
AcDbEntity
  8
LAY-2
  6
CONTINUOUS
 62
     2
100
AcDbLine
 10
353.80004
 20
305.21583
 30
0.0
 11
352.85004
 21
309.539463
 31
0.0
  0
LINE
  5
6DD
100
AcDbEntity
  8
LAY-2
  6
CONTINUOUS
 62
     2
100
AcDbLine
 10
354.184676
 20
305.88204
 30
0.0
 11
353.167582
 21
308.989463
 31
0.0
  0
LINE
  5
6DE
100
AcDbEntity
  8
LAY-2
  6
CONTINUOUS
 62
     2
100
AcDbLine
 10
355.582501
 20
306.461038
 30
0.0
 11
354.573184
 21
308.535962
 31
0.0
  0
LINE
  5
6DF
100
AcDbEntity
  8
LAY-2
  6
CONTINUOUS
 62
     2
100
AcDbLine
 10
355.70004
 20
306.257455
 30
0.0
 11
354.75004
 21
308.842284
 31
0.0
  0
LINE
  5
6E0
100
AcDbEntity
  8
LAY-2
  6
CONTINUOUS
 62
     2
100
AcDbLine
 10
355.891466
 20
306.589015
 30
0.0
 11
355.038071
 21
308.343399
 31
0.0
  0
LINE
  5
6E1
100
AcDbEntity
  8
LAY-2
  6
CONTINUOUS
 62
     2
100
AcDbLine
 10
356.837919
 20
307.289463
 30
0.0
 11
356.65004
 21
307.800659
 31
0.0
  0
LINE
  5
6E2
100
AcDbEntity
  8
LAY-2
  6
CONTINUOUS
 62
     2
100
AcDbLine
 10
356.744861
 20
307.636424
 30
0.0
 11
356.837919
 21
307.289463
 31
0.0
  0
LINE
  5
6E3
100
AcDbEntity
  8
LAY-2
  6
CONTINUOUS
 62
     2
100
AcDbLine
 10
356.591818
 20
307.699816
 30
0.0
 11
356.837919
 21
307.289463
 31
0.0
  0
LINE
  5
6E4
100
AcDbEntity
  8
LAY-2
  6
CONTINUOUS
 62
     2
100
AcDbLine
 10
335.382497
 20
337.989463
 30
0.0
 11
335.432497
 21
337.989463
 31
0.0
  0
LINE
  5
6E5
100
AcDbEntity
  8
LAY-2
  6
CONTINUOUS
 62
     2
100
AcDbLine
 10
335.382497
 20
334.589463
 30
0.0
 11
336.382497
 21
334.589463
 31
0.0
  0
LINE
  5
6E6
100
AcDbEntity
  8
LAY-2
  6
CONTINUOUS
 62
     2
100
AcDbLine
 10
336.70004
 20
334.039463
 30
0.0
 11
337.017582
 21
334.589463
 31
0.0
  0
LINE
  5
6E7
100
AcDbEntity
  8
LAY-2
  6
CONTINUOUS
 62
     2
100
AcDbLine
 10
336.382497
 20
334.589463
 30
0.0
 11
336.70004
 21
334.039463
 31
0.0
  0
LINE
  5
6E8
100
AcDbEntity
  8
LAY-2
  6
CONTINUOUS
 62
     2
100
AcDbLine
 10
338.60004
 20
334.039463
 30
0.0
 11
338.917582
 21
334.589463
 31
0.0
  0
LINE
  5
6E9
100
AcDbEntity
  8
LAY-2
  6
CONTINUOUS
 62
     2
100
AcDbLine
 10
338.282497
 20
334.589463
 30
0.0
 11
338.60004
 21
334.039463
 31
0.0
  0
LINE
  5
6EA
100
AcDbEntity
  8
LAY-2
  6
CONTINUOUS
 62
     2
100
AcDbLine
 10
340.50004
 20
334.039463
 30
0.0
 11
340.817582
 21
334.589463
 31
0.0
  0
LINE
  5
6EB
100
AcDbEntity
  8
LAY-2
  6
CONTINUOUS
 62
     2
100
AcDbLine
 10
340.182497
 20
334.589463
 30
0.0
 11
340.50004
 21
334.039463
 31
0.0
  0
LINE
  5
6EC
100
AcDbEntity
  8
LAY-2
  6
CONTINUOUS
 62
     2
100
AcDbLine
 10
342.40004
 20
334.039463
 30
0.0
 11
342.717582
 21
334.589463
 31
0.0
  0
LINE
  5
6ED
100
AcDbEntity
  8
LAY-2
  6
CONTINUOUS
 62
     2
100
AcDbLine
 10
342.082497
 20
334.589463
 30
0.0
 11
342.40004
 21
334.039463
 31
0.0
  0
LINE
  5
6EE
100
AcDbEntity
  8
LAY-2
  6
CONTINUOUS
 62
     2
100
AcDbLine
 10
344.30004
 20
334.039463
 30
0.0
 11
344.617582
 21
334.589463
 31
0.0
  0
LINE
  5
6EF
100
AcDbEntity
  8
LAY-2
  6
CONTINUOUS
 62
     2
100
AcDbLine
 10
343.982497
 20
334.589463
 30
0.0
 11
344.30004
 21
334.039463
 31
0.0
  0
LINE
  5
6F0
100
AcDbEntity
  8
LAY-2
  6
CONTINUOUS
 62
     2
100
AcDbLine
 10
346.20004
 20
334.039463
 30
0.0
 11
346.517582
 21
334.589463
 31
0.0
  0
LINE
  5
6F1
100
AcDbEntity
  8
LAY-2
  6
CONTINUOUS
 62
     2
100
AcDbLine
 10
345.882497
 20
334.589463
 30
0.0
 11
346.20004
 21
334.039463
 31
0.0
  0
LINE
  5
6F2
100
AcDbEntity
  8
LAY-2
  6
CONTINUOUS
 62
     2
100
AcDbLine
 10
348.10004
 20
334.039463
 30
0.0
 11
348.417582
 21
334.589463
 31
0.0
  0
LINE
  5
6F3
100
AcDbEntity
  8
LAY-2
  6
CONTINUOUS
 62
     2
100
AcDbLine
 10
347.782497
 20
334.589463
 30
0.0
 11
348.10004
 21
334.039463
 31
0.0
  0
LINE
  5
6F4
100
AcDbEntity
  8
LAY-2
  6
CONTINUOUS
 62
     2
100
AcDbLine
 10
349.682497
 20
334.589463
 30
0.0
 11
350.00004
 21
334.039463
 31
0.0
  0
LINE
  5
6F5
100
AcDbEntity
  8
LAY-2
  6
CONTINUOUS
 62
     2
100
AcDbLine
 10
350.00004
 20
334.039463
 30
0.0
 11
350.317582
 21
334.589463
 31
0.0
  0
LINE
  5
6F6
100
AcDbEntity
  8
LAY-2
  6
CONTINUOUS
 62
     2
100
AcDbLine
 10
351.582497
 20
334.589463
 30
0.0
 11
351.90004
 21
334.039463
 31
0.0
  0
LINE
  5
6F7
100
AcDbEntity
  8
LAY-2
  6
CONTINUOUS
 62
     2
100
AcDbLine
 10
351.90004
 20
334.039463
 30
0.0
 11
352.217582
 21
334.589463
 31
0.0
  0
LINE
  5
6F8
100
AcDbEntity
  8
LAY-2
  6
CONTINUOUS
 62
     2
100
AcDbLine
 10
353.167582
 20
337.989463
 30
0.0
 11
352.85004
 21
338.539463
 31
0.0
  0
LINE
  5
6F9
100
AcDbEntity
  8
LAY-2
  6
CONTINUOUS
 62
     2
100
AcDbLine
 10
352.85004
 20
338.539463
 30
0.0
 11
352.532497
 21
337.989463
 31
0.0
  0
LINE
  5
6FA
100
AcDbEntity
  8
LAY-2
  6
CONTINUOUS
 62
     2
100
AcDbLine
 10
351.267582
 20
337.989463
 30
0.0
 11
350.95004
 21
338.539463
 31
0.0
  0
LINE
  5
6FB
100
AcDbEntity
  8
LAY-2
  6
CONTINUOUS
 62
     2
100
AcDbLine
 10
350.95004
 20
338.539463
 30
0.0
 11
350.632497
 21
337.989463
 31
0.0
  0
LINE
  5
6FC
100
AcDbEntity
  8
LAY-2
  6
CONTINUOUS
 62
     2
100
AcDbLine
 10
349.367582
 20
337.989463
 30
0.0
 11
349.05004
 21
338.539463
 31
0.0
  0
LINE
  5
6FD
100
AcDbEntity
  8
LAY-2
  6
CONTINUOUS
 62
     2
100
AcDbLine
 10
349.05004
 20
338.539463
 30
0.0
 11
348.732497
 21
337.989463
 31
0.0
  0
LINE
  5
6FE
100
AcDbEntity
  8
LAY-2
  6
CONTINUOUS
 62
     2
100
AcDbLine
 10
347.15004
 20
338.539463
 30
0.0
 11
346.832497
 21
337.989463
 31
0.0
  0
LINE
  5
6FF
100
AcDbEntity
  8
LAY-2
  6
CONTINUOUS
 62
     2
100
AcDbLine
 10
347.467582
 20
337.989463
 30
0.0
 11
347.15004
 21
338.539463
 31
0.0
  0
LINE
  5
700
100
AcDbEntity
  8
LAY-2
  6
CONTINUOUS
 62
     2
100
AcDbLine
 10
345.25004
 20
338.539463
 30
0.0
 11
344.932497
 21
337.989463
 31
0.0
  0
LINE
  5
701
100
AcDbEntity
  8
LAY-2
  6
CONTINUOUS
 62
     2
100
AcDbLine
 10
345.567582
 20
337.989463
 30
0.0
 11
345.25004
 21
338.539463
 31
0.0
  0
LINE
  5
702
100
AcDbEntity
  8
LAY-2
  6
CONTINUOUS
 62
     2
100
AcDbLine
 10
343.35004
 20
338.539463
 30
0.0
 11
343.032497
 21
337.989463
 31
0.0
  0
LINE
  5
703
100
AcDbEntity
  8
LAY-2
  6
CONTINUOUS
 62
     2
100
AcDbLine
 10
343.667582
 20
337.989463
 30
0.0
 11
343.35004
 21
338.539463
 31
0.0
  0
LINE
  5
704
100
AcDbEntity
  8
LAY-2
  6
CONTINUOUS
 62
     2
100
AcDbLine
 10
341.45004
 20
338.539463
 30
0.0
 11
341.132497
 21
337.989463
 31
0.0
  0
LINE
  5
705
100
AcDbEntity
  8
LAY-2
  6
CONTINUOUS
 62
     2
100
AcDbLine
 10
341.767582
 20
337.989463
 30
0.0
 11
341.45004
 21
338.539463
 31
0.0
  0
LINE
  5
706
100
AcDbEntity
  8
LAY-2
  6
CONTINUOUS
 62
     2
100
AcDbLine
 10
339.55004
 20
338.539463
 30
0.0
 11
339.232497
 21
337.989463
 31
0.0
  0
LINE
  5
707
100
AcDbEntity
  8
LAY-2
  6
CONTINUOUS
 62
     2
100
AcDbLine
 10
339.867582
 20
337.989463
 30
0.0
 11
339.55004
 21
338.539463
 31
0.0
  0
LINE
  5
708
100
AcDbEntity
  8
LAY-2
  6
CONTINUOUS
 62
     2
100
AcDbLine
 10
337.65004
 20
338.539463
 30
0.0
 11
337.332497
 21
337.989463
 31
0.0
  0
LINE
  5
709
100
AcDbEntity
  8
LAY-2
  6
CONTINUOUS
 62
     2
100
AcDbLine
 10
337.967582
 20
337.989463
 30
0.0
 11
337.65004
 21
338.539463
 31
0.0
  0
LINE
  5
70A
100
AcDbEntity
  8
LAY-2
  6
CONTINUOUS
 62
     2
100
AcDbLine
 10
335.75004
 20
338.539463
 30
0.0
 11
335.432497
 21
337.989463
 31
0.0
  0
LINE
  5
70B
100
AcDbEntity
  8
LAY-2
  6
CONTINUOUS
 62
     2
100
AcDbLine
 10
336.067582
 20
337.989463
 30
0.0
 11
335.75004
 21
338.539463
 31
0.0
  0
LINE
  5
70C
100
AcDbEntity
  8
LAY-2
  6
CONTINUOUS
 62
     2
100
AcDbLine
 10
336.067582
 20
337.989463
 30
0.0
 11
337.332497
 21
337.989463
 31
0.0
  0
LINE
  5
70D
100
AcDbEntity
  8
LAY-2
  6
CONTINUOUS
 62
     2
100
AcDbLine
 10
337.017582
 20
334.589463
 30
0.0
 11
338.282497
 21
334.589463
 31
0.0
  0
LINE
  5
70E
100
AcDbEntity
  8
LAY-2
  6
CONTINUOUS
 62
     2
100
AcDbLine
 10
338.917582
 20
334.589463
 30
0.0
 11
340.182497
 21
334.589463
 31
0.0
  0
LINE
  5
70F
100
AcDbEntity
  8
LAY-2
  6
CONTINUOUS
 62
     2
100
AcDbLine
 10
340.817582
 20
334.589463
 30
0.0
 11
342.082497
 21
334.589463
 31
0.0
  0
LINE
  5
710
100
AcDbEntity
  8
LAY-2
  6
CONTINUOUS
 62
     2
100
AcDbLine
 10
342.717582
 20
334.589463
 30
0.0
 11
343.982497
 21
334.589463
 31
0.0
  0
LINE
  5
711
100
AcDbEntity
  8
LAY-2
  6
CONTINUOUS
 62
     2
100
AcDbLine
 10
344.617582
 20
334.589463
 30
0.0
 11
345.882497
 21
334.589463
 31
0.0
  0
LINE
  5
712
100
AcDbEntity
  8
LAY-2
  6
CONTINUOUS
 62
     2
100
AcDbLine
 10
346.517582
 20
334.589463
 30
0.0
 11
347.782497
 21
334.589463
 31
0.0
  0
LINE
  5
713
100
AcDbEntity
  8
LAY-2
  6
CONTINUOUS
 62
     2
100
AcDbLine
 10
348.417582
 20
334.589463
 30
0.0
 11
349.682497
 21
334.589463
 31
0.0
  0
LINE
  5
714
100
AcDbEntity
  8
LAY-2
  6
CONTINUOUS
 62
     2
100
AcDbLine
 10
350.317582
 20
334.589463
 30
0.0
 11
351.582497
 21
334.589463
 31
0.0
  0
LINE
  5
715
100
AcDbEntity
  8
LAY-2
  6
CONTINUOUS
 62
     2
100
AcDbLine
 10
352.217582
 20
334.589463
 30
0.0
 11
353.482497
 21
334.589463
 31
0.0
  0
LINE
  5
716
100
AcDbEntity
  8
LAY-2
  6
CONTINUOUS
 62
     2
100
AcDbLine
 10
337.967582
 20
337.989463
 30
0.0
 11
339.232497
 21
337.989463
 31
0.0
  0
LINE
  5
717
100
AcDbEntity
  8
LAY-2
  6
CONTINUOUS
 62
     2
100
AcDbLine
 10
339.867582
 20
337.989463
 30
0.0
 11
341.132497
 21
337.989463
 31
0.0
  0
LINE
  5
718
100
AcDbEntity
  8
LAY-2
  6
CONTINUOUS
 62
     2
100
AcDbLine
 10
341.767582
 20
337.989463
 30
0.0
 11
343.032497
 21
337.989463
 31
0.0
  0
LINE
  5
719
100
AcDbEntity
  8
LAY-2
  6
CONTINUOUS
 62
     2
100
AcDbLine
 10
343.667582
 20
337.989463
 30
0.0
 11
344.932497
 21
337.989463
 31
0.0
  0
LINE
  5
71A
100
AcDbEntity
  8
LAY-2
  6
CONTINUOUS
 62
     2
100
AcDbLine
 10
345.567582
 20
337.989463
 30
0.0
 11
346.832497
 21
337.989463
 31
0.0
  0
LINE
  5
71B
100
AcDbEntity
  8
LAY-2
  6
CONTINUOUS
 62
     2
100
AcDbLine
 10
347.467582
 20
337.989463
 30
0.0
 11
348.732497
 21
337.989463
 31
0.0
  0
LINE
  5
71C
100
AcDbEntity
  8
LAY-2
  6
CONTINUOUS
 62
     2
100
AcDbLine
 10
349.367582
 20
337.989463
 30
0.0
 11
350.632497
 21
337.989463
 31
0.0
  0
LINE
  5
71D
100
AcDbEntity
  8
LAY-2
  6
CONTINUOUS
 62
     2
100
AcDbLine
 10
351.267582
 20
337.989463
 30
0.0
 11
352.532497
 21
337.989463
 31
0.0
  0
LINE
  5
71E
100
AcDbEntity
  8
LAY-2
  6
CONTINUOUS
 62
     2
100
AcDbLine
 10
336.382497
 20
334.589463
 30
0.0
 11
335.432497
 21
337.989463
 31
0.0
  0
LINE
  5
71F
100
AcDbEntity
  8
LAY-2
  6
CONTINUOUS
 62
     2
100
AcDbLine
 10
336.70004
 20
334.039463
 30
0.0
 11
335.75004
 21
338.539463
 31
0.0
  0
LINE
  5
720
100
AcDbEntity
  8
LAY-2
  6
CONTINUOUS
 62
     2
100
AcDbLine
 10
337.017582
 20
334.589463
 30
0.0
 11
336.067582
 21
337.989463
 31
0.0
  0
LINE
  5
721
100
AcDbEntity
  8
LAY-2
  6
CONTINUOUS
 62
     2
100
AcDbLine
 10
338.282497
 20
334.589463
 30
0.0
 11
337.332497
 21
337.989463
 31
0.0
  0
LINE
  5
722
100
AcDbEntity
  8
LAY-2
  6
CONTINUOUS
 62
     2
100
AcDbLine
 10
338.60004
 20
334.039463
 30
0.0
 11
337.65004
 21
338.539463
 31
0.0
  0
LINE
  5
723
100
AcDbEntity
  8
LAY-2
  6
CONTINUOUS
 62
     2
100
AcDbLine
 10
338.917582
 20
334.589463
 30
0.0
 11
337.967582
 21
337.989463
 31
0.0
  0
LINE
  5
724
100
AcDbEntity
  8
LAY-2
  6
CONTINUOUS
 62
     2
100
AcDbLine
 10
340.182497
 20
334.589463
 30
0.0
 11
339.232497
 21
337.989463
 31
0.0
  0
LINE
  5
725
100
AcDbEntity
  8
LAY-2
  6
CONTINUOUS
 62
     2
100
AcDbLine
 10
340.50004
 20
334.039463
 30
0.0
 11
339.55004
 21
338.539463
 31
0.0
  0
LINE
  5
726
100
AcDbEntity
  8
LAY-2
  6
CONTINUOUS
 62
     2
100
AcDbLine
 10
340.817582
 20
334.589463
 30
0.0
 11
339.867582
 21
337.989463
 31
0.0
  0
LINE
  5
727
100
AcDbEntity
  8
LAY-2
  6
CONTINUOUS
 62
     2
100
AcDbLine
 10
342.082497
 20
334.589463
 30
0.0
 11
341.132497
 21
337.989463
 31
0.0
  0
LINE
  5
728
100
AcDbEntity
  8
LAY-2
  6
CONTINUOUS
 62
     2
100
AcDbLine
 10
342.40004
 20
334.039463
 30
0.0
 11
341.45004
 21
338.539463
 31
0.0
  0
LINE
  5
729
100
AcDbEntity
  8
LAY-2
  6
CONTINUOUS
 62
     2
100
AcDbLine
 10
342.717582
 20
334.589463
 30
0.0
 11
341.767582
 21
337.989463
 31
0.0
  0
LINE
  5
72A
100
AcDbEntity
  8
LAY-2
  6
CONTINUOUS
 62
     2
100
AcDbLine
 10
343.982497
 20
334.589463
 30
0.0
 11
343.032497
 21
337.989463
 31
0.0
  0
LINE
  5
72B
100
AcDbEntity
  8
LAY-2
  6
CONTINUOUS
 62
     2
100
AcDbLine
 10
344.30004
 20
334.039463
 30
0.0
 11
343.35004
 21
338.539463
 31
0.0
  0
LINE
  5
72C
100
AcDbEntity
  8
LAY-2
  6
CONTINUOUS
 62
     2
100
AcDbLine
 10
344.617582
 20
334.589463
 30
0.0
 11
343.667582
 21
337.989463
 31
0.0
  0
LINE
  5
72D
100
AcDbEntity
  8
LAY-2
  6
CONTINUOUS
 62
     2
100
AcDbLine
 10
345.882497
 20
334.589463
 30
0.0
 11
344.932497
 21
337.989463
 31
0.0
  0
LINE
  5
72E
100
AcDbEntity
  8
LAY-2
  6
CONTINUOUS
 62
     2
100
AcDbLine
 10
346.20004
 20
334.039463
 30
0.0
 11
345.25004
 21
338.539463
 31
0.0
  0
LINE
  5
72F
100
AcDbEntity
  8
LAY-2
  6
CONTINUOUS
 62
     2
100
AcDbLine
 10
346.517582
 20
334.589463
 30
0.0
 11
345.567582
 21
337.989463
 31
0.0
  0
LINE
  5
730
100
AcDbEntity
  8
LAY-2
  6
CONTINUOUS
 62
     2
100
AcDbLine
 10
347.782497
 20
334.589463
 30
0.0
 11
346.832497
 21
337.989463
 31
0.0
  0
LINE
  5
731
100
AcDbEntity
  8
LAY-2
  6
CONTINUOUS
 62
     2
100
AcDbLine
 10
348.10004
 20
334.039463
 30
0.0
 11
347.15004
 21
338.539463
 31
0.0
  0
LINE
  5
732
100
AcDbEntity
  8
LAY-2
  6
CONTINUOUS
 62
     2
100
AcDbLine
 10
348.417582
 20
334.589463
 30
0.0
 11
347.467582
 21
337.989463
 31
0.0
  0
LINE
  5
733
100
AcDbEntity
  8
LAY-2
  6
CONTINUOUS
 62
     2
100
AcDbLine
 10
349.682497
 20
334.589463
 30
0.0
 11
348.732497
 21
337.989463
 31
0.0
  0
LINE
  5
734
100
AcDbEntity
  8
LAY-2
  6
CONTINUOUS
 62
     2
100
AcDbLine
 10
350.00004
 20
334.039463
 30
0.0
 11
349.05004
 21
338.539463
 31
0.0
  0
LINE
  5
735
100
AcDbEntity
  8
LAY-2
  6
CONTINUOUS
 62
     2
100
AcDbLine
 10
350.317582
 20
334.589463
 30
0.0
 11
349.367582
 21
337.989463
 31
0.0
  0
LINE
  5
736
100
AcDbEntity
  8
LAY-2
  6
CONTINUOUS
 62
     2
100
AcDbLine
 10
351.582497
 20
334.589463
 30
0.0
 11
350.632497
 21
337.989463
 31
0.0
  0
LINE
  5
737
100
AcDbEntity
  8
LAY-2
  6
CONTINUOUS
 62
     2
100
AcDbLine
 10
351.90004
 20
334.039463
 30
0.0
 11
350.95004
 21
338.539463
 31
0.0
  0
LINE
  5
738
100
AcDbEntity
  8
LAY-2
  6
CONTINUOUS
 62
     2
100
AcDbLine
 10
352.217582
 20
334.589463
 30
0.0
 11
351.267582
 21
337.989463
 31
0.0
  0
LINE
  5
739
100
AcDbEntity
  8
LAY-2
  6
CONTINUOUS
 62
     2
100
AcDbLine
 10
353.80004
 20
334.21583
 30
0.0
 11
353.563867
 21
334.624893
 31
0.0
  0
LINE
  5
73A
100
AcDbEntity
  8
LAY-2
  6
CONTINUOUS
 62
     2
100
AcDbLine
 10
353.80004
 20
334.21583
 30
0.0
 11
354.184676
 21
334.88204
 31
0.0
  0
LINE
  5
73B
100
AcDbEntity
  8
LAY-2
  6
CONTINUOUS
 62
     2
100
AcDbLine
 10
353.563867
 20
334.624893
 30
0.0
 11
353.482497
 21
334.589463
 31
0.0
  0
LINE
  5
73C
100
AcDbEntity
  8
LAY-2
  6
CONTINUOUS
 62
     2
100
AcDbLine
 10
355.70004
 20
335.257455
 30
0.0
 11
355.582501
 21
335.461038
 31
0.0
  0
LINE
  5
73D
100
AcDbEntity
  8
LAY-2
  6
CONTINUOUS
 62
     2
100
AcDbLine
 10
355.70004
 20
335.257455
 30
0.0
 11
355.891466
 21
335.589015
 31
0.0
  0
LINE
  5
73E
100
AcDbEntity
  8
LAY-2
  6
CONTINUOUS
 62
     2
100
AcDbLine
 10
354.75004
 20
337.842284
 30
0.0
 11
354.573184
 21
337.535962
 31
0.0
  0
LINE
  5
73F
100
AcDbEntity
  8
LAY-2
  6
CONTINUOUS
 62
     2
100
AcDbLine
 10
354.75004
 20
337.842284
 30
0.0
 11
355.038071
 21
337.343399
 31
0.0
  0
LINE
  5
740
100
AcDbEntity
  8
LAY-2
  6
CONTINUOUS
 62
     2
100
AcDbLine
 10
356.65004
 20
336.800659
 30
0.0
 11
356.591818
 21
336.699816
 31
0.0
  0
LINE
  5
741
100
AcDbEntity
  8
LAY-2
  6
CONTINUOUS
 62
     2
100
AcDbLine
 10
356.65004
 20
336.800659
 30
0.0
 11
356.744861
 21
336.636424
 31
0.0
  0
LINE
  5
742
100
AcDbEntity
  8
LAY-2
  6
CONTINUOUS
 62
     2
100
AcDbLine
 10
357.582497
 20
336.289463
 30
0.0
 11
356.744861
 21
336.636424
 31
0.0
  0
LINE
  5
743
100
AcDbEntity
  8
LAY-2
  6
CONTINUOUS
 62
     2
100
AcDbLine
 10
356.591818
 20
336.699816
 30
0.0
 11
355.038071
 21
337.343399
 31
0.0
  0
LINE
  5
744
100
AcDbEntity
  8
LAY-2
  6
CONTINUOUS
 62
     2
100
AcDbLine
 10
354.573184
 20
337.535962
 30
0.0
 11
353.478334
 21
337.989463
 31
0.0
  0
LINE
  5
745
100
AcDbEntity
  8
LAY-2
  6
CONTINUOUS
 62
     2
100
AcDbLine
 10
353.478334
 20
337.989463
 30
0.0
 11
353.167582
 21
337.989463
 31
0.0
  0
LINE
  5
746
100
AcDbEntity
  8
LAY-2
  6
CONTINUOUS
 62
     2
100
AcDbLine
 10
357.582497
 20
336.289463
 30
0.0
 11
355.891466
 21
335.589015
 31
0.0
  0
LINE
  5
747
100
AcDbEntity
  8
LAY-2
  6
CONTINUOUS
 62
     2
100
AcDbLine
 10
355.582501
 20
335.461038
 30
0.0
 11
354.184676
 21
334.88204
 31
0.0
  0
LINE
  5
748
100
AcDbEntity
  8
LAY-2
  6
CONTINUOUS
 62
     2
100
AcDbLine
 10
353.563867
 20
334.624893
 30
0.0
 11
352.532497
 21
337.989463
 31
0.0
  0
LINE
  5
749
100
AcDbEntity
  8
LAY-2
  6
CONTINUOUS
 62
     2
100
AcDbLine
 10
353.80004
 20
334.21583
 30
0.0
 11
352.85004
 21
338.539463
 31
0.0
  0
LINE
  5
74A
100
AcDbEntity
  8
LAY-2
  6
CONTINUOUS
 62
     2
100
AcDbLine
 10
354.184676
 20
334.88204
 30
0.0
 11
353.167582
 21
337.989463
 31
0.0
  0
LINE
  5
74B
100
AcDbEntity
  8
LAY-2
  6
CONTINUOUS
 62
     2
100
AcDbLine
 10
355.582501
 20
335.461038
 30
0.0
 11
354.573184
 21
337.535962
 31
0.0
  0
LINE
  5
74C
100
AcDbEntity
  8
LAY-2
  6
CONTINUOUS
 62
     2
100
AcDbLine
 10
355.70004
 20
335.257455
 30
0.0
 11
354.75004
 21
337.842284
 31
0.0
  0
LINE
  5
74D
100
AcDbEntity
  8
LAY-2
  6
CONTINUOUS
 62
     2
100
AcDbLine
 10
355.891466
 20
335.589015
 30
0.0
 11
355.038071
 21
337.343399
 31
0.0
  0
LINE
  5
74E
100
AcDbEntity
  8
LAY-2
  6
CONTINUOUS
 62
     2
100
AcDbLine
 10
356.837919
 20
336.289463
 30
0.0
 11
356.65004
 21
336.800659
 31
0.0
  0
LINE
  5
74F
100
AcDbEntity
  8
LAY-2
  6
CONTINUOUS
 62
     2
100
AcDbLine
 10
356.744861
 20
336.636424
 30
0.0
 11
356.837919
 21
336.289463
 31
0.0
  0
LINE
  5
750
100
AcDbEntity
  8
LAY-2
  6
CONTINUOUS
 62
     2
100
AcDbLine
 10
356.591818
 20
336.699816
 30
0.0
 11
356.837919
 21
336.289463
 31
0.0
  0
LINE
  5
751
100
AcDbEntity
  8
LAY-2
  6
CONTINUOUS
 62
     2
100
AcDbLine
 10
335.382497
 20
308.989463
 30
0.0
 11
335.382497
 21
337.989463
 31
0.0
  0
DIMENSION
  5
75B
100
AcDbEntity
  8
LAY-2
  6
CONTINUOUS
 62
     3
100
AcDbDimension
  2
*D23
 10
369.582497
 20
354.789463
 30
0.0
 11
364.982497
 21
345.539463
 31
0.0
 70
   160
  3
STANDARD
100
AcDbAlignedDimension
 13
369.582497
 23
336.289463
 33
0.0
 14
369.582497
 24
354.789463
 34
0.0
 50
90.0
100
AcDbRotatedDimension
1001
ACAD
1000
DSTYLE
1002
{
1070
     6
1000
_EX_NORM
1070
     7
1000
_EX_NORM
1070
    41
1040
6.0
1070
    42
1040
0.0
1070
    44
1040
0.0
1070
    73
1070
     0
1070
    74
1070
     0
1070
    75
1070
     1
1070
    76
1070
     1
1070
    77
1070
     1
1070
    78
1070
     8
1070
   140
1040
8.0
1070
   147
1040
0.6
1070
   173
1070
     1
1070
   176
1070
     3
1070
   177
1070
     3
1070
   178
1070
     2
1070
   271
1070
     2
1070
   279
1070
     2
1070
   280
1070
     0
1070
   287
1070
     5
1070
   340
1005
5E5
1002
}
  0
LEADER
  5
75C
100
AcDbEntity
  8
LAY-2
  6
CONTINUOUS
 62
     6
100
AcDbLeader
  3
STANDARD
 73
     3
 74
     1
 75
     0
 40
0.0
 76
     2
 10
346.624458
 20
305.589463
 30
0.0
 10
360.13968
 20
275.305499
 30
0.0
 77
     6
1001
ACAD
1000
DSTYLE
1002
{
1070
    41
1040
6.0
1070
     5
1000
_EX_NORM
1070
     6
1000
_EX_NORM
1070
     7
1000
_EX_NORM
1070
   341
1005
27
1002
}
  0
LINE
  5
75D
100
AcDbEntity
  8
LAY-2
  6
CONTINUOUS
 62
     2
100
AcDbLine
 10
159.498133
 20
333.084967
 30
0.0
 11
162.903788
 21
353.333025
 31
0.0
  0
ARC
  5
75E
100
AcDbEntity
  8
LAY-2
  6
CONTINUOUS
 62
     2
100
AcDbCircle
 10
234.96335
 20
325.46983
 30
0.0
 40
75.909109
100
AcDbArc
 50
176.365532
 51
176.656941
  0
ARC
  5
75F
100
AcDbEntity
  8
LAY-2
  6
CONTINUOUS
 62
     2
100
AcDbCircle
 10
184.276463
 20
329.078312
 30
0.0
 40
25.091454
100
AcDbArc
 50
173.726324
 51
174.607527
  0
ARC
  5
760
100
AcDbEntity
  8
LAY-2
  6
CONTINUOUS
 62
     2
100
AcDbCircle
 10
184.905794
 20
328.998813
 30
0.0
 40
25.725705
100
AcDbArc
 50
173.135581
 51
173.703494
  0
ARC
  5
761
100
AcDbEntity
  8
LAY-2
  6
CONTINUOUS
 62
     2
100
AcDbCircle
 10
389.098978
 20
301.332794
 30
0.0
 40
231.785997
100
AcDbArc
 50
172.12634
 51
172.189395
  0
ARC
  5
762
100
AcDbEntity
  8
LAY-2
  6
CONTINUOUS
 62
     2
100
AcDbCircle
 10
235.995124
 20
322.334279
 30
0.0
 40
77.248453
100
AcDbArc
 50
172.189391
 51
172.378579
  0
ARC
  5
763
100
AcDbEntity
  8
LAY-2
  6
CONTINUOUS
 62
     2
100
AcDbCircle
 10
205.3546
 20
326.434254
 30
0.0
 40
46.33484
100
AcDbArc
 50
172.378574
 51
172.693951
  0
ARC
  5
764
100
AcDbEntity
  8
LAY-2
  6
CONTINUOUS
 62
     2
100
AcDbCircle
 10
192.212016
 20
328.119265
 30
0.0
 40
33.084679
100
AcDbArc
 50
172.693947
 51
173.135579
  0
ARC
  5
765
100
AcDbEntity
  8
LAY-2
  6
CONTINUOUS
 62
     2
100
AcDbCircle
 10
189.309519
 20
328.603217
 30
0.0
 40
30.146883
100
AcDbArc
 50
174.607531
 51
175.341058
  0
ARC
  5
766
100
AcDbEntity
  8
LAY-2
  6
CONTINUOUS
 62
     2
100
AcDbCircle
 10
196.884091
 20
327.98593
 30
0.0
 40
37.746567
100
AcDbArc
 50
175.341045
 51
175.926991
  0
ARC
  5
767
100
AcDbEntity
  8
LAY-2
  6
CONTINUOUS
 62
     2
100
AcDbCircle
 10
209.542441
 20
327.084545
 30
0.0
 40
50.436968
100
AcDbArc
 50
175.926973
 51
176.365546
  0
ARC
  5
768
100
AcDbEntity
  8
LAY-2
  6
CONTINUOUS
 62
     2
100
AcDbCircle
 10
261.445679
 20
323.901926
 30
0.0
 40
102.437806
100
AcDbArc
 50
176.64523
 51
179.156913
  0
ARC
  5
769
100
AcDbEntity
  8
LAY-2
  6
CONTINUOUS
 62
     2
100
AcDbCircle
 10
196.884091
 20
327.981511
 30
0.0
 40
37.746567
100
AcDbArc
 50
175.341045
 51
175.926991
  0
ARC
  5
76A
100
AcDbEntity
  8
LAY-2
  6
CONTINUOUS
 62
     2
100
AcDbCircle
 10
158.734552
 20
329.0445
 30
0.0
 40
1.313312
100
AcDbArc
 50
10.134039
 51
12.63892
  0
ARC
  5
76B
100
AcDbEntity
  8
LAY-2
  6
CONTINUOUS
 62
     2
100
AcDbCircle
 10
159.193417
 20
329.146817
 30
0.0
 40
0.84318
100
AcDbArc
 50
12.677324
 51
16.71042
  0
ARC
  5
76C
100
AcDbEntity
  8
LAY-2
  6
CONTINUOUS
 62
     2
100
AcDbCircle
 10
159.300379
 20
329.1781
 30
0.0
 40
0.73174
100
AcDbArc
 50
16.772559
 51
29.723743
  0
ARC
  5
76D
100
AcDbEntity
  8
LAY-2
  6
CONTINUOUS
 62
     2
100
AcDbCircle
 10
159.619528
 20
329.359399
 30
0.0
 40
0.364692
100
AcDbArc
 50
29.848578
 51
34.827597
  0
ARC
  5
76E
100
AcDbEntity
  8
LAY-2
  6
CONTINUOUS
 62
     2
100
AcDbCircle
 10
159.760857
 20
329.458559
 30
0.0
 40
0.192049
100
AcDbArc
 50
34.623673
 51
43.21953
  0
ARC
  5
76F
100
AcDbEntity
  8
LAY-2
  6
CONTINUOUS
 62
     2
100
AcDbCircle
 10
159.836972
 20
329.53108
 30
0.0
 40
0.086923
100
AcDbArc
 50
42.741469
 51
58.825446
  0
ARC
  5
770
100
AcDbEntity
  8
LAY-2
  6
CONTINUOUS
 62
     2
100
AcDbCircle
 10
159.861735
 20
329.572574
 30
0.0
 40
0.038603
100
AcDbArc
 50
58.391892
 51
88.500609
  0
ARC
  5
771
100
AcDbEntity
  8
LAY-2
  6
CONTINUOUS
 62
     2
100
AcDbCircle
 10
159.863756
 20
329.572575
 30
0.0
 40
0.038602
100
AcDbArc
 50
91.499959
 51
121.608914
  0
ARC
  5
772
100
AcDbEntity
  8
LAY-2
  6
CONTINUOUS
 62
     2
100
AcDbCircle
 10
159.88852
 20
329.53108
 30
0.0
 40
0.086923
100
AcDbArc
 50
121.175401
 51
137.259267
  0
ARC
  5
773
100
AcDbEntity
  8
LAY-2
  6
CONTINUOUS
 62
     2
100
AcDbCircle
 10
159.964643
 20
329.458553
 30
0.0
 40
0.192059
100
AcDbArc
 50
136.781196
 51
145.376536
  0
ARC
  5
774
100
AcDbEntity
  8
LAY-2
  6
CONTINUOUS
 62
     2
100
AcDbCircle
 10
160.106016
 20
329.359364
 30
0.0
 40
0.364756
100
AcDbArc
 50
145.172614
 51
150.150752
  0
ARC
  5
775
100
AcDbEntity
  8
LAY-2
  6
CONTINUOUS
 62
     2
100
AcDbCircle
 10
160.327382
 20
329.23129
 30
0.0
 40
0.6205
100
AcDbArc
 50
150.06719
 51
153.059808
  0
ARC
  5
776
100
AcDbEntity
  8
LAY-2
  6
CONTINUOUS
 62
     2
100
AcDbCircle
 10
160.444623
 20
329.169157
 30
0.0
 40
0.753171
100
AcDbArc
 50
152.886901
 51
158.186213
  0
ARC
  5
777
100
AcDbEntity
  8
LAY-2
  6
CONTINUOUS
 62
     2
100
AcDbCircle
 10
160.420131
 20
329.179647
 30
0.0
 40
0.726536
100
AcDbArc
 50
158.2365
 51
163.23092
  0
ARC
  5
778
100
AcDbEntity
  8
LAY-2
  6
CONTINUOUS
 62
     2
100
AcDbCircle
 10
160.531297
 20
329.146969
 30
0.0
 40
0.842402
100
AcDbArc
 50
163.284316
 51
167.321126
  0
ARC
  5
779
100
AcDbEntity
  8
LAY-2
  6
CONTINUOUS
 62
     2
100
AcDbCircle
 10
160.987091
 20
329.045329
 30
0.0
 40
1.309391
100
AcDbArc
 50
167.359549
 51
169.871946
  0
ARC
  5
77A
100
AcDbEntity
  8
LAY-2
  6
CONTINUOUS
 62
     2
100
AcDbCircle
 10
164.472117
 20
328.423897
 30
0.0
 40
4.849389
100
AcDbArc
 50
169.884823
 51
170.561229
  0
ARC
  5
77B
100
AcDbEntity
  8
LAY-2
  6
CONTINUOUS
 62
     2
100
AcDbCircle
 10
140.424141
 20
332.484475
 30
0.0
 40
19.539018
100
AcDbArc
 50
350.105881
 51
350.379741
  0
ARC
  5
77C
100
AcDbEntity
  8
LAY-2
  6
CONTINUOUS
 62
     2
100
AcDbCircle
 10
-372.220564
 20
421.901078
 30
0.0
 40
539.923417
100
AcDbArc
 50
350.095677
 51
350.105881
  0
ARC
  5
77D
100
AcDbEntity
  8
LAY-2
  6
CONTINUOUS
 62
     2
100
AcDbCircle
 10
184.142025
 20
324.756418
 30
0.0
 40
24.856554
100
AcDbArc
 50
170.094342
 51
170.320273
  0
ARC
  5
77E
100
AcDbEntity
  8
LAY-2
  6
CONTINUOUS
 62
     2
100
AcDbCircle
 10
171.726702
 20
326.874041
 30
0.0
 40
12.261929
100
AcDbArc
 50
170.320061
 51
170.782532
  0
ARC
  5
77F
100
AcDbEntity
  8
LAY-2
  6
CONTINUOUS
 62
     2
100
AcDbCircle
 10
167.535329
 20
327.554026
 30
0.0
 40
8.015756
100
AcDbArc
 50
170.781257
 51
171.489171
  0
ARC
  5
780
100
AcDbEntity
  8
LAY-2
  6
CONTINUOUS
 62
     2
100
AcDbCircle
 10
166.766056
 20
327.673528
 30
0.0
 40
7.23727
100
AcDbArc
 50
171.523499
 51
172.571269
  0
ARC
  5
781
100
AcDbEntity
  8
LAY-2
  6
CONTINUOUS
 62
     2
100
AcDbCircle
 10
168.083058
 20
327.501958
 30
0.0
 40
8.5654
100
AcDbArc
 50
172.572268
 51
173.450124
  0
ARC
  5
782
100
AcDbEntity
  8
LAY-2
  6
CONTINUOUS
 62
     2
100
AcDbCircle
 10
170.223519
 20
327.25634
 30
0.0
 40
10.719907
100
AcDbArc
 50
173.450892
 51
174.148245
  0
ARC
  5
783
100
AcDbEntity
  8
LAY-2
  6
CONTINUOUS
 62
     2
100
AcDbCircle
 10
174.119482
 20
326.857183
 30
0.0
 40
14.636265
100
AcDbArc
 50
174.148774
 51
174.657859
  0
ARC
  5
784
100
AcDbEntity
  8
LAY-2
  6
CONTINUOUS
 62
     2
100
AcDbCircle
 10
183.010188
 20
326.02594
 30
0.0
 40
23.565745
100
AcDbArc
 50
174.658148
 51
174.974075
  0
ARC
  5
785
100
AcDbEntity
  8
LAY-2
  6
CONTINUOUS
 62
     2
100
AcDbCircle
 10
194.889002
 20
324.973494
 30
0.0
 40
35.491089
100
AcDbArc
 50
174.961582
 51
175.518803
  0
ARC
  5
786
100
AcDbEntity
  8
LAY-2
  6
CONTINUOUS
 62
     2
100
AcDbCircle
 10
197.868853
 20
324.739841
 30
0.0
 40
38.480086
100
AcDbArc
 50
175.518629
 51
176.0342
  0
ARC
  5
787
100
AcDbEntity
  8
LAY-2
  6
CONTINUOUS
 62
     2
100
AcDbCircle
 10
201.158127
 20
324.511693
 30
0.0
 40
41.777263
100
AcDbArc
 50
176.034046
 51
176.509937
  0
ARC
  5
788
100
AcDbEntity
  8
LAY-2
  6
CONTINUOUS
 62
     2
100
AcDbCircle
 10
204.820792
 20
324.288207
 30
0.0
 40
45.44674
100
AcDbArc
 50
176.509804
 51
176.947739
  0
ARC
  5
789
100
AcDbEntity
  8
LAY-2
  6
CONTINUOUS
 62
     2
100
AcDbCircle
 10
208.943161
 20
324.068293
 30
0.0
 40
49.57497
100
AcDbArc
 50
176.947625
 51
177.349092
  0
ARC
  5
78A
100
AcDbEntity
  8
LAY-2
  6
CONTINUOUS
 62
     2
100
AcDbCircle
 10
213.297252
 20
323.866775
 30
0.0
 40
53.933723
100
AcDbArc
 50
177.349173
 51
177.800621
  0
ARC
  5
78B
100
AcDbEntity
  8
LAY-2
  6
CONTINUOUS
 62
     2
100
AcDbCircle
 10
218.088106
 20
323.682829
 30
0.0
 40
58.728107
100
AcDbArc
 50
177.800668
 51
178.214867
  0
ARC
  5
78C
100
AcDbEntity
  8
LAY-2
  6
CONTINUOUS
 62
     2
100
AcDbCircle
 10
193.488227
 20
334.014413
 30
0.0
 40
33.920577
100
AcDbArc
 50
189.331362
 51
189.463798
  0
ARC
  5
78D
100
AcDbEntity
  8
LAY-2
  6
CONTINUOUS
 62
     2
100
AcDbCircle
 10
156.526915
 20
327.95089
 30
0.0
 40
3.534807
100
AcDbArc
 50
9.173029
 51
9.992596
  0
ARC
  5
78E
100
AcDbEntity
  8
LAY-2
  6
CONTINUOUS
 62
     2
100
AcDbCircle
 10
158.910612
 20
328.370605
 30
0.0
 40
1.114441
100
AcDbArc
 50
10.006641
 51
12.615999
  0
ARC
  5
78F
100
AcDbEntity
  8
LAY-2
  6
CONTINUOUS
 62
     2
100
AcDbCircle
 10
159.278517
 20
328.452439
 30
0.0
 40
0.737546
100
AcDbArc
 50
12.654679
 51
16.733461
  0
ARC
  5
790
100
AcDbEntity
  8
LAY-2
  6
CONTINUOUS
 62
     2
100
AcDbCircle
 10
159.362619
 20
328.476976
 30
0.0
 40
0.64994
100
AcDbArc
 50
16.796619
 51
27.174795
  0
ARC
  5
791
100
AcDbEntity
  8
LAY-2
  6
CONTINUOUS
 62
     2
100
AcDbCircle
 10
159.447674
 20
328.523641
 30
0.0
 40
0.552968
100
AcDbArc
 50
26.898237
 51
29.867193
  0
ARC
  5
792
100
AcDbEntity
  8
LAY-2
  6
CONTINUOUS
 62
     2
100
AcDbCircle
 10
159.646307
 20
328.638252
 30
0.0
 40
0.323642
100
AcDbArc
 50
29.783779
 51
34.742859
  0
ARC
  5
793
100
AcDbEntity
  8
LAY-2
  6
CONTINUOUS
 62
     2
100
AcDbCircle
 10
159.772257
 20
328.726341
 30
0.0
 40
0.169947
100
AcDbArc
 50
34.538439
 51
43.120604
  0
ARC
  5
794
100
AcDbEntity
  8
LAY-2
  6
CONTINUOUS
 62
     2
100
AcDbCircle
 10
159.839887
 20
328.790556
 30
0.0
 40
0.076692
100
AcDbArc
 50
42.639507
 51
58.733219
  0
ARC
  5
795
100
AcDbEntity
  8
LAY-2
  6
CONTINUOUS
 62
     2
100
AcDbCircle
 10
159.861853
 20
328.827233
 30
0.0
 40
0.033943
100
AcDbArc
 50
58.293962
 51
88.493362
  0
ARC
  5
796
100
AcDbEntity
  8
LAY-2
  6
CONTINUOUS
 62
     2
100
AcDbCircle
 10
159.863643
 20
328.827217
 30
0.0
 40
0.033958
100
AcDbArc
 50
91.515038
 51
121.705073
  0
ARC
  5
797
100
AcDbEntity
  8
LAY-2
  6
CONTINUOUS
 62
     2
100
AcDbCircle
 10
159.885619
 20
328.79052
 30
0.0
 40
0.076731
100
AcDbArc
 50
121.264372
 51
137.353301
  0
ARC
  5
798
100
AcDbEntity
  8
LAY-2
  6
CONTINUOUS
 62
     2
100
AcDbCircle
 10
159.953179
 20
328.726355
 30
0.0
 40
0.1699
100
AcDbArc
 50
136.872462
 51
145.457818
  0
ARC
  5
799
100
AcDbEntity
  8
LAY-2
  6
CONTINUOUS
 62
     2
100
AcDbCircle
 10
160.078654
 20
328.638584
 30
0.0
 40
0.323025
100
AcDbArc
 50
145.253469
 51
150.221786
  0
ARC
  5
79A
100
AcDbEntity
  8
LAY-2
  6
CONTINUOUS
 62
     2
100
AcDbCircle
 10
160.27516
 20
328.525219
 30
0.0
 40
0.549886
100
AcDbArc
 50
150.13821
 51
153.123102
  0
ARC
  5
79B
100
AcDbEntity
  8
LAY-2
  6
CONTINUOUS
 62
     2
100
AcDbCircle
 10
160.379092
 20
328.470284
 30
0.0
 40
0.667429
100
AcDbArc
 50
152.950073
 51
158.240994
  0
ARC
  5
79C
100
AcDbEntity
  8
LAY-2
  6
CONTINUOUS
 62
     2
100
AcDbCircle
 10
160.356931
 20
328.479737
 30
0.0
 40
0.643343
100
AcDbArc
 50
158.291286
 51
163.280045
  0
ARC
  5
79D
100
AcDbEntity
  8
LAY-2
  6
CONTINUOUS
 62
     2
100
AcDbCircle
 10
160.455103
 20
328.450974
 30
0.0
 40
0.745639
100
AcDbArc
 50
163.333563
 51
167.366474
  0
ARC
  5
79E
100
AcDbEntity
  8
LAY-2
  6
CONTINUOUS
 62
     2
100
AcDbCircle
 10
160.85911
 20
328.361219
 30
0.0
 40
1.159496
100
AcDbArc
 50
167.405031
 51
169.913583
  0
ARC
  5
79F
100
AcDbEntity
  8
LAY-2
  6
CONTINUOUS
 62
     2
100
AcDbCircle
 10
163.969422
 20
327.808936
 30
0.0
 40
4.31846
100
AcDbArc
 50
169.926482
 51
170.598077
  0
ARC
  5
7A0
100
AcDbEntity
  8
LAY-2
  6
CONTINUOUS
 62
     2
100
AcDbCircle
 10
143.06545
 20
331.324596
 30
0.0
 40
16.879102
100
AcDbArc
 50
350.135811
 51
350.416203
  0
ARC
  5
7A1
100
AcDbEntity
  8
LAY-2
  6
CONTINUOUS
 62
     2
100
AcDbCircle
 10
-193.432002
 20
389.836104
 30
0.0
 40
358.425778
100
AcDbArc
 50
350.122214
 51
350.135811
  0
ARC
  5
7A2
100
AcDbEntity
  8
LAY-2
  6
CONTINUOUS
 62
     2
100
AcDbCircle
 10
181.422965
 20
324.562654
 30
0.0
 40
22.06978
100
AcDbArc
 50
170.120848
 51
170.345951
  0
ARC
  5
7A3
100
AcDbEntity
  8
LAY-2
  6
CONTINUOUS
 62
     2
100
AcDbCircle
 10
170.317655
 20
326.451712
 30
0.0
 40
10.804948
100
AcDbArc
 50
170.345732
 51
170.809983
  0
ARC
  5
7A4
100
AcDbEntity
  8
LAY-2
  6
CONTINUOUS
 62
     2
100
AcDbCircle
 10
166.604183
 20
327.052336
 30
0.0
 40
7.043217
100
AcDbArc
 50
170.808676
 51
171.521221
  0
ARC
  5
7A5
100
AcDbEntity
  8
LAY-2
  6
CONTINUOUS
 62
     2
100
AcDbCircle
 10
165.939271
 20
327.155413
 30
0.0
 40
6.370374
100
AcDbArc
 50
171.556423
 51
172.608969
  0
ARC
  5
7A6
100
AcDbEntity
  8
LAY-2
  6
CONTINUOUS
 62
     2
100
AcDbCircle
 10
167.16163
 20
326.996997
 30
0.0
 40
7.602956
100
AcDbArc
 50
172.610059
 51
173.484471
  0
ARC
  5
7A7
100
AcDbEntity
  8
LAY-2
  6
CONTINUOUS
 62
     2
100
AcDbCircle
 10
169.19897
 20
326.764451
 30
0.0
 40
9.653525
100
AcDbArc
 50
173.485293
 51
174.170105
  0
ARC
  5
7A8
100
AcDbEntity
  8
LAY-2
  6
CONTINUOUS
 62
     2
100
AcDbCircle
 10
173.061239
 20
326.370229
 30
0.0
 40
13.535861
100
AcDbArc
 50
174.170649
 51
174.657681
  0
ARC
  5
7A9
100
AcDbEntity
  8
LAY-2
  6
CONTINUOUS
 62
     2
100
AcDbCircle
 10
182.659987
 20
325.472736
 30
0.0
 40
23.176475
100
AcDbArc
 50
174.657944
 51
174.942374
  0
ARC
  5
7AA
100
AcDbEntity
  8
LAY-2
  6
CONTINUOUS
 62
     2
100
AcDbCircle
 10
194.89377
 20
324.378958
 30
0.0
 40
35.459054
100
AcDbArc
 50
174.924571
 51
175.153575
  0
ARC
  5
7AB
100
AcDbEntity
  8
LAY-2
  6
CONTINUOUS
 62
     2
100
AcDbCircle
 10
193.477841
 20
324.498988
 30
0.0
 40
34.038046
100
AcDbArc
 50
175.153533
 51
175.392674
  0
ARC
  5
7AC
100
AcDbEntity
  8
LAY-2
  6
CONTINUOUS
 62
     2
100
AcDbCircle
 10
192.082358
 20
324.611419
 30
0.0
 40
32.638041
100
AcDbArc
 50
175.392629
 51
175.642426
  0
ARC
  5
7AD
100
AcDbEntity
  8
LAY-2
  6
CONTINUOUS
 62
     2
100
AcDbCircle
 10
190.707617
 20
324.716149
 30
0.0
 40
31.259316
100
AcDbArc
 50
175.642377
 51
175.9034
  0
ARC
  5
7AE
100
AcDbEntity
  8
LAY-2
  6
CONTINUOUS
 62
     2
100
AcDbCircle
 10
189.352916
 20
324.813145
 30
0.0
 40
29.901148
100
AcDbArc
 50
175.903344
 51
176.491631
  0
ARC
  5
7AF
100
AcDbEntity
  8
LAY-2
  6
CONTINUOUS
 62
     2
100
AcDbCircle
 10
193.041217
 20
324.585072
 30
0.0
 40
33.596493
100
AcDbArc
 50
176.488318
 51
176.768843
  0
ARC
  5
7B0
100
AcDbEntity
  8
LAY-2
  6
CONTINUOUS
 62
     2
100
AcDbCircle
 10
196.810441
 20
324.372295
 30
0.0
 40
37.371718
100
AcDbArc
 50
176.768861
 51
177.020934
  0
ARC
  5
7B1
100
AcDbEntity
  8
LAY-2
  6
CONTINUOUS
 62
     2
100
AcDbCircle
 10
201.586726
 20
324.123742
 30
0.0
 40
42.154466
100
AcDbArc
 50
177.020949
 51
177.244374
  0
ARC
  5
7B2
100
AcDbEntity
  8
LAY-2
  6
CONTINUOUS
 62
     2
100
AcDbCircle
 10
207.818679
 20
323.823796
 30
0.0
 40
48.393633
100
AcDbArc
 50
177.244385
 51
177.439006
  0
ARC
  5
7B3
100
AcDbEntity
  8
LAY-2
  6
CONTINUOUS
 62
     2
100
AcDbCircle
 10
212.934687
 20
323.593577
 30
0.0
 40
53.514818
100
AcDbArc
 50
177.437517
 51
177.826745
  0
ARC
  5
7B4
100
AcDbEntity
  8
LAY-2
  6
CONTINUOUS
 62
     2
100
AcDbCircle
 10
216.110482
 20
323.471234
 30
0.0
 40
56.692968
100
AcDbArc
 50
177.824901
 51
178.192401
  0
ARC
  5
7B5
100
AcDbEntity
  8
LAY-2
  6
CONTINUOUS
 62
     2
100
AcDbCircle
 10
101.74415
 20
322.587788
 30
0.0
 40
58.704857
100
AcDbArc
 50
5.398785
 51
5.521401
  0
ARC
  5
7B6
100
AcDbEntity
  8
LAY-2
  6
CONTINUOUS
 62
     2
100
AcDbCircle
 10
140.584346
 20
326.342233
 30
0.0
 40
19.683623
100
AcDbArc
 50
5.521641
 51
5.888052
  0
ARC
  5
7B7
100
AcDbEntity
  8
LAY-2
  6
CONTINUOUS
 62
     2
100
AcDbCircle
 10
148.27585
 20
327.13535
 30
0.0
 40
11.951336
100
AcDbArc
 50
5.888536
 51
6.494403
  0
ARC
  5
7B8
100
AcDbEntity
  8
LAY-2
  6
CONTINUOUS
 62
     2
100
AcDbCircle
 10
151.513406
 20
327.503791
 30
0.0
 40
8.692883
100
AcDbArc
 50
6.495137
 51
7.333161
  0
ARC
  5
7B9
100
AcDbEntity
  8
LAY-2
  6
CONTINUOUS
 62
     2
100
AcDbCircle
 10
153.300597
 20
327.73385
 30
0.0
 40
6.890945
100
AcDbArc
 50
7.332637
 51
9.222135
  0
ARC
  5
7BA
100
AcDbEntity
  8
LAY-2
  6
CONTINUOUS
 62
     2
100
AcDbCircle
 10
148.819852
 20
327.012989
 30
0.0
 40
11.429303
100
AcDbArc
 50
9.189289
 51
9.685464
  0
ARC
  5
7BB
100
AcDbEntity
  8
LAY-2
  6
CONTINUOUS
 62
     2
100
AcDbCircle
 10
137.507297
 20
325.082346
 30
0.0
 40
22.90542
100
AcDbArc
 50
9.685234
 51
9.930402
  0
ARC
  5
7BC
100
AcDbEntity
  8
LAY-2
  6
CONTINUOUS
 62
     2
100
AcDbCircle
 10
699.047474
 20
423.403053
 30
0.0
 40
547.17732
100
AcDbArc
 50
189.921282
 51
189.93135
  0
ARC
  5
7BD
100
AcDbEntity
  8
LAY-2
  6
CONTINUOUS
 62
     2
100
AcDbCircle
 10
178.867996
 20
332.418086
 30
0.0
 40
19.100665
100
AcDbArc
 50
189.641153
 51
189.921282
  0
ARC
  5
7BE
100
AcDbEntity
  8
LAY-2
  6
CONTINUOUS
 62
     2
100
AcDbCircle
 10
155.175803
 20
328.409529
 30
0.0
 40
4.928265
100
AcDbArc
 50
9.455657
 51
10.12122
  0
ARC
  5
7BF
100
AcDbEntity
  8
LAY-2
  6
CONTINUOUS
 62
     2
100
AcDbCircle
 10
529.25946
 20
391.080233
 30
0.0
 40
374.506698
100
AcDbArc
 50
189.66676
 51
189.679617
  0
ARC
  5
7C0
100
AcDbEntity
  8
LAY-2
  6
CONTINUOUS
 62
     2
100
AcDbCircle
 10
281.218623
 20
348.829927
 30
0.0
 40
122.893214
100
AcDbArc
 50
189.627842
 51
189.66676
  0
ARC
  5
7C1
100
AcDbEntity
  8
LAY-2
  6
CONTINUOUS
 62
     2
100
AcDbCircle
 10
229.738408
 20
340.096966
 30
0.0
 40
70.677536
100
AcDbArc
 50
189.561086
 51
189.627842
  0
ARC
  5
7C2
100
AcDbEntity
  8
LAY-2
  6
CONTINUOUS
 62
     2
100
AcDbCircle
 10
206.884165
 20
336.247424
 30
0.0
 40
47.501354
100
AcDbArc
 50
189.463798
 51
189.561086
  0
ARC
  5
7C3
100
AcDbEntity
  8
LAY-2
  6
CONTINUOUS
 62
     2
100
AcDbCircle
 10
280.628411
 20
323.562704
 30
0.0
 40
121.623465
100
AcDbArc
 50
179.130094
 51
179.346205
  0
ARC
  5
7C4
100
AcDbEntity
  8
LAY-2
  6
CONTINUOUS
 62
     2
100
AcDbCircle
 10
315.371414
 20
323.16624
 30
0.0
 40
156.368731
100
AcDbArc
 50
179.346206
 51
179.514295
  0
ARC
  5
7C5
100
AcDbEntity
  8
LAY-2
  6
CONTINUOUS
 62
     2
100
AcDbCircle
 10
377.916994
 20
322.63602
 30
0.0
 40
218.916558
100
AcDbArc
 50
179.514295
 51
179.634359
  0
ARC
  5
7C6
100
AcDbEntity
  8
LAY-2
  6
CONTINUOUS
 62
     2
100
AcDbCircle
 10
523.862611
 20
321.704635
 30
0.0
 40
364.865147
100
AcDbArc
 50
179.634359
 51
179.706397
  0
ARC
  5
7C7
100
AcDbEntity
  8
LAY-2
  6
CONTINUOUS
 62
     2
100
AcDbCircle
 10
1253.59311
 20
317.965211
 30
0.0
 40
1094.605227
100
AcDbArc
 50
179.706397
 51
179.730409
  0
ARC
  5
7C8
100
AcDbEntity
  8
LAY-2
  6
CONTINUOUS
 62
     2
100
AcDbCircle
 10
1443.368698
 20
325.532088
 30
0.0
 40
1284.370971
100
AcDbArc
 50
180.1078
 51
180.115272
  0
ARC
  5
7C9
100
AcDbEntity
  8
LAY-2
  6
CONTINUOUS
 62
     2
100
AcDbCircle
 10
587.123187
 20
323.809422
 30
0.0
 40
428.123727
100
AcDbArc
 50
180.115272
 51
180.137688
  0
ARC
  5
7CA
100
AcDbEntity
  8
LAY-2
  6
CONTINUOUS
 62
     2
100
AcDbCircle
 10
415.874432
 20
323.397891
 30
0.0
 40
256.874477
100
AcDbArc
 50
180.137688
 51
180.175048
  0
ARC
  5
7CB
100
AcDbEntity
  8
LAY-2
  6
CONTINUOUS
 62
     2
100
AcDbCircle
 10
342.482605
 20
323.173667
 30
0.0
 40
183.482309
100
AcDbArc
 50
180.175048
 51
180.227351
  0
ARC
  5
7CC
100
AcDbEntity
  8
LAY-2
  6
CONTINUOUS
 62
     2
100
AcDbCircle
 10
301.710047
 20
323.01188
 30
0.0
 40
142.709429
100
AcDbArc
 50
180.227351
 51
180.294597
  0
ARC
  5
7CD
100
AcDbEntity
  8
LAY-2
  6
CONTINUOUS
 62
     2
100
AcDbCircle
 10
285.157501
 20
322.928454
 30
0.0
 40
126.156674
100
AcDbArc
 50
180.295362
 51
180.457726
  0
ARC
  5
7CE
100
AcDbEntity
  8
LAY-2
  6
CONTINUOUS
 62
     2
100
AcDbCircle
 10
280.825449
 20
322.893845
 30
0.0
 40
121.824483
100
AcDbArc
 50
180.457725
 51
180.625864
  0
ARC
  5
7CF
100
AcDbEntity
  8
LAY-2
  6
CONTINUOUS
 62
     2
100
AcDbCircle
 10
276.778342
 20
322.849635
 30
0.0
 40
117.777135
100
AcDbArc
 50
180.625864
 51
180.79978
  0
ARC
  5
7D0
100
AcDbEntity
  8
LAY-2
  6
CONTINUOUS
 62
     2
100
AcDbCircle
 10
272.989183
 20
322.796739
 30
0.0
 40
113.987606
100
AcDbArc
 50
180.79978
 51
180.979478
  0
ARC
  5
7D1
100
AcDbEntity
  8
LAY-2
  6
CONTINUOUS
 62
     2
100
AcDbCircle
 10
270.501149
 20
322.755064
 30
0.0
 40
111.499223
100
AcDbArc
 50
180.979921
 51
181.280557
  0
ARC
  5
7D2
100
AcDbEntity
  8
LAY-2
  6
CONTINUOUS
 62
     2
100
AcDbCircle
 10
314.327243
 20
323.72062
 30
0.0
 40
155.335951
100
AcDbArc
 50
181.275351
 51
181.359281
  0
ARC
  5
7D3
100
AcDbEntity
  8
LAY-2
  6
CONTINUOUS
 62
     2
100
AcDbCircle
 10
376.445121
 20
325.194577
 30
0.0
 40
217.471314
100
AcDbArc
 50
181.359281
 51
181.419231
  0
ARC
  5
7D4
100
AcDbEntity
  8
LAY-2
  6
CONTINUOUS
 62
     2
100
AcDbCircle
 10
521.383564
 20
328.785474
 30
0.0
 40
362.454233
100
AcDbArc
 50
181.419231
 51
181.455201
  0
ARC
  5
7D5
100
AcDbEntity
  8
LAY-2
  6
CONTINUOUS
 62
     2
100
AcDbCircle
 10
1246.062159
 20
347.194856
 30
0.0
 40
1087.366622
100
AcDbArc
 50
181.455201
 51
181.467191
  0
ARC
  5
7D6
100
AcDbEntity
  8
LAY-2
  6
CONTINUOUS
 62
     2
100
AcDbCircle
 10
847.363153
 20
341.2669
 30
0.0
 40
688.659862
100
AcDbArc
 50
181.823491
 51
181.849434
  0
ARC
  5
7D7
100
AcDbEntity
  8
LAY-2
  6
CONTINUOUS
 62
     2
100
AcDbCircle
 10
388.625494
 20
326.454316
 30
0.0
 40
229.683117
100
AcDbArc
 50
181.849439
 51
181.927236
  0
ARC
  5
7D8
100
AcDbEntity
  8
LAY-2
  6
CONTINUOUS
 62
     2
100
AcDbCircle
 10
223.937861
 20
323.500556
 30
0.0
 40
64.5807
100
AcDbArc
 50
178.214906
 51
178.591346
  0
ARC
  5
7D9
100
AcDbEntity
  8
LAY-2
  6
CONTINUOUS
 62
     2
100
AcDbCircle
 10
231.207467
 20
323.321832
 30
0.0
 40
71.852504
100
AcDbArc
 50
178.591378
 51
178.929637
  0
ARC
  5
7DA
100
AcDbEntity
  8
LAY-2
  6
CONTINUOUS
 62
     2
100
AcDbCircle
 10
240.445693
 20
323.149265
 30
0.0
 40
81.092341
100
AcDbArc
 50
178.929662
 51
179.229405
  0
ARC
  5
7DB
100
AcDbEntity
  8
LAY-2
  6
CONTINUOUS
 62
     2
100
AcDbCircle
 10
244.827684
 20
323.084819
 30
0.0
 40
85.474803
100
AcDbArc
 50
179.225714
 51
179.679657
  0
ARC
  5
7DC
100
AcDbEntity
  8
LAY-2
  6
CONTINUOUS
 62
     2
100
AcDbCircle
 10
241.764483
 20
323.104629
 30
0.0
 40
82.411538
100
AcDbArc
 50
179.681522
 51
180.152417
  0
ARC
  5
7DD
100
AcDbEntity
  8
LAY-2
  6
CONTINUOUS
 62
     2
100
AcDbCircle
 10
239.867703
 20
323.10153
 30
0.0
 40
80.514757
100
AcDbArc
 50
180.153803
 51
181.26376
  0
ARC
  5
7DE
100
AcDbEntity
  8
LAY-2
  6
CONTINUOUS
 62
     2
100
AcDbCircle
 10
230.845316
 20
322.926414
 30
0.0
 40
71.490707
100
AcDbArc
 50
181.282926
 51
181.458393
  0
ARC
  5
7DF
100
AcDbEntity
  8
LAY-2
  6
CONTINUOUS
 62
     2
100
AcDbCircle
 10
228.558548
 20
322.868195
 30
0.0
 40
69.203198
100
AcDbArc
 50
181.458394
 51
181.639671
  0
ARC
  5
7E0
100
AcDbEntity
  8
LAY-2
  6
CONTINUOUS
 62
     2
100
AcDbCircle
 10
225.774508
 20
322.788035
 30
0.0
 40
66.418004
100
AcDbArc
 50
181.639269
 51
181.993887
  0
ARC
  5
7E1
100
AcDbEntity
  8
LAY-2
  6
CONTINUOUS
 62
     2
100
AcDbCircle
 10
221.988542
 20
322.65816
 30
0.0
 40
62.629811
100
AcDbArc
 50
181.995651
 51
182.371672
  0
ARC
  5
7E2
100
AcDbEntity
  8
LAY-2
  6
CONTINUOUS
 62
     2
100
AcDbCircle
 10
219.10328
 20
322.541015
 30
0.0
 40
59.742173
100
AcDbArc
 50
182.373927
 51
182.570976
  0
ARC
  5
7E3
100
AcDbEntity
  8
LAY-2
  6
CONTINUOUS
 62
     2
100
AcDbCircle
 10
213.91274
 20
322.306086
 30
0.0
 40
54.54632
100
AcDbArc
 50
182.569022
 51
182.764213
  0
ARC
  5
7E4
100
AcDbEntity
  8
LAY-2
  6
CONTINUOUS
 62
     2
100
AcDbCircle
 10
206.895977
 20
321.967311
 30
0.0
 40
47.521383
100
AcDbArc
 50
182.764225
 51
182.98827
  0
ARC
  5
7E5
100
AcDbEntity
  8
LAY-2
  6
CONTINUOUS
 62
     2
100
AcDbCircle
 10
201.516528
 20
321.686501
 30
0.0
 40
42.13461
100
AcDbArc
 50
182.988285
 51
183.241029
  0
ARC
  5
7E6
100
AcDbEntity
  8
LAY-2
  6
CONTINUOUS
 62
     2
100
AcDbCircle
 10
197.270245
 20
321.446059
 30
0.0
 40
37.881525
100
AcDbArc
 50
183.241047
 51
183.522293
  0
ARC
  5
7E7
100
AcDbEntity
  8
LAY-2
  6
CONTINUOUS
 62
     2
100
AcDbCircle
 10
193.841097
 20
321.234997
 30
0.0
 40
34.445888
100
AcDbArc
 50
183.522315
 51
183.831824
  0
ARC
  5
7E8
100
AcDbEntity
  8
LAY-2
  6
CONTINUOUS
 62
     2
100
AcDbCircle
 10
193.105844
 20
321.187722
 30
0.0
 40
33.70912
100
AcDbArc
 50
183.835165
 51
184.108792
  0
ARC
  5
7E9
100
AcDbEntity
  8
LAY-2
  6
CONTINUOUS
 62
     2
100
AcDbCircle
 10
194.609467
 20
321.295702
 30
0.0
 40
35.216615
100
AcDbArc
 50
184.108738
 51
184.370654
  0
ARC
  5
7EA
100
AcDbEntity
  8
LAY-2
  6
CONTINUOUS
 62
     2
100
AcDbCircle
 10
219.009342
 20
323.377406
 30
0.0
 40
59.593346
100
AcDbArc
 50
178.19015
 51
178.364961
  0
ARC
  5
7EB
100
AcDbEntity
  8
LAY-2
  6
CONTINUOUS
 62
     2
100
AcDbCircle
 10
220.859273
 20
323.324622
 30
0.0
 40
61.44403
100
AcDbArc
 50
178.364981
 51
178.54559
  0
ARC
  5
7EC
100
AcDbEntity
  8
LAY-2
  6
CONTINUOUS
 62
     2
100
AcDbCircle
 10
222.812266
 20
323.275037
 30
0.0
 40
63.397652
100
AcDbArc
 50
178.545591
 51
178.720625
  0
ARC
  5
7ED
100
AcDbEntity
  8
LAY-2
  6
CONTINUOUS
 62
     2
100
AcDbCircle
 10
224.898533
 20
323.228445
 30
0.0
 40
65.484439
100
AcDbArc
 50
178.720626
 51
178.890077
  0
ARC
  5
7EE
100
AcDbEntity
  8
LAY-2
  6
CONTINUOUS
 62
     2
100
AcDbCircle
 10
227.131579
 20
323.185183
 30
0.0
 40
67.717904
100
AcDbArc
 50
178.890077
 51
179.053937
  0
ARC
  5
7EF
100
AcDbEntity
  8
LAY-2
  6
CONTINUOUS
 62
     2
100
AcDbCircle
 10
230.146194
 20
323.13583
 30
0.0
 40
70.732924
100
AcDbArc
 50
179.054284
 51
179.372921
  0
ARC
  5
7F0
100
AcDbEntity
  8
LAY-2
  6
CONTINUOUS
 62
     2
100
AcDbCircle
 10
232.142825
 20
323.112721
 30
0.0
 40
72.729688
100
AcDbArc
 50
179.371932
 51
180.158551
  0
ARC
  5
7F1
100
AcDbEntity
  8
LAY-2
  6
CONTINUOUS
 62
     2
100
AcDbCircle
 10
231.786447
 20
323.107308
 30
0.0
 40
72.373296
100
AcDbArc
 50
180.155046
 51
180.940763
  0
ARC
  5
7F2
100
AcDbEntity
  8
LAY-2
  6
CONTINUOUS
 62
     2
100
AcDbCircle
 10
227.151831
 20
323.037652
 30
0.0
 40
67.738162
100
AcDbArc
 50
180.946216
 51
181.110033
  0
ARC
  5
7F3
100
AcDbEntity
  8
LAY-2
  6
CONTINUOUS
 62
     2
100
AcDbCircle
 10
224.937916
 20
322.994754
 30
0.0
 40
65.523831
100
AcDbArc
 50
181.110033
 51
181.279385
  0
ARC
  5
7F4
100
AcDbEntity
  8
LAY-2
  6
CONTINUOUS
 62
     2
100
AcDbCircle
 10
222.862666
 20
322.948407
 30
0.0
 40
63.448063
100
AcDbArc
 50
181.279385
 51
181.454277
  0
ARC
  5
7F5
100
AcDbEntity
  8
LAY-2
  6
CONTINUOUS
 62
     2
100
AcDbCircle
 10
220.30361
 20
322.882959
 30
0.0
 40
60.888171
100
AcDbArc
 50
181.453825
 51
181.807136
  0
ARC
  5
7F6
100
AcDbEntity
  8
LAY-2
  6
CONTINUOUS
 62
     2
100
AcDbCircle
 10
217.197412
 20
322.787294
 30
0.0
 40
57.780501
100
AcDbArc
 50
181.809454
 51
181.989724
  0
ARC
  5
7F7
100
AcDbEntity
  8
LAY-2
  6
CONTINUOUS
 62
     2
100
AcDbCircle
 10
214.933279
 20
322.708191
 30
0.0
 40
55.514986
100
AcDbArc
 50
181.989265
 51
182.364527
  0
ARC
  5
7F8
100
AcDbEntity
  8
LAY-2
  6
CONTINUOUS
 62
     2
100
AcDbCircle
 10
212.34806
 20
322.603565
 30
0.0
 40
52.927652
100
AcDbArc
 50
182.366824
 51
182.563639
  0
ARC
  5
7F9
100
AcDbEntity
  8
LAY-2
  6
CONTINUOUS
 62
     2
100
AcDbCircle
 10
207.819745
 20
322.399202
 30
0.0
 40
48.394728
100
AcDbArc
 50
182.561731
 51
182.756451
  0
ARC
  5
7FA
100
AcDbEntity
  8
LAY-2
  6
CONTINUOUS
 62
     2
100
AcDbCircle
 10
201.663785
 20
322.102813
 30
0.0
 40
42.231637
100
AcDbArc
 50
182.756448
 51
182.979586
  0
ARC
  5
7FB
100
AcDbEntity
  8
LAY-2
  6
CONTINUOUS
 62
     2
100
AcDbCircle
 10
196.891905
 20
321.854432
 30
0.0
 40
37.453298
100
AcDbArc
 50
182.979582
 51
183.231175
  0
ARC
  5
7FC
100
AcDbEntity
  8
LAY-2
  6
CONTINUOUS
 62
     2
100
AcDbCircle
 10
193.08392
 20
321.639452
 30
0.0
 40
33.639249
100
AcDbArc
 50
183.231172
 51
183.511264
  0
ARC
  5
7FD
100
AcDbEntity
  8
LAY-2
  6
CONTINUOUS
 62
     2
100
AcDbCircle
 10
189.974405
 20
321.44865
 30
0.0
 40
30.523886
100
AcDbArc
 50
183.51126
 51
183.8199
  0
ARC
  5
7FE
100
AcDbEntity
  8
LAY-2
  6
CONTINUOUS
 62
     2
100
AcDbCircle
 10
189.120409
 20
321.393184
 30
0.0
 40
29.668091
100
AcDbArc
 50
183.822895
 51
184.037421
  0
ARC
  5
7FF
100
AcDbEntity
  8
LAY-2
  6
CONTINUOUS
 62
     2
100
AcDbCircle
 10
190.175859
 20
321.467684
 30
0.0
 40
30.726167
100
AcDbArc
 50
184.037427
 51
184.244569
  0
ARC
  5
800
100
AcDbEntity
  8
LAY-2
  6
CONTINUOUS
 62
     2
100
AcDbCircle
 10
191.324588
 20
321.552944
 30
0.0
 40
31.878056
100
AcDbArc
 50
184.244575
 51
184.44426
  0
ARC
  5
801
100
AcDbEntity
  8
LAY-2
  6
CONTINUOUS
 62
     2
100
AcDbCircle
 10
192.577639
 20
321.650337
 30
0.0
 40
33.134887
100
AcDbArc
 50
184.444265
 51
184.636427
  0
ARC
  5
802
100
AcDbEntity
  8
LAY-2
  6
CONTINUOUS
 62
     2
100
AcDbCircle
 10
193.952442
 20
321.761838
 30
0.0
 40
34.514204
100
AcDbArc
 50
184.636438
 51
185.078857
  0
ARC
  5
803
100
AcDbEntity
  8
LAY-2
  6
CONTINUOUS
 62
     2
100
AcDbCircle
 10
202.293702
 20
318.537356
 30
0.0
 40
43.16246
100
AcDbArc
 50
183.893665
 51
184.3154
  0
ARC
  5
804
100
AcDbEntity
  8
LAY-2
  6
CONTINUOUS
 62
     2
100
AcDbCircle
 10
189.659457
 20
317.584314
 30
0.0
 40
30.49232
100
AcDbArc
 50
184.316049
 51
184.915267
  0
ARC
  5
805
100
AcDbEntity
  8
LAY-2
  6
CONTINUOUS
 62
     2
100
AcDbCircle
 10
183.195246
 20
317.028809
 30
0.0
 40
24.004284
100
AcDbArc
 50
184.916239
 51
185.683194
  0
ARC
  5
806
100
AcDbEntity
  8
LAY-2
  6
CONTINUOUS
 62
     2
100
AcDbCircle
 10
179.387554
 20
316.650184
 30
0.0
 40
20.177814
100
AcDbArc
 50
185.684057
 51
187.331585
  0
ARC
  5
807
100
AcDbEntity
  8
LAY-2
  6
CONTINUOUS
 62
     2
100
AcDbCircle
 10
188.614756
 20
317.823373
 30
0.0
 40
29.479292
100
AcDbArc
 50
187.30457
 51
187.800359
  0
ARC
  5
808
100
AcDbEntity
  8
LAY-2
  6
CONTINUOUS
 62
     2
100
AcDbCircle
 10
202.264029
 20
319.69259
 30
0.0
 40
43.255961
100
AcDbArc
 50
187.799587
 51
188.133143
  0
ARC
  5
809
100
AcDbEntity
  8
LAY-2
  6
CONTINUOUS
 62
     2
100
AcDbCircle
 10
239.12357
 20
324.960528
 30
0.0
 40
80.490044
100
AcDbArc
 50
188.13335
 51
188.308028
  0
ARC
  5
80A
100
AcDbEntity
  8
LAY-2
  6
CONTINUOUS
 62
     2
100
AcDbCircle
 10
2224.858169
 20
614.982409
 30
0.0
 40
2087.292124
100
AcDbArc
 50
188.309396
 51
188.315869
  0
ARC
  5
80B
100
AcDbEntity
  8
LAY-2
  6
CONTINUOUS
 62
     2
100
AcDbCircle
 10
172.598788
 20
314.978986
 30
0.0
 40
13.221133
100
AcDbArc
 50
188.184453
 51
188.819726
  0
ARC
  5
80C
100
AcDbEntity
  8
LAY-2
  6
CONTINUOUS
 62
     2
100
AcDbCircle
 10
163.78566
 20
313.612673
 30
0.0
 40
4.302724
100
AcDbArc
 50
188.834699
 51
190.795721
  0
ARC
  5
80D
100
AcDbEntity
  8
LAY-2
  6
CONTINUOUS
 62
     2
100
AcDbCircle
 10
162.486988
 20
313.367006
 30
0.0
 40
2.981022
100
AcDbArc
 50
190.832868
 51
193.795708
  0
ARC
  5
80E
100
AcDbEntity
  8
LAY-2
  6
CONTINUOUS
 62
     2
100
AcDbCircle
 10
162.284615
 20
313.319433
 30
0.0
 40
2.773144
100
AcDbArc
 50
193.838218
 51
197.301213
  0
ARC
  5
80F
100
AcDbEntity
  8
LAY-2
  6
CONTINUOUS
 62
     2
100
AcDbCircle
 10
162.587405
 20
313.415544
 30
0.0
 40
3.090817
100
AcDbArc
 50
197.33299
 51
200.817899
  0
ARC
  5
810
100
AcDbEntity
  8
LAY-2
  6
CONTINUOUS
 62
     2
100
AcDbCircle
 10
161.117446
 20
312.848522
 30
0.0
 40
1.515325
100
AcDbArc
 50
200.53123
 51
203.011673
  0
ARC
  5
811
100
AcDbEntity
  8
LAY-2
  6
CONTINUOUS
 62
     2
100
AcDbCircle
 10
160.289376
 20
312.495514
 30
0.0
 40
0.615152
100
AcDbArc
 50
202.898989
 51
208.789983
  0
ARC
  5
812
100
AcDbEntity
  8
LAY-2
  6
CONTINUOUS
 62
     2
100
AcDbCircle
 10
159.992887
 20
312.330867
 30
0.0
 40
0.276022
100
AcDbArc
 50
208.477376
 51
220.210155
  0
ARC
  5
813
100
AcDbEntity
  8
LAY-2
  6
CONTINUOUS
 62
     2
100
AcDbCircle
 10
159.875029
 20
312.229788
 30
0.0
 40
0.120765
100
AcDbArc
 50
219.68647
 51
242.486635
  0
ARC
  5
814
100
AcDbEntity
  8
LAY-2
  6
CONTINUOUS
 62
     2
100
AcDbCircle
 10
159.852396
 20
312.189012
 30
0.0
 40
0.074156
100
AcDbArc
 50
243.441945
 51
278.021971
  0
ARC
  5
815
100
AcDbEntity
  8
LAY-2
  6
CONTINUOUS
 62
     2
100
AcDbCircle
 10
159.849737
 20
312.208057
 30
0.0
 40
0.093386
100
AcDbArc
 50
278.007063
 51
286.41036
  0
ARC
  5
816
100
AcDbEntity
  8
LAY-2
  6
CONTINUOUS
 62
     2
100
AcDbCircle
 10
159.842283
 20
312.233769
 30
0.0
 40
0.120156
100
AcDbArc
 50
286.356297
 51
293.248626
  0
ARC
  5
817
100
AcDbEntity
  8
LAY-2
  6
CONTINUOUS
 62
     2
100
AcDbCircle
 10
257.737318
 20
321.961258
 30
0.0
 40
98.717776
100
AcDbArc
 50
182.056825
 51
182.238007
  0
ARC
  5
818
100
AcDbEntity
  8
LAY-2
  6
CONTINUOUS
 62
     2
100
AcDbCircle
 10
296.961027
 20
323.369894
 30
0.0
 40
137.966771
100
AcDbArc
 50
181.927246
 51
182.05681
  0
ARC
  5
819
100
AcDbEntity
  8
LAY-2
  6
CONTINUOUS
 62
     2
100
AcDbCircle
 10
231.901231
 20
320.943509
 30
0.0
 40
72.861653
100
AcDbArc
 50
182.47734
 51
182.772587
  0
ARC
  5
81A
100
AcDbEntity
  8
LAY-2
  6
CONTINUOUS
 62
     2
100
AcDbCircle
 10
239.788957
 20
321.325391
 30
0.0
 40
80.758619
100
AcDbArc
 50
182.772509
 51
183.038911
  0
ARC
  5
81B
100
AcDbEntity
  8
LAY-2
  6
CONTINUOUS
 62
     2
100
AcDbCircle
 10
249.170338
 20
321.823338
 30
0.0
 40
90.153205
100
AcDbArc
 50
183.038848
 51
183.277249
  0
ARC
  5
81C
100
AcDbEntity
  8
LAY-2
  6
CONTINUOUS
 62
     2
100
AcDbCircle
 10
260.612012
 20
322.478417
 30
0.0
 40
101.613616
100
AcDbArc
 50
183.277201
 51
183.488269
  0
ARC
  5
81D
100
AcDbEntity
  8
LAY-2
  6
CONTINUOUS
 62
     2
100
AcDbCircle
 10
275.015294
 20
323.356331
 30
0.0
 40
116.04363
100
AcDbArc
 50
183.488235
 51
183.67246
  0
ARC
  5
81E
100
AcDbEntity
  8
LAY-2
  6
CONTINUOUS
 62
     2
100
AcDbCircle
 10
235.37757
 20
320.788702
 30
0.0
 40
76.322841
100
AcDbArc
 50
183.654852
 51
183.893357
  0
ARC
  5
81F
100
AcDbEntity
  8
LAY-2
  6
CONTINUOUS
 62
     2
100
AcDbCircle
 10
235.995885
 20
321.11162
 30
0.0
 40
76.959747
100
AcDbArc
 50
182.238028
 51
182.470614
  0
ARC
  5
820
100
AcDbEntity
  8
LAY-2
  6
CONTINUOUS
 62
     2
100
AcDbCircle
 10
196.133571
 20
321.412158
 30
0.0
 40
36.745161
100
AcDbArc
 50
184.370604
 51
184.621426
  0
ARC
  5
821
100
AcDbEntity
  8
LAY-2
  6
CONTINUOUS
 62
     2
100
AcDbCircle
 10
197.677111
 20
321.536899
 30
0.0
 40
38.293734
100
AcDbArc
 50
184.621381
 51
184.861676
  0
ARC
  5
822
100
AcDbEntity
  8
LAY-2
  6
CONTINUOUS
 62
     2
100
AcDbCircle
 10
199.239219
 20
321.669737
 30
0.0
 40
39.86148
100
AcDbArc
 50
184.861634
 51
185.091925
  0
ARC
  5
823
100
AcDbEntity
  8
LAY-2
  6
CONTINUOUS
 62
     2
100
AcDbCircle
 10
185.531307
 20
320.440149
 30
0.0
 40
26.098535
100
AcDbArc
 50
185.074131
 51
185.35968
  0
ARC
  5
824
100
AcDbEntity
  8
LAY-2
  6
CONTINUOUS
 62
     2
100
AcDbCircle
 10
174.746545
 20
319.428415
 30
0.0
 40
15.266421
100
AcDbArc
 50
185.359942
 51
185.848123
  0
ARC
  5
825
100
AcDbEntity
  8
LAY-2
  6
CONTINUOUS
 62
     2
100
AcDbCircle
 10
170.397154
 20
318.983032
 30
0.0
 40
10.894285
100
AcDbArc
 50
185.848665
 51
186.534669
  0
ARC
  5
826
100
AcDbEntity
  8
LAY-2
  6
CONTINUOUS
 62
     2
100
AcDbCircle
 10
168.100329
 20
318.720058
 30
0.0
 40
8.582455
100
AcDbArc
 50
186.535488
 51
187.411163
  0
ARC
  5
827
100
AcDbEntity
  8
LAY-2
  6
CONTINUOUS
 62
     2
100
AcDbCircle
 10
166.731671
 20
318.542215
 30
0.0
 40
7.202291
100
AcDbArc
 50
187.412633
 51
189.252712
  0
ARC
  5
828
100
AcDbEntity
  8
LAY-2
  6
CONTINUOUS
 62
     2
100
AcDbCircle
 10
171.620741
 20
319.330384
 30
0.0
 40
12.15448
100
AcDbArc
 50
189.214074
 51
189.680611
  0
ARC
  5
829
100
AcDbEntity
  8
LAY-2
  6
CONTINUOUS
 62
     2
100
AcDbCircle
 10
183.900646
 20
321.425051
 30
0.0
 40
24.611755
100
AcDbArc
 50
189.680383
 51
189.908577
  0
ARC
  5
82A
100
AcDbEntity
  8
LAY-2
  6
CONTINUOUS
 62
     2
100
AcDbCircle
 10
-224.435794
 20
250.089706
 30
0.0
 40
389.908908
100
AcDbArc
 50
9.895349
 51
9.90948
  0
ARC
  5
82B
100
AcDbEntity
  8
LAY-2
  6
CONTINUOUS
 62
     2
100
AcDbCircle
 10
140.191268
 20
313.696813
 30
0.0
 40
19.775474
100
AcDbArc
 50
9.624736
 51
9.895349
  0
ARC
  5
82C
100
AcDbEntity
  8
LAY-2
  6
CONTINUOUS
 62
     2
100
AcDbCircle
 10
164.481661
 20
317.800191
 30
0.0
 40
4.859092
100
AcDbArc
 50
189.440798
 51
190.115887
  0
ARC
  5
82D
100
AcDbEntity
  8
LAY-2
  6
CONTINUOUS
 62
     2
100
AcDbCircle
 10
160.987546
 20
317.177093
 30
0.0
 40
1.309855
100
AcDbArc
 50
190.128743
 51
192.640276
  0
ARC
  5
82E
100
AcDbEntity
  8
LAY-2
  6
CONTINUOUS
 62
     2
100
AcDbCircle
 10
160.531349
 20
317.075363
 30
0.0
 40
0.842453
100
AcDbArc
 50
192.678702
 51
196.715209
  0
ARC
  5
82F
100
AcDbEntity
  8
LAY-2
  6
CONTINUOUS
 62
     2
100
AcDbCircle
 10
160.425237
 20
317.04433
 30
0.0
 40
0.731899
100
AcDbArc
 50
196.77765
 51
209.725835
  0
ARC
  5
830
100
AcDbEntity
  8
LAY-2
  6
CONTINUOUS
 62
     2
100
AcDbCircle
 10
160.106014
 20
316.862962
 30
0.0
 40
0.364754
100
AcDbArc
 50
209.849231
 51
214.827392
  0
ARC
  5
831
100
AcDbEntity
  8
LAY-2
  6
CONTINUOUS
 62
     2
100
AcDbCircle
 10
159.964644
 20
316.763775
 30
0.0
 40
0.19206
100
AcDbArc
 50
214.623472
 51
223.218782
  0
ARC
  5
832
100
AcDbEntity
  8
LAY-2
  6
CONTINUOUS
 62
     2
100
AcDbCircle
 10
159.88852
 20
316.691248
 30
0.0
 40
0.086924
100
AcDbArc
 50
222.740713
 51
238.824472
  0
ARC
  5
833
100
AcDbEntity
  8
LAY-2
  6
CONTINUOUS
 62
     2
100
AcDbCircle
 10
159.863756
 20
316.649753
 30
0.0
 40
0.038602
100
AcDbArc
 50
238.390937
 51
268.499784
  0
ARC
  5
834
100
AcDbEntity
  8
LAY-2
  6
CONTINUOUS
 62
     2
100
AcDbCircle
 10
159.861735
 20
316.649753
 30
0.0
 40
0.038602
100
AcDbArc
 50
271.499144
 51
301.607998
  0
ARC
  5
835
100
AcDbEntity
  8
LAY-2
  6
CONTINUOUS
 62
     2
100
AcDbCircle
 10
159.836972
 20
316.691247
 30
0.0
 40
0.086922
100
AcDbArc
 50
301.174458
 51
317.258539
  0
ARC
  5
836
100
AcDbEntity
  8
LAY-2
  6
CONTINUOUS
 62
     2
100
AcDbCircle
 10
159.760858
 20
316.763767
 30
0.0
 40
0.192048
100
AcDbArc
 50
316.780475
 51
325.376377
  0
ARC
  5
837
100
AcDbEntity
  8
LAY-2
  6
CONTINUOUS
 62
     2
100
AcDbCircle
 10
159.619529
 20
316.862927
 30
0.0
 40
0.364691
100
AcDbArc
 50
325.172451
 51
330.151485
  0
ARC
  5
838
100
AcDbEntity
  8
LAY-2
  6
CONTINUOUS
 62
     2
100
AcDbCircle
 10
159.398351
 20
316.990889
 30
0.0
 40
0.620217
100
AcDbArc
 50
330.067905
 51
333.061883
  0
ARC
  5
839
100
AcDbEntity
  8
LAY-2
  6
CONTINUOUS
 62
     2
100
AcDbCircle
 10
159.281222
 20
317.052955
 30
0.0
 40
0.752758
100
AcDbArc
 50
332.889184
 51
338.191378
  0
ARC
  5
83A
100
AcDbEntity
  8
LAY-2
  6
CONTINUOUS
 62
     2
100
AcDbCircle
 10
159.305328
 20
317.042621
 30
0.0
 40
0.726538
100
AcDbArc
 50
338.241756
 51
343.236145
  0
ARC
  5
83B
100
AcDbEntity
  8
LAY-2
  6
CONTINUOUS
 62
     2
100
AcDbCircle
 10
159.193414
 20
317.075511
 30
0.0
 40
0.843183
100
AcDbArc
 50
343.289578
 51
347.322659
  0
ARC
  5
83C
100
AcDbEntity
  8
LAY-2
  6
CONTINUOUS
 62
     2
100
AcDbCircle
 10
158.73455
 20
317.177828
 30
0.0
 40
1.313315
100
AcDbArc
 50
347.361062
 51
349.865938
  0
ARC
  5
83D
100
AcDbEntity
  8
LAY-2
  6
CONTINUOUS
 62
     2
100
AcDbCircle
 10
155.175833
 20
317.812795
 30
0.0
 40
4.928236
100
AcDbArc
 50
349.878758
 51
350.544323
  0
ARC
  5
83E
100
AcDbEntity
  8
LAY-2
  6
CONTINUOUS
 62
     2
100
AcDbCircle
 10
178.557057
 20
313.857841
 30
0.0
 40
18.785142
100
AcDbArc
 50
170.076353
 51
170.361187
  0
ARC
  5
83F
100
AcDbEntity
  8
LAY-2
  6
CONTINUOUS
 62
     2
100
AcDbCircle
 10
1175.453028
 20
139.447639
 30
0.0
 40
1030.822934
100
AcDbArc
 50
170.071009
 51
170.076353
  0
ARC
  5
840
100
AcDbEntity
  8
LAY-2
  6
CONTINUOUS
 62
     2
100
AcDbCircle
 10
137.50771
 20
321.139909
 30
0.0
 40
22.905002
100
AcDbArc
 50
350.069598
 51
350.314771
  0
ARC
  5
841
100
AcDbEntity
  8
LAY-2
  6
CONTINUOUS
 62
     2
100
AcDbCircle
 10
148.819887
 20
319.209331
 30
0.0
 40
11.429267
100
AcDbArc
 50
350.314541
 51
350.810718
  0
ARC
  5
842
100
AcDbEntity
  8
LAY-2
  6
CONTINUOUS
 62
     2
100
AcDbCircle
 10
152.698239
 20
318.582099
 30
0.0
 40
7.500522
100
AcDbArc
 50
350.809368
 51
351.566014
  0
ARC
  5
843
100
AcDbEntity
  8
LAY-2
  6
CONTINUOUS
 62
     2
100
AcDbCircle
 10
153.261419
 20
318.493703
 30
0.0
 40
6.930469
100
AcDbArc
 50
351.606011
 51
352.66585
  0
ARC
  5
844
100
AcDbEntity
  8
LAY-2
  6
CONTINUOUS
 62
     2
100
AcDbCircle
 10
151.513383
 20
318.718539
 30
0.0
 40
8.692906
100
AcDbArc
 50
352.666841
 51
353.504863
  0
ARC
  5
845
100
AcDbEntity
  8
LAY-2
  6
CONTINUOUS
 62
     2
100
AcDbCircle
 10
148.27582
 20
319.08698
 30
0.0
 40
11.951366
100
AcDbArc
 50
353.505597
 51
354.111463
  0
ARC
  5
846
100
AcDbEntity
  8
LAY-2
  6
CONTINUOUS
 62
     2
100
AcDbCircle
 10
140.584298
 20
319.880099
 30
0.0
 40
19.683672
100
AcDbArc
 50
354.111947
 51
354.478357
  0
ARC
  5
847
100
AcDbEntity
  8
LAY-2
  6
CONTINUOUS
 62
     2
100
AcDbCircle
 10
101.744008
 20
323.634555
 30
0.0
 40
58.705
100
AcDbArc
 50
354.478597
 51
354.601213
  0
ARC
  5
848
100
AcDbEntity
  8
LAY-2
  6
CONTINUOUS
 62
     2
100
AcDbCircle
 10
181.362822
 20
320.638021
 30
0.0
 40
21.874526
100
AcDbArc
 50
185.066057
 51
185.378704
  0
ARC
  5
849
100
AcDbEntity
  8
LAY-2
  6
CONTINUOUS
 62
     2
100
AcDbCircle
 10
172.800216
 20
319.831889
 30
0.0
 40
13.274057
100
AcDbArc
 50
185.378969
 51
185.893442
  0
ARC
  5
84A
100
AcDbEntity
  8
LAY-2
  6
CONTINUOUS
 62
     2
100
AcDbCircle
 10
169.167304
 20
319.456986
 30
0.0
 40
9.621851
100
AcDbArc
 50
185.894047
 51
186.605138
  0
ARC
  5
84B
100
AcDbEntity
  8
LAY-2
  6
CONTINUOUS
 62
     2
100
AcDbCircle
 10
167.214224
 20
319.230956
 30
0.0
 40
7.655736
100
AcDbArc
 50
186.606077
 51
187.504534
  0
ARC
  5
84C
100
AcDbEntity
  8
LAY-2
  6
CONTINUOUS
 62
     2
100
AcDbCircle
 10
166.053768
 20
319.078305
 30
0.0
 40
6.485283
100
AcDbArc
 50
187.506458
 51
189.312943
  0
ARC
  5
84D
100
AcDbEntity
  8
LAY-2
  6
CONTINUOUS
 62
     2
100
AcDbCircle
 10
170.661808
 20
319.826335
 30
0.0
 40
11.153639
100
AcDbArc
 50
189.274244
 51
189.702286
  0
ARC
  5
84E
100
AcDbEntity
  8
LAY-2
  6
CONTINUOUS
 62
     2
100
AcDbCircle
 10
182.880447
 20
321.915334
 30
0.0
 40
23.549568
100
AcDbArc
 50
189.702111
 51
189.902927
  0
ARC
  5
84F
100
AcDbEntity
  8
LAY-2
  6
CONTINUOUS
 62
     2
100
AcDbCircle
 10
10.4234
 20
291.80529
 30
0.0
 40
151.516271
100
AcDbArc
 50
9.873189
 51
9.903818
  0
ARC
  5
850
100
AcDbEntity
  8
LAY-2
  6
CONTINUOUS
 62
     2
100
AcDbCircle
 10
143.58895
 20
314.982193
 30
0.0
 40
16.348846
100
AcDbArc
 50
9.597375
 51
9.873189
  0
ARC
  5
851
100
AcDbEntity
  8
LAY-2
  6
CONTINUOUS
 62
     2
100
AcDbCircle
 10
164.025655
 20
318.423668
 30
0.0
 40
4.375617
100
AcDbArc
 50
189.414405
 51
190.077705
  0
ARC
  5
852
100
AcDbEntity
  8
LAY-2
  6
CONTINUOUS
 62
     2
100
AcDbCircle
 10
160.861574
 20
317.861591
 30
0.0
 40
1.161999
100
AcDbArc
 50
190.090373
 51
192.593882
  0
ARC
  5
853
100
AcDbEntity
  8
LAY-2
  6
CONTINUOUS
 62
     2
100
AcDbCircle
 10
160.455094
 20
317.771292
 30
0.0
 40
0.745611
100
AcDbArc
 50
192.632495
 51
196.664707
  0
ARC
  5
854
100
AcDbEntity
  8
LAY-2
  6
CONTINUOUS
 62
     2
100
AcDbCircle
 10
160.361399
 20
317.743994
 30
0.0
 40
0.648023
100
AcDbArc
 50
196.728121
 51
209.660026
  0
ARC
  5
855
100
AcDbEntity
  8
LAY-2
  6
CONTINUOUS
 62
     2
100
AcDbCircle
 10
160.078676
 20
317.583763
 30
0.0
 40
0.323053
100
AcDbArc
 50
209.778758
 51
214.746523
  0
ARC
  5
856
100
AcDbEntity
  8
LAY-2
  6
CONTINUOUS
 62
     2
100
AcDbCircle
 10
159.953198
 20
317.495989
 30
0.0
 40
0.169925
100
AcDbArc
 50
214.542201
 51
223.126555
  0
ARC
  5
857
100
AcDbEntity
  8
LAY-2
  6
CONTINUOUS
 62
     2
100
AcDbCircle
 10
159.885628
 20
317.431817
 30
0.0
 40
0.076743
100
AcDbArc
 50
222.645727
 51
238.732958
  0
ARC
  5
858
100
AcDbEntity
  8
LAY-2
  6
CONTINUOUS
 62
     2
100
AcDbCircle
 10
159.863645
 20
317.395112
 30
0.0
 40
0.033961
100
AcDbArc
 50
238.291915
 51
268.481003
  0
ARC
  5
859
100
AcDbEntity
  8
LAY-2
  6
CONTINUOUS
 62
     2
100
AcDbCircle
 10
159.861855
 20
317.395092
 30
0.0
 40
0.03394
100
AcDbArc
 50
271.502977
 51
301.704668
  0
ARC
  5
85A
100
AcDbEntity
  8
LAY-2
  6
CONTINUOUS
 62
     2
100
AcDbCircle
 10
159.839892
 20
317.431765
 30
0.0
 40
0.076685
100
AcDbArc
 50
301.265542
 51
317.360616
  0
ARC
  5
85B
100
AcDbEntity
  8
LAY-2
  6
CONTINUOUS
 62
     2
100
AcDbCircle
 10
159.772264
 20
317.495978
 30
0.0
 40
0.169937
100
AcDbArc
 50
316.879465
 51
325.462152
  0
ARC
  5
85C
100
AcDbEntity
  8
LAY-2
  6
CONTINUOUS
 62
     2
100
AcDbCircle
 10
159.646311
 20
317.584067
 30
0.0
 40
0.323635
100
AcDbArc
 50
325.257709
 51
330.216932
  0
ARC
  5
85D
100
AcDbEntity
  8
LAY-2
  6
CONTINUOUS
 62
     2
100
AcDbCircle
 10
159.447655
 20
317.698689
 30
0.0
 40
0.552987
100
AcDbArc
 50
330.133513
 51
333.102397
  0
ARC
  5
85E
100
AcDbEntity
  8
LAY-2
  6
CONTINUOUS
 62
     2
100
AcDbCircle
 10
159.341911
 20
317.754634
 30
0.0
 40
0.672604
100
AcDbArc
 50
332.927349
 51
338.180605
  0
ARC
  5
85F
100
AcDbEntity
  8
LAY-2
  6
CONTINUOUS
 62
     2
100
AcDbCircle
 10
159.367965
 20
317.743613
 30
0.0
 40
0.64432
100
AcDbArc
 50
338.229291
 51
343.213991
  0
ARC
  5
860
100
AcDbEntity
  8
LAY-2
  6
CONTINUOUS
 62
     2
100
AcDbCircle
 10
159.278491
 20
317.769897
 30
0.0
 40
0.737572
100
AcDbArc
 50
343.266521
 51
347.345146
  0
ARC
  5
861
100
AcDbEntity
  8
LAY-2
  6
CONTINUOUS
 62
     2
100
AcDbCircle
 10
158.910598
 20
317.85173
 30
0.0
 40
1.114457
100
AcDbArc
 50
347.383827
 51
349.993136
  0
ARC
  5
862
100
AcDbEntity
  8
LAY-2
  6
CONTINUOUS
 62
     2
100
AcDbCircle
 10
156.527091
 20
318.271421
 30
0.0
 40
3.534631
100
AcDbArc
 50
350.007181
 51
350.826785
  0
ARC
  5
863
100
AcDbEntity
  8
LAY-2
  6
CONTINUOUS
 62
     2
100
AcDbCircle
 10
193.385805
 20
312.224789
 30
0.0
 40
33.816774
100
AcDbArc
 50
170.535872
 51
170.668713
  0
ARC
  5
864
100
AcDbEntity
  8
LAY-2
  6
CONTINUOUS
 62
     2
100
AcDbCircle
 10
207.164351
 20
309.927918
 30
0.0
 40
47.785451
100
AcDbArc
 50
170.439162
 51
170.535872
  0
ARC
  5
865
100
AcDbEntity
  8
LAY-2
  6
CONTINUOUS
 62
     2
100
AcDbCircle
 10
229.267068
 20
306.205061
 30
0.0
 40
70.199505
100
AcDbArc
 50
170.371951
 51
170.439162
  0
ARC
  5
866
100
AcDbEntity
  8
LAY-2
  6
CONTINUOUS
 62
     2
100
AcDbCircle
 10
282.906816
 20
297.105564
 30
0.0
 40
124.605602
100
AcDbArc
 50
170.333568
 51
170.371951
  0
ARC
  5
867
100
AcDbEntity
  8
LAY-2
  6
CONTINUOUS
 62
     2
100
AcDbCircle
 10
515.562736
 20
257.477234
 30
0.0
 40
360.612342
100
AcDbArc
 50
170.320216
 51
170.333568
  0
LINE
  5
868
100
AcDbEntity
  8
LAY-2
  6
CONTINUOUS
 62
     2
100
AcDbLine
 10
159.641007
 20
328.111164
 30
0.0
 11
161.417169
 21
328.111164
 31
0.0
  0
LINE
  5
869
100
AcDbEntity
  8
LAY-2
  6
CONTINUOUS
 62
     2
100
AcDbLine
 10
159.641007
 20
318.111164
 30
0.0
 11
161.417169
 21
318.111164
 31
0.0
  0
LINE
  5
86A
100
AcDbEntity
  8
LAY-2
  6
CONTINUOUS
 62
     2
100
AcDbLine
 10
133.0
 20
328.075354
 30
0.0
 11
133.0
 21
352.905045
 31
0.0
  0
LINE
  5
86B
100
AcDbEntity
  8
LAY-2
  6
CONTINUOUS
 62
     2
100
AcDbLine
 10
133.0
 20
295.905045
 30
0.0
 11
133.0
 21
318.061006
 31
0.0
  0
LINE
  5
86C
100
AcDbEntity
  8
LAY-2
  6
CONTINUOUS
 62
     2
100
AcDbLine
 10
163.0
 20
318.061006
 30
0.0
 11
163.0
 21
295.905045
 31
0.0
  0
LINE
  5
86D
100
AcDbEntity
  8
LAY-2
  6
CONTINUOUS
 62
     2
100
AcDbLine
 10
163.0
 20
352.905045
 30
0.0
 11
163.0
 21
328.075354
 31
0.0
  0
LINE
  5
86E
100
AcDbEntity
  8
LAY-2
  6
EXLTYPE3
 62
     6
100
AcDbLine
 10
148.0
 20
356.905045
 30
0.0
 11
148.0
 21
282.8
 31
0.0
  0
ENDSEC
  0
SECTION
  2
OBJECTS
  0
DICTIONARY
  5
19
100
AcDbDictionary
  3
ACAD_GROUP
350
1A
  3
ACAD_MLINESTYLE
350
1B
  0
DICTIONARY
  5
1A
102
{ACAD_REACTORS
330
19
102
}
100
AcDbDictionary
  0
DICTIONARY
  5
1B
102
{ACAD_REACTORS
330
19
102
}
100
AcDbDictionary
  3
STANDARD
350
1C
  0
MLINESTYLE
  5
1C
102
{ACAD_REACTORS
330
1B
102
}
100
AcDbMlineStyle
  2
Standard
 70
     0
  3

 62
     0
 51
90.0
 52
90.0
 71
     2
 49
0.5
 62
   256
  6
ByLayer
 49
-0.5
 62
   256
  6
ByLayer
  0
ENDSEC
  0
EOF
