  0
SECTION
  2
HEADER
  9
$ACADVER
  1
AC1014
  9
$ACADMAINTVER
 70
     0
  9
$DWGCODEPAGE
  3
ANSI_932
  9
$INSBASE
 10
0.0
 20
0.0
 30
0.0
  9
$EXTMIN
 10
0.7
 20
8.5
 30
0.0
  9
$EXTMAX
 10
200.0
 20
288.5
 30
0.0
  9
$LIMMIN
 10
0.0
 20
0.0
  9
$LIMMAX
 10
210.0
 20
297.0
  9
$ORTHOMODE
 70
     0
  9
$REGENMODE
 70
     1
  9
$FILLMODE
 70
     1
  9
$QTEXTMODE
 70
     0
  9
$MIRRTEXT
 70
     1
  9
$DRAGMODE
 70
     2
  9
$LTSCALE
 40
1.0
  9
$OSMODE
 70
     0
  9
$ATTMODE
 70
     1
  9
$TEXTSIZE
 40
0.2
  9
$TRACEWID
 40
0.05
  9
$TEXTSTYLE
  7
STANDARD
  9
$CLAYER
  8
LAY-4
  9
$CELTYPE
  6
CONTINUOUS
  9
$CECOLOR
 62
   256
  9
$CELTSCALE
 40
1.0
  9
$DELOBJ
 70
     1
  9
$DISPSILH
 70
     0
  9
$DIMSCALE
 40
1.0
  9
$DIMASZ
 40
0.18
  9
$DIMEXO
 40
0.0625
  9
$DIMDLI
 40
0.38
  9
$DIMRND
 40
0.0
  9
$DIMDLE
 40
0.0
  9
$DIMEXE
 40
0.18
  9
$DIMTP
 40
0.0
  9
$DIMTM
 40
0.0
  9
$DIMTXT
 40
0.18
  9
$DIMCEN
 40
0.09
  9
$DIMTSZ
 40
0.0
  9
$DIMTOL
 70
     0
  9
$DIMLIM
 70
     0
  9
$DIMTIH
 70
     1
  9
$DIMTOH
 70
     1
  9
$DIMSE1
 70
     0
  9
$DIMSE2
 70
     0
  9
$DIMTAD
 70
     0
  9
$DIMZIN
 70
     0
  9
$DIMBLK
  1

  9
$DIMASO
 70
     1
  9
$DIMSHO
 70
     1
  9
$DIMPOST
  1

  9
$DIMAPOST
  1

  9
$DIMALT
 70
     0
  9
$DIMALTD
 70
     2
  9
$DIMALTF
 40
25.4
  9
$DIMLFAC
 40
1.0
  9
$DIMTOFL
 70
     0
  9
$DIMTVP
 40
0.0
  9
$DIMTIX
 70
     0
  9
$DIMSOXD
 70
     0
  9
$DIMSAH
 70
     0
  9
$DIMBLK1
  1

  9
$DIMBLK2
  1

  9
$DIMSTYLE
  2
STANDARD
  9
$DIMCLRD
 70
     0
  9
$DIMCLRE
 70
     0
  9
$DIMCLRT
 70
     0
  9
$DIMTFAC
 40
1.0
  9
$DIMGAP
 40
0.09
  9
$DIMJUST
 70
     0
  9
$DIMSD1
 70
     0
  9
$DIMSD2
 70
     0
  9
$DIMTOLJ
 70
     1
  9
$DIMTZIN
 70
     0
  9
$DIMALTZ
 70
     0
  9
$DIMALTTZ
 70
     0
  9
$DIMFIT
 70
     3
  9
$DIMUPT
 70
     0
  9
$DIMUNIT
 70
     2
  9
$DIMDEC
 70
     4
  9
$DIMTDEC
 70
     4
  9
$DIMALTU
 70
     2
  9
$DIMALTTD
 70
     2
  9
$DIMTXSTY
  7
STANDARD
  9
$DIMAUNIT
 70
     0
  9
$LUNITS
 70
     2
  9
$LUPREC
 70
     4
  9
$SKETCHINC
 40
0.1
  9
$FILLETRAD
 40
0.0
  9
$AUNITS
 70
     0
  9
$AUPREC
 70
     0
  9
$MENU
  1
acad
  9
$ELEVATION
 40
0.0
  9
$PELEVATION
 40
0.0
  9
$THICKNESS
 40
0.0
  9
$LIMCHECK
 70
     0
  9
$BLIPMODE
 70
     1
  9
$CHAMFERA
 40
0.0
  9
$CHAMFERB
 40
0.0
  9
$CHAMFERC
 40
0.0
  9
$CHAMFERD
 40
0.0
  9
$SKPOLY
 70
     0
  9
$TDCREATE
 40
2454515.338366100
  9
$TDUPDATE
 40
2454515.338366100
  9
$TDINDWG
 40
0.0000000000
  9
$TDUSRTIMER
 40
0.0000000000
  9
$USRTIMER
 70
     1
  9
$ANGBASE
 50
0.0
  9
$ANGDIR
 70
     0
  9
$PDMODE
 70
     0
  9
$PDSIZE
 40
0.0
  9
$PLINEWID
 40
0.0
  9
$COORDS
 70
     1
  9
$SPLFRAME
 70
     0
  9
$SPLINETYPE
 70
     6
  9
$SPLINESEGS
 70
     8
  9
$ATTDIA
 70
     0
  9
$ATTREQ
 70
     1
  9
$HANDLING
 70
     1
  9
$HANDSEED
  5
35D
  9
$SURFTAB1
 70
     6
  9
$SURFTAB2
 70
     6
  9
$SURFTYPE
 70
     6
  9
$SURFU
 70
     6
  9
$SURFV
 70
     6
  9
$UCSNAME
  2

  9
$UCSORG
 10
0.0
 20
0.0
 30
0.0
  9
$UCSXDIR
 10
1.0
 20
0.0
 30
0.0
  9
$UCSYDIR
 10
0.0
 20
1.0
 30
0.0
  9
$PUCSNAME
  2

  9
$PUCSORG
 10
0.0
 20
0.0
 30
0.0
  9
$PUCSXDIR
 10
1.0
 20
0.0
 30
0.0
  9
$PUCSYDIR
 10
0.0
 20
1.0
 30
0.0
  9
$USERI1
 70
     0
  9
$USERI2
 70
     0
  9
$USERI3
 70
     0
  9
$USERI4
 70
     0
  9
$USERI5
 70
     0
  9
$USERR1
 40
0.0
  9
$USERR2
 40
0.0
  9
$USERR3
 40
0.0
  9
$USERR4
 40
0.0
  9
$USERR5
 40
0.0
  9
$WORLDVIEW
 70
     1
  9
$SHADEDGE
 70
     3
  9
$SHADEDIF
 70
    70
  9
$TILEMODE
 70
     1
  9
$MAXACTVP
 70
    16
  9
$PINSBASE
 10
0.0
 20
0.0
 30
0.0
  9
$PLIMCHECK
 70
     0
  9
$PEXTMIN
 10
1.000000E+20
 20
1.000000E+20
 30
1.000000E+20
  9
$PEXTMAX
 10
-1.000000E+20
 20
-1.000000E+20
 30
-1.000000E+20
  9
$PLIMMIN
 10
0.0
 20
0.0
  9
$PLIMMAX
 10
12.0
 20
9.0
  9
$UNITMODE
 70
     0
  9
$VISRETAIN
 70
     0
  9
$PLINEGEN
 70
     1
  9
$PSLTSCALE
 70
     0
  9
$TREEDEPTH
 70
  3020
  9
$PICKSTYLE
 70
     1
  9
$CMLSTYLE
  2
Standard
  9
$CMLJUST
 70
     0
  9
$CMLSCALE
 40
1.0
  9
$PROXYGRAPHICS
 70
     0
  9
$MEASUREMENT
 70
     0
  0
ENDSEC
  0
SECTION
  2
CLASSES
  0
CLASS
  1
LWPOLYLINE
  2
AcDbPolyline
  3
"AutoCAD"
 90
        0
280
     0
281
     1
  0
CLASS
  1
IMAGE
  2
AcDbRasterImage
  3
ISM
 90
      127
280
     0
281
     1
  0
CLASS
  1
OLE2FRAME
  2
AcDbOle2Frame
  3
""
 90
        0
280
     0
281
     1
  0
CLASS
  1
HATCH
  2
AcDbHatch
  3
"ACAD_SEDONA"
 90
        0
280
     0
281
     1
  0
CLASS
  1
DICTIONARYVAR
  2
AcDbDictionaryVar
  3
"AutoCAD"
 90
        0
280
     0
281
     0
  0
CLASS
  1
RASTERVARIABLES
  2
AcDbRasterVariables
  3
ISM
 90
        0
280
     0
281
     0
  0
CLASS
  1
IMAGEDEF
  2
AcDbRasterImageDef
  3
ISM
 90
        0
280
     0
281
     0
  0
CLASS
  1
IMAGEDEF_REACTOR
  2
AcDbRasterImageDefReactor
  3
ISM
 90
        1
280
     0
281
     0
  0
CLASS
  1
IDBUFFER
  2
AcDbIdBuffer
  3
"Acad"
 90
        0
280
     0
281
     0
  0
CLASS
  1
SPATIAL_FILTER
  2
AcDbSpatialFilter
  3
"Acad"
 90
        0
280
     0
281
     0
  0
CLASS
  1
XRECORD
  2
AcDbXrecord
  3
"<Built In>"
 90
        0
280
     0
281
     0
  0
CLASS
  1
SORTENTSTABLE
  2
AcDbSortentsTable
  3
"AutoCAD"
 90
        0
280
     0
281
     0
  0
CLASS
  1
LAYER_INDEX
  2
AcDbLayerIndex
  3
"Acad"
 90
        0
280
     0
281
     0
  0
CLASS
  1
SPATIAL_INDEX
  2
AcDbSpatialIndex
  3
"Acad"
 90
        0
280
     0
281
     0
  0
CLASS
  1
OBJECT_PTR
  2
CAseDLPNTableRecord
  3
"ASE-LPNTableRecord"
 90
        1
280
     0
281
     0
  0
CLASS
  1
LAYOUT
  2
AcDbLayout
  3
"AutoCAD 2000"
 90
        1
280
     0
281
     0
  0
CLASS
  1
PLOTSETTINGS
  2
AcDbPlotSettings
  3
"AutoCAD 2000"
 90
        1
280
     0
281
     0
  0
CLASS
  1
ACDBDICTIONARYWDFLT
  2
AcDbDictionaryWithDefault
  3
"AutoCAD 2000"
 90
        1
280
     0
281
     0
  0
CLASS
  1
ACDBPLACEHOLDER
  2
AcDbPlaceHolder
  3
"AutoCAD 2000"
 90
        1
280
     0
281
     0
  0
CLASS
  1
VBA_PROJECT
  2
AcDbVbaProject
  3
"acadvba"
 90
        1
280
     0
281
     0
  0
CLASS
  1
WIPEOUT
  2
AcDbWipeout
  3
WipeOut|AutoCAD Express Tool|expresstools@autodesk.com
 90
      127
280
     0
281
     1
  0
CLASS
  1
WIPEOUTVARIABLES
  2
AcDbWipeoutVariables
  3
WipeOut|AutoCAD Express Tool|expresstools@autodesk.com
 90
        0
280
     0
281
     0
  0
CLASS
  1
RTEXT
  2
RText
  3
RText|AutoCAD Express Tool|expresstools@autodesk.com
 90
        0
280
     0
281
     1
  0
CLASS
  1
ARCALIGNEDTEXT
  2
AcDbArcAlignedText
  3
ATEXT|AutoCAD Express Tool|expresstools@autodesk.com
 90
        0
280
     0
281
     1
  0
ENDSEC
  0
SECTION
  2
TABLES
  0
TABLE
  2
VPORT
  5
7
100
AcDbSymbolTable
 70
     1
  0
VPORT
  5
15
100
AcDbSymbolTableRecord
100
AcDbViewportTableRecord
  2
*ACTIVE
 70
     0
 10
0.0
 20
0.0
 11
1.0
 21
1.0
 12
200.7
 22
297.0
 13
0.0
 23
0.0
 14
1.0
 24
1.0
 15
0.0
 25
0.0
 16
0.0
 26
0.0
 36
1.0
 17
0.0
 27
0.0
 37
0.0
 40
560.0
 41
1.722533
 42
50.0
 43
0.0
 44
0.0
 50
0.0
 51
0.0
 71
     0
 72
   100
 73
     1
 74
     1
 75
     0
 76
     0
 77
     0
 78
     0
  0
ENDTAB
  0
TABLE
  2
LTYPE
  5
4
100
AcDbSymbolTable
 70
     9
  0
LTYPE
  5
11
100
AcDbSymbolTableRecord
100
AcDbLinetypeTableRecord
  2
BYBLOCK
 70
    64
  3

 72
    65
 73
     0
 40
0.0
  0
LTYPE
  5
12
100
AcDbSymbolTableRecord
100
AcDbLinetypeTableRecord
  2
BYLAYER
 70
    64
  3

 72
    65
 73
     0
 40
0.0
  0
LTYPE
  5
13
100
AcDbSymbolTableRecord
100
AcDbLinetypeTableRecord
  2
CONTINUOUS
 70
    64
  3
実線
 72
    65
 73
     0
 40
0.0
  0
LTYPE
  5
1D
100
AcDbSymbolTableRecord
100
AcDbLinetypeTableRecord
  2
EXLTYPE1
 70
    64
  3
破線
 72
    65
 73
     2
 40
3.0
 49
2.0
 74
     0
 49
-1.0
 74
     0
  0
LTYPE
  5
1E
100
AcDbSymbolTableRecord
100
AcDbLinetypeTableRecord
  2
EXLTYPE2
 70
    64
  3
点線
 72
    65
 73
     2
 40
2.0
 49
1.0
 74
     0
 49
-1.0
 74
     0
  0
LTYPE
  5
1F
100
AcDbSymbolTableRecord
100
AcDbLinetypeTableRecord
  2
EXLTYPE3
 70
    64
  3
一点鎖線
 72
    65
 73
     4
 40
10.0
 49
7.0
 74
     0
 49
-1.0
 74
     0
 49
1.0
 74
     0
 49
-1.0
 74
     0
  0
LTYPE
  5
20
100
AcDbSymbolTableRecord
100
AcDbLinetypeTableRecord
  2
EXLTYPE4
 70
    64
  3
二点鎖線
 72
    65
 73
     6
 40
12.0
 49
7.0
 74
     0
 49
-1.0
 74
     0
 49
1.0
 74
     0
 49
-1.0
 74
     0
 49
1.0
 74
     0
 49
-1.0
 74
     0
  0
LTYPE
  5
21
100
AcDbSymbolTableRecord
100
AcDbLinetypeTableRecord
  2
EXLTYPE5
 70
    64
  3
三点鎖線
 72
    65
 73
     8
 40
37.0
 49
30.0
 74
     0
 49
-1.0
 74
     0
 49
1.0
 74
     0
 49
-1.0
 74
     0
 49
1.0
 74
     0
 49
-1.0
 74
     0
 49
1.0
 74
     0
 49
-1.0
 74
     0
  0
LTYPE
  5
22
100
AcDbSymbolTableRecord
100
AcDbLinetypeTableRecord
  2
EXLTYPE6
 70
    64
  3
四点鎖線
 72
    65
 73
    10
 40
39.0
 49
30.0
 74
     0
 49
-1.0
 74
     0
 49
1.0
 74
     0
 49
-1.0
 74
     0
 49
1.0
 74
     0
 49
-1.0
 74
     0
 49
1.0
 74
     0
 49
-1.0
 74
     0
 49
1.0
 74
     0
 49
-1.0
 74
     0
  0
ENDTAB
  0
TABLE
  2
LAYER
  5
2
100
AcDbSymbolTable
 70
     5
  0
LAYER
  5
14
100
AcDbSymbolTableRecord
100
AcDbLayerTableRecord
  2
0
 70
     0
 62
     7
  6
CONTINUOUS
  0
LAYER
  5
25
100
AcDbSymbolTableRecord
100
AcDbLayerTableRecord
  2
1
 70
    64
 62
     7
  6
CONTINUOUS
  0
LAYER
  5
26
100
AcDbSymbolTableRecord
100
AcDbLayerTableRecord
  2
2
 70
    64
 62
     7
  6
CONTINUOUS
  0
LAYER
  5
27
100
AcDbSymbolTableRecord
100
AcDbLayerTableRecord
  2
LAY-4
 70
    64
 62
     7
  6
CONTINUOUS
  0
LAYER
  5
28
100
AcDbSymbolTableRecord
100
AcDbLayerTableRecord
  2
LAY-5
 70
    64
 62
     7
  6
CONTINUOUS
  0
ENDTAB
  0
TABLE
  2
STYLE
  5
3
100
AcDbSymbolTable
 70
     4
  0
STYLE
  5
17
100
AcDbSymbolTableRecord
100
AcDbTextStyleTableRecord
  2
STANDARD
 70
     0
 40
0.0
 41
1.0
 50
0.0
 71
     0
 42
0.0
  3
monotxt
  4
extfont
  0
STYLE
  5
23
100
AcDbSymbolTableRecord
100
AcDbTextStyleTableRecord
  2
EXCADSTD
 70
    64
 40
0.0
 41
1.0
 50
0.0
 71
     0
 42
0.2
  3
monotxt
  4
extfont
  0
STYLE
  5
24
100
AcDbSymbolTableRecord
100
AcDbTextStyleTableRecord
  2
EXCADVERT
 70
    68
 40
0.0
 41
1.0
 50
0.0
 71
     0
 42
0.286885
  3
monotxt
  4
extfont
  0
STYLE
  5
93
100
AcDbSymbolTableRecord
100
AcDbTextStyleTableRecord
  2
EXCADDIM1
 70
    64
 40
0.0
 41
0.84
 50
0.0
 71
     0
 42
0.2
  3
monotxt
  4
extfont
  0
ENDTAB
  0
TABLE
  2
VIEW
  5
5
100
AcDbSymbolTable
 70
     0
  0
ENDTAB
  0
TABLE
  2
UCS
  5
6
100
AcDbSymbolTable
 70
     0
  0
ENDTAB
  0
TABLE
  2
APPID
  5
8
100
AcDbSymbolTable
 70
     1
  0
APPID
  5
16
100
AcDbSymbolTableRecord
100
AcDbRegAppTableRecord
  2
ACAD
 70
     0
  0
ENDTAB
  0
TABLE
  2
DIMSTYLE
  5
9
100
AcDbSymbolTable
 70
     1
  0
DIMSTYLE
105
18
100
AcDbSymbolTableRecord
100
AcDbDimStyleTableRecord
  2
STANDARD
 70
     0
  3

  4

  5

  6

  7

 40
1.0
 41
0.18
 42
0.0625
 43
0.38
 44
0.18
 45
0.0
 46
0.0
 47
0.0
 48
0.0
 71
     0
 72
     0
 73
     1
 74
     1
 75
     0
 76
     0
 77
     0
 78
     0
140
0.18
141
0.09
142
0.0
143
25.4
144
1.0
145
0.0
146
1.0
147
0.09
170
     0
171
     2
172
     1
173
     0
174
     0
175
     0
176
     0
177
     0
178
     0
270
     2
271
     4
272
     4
273
     2
274
     2
275
     0
280
     0
281
     0
282
     0
283
     1
284
     0
285
     0
286
     0
287
     0
288
     0
340
17
  0
ENDTAB
  0
TABLE
  2
BLOCK_RECORD
  5
1
100
AcDbSymbolTable
 70
    18
  0
BLOCK_RECORD
  5
A
100
AcDbSymbolTableRecord
100
AcDbBlockTableRecord
  2
*MODEL_SPACE
  0
BLOCK_RECORD
  5
B
100
AcDbSymbolTableRecord
100
AcDbBlockTableRecord
  2
*PAPER_SPACE
  0
BLOCK_RECORD
  5
29
100
AcDbSymbolTableRecord
100
AcDbBlockTableRecord
  2
_EX_NORM
  0
BLOCK_RECORD
  5
2A
100
AcDbSymbolTableRecord
100
AcDbBlockTableRecord
  2
_EX_BNORM
  0
BLOCK_RECORD
  5
2B
100
AcDbSymbolTableRecord
100
AcDbBlockTableRecord
  2
_EX_BCIR
  0
BLOCK_RECORD
  5
2C
100
AcDbSymbolTableRecord
100
AcDbBlockTableRecord
  2
_EX_RCIVIL
  0
BLOCK_RECORD
  5
2D
100
AcDbSymbolTableRecord
100
AcDbBlockTableRecord
  2
_EX_SLANT
  0
BLOCK_RECORD
  5
2E
100
AcDbSymbolTableRecord
100
AcDbBlockTableRecord
  2
_EX_NONE
  0
BLOCK_RECORD
  5
2F
100
AcDbSymbolTableRecord
100
AcDbBlockTableRecord
  2
_EX_CIVIL
  0
BLOCK_RECORD
  5
30
100
AcDbSymbolTableRecord
100
AcDbBlockTableRecord
  2
_EX_WCIR
  0
BLOCK_RECORD
  5
31
100
AcDbSymbolTableRecord
100
AcDbBlockTableRecord
  2
_EX_WCIR2
  0
BLOCK_RECORD
  5
32
100
AcDbSymbolTableRecord
100
AcDbBlockTableRecord
  2
_EX_WNORM
  0
BLOCK_RECORD
  5
33
100
AcDbSymbolTableRecord
100
AcDbBlockTableRecord
  2
_EX_NNORM
  0
BLOCK_RECORD
  5
34
100
AcDbSymbolTableRecord
100
AcDbBlockTableRecord
  2
_EX_BBOX
  0
BLOCK_RECORD
  5
35
100
AcDbSymbolTableRecord
100
AcDbBlockTableRecord
  2
_EX_WBOX
  0
BLOCK_RECORD
  5
36
100
AcDbSymbolTableRecord
100
AcDbBlockTableRecord
  2
_EX_INTEGRAL
  0
BLOCK_RECORD
  5
88
100
AcDbSymbolTableRecord
100
AcDbBlockTableRecord
  2
*D14
  0
BLOCK_RECORD
  5
95
100
AcDbSymbolTableRecord
100
AcDbBlockTableRecord
  2
*D15
  0
BLOCK_RECORD
  5
A1
100
AcDbSymbolTableRecord
100
AcDbBlockTableRecord
  2
*D16
  0
BLOCK_RECORD
  5
AD
100
AcDbSymbolTableRecord
100
AcDbBlockTableRecord
  2
*D17
  0
ENDTAB
  0
ENDSEC
  0
SECTION
  2
BLOCKS
  0
BLOCK
  5
D
100
AcDbEntity
  8
0
100
AcDbBlockBegin
  2
*MODEL_SPACE
 70
     0
 10
0.0
 20
0.0
 30
0.0
  3
*MODEL_SPACE
  1

  0
ENDBLK
  5
E
100
AcDbEntity
  8
0
100
AcDbBlockEnd
  0
BLOCK
  5
F
100
AcDbEntity
 67
     1
  8
0
100
AcDbBlockBegin
  2
*PAPER_SPACE
 70
     0
 10
0.0
 20
0.0
 30
0.0
  3
*PAPER_SPACE
  1

  0
ENDBLK
  5
10
100
AcDbEntity
 67
     1
  8
0
100
AcDbBlockEnd
  0
BLOCK
  5
37
100
AcDbEntity
  8
0
100
AcDbBlockBegin
  2
_EX_NORM
 70
     0
 10
0.0
 20
0.0
 30
0.0
  3
_EX_NORM
  1

  0
LINE
  5
38
100
AcDbEntity
  8
0
  6
CONTINUOUS
 62
     0
100
AcDbLine
 10
0.0
 20
0.0
 30
0.0
 11
-1.0
 21
0.0
 31
0.0
  0
LINE
  5
39
100
AcDbEntity
  8
0
  6
CONTINUOUS
 62
     0
100
AcDbLine
 10
0.0
 20
0.0
 30
0.0
 11
-1.0
 21
0.166667
 31
0.0
  0
LINE
  5
3A
100
AcDbEntity
  8
0
  6
CONTINUOUS
 62
     0
100
AcDbLine
 10
0.0
 20
0.0
 30
0.0
 11
-1.0
 21
-0.166667
 31
0.0
  0
ENDBLK
  5
3B
100
AcDbEntity
  8
0
100
AcDbBlockEnd
  0
BLOCK
  5
3C
100
AcDbEntity
  8
0
100
AcDbBlockBegin
  2
_EX_BNORM
 70
     0
 10
0.0
 20
0.0
 30
0.0
  3
_EX_BNORM
  1

  0
LINE
  5
3D
100
AcDbEntity
  8
0
  6
CONTINUOUS
 62
     0
100
AcDbLine
 10
0.0
 20
0.0
 30
0.0
 11
-1.0
 21
0.0
 31
0.0
  0
LINE
  5
3E
100
AcDbEntity
  8
0
  6
CONTINUOUS
 62
     0
100
AcDbLine
 10
0.0
 20
0.0
 30
0.0
 11
-1.0
 21
0.166667
 31
0.0
  0
LINE
  5
3F
100
AcDbEntity
  8
0
  6
CONTINUOUS
 62
     0
100
AcDbLine
 10
0.0
 20
0.0
 30
0.0
 11
-1.0
 21
-0.166667
 31
0.0
  0
LINE
  5
40
100
AcDbEntity
  8
0
  6
CONTINUOUS
 62
     0
100
AcDbLine
 10
0.0
 20
0.0
 30
0.0
 11
-1.0
 21
0.083333
 31
0.0
  0
LINE
  5
41
100
AcDbEntity
  8
0
  6
CONTINUOUS
 62
     0
100
AcDbLine
 10
0.0
 20
0.0
 30
0.0
 11
-1.0
 21
-0.083333
 31
0.0
  0
LINE
  5
42
100
AcDbEntity
  8
0
  6
CONTINUOUS
 62
     0
100
AcDbLine
 10
-1.0
 20
0.166667
 30
0.0
 11
-1.0
 21
-0.166667
 31
0.0
  0
ENDBLK
  5
43
100
AcDbEntity
  8
0
100
AcDbBlockEnd
  0
BLOCK
  5
44
100
AcDbEntity
  8
0
100
AcDbBlockBegin
  2
_EX_BCIR
 70
     0
 10
0.0
 20
0.0
 30
0.0
  3
_EX_BCIR
  1

  0
LINE
  5
45
100
AcDbEntity
  8
0
  6
CONTINUOUS
 62
     0
100
AcDbLine
 10
0.0
 20
0.0
 30
0.0
 11
-1.0
 21
0.0
 31
0.0
  0
CIRCLE
  5
46
100
AcDbEntity
  8
0
  6
CONTINUOUS
 62
     0
100
AcDbCircle
 10
0.0
 20
0.0
 30
0.0
 40
0.5
  0
CIRCLE
  5
47
100
AcDbEntity
  8
0
  6
CONTINUOUS
 62
     0
100
AcDbCircle
 10
0.0
 20
0.0
 30
0.0
 40
0.25
  0
ENDBLK
  5
48
100
AcDbEntity
  8
0
100
AcDbBlockEnd
  0
BLOCK
  5
49
100
AcDbEntity
  8
0
100
AcDbBlockBegin
  2
_EX_RCIVIL
 70
     0
 10
0.0
 20
0.0
 30
0.0
  3
_EX_RCIVIL
  1

  0
LINE
  5
4A
100
AcDbEntity
  8
0
  6
CONTINUOUS
 62
     0
100
AcDbLine
 10
0.0
 20
0.0
 30
0.0
 11
-1.0
 21
0.0
 31
0.0
  0
LINE
  5
4B
100
AcDbEntity
  8
0
  6
CONTINUOUS
 62
     0
100
AcDbLine
 10
-1.0
 20
-0.25
 30
0.0
 11
0.0
 21
-0.25
 31
0.0
  0
LINE
  5
4C
100
AcDbEntity
  8
0
  6
CONTINUOUS
 62
     0
100
AcDbLine
 10
-1.0
 20
-0.125
 30
0.0
 11
0.0
 21
-0.125
 31
0.0
  0
ENDBLK
  5
4D
100
AcDbEntity
  8
0
100
AcDbBlockEnd
  0
BLOCK
  5
4E
100
AcDbEntity
  8
0
100
AcDbBlockBegin
  2
_EX_SLANT
 70
     0
 10
0.0
 20
0.0
 30
0.0
  3
_EX_SLANT
  1

  0
LINE
  5
4F
100
AcDbEntity
  8
0
  6
CONTINUOUS
 62
     0
100
AcDbLine
 10
0.0
 20
0.0
 30
0.0
 11
-1.0
 21
0.0
 31
0.0
  0
LINE
  5
50
100
AcDbEntity
  8
0
  6
CONTINUOUS
 62
     0
100
AcDbLine
 10
0.707107
 20
0.707107
 30
0.0
 11
-0.707107
 21
-0.707107
 31
0.0
  0
ENDBLK
  5
51
100
AcDbEntity
  8
0
100
AcDbBlockEnd
  0
BLOCK
  5
52
100
AcDbEntity
  8
0
100
AcDbBlockBegin
  2
_EX_NONE
 70
     0
 10
0.0
 20
0.0
 30
0.0
  3
_EX_NONE
  1

  0
LINE
  5
53
100
AcDbEntity
  8
0
  6
CONTINUOUS
 62
     0
100
AcDbLine
 10
0.0
 20
0.0
 30
0.0
 11
-1.0
 21
0.0
 31
0.0
  0
ENDBLK
  5
54
100
AcDbEntity
  8
0
100
AcDbBlockEnd
  0
BLOCK
  5
55
100
AcDbEntity
  8
0
100
AcDbBlockBegin
  2
_EX_CIVIL
 70
     0
 10
0.0
 20
0.0
 30
0.0
  3
_EX_CIVIL
  1

  0
LINE
  5
56
100
AcDbEntity
  8
0
  6
CONTINUOUS
 62
     0
100
AcDbLine
 10
0.0
 20
0.0
 30
0.0
 11
-1.0
 21
0.0
 31
0.0
  0
LINE
  5
57
100
AcDbEntity
  8
0
  6
CONTINUOUS
 62
     0
100
AcDbLine
 10
-1.0
 20
0.25
 30
0.0
 11
0.0
 21
0.25
 31
0.0
  0
LINE
  5
58
100
AcDbEntity
  8
0
  6
CONTINUOUS
 62
     0
100
AcDbLine
 10
-1.0
 20
0.125
 30
0.0
 11
0.0
 21
0.125
 31
0.0
  0
ENDBLK
  5
59
100
AcDbEntity
  8
0
100
AcDbBlockEnd
  0
BLOCK
  5
5A
100
AcDbEntity
  8
0
100
AcDbBlockBegin
  2
_EX_WCIR
 70
     0
 10
0.0
 20
0.0
 30
0.0
  3
_EX_WCIR
  1

  0
LINE
  5
5B
100
AcDbEntity
  8
0
  6
CONTINUOUS
 62
     0
100
AcDbLine
 10
0.0
 20
0.0
 30
0.0
 11
-1.0
 21
0.0
 31
0.0
  0
CIRCLE
  5
5C
100
AcDbEntity
  8
0
  6
CONTINUOUS
 62
     0
100
AcDbCircle
 10
0.0
 20
0.0
 30
0.0
 40
0.5
  0
ENDBLK
  5
5D
100
AcDbEntity
  8
0
100
AcDbBlockEnd
  0
BLOCK
  5
5E
100
AcDbEntity
  8
0
100
AcDbBlockBegin
  2
_EX_WCIR2
 70
     0
 10
0.0
 20
0.0
 30
0.0
  3
_EX_WCIR2
  1

  0
LINE
  5
5F
100
AcDbEntity
  8
0
  6
CONTINUOUS
 62
     0
100
AcDbLine
 10
-0.5
 20
0.0
 30
0.0
 11
-1.0
 21
0.0
 31
0.0
  0
CIRCLE
  5
60
100
AcDbEntity
  8
0
  6
CONTINUOUS
 62
     0
100
AcDbCircle
 10
0.0
 20
0.0
 30
0.0
 40
0.5
  0
ENDBLK
  5
61
100
AcDbEntity
  8
0
100
AcDbBlockEnd
  0
BLOCK
  5
62
100
AcDbEntity
  8
0
100
AcDbBlockBegin
  2
_EX_WNORM
 70
     0
 10
0.0
 20
0.0
 30
0.0
  3
_EX_WNORM
  1

  0
LINE
  5
63
100
AcDbEntity
  8
0
  6
CONTINUOUS
 62
     0
100
AcDbLine
 10
-1.0
 20
0.0
 30
0.0
 11
-1.0
 21
0.0
 31
0.0
  0
LINE
  5
64
100
AcDbEntity
  8
0
  6
CONTINUOUS
 62
     0
100
AcDbLine
 10
0.0
 20
0.0
 30
0.0
 11
-1.0
 21
0.166667
 31
0.0
  0
LINE
  5
65
100
AcDbEntity
  8
0
  6
CONTINUOUS
 62
     0
100
AcDbLine
 10
0.0
 20
0.0
 30
0.0
 11
-1.0
 21
-0.166667
 31
0.0
  0
LINE
  5
66
100
AcDbEntity
  8
0
  6
CONTINUOUS
 62
     0
100
AcDbLine
 10
-1.0
 20
0.166667
 30
0.0
 11
-1.0
 21
-0.166667
 31
0.0
  0
ENDBLK
  5
67
100
AcDbEntity
  8
0
100
AcDbBlockEnd
  0
BLOCK
  5
68
100
AcDbEntity
  8
0
100
AcDbBlockBegin
  2
_EX_NNORM
 70
     0
 10
0.0
 20
0.0
 30
0.0
  3
_EX_NNORM
  1

  0
LINE
  5
69
100
AcDbEntity
  8
0
  6
CONTINUOUS
 62
     0
100
AcDbLine
 10
0.0
 20
0.0
 30
0.0
 11
-1.0
 21
0.0
 31
0.0
  0
LINE
  5
6A
100
AcDbEntity
  8
0
  6
CONTINUOUS
 62
     0
100
AcDbLine
 10
0.0
 20
0.0
 30
0.0
 11
-1.0
 21
0.166667
 31
0.0
  0
LINE
  5
6B
100
AcDbEntity
  8
0
  6
CONTINUOUS
 62
     0
100
AcDbLine
 10
0.0
 20
0.0
 30
0.0
 11
-1.0
 21
-0.166667
 31
0.0
  0
LINE
  5
6C
100
AcDbEntity
  8
0
  6
CONTINUOUS
 62
     0
100
AcDbLine
 10
-1.0
 20
0.166667
 30
0.0
 11
-1.0
 21
-0.166667
 31
0.0
  0
ENDBLK
  5
6D
100
AcDbEntity
  8
0
100
AcDbBlockEnd
  0
BLOCK
  5
6E
100
AcDbEntity
  8
0
100
AcDbBlockBegin
  2
_EX_BBOX
 70
     0
 10
0.0
 20
0.0
 30
0.0
  3
_EX_BBOX
  1

  0
LINE
  5
6F
100
AcDbEntity
  8
0
  6
CONTINUOUS
 62
     0
100
AcDbLine
 10
0.0
 20
0.0
 30
0.0
 11
-1.0
 21
0.0
 31
0.0
  0
LINE
  5
70
100
AcDbEntity
  8
0
  6
CONTINUOUS
 62
     0
100
AcDbLine
 10
-0.5
 20
0.5
 30
0.0
 11
0.5
 21
0.5
 31
0.0
  0
LINE
  5
71
100
AcDbEntity
  8
0
  6
CONTINUOUS
 62
     0
100
AcDbLine
 10
0.5
 20
0.5
 30
0.0
 11
0.5
 21
-0.5
 31
0.0
  0
LINE
  5
72
100
AcDbEntity
  8
0
  6
CONTINUOUS
 62
     0
100
AcDbLine
 10
0.5
 20
-0.5
 30
0.0
 11
-0.5
 21
-0.5
 31
0.0
  0
LINE
  5
73
100
AcDbEntity
  8
0
  6
CONTINUOUS
 62
     0
100
AcDbLine
 10
-0.5
 20
-0.5
 30
0.0
 11
-0.5
 21
0.5
 31
0.0
  0
LINE
  5
74
100
AcDbEntity
  8
0
  6
CONTINUOUS
 62
     0
100
AcDbLine
 10
-0.25
 20
0.25
 30
0.0
 11
0.25
 21
0.25
 31
0.0
  0
LINE
  5
75
100
AcDbEntity
  8
0
  6
CONTINUOUS
 62
     0
100
AcDbLine
 10
0.25
 20
0.25
 30
0.0
 11
0.25
 21
-0.25
 31
0.0
  0
LINE
  5
76
100
AcDbEntity
  8
0
  6
CONTINUOUS
 62
     0
100
AcDbLine
 10
0.25
 20
-0.25
 30
0.0
 11
-0.25
 21
-0.25
 31
0.0
  0
LINE
  5
77
100
AcDbEntity
  8
0
  6
CONTINUOUS
 62
     0
100
AcDbLine
 10
-0.25
 20
-0.25
 30
0.0
 11
-0.25
 21
0.25
 31
0.0
  0
ENDBLK
  5
78
100
AcDbEntity
  8
0
100
AcDbBlockEnd
  0
BLOCK
  5
79
100
AcDbEntity
  8
0
100
AcDbBlockBegin
  2
_EX_WBOX
 70
     0
 10
0.0
 20
0.0
 30
0.0
  3
_EX_WBOX
  1

  0
LINE
  5
7A
100
AcDbEntity
  8
0
  6
CONTINUOUS
 62
     0
100
AcDbLine
 10
-0.5
 20
0.0
 30
0.0
 11
-1.0
 21
0.0
 31
0.0
  0
LINE
  5
7B
100
AcDbEntity
  8
0
  6
CONTINUOUS
 62
     0
100
AcDbLine
 10
-0.5
 20
0.5
 30
0.0
 11
0.5
 21
0.5
 31
0.0
  0
LINE
  5
7C
100
AcDbEntity
  8
0
  6
CONTINUOUS
 62
     0
100
AcDbLine
 10
0.5
 20
0.5
 30
0.0
 11
0.5
 21
-0.5
 31
0.0
  0
LINE
  5
7D
100
AcDbEntity
  8
0
  6
CONTINUOUS
 62
     0
100
AcDbLine
 10
0.5
 20
-0.5
 30
0.0
 11
-0.5
 21
-0.5
 31
0.0
  0
LINE
  5
7E
100
AcDbEntity
  8
0
  6
CONTINUOUS
 62
     0
100
AcDbLine
 10
-0.5
 20
-0.5
 30
0.0
 11
-0.5
 21
0.5
 31
0.0
  0
ENDBLK
  5
7F
100
AcDbEntity
  8
0
100
AcDbBlockEnd
  0
BLOCK
  5
80
100
AcDbEntity
  8
0
100
AcDbBlockBegin
  2
_EX_INTEGRAL
 70
     0
 10
0.0
 20
0.0
 30
0.0
  3
_EX_INTEGRAL
  1

  0
LINE
  5
81
100
AcDbEntity
  8
0
  6
CONTINUOUS
 62
     0
100
AcDbLine
 10
0.0
 20
0.0
 30
0.0
 11
-1.0
 21
0.0
 31
0.0
  0
ARC
  5
82
100
AcDbEntity
  8
0
  6
CONTINUOUS
 62
     0
100
AcDbCircle
 10
0.542115
 20
0.164992
 30
0.0
 40
0.56667
100
AcDbArc
 50
73.07249
 51
196.927513
  0
ARC
  5
83
100
AcDbEntity
  8
0
  6
CONTINUOUS
 62
     0
100
AcDbCircle
 10
-0.542115
 20
-0.164992
 30
0.0
 40
0.56667
100
AcDbArc
 50
253.072487
 51
16.927513
  0
ENDBLK
  5
84
100
AcDbEntity
  8
0
100
AcDbBlockEnd
  0
BLOCK
  5
89
100
AcDbEntity
  8
0
100
AcDbBlockBegin
  2
*D14
 70
    65
 10
0.0
 20
0.0
 30
0.0
  3
*D14
  1

  0
LINE
  5
8A
100
AcDbEntity
  8
2
  6
CONTINUOUS
 62
     3
100
AcDbLine
 10
91.8
 20
219.9
 30
0.0
 11
91.8
 21
137.4
 31
0.0
  0
LINE
  5
8B
100
AcDbEntity
  8
2
  6
CONTINUOUS
 62
     3
100
AcDbLine
 10
221.8
 20
219.9
 30
0.0
 11
221.8
 21
137.4
 31
0.0
  0
TEXT
  5
8C
100
AcDbEntity
  8
2
  6
CONTINUOUS
 62
     2
100
AcDbText
 10
145.88
 20
141.4
 30
0.0
 40
8.0
  1
%%c130
 41
0.84
  7
EXCADSTD
 72
     1
 11
156.8
 21
141.4
 31
0.0
100
AcDbText
  0
LINE
  5
8D
100
AcDbEntity
  8
2
  6
CONTINUOUS
 62
     3
100
AcDbLine
 10
91.8
 20
139.4
 30
0.0
 11
221.8
 21
139.4
 31
0.0
  0
LINE
  5
8E
100
AcDbEntity
  8
2
  6
CONTINUOUS
 62
     3
100
AcDbLine
 10
97.8
 20
140.4
 30
0.0
 11
91.8
 21
139.4
 31
0.0
  0
LINE
  5
8F
100
AcDbEntity
  8
2
  6
CONTINUOUS
 62
     3
100
AcDbLine
 10
91.8
 20
139.4
 30
0.0
 11
97.8
 21
138.4
 31
0.0
  0
LINE
  5
90
100
AcDbEntity
  8
2
  6
CONTINUOUS
 62
     3
100
AcDbLine
 10
215.8
 20
138.4
 30
0.0
 11
221.8
 21
139.4
 31
0.0
  0
LINE
  5
91
100
AcDbEntity
  8
2
  6
CONTINUOUS
 62
     3
100
AcDbLine
 10
221.8
 20
139.4
 30
0.0
 11
215.8
 21
140.4
 31
0.0
  0
ENDBLK
  5
92
100
AcDbEntity
  8
0
100
AcDbBlockEnd
  0
BLOCK
  5
96
100
AcDbEntity
  8
0
100
AcDbBlockBegin
  2
*D15
 70
    65
 10
0.0
 20
0.0
 30
0.0
  3
*D15
  1

  0
LINE
  5
97
100
AcDbEntity
  8
2
  6
CONTINUOUS
 62
     3
100
AcDbLine
 10
141.8
 20
305.9
 30
0.0
 11
141.8
 21
323.4
 31
0.0
  0
LINE
  5
98
100
AcDbEntity
  8
2
  6
CONTINUOUS
 62
     3
100
AcDbLine
 10
171.8
 20
305.9
 30
0.0
 11
171.8
 21
323.4
 31
0.0
  0
TEXT
  5
99
100
AcDbEntity
  8
2
  6
CONTINUOUS
 62
     2
100
AcDbText
 10
150.92
 20
323.4
 30
0.0
 40
8.0
  1
30
 41
0.84
  7
EXCADSTD
 72
     1
 11
156.8
 21
323.4
 31
0.0
100
AcDbText
  0
LINE
  5
9A
100
AcDbEntity
  8
2
  6
CONTINUOUS
 62
     3
100
AcDbLine
 10
141.8
 20
321.4
 30
0.0
 11
171.8
 21
321.4
 31
0.0
  0
LINE
  5
9B
100
AcDbEntity
  8
2
  6
CONTINUOUS
 62
     3
100
AcDbLine
 10
147.8
 20
322.4
 30
0.0
 11
141.8
 21
321.4
 31
0.0
  0
LINE
  5
9C
100
AcDbEntity
  8
2
  6
CONTINUOUS
 62
     3
100
AcDbLine
 10
141.8
 20
321.4
 30
0.0
 11
147.8
 21
320.4
 31
0.0
  0
LINE
  5
9D
100
AcDbEntity
  8
2
  6
CONTINUOUS
 62
     3
100
AcDbLine
 10
165.8
 20
320.4
 30
0.0
 11
171.8
 21
321.4
 31
0.0
  0
LINE
  5
9E
100
AcDbEntity
  8
2
  6
CONTINUOUS
 62
     3
100
AcDbLine
 10
171.8
 20
321.4
 30
0.0
 11
165.8
 21
322.4
 31
0.0
  0
ENDBLK
  5
9F
100
AcDbEntity
  8
0
100
AcDbBlockEnd
  0
BLOCK
  5
A2
100
AcDbEntity
  8
0
100
AcDbBlockBegin
  2
*D16
 70
    65
 10
0.0
 20
0.0
 30
0.0
  3
*D16
  1

  0
LINE
  5
A3
100
AcDbEntity
  8
2
  6
CONTINUOUS
 62
     3
100
AcDbLine
 10
340.8
 20
304.9
 30
0.0
 11
382.8
 21
304.9
 31
0.0
  0
LINE
  5
A4
100
AcDbEntity
  8
2
  6
CONTINUOUS
 62
     3
100
AcDbLine
 10
340.8
 20
274.9
 30
0.0
 11
382.8
 21
274.9
 31
0.0
  0
TEXT
  5
A5
100
AcDbEntity
  8
2
  6
CONTINUOUS
 62
     2
100
AcDbText
 10
377.0
 20
284.02
 30
0.0
 40
8.0
  1
30
 50
90.0
 41
0.84
  7
EXCADSTD
 72
     1
 11
377.0
 21
289.9
 31
0.0
100
AcDbText
  0
LINE
  5
A6
100
AcDbEntity
  8
2
  6
CONTINUOUS
 62
     3
100
AcDbLine
 10
379.0
 20
304.9
 30
0.0
 11
379.0
 21
274.9
 31
0.0
  0
LINE
  5
A7
100
AcDbEntity
  8
2
  6
CONTINUOUS
 62
     3
100
AcDbLine
 10
380.0
 20
298.9
 30
0.0
 11
379.0
 21
304.9
 31
0.0
  0
LINE
  5
A8
100
AcDbEntity
  8
2
  6
CONTINUOUS
 62
     3
100
AcDbLine
 10
379.0
 20
304.9
 30
0.0
 11
378.0
 21
298.9
 31
0.0
  0
LINE
  5
A9
100
AcDbEntity
  8
2
  6
CONTINUOUS
 62
     3
100
AcDbLine
 10
378.0
 20
280.9
 30
0.0
 11
379.0
 21
274.9
 31
0.0
  0
LINE
  5
AA
100
AcDbEntity
  8
2
  6
CONTINUOUS
 62
     3
100
AcDbLine
 10
379.0
 20
274.9
 30
0.0
 11
380.0
 21
280.9
 31
0.0
  0
ENDBLK
  5
AB
100
AcDbEntity
  8
0
100
AcDbBlockEnd
  0
BLOCK
  5
AE
100
AcDbEntity
  8
0
100
AcDbBlockBegin
  2
*D17
 70
    65
 10
0.0
 20
0.0
 30
0.0
  3
*D17
  1

  0
LINE
  5
AF
100
AcDbEntity
  8
2
  6
CONTINUOUS
 62
     3
100
AcDbLine
 10
301.3
 20
156.9
 30
0.0
 11
301.3
 21
137.4
 31
0.0
  0
LINE
  5
B0
100
AcDbEntity
  8
2
  6
CONTINUOUS
 62
     3
100
AcDbLine
 10
308.3
 20
156.9
 30
0.0
 11
308.3
 21
137.4
 31
0.0
  0
TEXT
  5
B1
100
AcDbEntity
  8
2
  6
CONTINUOUS
 62
     2
100
AcDbText
 10
316.82
 20
141.4
 30
0.0
 40
8.0
  1
%%c7
 41
0.84
  7
EXCADSTD
 72
     1
 11
322.7
 21
141.4
 31
0.0
100
AcDbText
  0
LINE
  5
B2
100
AcDbEntity
  8
2
  6
CONTINUOUS
 62
     3
100
AcDbLine
 10
295.3
 20
139.4
 30
0.0
 11
330.3
 21
139.4
 31
0.0
  0
LINE
  5
B3
100
AcDbEntity
  8
2
  6
CONTINUOUS
 62
     3
100
AcDbLine
 10
295.3
 20
138.4
 30
0.0
 11
301.3
 21
139.4
 31
0.0
  0
LINE
  5
B4
100
AcDbEntity
  8
2
  6
CONTINUOUS
 62
     3
100
AcDbLine
 10
301.3
 20
139.4
 30
0.0
 11
295.3
 21
140.4
 31
0.0
  0
LINE
  5
B5
100
AcDbEntity
  8
2
  6
CONTINUOUS
 62
     3
100
AcDbLine
 10
314.3
 20
140.4
 30
0.0
 11
308.3
 21
139.4
 31
0.0
  0
LINE
  5
B6
100
AcDbEntity
  8
2
  6
CONTINUOUS
 62
     3
100
AcDbLine
 10
308.3
 20
139.4
 30
0.0
 11
314.3
 21
138.4
 31
0.0
  0
ENDBLK
  5
B7
100
AcDbEntity
  8
0
100
AcDbBlockEnd
  0
ENDSEC
  0
SECTION
  2
ENTITIES
  0
TEXT
  5
85
100
AcDbEntity
  8
1
  6
CONTINUOUS
 62
     2
100
AcDbText
 10
358.5
 20
317.643165
 30
0.0
 40
8.0
  1
４×２５
 41
0.6825
  7
EXCADSTD
 72
     5
 11
384.5
 21
317.643165
 31
0.0
100
AcDbText
  0
LINE
  5
86
100
AcDbEntity
  8
2
  6
CONTINUOUS
 62
     3
100
AcDbLine
 10
150.8
 20
445.3
 30
0.0
 11
150.8
 21
458.4
 31
0.0
  0
LINE
  5
87
100
AcDbEntity
  8
2
  6
CONTINUOUS
 62
     3
100
AcDbLine
 10
162.8
 20
445.3
 30
0.0
 11
162.8
 21
458.4
 31
0.0
  0
DIMENSION
  5
94
100
AcDbEntity
  8
2
  6
CONTINUOUS
 62
     3
100
AcDbDimension
  2
*D14
 10
221.8
 20
139.4
 30
0.0
 11
156.8
 21
145.4
 31
0.0
 70
   160
  1
%%c130
  3
STANDARD
100
AcDbAlignedDimension
 13
91.8
 23
224.9
 33
0.0
 14
221.8
 24
224.9
 34
0.0
100
AcDbRotatedDimension
1001
ACAD
1000
DSTYLE
1002
{
1070
     6
1000
_EX_NORM
1070
     7
1000
_EX_NORM
1070
    41
1040
6.0
1070
    42
1040
5.0
1070
    44
1040
2.0
1070
    73
1070
     0
1070
    74
1070
     0
1070
    75
1070
     0
1070
    76
1070
     0
1070
    77
1070
     1
1070
    78
1070
     8
1070
   140
1040
8.0
1070
   147
1040
2.0
1070
   173
1070
     1
1070
   176
1070
     3
1070
   177
1070
     3
1070
   178
1070
     2
1070
   271
1070
     2
1070
   279
1070
     2
1070
   280
1070
     0
1070
   287
1070
     5
1070
   340
1005
93
1002
}
  0
DIMENSION
  5
A0
100
AcDbEntity
  8
2
  6
CONTINUOUS
 62
     3
100
AcDbDimension
  2
*D15
 10
171.8
 20
321.4
 30
0.0
 11
156.8
 21
327.4
 31
0.0
 70
   160
  1
30
  3
STANDARD
100
AcDbAlignedDimension
 13
141.8
 23
304.9
 33
0.0
 14
171.8
 24
304.9
 34
0.0
100
AcDbRotatedDimension
1001
ACAD
1000
DSTYLE
1002
{
1070
     6
1000
_EX_NORM
1070
     7
1000
_EX_NORM
1070
    41
1040
6.0
1070
    42
1040
1.0
1070
    44
1040
2.0
1070
    73
1070
     0
1070
    74
1070
     0
1070
    75
1070
     0
1070
    76
1070
     0
1070
    77
1070
     1
1070
    78
1070
     8
1070
   140
1040
8.0
1070
   147
1040
2.0
1070
   173
1070
     1
1070
   176
1070
     3
1070
   177
1070
     3
1070
   178
1070
     2
1070
   271
1070
     2
1070
   279
1070
     2
1070
   280
1070
     0
1070
   287
1070
     5
1070
   340
1005
93
1002
}
  0
DIMENSION
  5
AC
100
AcDbEntity
  8
2
  6
CONTINUOUS
 62
     3
100
AcDbDimension
  2
*D16
 10
379.0
 20
274.9
 30
0.0
 11
373.0
 21
289.9
 31
0.0
 70
   160
  1
30
  3
STANDARD
100
AcDbAlignedDimension
 13
338.0
 23
304.9
 33
0.0
 14
338.0
 24
274.9
 34
0.0
 50
90.0
100
AcDbRotatedDimension
1001
ACAD
1000
DSTYLE
1002
{
1070
     6
1000
_EX_NORM
1070
     7
1000
_EX_NORM
1070
    41
1040
6.0
1070
    42
1040
2.8
1070
    44
1040
3.8
1070
    73
1070
     0
1070
    74
1070
     0
1070
    75
1070
     0
1070
    76
1070
     0
1070
    77
1070
     1
1070
    78
1070
     8
1070
   140
1040
8.0
1070
   147
1040
2.0
1070
   173
1070
     1
1070
   176
1070
     3
1070
   177
1070
     3
1070
   178
1070
     2
1070
   271
1070
     2
1070
   279
1070
     2
1070
   280
1070
     0
1070
   287
1070
     5
1070
   340
1005
93
1002
}
  0
DIMENSION
  5
B8
100
AcDbEntity
  8
2
  6
CONTINUOUS
 62
     3
100
AcDbDimension
  2
*D17
 10
308.3
 20
139.4
 30
0.0
 11
322.7
 21
145.4
 31
0.0
 70
   160
  1
%%c7
  3
STANDARD
100
AcDbAlignedDimension
 13
301.3
 23
159.9
 33
0.0
 14
308.3
 24
159.9
 34
0.0
100
AcDbRotatedDimension
1001
ACAD
1000
DSTYLE
1002
{
1070
     6
1000
_EX_NORM
1070
     7
1000
_EX_NORM
1070
    41
1040
6.0
1070
    42
1040
3.0
1070
    44
1040
2.0
1070
    73
1070
     0
1070
    74
1070
     0
1070
    75
1070
     0
1070
    76
1070
     0
1070
    77
1070
     1
1070
    78
1070
     8
1070
   140
1040
8.0
1070
   147
1040
4.0
1070
   173
1070
     1
1070
   176
1070
     3
1070
   177
1070
     3
1070
   178
1070
     2
1070
   271
1070
     2
1070
   279
1070
     2
1070
   280
1070
     0
1070
   287
1070
     5
1070
   340
1005
93
1002
}
  0
TEXT
  5
B9
100
AcDbEntity
  8
2
  6
CONTINUOUS
 62
     2
100
AcDbText
 10
315.3
 20
323.4
 30
0.0
 40
8.0
  1
３５
 41
0.735
  7
EXCADSTD
 72
     5
 11
328.1324
 21
323.4
 31
0.0
100
AcDbText
  0
LINE
  5
BA
100
AcDbEntity
  8
2
  6
CONTINUOUS
 62
     3
100
AcDbLine
 10
304.8
 20
296.0
 30
0.0
 11
304.8
 21
323.4
 31
0.0
  0
LINE
  5
BB
100
AcDbEntity
  8
2
  6
CONTINUOUS
 62
     3
100
AcDbLine
 10
339.8
 20
306.3
 30
0.0
 11
339.8
 21
341.0
 31
0.0
  0
LINE
  5
BC
100
AcDbEntity
  8
2
  6
CONTINUOUS
 62
     3
100
AcDbLine
 10
304.8
 20
321.4
 30
0.0
 11
339.8
 21
321.4
 31
0.0
  0
LINE
  5
BD
100
AcDbEntity
  8
2
  6
CONTINUOUS
 62
     3
100
AcDbLine
 10
310.8
 20
322.4
 30
0.0
 11
304.8
 21
321.4
 31
0.0
  0
LINE
  5
BE
100
AcDbEntity
  8
2
  6
CONTINUOUS
 62
     3
100
AcDbLine
 10
304.8
 20
321.4
 30
0.0
 11
310.8
 21
320.4
 31
0.0
  0
LINE
  5
BF
100
AcDbEntity
  8
2
  6
CONTINUOUS
 62
     3
100
AcDbLine
 10
333.8
 20
320.4
 30
0.0
 11
339.8
 21
321.4
 31
0.0
  0
LINE
  5
C0
100
AcDbEntity
  8
2
  6
CONTINUOUS
 62
     3
100
AcDbLine
 10
339.8
 20
321.4
 30
0.0
 11
333.8
 21
322.4
 31
0.0
  0
TEXT
  5
C1
100
AcDbEntity
  8
2
  6
CONTINUOUS
 62
     2
100
AcDbText
 10
309.1
 20
337.7
 30
0.0
 40
8.0
  1
^J４５
 41
0.610444
  7
EXCADSTD
 72
     5
 11
325.5
 21
337.7
 31
0.0
100
AcDbText
  0
TEXT
  5
C2
100
AcDbEntity
  8
2
  6
CONTINUOUS
 62
     2
100
AcDbText
 10
324.7
 20
337.7
 30
0.0
 40
8.0
  1
^J
 41
0.0
  7
EXCADSTD
 72
     5
 11
324.7
 21
337.7
 31
0.0
100
AcDbText
  0
LINE
  5
C3
100
AcDbEntity
  8
2
  6
CONTINUOUS
 62
     3
100
AcDbLine
 10
294.8
 20
337.0
 30
0.0
 11
339.8
 21
337.0
 31
0.0
  0
LINE
  5
C4
100
AcDbEntity
  8
2
  6
CONTINUOUS
 62
     3
100
AcDbLine
 10
301.8
 20
338.166667
 30
0.0
 11
294.8
 21
337.0
 31
0.0
  0
LINE
  5
C5
100
AcDbEntity
  8
2
  6
CONTINUOUS
 62
     3
100
AcDbLine
 10
294.8
 20
337.0
 30
0.0
 11
301.8
 21
335.833333
 31
0.0
  0
LINE
  5
C6
100
AcDbEntity
  8
2
  6
CONTINUOUS
 62
     3
100
AcDbLine
 10
332.8
 20
335.833333
 30
0.0
 11
339.8
 21
337.0
 31
0.0
  0
LINE
  5
C7
100
AcDbEntity
  8
2
  6
CONTINUOUS
 62
     3
100
AcDbLine
 10
339.8
 20
337.0
 30
0.0
 11
332.8
 21
338.166667
 31
0.0
  0
TEXT
  5
C8
100
AcDbEntity
  8
2
  6
CONTINUOUS
 62
     2
100
AcDbText
 10
148.6
 20
455.1
 30
0.0
 40
8.0
  1
１２
 41
0.861
  7
EXCADSTD
 72
     5
 11
163.63224
 21
455.1
 31
0.0
100
AcDbText
  0
LINE
  5
C9
100
AcDbEntity
  8
2
  6
CONTINUOUS
 62
     3
100
AcDbLine
 10
141.8
 20
454.4
 30
0.0
 11
171.8
 21
454.4
 31
0.0
  0
LINE
  5
CA
100
AcDbEntity
  8
2
  6
CONTINUOUS
 62
     3
100
AcDbLine
 10
143.8
 20
453.233333
 30
0.0
 11
150.8
 21
454.4
 31
0.0
  0
LINE
  5
CB
100
AcDbEntity
  8
2
  6
CONTINUOUS
 62
     3
100
AcDbLine
 10
150.8
 20
454.4
 30
0.0
 11
143.8
 21
455.566667
 31
0.0
  0
LINE
  5
CC
100
AcDbEntity
  8
2
  6
CONTINUOUS
 62
     3
100
AcDbLine
 10
169.8
 20
455.566667
 30
0.0
 11
162.8
 21
454.4
 31
0.0
  0
LINE
  5
CD
100
AcDbEntity
  8
2
  6
CONTINUOUS
 62
     3
100
AcDbLine
 10
162.8
 20
454.4
 30
0.0
 11
169.8
 21
453.233333
 31
0.0
  0
LEADER
  5
CE
100
AcDbEntity
  8
LAY-4
  6
CONTINUOUS
 62
     6
100
AcDbLeader
  3
STANDARD
 73
     3
 74
     1
 75
     0
 40
0.0
 76
     2
 10
333.703321
 20
272.9
 30
0.0
 10
337.689028
 20
257.898242
 30
0.0
 77
     6
1001
ACAD
1000
DSTYLE
1002
{
1070
    41
1040
7.0
1070
     5
1000
_EX_NORM
1070
     6
1000
_EX_NORM
1070
     7
1000
_EX_NORM
1070
   341
1005
29
1002
}
  0
LEADER
  5
CF
100
AcDbEntity
  8
LAY-4
  6
CONTINUOUS
 62
     6
100
AcDbLeader
  3
STANDARD
 73
     3
 74
     1
 75
     0
 40
0.0
 76
     2
 10
352.823333
 20
287.9
 30
0.0
 10
363.099192
 20
257.719701
 30
0.0
 77
     6
1001
ACAD
1000
DSTYLE
1002
{
1070
    41
1040
7.0
1070
     5
1000
_EX_NORM
1070
     6
1000
_EX_NORM
1070
     7
1000
_EX_NORM
1070
   341
1005
29
1002
}
  0
LEADER
  5
D0
100
AcDbEntity
  8
LAY-4
  6
CONTINUOUS
 62
     6
100
AcDbLeader
  3
STANDARD
 73
     3
 74
     1
 75
     0
 40
0.0
 76
     2
 10
171.8
 20
296.4
 30
0.0
 10
191.772181
 20
312.377745
 30
0.0
 77
     6
1001
ACAD
1000
DSTYLE
1002
{
1070
    41
1040
7.0
1070
     5
1000
_EX_NORM
1070
     6
1000
_EX_NORM
1070
     7
1000
_EX_NORM
1070
   341
1005
29
1002
}
  0
LEADER
  5
D1
100
AcDbEntity
  8
LAY-4
  6
CONTINUOUS
 62
     6
100
AcDbLeader
  3
STANDARD
 73
     3
 74
     1
 75
     0
 40
0.0
 76
     2
 10
193.826802
 20
282.530425
 30
0.0
 10
218.880246
 20
311.220876
 30
0.0
 77
     6
1001
ACAD
1000
DSTYLE
1002
{
1070
    41
1040
7.0
1070
     5
1000
_EX_NORM
1070
     6
1000
_EX_NORM
1070
     7
1000
_EX_NORM
1070
   341
1005
29
1002
}
  0
LINE
  5
D2
100
AcDbEntity
  8
LAY-5
  6
CONTINUOUS
 62
     2
100
AcDbLine
 10
330.8
 20
272.9
 30
0.0
 11
334.8
 21
272.9
 31
0.0
  0
LINE
  5
D3
100
AcDbEntity
  8
LAY-5
  6
CONTINUOUS
 62
     2
100
AcDbLine
 10
330.8
 20
274.9
 30
0.0
 11
330.8
 21
272.9
 31
0.0
  0
LINE
  5
D4
100
AcDbEntity
  8
LAY-5
  6
CONTINUOUS
 62
     2
100
AcDbLine
 10
334.8
 20
274.9
 30
0.0
 11
334.8
 21
272.9
 31
0.0
  0
LINE
  5
D5
100
AcDbEntity
  8
LAY-5
  6
CONTINUOUS
 62
     2
100
AcDbLine
 10
154.8
 20
272.9
 30
0.0
 11
158.8
 21
272.9
 31
0.0
  0
LINE
  5
D6
100
AcDbEntity
  8
LAY-5
  6
CONTINUOUS
 62
     2
100
AcDbLine
 10
154.8
 20
274.9
 30
0.0
 11
154.8
 21
272.9
 31
0.0
  0
LINE
  5
D7
100
AcDbEntity
  8
LAY-5
  6
CONTINUOUS
 62
     2
100
AcDbLine
 10
158.8
 20
274.9
 30
0.0
 11
158.8
 21
272.9
 31
0.0
  0
LINE
  5
D8
100
AcDbEntity
  8
0
  6
CONTINUOUS
 62
     7
100
AcDbLine
 10
36.0
 20
17.0
 30
0.0
 11
400.0
 21
17.0
 31
0.0
  0
LINE
  5
D9
100
AcDbEntity
  8
0
  6
CONTINUOUS
 62
     7
100
AcDbLine
 10
400.0
 20
17.0
 30
0.0
 11
400.0
 21
577.0
 31
0.0
  0
LINE
  5
DA
100
AcDbEntity
  8
0
  6
CONTINUOUS
 62
     7
100
AcDbLine
 10
36.0
 20
17.0
 30
0.0
 11
36.0
 21
577.0
 31
0.0
  0
LINE
  5
DB
100
AcDbEntity
  8
0
  6
CONTINUOUS
 62
     7
100
AcDbLine
 10
36.0
 20
577.0
 30
0.0
 11
400.0
 21
577.0
 31
0.0
  0
LINE
  5
DC
100
AcDbEntity
  8
0
  6
CONTINUOUS
 62
     7
100
AcDbLine
 10
36.0
 20
61.0
 30
0.0
 11
400.0
 21
61.0
 31
0.0
  0
LINE
  5
DD
100
AcDbEntity
  8
0
  6
CONTINUOUS
 62
     6
100
AcDbLine
 10
176.0
 20
565.0
 30
0.0
 11
400.0
 21
565.0
 31
0.0
  0
LINE
  5
DE
100
AcDbEntity
  8
0
  6
CONTINUOUS
 62
     6
100
AcDbLine
 10
400.0
 20
37.0
 30
0.0
 11
150.0
 21
37.0
 31
0.0
  0
LINE
  5
DF
100
AcDbEntity
  8
0
  6
CONTINUOUS
 62
     6
100
AcDbLine
 10
372.0
 20
61.0
 30
0.0
 11
372.0
 21
37.0
 31
0.0
  0
LINE
  5
E0
100
AcDbEntity
  8
0
  6
CONTINUOUS
 62
     6
100
AcDbLine
 10
362.0
 20
61.0
 30
0.0
 11
362.0
 21
37.0
 31
0.0
  0
LINE
  5
E1
100
AcDbEntity
  8
0
  6
CONTINUOUS
 62
     6
100
AcDbLine
 10
288.0
 20
61.0
 30
0.0
 11
288.0
 21
17.0
 31
0.0
  0
LINE
  5
E2
100
AcDbEntity
  8
0
  6
CONTINUOUS
 62
     6
100
AcDbLine
 10
278.0
 20
61.0
 30
0.0
 11
278.0
 21
17.0
 31
0.0
  0
LINE
  5
E3
100
AcDbEntity
  8
0
  6
CONTINUOUS
 62
     6
100
AcDbLine
 10
160.0
 20
61.0
 30
0.0
 11
160.0
 21
37.0
 31
0.0
  0
LINE
  5
E4
100
AcDbEntity
  8
0
  6
CONTINUOUS
 62
     6
100
AcDbLine
 10
150.0
 20
61.0
 30
0.0
 11
150.0
 21
17.0
 31
0.0
  0
LINE
  5
E5
100
AcDbEntity
  8
0
  6
CONTINUOUS
 62
     6
100
AcDbLine
 10
124.0
 20
61.0
 30
0.0
 11
124.0
 21
17.0
 31
0.0
  0
LINE
  5
E6
100
AcDbEntity
  8
0
  6
CONTINUOUS
 62
     6
100
AcDbLine
 10
98.0
 20
61.0
 30
0.0
 11
98.0
 21
17.0
 31
0.0
  0
LINE
  5
E7
100
AcDbEntity
  8
0
  6
CONTINUOUS
 62
     6
100
AcDbLine
 10
67.0
 20
61.0
 30
0.0
 11
67.0
 21
17.0
 31
0.0
  0
LINE
  5
E8
100
AcDbEntity
  8
0
  6
CONTINUOUS
 62
     6
100
AcDbLine
 10
36.0
 20
51.0
 30
0.0
 11
150.0
 21
51.0
 31
0.0
  0
LINE
  5
E9
100
AcDbEntity
  8
0
  6
CONTINUOUS
 62
     6
100
AcDbLine
 10
378.530823
 20
41.600586
 30
0.0
 11
393.998779
 21
57.339966
 31
0.0
  0
LINE
  5
EA
100
AcDbEntity
  8
0
  6
EXLTYPE2
 62
     6
100
AcDbLine
 10
36.0
 20
27.0
 30
0.0
 11
98.0
 21
27.0
 31
0.0
  0
CIRCLE
  5
EB
100
AcDbEntity
  8
0
  6
CONTINUOUS
 62
     6
100
AcDbCircle
 10
46.0
 20
22.0
 30
0.0
 40
0.2
  0
CIRCLE
  5
EC
100
AcDbEntity
  8
0
  6
CONTINUOUS
 62
     6
100
AcDbCircle
 10
56.0
 20
22.0
 30
0.0
 40
0.2
  0
CIRCLE
  5
ED
100
AcDbEntity
  8
0
  6
CONTINUOUS
 62
     6
100
AcDbCircle
 10
77.0
 20
22.0
 30
0.0
 40
0.2
  0
CIRCLE
  5
EE
100
AcDbEntity
  8
0
  6
CONTINUOUS
 62
     6
100
AcDbCircle
 10
87.0
 20
22.0
 30
0.0
 40
0.2
  0
LINE
  5
EF
100
AcDbEntity
  8
0
  6
CONTINUOUS
 62
     6
100
AcDbLine
 10
176.0
 20
540.0
 30
0.0
 11
400.0
 21
540.0
 31
0.0
  0
LINE
  5
F0
100
AcDbEntity
  8
0
  6
CONTINUOUS
 62
     6
100
AcDbLine
 10
176.0
 20
527.5
 30
0.0
 11
400.0
 21
527.5
 31
0.0
  0
LINE
  5
F1
100
AcDbEntity
  8
0
  6
CONTINUOUS
 62
     6
100
AcDbLine
 10
176.0
 20
552.5
 30
0.0
 11
400.0
 21
552.5
 31
0.0
  0
LINE
  5
F2
100
AcDbEntity
  8
0
  6
CONTINUOUS
 62
     6
100
AcDbLine
 10
176.0
 20
577.0
 30
0.0
 11
176.0
 21
515.0
 31
0.0
  0
LINE
  5
F3
100
AcDbEntity
  8
0
  6
CONTINUOUS
 62
     6
100
AcDbLine
 10
198.0
 20
577.0
 30
0.0
 11
198.0
 21
515.0
 31
0.0
  0
LINE
  5
F4
100
AcDbEntity
  8
0
  6
CONTINUOUS
 62
     6
100
AcDbLine
 10
258.0
 20
577.0
 30
0.0
 11
258.0
 21
515.0
 31
0.0
  0
LINE
  5
F5
100
AcDbEntity
  8
0
  6
CONTINUOUS
 62
     6
100
AcDbLine
 10
318.0
 20
577.0
 30
0.0
 11
318.0
 21
515.0
 31
0.0
  0
LINE
  5
F6
100
AcDbEntity
  8
0
  6
CONTINUOUS
 62
     6
100
AcDbLine
 10
340.0
 20
577.0
 30
0.0
 11
340.0
 21
515.0
 31
0.0
  0
TEXT
  5
F7
100
AcDbEntity
  8
0
  6
CONTINUOUS
 62
     2
100
AcDbText
 10
177.3
 20
565.75
 30
0.0
 40
10.5
  1
番号
 41
0.776
  7
EXCADSTD
 72
     5
 11
195.08204
 21
565.75
 31
0.0
100
AcDbText
  0
TEXT
  5
F8
100
AcDbEntity
  8
0
  6
CONTINUOUS
 62
     2
100
AcDbText
 10
319.3
 20
565.75
 30
0.0
 40
10.5
  1
個数
 41
0.776
  7
EXCADSTD
 72
     5
 11
337.08204
 21
565.75
 31
0.0
100
AcDbText
  0
TEXT
  5
F9
100
AcDbEntity
  8
0
  6
CONTINUOUS
 62
     2
100
AcDbText
 10
210.0
 20
565.75
 30
0.0
 40
10.5
  1
品名
 41
1.44
  7
EXCADSTD
 72
     5
 11
242.9976
 21
565.75
 31
0.0
100
AcDbText
  0
TEXT
  5
FA
100
AcDbEntity
  8
0
  6
CONTINUOUS
 62
     2
100
AcDbText
 10
270.0
 20
565.75
 30
0.0
 40
10.5
  1
材質
 41
1.44
  7
EXCADSTD
 72
     5
 11
302.9976
 21
565.75
 31
0.0
100
AcDbText
  0
TEXT
  5
FB
100
AcDbEntity
  8
0
  6
CONTINUOUS
 62
     2
100
AcDbText
 10
352.0
 20
565.75
 30
0.0
 40
10.5
  1
備考
 41
1.44
  7
EXCADSTD
 72
     5
 11
384.9976
 21
565.75
 31
0.0
100
AcDbText
  0
TEXT
  5
FC
100
AcDbEntity
  8
0
  6
CONTINUOUS
 62
     2
100
AcDbText
 10
182.0
 20
553.75
 30
0.0
 40
10.0
  1
１
 41
0.84
  7
EXCADSTD
 72
     5
 11
190.0
 21
553.75
 31
0.0
100
AcDbText
  0
TEXT
  5
FD
100
AcDbEntity
  8
0
  6
CONTINUOUS
 62
     2
100
AcDbText
 10
182.0
 20
541.25
 30
0.0
 40
10.0
  1
２
 41
0.84
  7
EXCADSTD
 72
     5
 11
190.0
 21
541.25
 31
0.0
100
AcDbText
  0
TEXT
  5
FE
100
AcDbEntity
  8
0
  6
CONTINUOUS
 62
     2
100
AcDbText
 10
182.0
 20
528.75
 30
0.0
 40
10.0
  1
３
 41
0.84
  7
EXCADSTD
 72
     5
 11
190.0
 21
528.75
 31
0.0
100
AcDbText
  0
TEXT
  5
FF
100
AcDbEntity
  8
0
  6
CONTINUOUS
 62
     2
100
AcDbText
 10
198.0
 20
553.5
 30
0.0
 40
10.5
  1
ブラケット
 41
0.6976
  7
EXCADSTD
 72
     5
 11
241.6
 21
553.5
 31
0.0
100
AcDbText
  0
TEXT
  5
100
100
AcDbEntity
  8
0
  6
CONTINUOUS
 62
     2
100
AcDbText
 10
198.0
 20
541.0
 30
0.0
 40
10.5
  1
リング
 41
0.714667
  7
EXCADSTD
 72
     5
 11
224.8
 21
541.0
 31
0.0
100
AcDbText
  0
TEXT
  5
101
100
AcDbEntity
  8
0
  6
CONTINUOUS
 62
     2
100
AcDbText
 10
258.0
 20
541.0
 30
0.0
 40
10.5
  1
ステンレス
 41
0.6976
  7
EXCADSTD
 72
     5
 11
301.6
 21
541.0
 31
0.0
100
AcDbText
  0
TEXT
  5
102
100
AcDbEntity
  8
0
  6
CONTINUOUS
 62
     2
100
AcDbText
 10
324.25
 20
553.9
 30
0.0
 40
9.7
  1
１
 41
0.82268
  7
EXCADSTD
 72
     5
 11
331.85
 21
553.9
 31
0.0
100
AcDbText
  0
TEXT
  5
103
100
AcDbEntity
  8
0
  6
CONTINUOUS
 62
     2
100
AcDbText
 10
324.25
 20
541.4
 30
0.0
 40
9.7
  1
１
 41
0.82268
  7
EXCADSTD
 72
     5
 11
331.85
 21
541.4
 31
0.0
100
AcDbText
  0
TEXT
  5
104
100
AcDbEntity
  8
0
  6
CONTINUOUS
 62
     2
100
AcDbText
 10
40.5
 20
51.5
 30
0.0
 40
9.0
  1
製図
 41
1.026667
  7
EXCADSTD
 72
     5
 11
60.6652
 21
51.5
 31
0.0
100
AcDbText
  0
TEXT
  5
105
100
AcDbEntity
  8
0
  6
CONTINUOUS
 62
     2
100
AcDbText
 10
71.5
 20
51.5
 30
0.0
 40
9.0
  1
写図
 41
1.026667
  7
EXCADSTD
 72
     5
 11
91.6652
 21
51.5
 31
0.0
100
AcDbText
  0
TEXT
  5
106
100
AcDbEntity
  8
0
  6
CONTINUOUS
 62
     2
100
AcDbText
 10
101.0
 20
51.5
 30
0.0
 40
9.0
  1
検図
 41
0.933333
  7
EXCADSTD
 72
     5
 11
119.332
 21
51.5
 31
0.0
100
AcDbText
  0
TEXT
  5
107
100
AcDbEntity
  8
0
  6
CONTINUOUS
 62
     2
100
AcDbText
 10
127.0
 20
51.5
 30
0.0
 40
9.0
  1
承認
 41
0.933333
  7
EXCADSTD
 72
     5
 11
145.332
 21
51.5
 31
0.0
100
AcDbText
  0
TEXT
  5
108
100
AcDbEntity
  8
0
  6
CONTINUOUS
 62
     2
100
AcDbText
 10
155.0
 20
59.0
 30
0.0
 40
9.0
  1
品名
  7
EXCADVERT
 72
     3
 11
155.0
 21
39.0
 31
0.0
100
AcDbText
  0
TEXT
  5
109
100
AcDbEntity
  8
0
  6
CONTINUOUS
 62
     2
100
AcDbText
 10
283.0
 20
59.0
 30
0.0
 40
9.0
  1
品番
  7
EXCADVERT
 72
     3
 11
283.0
 21
39.0
 31
0.0
100
AcDbText
  0
TEXT
  5
10A
100
AcDbEntity
  8
0
  6
CONTINUOUS
 62
     2
100
AcDbText
 10
367.0
 20
59.0
 30
0.0
 40
9.0
  1
尺度
  7
EXCADVERT
 72
     3
 11
367.0
 21
39.0
 31
0.0
100
AcDbText
  0
TEXT
  5
10B
100
AcDbEntity
  8
0
  6
CONTINUOUS
 62
     2
100
AcDbText
 10
283.0
 20
36.0
 30
0.0
 40
9.0
  1
図番
  7
EXCADVERT
 72
     3
 11
283.0
 21
18.0
 31
0.0
100
AcDbText
  0
TEXT
  5
10C
100
AcDbEntity
  8
0
  6
CONTINUOUS
 62
     2
100
AcDbText
 10
392.6
 20
48.1
 30
0.0
 40
7.0
  1
２
 41
0.785714
  7
EXCADVERT
 72
     3
 11
392.6
 21
41.1
 31
0.0
100
AcDbText
  0
TEXT
  5
10D
100
AcDbEntity
  8
0
  6
CONTINUOUS
 62
     2
100
AcDbText
 10
379.4
 20
57.3
 30
0.0
 40
7.0
  1
１
 41
0.785714
  7
EXCADVERT
 72
     3
 11
379.4
 21
50.3
 31
0.0
100
AcDbText
  0
TEXT
  5
10E
100
AcDbEntity
  8
0
  6
CONTINUOUS
 62
     2
100
AcDbText
 10
169.0
 20
42.1
 30
0.0
 40
13.0
  1
タオルリング
 41
1.076923
  7
EXCADSTD
 72
     5
 11
269.0
 21
42.1
 31
0.0
100
AcDbText
  0
TEXT
  5
10F
100
AcDbEntity
  8
0
  6
CONTINUOUS
 62
     2
100
AcDbText
 10
289.6
 20
42.5
 30
0.0
 40
13.0
  1
ＮＡ１１５Ｓ
 41
0.784
  7
EXCADSTD
 72
     5
 11
362.400001
 21
42.5
 31
0.0
100
AcDbText
  0
LINE
  5
110
100
AcDbEntity
  8
0
  6
EXLTYPE2
 62
     6
100
AcDbLine
 10
1.4
 20
292.5
 30
0.0
 11
36.0
 21
292.5
 31
0.0
  0
LINE
  5
111
100
AcDbEntity
  8
0
  6
CONTINUOUS
 62
     6
100
AcDbLine
 10
176.0
 20
515.0
 30
0.0
 11
400.0
 21
515.0
 31
0.0
  0
TEXT
  5
112
100
AcDbEntity
  8
0
  6
CONTINUOUS
 62
     2
100
AcDbText
 10
182.0
 20
516.25
 30
0.0
 40
10.0
  1
４
 41
0.84
  7
EXCADSTD
 72
     5
 11
190.0
 21
516.25
 31
0.0
100
AcDbText
  0
TEXT
  5
113
100
AcDbEntity
  8
0
  6
CONTINUOUS
 62
     2
100
AcDbText
 10
198.0
 20
528.5
 30
0.0
 40
10.5
  1
タッピンねじ
 41
0.693333
  7
EXCADSTD
 72
     5
 11
250.0
 21
528.5
 31
0.0
100
AcDbText
  0
TEXT
  5
114
100
AcDbEntity
  8
0
  6
CONTINUOUS
 62
     2
100
AcDbText
 10
258.0
 20
528.5
 30
0.0
 40
10.5
  1
ステンレス
 41
0.6976
  7
EXCADSTD
 72
     5
 11
301.6
 21
528.5
 31
0.0
100
AcDbText
  0
TEXT
  5
115
100
AcDbEntity
  8
0
  6
CONTINUOUS
 62
     2
100
AcDbText
 10
324.25
 20
528.9
 30
0.0
 40
9.7
  1
２
 41
0.82268
  7
EXCADSTD
 72
     5
 11
331.85
 21
528.9
 31
0.0
100
AcDbText
  0
TEXT
  5
116
100
AcDbEntity
  8
0
  6
CONTINUOUS
 62
     2
100
AcDbText
 10
198.0
 20
516.0
 30
0.0
 40
10.5
  1
止めねじ
 41
0.704
  7
EXCADSTD
 72
     5
 11
233.2
 21
516.0
 31
0.0
100
AcDbText
  0
TEXT
  5
117
100
AcDbEntity
  8
0
  6
CONTINUOUS
 62
     2
100
AcDbText
 10
258.0
 20
516.0
 30
0.0
 40
10.5
  1
ステンレス
 41
0.6976
  7
EXCADSTD
 72
     5
 11
301.6
 21
516.0
 31
0.0
100
AcDbText
  0
TEXT
  5
118
100
AcDbEntity
  8
0
  6
CONTINUOUS
 62
     2
100
AcDbText
 10
324.25
 20
516.4
 30
0.0
 40
9.7
  1
１
 41
0.82268
  7
EXCADSTD
 72
     5
 11
331.85
 21
516.4
 31
0.0
100
AcDbText
  0
LINE
  5
119
100
AcDbEntity
  8
0
  6
CONTINUOUS
 62
     3
100
AcDbLine
 10
166.689551
 20
30.257599
 30
0.0
 11
165.076819
 21
30.257599
 31
0.0
  0
LINE
  5
11A
100
AcDbEntity
  8
0
  6
CONTINUOUS
 62
     3
100
AcDbLine
 10
166.689551
 20
31.870392
 30
0.0
 11
166.689551
 21
30.257599
 31
0.0
  0
LINE
  5
11B
100
AcDbEntity
  8
0
  6
CONTINUOUS
 62
     3
100
AcDbLine
 10
165.076819
 20
31.870392
 30
0.0
 11
166.689551
 21
31.870392
 31
0.0
  0
LINE
  5
11C
100
AcDbEntity
  8
0
  6
CONTINUOUS
 62
     3
100
AcDbLine
 10
165.076819
 20
31.870392
 30
0.0
 11
165.076819
 21
30.257599
 31
0.0
  0
LINE
  5
11D
100
AcDbEntity
  8
0
  6
CONTINUOUS
 62
     3
100
AcDbLine
 10
164.471838
 20
30.257599
 30
0.0
 11
162.859106
 21
30.257599
 31
0.0
  0
LINE
  5
11E
100
AcDbEntity
  8
0
  6
CONTINUOUS
 62
     3
100
AcDbLine
 10
164.471838
 20
31.870392
 30
0.0
 11
164.471838
 21
30.257599
 31
0.0
  0
LINE
  5
11F
100
AcDbEntity
  8
0
  6
CONTINUOUS
 62
     3
100
AcDbLine
 10
162.859106
 20
31.870392
 30
0.0
 11
164.471838
 21
31.870392
 31
0.0
  0
LINE
  5
120
100
AcDbEntity
  8
0
  6
CONTINUOUS
 62
     3
100
AcDbLine
 10
162.859106
 20
31.870392
 30
0.0
 11
162.859106
 21
30.257599
 31
0.0
  0
LINE
  5
121
100
AcDbEntity
  8
0
  6
CONTINUOUS
 62
     3
100
AcDbLine
 10
161.177466
 20
23.0
 30
0.0
 11
155.4
 21
23.0
 31
0.0
  0
ARC
  5
122
100
AcDbEntity
  8
0
  6
CONTINUOUS
 62
     3
100
AcDbCircle
 10
161.177466
 20
26.628815
 30
0.0
 40
3.628799
100
AcDbArc
 50
270.000031
 51
334.000137
  0
LINE
  5
123
100
AcDbEntity
  8
0
  6
CONTINUOUS
 62
     3
100
AcDbLine
 10
166.689551
 20
29.652802
 30
0.0
 11
164.438605
 21
25.038025
 31
0.0
  0
LINE
  5
124
100
AcDbEntity
  8
0
  6
CONTINUOUS
 62
     3
100
AcDbLine
 10
164.222449
 20
29.652802
 30
0.0
 11
166.689551
 21
29.652802
 31
0.0
  0
LINE
  5
125
100
AcDbEntity
  8
0
  6
CONTINUOUS
 62
     3
100
AcDbLine
 10
162.402594
 20
25.921814
 30
0.0
 11
164.222449
 21
29.652802
 31
0.0
  0
ARC
  5
126
100
AcDbEntity
  8
0
  6
CONTINUOUS
 62
     3
100
AcDbCircle
 10
160.953101
 20
26.628815
 30
0.0
 40
1.6128
100
AcDbArc
 50
270.000031
 51
333.99855
  0
LINE
  5
127
100
AcDbEntity
  8
0
  6
CONTINUOUS
 62
     3
100
AcDbLine
 10
155.4
 20
25.015991
 30
0.0
 11
160.953101
 21
25.015991
 31
0.0
  0
LINE
  5
128
100
AcDbEntity
  8
0
  6
CONTINUOUS
 62
     3
100
AcDbLine
 10
155.4
 20
25.015991
 30
0.0
 11
155.4
 21
23.0
 31
0.0
  0
LINE
  5
129
100
AcDbEntity
  8
0
  6
CONTINUOUS
 62
     3
100
AcDbLine
 10
161.044989
 20
27.63678
 30
0.0
 11
155.4
 21
27.63678
 31
0.0
  0
LINE
  5
12A
100
AcDbEntity
  8
0
  6
CONTINUOUS
 62
     3
100
AcDbLine
 10
161.044989
 20
29.451202
 30
0.0
 11
161.044989
 21
27.63678
 31
0.0
  0
LINE
  5
12B
100
AcDbEntity
  8
0
  6
CONTINUOUS
 62
     3
100
AcDbLine
 10
155.4
 20
29.451202
 30
0.0
 11
161.044989
 21
29.451202
 31
0.0
  0
LINE
  5
12C
100
AcDbEntity
  8
0
  6
CONTINUOUS
 62
     3
100
AcDbLine
 10
155.4
 20
29.451202
 30
0.0
 11
155.4
 21
27.63678
 31
0.0
  0
LINE
  5
12D
100
AcDbEntity
  8
0
  6
CONTINUOUS
 62
     3
100
AcDbLine
 10
161.044989
 20
30.056
 30
0.0
 11
155.4
 21
30.056
 31
0.0
  0
LINE
  5
12E
100
AcDbEntity
  8
0
  6
CONTINUOUS
 62
     3
100
AcDbLine
 10
161.044989
 20
31.870392
 30
0.0
 11
161.044989
 21
30.056
 31
0.0
  0
LINE
  5
12F
100
AcDbEntity
  8
0
  6
CONTINUOUS
 62
     3
100
AcDbLine
 10
155.4
 20
31.870392
 30
0.0
 11
161.044989
 21
31.870392
 31
0.0
  0
LINE
  5
130
100
AcDbEntity
  8
0
  6
CONTINUOUS
 62
     3
100
AcDbLine
 10
155.4
 20
31.870392
 30
0.0
 11
155.4
 21
30.056
 31
0.0
  0
LINE
  5
131
100
AcDbEntity
  8
0
  6
CONTINUOUS
 62
     3
100
AcDbLine
 10
167.294531
 20
29.652802
 30
0.0
 11
167.294531
 21
28.241577
 31
0.0
  0
LINE
  5
132
100
AcDbEntity
  8
0
  6
CONTINUOUS
 62
     3
100
AcDbLine
 10
167.294531
 20
29.652802
 30
0.0
 11
169.130804
 21
29.652802
 31
0.0
  0
LINE
  5
133
100
AcDbEntity
  8
0
  6
CONTINUOUS
 62
     3
100
AcDbLine
 10
168.907263
 20
31.063995
 30
0.0
 11
169.130804
 21
29.652802
 31
0.0
  0
LINE
  5
134
100
AcDbEntity
  8
0
  6
CONTINUOUS
 62
     3
100
AcDbLine
 10
168.907263
 20
31.063995
 30
0.0
 11
171.152472
 21
31.063995
 31
0.0
  0
LINE
  5
135
100
AcDbEntity
  8
0
  6
CONTINUOUS
 62
     3
100
AcDbLine
 10
171.152472
 20
31.063995
 30
0.0
 11
171.375983
 21
29.652802
 31
0.0
  0
LINE
  5
136
100
AcDbEntity
  8
0
  6
CONTINUOUS
 62
     3
100
AcDbLine
 10
171.375983
 20
29.652802
 30
0.0
 11
176.97135
 21
29.652802
 31
0.0
  0
LINE
  5
137
100
AcDbEntity
  8
0
  6
CONTINUOUS
 62
     3
100
AcDbLine
 10
176.97135
 20
29.652802
 30
0.0
 11
175.794623
 21
27.010101
 31
0.0
  0
ARC
  5
138
100
AcDbEntity
  8
0
  6
CONTINUOUS
 62
     3
100
AcDbCircle
 10
173.032202
 20
28.240082
 30
0.0
 40
3.024021
100
AcDbArc
 50
263.465775
 51
335.998779
  0
LINE
  5
139
100
AcDbEntity
  8
0
  6
CONTINUOUS
 62
     3
100
AcDbLine
 10
172.687689
 20
25.235718
 30
0.0
 11
172.467413
 21
26.628815
 31
0.0
  0
ARC
  5
13A
100
AcDbEntity
  8
0
  6
CONTINUOUS
 62
     3
100
AcDbCircle
 10
172.411627
 20
27.838409
 30
0.0
 40
1.209601
100
AcDbArc
 50
272.623749
 51
336.006531
  0
LINE
  5
13B
100
AcDbEntity
  8
0
  6
CONTINUOUS
 62
     3
100
AcDbLine
 10
173.517004
 20
27.346405
 30
0.0
 11
173.915259
 21
28.241577
 31
0.0
  0
LINE
  5
13C
100
AcDbEntity
  8
0
  6
CONTINUOUS
 62
     3
100
AcDbLine
 10
173.915259
 20
28.241577
 30
0.0
 11
171.599524
 21
28.241577
 31
0.0
  0
LINE
  5
13D
100
AcDbEntity
  8
0
  6
CONTINUOUS
 62
     3
100
AcDbLine
 10
171.599524
 20
28.241577
 30
0.0
 11
172.429694
 21
23.0
 31
0.0
  0
LINE
  5
13E
100
AcDbEntity
  8
0
  6
CONTINUOUS
 62
     3
100
AcDbLine
 10
172.429694
 20
23.0
 30
0.0
 11
170.184485
 21
23.0
 31
0.0
  0
LINE
  5
13F
100
AcDbEntity
  8
0
  6
CONTINUOUS
 62
     3
100
AcDbLine
 10
170.184485
 20
23.0
 30
0.0
 11
169.354346
 21
28.241577
 31
0.0
  0
LINE
  5
140
100
AcDbEntity
  8
0
  6
CONTINUOUS
 62
     3
100
AcDbLine
 10
169.354346
 20
28.241577
 30
0.0
 11
167.294531
 21
28.241577
 31
0.0
  0
LINE
  5
141
100
AcDbEntity
  8
0
  6
CONTINUOUS
 62
     3
100
AcDbLine
 10
176.769537
 20
23.0
 30
0.0
 11
176.769537
 21
25.015991
 31
0.0
  0
LINE
  5
142
100
AcDbEntity
  8
0
  6
CONTINUOUS
 62
     3
100
AcDbLine
 10
176.769537
 20
25.015991
 30
0.0
 11
188.059088
 21
25.015991
 31
0.0
  0
LINE
  5
143
100
AcDbEntity
  8
0
  6
CONTINUOUS
 62
     3
100
AcDbLine
 10
188.059088
 20
25.015991
 30
0.0
 11
188.059088
 21
23.0
 31
0.0
  0
LINE
  5
144
100
AcDbEntity
  8
0
  6
CONTINUOUS
 62
     3
100
AcDbLine
 10
188.059088
 20
23.0
 30
0.0
 11
176.769537
 21
23.0
 31
0.0
  0
LINE
  5
145
100
AcDbEntity
  8
0
  6
CONTINUOUS
 62
     3
100
AcDbLine
 10
177.575903
 20
31.870392
 30
0.0
 11
177.575903
 21
29.854401
 31
0.0
  0
LINE
  5
146
100
AcDbEntity
  8
0
  6
CONTINUOUS
 62
     3
100
AcDbLine
 10
177.575903
 20
31.870392
 30
0.0
 11
187.252722
 21
31.870392
 31
0.0
  0
LINE
  5
147
100
AcDbEntity
  8
0
  6
CONTINUOUS
 62
     3
100
AcDbLine
 10
187.252722
 20
31.870392
 30
0.0
 11
187.252722
 21
29.854401
 31
0.0
  0
LINE
  5
148
100
AcDbEntity
  8
0
  6
CONTINUOUS
 62
     3
100
AcDbLine
 10
187.252722
 20
29.854401
 30
0.0
 11
177.575903
 21
29.854401
 31
0.0
  0
LINE
  5
149
100
AcDbEntity
  8
0
  6
CONTINUOUS
 62
     3
100
AcDbLine
 10
189.470435
 20
31.870392
 30
0.0
 11
189.470435
 21
29.854401
 31
0.0
  0
LINE
  5
14A
100
AcDbEntity
  8
0
  6
CONTINUOUS
 62
     3
100
AcDbLine
 10
189.470435
 20
31.870392
 30
0.0
 11
199.953619
 21
31.870392
 31
0.0
  0
LINE
  5
14B
100
AcDbEntity
  8
0
  6
CONTINUOUS
 62
     3
100
AcDbLine
 10
199.953619
 20
31.870392
 30
0.0
 11
196.810187
 21
27.543793
 31
0.0
  0
LINE
  5
14C
100
AcDbEntity
  8
0
  6
CONTINUOUS
 62
     3
100
AcDbLine
 10
196.810187
 20
27.543793
 30
0.0
 11
200.759985
 21
23.0
 31
0.0
  0
LINE
  5
14D
100
AcDbEntity
  8
0
  6
CONTINUOUS
 62
     3
100
AcDbLine
 10
200.759985
 20
23.0
 30
0.0
 11
197.821631
 21
23.0
 31
0.0
  0
LINE
  5
14E
100
AcDbEntity
  8
0
  6
CONTINUOUS
 62
     3
100
AcDbLine
 10
197.821631
 20
23.0
 30
0.0
 11
195.472266
 21
25.702545
 31
0.0
  0
LINE
  5
14F
100
AcDbEntity
  8
0
  6
CONTINUOUS
 62
     3
100
AcDbLine
 10
195.472266
 20
25.702545
 30
0.0
 11
194.59577
 21
24.49585
 31
0.0
  0
ARC
  5
150
100
AcDbEntity
  8
0
  6
CONTINUOUS
 62
     3
100
AcDbCircle
 10
191.659857
 20
26.628815
 30
0.0
 40
3.628799
100
AcDbArc
 50
270.000031
 51
324.00116
  0
LINE
  5
151
100
AcDbEntity
  8
0
  6
CONTINUOUS
 62
     3
100
AcDbLine
 10
191.659857
 20
23.0
 30
0.0
 11
188.664069
 21
23.0
 31
0.0
  0
LINE
  5
152
100
AcDbEntity
  8
0
  6
CONTINUOUS
 62
     3
100
AcDbLine
 10
188.664069
 20
23.0
 30
0.0
 11
188.664069
 21
25.015991
 31
0.0
  0
LINE
  5
153
100
AcDbEntity
  8
0
  6
CONTINUOUS
 62
     3
100
AcDbLine
 10
188.664069
 20
25.015991
 30
0.0
 11
191.20542
 21
25.015991
 31
0.0
  0
ARC
  5
154
100
AcDbEntity
  8
0
  6
CONTINUOUS
 62
     3
100
AcDbCircle
 10
191.20542
 20
27.031982
 30
0.0
 40
2.015999
100
AcDbArc
 50
270.000031
 51
323.996597
  0
LINE
  5
155
100
AcDbEntity
  8
0
  6
CONTINUOUS
 62
     3
100
AcDbLine
 10
192.836188
 20
25.847015
 30
0.0
 11
195.7479
 21
29.854401
 31
0.0
  0
LINE
  5
156
100
AcDbEntity
  8
0
  6
CONTINUOUS
 62
     3
100
AcDbLine
 10
195.7479
 20
29.854401
 30
0.0
 11
189.470435
 21
29.854401
 31
0.0
  0
LINE
  5
157
100
AcDbEntity
  8
0
  6
CONTINUOUS
 62
     3
100
AcDbLine
 10
203.179114
 20
31.870392
 30
0.0
 11
203.179114
 21
30.459198
 31
0.0
  0
LINE
  5
158
100
AcDbEntity
  8
0
  6
CONTINUOUS
 62
     3
100
AcDbLine
 10
203.179114
 20
31.870392
 30
0.0
 11
213.662268
 21
31.870392
 31
0.0
  0
LINE
  5
159
100
AcDbEntity
  8
0
  6
CONTINUOUS
 62
     3
100
AcDbLine
 10
213.662268
 20
31.870392
 30
0.0
 11
213.662268
 21
30.459198
 31
0.0
  0
LINE
  5
15A
100
AcDbEntity
  8
0
  6
CONTINUOUS
 62
     3
100
AcDbLine
 10
213.662268
 20
30.459198
 30
0.0
 11
209.529547
 21
30.459198
 31
0.0
  0
LINE
  5
15B
100
AcDbEntity
  8
0
  6
CONTINUOUS
 62
     3
100
AcDbLine
 10
209.529547
 20
30.459198
 30
0.0
 11
209.529547
 21
24.612823
 31
0.0
  0
LINE
  5
15C
100
AcDbEntity
  8
0
  6
CONTINUOUS
 62
     3
100
AcDbLine
 10
209.529547
 20
24.612823
 30
0.0
 11
214.065466
 21
24.612823
 31
0.0
  0
LINE
  5
15D
100
AcDbEntity
  8
0
  6
CONTINUOUS
 62
     3
100
AcDbLine
 10
214.065466
 20
24.612823
 30
0.0
 11
214.065466
 21
23.0
 31
0.0
  0
LINE
  5
15E
100
AcDbEntity
  8
0
  6
CONTINUOUS
 62
     3
100
AcDbLine
 10
214.065466
 20
23.0
 30
0.0
 11
202.775916
 21
23.0
 31
0.0
  0
LINE
  5
15F
100
AcDbEntity
  8
0
  6
CONTINUOUS
 62
     3
100
AcDbLine
 10
202.775916
 20
23.0
 30
0.0
 11
202.775916
 21
24.612823
 31
0.0
  0
LINE
  5
160
100
AcDbEntity
  8
0
  6
CONTINUOUS
 62
     3
100
AcDbLine
 10
202.775916
 20
24.612823
 30
0.0
 11
207.311835
 21
24.612823
 31
0.0
  0
LINE
  5
161
100
AcDbEntity
  8
0
  6
CONTINUOUS
 62
     3
100
AcDbLine
 10
207.311835
 20
24.612823
 30
0.0
 11
207.311835
 21
30.459198
 31
0.0
  0
LINE
  5
162
100
AcDbEntity
  8
0
  6
CONTINUOUS
 62
     3
100
AcDbLine
 10
207.311835
 20
30.459198
 30
0.0
 11
203.179114
 21
30.459198
 31
0.0
  0
LINE
  5
163
100
AcDbEntity
  8
0
  6
CONTINUOUS
 62
     3
100
AcDbLine
 10
214.267249
 20
30.660797
 30
0.0
 11
214.267249
 21
29.733429
 31
0.0
  0
LINE
  5
164
100
AcDbEntity
  8
0
  6
CONTINUOUS
 62
     3
100
AcDbLine
 10
214.267249
 20
30.660797
 30
0.0
 11
216.018622
 21
30.660797
 31
0.0
  0
LINE
  5
165
100
AcDbEntity
  8
0
  6
CONTINUOUS
 62
     3
100
AcDbLine
 10
216.018622
 20
30.660797
 30
0.0
 11
215.073645
 21
31.870392
 31
0.0
  0
LINE
  5
166
100
AcDbEntity
  8
0
  6
CONTINUOUS
 62
     3
100
AcDbLine
 10
215.073645
 20
31.870392
 30
0.0
 11
216.864386
 21
31.870392
 31
0.0
  0
LINE
  5
167
100
AcDbEntity
  8
0
  6
CONTINUOUS
 62
     3
100
AcDbLine
 10
216.864386
 20
31.870392
 30
0.0
 11
217.809363
 21
30.660797
 31
0.0
  0
LINE
  5
168
100
AcDbEntity
  8
0
  6
CONTINUOUS
 62
     3
100
AcDbLine
 10
217.809363
 20
30.660797
 30
0.0
 11
218.198615
 21
30.660797
 31
0.0
  0
LINE
  5
169
100
AcDbEntity
  8
0
  6
CONTINUOUS
 62
     3
100
AcDbLine
 10
218.198615
 20
30.660797
 30
0.0
 11
218.198615
 21
31.870392
 31
0.0
  0
LINE
  5
16A
100
AcDbEntity
  8
0
  6
CONTINUOUS
 62
     3
100
AcDbLine
 10
218.198615
 20
31.870392
 30
0.0
 11
219.609534
 21
31.870392
 31
0.0
  0
LINE
  5
16B
100
AcDbEntity
  8
0
  6
CONTINUOUS
 62
     3
100
AcDbLine
 10
219.609534
 20
31.870392
 30
0.0
 11
219.609534
 21
30.660797
 31
0.0
  0
LINE
  5
16C
100
AcDbEntity
  8
0
  6
CONTINUOUS
 62
     3
100
AcDbLine
 10
219.609534
 20
30.660797
 30
0.0
 11
220.214514
 21
30.660797
 31
0.0
  0
LINE
  5
16D
100
AcDbEntity
  8
0
  6
CONTINUOUS
 62
     3
100
AcDbLine
 10
220.214514
 20
30.660797
 30
0.0
 11
220.214514
 21
31.870392
 31
0.0
  0
LINE
  5
16E
100
AcDbEntity
  8
0
  6
CONTINUOUS
 62
     3
100
AcDbLine
 10
220.214514
 20
31.870392
 30
0.0
 11
221.625464
 21
31.870392
 31
0.0
  0
LINE
  5
16F
100
AcDbEntity
  8
0
  6
CONTINUOUS
 62
     3
100
AcDbLine
 10
221.625464
 20
31.870392
 30
0.0
 11
221.625464
 21
30.660797
 31
0.0
  0
LINE
  5
170
100
AcDbEntity
  8
0
  6
CONTINUOUS
 62
     3
100
AcDbLine
 10
221.625464
 20
30.660797
 30
0.0
 11
222.014716
 21
30.660797
 31
0.0
  0
LINE
  5
171
100
AcDbEntity
  8
0
  6
CONTINUOUS
 62
     3
100
AcDbLine
 10
222.014716
 20
30.660797
 30
0.0
 11
222.959692
 21
31.870392
 31
0.0
  0
LINE
  5
172
100
AcDbEntity
  8
0
  6
CONTINUOUS
 62
     3
100
AcDbLine
 10
222.959692
 20
31.870392
 30
0.0
 11
224.750433
 21
31.870392
 31
0.0
  0
LINE
  5
173
100
AcDbEntity
  8
0
  6
CONTINUOUS
 62
     3
100
AcDbLine
 10
224.750433
 20
31.870392
 30
0.0
 11
223.805457
 21
30.660797
 31
0.0
  0
LINE
  5
174
100
AcDbEntity
  8
0
  6
CONTINUOUS
 62
     3
100
AcDbLine
 10
223.805457
 20
30.660797
 30
0.0
 11
225.556799
 21
30.660797
 31
0.0
  0
LINE
  5
175
100
AcDbEntity
  8
0
  6
CONTINUOUS
 62
     3
100
AcDbLine
 10
225.556799
 20
30.660797
 30
0.0
 11
225.556799
 21
29.733429
 31
0.0
  0
LINE
  5
176
100
AcDbEntity
  8
0
  6
CONTINUOUS
 62
     3
100
AcDbLine
 10
225.556799
 20
29.733429
 30
0.0
 11
223.432196
 21
29.733429
 31
0.0
  0
LINE
  5
177
100
AcDbEntity
  8
0
  6
CONTINUOUS
 62
     3
100
AcDbLine
 10
223.432196
 20
29.733429
 30
0.0
 11
223.065527
 21
28.725464
 31
0.0
  0
LINE
  5
178
100
AcDbEntity
  8
0
  6
CONTINUOUS
 62
     3
100
AcDbLine
 10
223.065527
 20
28.725464
 30
0.0
 11
225.556799
 21
28.725464
 31
0.0
  0
LINE
  5
179
100
AcDbEntity
  8
0
  6
CONTINUOUS
 62
     3
100
AcDbLine
 10
225.556799
 20
28.725464
 30
0.0
 11
225.556799
 21
27.798096
 31
0.0
  0
LINE
  5
17A
100
AcDbEntity
  8
0
  6
CONTINUOUS
 62
     3
100
AcDbLine
 10
225.556799
 20
27.798096
 30
0.0
 11
220.919989
 21
27.798096
 31
0.0
  0
LINE
  5
17B
100
AcDbEntity
  8
0
  6
CONTINUOUS
 62
     3
100
AcDbLine
 10
220.919989
 20
27.798096
 30
0.0
 11
220.919989
 21
27.334412
 31
0.0
  0
LINE
  5
17C
100
AcDbEntity
  8
0
  6
CONTINUOUS
 62
     3
100
AcDbLine
 10
220.919989
 20
27.334412
 30
0.0
 11
225.556799
 21
27.334412
 31
0.0
  0
LINE
  5
17D
100
AcDbEntity
  8
0
  6
CONTINUOUS
 62
     3
100
AcDbLine
 10
225.556799
 20
27.334412
 30
0.0
 11
225.556799
 21
26.407043
 31
0.0
  0
LINE
  5
17E
100
AcDbEntity
  8
0
  6
CONTINUOUS
 62
     3
100
AcDbLine
 10
225.556799
 20
26.407043
 30
0.0
 11
220.919989
 21
26.407043
 31
0.0
  0
LINE
  5
17F
100
AcDbEntity
  8
0
  6
CONTINUOUS
 62
     3
100
AcDbLine
 10
220.919989
 20
26.407043
 30
0.0
 11
220.919989
 21
25.943359
 31
0.0
  0
LINE
  5
180
100
AcDbEntity
  8
0
  6
CONTINUOUS
 62
     3
100
AcDbLine
 10
220.919989
 20
25.943359
 30
0.0
 11
225.556799
 21
25.943359
 31
0.0
  0
LINE
  5
181
100
AcDbEntity
  8
0
  6
CONTINUOUS
 62
     3
100
AcDbLine
 10
225.556799
 20
25.943359
 30
0.0
 11
225.556799
 21
25.015991
 31
0.0
  0
LINE
  5
182
100
AcDbEntity
  8
0
  6
CONTINUOUS
 62
     3
100
AcDbLine
 10
225.556799
 20
25.015991
 30
0.0
 11
223.325568
 21
25.015991
 31
0.0
  0
LINE
  5
183
100
AcDbEntity
  8
0
  6
CONTINUOUS
 62
     3
100
AcDbLine
 10
223.325568
 20
25.015991
 30
0.0
 11
225.556799
 21
23.0
 31
0.0
  0
LINE
  5
184
100
AcDbEntity
  8
0
  6
CONTINUOUS
 62
     3
100
AcDbLine
 10
225.556799
 20
23.0
 30
0.0
 11
223.151251
 21
23.0
 31
0.0
  0
LINE
  5
185
100
AcDbEntity
  8
0
  6
CONTINUOUS
 62
     3
100
AcDbLine
 10
223.151251
 20
23.0
 30
0.0
 11
220.919989
 21
25.015991
 31
0.0
  0
LINE
  5
186
100
AcDbEntity
  8
0
  6
CONTINUOUS
 62
     3
100
AcDbLine
 10
220.919989
 20
25.015991
 30
0.0
 11
220.919989
 21
23.0
 31
0.0
  0
LINE
  5
187
100
AcDbEntity
  8
0
  6
CONTINUOUS
 62
     3
100
AcDbLine
 10
220.919989
 20
23.0
 30
0.0
 11
218.904089
 21
23.0
 31
0.0
  0
LINE
  5
188
100
AcDbEntity
  8
0
  6
CONTINUOUS
 62
     3
100
AcDbLine
 10
218.904089
 20
23.0
 30
0.0
 11
218.904089
 21
25.015991
 31
0.0
  0
LINE
  5
189
100
AcDbEntity
  8
0
  6
CONTINUOUS
 62
     3
100
AcDbLine
 10
218.904089
 20
25.015991
 30
0.0
 11
216.672827
 21
23.0
 31
0.0
  0
LINE
  5
18A
100
AcDbEntity
  8
0
  6
CONTINUOUS
 62
     3
100
AcDbLine
 10
216.672827
 20
23.0
 30
0.0
 11
214.267249
 21
23.0
 31
0.0
  0
LINE
  5
18B
100
AcDbEntity
  8
0
  6
CONTINUOUS
 62
     3
100
AcDbLine
 10
214.267249
 20
23.0
 30
0.0
 11
216.498511
 21
25.015991
 31
0.0
  0
LINE
  5
18C
100
AcDbEntity
  8
0
  6
CONTINUOUS
 62
     3
100
AcDbLine
 10
216.498511
 20
25.015991
 30
0.0
 11
214.267249
 21
25.015991
 31
0.0
  0
LINE
  5
18D
100
AcDbEntity
  8
0
  6
CONTINUOUS
 62
     3
100
AcDbLine
 10
214.267249
 20
25.015991
 30
0.0
 11
214.267249
 21
25.943359
 31
0.0
  0
LINE
  5
18E
100
AcDbEntity
  8
0
  6
CONTINUOUS
 62
     3
100
AcDbLine
 10
214.267249
 20
25.943359
 30
0.0
 11
218.904089
 21
25.943359
 31
0.0
  0
LINE
  5
18F
100
AcDbEntity
  8
0
  6
CONTINUOUS
 62
     3
100
AcDbLine
 10
218.904089
 20
25.943359
 30
0.0
 11
218.904089
 21
26.407043
 31
0.0
  0
LINE
  5
190
100
AcDbEntity
  8
0
  6
CONTINUOUS
 62
     3
100
AcDbLine
 10
218.904089
 20
26.407043
 30
0.0
 11
214.267249
 21
26.407043
 31
0.0
  0
LINE
  5
191
100
AcDbEntity
  8
0
  6
CONTINUOUS
 62
     3
100
AcDbLine
 10
214.267249
 20
26.407043
 30
0.0
 11
214.267249
 21
27.334412
 31
0.0
  0
LINE
  5
192
100
AcDbEntity
  8
0
  6
CONTINUOUS
 62
     3
100
AcDbLine
 10
214.267249
 20
27.334412
 30
0.0
 11
218.904089
 21
27.334412
 31
0.0
  0
LINE
  5
193
100
AcDbEntity
  8
0
  6
CONTINUOUS
 62
     3
100
AcDbLine
 10
218.904089
 20
27.334412
 30
0.0
 11
218.904089
 21
27.798096
 31
0.0
  0
LINE
  5
194
100
AcDbEntity
  8
0
  6
CONTINUOUS
 62
     3
100
AcDbLine
 10
218.904089
 20
27.798096
 30
0.0
 11
214.267249
 21
27.798096
 31
0.0
  0
LINE
  5
195
100
AcDbEntity
  8
0
  6
CONTINUOUS
 62
     3
100
AcDbLine
 10
214.267249
 20
27.798096
 30
0.0
 11
214.267249
 21
28.725464
 31
0.0
  0
LINE
  5
196
100
AcDbEntity
  8
0
  6
CONTINUOUS
 62
     3
100
AcDbLine
 10
214.267249
 20
28.725464
 30
0.0
 11
216.758551
 21
28.725464
 31
0.0
  0
LINE
  5
197
100
AcDbEntity
  8
0
  6
CONTINUOUS
 62
     3
100
AcDbLine
 10
216.758551
 20
28.725464
 30
0.0
 11
216.391882
 21
29.733429
 31
0.0
  0
LINE
  5
198
100
AcDbEntity
  8
0
  6
CONTINUOUS
 62
     3
100
AcDbLine
 10
216.391882
 20
29.733429
 30
0.0
 11
214.267249
 21
29.733429
 31
0.0
  0
LINE
  5
199
100
AcDbEntity
  8
0
  6
CONTINUOUS
 62
     3
100
AcDbLine
 10
218.536993
 20
29.733429
 30
0.0
 11
221.287085
 21
29.733429
 31
0.0
  0
LINE
  5
19A
100
AcDbEntity
  8
0
  6
CONTINUOUS
 62
     3
100
AcDbLine
 10
221.287085
 20
29.733429
 30
0.0
 11
220.919989
 21
28.725464
 31
0.0
  0
LINE
  5
19B
100
AcDbEntity
  8
0
  6
CONTINUOUS
 62
     3
100
AcDbLine
 10
220.919989
 20
28.725464
 30
0.0
 11
218.904089
 21
28.725464
 31
0.0
  0
LINE
  5
19C
100
AcDbEntity
  8
0
  6
CONTINUOUS
 62
     3
100
AcDbLine
 10
218.904089
 20
28.725464
 30
0.0
 11
218.536993
 21
29.733429
 31
0.0
  0
LINE
  5
19D
100
AcDbEntity
  8
0
  6
CONTINUOUS
 62
     3
100
AcDbLine
 10
231.051276
 20
31.870392
 30
0.0
 11
230.397894
 21
29.249603
 31
0.0
  0
LINE
  5
19E
100
AcDbEntity
  8
0
  6
CONTINUOUS
 62
     3
100
AcDbLine
 10
231.051276
 20
31.870392
 30
0.0
 11
232.713629
 21
31.870392
 31
0.0
  0
LINE
  5
19F
100
AcDbEntity
  8
0
  6
CONTINUOUS
 62
     3
100
AcDbLine
 10
232.713629
 20
31.870392
 30
0.0
 11
232.462195
 21
30.862396
 31
0.0
  0
LINE
  5
1A0
100
AcDbEntity
  8
0
  6
CONTINUOUS
 62
     3
100
AcDbLine
 10
232.462195
 20
30.862396
 30
0.0
 11
233.116827
 21
30.862396
 31
0.0
  0
LINE
  5
1A1
100
AcDbEntity
  8
0
  6
CONTINUOUS
 62
     3
100
AcDbLine
 10
233.116827
 20
30.862396
 30
0.0
 11
233.116827
 21
31.870392
 31
0.0
  0
LINE
  5
1A2
100
AcDbEntity
  8
0
  6
CONTINUOUS
 62
     3
100
AcDbLine
 10
233.116827
 20
31.870392
 30
0.0
 11
234.931342
 21
31.870392
 31
0.0
  0
LINE
  5
1A3
100
AcDbEntity
  8
0
  6
CONTINUOUS
 62
     3
100
AcDbLine
 10
234.931342
 20
31.870392
 30
0.0
 11
234.931342
 21
30.862396
 31
0.0
  0
LINE
  5
1A4
100
AcDbEntity
  8
0
  6
CONTINUOUS
 62
     3
100
AcDbLine
 10
234.931342
 20
30.862396
 30
0.0
 11
237.249548
 21
30.862396
 31
0.0
  0
LINE
  5
1A5
100
AcDbEntity
  8
0
  6
CONTINUOUS
 62
     3
100
AcDbLine
 10
237.249548
 20
30.862396
 30
0.0
 11
237.249548
 21
29.854401
 31
0.0
  0
LINE
  5
1A6
100
AcDbEntity
  8
0
  6
CONTINUOUS
 62
     3
100
AcDbLine
 10
234.931342
 20
29.854401
 30
0.0
 11
237.249548
 21
29.854401
 31
0.0
  0
LINE
  5
1A7
100
AcDbEntity
  8
0
  6
CONTINUOUS
 62
     3
100
AcDbLine
 10
234.931342
 20
29.854401
 30
0.0
 11
234.931342
 21
28.846405
 31
0.0
  0
LINE
  5
1A8
100
AcDbEntity
  8
0
  6
CONTINUOUS
 62
     3
100
AcDbLine
 10
234.931342
 20
28.846405
 30
0.0
 11
237.451331
 21
28.846405
 31
0.0
  0
LINE
  5
1A9
100
AcDbEntity
  8
0
  6
CONTINUOUS
 62
     3
100
AcDbLine
 10
237.451331
 20
28.846405
 30
0.0
 11
237.451331
 21
27.838409
 31
0.0
  0
LINE
  5
1AA
100
AcDbEntity
  8
0
  6
CONTINUOUS
 62
     3
100
AcDbLine
 10
237.451331
 20
27.838409
 30
0.0
 11
236.570319
 21
27.838409
 31
0.0
  0
LINE
  5
1AB
100
AcDbEntity
  8
0
  6
CONTINUOUS
 62
     3
100
AcDbLine
 10
236.570319
 20
27.838409
 30
0.0
 11
237.451331
 21
23.0
 31
0.0
  0
LINE
  5
1AC
100
AcDbEntity
  8
0
  6
CONTINUOUS
 62
     3
100
AcDbLine
 10
237.451331
 20
23.0
 30
0.0
 11
235.811957
 21
23.0
 31
0.0
  0
LINE
  5
1AD
100
AcDbEntity
  8
0
  6
CONTINUOUS
 62
     3
100
AcDbLine
 10
235.811957
 20
23.0
 30
0.0
 11
234.931342
 21
27.838348
 31
0.0
  0
LINE
  5
1AE
100
AcDbEntity
  8
0
  6
CONTINUOUS
 62
     3
100
AcDbLine
 10
234.931342
 20
27.838348
 30
0.0
 11
234.931342
 21
23.0
 31
0.0
  0
LINE
  5
1AF
100
AcDbEntity
  8
0
  6
CONTINUOUS
 62
     3
100
AcDbLine
 10
234.931342
 20
23.0
 30
0.0
 11
233.116827
 21
23.0
 31
0.0
  0
LINE
  5
1B0
100
AcDbEntity
  8
0
  6
CONTINUOUS
 62
     3
100
AcDbLine
 10
233.116827
 20
23.0
 30
0.0
 11
233.116827
 21
27.838409
 31
0.0
  0
LINE
  5
1B1
100
AcDbEntity
  8
0
  6
CONTINUOUS
 62
     3
100
AcDbLine
 10
233.116827
 20
27.838409
 30
0.0
 11
232.236212
 21
23.0
 31
0.0
  0
LINE
  5
1B2
100
AcDbEntity
  8
0
  6
CONTINUOUS
 62
     3
100
AcDbLine
 10
232.236212
 20
23.0
 30
0.0
 11
230.596808
 21
23.0
 31
0.0
  0
LINE
  5
1B3
100
AcDbEntity
  8
0
  6
CONTINUOUS
 62
     3
100
AcDbLine
 10
230.596808
 20
23.0
 30
0.0
 11
231.477423
 21
27.838409
 31
0.0
  0
LINE
  5
1B4
100
AcDbEntity
  8
0
  6
CONTINUOUS
 62
     3
100
AcDbLine
 10
231.477423
 20
27.838409
 30
0.0
 11
230.596808
 21
27.838409
 31
0.0
  0
LINE
  5
1B5
100
AcDbEntity
  8
0
  6
CONTINUOUS
 62
     3
100
AcDbLine
 10
230.596808
 20
27.838409
 30
0.0
 11
230.596808
 21
28.846405
 31
0.0
  0
LINE
  5
1B6
100
AcDbEntity
  8
0
  6
CONTINUOUS
 62
     3
100
AcDbLine
 10
230.596808
 20
28.846405
 30
0.0
 11
233.116827
 21
28.846405
 31
0.0
  0
LINE
  5
1B7
100
AcDbEntity
  8
0
  6
CONTINUOUS
 62
     3
100
AcDbLine
 10
233.116827
 20
28.846405
 30
0.0
 11
233.116827
 21
29.854401
 31
0.0
  0
LINE
  5
1B8
100
AcDbEntity
  8
0
  6
CONTINUOUS
 62
     3
100
AcDbLine
 10
233.116827
 20
29.854401
 30
0.0
 11
232.210791
 21
29.854401
 31
0.0
  0
LINE
  5
1B9
100
AcDbEntity
  8
0
  6
CONTINUOUS
 62
     3
100
AcDbLine
 10
232.210791
 20
29.854401
 30
0.0
 11
232.060248
 21
29.249603
 31
0.0
  0
LINE
  5
1BA
100
AcDbEntity
  8
0
  6
CONTINUOUS
 62
     3
100
AcDbLine
 10
232.060248
 20
29.249603
 30
0.0
 11
230.397894
 21
29.249603
 31
0.0
  0
LINE
  5
1BB
100
AcDbEntity
  8
0
  6
CONTINUOUS
 62
     3
100
AcDbLine
 10
225.959998
 20
30.862396
 30
0.0
 11
225.959998
 21
29.854401
 31
0.0
  0
LINE
  5
1BC
100
AcDbEntity
  8
0
  6
CONTINUOUS
 62
     3
100
AcDbLine
 10
225.959998
 20
30.862396
 30
0.0
 11
227.975928
 21
30.862396
 31
0.0
  0
LINE
  5
1BD
100
AcDbEntity
  8
0
  6
CONTINUOUS
 62
     3
100
AcDbLine
 10
227.975928
 20
30.862396
 30
0.0
 11
227.975928
 21
31.870392
 31
0.0
  0
LINE
  5
1BE
100
AcDbEntity
  8
0
  6
CONTINUOUS
 62
     3
100
AcDbLine
 10
227.975928
 20
31.870392
 30
0.0
 11
229.790442
 21
31.870392
 31
0.0
  0
LINE
  5
1BF
100
AcDbEntity
  8
0
  6
CONTINUOUS
 62
     3
100
AcDbLine
 10
229.790442
 20
31.870392
 30
0.0
 11
229.790442
 21
30.862396
 31
0.0
  0
LINE
  5
1C0
100
AcDbEntity
  8
0
  6
CONTINUOUS
 62
     3
100
AcDbLine
 10
229.790442
 20
30.862396
 30
0.0
 11
230.395026
 21
30.862396
 31
0.0
  0
LINE
  5
1C1
100
AcDbEntity
  8
0
  6
CONTINUOUS
 62
     3
100
AcDbLine
 10
230.395026
 20
30.862396
 30
0.0
 11
230.395026
 21
29.854401
 31
0.0
  0
LINE
  5
1C2
100
AcDbEntity
  8
0
  6
CONTINUOUS
 62
     3
100
AcDbLine
 10
230.395026
 20
29.854401
 30
0.0
 11
229.790442
 21
29.854401
 31
0.0
  0
LINE
  5
1C3
100
AcDbEntity
  8
0
  6
CONTINUOUS
 62
     3
100
AcDbLine
 10
229.790442
 20
29.854401
 30
0.0
 11
230.395026
 21
29.022003
 31
0.0
  0
LINE
  5
1C4
100
AcDbEntity
  8
0
  6
CONTINUOUS
 62
     3
100
AcDbLine
 10
230.395026
 20
29.022003
 30
0.0
 11
230.395026
 21
26.964142
 31
0.0
  0
LINE
  5
1C5
100
AcDbEntity
  8
0
  6
CONTINUOUS
 62
     3
100
AcDbLine
 10
230.395026
 20
26.964142
 30
0.0
 11
229.790442
 21
27.79657
 31
0.0
  0
LINE
  5
1C6
100
AcDbEntity
  8
0
  6
CONTINUOUS
 62
     3
100
AcDbLine
 10
229.790442
 20
27.79657
 30
0.0
 11
229.790442
 21
23.0
 31
0.0
  0
LINE
  5
1C7
100
AcDbEntity
  8
0
  6
CONTINUOUS
 62
     3
100
AcDbLine
 10
229.790442
 20
23.0
 30
0.0
 11
227.975928
 21
23.0
 31
0.0
  0
LINE
  5
1C8
100
AcDbEntity
  8
0
  6
CONTINUOUS
 62
     3
100
AcDbLine
 10
227.975928
 20
23.0
 30
0.0
 11
227.975928
 21
29.854401
 31
0.0
  0
LINE
  5
1C9
100
AcDbEntity
  8
0
  6
CONTINUOUS
 62
     3
100
AcDbLine
 10
227.896765
 20
29.854401
 30
0.0
 11
227.176123
 21
23.0
 31
0.0
  0
LINE
  5
1CA
100
AcDbEntity
  8
0
  6
CONTINUOUS
 62
     3
100
AcDbLine
 10
227.176123
 20
23.0
 30
0.0
 11
225.959998
 21
23.0
 31
0.0
  0
LINE
  5
1CB
100
AcDbEntity
  8
0
  6
CONTINUOUS
 62
     3
100
AcDbLine
 10
225.959998
 20
23.0
 30
0.0
 11
226.68064
 21
29.854401
 31
0.0
  0
LINE
  5
1CC
100
AcDbEntity
  8
0
  6
CONTINUOUS
 62
     3
100
AcDbLine
 10
226.68064
 20
29.854401
 30
0.0
 11
225.959998
 21
29.854401
 31
0.0
  0
LINE
  5
1CD
100
AcDbEntity
  8
0
  6
CONTINUOUS
 62
     3
100
AcDbLine
 10
238.459113
 20
28.644806
 30
0.0
 11
238.459113
 21
27.435211
 31
0.0
  0
LINE
  5
1CE
100
AcDbEntity
  8
0
  6
CONTINUOUS
 62
     3
100
AcDbLine
 10
238.459113
 20
28.644806
 30
0.0
 11
244.507269
 21
28.644806
 31
0.0
  0
LINE
  5
1CF
100
AcDbEntity
  8
0
  6
CONTINUOUS
 62
     3
100
AcDbLine
 10
244.507269
 20
28.644806
 30
0.0
 11
244.507269
 21
27.435211
 31
0.0
  0
LINE
  5
1D0
100
AcDbEntity
  8
0
  6
CONTINUOUS
 62
     3
100
AcDbLine
 10
244.507269
 20
27.435211
 30
0.0
 11
242.591834
 21
27.435211
 31
0.0
  0
LINE
  5
1D1
100
AcDbEntity
  8
0
  6
CONTINUOUS
 62
     3
100
AcDbLine
 10
242.591834
 20
27.435211
 30
0.0
 11
242.591834
 21
25.754822
 31
0.0
  0
LINE
  5
1D2
100
AcDbEntity
  8
0
  6
CONTINUOUS
 62
     3
100
AcDbLine
 10
242.591834
 20
25.754822
 30
0.0
 11
244.60816
 21
26.183319
 31
0.0
  0
LINE
  5
1D3
100
AcDbEntity
  8
0
  6
CONTINUOUS
 62
     3
100
AcDbLine
 10
244.60816
 20
26.183319
 30
0.0
 11
244.60816
 21
24.3284
 31
0.0
  0
LINE
  5
1D4
100
AcDbEntity
  8
0
  6
CONTINUOUS
 62
     3
100
AcDbLine
 10
244.60816
 20
24.3284
 30
0.0
 11
238.358191
 21
23.0
 31
0.0
  0
LINE
  5
1D5
100
AcDbEntity
  8
0
  6
CONTINUOUS
 62
     3
100
AcDbLine
 10
238.358191
 20
23.0
 30
0.0
 11
238.358191
 21
24.854919
 31
0.0
  0
LINE
  5
1D6
100
AcDbEntity
  8
0
  6
CONTINUOUS
 62
     3
100
AcDbLine
 10
238.358191
 20
24.854919
 30
0.0
 11
240.374518
 21
25.283447
 31
0.0
  0
LINE
  5
1D7
100
AcDbEntity
  8
0
  6
CONTINUOUS
 62
     3
100
AcDbLine
 10
240.374518
 20
25.283447
 30
0.0
 11
240.374518
 21
27.435211
 31
0.0
  0
LINE
  5
1D8
100
AcDbEntity
  8
0
  6
CONTINUOUS
 62
     3
100
AcDbLine
 10
240.374518
 20
27.435211
 30
0.0
 11
238.459113
 21
27.435211
 31
0.0
  0
LINE
  5
1D9
100
AcDbEntity
  8
0
  6
CONTINUOUS
 62
     3
100
AcDbLine
 10
237.854529
 20
31.063995
 30
0.0
 11
237.854529
 21
29.854401
 31
0.0
  0
LINE
  5
1DA
100
AcDbEntity
  8
0
  6
CONTINUOUS
 62
     3
100
AcDbLine
 10
237.854529
 20
31.063995
 30
0.0
 11
243.848975
 21
31.063995
 31
0.0
  0
LINE
  5
1DB
100
AcDbEntity
  8
0
  6
CONTINUOUS
 62
     3
100
AcDbLine
 10
243.848975
 20
31.063995
 30
0.0
 11
243.555701
 21
31.870392
 31
0.0
  0
LINE
  5
1DC
100
AcDbEntity
  8
0
  6
CONTINUOUS
 62
     3
100
AcDbLine
 10
243.555701
 20
31.870392
 30
0.0
 11
245.91532
 21
31.870392
 31
0.0
  0
LINE
  5
1DD
100
AcDbEntity
  8
0
  6
CONTINUOUS
 62
     3
100
AcDbLine
 10
245.91532
 20
31.870392
 30
0.0
 11
246.20899
 21
31.063995
 31
0.0
  0
LINE
  5
1DE
100
AcDbEntity
  8
0
  6
CONTINUOUS
 62
     3
100
AcDbLine
 10
246.20899
 20
31.063995
 30
0.0
 11
246.724982
 21
31.063995
 31
0.0
  0
LINE
  5
1DF
100
AcDbEntity
  8
0
  6
CONTINUOUS
 62
     3
100
AcDbLine
 10
246.724982
 20
31.063995
 30
0.0
 11
246.724982
 21
31.870392
 31
0.0
  0
LINE
  5
1E0
100
AcDbEntity
  8
0
  6
CONTINUOUS
 62
     3
100
AcDbLine
 10
246.724982
 20
31.870392
 30
0.0
 11
248.539099
 21
31.870392
 31
0.0
  0
LINE
  5
1E1
100
AcDbEntity
  8
0
  6
CONTINUOUS
 62
     3
100
AcDbLine
 10
248.539099
 20
31.870392
 30
0.0
 11
248.539099
 21
31.063995
 31
0.0
  0
LINE
  5
1E2
100
AcDbEntity
  8
0
  6
CONTINUOUS
 62
     3
100
AcDbLine
 10
248.539099
 20
31.063995
 30
0.0
 11
249.14408
 21
31.063995
 31
0.0
  0
LINE
  5
1E3
100
AcDbEntity
  8
0
  6
CONTINUOUS
 62
     3
100
AcDbLine
 10
249.14408
 20
31.063995
 30
0.0
 11
249.14408
 21
29.854401
 31
0.0
  0
LINE
  5
1E4
100
AcDbEntity
  8
0
  6
CONTINUOUS
 62
     3
100
AcDbLine
 10
249.14408
 20
29.854401
 30
0.0
 11
246.649084
 21
29.854401
 31
0.0
  0
LINE
  5
1E5
100
AcDbEntity
  8
0
  6
CONTINUOUS
 62
     3
100
AcDbLine
 10
246.649084
 20
29.854401
 30
0.0
 11
249.14408
 21
23.0
 31
0.0
  0
LINE
  5
1E6
100
AcDbEntity
  8
0
  6
CONTINUOUS
 62
     3
100
AcDbLine
 10
249.14408
 20
23.0
 30
0.0
 11
246.784033
 21
23.0
 31
0.0
  0
LINE
  5
1E7
100
AcDbEntity
  8
0
  6
CONTINUOUS
 62
     3
100
AcDbLine
 10
246.784033
 20
23.0
 30
0.0
 11
244.289465
 21
29.854401
 31
0.0
  0
LINE
  5
1E8
100
AcDbEntity
  8
0
  6
CONTINUOUS
 62
     3
100
AcDbLine
 10
244.289465
 20
29.854401
 30
0.0
 11
237.854529
 21
29.854401
 31
0.0
  0
LINE
  5
1E9
100
AcDbEntity
  8
0
  6
CONTINUOUS
 62
     3
100
AcDbLine
 10
249.547278
 20
30.149567
 30
0.0
 11
249.547278
 21
28.873993
 31
0.0
  0
LINE
  5
1EA
100
AcDbEntity
  8
0
  6
CONTINUOUS
 62
     3
100
AcDbLine
 10
249.547278
 20
30.149567
 30
0.0
 11
255.292731
 21
32.071991
 31
0.0
  0
LINE
  5
1EB
100
AcDbEntity
  8
0
  6
CONTINUOUS
 62
     3
100
AcDbLine
 10
255.292731
 20
32.071991
 30
0.0
 11
261.038214
 21
30.149506
 31
0.0
  0
LINE
  5
1EC
100
AcDbEntity
  8
0
  6
CONTINUOUS
 62
     3
100
AcDbLine
 10
261.038214
 20
30.149506
 30
0.0
 11
261.038214
 21
28.873993
 31
0.0
  0
LINE
  5
1ED
100
AcDbEntity
  8
0
  6
CONTINUOUS
 62
     3
100
AcDbLine
 10
261.038214
 20
28.873993
 30
0.0
 11
259.324988
 21
29.447357
 31
0.0
  0
LINE
  5
1EE
100
AcDbEntity
  8
0
  6
CONTINUOUS
 62
     3
100
AcDbLine
 10
259.324988
 20
29.447357
 30
0.0
 11
259.324988
 21
28.443207
 31
0.0
  0
LINE
  5
1EF
100
AcDbEntity
  8
0
  6
CONTINUOUS
 62
     3
100
AcDbLine
 10
259.324988
 20
28.443207
 30
0.0
 11
251.260901
 21
28.443207
 31
0.0
  0
LINE
  5
1F0
100
AcDbEntity
  8
0
  6
CONTINUOUS
 62
     3
100
AcDbLine
 10
251.260901
 20
28.443207
 30
0.0
 11
251.260901
 21
29.447357
 31
0.0
  0
LINE
  5
1F1
100
AcDbEntity
  8
0
  6
CONTINUOUS
 62
     3
100
AcDbLine
 10
251.260901
 20
29.447357
 30
0.0
 11
249.547278
 21
28.873993
 31
0.0
  0
LINE
  5
1F2
100
AcDbEntity
  8
0
  6
CONTINUOUS
 62
     3
100
AcDbLine
 10
251.874915
 20
29.652802
 30
0.0
 11
255.292731
 21
30.796448
 31
0.0
  0
LINE
  5
1F3
100
AcDbEntity
  8
0
  6
CONTINUOUS
 62
     3
100
AcDbLine
 10
255.292731
 20
30.796448
 30
0.0
 11
258.710974
 21
29.652802
 31
0.0
  0
LINE
  5
1F4
100
AcDbEntity
  8
0
  6
CONTINUOUS
 62
     3
100
AcDbLine
 10
258.710974
 20
29.652802
 30
0.0
 11
251.874915
 21
29.652802
 31
0.0
  0
LINE
  5
1F5
100
AcDbEntity
  8
0
  6
CONTINUOUS
 62
     3
100
AcDbLine
 10
249.547278
 20
27.63678
 30
0.0
 11
249.547278
 21
26.427185
 31
0.0
  0
LINE
  5
1F6
100
AcDbEntity
  8
0
  6
CONTINUOUS
 62
     3
100
AcDbLine
 10
249.547278
 20
27.63678
 30
0.0
 11
261.038214
 21
27.63678
 31
0.0
  0
LINE
  5
1F7
100
AcDbEntity
  8
0
  6
CONTINUOUS
 62
     3
100
AcDbLine
 10
261.038214
 20
27.63678
 30
0.0
 11
261.038214
 21
26.427185
 31
0.0
  0
LINE
  5
1F8
100
AcDbEntity
  8
0
  6
CONTINUOUS
 62
     3
100
AcDbLine
 10
261.038214
 20
26.427185
 30
0.0
 11
259.440222
 21
26.427185
 31
0.0
  0
LINE
  5
1F9
100
AcDbEntity
  8
0
  6
CONTINUOUS
 62
     3
100
AcDbLine
 10
259.440222
 20
26.427185
 30
0.0
 11
261.038214
 21
23.0
 31
0.0
  0
LINE
  5
1FA
100
AcDbEntity
  8
0
  6
CONTINUOUS
 62
     3
100
AcDbLine
 10
261.038214
 20
23.0
 30
0.0
 11
249.547278
 21
23.0
 31
0.0
  0
LINE
  5
1FB
100
AcDbEntity
  8
0
  6
CONTINUOUS
 62
     3
100
AcDbLine
 10
249.547278
 20
23.0
 30
0.0
 11
251.145239
 21
26.427185
 31
0.0
  0
LINE
  5
1FC
100
AcDbEntity
  8
0
  6
CONTINUOUS
 62
     3
100
AcDbLine
 10
251.145239
 20
26.427185
 30
0.0
 11
249.547278
 21
26.427185
 31
0.0
  0
LINE
  5
1FD
100
AcDbEntity
  8
0
  6
CONTINUOUS
 62
     3
100
AcDbLine
 10
253.369513
 20
26.427185
 30
0.0
 11
257.215949
 21
26.427185
 31
0.0
  0
LINE
  5
1FE
100
AcDbEntity
  8
0
  6
CONTINUOUS
 62
     3
100
AcDbLine
 10
257.215949
 20
26.427185
 30
0.0
 11
258.249945
 21
24.209595
 31
0.0
  0
LINE
  5
1FF
100
AcDbEntity
  8
0
  6
CONTINUOUS
 62
     3
100
AcDbLine
 10
258.249945
 20
24.209595
 30
0.0
 11
252.335516
 21
24.209595
 31
0.0
  0
LINE
  5
200
100
AcDbEntity
  8
0
  6
CONTINUOUS
 62
     3
100
AcDbLine
 10
253.369513
 20
26.427185
 30
0.0
 11
252.335516
 21
24.209595
 31
0.0
  0
LINE
  5
201
100
AcDbEntity
  8
0
  6
CONTINUOUS
 62
     3
100
AcDbLine
 10
266.884985
 20
29.652802
 30
0.0
 11
266.884985
 21
28.443207
 31
0.0
  0
LINE
  5
202
100
AcDbEntity
  8
0
  6
CONTINUOUS
 62
     3
100
AcDbLine
 10
266.884985
 20
29.652802
 30
0.0
 11
268.699103
 21
29.652802
 31
0.0
  0
LINE
  5
203
100
AcDbEntity
  8
0
  6
CONTINUOUS
 62
     3
100
AcDbLine
 10
268.699103
 20
29.652802
 30
0.0
 11
268.699103
 21
31.870392
 31
0.0
  0
LINE
  5
204
100
AcDbEntity
  8
0
  6
CONTINUOUS
 62
     3
100
AcDbLine
 10
268.699103
 20
31.870392
 30
0.0
 11
270.715002
 21
31.870392
 31
0.0
  0
LINE
  5
205
100
AcDbEntity
  8
0
  6
CONTINUOUS
 62
     3
100
AcDbLine
 10
270.715002
 20
31.870392
 30
0.0
 11
270.715002
 21
29.652802
 31
0.0
  0
LINE
  5
206
100
AcDbEntity
  8
0
  6
CONTINUOUS
 62
     3
100
AcDbLine
 10
270.715002
 20
29.652802
 30
0.0
 11
272.529547
 21
29.652802
 31
0.0
  0
LINE
  5
207
100
AcDbEntity
  8
0
  6
CONTINUOUS
 62
     3
100
AcDbLine
 10
272.529547
 20
29.652802
 30
0.0
 11
272.529547
 21
28.443207
 31
0.0
  0
LINE
  5
208
100
AcDbEntity
  8
0
  6
CONTINUOUS
 62
     3
100
AcDbLine
 10
272.529547
 20
28.443207
 30
0.0
 11
270.715002
 21
28.443207
 31
0.0
  0
LINE
  5
209
100
AcDbEntity
  8
0
  6
CONTINUOUS
 62
     3
100
AcDbLine
 10
270.715002
 20
28.443207
 30
0.0
 11
270.715002
 21
24.209595
 31
0.0
  0
LINE
  5
20A
100
AcDbEntity
  8
0
  6
CONTINUOUS
 62
     3
100
AcDbLine
 10
270.715002
 20
24.209595
 30
0.0
 11
272.731329
 21
24.209595
 31
0.0
  0
LINE
  5
20B
100
AcDbEntity
  8
0
  6
CONTINUOUS
 62
     3
100
AcDbLine
 10
272.731329
 20
24.209595
 30
0.0
 11
272.731329
 21
23.0
 31
0.0
  0
LINE
  5
20C
100
AcDbEntity
  8
0
  6
CONTINUOUS
 62
     3
100
AcDbLine
 10
272.731329
 20
23.0
 30
0.0
 11
266.078192
 21
23.0
 31
0.0
  0
LINE
  5
20D
100
AcDbEntity
  8
0
  6
CONTINUOUS
 62
     3
100
AcDbLine
 10
266.078192
 20
23.0
 30
0.0
 11
266.078192
 21
24.209595
 31
0.0
  0
LINE
  5
20E
100
AcDbEntity
  8
0
  6
CONTINUOUS
 62
     3
100
AcDbLine
 10
266.078192
 20
24.209595
 30
0.0
 11
268.699103
 21
24.209595
 31
0.0
  0
LINE
  5
20F
100
AcDbEntity
  8
0
  6
CONTINUOUS
 62
     3
100
AcDbLine
 10
268.699103
 20
24.209595
 30
0.0
 11
268.699103
 21
28.443207
 31
0.0
  0
LINE
  5
210
100
AcDbEntity
  8
0
  6
CONTINUOUS
 62
     3
100
AcDbLine
 10
268.699103
 20
28.443207
 30
0.0
 11
266.884985
 21
28.443207
 31
0.0
  0
LINE
  5
211
100
AcDbEntity
  8
0
  6
CONTINUOUS
 62
     3
100
AcDbLine
 10
261.441382
 20
31.063995
 30
0.0
 11
261.441382
 21
29.854401
 31
0.0
  0
LINE
  5
212
100
AcDbEntity
  8
0
  6
CONTINUOUS
 62
     3
100
AcDbLine
 10
261.441382
 20
31.063995
 30
0.0
 11
263.255927
 21
31.063995
 31
0.0
  0
LINE
  5
213
100
AcDbEntity
  8
0
  6
CONTINUOUS
 62
     3
100
AcDbLine
 10
263.255927
 20
31.063995
 30
0.0
 11
263.255927
 21
31.870392
 31
0.0
  0
LINE
  5
214
100
AcDbEntity
  8
0
  6
CONTINUOUS
 62
     3
100
AcDbLine
 10
263.255927
 20
31.870392
 30
0.0
 11
265.271826
 21
31.870392
 31
0.0
  0
LINE
  5
215
100
AcDbEntity
  8
0
  6
CONTINUOUS
 62
     3
100
AcDbLine
 10
265.271826
 20
31.870392
 30
0.0
 11
265.271826
 21
31.063995
 31
0.0
  0
LINE
  5
216
100
AcDbEntity
  8
0
  6
CONTINUOUS
 62
     3
100
AcDbLine
 10
265.271826
 20
31.063995
 30
0.0
 11
267.086371
 21
31.063995
 31
0.0
  0
LINE
  5
217
100
AcDbEntity
  8
0
  6
CONTINUOUS
 62
     3
100
AcDbLine
 10
267.086371
 20
31.063995
 30
0.0
 11
265.005225
 21
28.091156
 31
0.0
  0
LINE
  5
218
100
AcDbEntity
  8
0
  6
CONTINUOUS
 62
     3
100
AcDbLine
 10
265.005225
 20
28.091156
 30
0.0
 11
266.884985
 21
26.775177
 31
0.0
  0
LINE
  5
219
100
AcDbEntity
  8
0
  6
CONTINUOUS
 62
     3
100
AcDbLine
 10
266.884985
 20
26.775177
 30
0.0
 11
266.884985
 21
24.560242
 31
0.0
  0
LINE
  5
21A
100
AcDbEntity
  8
0
  6
CONTINUOUS
 62
     3
100
AcDbLine
 10
266.884985
 20
24.560242
 30
0.0
 11
265.271826
 21
25.689545
 31
0.0
  0
LINE
  5
21B
100
AcDbEntity
  8
0
  6
CONTINUOUS
 62
     3
100
AcDbLine
 10
265.271826
 20
25.689545
 30
0.0
 11
265.271826
 21
23.0
 31
0.0
  0
LINE
  5
21C
100
AcDbEntity
  8
0
  6
CONTINUOUS
 62
     3
100
AcDbLine
 10
265.271826
 20
23.0
 30
0.0
 11
263.255927
 21
23.0
 31
0.0
  0
LINE
  5
21D
100
AcDbEntity
  8
0
  6
CONTINUOUS
 62
     3
100
AcDbLine
 10
263.255927
 20
23.0
 30
0.0
 11
263.255927
 21
25.59198
 31
0.0
  0
LINE
  5
21E
100
AcDbEntity
  8
0
  6
CONTINUOUS
 62
     3
100
AcDbLine
 10
263.255927
 20
25.59198
 30
0.0
 11
261.441382
 21
23.0
 31
0.0
  0
LINE
  5
21F
100
AcDbEntity
  8
0
  6
CONTINUOUS
 62
     3
100
AcDbLine
 10
261.441382
 20
23.0
 30
0.0
 11
261.441382
 21
26.163879
 31
0.0
  0
LINE
  5
220
100
AcDbEntity
  8
0
  6
CONTINUOUS
 62
     3
100
AcDbLine
 10
261.441382
 20
26.163879
 30
0.0
 11
264.02497
 21
29.854401
 31
0.0
  0
LINE
  5
221
100
AcDbEntity
  8
0
  6
CONTINUOUS
 62
     3
100
AcDbLine
 10
264.02497
 20
29.854401
 30
0.0
 11
261.441382
 21
29.854401
 31
0.0
  0
ARC
  5
222
100
AcDbEntity
  8
0
  6
CONTINUOUS
 62
     2
100
AcDbCircle
 10
173.032202
 20
28.240082
 30
0.0
 40
1.260024
100
AcDbArc
 50
310.768311
 51
335.998779
  0
LINE
  5
223
100
AcDbEntity
  8
0
  6
CONTINUOUS
 62
     2
100
AcDbLine
 10
174.480048
 20
28.392822
 30
0.0
 11
174.183936
 21
27.727814
 31
0.0
  0
LINE
  5
224
100
AcDbEntity
  8
0
  6
CONTINUOUS
 62
     2
100
AcDbLine
 10
170.997015
 20
29.148804
 30
0.0
 11
175.643683
 21
29.148804
 31
0.0
  0
ARC
  5
225
100
AcDbEntity
  8
0
  6
CONTINUOUS
 62
     2
100
AcDbCircle
 10
191.659857
 20
26.628815
 30
0.0
 40
3.124802
100
AcDbArc
 50
270.000031
 51
324.00116
  0
ARC
  5
226
100
AcDbEntity
  8
0
  6
CONTINUOUS
 62
     2
100
AcDbCircle
 10
191.659857
 20
26.628815
 30
0.0
 40
2.620802
100
AcDbArc
 50
270.000031
 51
324.00116
  0
ARC
  5
227
100
AcDbEntity
  8
0
  6
CONTINUOUS
 62
     2
100
AcDbCircle
 10
161.113135
 20
26.628815
 30
0.0
 40
3.124796
100
AcDbArc
 50
270.000031
 51
333.99855
  0
ARC
  5
228
100
AcDbEntity
  8
0
  6
CONTINUOUS
 62
     2
100
AcDbCircle
 10
160.953101
 20
26.628815
 30
0.0
 40
2.116798
100
AcDbArc
 50
270.000031
 51
333.99855
  0
ARC
  5
229
100
AcDbEntity
  8
0
  6
CONTINUOUS
 62
     2
100
AcDbCircle
 10
161.033118
 20
26.628815
 30
0.0
 40
2.620798
100
AcDbArc
 50
270.000031
 51
333.99855
  0
LINE
  5
22A
100
AcDbEntity
  8
0
  6
CONTINUOUS
 62
     2
100
AcDbLine
 10
155.768164
 20
31.406425
 30
0.0
 11
160.676794
 21
31.406425
 31
0.0
  0
LINE
  5
22B
100
AcDbEntity
  8
0
  6
CONTINUOUS
 62
     2
100
AcDbLine
 10
155.768164
 20
30.942429
 30
0.0
 11
160.676794
 21
30.942429
 31
0.0
  0
LINE
  5
22C
100
AcDbEntity
  8
0
  6
CONTINUOUS
 62
     2
100
AcDbLine
 10
155.768164
 20
30.478462
 30
0.0
 11
160.676794
 21
30.478462
 31
0.0
  0
LINE
  5
22D
100
AcDbEntity
  8
0
  6
CONTINUOUS
 62
     2
100
AcDbLine
 10
155.768164
 20
29.027206
 30
0.0
 11
160.676794
 21
29.027206
 31
0.0
  0
LINE
  5
22E
100
AcDbEntity
  8
0
  6
CONTINUOUS
 62
     2
100
AcDbLine
 10
155.768164
 20
28.523178
 30
0.0
 11
160.676794
 21
28.523178
 31
0.0
  0
LINE
  5
22F
100
AcDbEntity
  8
0
  6
CONTINUOUS
 62
     2
100
AcDbLine
 10
155.768164
 20
28.059212
 30
0.0
 11
160.676794
 21
28.059212
 31
0.0
  0
LINE
  5
230
100
AcDbEntity
  8
0
  6
CONTINUOUS
 62
     2
100
AcDbLine
 10
155.768164
 20
24.511993
 30
0.0
 11
160.953101
 21
24.511993
 31
0.0
  0
LINE
  5
231
100
AcDbEntity
  8
0
  6
CONTINUOUS
 62
     2
100
AcDbLine
 10
155.768164
 20
24.007996
 30
0.0
 11
160.953101
 21
24.007996
 31
0.0
  0
LINE
  5
232
100
AcDbEntity
  8
0
  6
CONTINUOUS
 62
     2
100
AcDbLine
 10
155.768164
 20
23.503998
 30
0.0
 11
160.953101
 21
23.503998
 31
0.0
  0
LINE
  5
233
100
AcDbEntity
  8
0
  6
CONTINUOUS
 62
     2
100
AcDbLine
 10
162.855414
 20
25.700806
 30
0.0
 11
164.621649
 21
29.322073
 31
0.0
  0
LINE
  5
234
100
AcDbEntity
  8
0
  6
CONTINUOUS
 62
     2
100
AcDbLine
 10
163.388251
 20
25.479919
 30
0.0
 11
165.262335
 21
29.322075
 31
0.0
  0
LINE
  5
235
100
AcDbEntity
  8
0
  6
CONTINUOUS
 62
     2
100
AcDbLine
 10
163.921057
 20
25.25885
 30
0.0
 11
165.902625
 21
29.322069
 31
0.0
  0
LINE
  5
236
100
AcDbEntity
  8
0
  6
CONTINUOUS
 62
     2
100
AcDbLine
 10
163.227271
 20
31.339195
 30
0.0
 11
164.103674
 21
31.339195
 31
0.0
  0
LINE
  5
237
100
AcDbEntity
  8
0
  6
CONTINUOUS
 62
     2
100
AcDbLine
 10
163.227271
 20
30.767998
 30
0.0
 11
164.103674
 21
30.767998
 31
0.0
  0
LINE
  5
238
100
AcDbEntity
  8
0
  6
CONTINUOUS
 62
     2
100
AcDbLine
 10
165.444983
 20
31.339195
 30
0.0
 11
166.321387
 21
31.339195
 31
0.0
  0
LINE
  5
239
100
AcDbEntity
  8
0
  6
CONTINUOUS
 62
     2
100
AcDbLine
 10
165.444983
 20
30.767998
 30
0.0
 11
166.321387
 21
30.767998
 31
0.0
  0
LINE
  5
23A
100
AcDbEntity
  8
0
  6
CONTINUOUS
 62
     2
100
AcDbLine
 10
167.662695
 20
28.644836
 30
0.0
 11
170.056128
 21
28.644836
 31
0.0
  0
LINE
  5
23B
100
AcDbEntity
  8
0
  6
CONTINUOUS
 62
     2
100
AcDbLine
 10
169.475073
 20
30.700537
 30
0.0
 11
169.721014
 21
29.148804
 31
0.0
  0
LINE
  5
23C
100
AcDbEntity
  8
0
  6
CONTINUOUS
 62
     2
100
AcDbLine
 10
170.63761
 20
23.363461
 30
0.0
 11
169.889807
 21
28.083809
 31
0.0
  0
ARC
  5
23D
100
AcDbEntity
  8
0
  6
CONTINUOUS
 62
     2
100
AcDbCircle
 10
172.992194
 20
28.240082
 30
0.0
 40
1.764024
100
AcDbArc
 50
272.671387
 51
335.998779
  0
ARC
  5
23E
100
AcDbEntity
  8
0
  6
CONTINUOUS
 62
     2
100
AcDbCircle
 10
172.952185
 20
28.240082
 30
0.0
 40
2.268023
100
AcDbArc
 50
267.367432
 51
335.998779
  0
LINE
  5
23F
100
AcDbEntity
  8
0
  6
CONTINUOUS
 62
     2
100
AcDbLine
 10
175.870337
 20
29.218105
 30
0.0
 11
175.024298
 21
27.317719
 31
0.0
  0
LINE
  5
240
100
AcDbEntity
  8
0
  6
CONTINUOUS
 62
     2
100
AcDbLine
 10
171.818121
 20
23.363461
 30
0.0
 11
171.044074
 21
28.249764
 31
0.0
  0
LINE
  5
241
100
AcDbEntity
  8
0
  6
CONTINUOUS
 62
     2
100
AcDbLine
 10
171.267859
 20
23.363461
 30
0.0
 11
170.105688
 21
30.700535
 31
0.0
  0
LINE
  5
242
100
AcDbEntity
  8
0
  6
CONTINUOUS
 62
     2
100
AcDbLine
 10
170.655951
 20
30.700535
 30
0.0
 11
170.879126
 21
29.291893
 31
0.0
  0
LINE
  5
243
100
AcDbEntity
  8
0
  6
CONTINUOUS
 62
     2
100
AcDbLine
 10
167.662695
 20
29.148804
 30
0.0
 11
169.321021
 21
29.148804
 31
0.0
  0
LINE
  5
244
100
AcDbEntity
  8
0
  6
CONTINUOUS
 62
     2
100
AcDbLine
 10
175.133978
 20
28.714079
 30
0.0
 11
174.604102
 21
27.522705
 31
0.0
  0
LINE
  5
245
100
AcDbEntity
  8
0
  6
CONTINUOUS
 62
     2
100
AcDbLine
 10
170.821478
 20
28.644836
 30
0.0
 11
174.667639
 21
28.644836
 31
0.0
  0
ARC
  5
246
100
AcDbEntity
  8
0
  6
CONTINUOUS
 62
     2
100
AcDbCircle
 10
172.912177
 20
28.240082
 30
0.0
 40
2.772022
100
AcDbArc
 50
269.611328
 51
335.998779
  0
LINE
  5
247
100
AcDbEntity
  8
0
  6
CONTINUOUS
 62
     2
100
AcDbLine
 10
176.381964
 20
29.218111
 30
0.0
 11
175.444495
 21
27.112671
 31
0.0
  0
LINE
  5
248
100
AcDbEntity
  8
0
  6
CONTINUOUS
 62
     2
100
AcDbLine
 10
197.862524
 20
30.862427
 30
0.0
 11
193.776129
 21
25.236542
 31
0.0
  0
LINE
  5
249
100
AcDbEntity
  8
0
  6
CONTINUOUS
 62
     2
100
AcDbLine
 10
196.773627
 20
30.358459
 30
0.0
 11
193.268408
 21
25.532806
 31
0.0
  0
ARC
  5
24A
100
AcDbEntity
  8
0
  6
CONTINUOUS
 62
     2
100
AcDbCircle
 10
191.799872
 20
26.548813
 30
0.0
 40
1.864804
100
AcDbArc
 50
270.000031
 51
324.00116
  0
LINE
  5
24B
100
AcDbEntity
  8
0
  6
CONTINUOUS
 62
     2
100
AcDbLine
 10
177.975897
 20
31.403118
 30
0.0
 11
186.852728
 21
31.403118
 31
0.0
  0
LINE
  5
24C
100
AcDbEntity
  8
0
  6
CONTINUOUS
 62
     2
100
AcDbLine
 10
177.975897
 20
30.87915
 30
0.0
 11
186.852728
 21
30.87915
 31
0.0
  0
LINE
  5
24D
100
AcDbEntity
  8
0
  6
CONTINUOUS
 62
     2
100
AcDbLine
 10
177.975897
 20
30.335182
 30
0.0
 11
186.852728
 21
30.335182
 31
0.0
  0
LINE
  5
24E
100
AcDbEntity
  8
0
  6
CONTINUOUS
 62
     2
100
AcDbLine
 10
177.169531
 20
24.528809
 30
0.0
 11
187.659094
 21
24.528809
 31
0.0
  0
LINE
  5
24F
100
AcDbEntity
  8
0
  6
CONTINUOUS
 62
     2
100
AcDbLine
 10
177.169531
 20
24.024811
 30
0.0
 11
187.659094
 21
24.024811
 31
0.0
  0
LINE
  5
250
100
AcDbEntity
  8
0
  6
CONTINUOUS
 62
     2
100
AcDbLine
 10
177.169531
 20
23.480782
 30
0.0
 11
187.659094
 21
23.480782
 31
0.0
  0
LINE
  5
251
100
AcDbEntity
  8
0
  6
CONTINUOUS
 62
     2
100
AcDbLine
 10
189.870428
 20
31.386425
 30
0.0
 11
198.451361
 21
31.386425
 31
0.0
  0
LINE
  5
252
100
AcDbEntity
  8
0
  6
CONTINUOUS
 62
     2
100
AcDbLine
 10
198.971381
 20
31.366425
 30
0.0
 11
194.303809
 21
24.940125
 31
0.0
  0
LINE
  5
253
100
AcDbEntity
  8
0
  6
CONTINUOUS
 62
     2
100
AcDbLine
 10
189.870428
 20
30.862427
 30
0.0
 11
197.4625
 21
30.862427
 31
0.0
  0
LINE
  5
254
100
AcDbEntity
  8
0
  6
CONTINUOUS
 62
     2
100
AcDbLine
 10
191.659857
 20
24.531994
 30
0.0
 11
189.064063
 21
24.531994
 31
0.0
  0
LINE
  5
255
100
AcDbEntity
  8
0
  6
CONTINUOUS
 62
     2
100
AcDbLine
 10
191.659857
 20
24.007996
 30
0.0
 11
189.064063
 21
24.007996
 31
0.0
  0
LINE
  5
256
100
AcDbEntity
  8
0
  6
CONTINUOUS
 62
     2
100
AcDbLine
 10
191.659857
 20
23.483997
 30
0.0
 11
189.064063
 21
23.483997
 31
0.0
  0
LINE
  5
257
100
AcDbEntity
  8
0
  6
CONTINUOUS
 62
     2
100
AcDbLine
 10
195.686377
 20
26.14743
 30
0.0
 11
198.074316
 21
23.4
 31
0.0
  0
LINE
  5
258
100
AcDbEntity
  8
0
  6
CONTINUOUS
 62
     2
100
AcDbLine
 10
195.990698
 20
26.506102
 30
0.0
 11
198.690344
 21
23.4
 31
0.0
  0
LINE
  5
259
100
AcDbEntity
  8
0
  6
CONTINUOUS
 62
     2
100
AcDbLine
 10
196.294623
 20
26.86459
 30
0.0
 11
199.305884
 21
23.4
 31
0.0
  0
LINE
  5
25A
100
AcDbEntity
  8
0
  6
CONTINUOUS
 62
     2
100
AcDbLine
 10
196.598547
 20
27.223169
 30
0.0
 11
199.921851
 21
23.4
 31
0.0
  0
LINE
  5
25B
100
AcDbEntity
  8
0
  6
CONTINUOUS
 62
     2
100
AcDbLine
 10
189.870428
 20
30.318459
 30
0.0
 11
196.273596
 21
30.318459
 31
0.0
  0
LINE
  5
25C
100
AcDbEntity
  8
0
  6
CONTINUOUS
 62
     2
100
AcDbLine
 10
203.579108
 20
31.406425
 30
0.0
 11
213.262274
 21
31.406425
 31
0.0
  0
LINE
  5
25D
100
AcDbEntity
  8
0
  6
CONTINUOUS
 62
     2
100
AcDbLine
 10
203.579108
 20
30.902428
 30
0.0
 11
213.262274
 21
30.902428
 31
0.0
  0
LINE
  5
25E
100
AcDbEntity
  8
0
  6
CONTINUOUS
 62
     2
100
AcDbLine
 10
207.73548
 20
24.495983
 30
0.0
 11
207.73548
 21
30.442444
 31
0.0
  0
LINE
  5
25F
100
AcDbEntity
  8
0
  6
CONTINUOUS
 62
     2
100
AcDbLine
 10
208.239172
 20
24.495983
 30
0.0
 11
208.239172
 21
30.442444
 31
0.0
  0
LINE
  5
260
100
AcDbEntity
  8
0
  6
CONTINUOUS
 62
     2
100
AcDbLine
 10
208.742834
 20
24.495983
 30
0.0
 11
208.742834
 21
30.442444
 31
0.0
  0
LINE
  5
261
100
AcDbEntity
  8
0
  6
CONTINUOUS
 62
     2
100
AcDbLine
 10
209.206488
 20
24.495983
 30
0.0
 11
209.206488
 21
30.442444
 31
0.0
  0
LINE
  5
262
100
AcDbEntity
  8
0
  6
CONTINUOUS
 62
     2
100
AcDbLine
 10
203.175909
 20
24.095983
 30
0.0
 11
213.665472
 21
24.095983
 31
0.0
  0
LINE
  5
263
100
AcDbEntity
  8
0
  6
CONTINUOUS
 62
     2
100
AcDbLine
 10
203.175909
 20
23.491985
 30
0.0
 11
213.665472
 21
23.491985
 31
0.0
  0
LINE
  5
264
100
AcDbEntity
  8
0
  6
CONTINUOUS
 62
     2
100
AcDbLine
 10
216.025519
 20
31.470392
 30
0.0
 11
216.774176
 21
30.5123
 31
0.0
  0
LINE
  5
265
100
AcDbEntity
  8
0
  6
CONTINUOUS
 62
     2
100
AcDbLine
 10
216.664954
 20
31.470392
 30
0.0
 11
217.413611
 21
30.5123
 31
0.0
  0
LINE
  5
266
100
AcDbEntity
  8
0
  6
CONTINUOUS
 62
     2
100
AcDbLine
 10
218.662268
 20
31.470392
 30
0.0
 11
218.662268
 21
30.597113
 31
0.0
  0
LINE
  5
267
100
AcDbEntity
  8
0
  6
CONTINUOUS
 62
     2
100
AcDbLine
 10
219.205969
 20
31.470392
 30
0.0
 11
219.205969
 21
30.597113
 31
0.0
  0
LINE
  5
268
100
AcDbEntity
  8
0
  6
CONTINUOUS
 62
     2
100
AcDbLine
 10
220.678198
 20
31.470392
 30
0.0
 11
220.678198
 21
30.597113
 31
0.0
  0
LINE
  5
269
100
AcDbEntity
  8
0
  6
CONTINUOUS
 62
     2
100
AcDbLine
 10
221.261877
 20
31.470392
 30
0.0
 11
221.261877
 21
30.597113
 31
0.0
  0
LINE
  5
26A
100
AcDbEntity
  8
0
  6
CONTINUOUS
 62
     2
100
AcDbLine
 10
223.199133
 20
31.470392
 30
0.0
 11
222.450476
 21
30.5123
 31
0.0
  0
LINE
  5
26B
100
AcDbEntity
  8
0
  6
CONTINUOUS
 62
     2
100
AcDbLine
 10
223.878577
 20
31.470392
 30
0.0
 11
223.129919
 21
30.5123
 31
0.0
  0
LINE
  5
26C
100
AcDbEntity
  8
0
  6
CONTINUOUS
 62
     2
100
AcDbLine
 10
214.667242
 20
30.197113
 30
0.0
 11
225.156805
 21
30.197113
 31
0.0
  0
LINE
  5
26D
100
AcDbEntity
  8
0
  6
CONTINUOUS
 62
     2
100
AcDbLine
 10
217.286353
 20
28.637657
 30
0.0
 11
216.855566
 21
29.821236
 31
0.0
  0
LINE
  5
26E
100
AcDbEntity
  8
0
  6
CONTINUOUS
 62
     2
100
AcDbLine
 10
217.902441
 20
28.637657
 30
0.0
 11
217.471655
 21
29.821236
 31
0.0
  0
LINE
  5
26F
100
AcDbEntity
  8
0
  6
CONTINUOUS
 62
     2
100
AcDbLine
 10
218.478522
 20
28.637703
 30
0.0
 11
218.048224
 21
29.82119
 31
0.0
  0
LINE
  5
270
100
AcDbEntity
  8
0
  6
CONTINUOUS
 62
     2
100
AcDbLine
 10
221.383887
 20
28.637613
 30
0.0
 11
221.815131
 21
29.82128
 31
0.0
  0
LINE
  5
271
100
AcDbEntity
  8
0
  6
CONTINUOUS
 62
     2
100
AcDbLine
 10
222.000403
 20
28.637613
 30
0.0
 11
222.431647
 21
29.82128
 31
0.0
  0
LINE
  5
272
100
AcDbEntity
  8
0
  6
CONTINUOUS
 62
     2
100
AcDbLine
 10
222.576483
 20
28.637613
 30
0.0
 11
223.007727
 21
29.82128
 31
0.0
  0
LINE
  5
273
100
AcDbEntity
  8
0
  6
CONTINUOUS
 62
     2
100
AcDbLine
 10
214.667242
 20
28.26178
 30
0.0
 11
225.156805
 21
28.26178
 31
0.0
  0
LINE
  5
274
100
AcDbEntity
  8
0
  6
CONTINUOUS
 62
     2
100
AcDbLine
 10
214.667242
 20
26.870728
 30
0.0
 11
218.967749
 21
26.870728
 31
0.0
  0
LINE
  5
275
100
AcDbEntity
  8
0
  6
CONTINUOUS
 62
     2
100
AcDbLine
 10
214.667242
 20
25.479675
 30
0.0
 11
218.967749
 21
25.479675
 31
0.0
  0
LINE
  5
276
100
AcDbEntity
  8
0
  6
CONTINUOUS
 62
     2
100
AcDbLine
 10
220.895117
 20
25.479675
 30
0.0
 11
225.156805
 21
25.479675
 31
0.0
  0
LINE
  5
277
100
AcDbEntity
  8
0
  6
CONTINUOUS
 62
     2
100
AcDbLine
 10
215.301764
 20
23.4
 30
0.0
 11
217.306647
 21
25.211508
 31
0.0
  0
LINE
  5
278
100
AcDbEntity
  8
0
  6
CONTINUOUS
 62
     2
100
AcDbLine
 10
215.973547
 20
23.4
 30
0.0
 11
217.978491
 21
25.211512
 31
0.0
  0
LINE
  5
279
100
AcDbEntity
  8
0
  6
CONTINUOUS
 62
     2
100
AcDbLine
 10
216.60575
 20
23.4
 30
0.0
 11
218.610693
 21
25.211512
 31
0.0
  0
LINE
  5
27A
100
AcDbEntity
  8
0
  6
CONTINUOUS
 62
     2
100
AcDbLine
 10
219.367743
 20
23.4
 30
0.0
 11
219.367743
 21
27.86178
 31
0.0
  0
LINE
  5
27B
100
AcDbEntity
  8
0
  6
CONTINUOUS
 62
     2
100
AcDbLine
 10
219.951422
 20
23.4
 30
0.0
 11
219.951422
 21
27.86178
 31
0.0
  0
LINE
  5
27C
100
AcDbEntity
  8
0
  6
CONTINUOUS
 62
     2
100
AcDbLine
 10
220.495123
 20
23.4
 30
0.0
 11
220.495123
 21
27.86178
 31
0.0
  0
LINE
  5
27D
100
AcDbEntity
  8
0
  6
CONTINUOUS
 62
     2
100
AcDbLine
 10
223.234351
 20
23.4
 30
0.0
 11
221.229468
 21
25.211508
 31
0.0
  0
LINE
  5
27E
100
AcDbEntity
  8
0
  6
CONTINUOUS
 62
     2
100
AcDbLine
 10
223.906165
 20
23.4
 30
0.0
 11
221.901221
 21
25.211512
 31
0.0
  0
LINE
  5
27F
100
AcDbEntity
  8
0
  6
CONTINUOUS
 62
     2
100
AcDbLine
 10
224.578375
 20
23.4
 30
0.0
 11
222.573431
 21
25.211512
 31
0.0
  0
LINE
  5
280
100
AcDbEntity
  8
0
  6
CONTINUOUS
 62
     2
100
AcDbLine
 10
228.399573
 20
31.470392
 30
0.0
 11
228.399573
 21
30.758398
 31
0.0
  0
LINE
  5
281
100
AcDbEntity
  8
0
  6
CONTINUOUS
 62
     2
100
AcDbLine
 10
228.903235
 20
31.470392
 30
0.0
 11
228.903235
 21
30.758398
 31
0.0
  0
LINE
  5
282
100
AcDbEntity
  8
0
  6
CONTINUOUS
 62
     2
100
AcDbLine
 10
229.406927
 20
31.470392
 30
0.0
 11
229.406927
 21
30.758398
 31
0.0
  0
LINE
  5
283
100
AcDbEntity
  8
0
  6
CONTINUOUS
 62
     2
100
AcDbLine
 10
226.359991
 20
30.358398
 30
0.0
 11
229.995032
 21
30.358398
 31
0.0
  0
LINE
  5
284
100
AcDbEntity
  8
0
  6
CONTINUOUS
 62
     2
100
AcDbLine
 10
226.388831
 20
23.39781
 30
0.0
 11
227.078406
 21
29.960588
 31
0.0
  0
LINE
  5
285
100
AcDbEntity
  8
0
  6
CONTINUOUS
 62
     2
100
AcDbLine
 10
226.855353
 20
23.39781
 30
0.0
 11
227.544959
 21
29.960588
 31
0.0
  0
LINE
  5
286
100
AcDbEntity
  8
0
  6
CONTINUOUS
 62
     2
100
AcDbLine
 10
228.399573
 20
23.4
 30
0.0
 11
228.399573
 21
29.958399
 31
0.0
  0
LINE
  5
287
100
AcDbEntity
  8
0
  6
CONTINUOUS
 62
     2
100
AcDbLine
 10
228.903235
 20
23.4
 30
0.0
 11
228.903235
 21
29.958399
 31
0.0
  0
LINE
  5
288
100
AcDbEntity
  8
0
  6
CONTINUOUS
 62
     2
100
AcDbLine
 10
229.406927
 20
23.4
 30
0.0
 11
229.406927
 21
29.958399
 31
0.0
  0
LINE
  5
289
100
AcDbEntity
  8
0
  6
CONTINUOUS
 62
     2
100
AcDbLine
 10
229.641852
 20
29.430849
 30
0.0
 11
230.160071
 21
28.716768
 31
0.0
  0
LINE
  5
28A
100
AcDbEntity
  8
0
  6
CONTINUOUS
 62
     2
100
AcDbLine
 10
229.641852
 20
28.652849
 30
0.0
 11
230.160071
 21
27.938768
 31
0.0
  0
LINE
  5
28B
100
AcDbEntity
  8
0
  6
CONTINUOUS
 62
     2
100
AcDbLine
 10
230.893835
 20
29.63772
 30
0.0
 11
231.353766
 21
31.482275
 31
0.0
  0
LINE
  5
28C
100
AcDbEntity
  8
0
  6
CONTINUOUS
 62
     2
100
AcDbLine
 10
231.37348
 20
29.637737
 30
0.0
 11
231.833044
 21
31.482258
 31
0.0
  0
LINE
  5
28D
100
AcDbEntity
  8
0
  6
CONTINUOUS
 62
     2
100
AcDbLine
 10
231.792761
 20
29.63772
 30
0.0
 11
232.252692
 21
31.482275
 31
0.0
  0
LINE
  5
28E
100
AcDbEntity
  8
0
  6
CONTINUOUS
 62
     2
100
AcDbLine
 10
233.540472
 20
30.758398
 30
0.0
 11
233.540472
 21
31.470392
 31
0.0
  0
LINE
  5
28F
100
AcDbEntity
  8
0
  6
CONTINUOUS
 62
     2
100
AcDbLine
 10
234.084143
 20
30.758398
 30
0.0
 11
234.084143
 21
31.470392
 31
0.0
  0
LINE
  5
290
100
AcDbEntity
  8
0
  6
CONTINUOUS
 62
     2
100
AcDbLine
 10
234.587836
 20
30.758398
 30
0.0
 11
234.587836
 21
31.470392
 31
0.0
  0
LINE
  5
291
100
AcDbEntity
  8
0
  6
CONTINUOUS
 62
     2
100
AcDbLine
 10
232.372443
 20
30.358398
 30
0.0
 11
236.849554
 21
30.358398
 31
0.0
  0
LINE
  5
292
100
AcDbEntity
  8
0
  6
CONTINUOUS
 62
     2
100
AcDbLine
 10
233.540472
 20
29.958399
 30
0.0
 11
233.540472
 21
28.742407
 31
0.0
  0
LINE
  5
293
100
AcDbEntity
  8
0
  6
CONTINUOUS
 62
     2
100
AcDbLine
 10
234.084143
 20
29.958399
 30
0.0
 11
234.084143
 21
28.742407
 31
0.0
  0
LINE
  5
294
100
AcDbEntity
  8
0
  6
CONTINUOUS
 62
     2
100
AcDbLine
 10
234.587836
 20
29.958399
 30
0.0
 11
234.587836
 21
28.742407
 31
0.0
  0
LINE
  5
295
100
AcDbEntity
  8
0
  6
CONTINUOUS
 62
     2
100
AcDbLine
 10
230.996802
 20
28.342407
 30
0.0
 11
237.051337
 21
28.342407
 31
0.0
  0
LINE
  5
296
100
AcDbEntity
  8
0
  6
CONTINUOUS
 62
     2
100
AcDbLine
 10
231.889594
 20
27.948877
 30
0.0
 11
231.060156
 21
23.39353
 31
0.0
  0
LINE
  5
297
100
AcDbEntity
  8
0
  6
CONTINUOUS
 62
     2
100
AcDbLine
 10
232.361456
 20
27.948877
 30
0.0
 11
231.53205
 21
23.39353
 31
0.0
  0
LINE
  5
298
100
AcDbEntity
  8
0
  6
CONTINUOUS
 62
     2
100
AcDbLine
 10
232.777838
 20
27.948883
 30
0.0
 11
231.948004
 21
23.393524
 31
0.0
  0
LINE
  5
299
100
AcDbEntity
  8
0
  6
CONTINUOUS
 62
     2
100
AcDbLine
 10
233.540472
 20
27.942408
 30
0.0
 11
233.540472
 21
23.4
 31
0.0
  0
LINE
  5
29A
100
AcDbEntity
  8
0
  6
CONTINUOUS
 62
     2
100
AcDbLine
 10
234.044135
 20
27.942408
 30
0.0
 11
234.044135
 21
23.4
 31
0.0
  0
LINE
  5
29B
100
AcDbEntity
  8
0
  6
CONTINUOUS
 62
     2
100
AcDbLine
 10
234.587836
 20
27.942408
 30
0.0
 11
234.587836
 21
23.4
 31
0.0
  0
LINE
  5
29C
100
AcDbEntity
  8
0
  6
CONTINUOUS
 62
     2
100
AcDbLine
 10
235.269904
 20
27.948883
 30
0.0
 11
236.099738
 21
23.393524
 31
0.0
  0
LINE
  5
29D
100
AcDbEntity
  8
0
  6
CONTINUOUS
 62
     2
100
AcDbLine
 10
235.702185
 20
27.948883
 30
0.0
 11
236.532019
 21
23.393524
 31
0.0
  0
LINE
  5
29E
100
AcDbEntity
  8
0
  6
CONTINUOUS
 62
     2
100
AcDbLine
 10
236.214056
 20
27.948883
 30
0.0
 11
237.04389
 21
23.393524
 31
0.0
  0
LINE
  5
29F
100
AcDbEntity
  8
0
  6
CONTINUOUS
 62
     2
100
AcDbLine
 10
238.254523
 20
30.680031
 30
0.0
 11
243.964819
 21
30.680031
 31
0.0
  0
LINE
  5
2A0
100
AcDbEntity
  8
0
  6
CONTINUOUS
 62
     2
100
AcDbLine
 10
238.254523
 20
30.176033
 30
0.0
 11
244.14826
 21
30.176033
 31
0.0
  0
LINE
  5
2A1
100
AcDbEntity
  8
0
  6
CONTINUOUS
 62
     2
100
AcDbLine
 10
247.023322
 20
23.375877
 30
0.0
 11
244.068396
 21
31.494514
 31
0.0
  0
LINE
  5
2A2
100
AcDbEntity
  8
0
  6
CONTINUOUS
 62
     2
100
AcDbLine
 10
247.559393
 20
23.375879
 30
0.0
 11
244.60459
 21
31.494513
 31
0.0
  0
LINE
  5
2A3
100
AcDbEntity
  8
0
  6
CONTINUOUS
 62
     2
100
AcDbLine
 10
248.095465
 20
23.375879
 30
0.0
 11
245.140662
 21
31.494513
 31
0.0
  0
LINE
  5
2A4
100
AcDbEntity
  8
0
  6
CONTINUOUS
 62
     2
100
AcDbLine
 10
248.631537
 20
23.375872
 30
0.0
 11
245.676276
 21
31.494518
 31
0.0
  0
LINE
  5
2A5
100
AcDbEntity
  8
0
  6
CONTINUOUS
 62
     2
100
AcDbLine
 10
247.108618
 20
31.08003
 30
0.0
 11
247.108618
 21
31.470392
 31
0.0
  0
LINE
  5
2A6
100
AcDbEntity
  8
0
  6
CONTINUOUS
 62
     2
100
AcDbLine
 10
247.652319
 20
31.08003
 30
0.0
 11
247.652319
 21
31.470392
 31
0.0
  0
LINE
  5
2A7
100
AcDbEntity
  8
0
  6
CONTINUOUS
 62
     2
100
AcDbLine
 10
248.19599
 20
31.08003
 30
0.0
 11
248.19599
 21
31.470392
 31
0.0
  0
LINE
  5
2A8
100
AcDbEntity
  8
0
  6
CONTINUOUS
 62
     2
100
AcDbLine
 10
246.372748
 20
30.680031
 30
0.0
 11
248.744086
 21
30.680031
 31
0.0
  0
LINE
  5
2A9
100
AcDbEntity
  8
0
  6
CONTINUOUS
 62
     2
100
AcDbLine
 10
246.55622
 20
30.176033
 30
0.0
 11
248.744086
 21
30.176033
 31
0.0
  0
LINE
  5
2AA
100
AcDbEntity
  8
0
  6
CONTINUOUS
 62
     2
100
AcDbLine
 10
238.859106
 20
28.27282
 30
0.0
 11
244.107275
 21
28.27282
 31
0.0
  0
LINE
  5
2AB
100
AcDbEntity
  8
0
  6
CONTINUOUS
 62
     2
100
AcDbLine
 10
238.859106
 20
27.768791
 30
0.0
 11
244.107275
 21
27.768791
 31
0.0
  0
LINE
  5
2AC
100
AcDbEntity
  8
0
  6
CONTINUOUS
 62
     2
100
AcDbLine
 10
240.758185
 20
27.368792
 30
0.0
 11
240.758185
 21
25.358231
 31
0.0
  0
LINE
  5
2AD
100
AcDbEntity
  8
0
  6
CONTINUOUS
 62
     2
100
AcDbLine
 10
241.261847
 20
27.368792
 30
0.0
 11
241.261847
 21
25.465286
 31
0.0
  0
LINE
  5
2AE
100
AcDbEntity
  8
0
  6
CONTINUOUS
 62
     2
100
AcDbLine
 10
241.765509
 20
27.368792
 30
0.0
 11
241.765509
 21
25.572344
 31
0.0
  0
LINE
  5
2AF
100
AcDbEntity
  8
0
  6
CONTINUOUS
 62
     2
100
AcDbLine
 10
242.269202
 20
27.368792
 30
0.0
 11
242.269202
 21
25.679405
 31
0.0
  0
LINE
  5
2B0
100
AcDbEntity
  8
0
  6
CONTINUOUS
 62
     2
100
AcDbLine
 10
238.749457
 20
24.531263
 30
0.0
 11
244.216895
 21
25.693399
 31
0.0
  0
LINE
  5
2B1
100
AcDbEntity
  8
0
  6
CONTINUOUS
 62
     2
100
AcDbLine
 10
238.749457
 20
23.976006
 30
0.0
 11
244.216895
 21
25.13817
 31
0.0
  0
LINE
  5
2B2
100
AcDbEntity
  8
0
  6
CONTINUOUS
 62
     2
100
AcDbLine
 10
238.749457
 20
23.500746
 30
0.0
 11
244.216895
 21
24.662882
 31
0.0
  0
LINE
  5
2B3
100
AcDbEntity
  8
0
  6
CONTINUOUS
 62
     2
100
AcDbLine
 10
249.926611
 20
29.865189
 30
0.0
 11
255.103064
 21
31.59708
 31
0.0
  0
LINE
  5
2B4
100
AcDbEntity
  8
0
  6
CONTINUOUS
 62
     2
100
AcDbLine
 10
249.926611
 20
29.333725
 30
0.0
 11
255.103064
 21
31.065647
 31
0.0
  0
LINE
  5
2B5
100
AcDbEntity
  8
0
  6
CONTINUOUS
 62
     2
100
AcDbLine
 10
255.482397
 20
31.597078
 30
0.0
 11
260.658881
 21
29.865061
 31
0.0
  0
LINE
  5
2B6
100
AcDbEntity
  8
0
  6
CONTINUOUS
 62
     2
100
AcDbLine
 10
255.482397
 20
31.105646
 30
0.0
 11
260.658881
 21
29.373629
 31
0.0
  0
LINE
  5
2B7
100
AcDbEntity
  8
0
  6
CONTINUOUS
 62
     2
100
AcDbLine
 10
258.924994
 20
29.319222
 30
0.0
 11
251.660895
 21
29.319222
 31
0.0
  0
LINE
  5
2B8
100
AcDbEntity
  8
0
  6
CONTINUOUS
 62
     2
100
AcDbLine
 10
258.924994
 20
28.775192
 30
0.0
 11
251.660895
 21
28.775192
 31
0.0
  0
LINE
  5
2B9
100
AcDbEntity
  8
0
  6
CONTINUOUS
 62
     2
100
AcDbLine
 10
249.947272
 20
27.212784
 30
0.0
 11
260.63822
 21
27.212784
 31
0.0
  0
LINE
  5
2BA
100
AcDbEntity
  8
0
  6
CONTINUOUS
 62
     2
100
AcDbLine
 10
249.947272
 20
26.748817
 30
0.0
 11
260.63822
 21
26.748817
 31
0.0
  0
LINE
  5
2BB
100
AcDbEntity
  8
0
  6
CONTINUOUS
 62
     2
100
AcDbLine
 10
251.602667
 20
26.386307
 30
0.0
 11
250.582251
 21
24.198492
 31
0.0
  0
LINE
  5
2BC
100
AcDbEntity
  8
0
  6
CONTINUOUS
 62
     2
100
AcDbLine
 10
252.238867
 20
26.386309
 30
0.0
 11
251.21842
 21
24.198492
 31
0.0
  0
LINE
  5
2BD
100
AcDbEntity
  8
0
  6
CONTINUOUS
 62
     2
100
AcDbLine
 10
252.875067
 20
26.386309
 30
0.0
 11
251.85462
 21
24.198492
 31
0.0
  0
LINE
  5
2BE
100
AcDbEntity
  8
0
  6
CONTINUOUS
 62
     2
100
AcDbLine
 10
257.710822
 20
26.386333
 30
0.0
 11
258.731665
 21
24.198467
 31
0.0
  0
LINE
  5
2BF
100
AcDbEntity
  8
0
  6
CONTINUOUS
 62
     2
100
AcDbLine
 10
258.347418
 20
26.386284
 30
0.0
 11
259.367407
 21
24.198517
 31
0.0
  0
LINE
  5
2C0
100
AcDbEntity
  8
0
  6
CONTINUOUS
 62
     2
100
AcDbLine
 10
258.983984
 20
26.386263
 30
0.0
 11
260.003638
 21
24.198538
 31
0.0
  0
LINE
  5
2C1
100
AcDbEntity
  8
0
  6
CONTINUOUS
 62
     2
100
AcDbLine
 10
250.337073
 20
23.835983
 30
0.0
 11
260.248419
 21
23.835983
 31
0.0
  0
LINE
  5
2C2
100
AcDbEntity
  8
0
  6
CONTINUOUS
 62
     2
100
AcDbLine
 10
250.102057
 20
23.331985
 30
0.0
 11
260.483435
 21
23.331985
 31
0.0
  0
LINE
  5
2C3
100
AcDbEntity
  8
0
  6
CONTINUOUS
 62
     2
100
AcDbLine
 10
263.679572
 20
31.08003
 30
0.0
 11
263.679572
 21
31.470392
 31
0.0
  0
LINE
  5
2C4
100
AcDbEntity
  8
0
  6
CONTINUOUS
 62
     2
100
AcDbLine
 10
264.263251
 20
31.08003
 30
0.0
 11
264.263251
 21
31.470392
 31
0.0
  0
LINE
  5
2C5
100
AcDbEntity
  8
0
  6
CONTINUOUS
 62
     2
100
AcDbLine
 10
264.84696
 20
31.08003
 30
0.0
 11
264.84696
 21
31.470392
 31
0.0
  0
LINE
  5
2C6
100
AcDbEntity
  8
0
  6
CONTINUOUS
 62
     2
100
AcDbLine
 10
261.841376
 20
30.680031
 30
0.0
 11
266.417578
 21
30.680031
 31
0.0
  0
LINE
  5
2C7
100
AcDbEntity
  8
0
  6
CONTINUOUS
 62
     2
100
AcDbLine
 10
261.841376
 20
30.176033
 30
0.0
 11
266.064764
 21
30.176033
 31
0.0
  0
LINE
  5
2C8
100
AcDbEntity
  8
0
  6
CONTINUOUS
 62
     2
100
AcDbLine
 10
264.475836
 20
29.848335
 30
0.0
 11
261.670752
 21
25.840944
 31
0.0
  0
LINE
  5
2C9
100
AcDbEntity
  8
0
  6
CONTINUOUS
 62
     2
100
AcDbLine
 10
265.131323
 20
29.84836
 30
0.0
 11
261.670782
 21
24.905703
 31
0.0
  0
LINE
  5
2CA
100
AcDbEntity
  8
0
  6
CONTINUOUS
 62
     2
100
AcDbLine
 10
265.747595
 20
29.848354
 30
0.0
 11
261.670782
 21
24.025146
 31
0.0
  0
LINE
  5
2CB
100
AcDbEntity
  8
0
  6
CONTINUOUS
 62
     2
100
AcDbLine
 10
264.785986
 20
27.777382
 30
0.0
 11
266.557349
 21
26.536928
 31
0.0
  0
LINE
  5
2CC
100
AcDbEntity
  8
0
  6
CONTINUOUS
 62
     2
100
AcDbLine
 10
264.496893
 20
27.364399
 30
0.0
 11
266.557318
 21
25.921598
 31
0.0
  0
LINE
  5
2CD
100
AcDbEntity
  8
0
  6
CONTINUOUS
 62
     2
100
AcDbLine
 10
264.189001
 20
26.924625
 30
0.0
 11
266.557318
 21
25.2663
 31
0.0
  0
LINE
  5
2CE
100
AcDbEntity
  8
0
  6
CONTINUOUS
 62
     2
100
AcDbLine
 10
263.679572
 20
26.494446
 30
0.0
 11
263.679572
 21
23.4
 31
0.0
  0
LINE
  5
2CF
100
AcDbEntity
  8
0
  6
CONTINUOUS
 62
     2
100
AcDbLine
 10
264.263251
 20
26.472631
 30
0.0
 11
264.263251
 21
23.4
 31
0.0
  0
LINE
  5
2D0
100
AcDbEntity
  8
0
  6
CONTINUOUS
 62
     2
100
AcDbLine
 10
264.84696
 20
26.063913
 30
0.0
 11
264.84696
 21
23.4
 31
0.0
  0
LINE
  5
2D1
100
AcDbEntity
  8
0
  6
CONTINUOUS
 62
     2
100
AcDbLine
 10
269.122748
 20
24.235983
 30
0.0
 11
269.122748
 21
31.470392
 31
0.0
  0
LINE
  5
2D2
100
AcDbEntity
  8
0
  6
CONTINUOUS
 62
     2
100
AcDbLine
 10
269.706427
 20
24.235983
 30
0.0
 11
269.706427
 21
31.470392
 31
0.0
  0
LINE
  5
2D3
100
AcDbEntity
  8
0
  6
CONTINUOUS
 62
     2
100
AcDbLine
 10
270.290137
 20
24.235983
 30
0.0
 11
270.290137
 21
31.470392
 31
0.0
  0
LINE
  5
2D4
100
AcDbEntity
  8
0
  6
CONTINUOUS
 62
     2
100
AcDbLine
 10
267.284979
 20
29.268806
 30
0.0
 11
268.722754
 21
29.268806
 31
0.0
  0
LINE
  5
2D5
100
AcDbEntity
  8
0
  6
CONTINUOUS
 62
     2
100
AcDbLine
 10
267.284979
 20
28.764839
 30
0.0
 11
268.722754
 21
28.764839
 31
0.0
  0
LINE
  5
2D6
100
AcDbEntity
  8
0
  6
CONTINUOUS
 62
     2
100
AcDbLine
 10
270.690131
 20
29.268806
 30
0.0
 11
272.129553
 21
29.268806
 31
0.0
  0
LINE
  5
2D7
100
AcDbEntity
  8
0
  6
CONTINUOUS
 62
     2
100
AcDbLine
 10
270.690131
 20
28.724838
 30
0.0
 11
272.129553
 21
28.724838
 31
0.0
  0
LINE
  5
2D8
100
AcDbEntity
  8
0
  6
CONTINUOUS
 62
     2
100
AcDbLine
 10
266.478186
 20
23.835983
 30
0.0
 11
272.331335
 21
23.835983
 31
0.0
  0
LINE
  5
2D9
100
AcDbEntity
  8
0
  6
CONTINUOUS
 62
     2
100
AcDbLine
 10
266.478186
 20
23.331985
 30
0.0
 11
272.331335
 21
23.331985
 31
0.0
  0
LINE
  5
2DA
100
AcDbEntity
  8
0
  6
CONTINUOUS
 62
     2
100
AcDbLine
 10
220.895117
 20
26.870728
 30
0.0
 11
225.156805
 21
26.870728
 31
0.0
  0
TEXT
  5
2DB
100
AcDbEntity
  8
0
  6
CONTINUOUS
 62
     2
100
AcDbText
 10
127.28
 20
34.4
 30
0.0
 40
10.0
  1
又場
 41
0.84
  7
EXCADSTD
 72
     5
 11
145.612
 21
34.4
 31
0.0
100
AcDbText
  0
TEXT
  5
2DC
100
AcDbEntity
  8
0
  6
CONTINUOUS
 62
     2
100
AcDbText
 10
340.0
 20
528.9
 30
0.0
 40
9.7
  1
ナベ
 41
0.753402
  7
EXCADSTD
 72
     5
 11
355.94884
 21
528.9
 31
0.0
100
AcDbText
  0
TEXT
  5
2DD
100
AcDbEntity
  8
0
  6
CONTINUOUS
 62
     2
100
AcDbText
 10
258.0
 20
553.5
 30
0.0
 40
10.5
  1
合成樹脂
 41
0.704
  7
EXCADSTD
 72
     5
 11
293.2
 21
553.5
 31
0.0
100
AcDbText
  0
TEXT
  5
2DE
100
AcDbEntity
  8
0
  6
CONTINUOUS
 62
     2
100
AcDbText
 10
340.0
 20
553.9
 30
0.0
 40
9.7
  1
クロムメッキ
 41
0.707217
  7
EXCADSTD
 72
     5
 11
389.0
 21
553.9
 31
0.0
100
AcDbText
  0
TEXT
  5
2DF
100
AcDbEntity
  8
0
  6
CONTINUOUS
 62
     2
100
AcDbText
 10
101.28
 20
34.4
 30
0.0
 40
10.0
  1
又場
 41
0.84
  7
EXCADSTD
 72
     5
 11
119.612
 21
34.4
 31
0.0
100
AcDbText
  0
TEXT
  5
2E0
100
AcDbEntity
  8
0
  6
CONTINUOUS
 62
     6
100
AcDbText
 10
36.9
 20
19.3
 30
0.0
 40
5.0
  1
１７
 41
0.756
  7
EXCADSTD
 72
     5
 11
45.1494
 21
19.3
 31
0.0
100
AcDbText
  0
TEXT
  5
2E1
100
AcDbEntity
  8
0
  6
CONTINUOUS
 62
     6
100
AcDbText
 10
48.9
 20
19.3
 30
0.0
 40
5.0
  1
６
 41
0.84
  7
EXCADSTD
 72
     5
 11
52.9
 21
19.3
 31
0.0
100
AcDbText
  0
TEXT
  5
2E2
100
AcDbEntity
  8
0
  6
CONTINUOUS
 62
     6
100
AcDbText
 10
56.9
 20
19.3
 30
0.0
 40
5.0
  1
１６
 41
0.756
  7
EXCADSTD
 72
     5
 11
65.1494
 21
19.3
 31
0.0
100
AcDbText
  0
TEXT
  5
2E3
100
AcDbEntity
  8
0
  6
CONTINUOUS
 62
     2
100
AcDbText
 10
40.6
 20
34.4
 30
0.0
 40
10.0
  1
間瀬
 41
0.84
  7
EXCADSTD
 72
     5
 11
58.932
 21
34.4
 31
0.0
100
AcDbText
  0
TEXT
  5
2E4
100
AcDbEntity
  8
0
  6
CONTINUOUS
 62
     7
100
AcDbText
 10
304.0
 20
20.0
 30
0.0
 40
14.0
  1
９５０７００
 41
0.8
  7
EXCADSTD
 72
     5
 11
384.0
 21
20.0
 31
0.0
100
AcDbText
  0
LINE
  5
2E5
100
AcDbEntity
  8
1
  6
EXLTYPE3
 62
     1
100
AcDbLine
 10
86.1
 20
385.9
 30
0.0
 11
227.4
 21
385.9
 31
0.0
  0
LINE
  5
2E6
100
AcDbEntity
  8
1
  6
EXLTYPE3
 62
     1
100
AcDbLine
 10
139.8
 20
289.9
 30
0.0
 11
174.749874
 21
289.9
 31
0.0
  0
LINE
  5
2E7
100
AcDbEntity
  8
1
  6
CONTINUOUS
 62
     2
100
AcDbLine
 10
161.498455
 20
442.224506
 30
0.0
 11
163.915347
 21
442.736082
 31
0.0
  0
LINE
  5
2E8
100
AcDbEntity
  8
1
  6
CONTINUOUS
 62
     2
100
AcDbLine
 10
160.906928
 20
440.5993
 30
0.0
 11
164.42225
 21
441.343376
 31
0.0
  0
LINE
  5
2E9
100
AcDbEntity
  8
1
  6
CONTINUOUS
 62
     2
100
AcDbLine
 10
160.8
 20
439.076667
 30
0.0
 11
164.8
 21
439.923333
 31
0.0
  0
LINE
  5
2EA
100
AcDbEntity
  8
1
  6
CONTINUOUS
 62
     2
100
AcDbLine
 10
160.8
 20
437.576667
 30
0.0
 11
164.8
 21
438.423333
 31
0.0
  0
LINE
  5
2EB
100
AcDbEntity
  8
1
  6
CONTINUOUS
 62
     2
100
AcDbLine
 10
160.8
 20
436.076667
 30
0.0
 11
164.8
 21
436.923333
 31
0.0
  0
LINE
  5
2EC
100
AcDbEntity
  8
1
  6
CONTINUOUS
 62
     2
100
AcDbLine
 10
160.8
 20
434.576667
 30
0.0
 11
164.8
 21
435.423333
 31
0.0
  0
LINE
  5
2ED
100
AcDbEntity
  8
1
  6
CONTINUOUS
 62
     2
100
AcDbLine
 10
160.8
 20
433.076667
 30
0.0
 11
164.8
 21
433.923333
 31
0.0
  0
LINE
  5
2EE
100
AcDbEntity
  8
1
  6
CONTINUOUS
 62
     2
100
AcDbLine
 10
160.8
 20
431.576667
 30
0.0
 11
164.8
 21
432.423333
 31
0.0
  0
LINE
  5
2EF
100
AcDbEntity
  8
1
  6
CONTINUOUS
 62
     2
100
AcDbLine
 10
160.8
 20
430.076667
 30
0.0
 11
164.8
 21
430.923333
 31
0.0
  0
LINE
  5
2F0
100
AcDbEntity
  8
1
  6
CONTINUOUS
 62
     2
100
AcDbLine
 10
160.8
 20
428.576667
 30
0.0
 11
164.8
 21
429.423333
 31
0.0
  0
LINE
  5
2F1
100
AcDbEntity
  8
1
  6
CONTINUOUS
 62
     2
100
AcDbLine
 10
160.8
 20
427.076667
 30
0.0
 11
164.8
 21
427.923333
 31
0.0
  0
LINE
  5
2F2
100
AcDbEntity
  8
1
  6
CONTINUOUS
 62
     2
100
AcDbLine
 10
160.8
 20
425.576667
 30
0.0
 11
164.8
 21
426.423333
 31
0.0
  0
LINE
  5
2F3
100
AcDbEntity
  8
1
  6
CONTINUOUS
 62
     2
100
AcDbLine
 10
160.8
 20
424.076667
 30
0.0
 11
164.8
 21
424.923333
 31
0.0
  0
LINE
  5
2F4
100
AcDbEntity
  8
1
  6
CONTINUOUS
 62
     2
100
AcDbLine
 10
160.8
 20
422.576667
 30
0.0
 11
164.8
 21
423.423333
 31
0.0
  0
LINE
  5
2F5
100
AcDbEntity
  8
1
  6
CONTINUOUS
 62
     2
100
AcDbLine
 10
161.45
 20
420.9
 30
0.0
 11
161.45
 21
440.190905
 31
0.0
  0
LINE
  5
2F6
100
AcDbEntity
  8
1
  6
CONTINUOUS
 62
     2
100
AcDbLine
 10
164.15
 20
420.9
 30
0.0
 11
164.15
 21
440.190905
 31
0.0
  0
LINE
  5
2F7
100
AcDbEntity
  8
1
  6
CONTINUOUS
 62
     2
100
AcDbLine
 10
161.45
 20
440.190905
 30
0.0
 11
162.8
 21
443.9
 31
0.0
  0
LINE
  5
2F8
100
AcDbEntity
  8
1
  6
CONTINUOUS
 62
     2
100
AcDbLine
 10
164.15
 20
440.190905
 30
0.0
 11
162.8
 21
443.9
 31
0.0
  0
LINE
  5
2F9
100
AcDbEntity
  8
1
  6
CONTINUOUS
 62
     2
100
AcDbLine
 10
149.498455
 20
442.224506
 30
0.0
 11
151.915347
 21
442.736082
 31
0.0
  0
LINE
  5
2FA
100
AcDbEntity
  8
1
  6
CONTINUOUS
 62
     2
100
AcDbLine
 10
148.906928
 20
440.5993
 30
0.0
 11
152.42225
 21
441.343376
 31
0.0
  0
LINE
  5
2FB
100
AcDbEntity
  8
1
  6
CONTINUOUS
 62
     2
100
AcDbLine
 10
148.8
 20
439.076667
 30
0.0
 11
152.8
 21
439.923333
 31
0.0
  0
LINE
  5
2FC
100
AcDbEntity
  8
1
  6
CONTINUOUS
 62
     2
100
AcDbLine
 10
148.8
 20
437.576667
 30
0.0
 11
152.8
 21
438.423333
 31
0.0
  0
LINE
  5
2FD
100
AcDbEntity
  8
1
  6
CONTINUOUS
 62
     2
100
AcDbLine
 10
148.8
 20
436.076667
 30
0.0
 11
152.8
 21
436.923333
 31
0.0
  0
LINE
  5
2FE
100
AcDbEntity
  8
1
  6
CONTINUOUS
 62
     2
100
AcDbLine
 10
148.8
 20
434.576667
 30
0.0
 11
152.8
 21
435.423333
 31
0.0
  0
LINE
  5
2FF
100
AcDbEntity
  8
1
  6
CONTINUOUS
 62
     2
100
AcDbLine
 10
148.8
 20
433.076667
 30
0.0
 11
152.8
 21
433.923333
 31
0.0
  0
LINE
  5
300
100
AcDbEntity
  8
1
  6
CONTINUOUS
 62
     2
100
AcDbLine
 10
148.8
 20
431.576667
 30
0.0
 11
152.8
 21
432.423333
 31
0.0
  0
LINE
  5
301
100
AcDbEntity
  8
1
  6
CONTINUOUS
 62
     2
100
AcDbLine
 10
148.8
 20
430.076667
 30
0.0
 11
152.8
 21
430.923333
 31
0.0
  0
LINE
  5
302
100
AcDbEntity
  8
1
  6
CONTINUOUS
 62
     2
100
AcDbLine
 10
148.8
 20
428.576667
 30
0.0
 11
152.8
 21
429.423333
 31
0.0
  0
LINE
  5
303
100
AcDbEntity
  8
1
  6
CONTINUOUS
 62
     2
100
AcDbLine
 10
148.8
 20
427.076667
 30
0.0
 11
152.8
 21
427.923333
 31
0.0
  0
LINE
  5
304
100
AcDbEntity
  8
1
  6
CONTINUOUS
 62
     2
100
AcDbLine
 10
148.8
 20
425.576667
 30
0.0
 11
152.8
 21
426.423333
 31
0.0
  0
LINE
  5
305
100
AcDbEntity
  8
1
  6
CONTINUOUS
 62
     2
100
AcDbLine
 10
148.8
 20
424.076667
 30
0.0
 11
152.8
 21
424.923333
 31
0.0
  0
LINE
  5
306
100
AcDbEntity
  8
1
  6
CONTINUOUS
 62
     2
100
AcDbLine
 10
148.8
 20
422.576667
 30
0.0
 11
152.8
 21
423.423333
 31
0.0
  0
LINE
  5
307
100
AcDbEntity
  8
1
  6
CONTINUOUS
 62
     2
100
AcDbLine
 10
149.45
 20
420.9
 30
0.0
 11
149.45
 21
440.190905
 31
0.0
  0
LINE
  5
308
100
AcDbEntity
  8
1
  6
CONTINUOUS
 62
     2
100
AcDbLine
 10
152.15
 20
420.9
 30
0.0
 11
152.15
 21
440.190905
 31
0.0
  0
LINE
  5
309
100
AcDbEntity
  8
1
  6
CONTINUOUS
 62
     2
100
AcDbLine
 10
149.45
 20
440.190905
 30
0.0
 11
150.8
 21
443.9
 31
0.0
  0
LINE
  5
30A
100
AcDbEntity
  8
1
  6
CONTINUOUS
 62
     2
100
AcDbLine
 10
152.15
 20
440.190905
 30
0.0
 11
150.8
 21
443.9
 31
0.0
  0
LINE
  5
30B
100
AcDbEntity
  8
1
  6
CONTINUOUS
 62
     2
100
AcDbLine
 10
141.8
 20
304.9
 30
0.0
 11
171.8
 21
304.9
 31
0.0
  0
LINE
  5
30C
100
AcDbEntity
  8
1
  6
CONTINUOUS
 62
     2
100
AcDbLine
 10
141.8
 20
274.9
 30
0.0
 11
171.8
 21
274.9
 31
0.0
  0
LINE
  5
30D
100
AcDbEntity
  8
1
  6
CONTINUOUS
 62
     2
100
AcDbLine
 10
141.8
 20
420.9
 30
0.0
 11
171.8
 21
420.9
 31
0.0
  0
LINE
  5
30E
100
AcDbEntity
  8
1
  6
CONTINUOUS
 62
     2
100
AcDbLine
 10
160.8
 20
421.076667
 30
0.0
 11
164.8
 21
421.923333
 31
0.0
  0
LINE
  5
30F
100
AcDbEntity
  8
1
  6
CONTINUOUS
 62
     2
100
AcDbLine
 10
148.8
 20
421.076667
 30
0.0
 11
152.8
 21
421.923333
 31
0.0
  0
ARC
  5
310
100
AcDbEntity
  8
1
  6
CONTINUOUS
 62
     2
100
AcDbCircle
 10
221.8
 20
385.9
 30
0.0
 40
3.5
100
AcDbArc
 50
270.0
 51
90.0
  0
ARC
  5
311
100
AcDbEntity
  8
1
  6
CONTINUOUS
 62
     2
100
AcDbCircle
 10
91.8
 20
385.9
 30
0.0
 40
3.5
100
AcDbArc
 50
90.0
 51
270.0
  0
LINE
  5
312
100
AcDbEntity
  8
1
  6
CONTINUOUS
 62
     2
100
AcDbLine
 10
91.8
 20
389.4
 30
0.0
 11
145.925
 21
389.4
 31
0.0
  0
LINE
  5
313
100
AcDbEntity
  8
1
  6
CONTINUOUS
 62
     2
100
AcDbLine
 10
91.8
 20
382.4
 30
0.0
 11
147.675
 21
382.4
 31
0.0
  0
LINE
  5
314
100
AcDbEntity
  8
1
  6
CONTINUOUS
 62
     2
100
AcDbLine
 10
221.8
 20
389.4
 30
0.0
 11
167.675
 21
389.4
 31
0.0
  0
LINE
  5
315
100
AcDbEntity
  8
1
  6
CONTINUOUS
 62
     2
100
AcDbLine
 10
221.8
 20
382.4
 30
0.0
 11
165.925
 21
382.4
 31
0.0
  0
LINE
  5
316
100
AcDbEntity
  8
1
  6
CONTINUOUS
 62
     2
100
AcDbLine
 10
141.8
 20
420.9
 30
0.0
 11
141.8
 21
405.9
 31
0.0
  0
LINE
  5
317
100
AcDbEntity
  8
1
  6
CONTINUOUS
 62
     2
100
AcDbLine
 10
171.8
 20
420.9
 30
0.0
 11
171.8
 21
405.9
 31
0.0
  0
LINE
  5
318
100
AcDbEntity
  8
1
  6
CONTINUOUS
 62
     2
100
AcDbLine
 10
141.8
 20
405.9
 30
0.0
 11
171.8
 21
405.9
 31
0.0
  0
LINE
  5
319
100
AcDbEntity
  8
1
  6
CONTINUOUS
 62
     2
100
AcDbLine
 10
149.690388
 20
375.9
 30
0.0
 11
163.909612
 21
375.9
 31
0.0
  0
LINE
  5
31A
100
AcDbEntity
  8
1
  6
CONTINUOUS
 62
     2
100
AcDbLine
 10
141.8
 20
405.9
 30
0.0
 11
149.205317
 21
376.278732
 31
0.0
  0
LINE
  5
31B
100
AcDbEntity
  8
1
  6
CONTINUOUS
 62
     2
100
AcDbLine
 10
171.8
 20
405.9
 30
0.0
 11
164.394683
 21
376.278732
 31
0.0
  0
ARC
  5
31C
100
AcDbEntity
  8
1
  6
CONTINUOUS
 62
     2
100
AcDbCircle
 10
149.690388
 20
376.4
 30
0.0
 40
0.5
100
AcDbArc
 50
194.036243
 51
270.0
  0
ARC
  5
31D
100
AcDbEntity
  8
1
  6
CONTINUOUS
 62
     2
100
AcDbCircle
 10
163.909612
 20
376.4
 30
0.0
 40
0.5
100
AcDbArc
 50
270.0
 51
345.963757
  0
LINE
  5
31E
100
AcDbEntity
  8
1
  6
CONTINUOUS
 62
     2
100
AcDbLine
 10
141.8
 20
304.9
 30
0.0
 11
147.447607
 21
299.35132
 31
0.0
  0
LINE
  5
31F
100
AcDbEntity
  8
1
  6
CONTINUOUS
 62
     2
100
AcDbLine
 10
141.8
 20
274.9
 30
0.0
 11
147.447607
 21
280.44868
 31
0.0
  0
ELLIPSE
  5
320
100
AcDbEntity
  8
1
  6
CONTINUOUS
 62
     2
100
AcDbEllipse
 10
146.8675
 20
289.9
 30
0.0
 11
0.0000000000000069
 21
-9.7321211119200122
 31
0.0
210
0.0
220
0.0
230
1.0
 40
0.249946
 41
0.2408023945136987
 42
2.900790259073446
  0
ELLIPSE
  5
321
100
AcDbEntity
  8
1
  6
CONTINUOUS
 62
     2
100
AcDbEllipse
 10
146.8
 20
289.217985
 30
0.0
 11
0.0000000000000026
 21
-3.6498567521199994
 31
0.0
210
0.0
220
0.0
230
1.0
 40
0.247332
 41
6.2290476868495537
 42
3.419002635416148
  0
LINE
  5
322
100
AcDbEntity
  8
1
  6
CONTINUOUS
 62
     2
100
AcDbLine
 10
171.8
 20
304.9
 30
0.0
 11
166.152393
 21
299.35132
 31
0.0
  0
LINE
  5
323
100
AcDbEntity
  8
1
  6
CONTINUOUS
 62
     2
100
AcDbLine
 10
171.8
 20
274.9
 30
0.0
 11
166.152393
 21
280.44868
 31
0.0
  0
ELLIPSE
  5
324
100
AcDbEntity
  8
1
  6
CONTINUOUS
 62
     2
100
AcDbEllipse
 10
166.8
 20
289.217985
 30
0.0
 11
0.0000000000000026
 21
-3.6498567521199994
 31
0.0
210
0.0
220
0.0
230
1.0
 40
0.247332
 41
2.8641826717634444
 42
0.0541376203278469
  0
ELLIPSE
  5
325
100
AcDbEntity
  8
1
  6
CONTINUOUS
 62
     2
100
AcDbEllipse
 10
166.7325
 20
289.9
 30
0.0
 11
0.0000000000000069
 21
-9.7321211119200122
 31
0.0
210
0.0
220
0.0
230
1.0
 40
0.249946
 41
3.3823950481061384
 42
6.0423829126632542
  0
ARC
  5
326
100
AcDbEntity
  8
1
  6
CONTINUOUS
 62
     2
100
AcDbCircle
 10
156.8
 20
224.9
 30
0.0
 40
68.5
100
AcDbArc
 50
98.168944
 51
81.831056
  0
ARC
  5
327
100
AcDbEntity
  8
1
  6
CONTINUOUS
 62
     2
100
AcDbCircle
 10
156.8
 20
224.9
 30
0.0
 40
61.5
100
AcDbArc
 50
99.242978
 51
80.757022
  0
ARC
  5
328
100
AcDbEntity
  8
1
  6
EXLTYPE3
 62
     1
100
AcDbCircle
 10
156.8
 20
224.9
 30
0.0
 40
65.0
100
AcDbArc
 50
97.431408
 51
82.732457
  0
LINE
  5
329
100
AcDbEntity
  8
1
  6
CONTINUOUS
 62
     2
100
AcDbLine
 10
141.8
 20
304.9
 30
0.0
 11
141.8
 21
291.737489
 31
0.0
  0
LINE
  5
32A
100
AcDbEntity
  8
1
  6
CONTINUOUS
 62
     2
100
AcDbLine
 10
141.8
 20
284.542686
 30
0.0
 11
141.8
 21
274.9
 31
0.0
  0
LINE
  5
32B
100
AcDbEntity
  8
1
  6
CONTINUOUS
 62
     2
100
AcDbLine
 10
171.8
 20
304.9
 30
0.0
 11
171.8
 21
291.737489
 31
0.0
  0
LINE
  5
32C
100
AcDbEntity
  8
1
  6
CONTINUOUS
 62
     2
100
AcDbLine
 10
171.8
 20
284.542686
 30
0.0
 11
171.8
 21
274.9
 31
0.0
  0
LINE
  5
32D
100
AcDbEntity
  8
1
  6
EXLTYPE3
 62
     1
100
AcDbLine
 10
156.8
 20
372.9
 30
0.0
 11
156.8
 21
424.9
 31
0.0
  0
LINE
  5
32E
100
AcDbEntity
  8
1
  6
EXLTYPE3
 62
     1
100
AcDbLine
 10
156.8
 20
269.3
 30
0.0
 11
156.8
 21
307.9
 31
0.0
  0
LINE
  5
32F
100
AcDbEntity
  8
1
  6
CONTINUOUS
 62
     2
100
AcDbLine
 10
361.124506
 20
291.201545
 30
0.0
 11
361.636082
 21
288.784653
 31
0.0
  0
LINE
  5
330
100
AcDbEntity
  8
1
  6
CONTINUOUS
 62
     2
100
AcDbLine
 10
359.4993
 20
291.793072
 30
0.0
 11
360.243376
 21
288.27775
 31
0.0
  0
LINE
  5
331
100
AcDbEntity
  8
1
  6
CONTINUOUS
 62
     2
100
AcDbLine
 10
357.976667
 20
291.9
 30
0.0
 11
358.823333
 21
287.9
 31
0.0
  0
LINE
  5
332
100
AcDbEntity
  8
1
  6
CONTINUOUS
 62
     2
100
AcDbLine
 10
356.476667
 20
291.9
 30
0.0
 11
357.323333
 21
287.9
 31
0.0
  0
LINE
  5
333
100
AcDbEntity
  8
1
  6
CONTINUOUS
 62
     2
100
AcDbLine
 10
354.976667
 20
291.9
 30
0.0
 11
355.823333
 21
287.9
 31
0.0
  0
LINE
  5
334
100
AcDbEntity
  8
1
  6
CONTINUOUS
 62
     2
100
AcDbLine
 10
353.476667
 20
291.9
 30
0.0
 11
354.323333
 21
287.9
 31
0.0
  0
LINE
  5
335
100
AcDbEntity
  8
1
  6
CONTINUOUS
 62
     2
100
AcDbLine
 10
351.976667
 20
291.9
 30
0.0
 11
352.823333
 21
287.9
 31
0.0
  0
LINE
  5
336
100
AcDbEntity
  8
1
  6
CONTINUOUS
 62
     2
100
AcDbLine
 10
350.476667
 20
291.9
 30
0.0
 11
351.323333
 21
287.9
 31
0.0
  0
LINE
  5
337
100
AcDbEntity
  8
1
  6
CONTINUOUS
 62
     2
100
AcDbLine
 10
348.976667
 20
291.9
 30
0.0
 11
349.823333
 21
287.9
 31
0.0
  0
LINE
  5
338
100
AcDbEntity
  8
1
  6
CONTINUOUS
 62
     2
100
AcDbLine
 10
347.476667
 20
291.9
 30
0.0
 11
348.323333
 21
287.9
 31
0.0
  0
LINE
  5
339
100
AcDbEntity
  8
1
  6
CONTINUOUS
 62
     2
100
AcDbLine
 10
345.976667
 20
291.9
 30
0.0
 11
346.823333
 21
287.9
 31
0.0
  0
LINE
  5
33A
100
AcDbEntity
  8
1
  6
CONTINUOUS
 62
     2
100
AcDbLine
 10
344.476667
 20
291.9
 30
0.0
 11
345.323333
 21
287.9
 31
0.0
  0
LINE
  5
33B
100
AcDbEntity
  8
1
  6
CONTINUOUS
 62
     2
100
AcDbLine
 10
342.976667
 20
291.9
 30
0.0
 11
343.823333
 21
287.9
 31
0.0
  0
LINE
  5
33C
100
AcDbEntity
  8
1
  6
CONTINUOUS
 62
     2
100
AcDbLine
 10
341.476667
 20
291.9
 30
0.0
 11
342.323333
 21
287.9
 31
0.0
  0
LINE
  5
33D
100
AcDbEntity
  8
1
  6
CONTINUOUS
 62
     2
100
AcDbLine
 10
339.8
 20
291.25
 30
0.0
 11
359.090905
 21
291.25
 31
0.0
  0
LINE
  5
33E
100
AcDbEntity
  8
1
  6
CONTINUOUS
 62
     2
100
AcDbLine
 10
339.8
 20
288.55
 30
0.0
 11
359.090905
 21
288.55
 31
0.0
  0
LINE
  5
33F
100
AcDbEntity
  8
1
  6
CONTINUOUS
 62
     2
100
AcDbLine
 10
359.090905
 20
291.25
 30
0.0
 11
362.8
 21
289.9
 31
0.0
  0
LINE
  5
340
100
AcDbEntity
  8
1
  6
CONTINUOUS
 62
     2
100
AcDbLine
 10
359.090905
 20
288.55
 30
0.0
 11
362.8
 21
289.9
 31
0.0
  0
LINE
  5
341
100
AcDbEntity
  8
1
  6
CONTINUOUS
 62
     2
100
AcDbLine
 10
339.8
 20
304.9
 30
0.0
 11
339.8
 21
274.9
 31
0.0
  0
LINE
  5
342
100
AcDbEntity
  8
1
  6
CONTINUOUS
 62
     2
100
AcDbLine
 10
339.976667
 20
291.9
 30
0.0
 11
340.823333
 21
287.9
 31
0.0
  0
LINE
  5
343
100
AcDbEntity
  8
1
  6
CONTINUOUS
 62
     2
100
AcDbLine
 10
324.8
 20
304.9
 30
0.0
 11
339.8
 21
304.9
 31
0.0
  0
LINE
  5
344
100
AcDbEntity
  8
1
  6
CONTINUOUS
 62
     2
100
AcDbLine
 10
324.8
 20
274.9
 30
0.0
 11
339.8
 21
274.9
 31
0.0
  0
LINE
  5
345
100
AcDbEntity
  8
1
  6
CONTINUOUS
 62
     2
100
AcDbLine
 10
301.3
 20
289.9
 30
0.0
 11
301.3
 21
159.9
 31
0.0
  0
LINE
  5
346
100
AcDbEntity
  8
1
  6
CONTINUOUS
 62
     2
100
AcDbLine
 10
308.3
 20
289.9
 30
0.0
 11
308.3
 21
159.9
 31
0.0
  0
ARC
  5
347
100
AcDbEntity
  8
1
  6
CONTINUOUS
 62
     2
100
AcDbCircle
 10
304.8
 20
159.9
 30
0.0
 40
3.5
100
AcDbArc
 50
180.0
 51
0.0
  0
ARC
  5
348
100
AcDbEntity
  8
1
  6
CONTINUOUS
 62
     2
100
AcDbCircle
 10
304.8
 20
289.9
 30
0.0
 40
3.5
100
AcDbArc
 50
0.0
 51
180.0
  0
ARC
  5
349
100
AcDbEntity
  8
1
  6
CONTINUOUS
 62
     2
100
AcDbCircle
 10
304.8
 20
289.9
 30
0.0
 40
3.75
100
AcDbArc
 50
338.96053
 51
201.03947
  0
LINE
  5
34A
100
AcDbEntity
  8
1
  6
CONTINUOUS
 62
     2
100
AcDbLine
 10
324.8
 20
304.9
 30
0.0
 11
324.8
 21
274.9
 31
0.0
  0
ARC
  5
34B
100
AcDbEntity
  8
1
  6
CONTINUOUS
 62
     2
100
AcDbCircle
 10
304.8
 20
289.9
 30
0.0
 40
10.0
100
AcDbArc
 50
103.291719
 51
249.512685
  0
LINE
  5
34C
100
AcDbEntity
  8
1
  6
CONTINUOUS
 62
     2
100
AcDbLine
 10
324.8
 20
304.9
 30
0.0
 11
302.500909
 21
299.632121
 31
0.0
  0
LINE
  5
34D
100
AcDbEntity
  8
1
  6
CONTINUOUS
 62
     2
100
AcDbLine
 10
324.8
 20
274.9
 30
0.0
 11
308.3
 21
278.797917
 31
0.0
  0
LINE
  5
34E
100
AcDbEntity
  8
1
  6
CONTINUOUS
 62
     6
100
AcDbLine
 10
358.6
 20
316.0
 30
0.0
 11
383.58
 21
316.0
 31
0.0
  0
LEADER
  5
34F
100
AcDbEntity
  8
1
  6
CONTINUOUS
 62
     6
100
AcDbLeader
  3
STANDARD
 73
     3
 74
     1
 75
     0
 40
0.0
 76
     2
 10
347.476667
 20
291.9
 30
0.0
 10
358.6
 20
316.0
 30
0.0
 77
     6
1001
ACAD
1000
DSTYLE
1002
{
1070
    41
1040
7.0
1070
     5
1000
_EX_NORM
1070
     6
1000
_EX_NORM
1070
     7
1000
_EX_NORM
1070
   341
1005
29
1002
}
  0
LINE
  5
350
100
AcDbEntity
  8
1
  6
EXLTYPE3
 62
     1
100
AcDbLine
 10
291.8
 20
289.9
 30
0.0
 11
364.8
 21
289.9
 31
0.0
  0
LINE
  5
351
100
AcDbEntity
  8
1
  6
EXLTYPE3
 62
     1
100
AcDbLine
 10
304.8
 20
153.4
 30
0.0
 11
304.8
 21
295.0
 31
0.0
  0
LINE
  5
352
100
AcDbEntity
  8
1
  6
EXLTYPE3
 62
     1
100
AcDbLine
 10
162.8
 20
417.9
 30
0.0
 11
162.8
 21
443.9
 31
0.0
  0
LINE
  5
353
100
AcDbEntity
  8
1
  6
EXLTYPE3
 62
     1
100
AcDbLine
 10
150.8
 20
417.9
 30
0.0
 11
150.8
 21
443.9
 31
0.0
  0
LINE
  5
354
100
AcDbEntity
  8
2
  6
CONTINUOUS
 62
     3
100
AcDbLine
 10
294.8
 20
293.9
 30
0.0
 11
294.8
 21
341.0
 31
0.0
  0
CIRCLE
  5
355
100
AcDbEntity
  8
LAY-4
  6
CONTINUOUS
 62
     6
100
AcDbCircle
 10
224.8
 20
318.0
 30
0.0
 40
9.0
  0
TEXT
  5
356
100
AcDbEntity
  8
LAY-4
  6
CONTINUOUS
 62
     2
100
AcDbText
 10
218.436039
 20
311.636039
 30
0.0
 40
12.727922
  1
２
 41
0.84
  7
EXCADSTD
 72
     5
 11
228.618377
 21
311.636039
 31
0.0
100
AcDbText
  0
CIRCLE
  5
357
100
AcDbEntity
  8
LAY-4
  6
CONTINUOUS
 62
     6
100
AcDbCircle
 10
198.8
 20
318.0
 30
0.0
 40
9.0
  0
TEXT
  5
358
100
AcDbEntity
  8
LAY-4
  6
CONTINUOUS
 62
     2
100
AcDbText
 10
192.436039
 20
311.636039
 30
0.0
 40
12.727922
  1
１
 41
0.84
  7
EXCADSTD
 72
     5
 11
202.618377
 21
311.636039
 31
0.0
100
AcDbText
  0
TEXT
  5
359
100
AcDbEntity
  8
LAY-4
  6
CONTINUOUS
 62
     2
100
AcDbText
 10
359.636039
 20
242.836039
 30
0.0
 40
12.727922
  1
３
 41
0.84
  7
EXCADSTD
 72
     5
 11
369.818377
 21
242.836039
 31
0.0
100
AcDbText
  0
CIRCLE
  5
35A
100
AcDbEntity
  8
LAY-4
  6
CONTINUOUS
 62
     6
100
AcDbCircle
 10
366.0
 20
249.2
 30
0.0
 40
9.0
  0
CIRCLE
  5
35B
100
AcDbEntity
  8
LAY-4
  6
CONTINUOUS
 62
     6
100
AcDbCircle
 10
340.0
 20
249.2
 30
0.0
 40
9.0
  0
TEXT
  5
35C
100
AcDbEntity
  8
LAY-4
  6
CONTINUOUS
 62
     2
100
AcDbText
 10
333.636039
 20
242.836039
 30
0.0
 40
12.727922
  1
４
 41
0.84
  7
EXCADSTD
 72
     5
 11
343.818377
 21
242.836039
 31
0.0
100
AcDbText
  0
ENDSEC
  0
SECTION
  2
OBJECTS
  0
DICTIONARY
  5
19
100
AcDbDictionary
  3
ACAD_GROUP
350
1A
  3
ACAD_MLINESTYLE
350
1B
  0
DICTIONARY
  5
1A
102
{ACAD_REACTORS
330
19
102
}
100
AcDbDictionary
  0
DICTIONARY
  5
1B
102
{ACAD_REACTORS
330
19
102
}
100
AcDbDictionary
  3
STANDARD
350
1C
  0
MLINESTYLE
  5
1C
102
{ACAD_REACTORS
330
1B
102
}
100
AcDbMlineStyle
  2
Standard
 70
     0
  3

 62
     0
 51
90.0
 52
90.0
 71
     2
 49
0.5
 62
   256
  6
ByLayer
 49
-0.5
 62
   256
  6
ByLayer
  0
ENDSEC
  0
EOF
