  0
SECTION
  2
HEADER
  9
$ACADVER
  1
AC1014
  9
$ACADMAINTVER
 70
     0
  9
$DWGCODEPAGE
  3
ANSI_932
  9
$INSBASE
 10
0.0
 20
0.0
 30
0.0
  9
$EXTMIN
 10
18.0
 20
8.5
 30
0.0
  9
$EXTMAX
 10
200.0
 20
288.5
 30
0.0
  9
$LIMMIN
 10
0.0
 20
0.0
  9
$LIMMAX
 10
210.0
 20
297.0
  9
$ORTHOMODE
 70
     0
  9
$REGENMODE
 70
     1
  9
$FILLMODE
 70
     1
  9
$QTEXTMODE
 70
     0
  9
$MIRRTEXT
 70
     1
  9
$DRAGMODE
 70
     2
  9
$LTSCALE
 40
1.0
  9
$OSMODE
 70
     0
  9
$ATTMODE
 70
     1
  9
$TEXTSIZE
 40
0.2
  9
$TRACEWID
 40
0.05
  9
$TEXTSTYLE
  7
STANDARD
  9
$CLAYER
  8
_
  9
$CELTYPE
  6
CONTINUOUS
  9
$CECOLOR
 62
   256
  9
$CELTSCALE
 40
1.0
  9
$DELOBJ
 70
     1
  9
$DISPSILH
 70
     0
  9
$DIMSCALE
 40
1.0
  9
$DIMASZ
 40
0.18
  9
$DIMEXO
 40
0.0625
  9
$DIMDLI
 40
0.38
  9
$DIMRND
 40
0.0
  9
$DIMDLE
 40
0.0
  9
$DIMEXE
 40
0.18
  9
$DIMTP
 40
0.0
  9
$DIMTM
 40
0.0
  9
$DIMTXT
 40
0.18
  9
$DIMCEN
 40
0.09
  9
$DIMTSZ
 40
0.0
  9
$DIMTOL
 70
     0
  9
$DIMLIM
 70
     0
  9
$DIMTIH
 70
     1
  9
$DIMTOH
 70
     1
  9
$DIMSE1
 70
     0
  9
$DIMSE2
 70
     0
  9
$DIMTAD
 70
     0
  9
$DIMZIN
 70
     0
  9
$DIMBLK
  1

  9
$DIMASO
 70
     1
  9
$DIMSHO
 70
     1
  9
$DIMPOST
  1

  9
$DIMAPOST
  1

  9
$DIMALT
 70
     0
  9
$DIMALTD
 70
     2
  9
$DIMALTF
 40
25.4
  9
$DIMLFAC
 40
1.0
  9
$DIMTOFL
 70
     0
  9
$DIMTVP
 40
0.0
  9
$DIMTIX
 70
     0
  9
$DIMSOXD
 70
     0
  9
$DIMSAH
 70
     0
  9
$DIMBLK1
  1

  9
$DIMBLK2
  1

  9
$DIMSTYLE
  2
STANDARD
  9
$DIMCLRD
 70
     0
  9
$DIMCLRE
 70
     0
  9
$DIMCLRT
 70
     0
  9
$DIMTFAC
 40
1.0
  9
$DIMGAP
 40
0.09
  9
$DIMJUST
 70
     0
  9
$DIMSD1
 70
     0
  9
$DIMSD2
 70
     0
  9
$DIMTOLJ
 70
     1
  9
$DIMTZIN
 70
     0
  9
$DIMALTZ
 70
     0
  9
$DIMALTTZ
 70
     0
  9
$DIMFIT
 70
     3
  9
$DIMUPT
 70
     0
  9
$DIMUNIT
 70
     2
  9
$DIMDEC
 70
     4
  9
$DIMTDEC
 70
     4
  9
$DIMALTU
 70
     2
  9
$DIMALTTD
 70
     2
  9
$DIMTXSTY
  7
STANDARD
  9
$DIMAUNIT
 70
     0
  9
$LUNITS
 70
     2
  9
$LUPREC
 70
     4
  9
$SKETCHINC
 40
0.1
  9
$FILLETRAD
 40
0.0
  9
$AUNITS
 70
     0
  9
$AUPREC
 70
     0
  9
$MENU
  1
acad
  9
$ELEVATION
 40
0.0
  9
$PELEVATION
 40
0.0
  9
$THICKNESS
 40
0.0
  9
$LIMCHECK
 70
     0
  9
$BLIPMODE
 70
     1
  9
$CHAMFERA
 40
0.0
  9
$CHAMFERB
 40
0.0
  9
$CHAMFERC
 40
0.0
  9
$CHAMFERD
 40
0.0
  9
$SKPOLY
 70
     0
  9
$TDCREATE
 40
2454533.917885266
  9
$TDUPDATE
 40
2454533.917885266
  9
$TDINDWG
 40
0.0000000000
  9
$TDUSRTIMER
 40
0.0000000000
  9
$USRTIMER
 70
     1
  9
$ANGBASE
 50
0.0
  9
$ANGDIR
 70
     0
  9
$PDMODE
 70
     0
  9
$PDSIZE
 40
0.0
  9
$PLINEWID
 40
0.0
  9
$COORDS
 70
     1
  9
$SPLFRAME
 70
     0
  9
$SPLINETYPE
 70
     6
  9
$SPLINESEGS
 70
     8
  9
$ATTDIA
 70
     0
  9
$ATTREQ
 70
     1
  9
$HANDLING
 70
     1
  9
$HANDSEED
  5
388
  9
$SURFTAB1
 70
     6
  9
$SURFTAB2
 70
     6
  9
$SURFTYPE
 70
     6
  9
$SURFU
 70
     6
  9
$SURFV
 70
     6
  9
$UCSNAME
  2

  9
$UCSORG
 10
0.0
 20
0.0
 30
0.0
  9
$UCSXDIR
 10
1.0
 20
0.0
 30
0.0
  9
$UCSYDIR
 10
0.0
 20
1.0
 30
0.0
  9
$PUCSNAME
  2

  9
$PUCSORG
 10
0.0
 20
0.0
 30
0.0
  9
$PUCSXDIR
 10
1.0
 20
0.0
 30
0.0
  9
$PUCSYDIR
 10
0.0
 20
1.0
 30
0.0
  9
$USERI1
 70
     0
  9
$USERI2
 70
     0
  9
$USERI3
 70
     0
  9
$USERI4
 70
     0
  9
$USERI5
 70
     0
  9
$USERR1
 40
0.0
  9
$USERR2
 40
0.0
  9
$USERR3
 40
0.0
  9
$USERR4
 40
0.0
  9
$USERR5
 40
0.0
  9
$WORLDVIEW
 70
     1
  9
$SHADEDGE
 70
     3
  9
$SHADEDIF
 70
    70
  9
$TILEMODE
 70
     1
  9
$MAXACTVP
 70
    16
  9
$PINSBASE
 10
0.0
 20
0.0
 30
0.0
  9
$PLIMCHECK
 70
     0
  9
$PEXTMIN
 10
1.000000E+20
 20
1.000000E+20
 30
1.000000E+20
  9
$PEXTMAX
 10
-1.000000E+20
 20
-1.000000E+20
 30
-1.000000E+20
  9
$PLIMMIN
 10
0.0
 20
0.0
  9
$PLIMMAX
 10
12.0
 20
9.0
  9
$UNITMODE
 70
     0
  9
$VISRETAIN
 70
     0
  9
$PLINEGEN
 70
     1
  9
$PSLTSCALE
 70
     0
  9
$TREEDEPTH
 70
  3020
  9
$PICKSTYLE
 70
     1
  9
$CMLSTYLE
  2
Standard
  9
$CMLJUST
 70
     0
  9
$CMLSCALE
 40
1.0
  9
$PROXYGRAPHICS
 70
     0
  9
$MEASUREMENT
 70
     0
  0
ENDSEC
  0
SECTION
  2
CLASSES
  0
CLASS
  1
LWPOLYLINE
  2
AcDbPolyline
  3
"AutoCAD"
 90
        0
280
     0
281
     1
  0
CLASS
  1
IMAGE
  2
AcDbRasterImage
  3
ISM
 90
      127
280
     0
281
     1
  0
CLASS
  1
OLE2FRAME
  2
AcDbOle2Frame
  3
""
 90
        0
280
     0
281
     1
  0
CLASS
  1
HATCH
  2
AcDbHatch
  3
"ACAD_SEDONA"
 90
        0
280
     0
281
     1
  0
CLASS
  1
DICTIONARYVAR
  2
AcDbDictionaryVar
  3
"AutoCAD"
 90
        0
280
     0
281
     0
  0
CLASS
  1
RASTERVARIABLES
  2
AcDbRasterVariables
  3
ISM
 90
        0
280
     0
281
     0
  0
CLASS
  1
IMAGEDEF
  2
AcDbRasterImageDef
  3
ISM
 90
        0
280
     0
281
     0
  0
CLASS
  1
IMAGEDEF_REACTOR
  2
AcDbRasterImageDefReactor
  3
ISM
 90
        1
280
     0
281
     0
  0
CLASS
  1
IDBUFFER
  2
AcDbIdBuffer
  3
"Acad"
 90
        0
280
     0
281
     0
  0
CLASS
  1
SPATIAL_FILTER
  2
AcDbSpatialFilter
  3
"Acad"
 90
        0
280
     0
281
     0
  0
CLASS
  1
XRECORD
  2
AcDbXrecord
  3
"<Built In>"
 90
        0
280
     0
281
     0
  0
CLASS
  1
SORTENTSTABLE
  2
AcDbSortentsTable
  3
"AutoCAD"
 90
        0
280
     0
281
     0
  0
CLASS
  1
LAYER_INDEX
  2
AcDbLayerIndex
  3
"Acad"
 90
        0
280
     0
281
     0
  0
CLASS
  1
SPATIAL_INDEX
  2
AcDbSpatialIndex
  3
"Acad"
 90
        0
280
     0
281
     0
  0
CLASS
  1
OBJECT_PTR
  2
CAseDLPNTableRecord
  3
"ASE-LPNTableRecord"
 90
        1
280
     0
281
     0
  0
CLASS
  1
LAYOUT
  2
AcDbLayout
  3
"AutoCAD 2000"
 90
        1
280
     0
281
     0
  0
CLASS
  1
PLOTSETTINGS
  2
AcDbPlotSettings
  3
"AutoCAD 2000"
 90
        1
280
     0
281
     0
  0
CLASS
  1
ACDBDICTIONARYWDFLT
  2
AcDbDictionaryWithDefault
  3
"AutoCAD 2000"
 90
        1
280
     0
281
     0
  0
CLASS
  1
ACDBPLACEHOLDER
  2
AcDbPlaceHolder
  3
"AutoCAD 2000"
 90
        1
280
     0
281
     0
  0
CLASS
  1
VBA_PROJECT
  2
AcDbVbaProject
  3
"acadvba"
 90
        1
280
     0
281
     0
  0
CLASS
  1
WIPEOUT
  2
AcDbWipeout
  3
WipeOut|AutoCAD Express Tool|expresstools@autodesk.com
 90
      127
280
     0
281
     1
  0
CLASS
  1
WIPEOUTVARIABLES
  2
AcDbWipeoutVariables
  3
WipeOut|AutoCAD Express Tool|expresstools@autodesk.com
 90
        0
280
     0
281
     0
  0
CLASS
  1
RTEXT
  2
RText
  3
RText|AutoCAD Express Tool|expresstools@autodesk.com
 90
        0
280
     0
281
     1
  0
CLASS
  1
ARCALIGNEDTEXT
  2
AcDbArcAlignedText
  3
ATEXT|AutoCAD Express Tool|expresstools@autodesk.com
 90
        0
280
     0
281
     1
  0
ENDSEC
  0
SECTION
  2
TABLES
  0
TABLE
  2
VPORT
  5
7
100
AcDbSymbolTable
 70
     1
  0
VPORT
  5
15
100
AcDbSymbolTableRecord
100
AcDbViewportTableRecord
  2
*ACTIVE
 70
     0
 10
0.0
 20
0.0
 11
1.0
 21
1.0
 12
327.0
 22
445.5
 13
0.0
 23
0.0
 14
1.0
 24
1.0
 15
0.0
 25
0.0
 16
0.0
 26
0.0
 36
1.0
 17
0.0
 27
0.0
 37
0.0
 40
840.0
 41
1.722533
 42
50.0
 43
0.0
 44
0.0
 50
0.0
 51
0.0
 71
     0
 72
   100
 73
     1
 74
     1
 75
     0
 76
     0
 77
     0
 78
     0
  0
ENDTAB
  0
TABLE
  2
LTYPE
  5
4
100
AcDbSymbolTable
 70
     9
  0
LTYPE
  5
11
100
AcDbSymbolTableRecord
100
AcDbLinetypeTableRecord
  2
BYBLOCK
 70
    64
  3

 72
    65
 73
     0
 40
0.0
  0
LTYPE
  5
12
100
AcDbSymbolTableRecord
100
AcDbLinetypeTableRecord
  2
BYLAYER
 70
    64
  3

 72
    65
 73
     0
 40
0.0
  0
LTYPE
  5
13
100
AcDbSymbolTableRecord
100
AcDbLinetypeTableRecord
  2
CONTINUOUS
 70
    64
  3
実線
 72
    65
 73
     0
 40
0.0
  0
LTYPE
  5
1D
100
AcDbSymbolTableRecord
100
AcDbLinetypeTableRecord
  2
EXLTYPE1
 70
    64
  3
破線
 72
    65
 73
     2
 40
3.0
 49
2.0
 74
     0
 49
-1.0
 74
     0
  0
LTYPE
  5
1E
100
AcDbSymbolTableRecord
100
AcDbLinetypeTableRecord
  2
EXLTYPE2
 70
    64
  3
点線
 72
    65
 73
     2
 40
2.0
 49
1.0
 74
     0
 49
-1.0
 74
     0
  0
LTYPE
  5
1F
100
AcDbSymbolTableRecord
100
AcDbLinetypeTableRecord
  2
EXLTYPE3
 70
    64
  3
一点鎖線
 72
    65
 73
     4
 40
10.0
 49
7.0
 74
     0
 49
-1.0
 74
     0
 49
1.0
 74
     0
 49
-1.0
 74
     0
  0
LTYPE
  5
20
100
AcDbSymbolTableRecord
100
AcDbLinetypeTableRecord
  2
EXLTYPE4
 70
    64
  3
二点鎖線
 72
    65
 73
     6
 40
12.0
 49
7.0
 74
     0
 49
-1.0
 74
     0
 49
1.0
 74
     0
 49
-1.0
 74
     0
 49
1.0
 74
     0
 49
-1.0
 74
     0
  0
LTYPE
  5
21
100
AcDbSymbolTableRecord
100
AcDbLinetypeTableRecord
  2
EXLTYPE5
 70
    64
  3
三点鎖線
 72
    65
 73
     8
 40
37.0
 49
30.0
 74
     0
 49
-1.0
 74
     0
 49
1.0
 74
     0
 49
-1.0
 74
     0
 49
1.0
 74
     0
 49
-1.0
 74
     0
 49
1.0
 74
     0
 49
-1.0
 74
     0
  0
LTYPE
  5
22
100
AcDbSymbolTableRecord
100
AcDbLinetypeTableRecord
  2
EXLTYPE6
 70
    64
  3
四点鎖線
 72
    65
 73
    10
 40
39.0
 49
30.0
 74
     0
 49
-1.0
 74
     0
 49
1.0
 74
     0
 49
-1.0
 74
     0
 49
1.0
 74
     0
 49
-1.0
 74
     0
 49
1.0
 74
     0
 49
-1.0
 74
     0
 49
1.0
 74
     0
 49
-1.0
 74
     0
  0
ENDTAB
  0
TABLE
  2
LAYER
  5
2
100
AcDbSymbolTable
 70
     4
  0
LAYER
  5
14
100
AcDbSymbolTableRecord
100
AcDbLayerTableRecord
  2
0
 70
     0
 62
     7
  6
CONTINUOUS
  0
LAYER
  5
25
100
AcDbSymbolTableRecord
100
AcDbLayerTableRecord
  2
_
 70
    64
 62
     7
  6
CONTINUOUS
  0
LAYER
  5
26
100
AcDbSymbolTableRecord
100
AcDbLayerTableRecord
  2
_2
 70
    64
 62
     7
  6
CONTINUOUS
  0
LAYER
  5
27
100
AcDbSymbolTableRecord
100
AcDbLayerTableRecord
  2
LAY-3
 70
    64
 62
     7
  6
CONTINUOUS
  0
ENDTAB
  0
TABLE
  2
STYLE
  5
3
100
AcDbSymbolTable
 70
     5
  0
STYLE
  5
17
100
AcDbSymbolTableRecord
100
AcDbTextStyleTableRecord
  2
STANDARD
 70
     0
 40
0.0
 41
1.0
 50
0.0
 71
     0
 42
0.0
  3
monotxt
  4
extfont
  0
STYLE
  5
23
100
AcDbSymbolTableRecord
100
AcDbTextStyleTableRecord
  2
EXCADSTD
 70
    64
 40
0.0
 41
1.0
 50
0.0
 71
     0
 42
0.2
  3
monotxt
  4
extfont
  0
STYLE
  5
24
100
AcDbSymbolTableRecord
100
AcDbTextStyleTableRecord
  2
EXCADVERT
 70
    68
 40
0.0
 41
1.0
 50
0.0
 71
     0
 42
0.286885
  3
monotxt
  4
extfont
  0
STYLE
  5
27E
100
AcDbSymbolTableRecord
100
AcDbTextStyleTableRecord
  2
EXCADDIM1
 70
    64
 40
0.0
 41
0.84
 50
0.0
 71
     0
 42
0.2
  3
monotxt
  4
extfont
  0
STYLE
  5
386
100
AcDbSymbolTableRecord
100
AcDbTextStyleTableRecord
  2
EXCADDIM2
 70
    64
 40
0.0
 41
0.95
 50
0.0
 71
     0
 42
0.2
  3
monotxt
  4
extfont
  0
ENDTAB
  0
TABLE
  2
VIEW
  5
5
100
AcDbSymbolTable
 70
     0
  0
ENDTAB
  0
TABLE
  2
UCS
  5
6
100
AcDbSymbolTable
 70
     0
  0
ENDTAB
  0
TABLE
  2
APPID
  5
8
100
AcDbSymbolTable
 70
     1
  0
APPID
  5
16
100
AcDbSymbolTableRecord
100
AcDbRegAppTableRecord
  2
ACAD
 70
     0
  0
ENDTAB
  0
TABLE
  2
DIMSTYLE
  5
9
100
AcDbSymbolTable
 70
     1
  0
DIMSTYLE
105
18
100
AcDbSymbolTableRecord
100
AcDbDimStyleTableRecord
  2
STANDARD
 70
     0
  3

  4

  5

  6

  7

 40
1.0
 41
0.18
 42
0.0625
 43
0.38
 44
0.18
 45
0.0
 46
0.0
 47
0.0
 48
0.0
 71
     0
 72
     0
 73
     1
 74
     1
 75
     0
 76
     0
 77
     0
 78
     0
140
0.18
141
0.09
142
0.0
143
25.4
144
1.0
145
0.0
146
1.0
147
0.09
170
     0
171
     2
172
     1
173
     0
174
     0
175
     0
176
     0
177
     0
178
     0
270
     2
271
     4
272
     4
273
     2
274
     2
275
     0
280
     0
281
     0
282
     0
283
     1
284
     0
285
     0
286
     0
287
     0
288
     0
340
17
  0
ENDTAB
  0
TABLE
  2
BLOCK_RECORD
  5
1
100
AcDbSymbolTable
 70
    19
  0
BLOCK_RECORD
  5
A
100
AcDbSymbolTableRecord
100
AcDbBlockTableRecord
  2
*MODEL_SPACE
  0
BLOCK_RECORD
  5
B
100
AcDbSymbolTableRecord
100
AcDbBlockTableRecord
  2
*PAPER_SPACE
  0
BLOCK_RECORD
  5
28
100
AcDbSymbolTableRecord
100
AcDbBlockTableRecord
  2
_EX_NORM
  0
BLOCK_RECORD
  5
29
100
AcDbSymbolTableRecord
100
AcDbBlockTableRecord
  2
_EX_BNORM
  0
BLOCK_RECORD
  5
2A
100
AcDbSymbolTableRecord
100
AcDbBlockTableRecord
  2
_EX_BCIR
  0
BLOCK_RECORD
  5
2B
100
AcDbSymbolTableRecord
100
AcDbBlockTableRecord
  2
_EX_RCIVIL
  0
BLOCK_RECORD
  5
2C
100
AcDbSymbolTableRecord
100
AcDbBlockTableRecord
  2
_EX_SLANT
  0
BLOCK_RECORD
  5
2D
100
AcDbSymbolTableRecord
100
AcDbBlockTableRecord
  2
_EX_NONE
  0
BLOCK_RECORD
  5
2E
100
AcDbSymbolTableRecord
100
AcDbBlockTableRecord
  2
_EX_CIVIL
  0
BLOCK_RECORD
  5
2F
100
AcDbSymbolTableRecord
100
AcDbBlockTableRecord
  2
_EX_WCIR
  0
BLOCK_RECORD
  5
30
100
AcDbSymbolTableRecord
100
AcDbBlockTableRecord
  2
_EX_WCIR2
  0
BLOCK_RECORD
  5
31
100
AcDbSymbolTableRecord
100
AcDbBlockTableRecord
  2
_EX_WNORM
  0
BLOCK_RECORD
  5
32
100
AcDbSymbolTableRecord
100
AcDbBlockTableRecord
  2
_EX_NNORM
  0
BLOCK_RECORD
  5
33
100
AcDbSymbolTableRecord
100
AcDbBlockTableRecord
  2
_EX_BBOX
  0
BLOCK_RECORD
  5
34
100
AcDbSymbolTableRecord
100
AcDbBlockTableRecord
  2
_EX_WBOX
  0
BLOCK_RECORD
  5
35
100
AcDbSymbolTableRecord
100
AcDbBlockTableRecord
  2
_EX_INTEGRAL
  0
BLOCK_RECORD
  5
273
100
AcDbSymbolTableRecord
100
AcDbBlockTableRecord
  2
*D14
  0
BLOCK_RECORD
  5
280
100
AcDbSymbolTableRecord
100
AcDbBlockTableRecord
  2
*D15
  0
BLOCK_RECORD
  5
28C
100
AcDbSymbolTableRecord
100
AcDbBlockTableRecord
  2
*D16
  0
BLOCK_RECORD
  5
298
100
AcDbSymbolTableRecord
100
AcDbBlockTableRecord
  2
*D17
  0
BLOCK_RECORD
  5
37B
100
AcDbSymbolTableRecord
100
AcDbBlockTableRecord
  2
*D18
  0
ENDTAB
  0
ENDSEC
  0
SECTION
  2
BLOCKS
  0
BLOCK
  5
D
100
AcDbEntity
  8
0
100
AcDbBlockBegin
  2
*MODEL_SPACE
 70
     0
 10
0.0
 20
0.0
 30
0.0
  3
*MODEL_SPACE
  1

  0
ENDBLK
  5
E
100
AcDbEntity
  8
0
100
AcDbBlockEnd
  0
BLOCK
  5
F
100
AcDbEntity
 67
     1
  8
0
100
AcDbBlockBegin
  2
*PAPER_SPACE
 70
     0
 10
0.0
 20
0.0
 30
0.0
  3
*PAPER_SPACE
  1

  0
ENDBLK
  5
10
100
AcDbEntity
 67
     1
  8
0
100
AcDbBlockEnd
  0
BLOCK
  5
36
100
AcDbEntity
  8
0
100
AcDbBlockBegin
  2
_EX_NORM
 70
     0
 10
0.0
 20
0.0
 30
0.0
  3
_EX_NORM
  1

  0
LINE
  5
37
100
AcDbEntity
  8
0
  6
CONTINUOUS
 62
     0
100
AcDbLine
 10
0.0
 20
0.0
 30
0.0
 11
-1.0
 21
0.0
 31
0.0
  0
LINE
  5
38
100
AcDbEntity
  8
0
  6
CONTINUOUS
 62
     0
100
AcDbLine
 10
0.0
 20
0.0
 30
0.0
 11
-1.0
 21
0.166667
 31
0.0
  0
LINE
  5
39
100
AcDbEntity
  8
0
  6
CONTINUOUS
 62
     0
100
AcDbLine
 10
0.0
 20
0.0
 30
0.0
 11
-1.0
 21
-0.166667
 31
0.0
  0
ENDBLK
  5
3A
100
AcDbEntity
  8
0
100
AcDbBlockEnd
  0
BLOCK
  5
3B
100
AcDbEntity
  8
0
100
AcDbBlockBegin
  2
_EX_BNORM
 70
     0
 10
0.0
 20
0.0
 30
0.0
  3
_EX_BNORM
  1

  0
LINE
  5
3C
100
AcDbEntity
  8
0
  6
CONTINUOUS
 62
     0
100
AcDbLine
 10
0.0
 20
0.0
 30
0.0
 11
-1.0
 21
0.0
 31
0.0
  0
LINE
  5
3D
100
AcDbEntity
  8
0
  6
CONTINUOUS
 62
     0
100
AcDbLine
 10
0.0
 20
0.0
 30
0.0
 11
-1.0
 21
0.166667
 31
0.0
  0
LINE
  5
3E
100
AcDbEntity
  8
0
  6
CONTINUOUS
 62
     0
100
AcDbLine
 10
0.0
 20
0.0
 30
0.0
 11
-1.0
 21
-0.166667
 31
0.0
  0
LINE
  5
3F
100
AcDbEntity
  8
0
  6
CONTINUOUS
 62
     0
100
AcDbLine
 10
0.0
 20
0.0
 30
0.0
 11
-1.0
 21
0.083333
 31
0.0
  0
LINE
  5
40
100
AcDbEntity
  8
0
  6
CONTINUOUS
 62
     0
100
AcDbLine
 10
0.0
 20
0.0
 30
0.0
 11
-1.0
 21
-0.083333
 31
0.0
  0
LINE
  5
41
100
AcDbEntity
  8
0
  6
CONTINUOUS
 62
     0
100
AcDbLine
 10
-1.0
 20
0.166667
 30
0.0
 11
-1.0
 21
-0.166667
 31
0.0
  0
ENDBLK
  5
42
100
AcDbEntity
  8
0
100
AcDbBlockEnd
  0
BLOCK
  5
43
100
AcDbEntity
  8
0
100
AcDbBlockBegin
  2
_EX_BCIR
 70
     0
 10
0.0
 20
0.0
 30
0.0
  3
_EX_BCIR
  1

  0
LINE
  5
44
100
AcDbEntity
  8
0
  6
CONTINUOUS
 62
     0
100
AcDbLine
 10
0.0
 20
0.0
 30
0.0
 11
-1.0
 21
0.0
 31
0.0
  0
CIRCLE
  5
45
100
AcDbEntity
  8
0
  6
CONTINUOUS
 62
     0
100
AcDbCircle
 10
0.0
 20
0.0
 30
0.0
 40
0.5
  0
CIRCLE
  5
46
100
AcDbEntity
  8
0
  6
CONTINUOUS
 62
     0
100
AcDbCircle
 10
0.0
 20
0.0
 30
0.0
 40
0.25
  0
ENDBLK
  5
47
100
AcDbEntity
  8
0
100
AcDbBlockEnd
  0
BLOCK
  5
48
100
AcDbEntity
  8
0
100
AcDbBlockBegin
  2
_EX_RCIVIL
 70
     0
 10
0.0
 20
0.0
 30
0.0
  3
_EX_RCIVIL
  1

  0
LINE
  5
49
100
AcDbEntity
  8
0
  6
CONTINUOUS
 62
     0
100
AcDbLine
 10
0.0
 20
0.0
 30
0.0
 11
-1.0
 21
0.0
 31
0.0
  0
LINE
  5
4A
100
AcDbEntity
  8
0
  6
CONTINUOUS
 62
     0
100
AcDbLine
 10
-1.0
 20
-0.25
 30
0.0
 11
0.0
 21
-0.25
 31
0.0
  0
LINE
  5
4B
100
AcDbEntity
  8
0
  6
CONTINUOUS
 62
     0
100
AcDbLine
 10
-1.0
 20
-0.125
 30
0.0
 11
0.0
 21
-0.125
 31
0.0
  0
ENDBLK
  5
4C
100
AcDbEntity
  8
0
100
AcDbBlockEnd
  0
BLOCK
  5
4D
100
AcDbEntity
  8
0
100
AcDbBlockBegin
  2
_EX_SLANT
 70
     0
 10
0.0
 20
0.0
 30
0.0
  3
_EX_SLANT
  1

  0
LINE
  5
4E
100
AcDbEntity
  8
0
  6
CONTINUOUS
 62
     0
100
AcDbLine
 10
0.0
 20
0.0
 30
0.0
 11
-1.0
 21
0.0
 31
0.0
  0
LINE
  5
4F
100
AcDbEntity
  8
0
  6
CONTINUOUS
 62
     0
100
AcDbLine
 10
0.707107
 20
0.707107
 30
0.0
 11
-0.707107
 21
-0.707107
 31
0.0
  0
ENDBLK
  5
50
100
AcDbEntity
  8
0
100
AcDbBlockEnd
  0
BLOCK
  5
51
100
AcDbEntity
  8
0
100
AcDbBlockBegin
  2
_EX_NONE
 70
     0
 10
0.0
 20
0.0
 30
0.0
  3
_EX_NONE
  1

  0
LINE
  5
52
100
AcDbEntity
  8
0
  6
CONTINUOUS
 62
     0
100
AcDbLine
 10
0.0
 20
0.0
 30
0.0
 11
-1.0
 21
0.0
 31
0.0
  0
ENDBLK
  5
53
100
AcDbEntity
  8
0
100
AcDbBlockEnd
  0
BLOCK
  5
54
100
AcDbEntity
  8
0
100
AcDbBlockBegin
  2
_EX_CIVIL
 70
     0
 10
0.0
 20
0.0
 30
0.0
  3
_EX_CIVIL
  1

  0
LINE
  5
55
100
AcDbEntity
  8
0
  6
CONTINUOUS
 62
     0
100
AcDbLine
 10
0.0
 20
0.0
 30
0.0
 11
-1.0
 21
0.0
 31
0.0
  0
LINE
  5
56
100
AcDbEntity
  8
0
  6
CONTINUOUS
 62
     0
100
AcDbLine
 10
-1.0
 20
0.25
 30
0.0
 11
0.0
 21
0.25
 31
0.0
  0
LINE
  5
57
100
AcDbEntity
  8
0
  6
CONTINUOUS
 62
     0
100
AcDbLine
 10
-1.0
 20
0.125
 30
0.0
 11
0.0
 21
0.125
 31
0.0
  0
ENDBLK
  5
58
100
AcDbEntity
  8
0
100
AcDbBlockEnd
  0
BLOCK
  5
59
100
AcDbEntity
  8
0
100
AcDbBlockBegin
  2
_EX_WCIR
 70
     0
 10
0.0
 20
0.0
 30
0.0
  3
_EX_WCIR
  1

  0
LINE
  5
5A
100
AcDbEntity
  8
0
  6
CONTINUOUS
 62
     0
100
AcDbLine
 10
0.0
 20
0.0
 30
0.0
 11
-1.0
 21
0.0
 31
0.0
  0
CIRCLE
  5
5B
100
AcDbEntity
  8
0
  6
CONTINUOUS
 62
     0
100
AcDbCircle
 10
0.0
 20
0.0
 30
0.0
 40
0.5
  0
ENDBLK
  5
5C
100
AcDbEntity
  8
0
100
AcDbBlockEnd
  0
BLOCK
  5
5D
100
AcDbEntity
  8
0
100
AcDbBlockBegin
  2
_EX_WCIR2
 70
     0
 10
0.0
 20
0.0
 30
0.0
  3
_EX_WCIR2
  1

  0
LINE
  5
5E
100
AcDbEntity
  8
0
  6
CONTINUOUS
 62
     0
100
AcDbLine
 10
-0.5
 20
0.0
 30
0.0
 11
-1.0
 21
0.0
 31
0.0
  0
CIRCLE
  5
5F
100
AcDbEntity
  8
0
  6
CONTINUOUS
 62
     0
100
AcDbCircle
 10
0.0
 20
0.0
 30
0.0
 40
0.5
  0
ENDBLK
  5
60
100
AcDbEntity
  8
0
100
AcDbBlockEnd
  0
BLOCK
  5
61
100
AcDbEntity
  8
0
100
AcDbBlockBegin
  2
_EX_WNORM
 70
     0
 10
0.0
 20
0.0
 30
0.0
  3
_EX_WNORM
  1

  0
LINE
  5
62
100
AcDbEntity
  8
0
  6
CONTINUOUS
 62
     0
100
AcDbLine
 10
-1.0
 20
0.0
 30
0.0
 11
-1.0
 21
0.0
 31
0.0
  0
LINE
  5
63
100
AcDbEntity
  8
0
  6
CONTINUOUS
 62
     0
100
AcDbLine
 10
0.0
 20
0.0
 30
0.0
 11
-1.0
 21
0.166667
 31
0.0
  0
LINE
  5
64
100
AcDbEntity
  8
0
  6
CONTINUOUS
 62
     0
100
AcDbLine
 10
0.0
 20
0.0
 30
0.0
 11
-1.0
 21
-0.166667
 31
0.0
  0
LINE
  5
65
100
AcDbEntity
  8
0
  6
CONTINUOUS
 62
     0
100
AcDbLine
 10
-1.0
 20
0.166667
 30
0.0
 11
-1.0
 21
-0.166667
 31
0.0
  0
ENDBLK
  5
66
100
AcDbEntity
  8
0
100
AcDbBlockEnd
  0
BLOCK
  5
67
100
AcDbEntity
  8
0
100
AcDbBlockBegin
  2
_EX_NNORM
 70
     0
 10
0.0
 20
0.0
 30
0.0
  3
_EX_NNORM
  1

  0
LINE
  5
68
100
AcDbEntity
  8
0
  6
CONTINUOUS
 62
     0
100
AcDbLine
 10
0.0
 20
0.0
 30
0.0
 11
-1.0
 21
0.0
 31
0.0
  0
LINE
  5
69
100
AcDbEntity
  8
0
  6
CONTINUOUS
 62
     0
100
AcDbLine
 10
0.0
 20
0.0
 30
0.0
 11
-1.0
 21
0.166667
 31
0.0
  0
LINE
  5
6A
100
AcDbEntity
  8
0
  6
CONTINUOUS
 62
     0
100
AcDbLine
 10
0.0
 20
0.0
 30
0.0
 11
-1.0
 21
-0.166667
 31
0.0
  0
LINE
  5
6B
100
AcDbEntity
  8
0
  6
CONTINUOUS
 62
     0
100
AcDbLine
 10
-1.0
 20
0.166667
 30
0.0
 11
-1.0
 21
-0.166667
 31
0.0
  0
ENDBLK
  5
6C
100
AcDbEntity
  8
0
100
AcDbBlockEnd
  0
BLOCK
  5
6D
100
AcDbEntity
  8
0
100
AcDbBlockBegin
  2
_EX_BBOX
 70
     0
 10
0.0
 20
0.0
 30
0.0
  3
_EX_BBOX
  1

  0
LINE
  5
6E
100
AcDbEntity
  8
0
  6
CONTINUOUS
 62
     0
100
AcDbLine
 10
0.0
 20
0.0
 30
0.0
 11
-1.0
 21
0.0
 31
0.0
  0
LINE
  5
6F
100
AcDbEntity
  8
0
  6
CONTINUOUS
 62
     0
100
AcDbLine
 10
-0.5
 20
0.5
 30
0.0
 11
0.5
 21
0.5
 31
0.0
  0
LINE
  5
70
100
AcDbEntity
  8
0
  6
CONTINUOUS
 62
     0
100
AcDbLine
 10
0.5
 20
0.5
 30
0.0
 11
0.5
 21
-0.5
 31
0.0
  0
LINE
  5
71
100
AcDbEntity
  8
0
  6
CONTINUOUS
 62
     0
100
AcDbLine
 10
0.5
 20
-0.5
 30
0.0
 11
-0.5
 21
-0.5
 31
0.0
  0
LINE
  5
72
100
AcDbEntity
  8
0
  6
CONTINUOUS
 62
     0
100
AcDbLine
 10
-0.5
 20
-0.5
 30
0.0
 11
-0.5
 21
0.5
 31
0.0
  0
LINE
  5
73
100
AcDbEntity
  8
0
  6
CONTINUOUS
 62
     0
100
AcDbLine
 10
-0.25
 20
0.25
 30
0.0
 11
0.25
 21
0.25
 31
0.0
  0
LINE
  5
74
100
AcDbEntity
  8
0
  6
CONTINUOUS
 62
     0
100
AcDbLine
 10
0.25
 20
0.25
 30
0.0
 11
0.25
 21
-0.25
 31
0.0
  0
LINE
  5
75
100
AcDbEntity
  8
0
  6
CONTINUOUS
 62
     0
100
AcDbLine
 10
0.25
 20
-0.25
 30
0.0
 11
-0.25
 21
-0.25
 31
0.0
  0
LINE
  5
76
100
AcDbEntity
  8
0
  6
CONTINUOUS
 62
     0
100
AcDbLine
 10
-0.25
 20
-0.25
 30
0.0
 11
-0.25
 21
0.25
 31
0.0
  0
ENDBLK
  5
77
100
AcDbEntity
  8
0
100
AcDbBlockEnd
  0
BLOCK
  5
78
100
AcDbEntity
  8
0
100
AcDbBlockBegin
  2
_EX_WBOX
 70
     0
 10
0.0
 20
0.0
 30
0.0
  3
_EX_WBOX
  1

  0
LINE
  5
79
100
AcDbEntity
  8
0
  6
CONTINUOUS
 62
     0
100
AcDbLine
 10
-0.5
 20
0.0
 30
0.0
 11
-1.0
 21
0.0
 31
0.0
  0
LINE
  5
7A
100
AcDbEntity
  8
0
  6
CONTINUOUS
 62
     0
100
AcDbLine
 10
-0.5
 20
0.5
 30
0.0
 11
0.5
 21
0.5
 31
0.0
  0
LINE
  5
7B
100
AcDbEntity
  8
0
  6
CONTINUOUS
 62
     0
100
AcDbLine
 10
0.5
 20
0.5
 30
0.0
 11
0.5
 21
-0.5
 31
0.0
  0
LINE
  5
7C
100
AcDbEntity
  8
0
  6
CONTINUOUS
 62
     0
100
AcDbLine
 10
0.5
 20
-0.5
 30
0.0
 11
-0.5
 21
-0.5
 31
0.0
  0
LINE
  5
7D
100
AcDbEntity
  8
0
  6
CONTINUOUS
 62
     0
100
AcDbLine
 10
-0.5
 20
-0.5
 30
0.0
 11
-0.5
 21
0.5
 31
0.0
  0
ENDBLK
  5
7E
100
AcDbEntity
  8
0
100
AcDbBlockEnd
  0
BLOCK
  5
7F
100
AcDbEntity
  8
0
100
AcDbBlockBegin
  2
_EX_INTEGRAL
 70
     0
 10
0.0
 20
0.0
 30
0.0
  3
_EX_INTEGRAL
  1

  0
LINE
  5
80
100
AcDbEntity
  8
0
  6
CONTINUOUS
 62
     0
100
AcDbLine
 10
0.0
 20
0.0
 30
0.0
 11
-1.0
 21
0.0
 31
0.0
  0
ARC
  5
81
100
AcDbEntity
  8
0
  6
CONTINUOUS
 62
     0
100
AcDbCircle
 10
0.542115
 20
0.164992
 30
0.0
 40
0.56667
100
AcDbArc
 50
73.07249
 51
196.927513
  0
ARC
  5
82
100
AcDbEntity
  8
0
  6
CONTINUOUS
 62
     0
100
AcDbCircle
 10
-0.542115
 20
-0.164992
 30
0.0
 40
0.56667
100
AcDbArc
 50
253.072487
 51
16.927513
  0
ENDBLK
  5
83
100
AcDbEntity
  8
0
100
AcDbBlockEnd
  0
BLOCK
  5
274
100
AcDbEntity
  8
0
100
AcDbBlockBegin
  2
*D14
 70
    65
 10
0.0
 20
0.0
 30
0.0
  3
*D14
  1

  0
LINE
  5
275
100
AcDbEntity
  8
_2
  6
CONTINUOUS
 62
     3
100
AcDbLine
 10
205.5
 20
712.6
 30
0.0
 11
205.5
 21
748.5
 31
0.0
  0
LINE
  5
276
100
AcDbEntity
  8
_2
  6
CONTINUOUS
 62
     3
100
AcDbLine
 10
404.5
 20
712.6
 30
0.0
 11
404.5
 21
748.5
 31
0.0
  0
TEXT
  5
277
100
AcDbEntity
  8
_2
  6
CONTINUOUS
 62
     2
100
AcDbText
 10
292.4
 20
746.55
 30
0.0
 40
12.0
  1
199
 41
0.84
  7
EXCADSTD
 72
     1
 11
305.0
 21
746.55
 31
0.0
100
AcDbText
  0
LINE
  5
278
100
AcDbEntity
  8
_2
  6
CONTINUOUS
 62
     3
100
AcDbLine
 10
205.5
 20
745.5
 30
0.0
 11
404.5
 21
745.5
 31
0.0
  0
LINE
  5
279
100
AcDbEntity
  8
_2
  6
CONTINUOUS
 62
     3
100
AcDbLine
 10
214.5
 20
747.0
 30
0.0
 11
205.5
 21
745.5
 31
0.0
  0
LINE
  5
27A
100
AcDbEntity
  8
_2
  6
CONTINUOUS
 62
     3
100
AcDbLine
 10
205.5
 20
745.5
 30
0.0
 11
214.5
 21
744.0
 31
0.0
  0
LINE
  5
27B
100
AcDbEntity
  8
_2
  6
CONTINUOUS
 62
     3
100
AcDbLine
 10
395.5
 20
744.0
 30
0.0
 11
404.5
 21
745.5
 31
0.0
  0
LINE
  5
27C
100
AcDbEntity
  8
_2
  6
CONTINUOUS
 62
     3
100
AcDbLine
 10
404.5
 20
745.5
 30
0.0
 11
395.5
 21
747.0
 31
0.0
  0
ENDBLK
  5
27D
100
AcDbEntity
  8
0
100
AcDbBlockEnd
  0
BLOCK
  5
281
100
AcDbEntity
  8
0
100
AcDbBlockBegin
  2
*D15
 70
    65
 10
0.0
 20
0.0
 30
0.0
  3
*D15
  1

  0
LINE
  5
282
100
AcDbEntity
  8
_2
  6
CONTINUOUS
 62
     3
100
AcDbLine
 10
404.6
 20
132.5
 30
0.0
 11
442.7
 21
132.5
 31
0.0
  0
LINE
  5
283
100
AcDbEntity
  8
_2
  6
CONTINUOUS
 62
     3
100
AcDbLine
 10
374.1
 20
145.5
 30
0.0
 11
442.7
 21
145.5
 31
0.0
  0
TEXT
  5
284
100
AcDbEntity
  8
_2
  6
CONTINUOUS
 62
     2
100
AcDbText
 10
438.65
 20
104.38
 30
0.0
 40
12.0
  1
13
 50
90.0
 41
0.84
  7
EXCADSTD
 72
     1
 11
438.65
 21
113.2
 31
0.0
100
AcDbText
  0
LINE
  5
285
100
AcDbEntity
  8
_2
  6
CONTINUOUS
 62
     3
100
AcDbLine
 10
439.7
 20
104.699989
 30
0.0
 11
439.7
 21
154.5
 31
0.0
  0
LINE
  5
286
100
AcDbEntity
  8
_2
  6
CONTINUOUS
 62
     3
100
AcDbLine
 10
441.2
 20
123.5
 30
0.0
 11
439.7
 21
132.5
 31
0.0
  0
LINE
  5
287
100
AcDbEntity
  8
_2
  6
CONTINUOUS
 62
     3
100
AcDbLine
 10
439.7
 20
132.5
 30
0.0
 11
438.2
 21
123.5
 31
0.0
  0
LINE
  5
288
100
AcDbEntity
  8
_2
  6
CONTINUOUS
 62
     3
100
AcDbLine
 10
438.2
 20
154.5
 30
0.0
 11
439.7
 21
145.5
 31
0.0
  0
LINE
  5
289
100
AcDbEntity
  8
_2
  6
CONTINUOUS
 62
     3
100
AcDbLine
 10
439.7
 20
145.5
 30
0.0
 11
441.2
 21
154.5
 31
0.0
  0
ENDBLK
  5
28A
100
AcDbEntity
  8
0
100
AcDbBlockEnd
  0
BLOCK
  5
28D
100
AcDbEntity
  8
0
100
AcDbBlockBegin
  2
*D16
 70
    65
 10
0.0
 20
0.0
 30
0.0
  3
*D16
  1

  0
LINE
  5
28E
100
AcDbEntity
  8
_2
  6
CONTINUOUS
 62
     3
100
AcDbLine
 10
374.1
 20
145.5
 30
0.0
 11
442.7
 21
145.5
 31
0.0
  0
LINE
  5
28F
100
AcDbEntity
  8
_2
  6
CONTINUOUS
 62
     3
100
AcDbLine
 10
374.1
 20
703.5
 30
0.0
 11
442.7
 21
703.5
 31
0.0
  0
LINE
  5
290
100
AcDbEntity
  8
_2
  6
CONTINUOUS
 62
     3
100
AcDbLine
 10
439.7
 20
145.5
 30
0.0
 11
439.7
 21
703.5
 31
0.0
  0
LINE
  5
291
100
AcDbEntity
  8
_2
  6
CONTINUOUS
 62
     3
100
AcDbLine
 10
438.2
 20
154.5
 30
0.0
 11
439.7
 21
145.5
 31
0.0
  0
LINE
  5
292
100
AcDbEntity
  8
_2
  6
CONTINUOUS
 62
     3
100
AcDbLine
 10
439.7
 20
145.5
 30
0.0
 11
441.2
 21
154.5
 31
0.0
  0
LINE
  5
293
100
AcDbEntity
  8
_2
  6
CONTINUOUS
 62
     3
100
AcDbLine
 10
441.2
 20
694.5
 30
0.0
 11
439.7
 21
703.5
 31
0.0
  0
LINE
  5
294
100
AcDbEntity
  8
_2
  6
CONTINUOUS
 62
     3
100
AcDbLine
 10
439.7
 20
703.5
 30
0.0
 11
438.2
 21
694.5
 31
0.0
  0
TEXT
  5
295
100
AcDbEntity
  8
_2
  6
CONTINUOUS
 62
     2
100
AcDbText
 10
438.65
 20
411.9
 30
0.0
 40
12.0
  1
778
 50
90.0
 41
0.84
  7
EXCADSTD
 72
     1
 11
438.65
 21
424.5
 31
0.0
100
AcDbText
  0
ENDBLK
  5
296
100
AcDbEntity
  8
0
100
AcDbBlockEnd
  0
BLOCK
  5
299
100
AcDbEntity
  8
0
100
AcDbBlockBegin
  2
*D17
 70
    65
 10
0.0
 20
0.0
 30
0.0
  3
*D17
  1

  0
LINE
  5
29A
100
AcDbEntity
  8
_2
  6
CONTINUOUS
 62
     3
100
AcDbLine
 10
404.6
 20
132.5
 30
0.0
 11
472.7
 21
132.5
 31
0.0
  0
LINE
  5
29B
100
AcDbEntity
  8
_2
  6
CONTINUOUS
 62
     3
100
AcDbLine
 10
404.6
 20
712.5
 30
0.0
 11
472.7
 21
712.5
 31
0.0
  0
LINE
  5
29C
100
AcDbEntity
  8
_2
  6
CONTINUOUS
 62
     3
100
AcDbLine
 10
469.7
 20
132.5
 30
0.0
 11
469.7
 21
712.5
 31
0.0
  0
LINE
  5
29D
100
AcDbEntity
  8
_2
  6
CONTINUOUS
 62
     3
100
AcDbLine
 10
468.2
 20
141.5
 30
0.0
 11
469.7
 21
132.5
 31
0.0
  0
LINE
  5
29E
100
AcDbEntity
  8
_2
  6
CONTINUOUS
 62
     3
100
AcDbLine
 10
469.7
 20
132.5
 30
0.0
 11
471.2
 21
141.5
 31
0.0
  0
LINE
  5
29F
100
AcDbEntity
  8
_2
  6
CONTINUOUS
 62
     3
100
AcDbLine
 10
471.2
 20
703.5
 30
0.0
 11
469.7
 21
712.5
 31
0.0
  0
LINE
  5
2A0
100
AcDbEntity
  8
_2
  6
CONTINUOUS
 62
     3
100
AcDbLine
 10
469.7
 20
712.5
 30
0.0
 11
468.2
 21
703.5
 31
0.0
  0
TEXT
  5
2A1
100
AcDbEntity
  8
_2
  6
CONTINUOUS
 62
     2
100
AcDbText
 10
468.65
 20
409.9
 30
0.0
 40
12.0
  1
800
 50
90.0
 41
0.84
  7
EXCADSTD
 72
     1
 11
468.65
 21
422.5
 31
0.0
100
AcDbText
  0
ENDBLK
  5
2A2
100
AcDbEntity
  8
0
100
AcDbBlockEnd
  0
BLOCK
  5
37C
100
AcDbEntity
  8
0
100
AcDbBlockBegin
  2
*D18
 70
    65
 10
0.0
 20
0.0
 30
0.0
  3
*D18
  1

  0
LINE
  5
37D
100
AcDbEntity
  8
LAY-3
  6
CONTINUOUS
 62
     3
100
AcDbLine
 10
240.0
 20
818.2
 30
0.0
 11
240.0
 21
837.8
 31
0.0
  0
LINE
  5
37E
100
AcDbEntity
  8
LAY-3
  6
CONTINUOUS
 62
     3
100
AcDbLine
 10
370.0
 20
818.2
 30
0.0
 11
370.0
 21
837.8
 31
0.0
  0
TEXT
  5
37F
100
AcDbEntity
  8
LAY-3
  6
CONTINUOUS
 62
     2
100
AcDbText
 10
290.51
 20
835.7
 30
0.0
 40
12.0
  1
130
 41
0.945
  7
EXCADSTD
 72
     1
 11
305.0
 21
835.7
 31
0.0
100
AcDbText
  0
LINE
  5
380
100
AcDbEntity
  8
LAY-3
  6
CONTINUOUS
 62
     3
100
AcDbLine
 10
240.0
 20
834.8
 30
0.0
 11
370.0
 21
834.8
 31
0.0
  0
LINE
  5
381
100
AcDbEntity
  8
LAY-3
  6
CONTINUOUS
 62
     3
100
AcDbLine
 10
249.0
 20
836.3
 30
0.0
 11
240.0
 21
834.8
 31
0.0
  0
LINE
  5
382
100
AcDbEntity
  8
LAY-3
  6
CONTINUOUS
 62
     3
100
AcDbLine
 10
240.0
 20
834.8
 30
0.0
 11
249.0
 21
833.3
 31
0.0
  0
LINE
  5
383
100
AcDbEntity
  8
LAY-3
  6
CONTINUOUS
 62
     3
100
AcDbLine
 10
361.0
 20
833.3
 30
0.0
 11
370.0
 21
834.8
 31
0.0
  0
LINE
  5
384
100
AcDbEntity
  8
LAY-3
  6
CONTINUOUS
 62
     3
100
AcDbLine
 10
370.0
 20
834.8
 30
0.0
 11
361.0
 21
836.3
 31
0.0
  0
ENDBLK
  5
385
100
AcDbEntity
  8
0
100
AcDbBlockEnd
  0
ENDSEC
  0
SECTION
  2
ENTITIES
  0
LINE
  5
84
100
AcDbEntity
  8
_
  6
CONTINUOUS
 62
     7
100
AcDbLine
 10
54.0
 20
25.5
 30
0.0
 11
600.0
 21
25.5
 31
0.0
  0
LINE
  5
85
100
AcDbEntity
  8
_
  6
CONTINUOUS
 62
     7
100
AcDbLine
 10
600.0
 20
25.5
 30
0.0
 11
600.0
 21
865.5
 31
0.0
  0
LINE
  5
86
100
AcDbEntity
  8
_
  6
CONTINUOUS
 62
     7
100
AcDbLine
 10
54.0
 20
25.5
 30
0.0
 11
54.0
 21
865.5
 31
0.0
  0
LINE
  5
87
100
AcDbEntity
  8
_
  6
CONTINUOUS
 62
     7
100
AcDbLine
 10
54.0
 20
865.5
 30
0.0
 11
600.0
 21
865.5
 31
0.0
  0
LINE
  5
88
100
AcDbEntity
  8
_
  6
CONTINUOUS
 62
     7
100
AcDbLine
 10
54.0
 20
91.5
 30
0.0
 11
600.0
 21
91.5
 31
0.0
  0
LINE
  5
89
100
AcDbEntity
  8
_
  6
CONTINUOUS
 62
     6
100
AcDbLine
 10
558.0
 20
91.5
 30
0.0
 11
558.0
 21
55.5
 31
0.0
  0
LINE
  5
8A
100
AcDbEntity
  8
_
  6
CONTINUOUS
 62
     6
100
AcDbLine
 10
543.0
 20
91.5
 30
0.0
 11
543.0
 21
55.5
 31
0.0
  0
LINE
  5
8B
100
AcDbEntity
  8
_
  6
CONTINUOUS
 62
     6
100
AcDbLine
 10
432.0
 20
91.5
 30
0.0
 11
432.0
 21
25.5
 31
0.0
  0
LINE
  5
8C
100
AcDbEntity
  8
_
  6
CONTINUOUS
 62
     6
100
AcDbLine
 10
417.0
 20
91.5
 30
0.0
 11
417.0
 21
25.5
 31
0.0
  0
LINE
  5
8D
100
AcDbEntity
  8
_
  6
CONTINUOUS
 62
     6
100
AcDbLine
 10
240.0
 20
91.5
 30
0.0
 11
240.0
 21
55.5
 31
0.0
  0
LINE
  5
8E
100
AcDbEntity
  8
_
  6
CONTINUOUS
 62
     6
100
AcDbLine
 10
225.0
 20
91.5
 30
0.0
 11
225.0
 21
25.5
 31
0.0
  0
LINE
  5
8F
100
AcDbEntity
  8
_
  6
CONTINUOUS
 62
     6
100
AcDbLine
 10
186.0
 20
91.5
 30
0.0
 11
186.0
 21
25.5
 31
0.0
  0
LINE
  5
90
100
AcDbEntity
  8
_
  6
CONTINUOUS
 62
     6
100
AcDbLine
 10
147.0
 20
91.5
 30
0.0
 11
147.0
 21
25.5
 31
0.0
  0
LINE
  5
91
100
AcDbEntity
  8
_
  6
CONTINUOUS
 62
     6
100
AcDbLine
 10
100.5
 20
91.5
 30
0.0
 11
100.5
 21
25.5
 31
0.0
  0
LINE
  5
92
100
AcDbEntity
  8
_
  6
CONTINUOUS
 62
     6
100
AcDbLine
 10
54.0
 20
76.5
 30
0.0
 11
225.0
 21
76.5
 31
0.0
  0
LINE
  5
93
100
AcDbEntity
  8
_
  6
CONTINUOUS
 62
     6
100
AcDbLine
 10
567.796143
 20
62.400879
 30
0.0
 11
590.998169
 21
86.009949
 31
0.0
  0
LINE
  5
94
100
AcDbEntity
  8
_
  6
EXLTYPE2
 62
     6
100
AcDbLine
 10
54.0
 20
40.5
 30
0.0
 11
147.0
 21
40.5
 31
0.0
  0
CIRCLE
  5
95
100
AcDbEntity
  8
_
  6
CONTINUOUS
 62
     6
100
AcDbCircle
 10
69.0
 20
33.0
 30
0.0
 40
0.3
  0
CIRCLE
  5
96
100
AcDbEntity
  8
_
  6
CONTINUOUS
 62
     6
100
AcDbCircle
 10
84.0
 20
33.0
 30
0.0
 40
0.3
  0
CIRCLE
  5
97
100
AcDbEntity
  8
_
  6
CONTINUOUS
 62
     6
100
AcDbCircle
 10
115.5
 20
33.0
 30
0.0
 40
0.3
  0
CIRCLE
  5
98
100
AcDbEntity
  8
_
  6
CONTINUOUS
 62
     6
100
AcDbCircle
 10
130.5
 20
33.0
 30
0.0
 40
0.3
  0
TEXT
  5
99
100
AcDbEntity
  8
_
  6
CONTINUOUS
 62
     2
100
AcDbText
 10
567.161133
 20
75.816833
 30
0.0
 40
9.0
  1
１
 41
0.826
  7
EXCADSTD
 72
     5
 11
574.241133
 21
75.816833
 31
0.0
100
AcDbText
  0
TEXT
  5
9A
100
AcDbEntity
  8
_
  6
CONTINUOUS
 62
     2
100
AcDbText
 10
60.75
 20
77.625
 30
0.0
 40
12.75
  1
製図
 41
1.087059
  7
EXCADSTD
 72
     5
 11
90.9978
 21
77.625
 31
0.0
100
AcDbText
  0
TEXT
  5
9B
100
AcDbEntity
  8
_
  6
CONTINUOUS
 62
     2
100
AcDbText
 10
107.25
 20
77.625
 30
0.0
 40
12.75
  1
写図
 41
1.087059
  7
EXCADSTD
 72
     5
 11
137.4978
 21
77.625
 31
0.0
100
AcDbText
  0
TEXT
  5
9C
100
AcDbEntity
  8
_
  6
CONTINUOUS
 62
     2
100
AcDbText
 10
152.25
 20
77.625
 30
0.0
 40
12.75
  1
検図
 41
0.938824
  7
EXCADSTD
 72
     5
 11
178.3731
 21
77.625
 31
0.0
100
AcDbText
  0
TEXT
  5
9D
100
AcDbEntity
  8
_
  6
CONTINUOUS
 62
     2
100
AcDbText
 10
191.25
 20
77.625
 30
0.0
 40
12.75
  1
承認
 41
0.938824
  7
EXCADSTD
 72
     5
 11
217.3731
 21
77.625
 31
0.0
100
AcDbText
  0
TEXT
  5
9E
100
AcDbEntity
  8
_
  6
CONTINUOUS
 62
     2
100
AcDbText
 10
226.125
 20
74.625
 30
0.0
 40
12.75
  1
品
 41
0.84
  7
EXCADSTD
 72
     5
 11
236.325
 21
74.625
 31
0.0
100
AcDbText
  0
TEXT
  5
9F
100
AcDbEntity
  8
_
  6
CONTINUOUS
 62
     2
100
AcDbText
 10
226.125
 20
59.625
 30
0.0
 40
12.75
  1
名
 41
0.84
  7
EXCADSTD
 72
     5
 11
236.325
 21
59.625
 31
0.0
100
AcDbText
  0
TEXT
  5
A0
100
AcDbEntity
  8
_
  6
CONTINUOUS
 62
     2
100
AcDbText
 10
418.125
 20
74.625
 30
0.0
 40
12.75
  1
品
 41
0.84
  7
EXCADSTD
 72
     5
 11
428.325
 21
74.625
 31
0.0
100
AcDbText
  0
TEXT
  5
A1
100
AcDbEntity
  8
_
  6
CONTINUOUS
 62
     2
100
AcDbText
 10
418.125
 20
59.625
 30
0.0
 40
12.75
  1
番
 41
0.84
  7
EXCADSTD
 72
     5
 11
428.325
 21
59.625
 31
0.0
100
AcDbText
  0
TEXT
  5
A2
100
AcDbEntity
  8
_
  6
CONTINUOUS
 62
     2
100
AcDbText
 10
544.125
 20
74.625
 30
0.0
 40
12.75
  1
尺
 41
0.84
  7
EXCADSTD
 72
     5
 11
554.325
 21
74.625
 31
0.0
100
AcDbText
  0
TEXT
  5
A3
100
AcDbEntity
  8
_
  6
CONTINUOUS
 62
     2
100
AcDbText
 10
544.125
 20
59.625
 30
0.0
 40
12.75
  1
度
 41
0.84
  7
EXCADSTD
 72
     5
 11
554.325
 21
59.625
 31
0.0
100
AcDbText
  0
TEXT
  5
A4
100
AcDbEntity
  8
_
  6
CONTINUOUS
 62
     2
100
AcDbText
 10
418.125
 20
40.725
 30
0.0
 40
12.75
  1
図
 41
0.84
  7
EXCADSTD
 72
     5
 11
428.325
 21
40.725
 31
0.0
100
AcDbText
  0
TEXT
  5
A5
100
AcDbEntity
  8
_
  6
CONTINUOUS
 62
     2
100
AcDbText
 10
418.125
 20
27.825
 30
0.0
 40
12.75
  1
番
 41
0.84
  7
EXCADSTD
 72
     5
 11
428.325
 21
27.825
 31
0.0
100
AcDbText
  0
LINE
  5
A6
100
AcDbEntity
  8
_
  6
CONTINUOUS
 62
     3
100
AcDbLine
 10
248.234326
 20
45.086398
 30
0.0
 11
245.815228
 21
45.086398
 31
0.0
  0
LINE
  5
A7
100
AcDbEntity
  8
_
  6
CONTINUOUS
 62
     3
100
AcDbLine
 10
248.234326
 20
47.505588
 30
0.0
 11
248.234326
 21
45.086398
 31
0.0
  0
LINE
  5
A8
100
AcDbEntity
  8
_
  6
CONTINUOUS
 62
     3
100
AcDbLine
 10
245.815228
 20
47.505588
 30
0.0
 11
248.234326
 21
47.505588
 31
0.0
  0
LINE
  5
A9
100
AcDbEntity
  8
_
  6
CONTINUOUS
 62
     3
100
AcDbLine
 10
245.815228
 20
47.505588
 30
0.0
 11
245.815228
 21
45.086398
 31
0.0
  0
LINE
  5
AA
100
AcDbEntity
  8
_
  6
CONTINUOUS
 62
     3
100
AcDbLine
 10
244.907758
 20
45.086398
 30
0.0
 11
242.48866
 21
45.086398
 31
0.0
  0
LINE
  5
AB
100
AcDbEntity
  8
_
  6
CONTINUOUS
 62
     3
100
AcDbLine
 10
244.907758
 20
47.505588
 30
0.0
 11
244.907758
 21
45.086398
 31
0.0
  0
LINE
  5
AC
100
AcDbEntity
  8
_
  6
CONTINUOUS
 62
     3
100
AcDbLine
 10
242.48866
 20
47.505588
 30
0.0
 11
244.907758
 21
47.505588
 31
0.0
  0
LINE
  5
AD
100
AcDbEntity
  8
_
  6
CONTINUOUS
 62
     3
100
AcDbLine
 10
242.48866
 20
47.505588
 30
0.0
 11
242.48866
 21
45.086398
 31
0.0
  0
LINE
  5
AE
100
AcDbEntity
  8
_
  6
CONTINUOUS
 62
     3
100
AcDbLine
 10
239.966199
 20
34.2
 30
0.0
 11
231.3
 21
34.2
 31
0.0
  0
ARC
  5
AF
100
AcDbEntity
  8
_
  6
CONTINUOUS
 62
     3
100
AcDbCircle
 10
239.966199
 20
39.643222
 30
0.0
 40
5.443199
100
AcDbArc
 50
270.000031
 51
334.000137
  0
LINE
  5
B0
100
AcDbEntity
  8
_
  6
CONTINUOUS
 62
     3
100
AcDbLine
 10
248.234326
 20
44.179202
 30
0.0
 11
244.857907
 21
37.257037
 31
0.0
  0
LINE
  5
B1
100
AcDbEntity
  8
_
  6
CONTINUOUS
 62
     3
100
AcDbLine
 10
244.533673
 20
44.179202
 30
0.0
 11
248.234326
 21
44.179202
 31
0.0
  0
LINE
  5
B2
100
AcDbEntity
  8
_
  6
CONTINUOUS
 62
     3
100
AcDbLine
 10
241.803891
 20
38.582721
 30
0.0
 11
244.533673
 21
44.179202
 31
0.0
  0
ARC
  5
B3
100
AcDbEntity
  8
_
  6
CONTINUOUS
 62
     3
100
AcDbCircle
 10
239.629651
 20
39.643222
 30
0.0
 40
2.4192
100
AcDbArc
 50
270.000031
 51
333.99855
  0
LINE
  5
B4
100
AcDbEntity
  8
_
  6
CONTINUOUS
 62
     3
100
AcDbLine
 10
231.3
 20
37.223987
 30
0.0
 11
239.629651
 21
37.223987
 31
0.0
  0
LINE
  5
B5
100
AcDbEntity
  8
_
  6
CONTINUOUS
 62
     3
100
AcDbLine
 10
231.3
 20
37.223987
 30
0.0
 11
231.3
 21
34.2
 31
0.0
  0
LINE
  5
B6
100
AcDbEntity
  8
_
  6
CONTINUOUS
 62
     3
100
AcDbLine
 10
239.767484
 20
41.15517
 30
0.0
 11
231.3
 21
41.15517
 31
0.0
  0
LINE
  5
B7
100
AcDbEntity
  8
_
  6
CONTINUOUS
 62
     3
100
AcDbLine
 10
239.767484
 20
43.876804
 30
0.0
 11
239.767484
 21
41.15517
 31
0.0
  0
LINE
  5
B8
100
AcDbEntity
  8
_
  6
CONTINUOUS
 62
     3
100
AcDbLine
 10
231.3
 20
43.876804
 30
0.0
 11
239.767484
 21
43.876804
 31
0.0
  0
LINE
  5
B9
100
AcDbEntity
  8
_
  6
CONTINUOUS
 62
     3
100
AcDbLine
 10
231.3
 20
43.876804
 30
0.0
 11
231.3
 21
41.15517
 31
0.0
  0
LINE
  5
BA
100
AcDbEntity
  8
_
  6
CONTINUOUS
 62
     3
100
AcDbLine
 10
239.767484
 20
44.784
 30
0.0
 11
231.3
 21
44.784
 31
0.0
  0
LINE
  5
BB
100
AcDbEntity
  8
_
  6
CONTINUOUS
 62
     3
100
AcDbLine
 10
239.767484
 20
47.505588
 30
0.0
 11
239.767484
 21
44.784
 31
0.0
  0
LINE
  5
BC
100
AcDbEntity
  8
_
  6
CONTINUOUS
 62
     3
100
AcDbLine
 10
231.3
 20
47.505588
 30
0.0
 11
239.767484
 21
47.505588
 31
0.0
  0
LINE
  5
BD
100
AcDbEntity
  8
_
  6
CONTINUOUS
 62
     3
100
AcDbLine
 10
231.3
 20
47.505588
 30
0.0
 11
231.3
 21
44.784
 31
0.0
  0
LINE
  5
BE
100
AcDbEntity
  8
_
  6
CONTINUOUS
 62
     3
100
AcDbLine
 10
249.141797
 20
44.179202
 30
0.0
 11
249.141797
 21
42.062366
 31
0.0
  0
LINE
  5
BF
100
AcDbEntity
  8
_
  6
CONTINUOUS
 62
     3
100
AcDbLine
 10
249.141797
 20
44.179202
 30
0.0
 11
251.896207
 21
44.179202
 31
0.0
  0
LINE
  5
C0
100
AcDbEntity
  8
_
  6
CONTINUOUS
 62
     3
100
AcDbLine
 10
251.560895
 20
46.295993
 30
0.0
 11
251.896207
 21
44.179202
 31
0.0
  0
LINE
  5
C1
100
AcDbEntity
  8
_
  6
CONTINUOUS
 62
     3
100
AcDbLine
 10
251.560895
 20
46.295993
 30
0.0
 11
254.928708
 21
46.295993
 31
0.0
  0
LINE
  5
C2
100
AcDbEntity
  8
_
  6
CONTINUOUS
 62
     3
100
AcDbLine
 10
254.928708
 20
46.295993
 30
0.0
 11
255.263974
 21
44.179202
 31
0.0
  0
LINE
  5
C3
100
AcDbEntity
  8
_
  6
CONTINUOUS
 62
     3
100
AcDbLine
 10
255.263974
 20
44.179202
 30
0.0
 11
263.657025
 21
44.179202
 31
0.0
  0
LINE
  5
C4
100
AcDbEntity
  8
_
  6
CONTINUOUS
 62
     3
100
AcDbLine
 10
263.657025
 20
44.179202
 30
0.0
 11
261.891934
 21
40.215152
 31
0.0
  0
ARC
  5
C5
100
AcDbEntity
  8
_
  6
CONTINUOUS
 62
     3
100
AcDbCircle
 10
257.748303
 20
42.060123
 30
0.0
 40
4.536032
100
AcDbArc
 50
263.465775
 51
335.998779
  0
LINE
  5
C6
100
AcDbEntity
  8
_
  6
CONTINUOUS
 62
     3
100
AcDbLine
 10
257.231534
 20
37.553577
 30
0.0
 11
256.90112
 21
39.643222
 31
0.0
  0
ARC
  5
C7
100
AcDbEntity
  8
_
  6
CONTINUOUS
 62
     3
100
AcDbCircle
 10
256.817441
 20
41.457614
 30
0.0
 40
1.814402
100
AcDbArc
 50
272.623749
 51
336.006531
  0
LINE
  5
C8
100
AcDbEntity
  8
_
  6
CONTINUOUS
 62
     3
100
AcDbLine
 10
258.475507
 20
40.719608
 30
0.0
 11
259.072888
 21
42.062366
 31
0.0
  0
LINE
  5
C9
100
AcDbEntity
  8
_
  6
CONTINUOUS
 62
     3
100
AcDbLine
 10
259.072888
 20
42.062366
 30
0.0
 11
255.599286
 21
42.062366
 31
0.0
  0
LINE
  5
CA
100
AcDbEntity
  8
_
  6
CONTINUOUS
 62
     3
100
AcDbLine
 10
255.599286
 20
42.062366
 30
0.0
 11
256.84454
 21
34.2
 31
0.0
  0
LINE
  5
CB
100
AcDbEntity
  8
_
  6
CONTINUOUS
 62
     3
100
AcDbLine
 10
256.84454
 20
34.2
 30
0.0
 11
253.476727
 21
34.2
 31
0.0
  0
LINE
  5
CC
100
AcDbEntity
  8
_
  6
CONTINUOUS
 62
     2
100
AcDbLine
 10
253.476727
 20
34.2
 30
0.0
 11
252.231519
 21
42.062366
 31
0.0
  0
LINE
  5
CD
100
AcDbEntity
  8
_
  6
CONTINUOUS
 62
     2
100
AcDbLine
 10
252.231519
 20
42.062366
 30
0.0
 11
249.141797
 21
42.062366
 31
0.0
  0
LINE
  5
CE
100
AcDbEntity
  8
_
  6
CONTINUOUS
 62
     3
100
AcDbLine
 10
263.354306
 20
34.2
 30
0.0
 11
263.354306
 21
37.223987
 31
0.0
  0
LINE
  5
CF
100
AcDbEntity
  8
_
  6
CONTINUOUS
 62
     3
100
AcDbLine
 10
263.354306
 20
37.223987
 30
0.0
 11
280.288632
 21
37.223987
 31
0.0
  0
LINE
  5
D0
100
AcDbEntity
  8
_
  6
CONTINUOUS
 62
     3
100
AcDbLine
 10
280.288632
 20
37.223987
 30
0.0
 11
280.288632
 21
34.2
 31
0.0
  0
LINE
  5
D1
100
AcDbEntity
  8
_
  6
CONTINUOUS
 62
     3
100
AcDbLine
 10
280.288632
 20
34.2
 30
0.0
 11
263.354306
 21
34.2
 31
0.0
  0
LINE
  5
D2
100
AcDbEntity
  8
_
  6
CONTINUOUS
 62
     3
100
AcDbLine
 10
264.563855
 20
47.505588
 30
0.0
 11
264.563855
 21
44.481601
 31
0.0
  0
LINE
  5
D3
100
AcDbEntity
  8
_
  6
CONTINUOUS
 62
     3
100
AcDbLine
 10
264.563855
 20
47.505588
 30
0.0
 11
279.079083
 21
47.505588
 31
0.0
  0
LINE
  5
D4
100
AcDbEntity
  8
_
  6
CONTINUOUS
 62
     3
100
AcDbLine
 10
279.079083
 20
47.505588
 30
0.0
 11
279.079083
 21
44.481601
 31
0.0
  0
LINE
  5
D5
100
AcDbEntity
  8
_
  6
CONTINUOUS
 62
     3
100
AcDbLine
 10
279.079083
 20
44.481601
 30
0.0
 11
264.563855
 21
44.481601
 31
0.0
  0
LINE
  5
D6
100
AcDbEntity
  8
_
  6
CONTINUOUS
 62
     3
100
AcDbLine
 10
282.405652
 20
47.505588
 30
0.0
 11
282.405652
 21
44.481601
 31
0.0
  0
LINE
  5
D7
100
AcDbEntity
  8
_
  6
CONTINUOUS
 62
     3
100
AcDbLine
 10
282.405652
 20
47.505588
 30
0.0
 11
298.130429
 21
47.505588
 31
0.0
  0
LINE
  5
D8
100
AcDbEntity
  8
_
  6
CONTINUOUS
 62
     3
100
AcDbLine
 10
298.130429
 20
47.505588
 30
0.0
 11
293.41528
 21
41.015689
 31
0.0
  0
LINE
  5
D9
100
AcDbEntity
  8
_
  6
CONTINUOUS
 62
     3
100
AcDbLine
 10
293.41528
 20
41.015689
 30
0.0
 11
299.339978
 21
34.2
 31
0.0
  0
LINE
  5
DA
100
AcDbEntity
  8
_
  6
CONTINUOUS
 62
     3
100
AcDbLine
 10
299.339978
 20
34.2
 30
0.0
 11
294.932446
 21
34.2
 31
0.0
  0
LINE
  5
DB
100
AcDbEntity
  8
_
  6
CONTINUOUS
 62
     3
100
AcDbLine
 10
294.932446
 20
34.2
 30
0.0
 11
291.408398
 21
38.253818
 31
0.0
  0
LINE
  5
DC
100
AcDbEntity
  8
_
  6
CONTINUOUS
 62
     3
100
AcDbLine
 10
291.408398
 20
38.253818
 30
0.0
 11
290.093655
 21
36.443774
 31
0.0
  0
ARC
  5
DD
100
AcDbEntity
  8
_
  6
CONTINUOUS
 62
     3
100
AcDbCircle
 10
285.689786
 20
39.643222
 30
0.0
 40
5.443199
100
AcDbArc
 50
270.000031
 51
324.00116
  0
LINE
  5
DE
100
AcDbEntity
  8
_
  6
CONTINUOUS
 62
     3
100
AcDbLine
 10
285.689786
 20
34.2
 30
0.0
 11
281.196103
 21
34.2
 31
0.0
  0
LINE
  5
DF
100
AcDbEntity
  8
_
  6
CONTINUOUS
 62
     3
100
AcDbLine
 10
281.196103
 20
34.2
 30
0.0
 11
281.196103
 21
37.223987
 31
0.0
  0
LINE
  5
E0
100
AcDbEntity
  8
_
  6
CONTINUOUS
 62
     3
100
AcDbLine
 10
281.196103
 20
37.223987
 30
0.0
 11
285.00813
 21
37.223987
 31
0.0
  0
ARC
  5
E1
100
AcDbEntity
  8
_
  6
CONTINUOUS
 62
     3
100
AcDbCircle
 10
285.00813
 20
40.247974
 30
0.0
 40
3.023998
100
AcDbArc
 50
270.000031
 51
323.996597
  0
LINE
  5
E2
100
AcDbEntity
  8
_
  6
CONTINUOUS
 62
     3
100
AcDbLine
 10
287.454282
 20
38.470523
 30
0.0
 11
291.821851
 21
44.481601
 31
0.0
  0
LINE
  5
E3
100
AcDbEntity
  8
_
  6
CONTINUOUS
 62
     3
100
AcDbLine
 10
291.821851
 20
44.481601
 30
0.0
 11
282.405652
 21
44.481601
 31
0.0
  0
LINE
  5
E4
100
AcDbEntity
  8
_
  6
CONTINUOUS
 62
     3
100
AcDbLine
 10
302.968671
 20
47.505588
 30
0.0
 11
302.968671
 21
45.388797
 31
0.0
  0
LINE
  5
E5
100
AcDbEntity
  8
_
  6
CONTINUOUS
 62
     3
100
AcDbLine
 10
302.968671
 20
47.505588
 30
0.0
 11
318.693402
 21
47.505588
 31
0.0
  0
LINE
  5
E6
100
AcDbEntity
  8
_
  6
CONTINUOUS
 62
     3
100
AcDbLine
 10
318.693402
 20
47.505588
 30
0.0
 11
318.693402
 21
45.388797
 31
0.0
  0
LINE
  5
E7
100
AcDbEntity
  8
_
  6
CONTINUOUS
 62
     3
100
AcDbLine
 10
318.693402
 20
45.388797
 30
0.0
 11
312.494321
 21
45.388797
 31
0.0
  0
LINE
  5
E8
100
AcDbEntity
  8
_
  6
CONTINUOUS
 62
     3
100
AcDbLine
 10
312.494321
 20
45.388797
 30
0.0
 11
312.494321
 21
36.619235
 31
0.0
  0
LINE
  5
E9
100
AcDbEntity
  8
_
  6
CONTINUOUS
 62
     3
100
AcDbLine
 10
312.494321
 20
36.619235
 30
0.0
 11
319.298199
 21
36.619235
 31
0.0
  0
LINE
  5
EA
100
AcDbEntity
  8
_
  6
CONTINUOUS
 62
     3
100
AcDbLine
 10
319.298199
 20
36.619235
 30
0.0
 11
319.298199
 21
34.2
 31
0.0
  0
LINE
  5
EB
100
AcDbEntity
  8
_
  6
CONTINUOUS
 62
     3
100
AcDbLine
 10
319.298199
 20
34.2
 30
0.0
 11
302.363873
 21
34.2
 31
0.0
  0
LINE
  5
EC
100
AcDbEntity
  8
_
  6
CONTINUOUS
 62
     3
100
AcDbLine
 10
302.363873
 20
34.2
 30
0.0
 11
302.363873
 21
36.619235
 31
0.0
  0
LINE
  5
ED
100
AcDbEntity
  8
_
  6
CONTINUOUS
 62
     3
100
AcDbLine
 10
302.363873
 20
36.619235
 30
0.0
 11
309.167752
 21
36.619235
 31
0.0
  0
LINE
  5
EE
100
AcDbEntity
  8
_
  6
CONTINUOUS
 62
     3
100
AcDbLine
 10
309.167752
 20
36.619235
 30
0.0
 11
309.167752
 21
45.388797
 31
0.0
  0
LINE
  5
EF
100
AcDbEntity
  8
_
  6
CONTINUOUS
 62
     3
100
AcDbLine
 10
309.167752
 20
45.388797
 30
0.0
 11
302.968671
 21
45.388797
 31
0.0
  0
LINE
  5
F0
100
AcDbEntity
  8
_
  6
CONTINUOUS
 62
     3
100
AcDbLine
 10
319.600873
 20
45.691196
 30
0.0
 11
319.600873
 21
44.300143
 31
0.0
  0
LINE
  5
F1
100
AcDbEntity
  8
_
  6
CONTINUOUS
 62
     3
100
AcDbLine
 10
319.600873
 20
45.691196
 30
0.0
 11
322.227933
 21
45.691196
 31
0.0
  0
LINE
  5
F2
100
AcDbEntity
  8
_
  6
CONTINUOUS
 62
     3
100
AcDbLine
 10
322.227933
 20
45.691196
 30
0.0
 11
320.810468
 21
47.505588
 31
0.0
  0
LINE
  5
F3
100
AcDbEntity
  8
_
  6
CONTINUOUS
 62
     3
100
AcDbLine
 10
320.810468
 20
47.505588
 30
0.0
 11
323.496579
 21
47.505588
 31
0.0
  0
LINE
  5
F4
100
AcDbEntity
  8
_
  6
CONTINUOUS
 62
     3
100
AcDbLine
 10
323.496579
 20
47.505588
 30
0.0
 11
324.914044
 21
45.691196
 31
0.0
  0
LINE
  5
F5
100
AcDbEntity
  8
_
  6
CONTINUOUS
 62
     3
100
AcDbLine
 10
324.914044
 20
45.691196
 30
0.0
 11
325.497922
 21
45.691196
 31
0.0
  0
LINE
  5
F6
100
AcDbEntity
  8
_
  6
CONTINUOUS
 62
     3
100
AcDbLine
 10
325.497922
 20
45.691196
 30
0.0
 11
325.497922
 21
47.505588
 31
0.0
  0
LINE
  5
F7
100
AcDbEntity
  8
_
  6
CONTINUOUS
 62
     3
100
AcDbLine
 10
325.497922
 20
47.505588
 30
0.0
 11
327.614301
 21
47.505588
 31
0.0
  0
LINE
  5
F8
100
AcDbEntity
  8
_
  6
CONTINUOUS
 62
     3
100
AcDbLine
 10
327.614301
 20
47.505588
 30
0.0
 11
327.614301
 21
45.691196
 31
0.0
  0
LINE
  5
F9
100
AcDbEntity
  8
_
  6
CONTINUOUS
 62
     3
100
AcDbLine
 10
327.614301
 20
45.691196
 30
0.0
 11
328.521771
 21
45.691196
 31
0.0
  0
LINE
  5
FA
100
AcDbEntity
  8
_
  6
CONTINUOUS
 62
     3
100
AcDbLine
 10
328.521771
 20
45.691196
 30
0.0
 11
328.521771
 21
47.505588
 31
0.0
  0
LINE
  5
FB
100
AcDbEntity
  8
_
  6
CONTINUOUS
 62
     3
100
AcDbLine
 10
328.521771
 20
47.505588
 30
0.0
 11
330.638196
 21
47.505588
 31
0.0
  0
LINE
  5
FC
100
AcDbEntity
  8
_
  6
CONTINUOUS
 62
     3
100
AcDbLine
 10
330.638196
 20
47.505588
 30
0.0
 11
330.638196
 21
45.691196
 31
0.0
  0
LINE
  5
FD
100
AcDbEntity
  8
_
  6
CONTINUOUS
 62
     3
100
AcDbLine
 10
330.638196
 20
45.691196
 30
0.0
 11
331.222073
 21
45.691196
 31
0.0
  0
LINE
  5
FE
100
AcDbEntity
  8
_
  6
CONTINUOUS
 62
     3
100
AcDbLine
 10
331.222073
 20
45.691196
 30
0.0
 11
332.639539
 21
47.505588
 31
0.0
  0
LINE
  5
FF
100
AcDbEntity
  8
_
  6
CONTINUOUS
 62
     3
100
AcDbLine
 10
332.639539
 20
47.505588
 30
0.0
 11
335.32565
 21
47.505588
 31
0.0
  0
LINE
  5
100
100
AcDbEntity
  8
_
  6
CONTINUOUS
 62
     3
100
AcDbLine
 10
335.32565
 20
47.505588
 30
0.0
 11
333.908185
 21
45.691196
 31
0.0
  0
LINE
  5
101
100
AcDbEntity
  8
_
  6
CONTINUOUS
 62
     3
100
AcDbLine
 10
333.908185
 20
45.691196
 30
0.0
 11
336.535199
 21
45.691196
 31
0.0
  0
LINE
  5
102
100
AcDbEntity
  8
_
  6
CONTINUOUS
 62
     3
100
AcDbLine
 10
336.535199
 20
45.691196
 30
0.0
 11
336.535199
 21
44.300143
 31
0.0
  0
LINE
  5
103
100
AcDbEntity
  8
_
  6
CONTINUOUS
 62
     3
100
AcDbLine
 10
336.535199
 20
44.300143
 30
0.0
 11
333.348294
 21
44.300143
 31
0.0
  0
LINE
  5
104
100
AcDbEntity
  8
_
  6
CONTINUOUS
 62
     3
100
AcDbLine
 10
333.348294
 20
44.300143
 30
0.0
 11
332.798291
 21
42.788196
 31
0.0
  0
LINE
  5
105
100
AcDbEntity
  8
_
  6
CONTINUOUS
 62
     3
100
AcDbLine
 10
332.798291
 20
42.788196
 30
0.0
 11
336.535199
 21
42.788196
 31
0.0
  0
LINE
  5
106
100
AcDbEntity
  8
_
  6
CONTINUOUS
 62
     3
100
AcDbLine
 10
336.535199
 20
42.788196
 30
0.0
 11
336.535199
 21
41.397144
 31
0.0
  0
LINE
  5
107
100
AcDbEntity
  8
_
  6
CONTINUOUS
 62
     3
100
AcDbLine
 10
336.535199
 20
41.397144
 30
0.0
 11
329.579984
 21
41.397144
 31
0.0
  0
LINE
  5
108
100
AcDbEntity
  8
_
  6
CONTINUOUS
 62
     3
100
AcDbLine
 10
329.579984
 20
41.397144
 30
0.0
 11
329.579984
 21
40.701617
 31
0.0
  0
LINE
  5
109
100
AcDbEntity
  8
_
  6
CONTINUOUS
 62
     3
100
AcDbLine
 10
329.579984
 20
40.701617
 30
0.0
 11
336.535199
 21
40.701617
 31
0.0
  0
LINE
  5
10A
100
AcDbEntity
  8
_
  6
CONTINUOUS
 62
     3
100
AcDbLine
 10
336.535199
 20
40.701617
 30
0.0
 11
336.535199
 21
39.310565
 31
0.0
  0
LINE
  5
10B
100
AcDbEntity
  8
_
  6
CONTINUOUS
 62
     3
100
AcDbLine
 10
336.535199
 20
39.310565
 30
0.0
 11
329.579984
 21
39.310565
 31
0.0
  0
LINE
  5
10C
100
AcDbEntity
  8
_
  6
CONTINUOUS
 62
     3
100
AcDbLine
 10
329.579984
 20
39.310565
 30
0.0
 11
329.579984
 21
38.615039
 31
0.0
  0
LINE
  5
10D
100
AcDbEntity
  8
_
  6
CONTINUOUS
 62
     3
100
AcDbLine
 10
329.579984
 20
38.615039
 30
0.0
 11
336.535199
 21
38.615039
 31
0.0
  0
LINE
  5
10E
100
AcDbEntity
  8
_
  6
CONTINUOUS
 62
     3
100
AcDbLine
 10
336.535199
 20
38.615039
 30
0.0
 11
336.535199
 21
37.223987
 31
0.0
  0
LINE
  5
10F
100
AcDbEntity
  8
_
  6
CONTINUOUS
 62
     3
100
AcDbLine
 10
336.535199
 20
37.223987
 30
0.0
 11
333.188351
 21
37.223987
 31
0.0
  0
LINE
  5
110
100
AcDbEntity
  8
_
  6
CONTINUOUS
 62
     3
100
AcDbLine
 10
333.188351
 20
37.223987
 30
0.0
 11
336.535199
 21
34.2
 31
0.0
  0
LINE
  5
111
100
AcDbEntity
  8
_
  6
CONTINUOUS
 62
     3
100
AcDbLine
 10
336.535199
 20
34.2
 30
0.0
 11
332.926877
 21
34.2
 31
0.0
  0
LINE
  5
112
100
AcDbEntity
  8
_
  6
CONTINUOUS
 62
     3
100
AcDbLine
 10
332.926877
 20
34.2
 30
0.0
 11
329.579984
 21
37.223987
 31
0.0
  0
LINE
  5
113
100
AcDbEntity
  8
_
  6
CONTINUOUS
 62
     3
100
AcDbLine
 10
329.579984
 20
37.223987
 30
0.0
 11
329.579984
 21
34.2
 31
0.0
  0
LINE
  5
114
100
AcDbEntity
  8
_
  6
CONTINUOUS
 62
     3
100
AcDbLine
 10
329.579984
 20
34.2
 30
0.0
 11
326.556134
 21
34.2
 31
0.0
  0
LINE
  5
115
100
AcDbEntity
  8
_
  6
CONTINUOUS
 62
     3
100
AcDbLine
 10
326.556134
 20
34.2
 30
0.0
 11
326.556134
 21
37.223987
 31
0.0
  0
LINE
  5
116
100
AcDbEntity
  8
_
  6
CONTINUOUS
 62
     3
100
AcDbLine
 10
326.556134
 20
37.223987
 30
0.0
 11
323.209241
 21
34.2
 31
0.0
  0
LINE
  5
117
100
AcDbEntity
  8
_
  6
CONTINUOUS
 62
     3
100
AcDbLine
 10
323.209241
 20
34.2
 30
0.0
 11
319.600873
 21
34.2
 31
0.0
  0
LINE
  5
118
100
AcDbEntity
  8
_
  6
CONTINUOUS
 62
     3
100
AcDbLine
 10
319.600873
 20
34.2
 30
0.0
 11
322.947766
 21
37.223987
 31
0.0
  0
LINE
  5
119
100
AcDbEntity
  8
_
  6
CONTINUOUS
 62
     3
100
AcDbLine
 10
322.947766
 20
37.223987
 30
0.0
 11
319.600873
 21
37.223987
 31
0.0
  0
LINE
  5
11A
100
AcDbEntity
  8
_
  6
CONTINUOUS
 62
     3
100
AcDbLine
 10
319.600873
 20
37.223987
 30
0.0
 11
319.600873
 21
38.615039
 31
0.0
  0
LINE
  5
11B
100
AcDbEntity
  8
_
  6
CONTINUOUS
 62
     3
100
AcDbLine
 10
319.600873
 20
38.615039
 30
0.0
 11
326.556134
 21
38.615039
 31
0.0
  0
LINE
  5
11C
100
AcDbEntity
  8
_
  6
CONTINUOUS
 62
     3
100
AcDbLine
 10
326.556134
 20
38.615039
 30
0.0
 11
326.556134
 21
39.310565
 31
0.0
  0
LINE
  5
11D
100
AcDbEntity
  8
_
  6
CONTINUOUS
 62
     3
100
AcDbLine
 10
326.556134
 20
39.310565
 30
0.0
 11
319.600873
 21
39.310565
 31
0.0
  0
LINE
  5
11E
100
AcDbEntity
  8
_
  6
CONTINUOUS
 62
     3
100
AcDbLine
 10
319.600873
 20
39.310565
 30
0.0
 11
319.600873
 21
40.701617
 31
0.0
  0
LINE
  5
11F
100
AcDbEntity
  8
_
  6
CONTINUOUS
 62
     3
100
AcDbLine
 10
319.600873
 20
40.701617
 30
0.0
 11
326.556134
 21
40.701617
 31
0.0
  0
LINE
  5
120
100
AcDbEntity
  8
_
  6
CONTINUOUS
 62
     3
100
AcDbLine
 10
326.556134
 20
40.701617
 30
0.0
 11
326.556134
 21
41.397144
 31
0.0
  0
LINE
  5
121
100
AcDbEntity
  8
_
  6
CONTINUOUS
 62
     3
100
AcDbLine
 10
326.556134
 20
41.397144
 30
0.0
 11
319.600873
 21
41.397144
 31
0.0
  0
LINE
  5
122
100
AcDbEntity
  8
_
  6
CONTINUOUS
 62
     3
100
AcDbLine
 10
319.600873
 20
41.397144
 30
0.0
 11
319.600873
 21
42.788196
 31
0.0
  0
LINE
  5
123
100
AcDbEntity
  8
_
  6
CONTINUOUS
 62
     3
100
AcDbLine
 10
319.600873
 20
42.788196
 30
0.0
 11
323.337827
 21
42.788196
 31
0.0
  0
LINE
  5
124
100
AcDbEntity
  8
_
  6
CONTINUOUS
 62
     3
100
AcDbLine
 10
323.337827
 20
42.788196
 30
0.0
 11
322.787824
 21
44.300143
 31
0.0
  0
LINE
  5
125
100
AcDbEntity
  8
_
  6
CONTINUOUS
 62
     3
100
AcDbLine
 10
322.787824
 20
44.300143
 30
0.0
 11
319.600873
 21
44.300143
 31
0.0
  0
LINE
  5
126
100
AcDbEntity
  8
_
  6
CONTINUOUS
 62
     3
100
AcDbLine
 10
326.00549
 20
44.300143
 30
0.0
 11
330.130627
 21
44.300143
 31
0.0
  0
LINE
  5
127
100
AcDbEntity
  8
_
  6
CONTINUOUS
 62
     3
100
AcDbLine
 10
330.130627
 20
44.300143
 30
0.0
 11
329.579984
 21
42.788196
 31
0.0
  0
LINE
  5
128
100
AcDbEntity
  8
_
  6
CONTINUOUS
 62
     3
100
AcDbLine
 10
329.579984
 20
42.788196
 30
0.0
 11
326.556134
 21
42.788196
 31
0.0
  0
LINE
  5
129
100
AcDbEntity
  8
_
  6
CONTINUOUS
 62
     3
100
AcDbLine
 10
326.556134
 20
42.788196
 30
0.0
 11
326.00549
 21
44.300143
 31
0.0
  0
LINE
  5
12A
100
AcDbEntity
  8
_
  6
CONTINUOUS
 62
     3
100
AcDbLine
 10
344.776913
 20
47.505588
 30
0.0
 11
343.796841
 21
43.574405
 31
0.0
  0
LINE
  5
12B
100
AcDbEntity
  8
_
  6
CONTINUOUS
 62
     3
100
AcDbLine
 10
344.776913
 20
47.505588
 30
0.0
 11
347.270444
 21
47.505588
 31
0.0
  0
LINE
  5
12C
100
AcDbEntity
  8
_
  6
CONTINUOUS
 62
     3
100
AcDbLine
 10
347.270444
 20
47.505588
 30
0.0
 11
346.893292
 21
45.993594
 31
0.0
  0
LINE
  5
12D
100
AcDbEntity
  8
_
  6
CONTINUOUS
 62
     3
100
AcDbLine
 10
346.893292
 20
45.993594
 30
0.0
 11
347.875241
 21
45.993594
 31
0.0
  0
LINE
  5
12E
100
AcDbEntity
  8
_
  6
CONTINUOUS
 62
     3
100
AcDbLine
 10
347.875241
 20
45.993594
 30
0.0
 11
347.875241
 21
47.505588
 31
0.0
  0
LINE
  5
12F
100
AcDbEntity
  8
_
  6
CONTINUOUS
 62
     3
100
AcDbLine
 10
347.875241
 20
47.505588
 30
0.0
 11
350.597012
 21
47.505588
 31
0.0
  0
LINE
  5
130
100
AcDbEntity
  8
_
  6
CONTINUOUS
 62
     3
100
AcDbLine
 10
350.597012
 20
47.505588
 30
0.0
 11
350.597012
 21
45.993594
 31
0.0
  0
LINE
  5
131
100
AcDbEntity
  8
_
  6
CONTINUOUS
 62
     3
100
AcDbLine
 10
350.597012
 20
45.993594
 30
0.0
 11
354.074323
 21
45.993594
 31
0.0
  0
LINE
  5
132
100
AcDbEntity
  8
_
  6
CONTINUOUS
 62
     3
100
AcDbLine
 10
354.074323
 20
45.993594
 30
0.0
 11
354.074323
 21
44.481601
 31
0.0
  0
LINE
  5
133
100
AcDbEntity
  8
_
  6
CONTINUOUS
 62
     3
100
AcDbLine
 10
350.597012
 20
44.481601
 30
0.0
 11
354.074323
 21
44.481601
 31
0.0
  0
LINE
  5
134
100
AcDbEntity
  8
_
  6
CONTINUOUS
 62
     3
100
AcDbLine
 10
350.597012
 20
44.481601
 30
0.0
 11
350.597012
 21
42.969608
 31
0.0
  0
LINE
  5
135
100
AcDbEntity
  8
_
  6
CONTINUOUS
 62
     3
100
AcDbLine
 10
350.597012
 20
42.969608
 30
0.0
 11
354.376996
 21
42.969608
 31
0.0
  0
LINE
  5
136
100
AcDbEntity
  8
_
  6
CONTINUOUS
 62
     3
100
AcDbLine
 10
354.376996
 20
42.969608
 30
0.0
 11
354.376996
 21
41.457614
 31
0.0
  0
LINE
  5
137
100
AcDbEntity
  8
_
  6
CONTINUOUS
 62
     3
100
AcDbLine
 10
354.376996
 20
41.457614
 30
0.0
 11
353.055478
 21
41.457614
 31
0.0
  0
LINE
  5
138
100
AcDbEntity
  8
_
  6
CONTINUOUS
 62
     3
100
AcDbLine
 10
353.055478
 20
41.457614
 30
0.0
 11
354.376996
 21
34.2
 31
0.0
  0
LINE
  5
139
100
AcDbEntity
  8
_
  6
CONTINUOUS
 62
     3
100
AcDbLine
 10
354.376996
 20
34.2
 30
0.0
 11
351.917935
 21
34.2
 31
0.0
  0
LINE
  5
13A
100
AcDbEntity
  8
_
  6
CONTINUOUS
 62
     3
100
AcDbLine
 10
351.917935
 20
34.2
 30
0.0
 11
350.597012
 21
41.457523
 31
0.0
  0
LINE
  5
13B
100
AcDbEntity
  8
_
  6
CONTINUOUS
 62
     3
100
AcDbLine
 10
350.597012
 20
41.457523
 30
0.0
 11
350.597012
 21
34.2
 31
0.0
  0
LINE
  5
13C
100
AcDbEntity
  8
_
  6
CONTINUOUS
 62
     3
100
AcDbLine
 10
350.597012
 20
34.2
 30
0.0
 11
347.875241
 21
34.2
 31
0.0
  0
LINE
  5
13D
100
AcDbEntity
  8
_
  6
CONTINUOUS
 62
     3
100
AcDbLine
 10
347.875241
 20
34.2
 30
0.0
 11
347.875241
 21
41.457614
 31
0.0
  0
LINE
  5
13E
100
AcDbEntity
  8
_
  6
CONTINUOUS
 62
     3
100
AcDbLine
 10
347.875241
 20
41.457614
 30
0.0
 11
346.554318
 21
34.2
 31
0.0
  0
LINE
  5
13F
100
AcDbEntity
  8
_
  6
CONTINUOUS
 62
     3
100
AcDbLine
 10
346.554318
 20
34.2
 30
0.0
 11
344.095212
 21
34.2
 31
0.0
  0
LINE
  5
140
100
AcDbEntity
  8
_
  6
CONTINUOUS
 62
     3
100
AcDbLine
 10
344.095212
 20
34.2
 30
0.0
 11
345.416135
 21
41.457614
 31
0.0
  0
LINE
  5
141
100
AcDbEntity
  8
_
  6
CONTINUOUS
 62
     3
100
AcDbLine
 10
345.416135
 20
41.457614
 30
0.0
 11
344.095212
 21
41.457614
 31
0.0
  0
LINE
  5
142
100
AcDbEntity
  8
_
  6
CONTINUOUS
 62
     3
100
AcDbLine
 10
344.095212
 20
41.457614
 30
0.0
 11
344.095212
 21
42.969608
 31
0.0
  0
LINE
  5
143
100
AcDbEntity
  8
_
  6
CONTINUOUS
 62
     3
100
AcDbLine
 10
344.095212
 20
42.969608
 30
0.0
 11
347.875241
 21
42.969608
 31
0.0
  0
LINE
  5
144
100
AcDbEntity
  8
_
  6
CONTINUOUS
 62
     3
100
AcDbLine
 10
347.875241
 20
42.969608
 30
0.0
 11
347.875241
 21
44.481601
 31
0.0
  0
LINE
  5
145
100
AcDbEntity
  8
_
  6
CONTINUOUS
 62
     3
100
AcDbLine
 10
347.875241
 20
44.481601
 30
0.0
 11
346.516187
 21
44.481601
 31
0.0
  0
LINE
  5
146
100
AcDbEntity
  8
_
  6
CONTINUOUS
 62
     3
100
AcDbLine
 10
346.516187
 20
44.481601
 30
0.0
 11
346.290372
 21
43.574405
 31
0.0
  0
LINE
  5
147
100
AcDbEntity
  8
_
  6
CONTINUOUS
 62
     3
100
AcDbLine
 10
346.290372
 20
43.574405
 30
0.0
 11
343.796841
 21
43.574405
 31
0.0
  0
LINE
  5
148
100
AcDbEntity
  8
_
  6
CONTINUOUS
 62
     3
100
AcDbLine
 10
337.139996
 20
45.993594
 30
0.0
 11
337.139996
 21
44.481601
 31
0.0
  0
LINE
  5
149
100
AcDbEntity
  8
_
  6
CONTINUOUS
 62
     3
100
AcDbLine
 10
337.139996
 20
45.993594
 30
0.0
 11
340.163892
 21
45.993594
 31
0.0
  0
LINE
  5
14A
100
AcDbEntity
  8
_
  6
CONTINUOUS
 62
     3
100
AcDbLine
 10
340.163892
 20
45.993594
 30
0.0
 11
340.163892
 21
47.505588
 31
0.0
  0
LINE
  5
14B
100
AcDbEntity
  8
_
  6
CONTINUOUS
 62
     3
100
AcDbLine
 10
340.163892
 20
47.505588
 30
0.0
 11
342.885663
 21
47.505588
 31
0.0
  0
LINE
  5
14C
100
AcDbEntity
  8
_
  6
CONTINUOUS
 62
     3
100
AcDbLine
 10
342.885663
 20
47.505588
 30
0.0
 11
342.885663
 21
45.993594
 31
0.0
  0
LINE
  5
14D
100
AcDbEntity
  8
_
  6
CONTINUOUS
 62
     3
100
AcDbLine
 10
342.885663
 20
45.993594
 30
0.0
 11
343.792538
 21
45.993594
 31
0.0
  0
LINE
  5
14E
100
AcDbEntity
  8
_
  6
CONTINUOUS
 62
     3
100
AcDbLine
 10
343.792538
 20
45.993594
 30
0.0
 11
343.792538
 21
44.481601
 31
0.0
  0
LINE
  5
14F
100
AcDbEntity
  8
_
  6
CONTINUOUS
 62
     3
100
AcDbLine
 10
343.792538
 20
44.481601
 30
0.0
 11
342.885663
 21
44.481601
 31
0.0
  0
LINE
  5
150
100
AcDbEntity
  8
_
  6
CONTINUOUS
 62
     3
100
AcDbLine
 10
342.885663
 20
44.481601
 30
0.0
 11
343.792538
 21
43.233005
 31
0.0
  0
LINE
  5
151
100
AcDbEntity
  8
_
  6
CONTINUOUS
 62
     3
100
AcDbLine
 10
343.792538
 20
43.233005
 30
0.0
 11
343.792538
 21
40.146213
 31
0.0
  0
LINE
  5
152
100
AcDbEntity
  8
_
  6
CONTINUOUS
 62
     3
100
AcDbLine
 10
343.792538
 20
40.146213
 30
0.0
 11
342.885663
 21
41.394855
 31
0.0
  0
LINE
  5
153
100
AcDbEntity
  8
_
  6
CONTINUOUS
 62
     3
100
AcDbLine
 10
342.885663
 20
41.394855
 30
0.0
 11
342.885663
 21
34.2
 31
0.0
  0
LINE
  5
154
100
AcDbEntity
  8
_
  6
CONTINUOUS
 62
     3
100
AcDbLine
 10
342.885663
 20
34.2
 30
0.0
 11
340.163892
 21
34.2
 31
0.0
  0
LINE
  5
155
100
AcDbEntity
  8
_
  6
CONTINUOUS
 62
     3
100
AcDbLine
 10
340.163892
 20
34.2
 30
0.0
 11
340.163892
 21
44.481601
 31
0.0
  0
LINE
  5
156
100
AcDbEntity
  8
_
  6
CONTINUOUS
 62
     3
100
AcDbLine
 10
340.045148
 20
44.481601
 30
0.0
 11
338.964185
 21
34.2
 31
0.0
  0
LINE
  5
157
100
AcDbEntity
  8
_
  6
CONTINUOUS
 62
     3
100
AcDbLine
 10
338.964185
 20
34.2
 30
0.0
 11
337.139996
 21
34.2
 31
0.0
  0
LINE
  5
158
100
AcDbEntity
  8
_
  6
CONTINUOUS
 62
     3
100
AcDbLine
 10
337.139996
 20
34.2
 30
0.0
 11
338.220959
 21
44.481601
 31
0.0
  0
LINE
  5
159
100
AcDbEntity
  8
_
  6
CONTINUOUS
 62
     3
100
AcDbLine
 10
338.220959
 20
44.481601
 30
0.0
 11
337.139996
 21
44.481601
 31
0.0
  0
LINE
  5
15A
100
AcDbEntity
  8
_
  6
CONTINUOUS
 62
     3
100
AcDbLine
 10
355.888669
 20
42.667209
 30
0.0
 11
355.888669
 21
40.852817
 31
0.0
  0
LINE
  5
15B
100
AcDbEntity
  8
_
  6
CONTINUOUS
 62
     3
100
AcDbLine
 10
355.888669
 20
42.667209
 30
0.0
 11
364.960904
 21
42.667209
 31
0.0
  0
LINE
  5
15C
100
AcDbEntity
  8
_
  6
CONTINUOUS
 62
     3
100
AcDbLine
 10
364.960904
 20
42.667209
 30
0.0
 11
364.960904
 21
40.852817
 31
0.0
  0
LINE
  5
15D
100
AcDbEntity
  8
_
  6
CONTINUOUS
 62
     3
100
AcDbLine
 10
364.960904
 20
40.852817
 30
0.0
 11
362.08775
 21
40.852817
 31
0.0
  0
LINE
  5
15E
100
AcDbEntity
  8
_
  6
CONTINUOUS
 62
     3
100
AcDbLine
 10
362.08775
 20
40.852817
 30
0.0
 11
362.08775
 21
38.332233
 31
0.0
  0
LINE
  5
15F
100
AcDbEntity
  8
_
  6
CONTINUOUS
 62
     3
100
AcDbLine
 10
362.08775
 20
38.332233
 30
0.0
 11
365.112241
 21
38.974979
 31
0.0
  0
LINE
  5
160
100
AcDbEntity
  8
_
  6
CONTINUOUS
 62
     3
100
AcDbLine
 10
365.112241
 20
38.974979
 30
0.0
 11
365.112241
 21
36.192599
 31
0.0
  0
LINE
  5
161
100
AcDbEntity
  8
_
  6
CONTINUOUS
 62
     3
100
AcDbLine
 10
365.112241
 20
36.192599
 30
0.0
 11
355.737286
 21
34.2
 31
0.0
  0
LINE
  5
162
100
AcDbEntity
  8
_
  6
CONTINUOUS
 62
     3
100
AcDbLine
 10
355.737286
 20
34.2
 30
0.0
 11
355.737286
 21
36.982379
 31
0.0
  0
LINE
  5
163
100
AcDbEntity
  8
_
  6
CONTINUOUS
 62
     3
100
AcDbLine
 10
355.737286
 20
36.982379
 30
0.0
 11
358.761777
 21
37.625171
 31
0.0
  0
LINE
  5
164
100
AcDbEntity
  8
_
  6
CONTINUOUS
 62
     3
100
AcDbLine
 10
358.761777
 20
37.625171
 30
0.0
 11
358.761777
 21
40.852817
 31
0.0
  0
LINE
  5
165
100
AcDbEntity
  8
_
  6
CONTINUOUS
 62
     3
100
AcDbLine
 10
358.761777
 20
40.852817
 30
0.0
 11
355.888669
 21
40.852817
 31
0.0
  0
LINE
  5
166
100
AcDbEntity
  8
_
  6
CONTINUOUS
 62
     3
100
AcDbLine
 10
354.981793
 20
46.295993
 30
0.0
 11
354.981793
 21
44.481601
 31
0.0
  0
LINE
  5
167
100
AcDbEntity
  8
_
  6
CONTINUOUS
 62
     3
100
AcDbLine
 10
354.981793
 20
46.295993
 30
0.0
 11
363.973462
 21
46.295993
 31
0.0
  0
LINE
  5
168
100
AcDbEntity
  8
_
  6
CONTINUOUS
 62
     3
100
AcDbLine
 10
363.973462
 20
46.295993
 30
0.0
 11
363.533551
 21
47.505588
 31
0.0
  0
LINE
  5
169
100
AcDbEntity
  8
_
  6
CONTINUOUS
 62
     3
100
AcDbLine
 10
363.533551
 20
47.505588
 30
0.0
 11
367.07298
 21
47.505588
 31
0.0
  0
LINE
  5
16A
100
AcDbEntity
  8
_
  6
CONTINUOUS
 62
     3
100
AcDbLine
 10
367.07298
 20
47.505588
 30
0.0
 11
367.513486
 21
46.295993
 31
0.0
  0
LINE
  5
16B
100
AcDbEntity
  8
_
  6
CONTINUOUS
 62
     3
100
AcDbLine
 10
367.513486
 20
46.295993
 30
0.0
 11
368.287473
 21
46.295993
 31
0.0
  0
LINE
  5
16C
100
AcDbEntity
  8
_
  6
CONTINUOUS
 62
     3
100
AcDbLine
 10
368.287473
 20
46.295993
 30
0.0
 11
368.287473
 21
47.505588
 31
0.0
  0
LINE
  5
16D
100
AcDbEntity
  8
_
  6
CONTINUOUS
 62
     3
100
AcDbLine
 10
368.287473
 20
47.505588
 30
0.0
 11
371.008649
 21
47.505588
 31
0.0
  0
LINE
  5
16E
100
AcDbEntity
  8
_
  6
CONTINUOUS
 62
     3
100
AcDbLine
 10
371.008649
 20
47.505588
 30
0.0
 11
371.008649
 21
46.295993
 31
0.0
  0
LINE
  5
16F
100
AcDbEntity
  8
_
  6
CONTINUOUS
 62
     3
100
AcDbLine
 10
371.008649
 20
46.295993
 30
0.0
 11
371.916119
 21
46.295993
 31
0.0
  0
LINE
  5
170
100
AcDbEntity
  8
_
  6
CONTINUOUS
 62
     3
100
AcDbLine
 10
371.916119
 20
46.295993
 30
0.0
 11
371.916119
 21
44.481601
 31
0.0
  0
LINE
  5
171
100
AcDbEntity
  8
_
  6
CONTINUOUS
 62
     3
100
AcDbLine
 10
371.916119
 20
44.481601
 30
0.0
 11
368.173627
 21
44.481601
 31
0.0
  0
LINE
  5
172
100
AcDbEntity
  8
_
  6
CONTINUOUS
 62
     3
100
AcDbLine
 10
368.173627
 20
44.481601
 30
0.0
 11
371.916119
 21
34.2
 31
0.0
  0
LINE
  5
173
100
AcDbEntity
  8
_
  6
CONTINUOUS
 62
     3
100
AcDbLine
 10
371.916119
 20
34.2
 30
0.0
 11
368.37605
 21
34.2
 31
0.0
  0
LINE
  5
174
100
AcDbEntity
  8
_
  6
CONTINUOUS
 62
     3
100
AcDbLine
 10
368.37605
 20
34.2
 30
0.0
 11
364.634198
 21
44.481601
 31
0.0
  0
LINE
  5
175
100
AcDbEntity
  8
_
  6
CONTINUOUS
 62
     3
100
AcDbLine
 10
364.634198
 20
44.481601
 30
0.0
 11
354.981793
 21
44.481601
 31
0.0
  0
LINE
  5
176
100
AcDbEntity
  8
_
  6
CONTINUOUS
 62
     3
100
AcDbLine
 10
372.520917
 20
44.92435
 30
0.0
 11
372.520917
 21
43.010989
 31
0.0
  0
LINE
  5
177
100
AcDbEntity
  8
_
  6
CONTINUOUS
 62
     3
100
AcDbLine
 10
372.520917
 20
44.92435
 30
0.0
 11
381.139096
 21
47.807986
 31
0.0
  0
LINE
  5
178
100
AcDbEntity
  8
_
  6
CONTINUOUS
 62
     3
100
AcDbLine
 10
381.139096
 20
47.807986
 30
0.0
 11
389.757321
 21
44.924258
 31
0.0
  0
LINE
  5
179
100
AcDbEntity
  8
_
  6
CONTINUOUS
 62
     3
100
AcDbLine
 10
389.757321
 20
44.924258
 30
0.0
 11
389.757321
 21
43.010989
 31
0.0
  0
LINE
  5
17A
100
AcDbEntity
  8
_
  6
CONTINUOUS
 62
     3
100
AcDbLine
 10
389.757321
 20
43.010989
 30
0.0
 11
387.187482
 21
43.871036
 31
0.0
  0
LINE
  5
17B
100
AcDbEntity
  8
_
  6
CONTINUOUS
 62
     3
100
AcDbLine
 10
387.187482
 20
43.871036
 30
0.0
 11
387.187482
 21
42.36481
 31
0.0
  0
LINE
  5
17C
100
AcDbEntity
  8
_
  6
CONTINUOUS
 62
     3
100
AcDbLine
 10
387.187482
 20
42.36481
 30
0.0
 11
375.091351
 21
42.36481
 31
0.0
  0
LINE
  5
17D
100
AcDbEntity
  8
_
  6
CONTINUOUS
 62
     3
100
AcDbLine
 10
375.091351
 20
42.36481
 30
0.0
 11
375.091351
 21
43.871036
 31
0.0
  0
LINE
  5
17E
100
AcDbEntity
  8
_
  6
CONTINUOUS
 62
     3
100
AcDbLine
 10
375.091351
 20
43.871036
 30
0.0
 11
372.520917
 21
43.010989
 31
0.0
  0
LINE
  5
17F
100
AcDbEntity
  8
_
  6
CONTINUOUS
 62
     3
100
AcDbLine
 10
376.012372
 20
44.179202
 30
0.0
 11
381.139096
 21
45.894672
 31
0.0
  0
LINE
  5
180
100
AcDbEntity
  8
_
  6
CONTINUOUS
 62
     3
100
AcDbLine
 10
381.139096
 20
45.894672
 30
0.0
 11
386.266461
 21
44.179202
 31
0.0
  0
LINE
  5
181
100
AcDbEntity
  8
_
  6
CONTINUOUS
 62
     3
100
AcDbLine
 10
386.266461
 20
44.179202
 30
0.0
 11
376.012372
 21
44.179202
 31
0.0
  0
LINE
  5
182
100
AcDbEntity
  8
_
  6
CONTINUOUS
 62
     3
100
AcDbLine
 10
372.520917
 20
41.15517
 30
0.0
 11
372.520917
 21
39.340778
 31
0.0
  0
LINE
  5
183
100
AcDbEntity
  8
_
  6
CONTINUOUS
 62
     3
100
AcDbLine
 10
372.520917
 20
41.15517
 30
0.0
 11
389.757321
 21
41.15517
 31
0.0
  0
LINE
  5
184
100
AcDbEntity
  8
_
  6
CONTINUOUS
 62
     3
100
AcDbLine
 10
389.757321
 20
41.15517
 30
0.0
 11
389.757321
 21
39.340778
 31
0.0
  0
LINE
  5
185
100
AcDbEntity
  8
_
  6
CONTINUOUS
 62
     3
100
AcDbLine
 10
389.757321
 20
39.340778
 30
0.0
 11
387.360333
 21
39.340778
 31
0.0
  0
LINE
  5
186
100
AcDbEntity
  8
_
  6
CONTINUOUS
 62
     3
100
AcDbLine
 10
387.360333
 20
39.340778
 30
0.0
 11
389.757321
 21
34.2
 31
0.0
  0
LINE
  5
187
100
AcDbEntity
  8
_
  6
CONTINUOUS
 62
     3
100
AcDbLine
 10
389.757321
 20
34.2
 30
0.0
 11
372.520917
 21
34.2
 31
0.0
  0
LINE
  5
188
100
AcDbEntity
  8
_
  6
CONTINUOUS
 62
     3
100
AcDbLine
 10
372.520917
 20
34.2
 30
0.0
 11
374.917859
 21
39.340778
 31
0.0
  0
LINE
  5
189
100
AcDbEntity
  8
_
  6
CONTINUOUS
 62
     3
100
AcDbLine
 10
374.917859
 20
39.340778
 30
0.0
 11
372.520917
 21
39.340778
 31
0.0
  0
LINE
  5
18A
100
AcDbEntity
  8
_
  6
CONTINUOUS
 62
     3
100
AcDbLine
 10
378.254269
 20
39.340778
 30
0.0
 11
384.023923
 21
39.340778
 31
0.0
  0
LINE
  5
18B
100
AcDbEntity
  8
_
  6
CONTINUOUS
 62
     3
100
AcDbLine
 10
384.023923
 20
39.340778
 30
0.0
 11
385.574918
 21
36.014392
 31
0.0
  0
LINE
  5
18C
100
AcDbEntity
  8
_
  6
CONTINUOUS
 62
     3
100
AcDbLine
 10
385.574918
 20
36.014392
 30
0.0
 11
376.703275
 21
36.014392
 31
0.0
  0
LINE
  5
18D
100
AcDbEntity
  8
_
  6
CONTINUOUS
 62
     3
100
AcDbLine
 10
378.254269
 20
39.340778
 30
0.0
 11
376.703275
 21
36.014392
 31
0.0
  0
LINE
  5
18E
100
AcDbEntity
  8
_
  6
CONTINUOUS
 62
     3
100
AcDbLine
 10
398.527478
 20
44.179202
 30
0.0
 11
398.527478
 21
42.36481
 31
0.0
  0
LINE
  5
18F
100
AcDbEntity
  8
_
  6
CONTINUOUS
 62
     3
100
AcDbLine
 10
398.527478
 20
44.179202
 30
0.0
 11
401.248654
 21
44.179202
 31
0.0
  0
LINE
  5
190
100
AcDbEntity
  8
_
  6
CONTINUOUS
 62
     3
100
AcDbLine
 10
401.248654
 20
44.179202
 30
0.0
 11
401.248654
 21
47.505588
 31
0.0
  0
LINE
  5
191
100
AcDbEntity
  8
_
  6
CONTINUOUS
 62
     3
100
AcDbLine
 10
401.248654
 20
47.505588
 30
0.0
 11
404.272504
 21
47.505588
 31
0.0
  0
LINE
  5
192
100
AcDbEntity
  8
_
  6
CONTINUOUS
 62
     3
100
AcDbLine
 10
404.272504
 20
47.505588
 30
0.0
 11
404.272504
 21
44.179202
 31
0.0
  0
LINE
  5
193
100
AcDbEntity
  8
_
  6
CONTINUOUS
 62
     3
100
AcDbLine
 10
404.272504
 20
44.179202
 30
0.0
 11
406.994321
 21
44.179202
 31
0.0
  0
LINE
  5
194
100
AcDbEntity
  8
_
  6
CONTINUOUS
 62
     3
100
AcDbLine
 10
406.994321
 20
44.179202
 30
0.0
 11
406.994321
 21
42.36481
 31
0.0
  0
LINE
  5
195
100
AcDbEntity
  8
_
  6
CONTINUOUS
 62
     3
100
AcDbLine
 10
406.994321
 20
42.36481
 30
0.0
 11
404.272504
 21
42.36481
 31
0.0
  0
LINE
  5
196
100
AcDbEntity
  8
_
  6
CONTINUOUS
 62
     3
100
AcDbLine
 10
404.272504
 20
42.36481
 30
0.0
 11
404.272504
 21
36.014392
 31
0.0
  0
LINE
  5
197
100
AcDbEntity
  8
_
  6
CONTINUOUS
 62
     3
100
AcDbLine
 10
404.272504
 20
36.014392
 30
0.0
 11
407.296994
 21
36.014392
 31
0.0
  0
LINE
  5
198
100
AcDbEntity
  8
_
  6
CONTINUOUS
 62
     3
100
AcDbLine
 10
407.296994
 20
36.014392
 30
0.0
 11
407.296994
 21
34.2
 31
0.0
  0
LINE
  5
199
100
AcDbEntity
  8
_
  6
CONTINUOUS
 62
     3
100
AcDbLine
 10
407.296994
 20
34.2
 30
0.0
 11
397.317288
 21
34.2
 31
0.0
  0
LINE
  5
19A
100
AcDbEntity
  8
_
  6
CONTINUOUS
 62
     3
100
AcDbLine
 10
397.317288
 20
34.2
 30
0.0
 11
397.317288
 21
36.014392
 31
0.0
  0
LINE
  5
19B
100
AcDbEntity
  8
_
  6
CONTINUOUS
 62
     3
100
AcDbLine
 10
397.317288
 20
36.014392
 30
0.0
 11
401.248654
 21
36.014392
 31
0.0
  0
LINE
  5
19C
100
AcDbEntity
  8
_
  6
CONTINUOUS
 62
     3
100
AcDbLine
 10
401.248654
 20
36.014392
 30
0.0
 11
401.248654
 21
42.36481
 31
0.0
  0
LINE
  5
19D
100
AcDbEntity
  8
_
  6
CONTINUOUS
 62
     3
100
AcDbLine
 10
401.248654
 20
42.36481
 30
0.0
 11
398.527478
 21
42.36481
 31
0.0
  0
LINE
  5
19E
100
AcDbEntity
  8
_
  6
CONTINUOUS
 62
     3
100
AcDbLine
 10
390.362073
 20
46.295993
 30
0.0
 11
390.362073
 21
44.481601
 31
0.0
  0
LINE
  5
19F
100
AcDbEntity
  8
_
  6
CONTINUOUS
 62
     3
100
AcDbLine
 10
390.362073
 20
46.295993
 30
0.0
 11
393.08389
 21
46.295993
 31
0.0
  0
LINE
  5
1A0
100
AcDbEntity
  8
_
  6
CONTINUOUS
 62
     3
100
AcDbLine
 10
393.08389
 20
46.295993
 30
0.0
 11
393.08389
 21
47.505588
 31
0.0
  0
LINE
  5
1A1
100
AcDbEntity
  8
_
  6
CONTINUOUS
 62
     3
100
AcDbLine
 10
393.08389
 20
47.505588
 30
0.0
 11
396.107739
 21
47.505588
 31
0.0
  0
LINE
  5
1A2
100
AcDbEntity
  8
_
  6
CONTINUOUS
 62
     3
100
AcDbLine
 10
396.107739
 20
47.505588
 30
0.0
 11
396.107739
 21
46.295993
 31
0.0
  0
LINE
  5
1A3
100
AcDbEntity
  8
_
  6
CONTINUOUS
 62
     3
100
AcDbLine
 10
396.107739
 20
46.295993
 30
0.0
 11
398.829556
 21
46.295993
 31
0.0
  0
LINE
  5
1A4
100
AcDbEntity
  8
_
  6
CONTINUOUS
 62
     3
100
AcDbLine
 10
398.829556
 20
46.295993
 30
0.0
 11
395.707837
 21
41.836734
 31
0.0
  0
LINE
  5
1A5
100
AcDbEntity
  8
_
  6
CONTINUOUS
 62
     3
100
AcDbLine
 10
395.707837
 20
41.836734
 30
0.0
 11
398.527478
 21
39.862766
 31
0.0
  0
LINE
  5
1A6
100
AcDbEntity
  8
_
  6
CONTINUOUS
 62
     3
100
AcDbLine
 10
398.527478
 20
39.862766
 30
0.0
 11
398.527478
 21
36.540363
 31
0.0
  0
LINE
  5
1A7
100
AcDbEntity
  8
_
  6
CONTINUOUS
 62
     3
100
AcDbLine
 10
398.527478
 20
36.540363
 30
0.0
 11
396.107739
 21
38.234317
 31
0.0
  0
LINE
  5
1A8
100
AcDbEntity
  8
_
  6
CONTINUOUS
 62
     3
100
AcDbLine
 10
396.107739
 20
38.234317
 30
0.0
 11
396.107739
 21
34.2
 31
0.0
  0
LINE
  5
1A9
100
AcDbEntity
  8
_
  6
CONTINUOUS
 62
     3
100
AcDbLine
 10
396.107739
 20
34.2
 30
0.0
 11
393.08389
 21
34.2
 31
0.0
  0
LINE
  5
1AA
100
AcDbEntity
  8
_
  6
CONTINUOUS
 62
     3
100
AcDbLine
 10
393.08389
 20
34.2
 30
0.0
 11
393.08389
 21
38.08797
 31
0.0
  0
LINE
  5
1AB
100
AcDbEntity
  8
_
  6
CONTINUOUS
 62
     3
100
AcDbLine
 10
393.08389
 20
38.08797
 30
0.0
 11
390.362073
 21
34.2
 31
0.0
  0
LINE
  5
1AC
100
AcDbEntity
  8
_
  6
CONTINUOUS
 62
     3
100
AcDbLine
 10
390.362073
 20
34.2
 30
0.0
 11
390.362073
 21
38.945819
 31
0.0
  0
LINE
  5
1AD
100
AcDbEntity
  8
_
  6
CONTINUOUS
 62
     3
100
AcDbLine
 10
390.362073
 20
38.945819
 30
0.0
 11
394.237454
 21
44.481601
 31
0.0
  0
LINE
  5
1AE
100
AcDbEntity
  8
_
  6
CONTINUOUS
 62
     3
100
AcDbLine
 10
394.237454
 20
44.481601
 30
0.0
 11
390.362073
 21
44.481601
 31
0.0
  0
ARC
  5
1AF
100
AcDbEntity
  8
_
  6
CONTINUOUS
 62
     2
100
AcDbCircle
 10
257.748303
 20
42.060123
 30
0.0
 40
1.890037
100
AcDbArc
 50
310.768311
 51
335.998779
  0
LINE
  5
1B0
100
AcDbEntity
  8
_
  6
CONTINUOUS
 62
     2
100
AcDbLine
 10
259.920071
 20
42.289233
 30
0.0
 11
259.475903
 21
41.291721
 31
0.0
  0
LINE
  5
1B1
100
AcDbEntity
  8
_
  6
CONTINUOUS
 62
     2
100
AcDbLine
 10
254.695523
 20
43.423206
 30
0.0
 11
261.665524
 21
43.423206
 31
0.0
  0
ARC
  5
1B2
100
AcDbEntity
  8
_
  6
CONTINUOUS
 62
     2
100
AcDbCircle
 10
285.689786
 20
39.643222
 30
0.0
 40
4.687202
100
AcDbArc
 50
270.000031
 51
324.00116
  0
ARC
  5
1B3
100
AcDbEntity
  8
_
  6
CONTINUOUS
 62
     2
100
AcDbCircle
 10
285.689786
 20
39.643222
 30
0.0
 40
3.931203
100
AcDbArc
 50
270.000031
 51
324.00116
  0
ARC
  5
1B4
100
AcDbEntity
  8
_
  6
CONTINUOUS
 62
     2
100
AcDbCircle
 10
239.869702
 20
39.643222
 30
0.0
 40
4.687194
100
AcDbArc
 50
270.000031
 51
333.99855
  0
ARC
  5
1B5
100
AcDbEntity
  8
_
  6
CONTINUOUS
 62
     2
100
AcDbCircle
 10
239.629651
 20
39.643222
 30
0.0
 40
3.175198
100
AcDbArc
 50
270.000031
 51
333.99855
  0
ARC
  5
1B6
100
AcDbEntity
  8
_
  6
CONTINUOUS
 62
     2
100
AcDbCircle
 10
239.749677
 20
39.643222
 30
0.0
 40
3.931197
100
AcDbArc
 50
270.000031
 51
333.99855
  0
LINE
  5
1B7
100
AcDbEntity
  8
_
  6
CONTINUOUS
 62
     2
100
AcDbLine
 10
231.852246
 20
46.809638
 30
0.0
 11
239.215192
 21
46.809638
 31
0.0
  0
LINE
  5
1B8
100
AcDbEntity
  8
_
  6
CONTINUOUS
 62
     2
100
AcDbLine
 10
231.852246
 20
46.113643
 30
0.0
 11
239.215192
 21
46.113643
 31
0.0
  0
LINE
  5
1B9
100
AcDbEntity
  8
_
  6
CONTINUOUS
 62
     2
100
AcDbLine
 10
231.852246
 20
45.417693
 30
0.0
 11
239.215192
 21
45.417693
 31
0.0
  0
LINE
  5
1BA
100
AcDbEntity
  8
_
  6
CONTINUOUS
 62
     2
100
AcDbLine
 10
231.852246
 20
43.24081
 30
0.0
 11
239.215192
 21
43.24081
 31
0.0
  0
LINE
  5
1BB
100
AcDbEntity
  8
_
  6
CONTINUOUS
 62
     2
100
AcDbLine
 10
231.852246
 20
42.484767
 30
0.0
 11
239.215192
 21
42.484767
 31
0.0
  0
LINE
  5
1BC
100
AcDbEntity
  8
_
  6
CONTINUOUS
 62
     2
100
AcDbLine
 10
231.852246
 20
41.788818
 30
0.0
 11
239.215192
 21
41.788818
 31
0.0
  0
LINE
  5
1BD
100
AcDbEntity
  8
_
  6
CONTINUOUS
 62
     2
100
AcDbLine
 10
231.852246
 20
36.46799
 30
0.0
 11
239.629651
 21
36.46799
 31
0.0
  0
LINE
  5
1BE
100
AcDbEntity
  8
_
  6
CONTINUOUS
 62
     2
100
AcDbLine
 10
231.852246
 20
35.711993
 30
0.0
 11
239.629651
 21
35.711993
 31
0.0
  0
LINE
  5
1BF
100
AcDbEntity
  8
_
  6
CONTINUOUS
 62
     2
100
AcDbLine
 10
231.852246
 20
34.955997
 30
0.0
 11
239.629651
 21
34.955997
 31
0.0
  0
LINE
  5
1C0
100
AcDbEntity
  8
_
  6
CONTINUOUS
 62
     2
100
AcDbLine
 10
242.483121
 20
38.251208
 30
0.0
 11
245.132474
 21
43.683109
 31
0.0
  0
LINE
  5
1C1
100
AcDbEntity
  8
_
  6
CONTINUOUS
 62
     2
100
AcDbLine
 10
243.282376
 20
37.919879
 30
0.0
 11
246.093503
 21
43.683112
 31
0.0
  0
LINE
  5
1C2
100
AcDbEntity
  8
_
  6
CONTINUOUS
 62
     2
100
AcDbLine
 10
244.081586
 20
37.588275
 30
0.0
 11
247.053937
 21
43.683104
 31
0.0
  0
LINE
  5
1C3
100
AcDbEntity
  8
_
  6
CONTINUOUS
 62
     2
100
AcDbLine
 10
243.040906
 20
46.708793
 30
0.0
 11
244.355511
 21
46.708793
 31
0.0
  0
LINE
  5
1C4
100
AcDbEntity
  8
_
  6
CONTINUOUS
 62
     2
100
AcDbLine
 10
243.040906
 20
45.851997
 30
0.0
 11
244.355511
 21
45.851997
 31
0.0
  0
LINE
  5
1C5
100
AcDbEntity
  8
_
  6
CONTINUOUS
 62
     2
100
AcDbLine
 10
246.367474
 20
46.708793
 30
0.0
 11
247.68208
 21
46.708793
 31
0.0
  0
LINE
  5
1C6
100
AcDbEntity
  8
_
  6
CONTINUOUS
 62
     2
100
AcDbLine
 10
246.367474
 20
45.851997
 30
0.0
 11
247.68208
 21
45.851997
 31
0.0
  0
LINE
  5
1C7
100
AcDbEntity
  8
_
  6
CONTINUOUS
 62
     2
100
AcDbLine
 10
249.694043
 20
42.667255
 30
0.0
 11
253.284192
 21
42.667255
 31
0.0
  0
LINE
  5
1C8
100
AcDbEntity
  8
_
  6
CONTINUOUS
 62
     2
100
AcDbLine
 10
252.41261
 20
45.750805
 30
0.0
 11
252.781522
 21
43.423206
 31
0.0
  0
LINE
  5
1C9
100
AcDbEntity
  8
_
  6
CONTINUOUS
 62
     2
100
AcDbLine
 10
254.156415
 20
34.745191
 30
0.0
 11
253.034711
 21
41.825713
 31
0.0
  0
ARC
  5
1CA
100
AcDbEntity
  8
_
  6
CONTINUOUS
 62
     2
100
AcDbCircle
 10
257.68829
 20
42.060123
 30
0.0
 40
2.646036
100
AcDbArc
 50
272.671387
 51
335.998779
  0
ARC
  5
1CB
100
AcDbEntity
  8
_
  6
CONTINUOUS
 62
     2
100
AcDbCircle
 10
257.628278
 20
42.060123
 30
0.0
 40
3.402034
100
AcDbArc
 50
267.367432
 51
335.998779
  0
LINE
  5
1CC
100
AcDbEntity
  8
_
  6
CONTINUOUS
 62
     2
100
AcDbLine
 10
262.005505
 20
43.527158
 30
0.0
 11
260.736447
 21
40.676578
 31
0.0
  0
LINE
  5
1CD
100
AcDbEntity
  8
_
  6
CONTINUOUS
 62
     2
100
AcDbLine
 10
255.927182
 20
34.745191
 30
0.0
 11
254.76611
 21
42.074645
 31
0.0
  0
LINE
  5
1CE
100
AcDbEntity
  8
_
  6
CONTINUOUS
 62
     2
100
AcDbLine
 10
255.101788
 20
34.745191
 30
0.0
 11
253.358533
 21
45.750802
 31
0.0
  0
LINE
  5
1CF
100
AcDbEntity
  8
_
  6
CONTINUOUS
 62
     2
100
AcDbLine
 10
254.183926
 20
45.750802
 30
0.0
 11
254.518689
 21
43.637839
 31
0.0
  0
LINE
  5
1D0
100
AcDbEntity
  8
_
  6
CONTINUOUS
 62
     2
100
AcDbLine
 10
249.694043
 20
43.423206
 30
0.0
 11
252.181531
 21
43.423206
 31
0.0
  0
LINE
  5
1D1
100
AcDbEntity
  8
_
  6
CONTINUOUS
 62
     2
100
AcDbLine
 10
260.900967
 20
42.771118
 30
0.0
 11
260.106152
 21
40.984058
 31
0.0
  0
LINE
  5
1D2
100
AcDbEntity
  8
_
  6
CONTINUOUS
 62
     2
100
AcDbLine
 10
254.432217
 20
42.667255
 30
0.0
 11
260.201459
 21
42.667255
 31
0.0
  0
ARC
  5
1D3
100
AcDbEntity
  8
_
  6
CONTINUOUS
 62
     2
100
AcDbCircle
 10
257.568265
 20
42.060123
 30
0.0
 40
4.158033
100
AcDbArc
 50
269.611328
 51
335.998779
  0
LINE
  5
1D4
100
AcDbEntity
  8
_
  6
CONTINUOUS
 62
     2
100
AcDbLine
 10
262.772946
 20
43.527167
 30
0.0
 11
261.366742
 21
40.369006
 31
0.0
  0
LINE
  5
1D5
100
AcDbEntity
  8
_
  6
CONTINUOUS
 62
     2
100
AcDbLine
 10
294.993787
 20
45.99364
 30
0.0
 11
288.864194
 21
37.554813
 31
0.0
  0
LINE
  5
1D6
100
AcDbEntity
  8
_
  6
CONTINUOUS
 62
     2
100
AcDbLine
 10
293.36044
 20
45.237689
 30
0.0
 11
288.102612
 21
37.99921
 31
0.0
  0
ARC
  5
1D7
100
AcDbEntity
  8
_
  6
CONTINUOUS
 62
     2
100
AcDbCircle
 10
285.899808
 20
39.523219
 30
0.0
 40
2.797206
100
AcDbArc
 50
270.000031
 51
324.00116
  0
LINE
  5
1D8
100
AcDbEntity
  8
_
  6
CONTINUOUS
 62
     2
100
AcDbLine
 10
265.163846
 20
46.804677
 30
0.0
 11
278.479092
 21
46.804677
 31
0.0
  0
LINE
  5
1D9
100
AcDbEntity
  8
_
  6
CONTINUOUS
 62
     2
100
AcDbLine
 10
265.163846
 20
46.018726
 30
0.0
 11
278.479092
 21
46.018726
 31
0.0
  0
LINE
  5
1DA
100
AcDbEntity
  8
_
  6
CONTINUOUS
 62
     2
100
AcDbLine
 10
265.163846
 20
45.202773
 30
0.0
 11
278.479092
 21
45.202773
 31
0.0
  0
LINE
  5
1DB
100
AcDbEntity
  8
_
  6
CONTINUOUS
 62
     2
100
AcDbLine
 10
263.954297
 20
36.493213
 30
0.0
 11
279.688641
 21
36.493213
 31
0.0
  0
LINE
  5
1DC
100
AcDbEntity
  8
_
  6
CONTINUOUS
 62
     2
100
AcDbLine
 10
263.954297
 20
35.737216
 30
0.0
 11
279.688641
 21
35.737216
 31
0.0
  0
LINE
  5
1DD
100
AcDbEntity
  8
_
  6
CONTINUOUS
 62
     2
100
AcDbLine
 10
263.954297
 20
34.921172
 30
0.0
 11
279.688641
 21
34.921172
 31
0.0
  0
LINE
  5
1DE
100
AcDbEntity
  8
_
  6
CONTINUOUS
 62
     2
100
AcDbLine
 10
283.005643
 20
46.779638
 30
0.0
 11
295.877042
 21
46.779638
 31
0.0
  0
LINE
  5
1DF
100
AcDbEntity
  8
_
  6
CONTINUOUS
 62
     2
100
AcDbLine
 10
296.657071
 20
46.749637
 30
0.0
 11
289.655713
 21
37.110187
 31
0.0
  0
LINE
  5
1E0
100
AcDbEntity
  8
_
  6
CONTINUOUS
 62
     2
100
AcDbLine
 10
283.005643
 20
45.99364
 30
0.0
 11
294.39375
 21
45.99364
 31
0.0
  0
LINE
  5
1E1
100
AcDbEntity
  8
_
  6
CONTINUOUS
 62
     2
100
AcDbLine
 10
285.689786
 20
36.497991
 30
0.0
 11
281.796094
 21
36.497991
 31
0.0
  0
LINE
  5
1E2
100
AcDbEntity
  8
_
  6
CONTINUOUS
 62
     2
100
AcDbLine
 10
285.689786
 20
35.711993
 30
0.0
 11
281.796094
 21
35.711993
 31
0.0
  0
LINE
  5
1E3
100
AcDbEntity
  8
_
  6
CONTINUOUS
 62
     2
100
AcDbLine
 10
285.689786
 20
34.925996
 30
0.0
 11
281.796094
 21
34.925996
 31
0.0
  0
LINE
  5
1E4
100
AcDbEntity
  8
_
  6
CONTINUOUS
 62
     2
100
AcDbLine
 10
291.729565
 20
38.921146
 30
0.0
 11
295.311475
 21
34.799999
 31
0.0
  0
LINE
  5
1E5
100
AcDbEntity
  8
_
  6
CONTINUOUS
 62
     2
100
AcDbLine
 10
292.186047
 20
39.459152
 30
0.0
 11
296.235516
 21
34.799999
 31
0.0
  0
LINE
  5
1E6
100
AcDbEntity
  8
_
  6
CONTINUOUS
 62
     2
100
AcDbLine
 10
292.641934
 20
39.996885
 30
0.0
 11
297.158826
 21
34.799999
 31
0.0
  0
LINE
  5
1E7
100
AcDbEntity
  8
_
  6
CONTINUOUS
 62
     2
100
AcDbLine
 10
293.097821
 20
40.534754
 30
0.0
 11
298.082776
 21
34.799999
 31
0.0
  0
LINE
  5
1E8
100
AcDbEntity
  8
_
  6
CONTINUOUS
 62
     2
100
AcDbLine
 10
283.005643
 20
45.177688
 30
0.0
 11
292.610394
 21
45.177688
 31
0.0
  0
LINE
  5
1E9
100
AcDbEntity
  8
_
  6
CONTINUOUS
 62
     2
100
AcDbLine
 10
303.568662
 20
46.809638
 30
0.0
 11
318.093411
 21
46.809638
 31
0.0
  0
LINE
  5
1EA
100
AcDbEntity
  8
_
  6
CONTINUOUS
 62
     2
100
AcDbLine
 10
303.568662
 20
46.053642
 30
0.0
 11
318.093411
 21
46.053642
 31
0.0
  0
LINE
  5
1EB
100
AcDbEntity
  8
_
  6
CONTINUOUS
 62
     2
100
AcDbLine
 10
309.80322
 20
36.443975
 30
0.0
 11
309.80322
 21
45.363666
 31
0.0
  0
LINE
  5
1EC
100
AcDbEntity
  8
_
  6
CONTINUOUS
 62
     2
100
AcDbLine
 10
310.558759
 20
36.443975
 30
0.0
 11
310.558759
 21
45.363666
 31
0.0
  0
LINE
  5
1ED
100
AcDbEntity
  8
_
  6
CONTINUOUS
 62
     2
100
AcDbLine
 10
311.314252
 20
36.443975
 30
0.0
 11
311.314252
 21
45.363666
 31
0.0
  0
LINE
  5
1EE
100
AcDbEntity
  8
_
  6
CONTINUOUS
 62
     2
100
AcDbLine
 10
312.009732
 20
36.443975
 30
0.0
 11
312.009732
 21
45.363666
 31
0.0
  0
LINE
  5
1EF
100
AcDbEntity
  8
_
  6
CONTINUOUS
 62
     2
100
AcDbLine
 10
302.963864
 20
35.843975
 30
0.0
 11
318.698209
 21
35.843975
 31
0.0
  0
LINE
  5
1F0
100
AcDbEntity
  8
_
  6
CONTINUOUS
 62
     2
100
AcDbLine
 10
302.963864
 20
34.937978
 30
0.0
 11
318.698209
 21
34.937978
 31
0.0
  0
LINE
  5
1F1
100
AcDbEntity
  8
_
  6
CONTINUOUS
 62
     2
100
AcDbLine
 10
322.238278
 20
46.905588
 30
0.0
 11
323.361264
 21
45.468451
 31
0.0
  0
LINE
  5
1F2
100
AcDbEntity
  8
_
  6
CONTINUOUS
 62
     2
100
AcDbLine
 10
323.19743
 20
46.905588
 30
0.0
 11
324.320416
 21
45.468451
 31
0.0
  0
LINE
  5
1F3
100
AcDbEntity
  8
_
  6
CONTINUOUS
 62
     2
100
AcDbLine
 10
326.193402
 20
46.905588
 30
0.0
 11
326.193402
 21
45.595669
 31
0.0
  0
LINE
  5
1F4
100
AcDbEntity
  8
_
  6
CONTINUOUS
 62
     2
100
AcDbLine
 10
327.008954
 20
46.905588
 30
0.0
 11
327.008954
 21
45.595669
 31
0.0
  0
LINE
  5
1F5
100
AcDbEntity
  8
_
  6
CONTINUOUS
 62
     2
100
AcDbLine
 10
329.217297
 20
46.905588
 30
0.0
 11
329.217297
 21
45.595669
 31
0.0
  0
LINE
  5
1F6
100
AcDbEntity
  8
_
  6
CONTINUOUS
 62
     2
100
AcDbLine
 10
330.092816
 20
46.905588
 30
0.0
 11
330.092816
 21
45.595669
 31
0.0
  0
LINE
  5
1F7
100
AcDbEntity
  8
_
  6
CONTINUOUS
 62
     2
100
AcDbLine
 10
332.9987
 20
46.905588
 30
0.0
 11
331.875714
 21
45.468451
 31
0.0
  0
LINE
  5
1F8
100
AcDbEntity
  8
_
  6
CONTINUOUS
 62
     2
100
AcDbLine
 10
334.017865
 20
46.905588
 30
0.0
 11
332.894879
 21
45.468451
 31
0.0
  0
LINE
  5
1F9
100
AcDbEntity
  8
_
  6
CONTINUOUS
 62
     2
100
AcDbLine
 10
320.200864
 20
44.99567
 30
0.0
 11
335.935208
 21
44.99567
 31
0.0
  0
LINE
  5
1FA
100
AcDbEntity
  8
_
  6
CONTINUOUS
 62
     2
100
AcDbLine
 10
324.129529
 20
42.656486
 30
0.0
 11
323.48335
 21
44.431853
 31
0.0
  0
LINE
  5
1FB
100
AcDbEntity
  8
_
  6
CONTINUOUS
 62
     2
100
AcDbLine
 10
325.053662
 20
42.656486
 30
0.0
 11
324.407483
 21
44.431853
 31
0.0
  0
LINE
  5
1FC
100
AcDbEntity
  8
_
  6
CONTINUOUS
 62
     2
100
AcDbLine
 10
325.917783
 20
42.656554
 30
0.0
 11
325.272336
 21
44.431785
 31
0.0
  0
LINE
  5
1FD
100
AcDbEntity
  8
_
  6
CONTINUOUS
 62
     2
100
AcDbLine
 10
330.27583
 20
42.65642
 30
0.0
 11
330.922696
 21
44.431919
 31
0.0
  0
LINE
  5
1FE
100
AcDbEntity
  8
_
  6
CONTINUOUS
 62
     2
100
AcDbLine
 10
331.200604
 20
42.65642
 30
0.0
 11
331.84747
 21
44.431919
 31
0.0
  0
LINE
  5
1FF
100
AcDbEntity
  8
_
  6
CONTINUOUS
 62
     2
100
AcDbLine
 10
332.064725
 20
42.65642
 30
0.0
 11
332.711591
 21
44.431919
 31
0.0
  0
LINE
  5
200
100
AcDbEntity
  8
_
  6
CONTINUOUS
 62
     2
100
AcDbLine
 10
320.200864
 20
42.09267
 30
0.0
 11
335.935208
 21
42.09267
 31
0.0
  0
LINE
  5
201
100
AcDbEntity
  8
_
  6
CONTINUOUS
 62
     2
100
AcDbLine
 10
320.200864
 20
40.006091
 30
0.0
 11
326.651624
 21
40.006091
 31
0.0
  0
LINE
  5
202
100
AcDbEntity
  8
_
  6
CONTINUOUS
 62
     2
100
AcDbLine
 10
320.200864
 20
37.919513
 30
0.0
 11
326.651624
 21
37.919513
 31
0.0
  0
LINE
  5
203
100
AcDbEntity
  8
_
  6
CONTINUOUS
 62
     2
100
AcDbLine
 10
329.542676
 20
37.919513
 30
0.0
 11
335.935208
 21
37.919513
 31
0.0
  0
LINE
  5
204
100
AcDbEntity
  8
_
  6
CONTINUOUS
 62
     2
100
AcDbLine
 10
321.152646
 20
34.799999
 30
0.0
 11
324.15997
 21
37.517262
 31
0.0
  0
LINE
  5
205
100
AcDbEntity
  8
_
  6
CONTINUOUS
 62
     2
100
AcDbLine
 10
322.160321
 20
34.799999
 30
0.0
 11
325.167737
 21
37.517267
 31
0.0
  0
LINE
  5
206
100
AcDbEntity
  8
_
  6
CONTINUOUS
 62
     2
100
AcDbLine
 10
323.108624
 20
34.799999
 30
0.0
 11
326.11604
 21
37.517267
 31
0.0
  0
LINE
  5
207
100
AcDbEntity
  8
_
  6
CONTINUOUS
 62
     2
100
AcDbLine
 10
327.251614
 20
34.799999
 30
0.0
 11
327.251614
 21
41.49267
 31
0.0
  0
LINE
  5
208
100
AcDbEntity
  8
_
  6
CONTINUOUS
 62
     2
100
AcDbLine
 10
328.127133
 20
34.799999
 30
0.0
 11
328.127133
 21
41.49267
 31
0.0
  0
LINE
  5
209
100
AcDbEntity
  8
_
  6
CONTINUOUS
 62
     2
100
AcDbLine
 10
328.942685
 20
34.799999
 30
0.0
 11
328.942685
 21
41.49267
 31
0.0
  0
LINE
  5
20A
100
AcDbEntity
  8
_
  6
CONTINUOUS
 62
     2
100
AcDbLine
 10
333.051526
 20
34.799999
 30
0.0
 11
330.044202
 21
37.517262
 31
0.0
  0
LINE
  5
20B
100
AcDbEntity
  8
_
  6
CONTINUOUS
 62
     2
100
AcDbLine
 10
334.059247
 20
34.799999
 30
0.0
 11
331.051831
 21
37.517267
 31
0.0
  0
LINE
  5
20C
100
AcDbEntity
  8
_
  6
CONTINUOUS
 62
     2
100
AcDbLine
 10
335.067563
 20
34.799999
 30
0.0
 11
332.060147
 21
37.517267
 31
0.0
  0
LINE
  5
20D
100
AcDbEntity
  8
_
  6
CONTINUOUS
 62
     2
100
AcDbLine
 10
340.799359
 20
46.905588
 30
0.0
 11
340.799359
 21
45.837597
 31
0.0
  0
LINE
  5
20E
100
AcDbEntity
  8
_
  6
CONTINUOUS
 62
     2
100
AcDbLine
 10
341.554852
 20
46.905588
 30
0.0
 11
341.554852
 21
45.837597
 31
0.0
  0
LINE
  5
20F
100
AcDbEntity
  8
_
  6
CONTINUOUS
 62
     2
100
AcDbLine
 10
342.310391
 20
46.905588
 30
0.0
 11
342.310391
 21
45.837597
 31
0.0
  0
LINE
  5
210
100
AcDbEntity
  8
_
  6
CONTINUOUS
 62
     2
100
AcDbLine
 10
337.739987
 20
45.237598
 30
0.0
 11
343.192548
 21
45.237598
 31
0.0
  0
LINE
  5
211
100
AcDbEntity
  8
_
  6
CONTINUOUS
 62
     2
100
AcDbLine
 10
337.783246
 20
34.796715
 30
0.0
 11
338.817609
 21
44.640883
 31
0.0
  0
LINE
  5
212
100
AcDbEntity
  8
_
  6
CONTINUOUS
 62
     2
100
AcDbLine
 10
338.483029
 20
34.796715
 30
0.0
 11
339.517438
 21
44.640883
 31
0.0
  0
LINE
  5
213
100
AcDbEntity
  8
_
  6
CONTINUOUS
 62
     2
100
AcDbLine
 10
340.799359
 20
34.799999
 30
0.0
 11
340.799359
 21
44.637598
 31
0.0
  0
LINE
  5
214
100
AcDbEntity
  8
_
  6
CONTINUOUS
 62
     2
100
AcDbLine
 10
341.554852
 20
34.799999
 30
0.0
 11
341.554852
 21
44.637598
 31
0.0
  0
LINE
  5
215
100
AcDbEntity
  8
_
  6
CONTINUOUS
 62
     2
100
AcDbLine
 10
342.310391
 20
34.799999
 30
0.0
 11
342.310391
 21
44.637598
 31
0.0
  0
LINE
  5
216
100
AcDbEntity
  8
_
  6
CONTINUOUS
 62
     2
100
AcDbLine
 10
342.662778
 20
43.846274
 30
0.0
 11
343.440106
 21
42.775152
 31
0.0
  0
LINE
  5
217
100
AcDbEntity
  8
_
  6
CONTINUOUS
 62
     2
100
AcDbLine
 10
342.662778
 20
42.679274
 30
0.0
 11
343.440106
 21
41.608153
 31
0.0
  0
LINE
  5
218
100
AcDbEntity
  8
_
  6
CONTINUOUS
 62
     2
100
AcDbLine
 10
344.540753
 20
44.15658
 30
0.0
 11
345.230649
 21
46.923413
 31
0.0
  0
LINE
  5
219
100
AcDbEntity
  8
_
  6
CONTINUOUS
 62
     2
100
AcDbLine
 10
345.26022
 20
44.156606
 30
0.0
 11
345.949567
 21
46.923387
 31
0.0
  0
LINE
  5
21A
100
AcDbEntity
  8
_
  6
CONTINUOUS
 62
     2
100
AcDbLine
 10
345.889142
 20
44.15658
 30
0.0
 11
346.579037
 21
46.923413
 31
0.0
  0
LINE
  5
21B
100
AcDbEntity
  8
_
  6
CONTINUOUS
 62
     2
100
AcDbLine
 10
348.510709
 20
45.837597
 30
0.0
 11
348.510709
 21
46.905588
 31
0.0
  0
LINE
  5
21C
100
AcDbEntity
  8
_
  6
CONTINUOUS
 62
     2
100
AcDbLine
 10
349.326215
 20
45.837597
 30
0.0
 11
349.326215
 21
46.905588
 31
0.0
  0
LINE
  5
21D
100
AcDbEntity
  8
_
  6
CONTINUOUS
 62
     2
100
AcDbLine
 10
350.081754
 20
45.837597
 30
0.0
 11
350.081754
 21
46.905588
 31
0.0
  0
LINE
  5
21E
100
AcDbEntity
  8
_
  6
CONTINUOUS
 62
     2
100
AcDbLine
 10
346.758664
 20
45.237598
 30
0.0
 11
353.474332
 21
45.237598
 31
0.0
  0
LINE
  5
21F
100
AcDbEntity
  8
_
  6
CONTINUOUS
 62
     2
100
AcDbLine
 10
348.510709
 20
44.637598
 30
0.0
 11
348.510709
 21
42.81361
 31
0.0
  0
LINE
  5
220
100
AcDbEntity
  8
_
  6
CONTINUOUS
 62
     2
100
AcDbLine
 10
349.326215
 20
44.637598
 30
0.0
 11
349.326215
 21
42.81361
 31
0.0
  0
LINE
  5
221
100
AcDbEntity
  8
_
  6
CONTINUOUS
 62
     2
100
AcDbLine
 10
350.081754
 20
44.637598
 30
0.0
 11
350.081754
 21
42.81361
 31
0.0
  0
LINE
  5
222
100
AcDbEntity
  8
_
  6
CONTINUOUS
 62
     2
100
AcDbLine
 10
344.695203
 20
42.213611
 30
0.0
 11
353.777005
 21
42.213611
 31
0.0
  0
LINE
  5
223
100
AcDbEntity
  8
_
  6
CONTINUOUS
 62
     2
100
AcDbLine
 10
346.03439
 20
41.623316
 30
0.0
 11
344.790234
 21
34.790295
 31
0.0
  0
LINE
  5
224
100
AcDbEntity
  8
_
  6
CONTINUOUS
 62
     2
100
AcDbLine
 10
346.742184
 20
41.623316
 30
0.0
 11
345.498074
 21
34.790295
 31
0.0
  0
LINE
  5
225
100
AcDbEntity
  8
_
  6
CONTINUOUS
 62
     2
100
AcDbLine
 10
347.366757
 20
41.623325
 30
0.0
 11
346.122006
 21
34.790286
 31
0.0
  0
LINE
  5
226
100
AcDbEntity
  8
_
  6
CONTINUOUS
 62
     2
100
AcDbLine
 10
348.510709
 20
41.613611
 30
0.0
 11
348.510709
 21
34.799999
 31
0.0
  0
LINE
  5
227
100
AcDbEntity
  8
_
  6
CONTINUOUS
 62
     2
100
AcDbLine
 10
349.266202
 20
41.613611
 30
0.0
 11
349.266202
 21
34.799999
 31
0.0
  0
LINE
  5
228
100
AcDbEntity
  8
_
  6
CONTINUOUS
 62
     3
100
AcDbLine
 10
350.081754
 20
41.613611
 30
0.0
 11
350.081754
 21
34.799999
 31
0.0
  0
LINE
  5
229
100
AcDbEntity
  8
_
  6
CONTINUOUS
 62
     2
100
AcDbLine
 10
351.104855
 20
41.623325
 30
0.0
 11
352.349606
 21
34.790286
 31
0.0
  0
LINE
  5
22A
100
AcDbEntity
  8
_
  6
CONTINUOUS
 62
     2
100
AcDbLine
 10
351.753278
 20
41.623325
 30
0.0
 11
352.998029
 21
34.790286
 31
0.0
  0
LINE
  5
22B
100
AcDbEntity
  8
_
  6
CONTINUOUS
 62
     2
100
AcDbLine
 10
352.521085
 20
41.623325
 30
0.0
 11
353.765836
 21
34.790286
 31
0.0
  0
LINE
  5
22C
100
AcDbEntity
  8
_
  6
CONTINUOUS
 62
     2
100
AcDbLine
 10
355.581784
 20
45.720046
 30
0.0
 11
364.147229
 21
45.720046
 31
0.0
  0
LINE
  5
22D
100
AcDbEntity
  8
_
  6
CONTINUOUS
 62
     2
100
AcDbLine
 10
355.581784
 20
44.96405
 30
0.0
 11
364.422391
 21
44.96405
 31
0.0
  0
LINE
  5
22E
100
AcDbEntity
  8
_
  6
CONTINUOUS
 62
     2
100
AcDbLine
 10
368.734982
 20
34.763816
 30
0.0
 11
364.302594
 21
46.941772
 31
0.0
  0
LINE
  5
22F
100
AcDbEntity
  8
_
  6
CONTINUOUS
 62
     2
100
AcDbLine
 10
369.53909
 20
34.763819
 30
0.0
 11
365.106885
 21
46.941769
 31
0.0
  0
LINE
  5
230
100
AcDbEntity
  8
_
  6
CONTINUOUS
 62
     2
100
AcDbLine
 10
370.343198
 20
34.763819
 30
0.0
 11
365.910992
 21
46.941769
 31
0.0
  0
LINE
  5
231
100
AcDbEntity
  8
_
  6
CONTINUOUS
 62
     2
100
AcDbLine
 10
371.147305
 20
34.763807
 30
0.0
 11
366.714413
 21
46.941777
 31
0.0
  0
LINE
  5
232
100
AcDbEntity
  8
_
  6
CONTINUOUS
 62
     2
100
AcDbLine
 10
368.862927
 20
46.320046
 30
0.0
 11
368.862927
 21
46.905588
 31
0.0
  0
LINE
  5
233
100
AcDbEntity
  8
_
  6
CONTINUOUS
 62
     2
100
AcDbLine
 10
369.678479
 20
46.320046
 30
0.0
 11
369.678479
 21
46.905588
 31
0.0
  0
LINE
  5
234
100
AcDbEntity
  8
_
  6
CONTINUOUS
 62
     2
100
AcDbLine
 10
370.493985
 20
46.320046
 30
0.0
 11
370.493985
 21
46.905588
 31
0.0
  0
LINE
  5
235
100
AcDbEntity
  8
_
  6
CONTINUOUS
 62
     2
100
AcDbLine
 10
367.759122
 20
45.720046
 30
0.0
 11
371.316129
 21
45.720046
 31
0.0
  0
LINE
  5
236
100
AcDbEntity
  8
_
  6
CONTINUOUS
 62
     2
100
AcDbLine
 10
368.034329
 20
44.96405
 30
0.0
 11
371.316129
 21
44.96405
 31
0.0
  0
LINE
  5
237
100
AcDbEntity
  8
_
  6
CONTINUOUS
 62
     2
100
AcDbLine
 10
356.48866
 20
42.109229
 30
0.0
 11
364.360913
 21
42.109229
 31
0.0
  0
LINE
  5
238
100
AcDbEntity
  8
_
  6
CONTINUOUS
 62
     2
100
AcDbLine
 10
356.48866
 20
41.353187
 30
0.0
 11
364.360913
 21
41.353187
 31
0.0
  0
LINE
  5
239
100
AcDbEntity
  8
_
  6
CONTINUOUS
 62
     2
100
AcDbLine
 10
359.337277
 20
40.753187
 30
0.0
 11
359.337277
 21
37.737346
 31
0.0
  0
LINE
  5
23A
100
AcDbEntity
  8
_
  6
CONTINUOUS
 62
     2
100
AcDbLine
 10
360.09277
 20
40.753187
 30
0.0
 11
360.09277
 21
37.897929
 31
0.0
  0
LINE
  5
23B
100
AcDbEntity
  8
_
  6
CONTINUOUS
 62
     2
100
AcDbLine
 10
360.848264
 20
40.753187
 30
0.0
 11
360.848264
 21
38.058516
 31
0.0
  0
LINE
  5
23C
100
AcDbEntity
  8
_
  6
CONTINUOUS
 62
     2
100
AcDbLine
 10
361.603802
 20
40.753187
 30
0.0
 11
361.603802
 21
38.219108
 31
0.0
  0
LINE
  5
23D
100
AcDbEntity
  8
_
  6
CONTINUOUS
 62
     2
100
AcDbLine
 10
356.324185
 20
36.496895
 30
0.0
 11
364.525342
 21
38.240099
 31
0.0
  0
LINE
  5
23E
100
AcDbEntity
  8
_
  6
CONTINUOUS
 62
     2
100
AcDbLine
 10
356.324185
 20
35.664008
 30
0.0
 11
364.525342
 21
37.407255
 31
0.0
  0
LINE
  5
23F
100
AcDbEntity
  8
_
  6
CONTINUOUS
 62
     2
100
AcDbLine
 10
356.324185
 20
34.951119
 30
0.0
 11
364.525342
 21
36.694323
 31
0.0
  0
LINE
  5
240
100
AcDbEntity
  8
_
  6
CONTINUOUS
 62
     2
100
AcDbLine
 10
373.089917
 20
44.497783
 30
0.0
 11
380.854596
 21
47.09562
 31
0.0
  0
LINE
  5
241
100
AcDbEntity
  8
_
  6
CONTINUOUS
 62
     2
100
AcDbLine
 10
373.089917
 20
43.700587
 30
0.0
 11
380.854596
 21
46.298471
 31
0.0
  0
LINE
  5
242
100
AcDbEntity
  8
_
  6
CONTINUOUS
 62
     2
100
AcDbLine
 10
381.423596
 20
47.095617
 30
0.0
 11
389.188321
 21
44.497591
 31
0.0
  0
LINE
  5
243
100
AcDbEntity
  8
_
  6
CONTINUOUS
 62
     2
100
AcDbLine
 10
381.423596
 20
46.358469
 30
0.0
 11
389.188321
 21
43.760443
 31
0.0
  0
LINE
  5
244
100
AcDbEntity
  8
_
  6
CONTINUOUS
 62
     2
100
AcDbLine
 10
386.587491
 20
43.678832
 30
0.0
 11
375.691342
 21
43.678832
 31
0.0
  0
LINE
  5
245
100
AcDbEntity
  8
_
  6
CONTINUOUS
 62
     2
100
AcDbLine
 10
386.587491
 20
42.862788
 30
0.0
 11
375.691342
 21
42.862788
 31
0.0
  0
LINE
  5
246
100
AcDbEntity
  8
_
  6
CONTINUOUS
 62
     2
100
AcDbLine
 10
373.120908
 20
40.519176
 30
0.0
 11
389.15733
 21
40.519176
 31
0.0
  0
LINE
  5
247
100
AcDbEntity
  8
_
  6
CONTINUOUS
 62
     2
100
AcDbLine
 10
373.120908
 20
39.823226
 30
0.0
 11
389.15733
 21
39.823226
 31
0.0
  0
LINE
  5
248
100
AcDbEntity
  8
_
  6
CONTINUOUS
 62
     2
100
AcDbLine
 10
375.604001
 20
39.27946
 30
0.0
 11
374.073376
 21
35.997738
 31
0.0
  0
LINE
  5
249
100
AcDbEntity
  8
_
  6
CONTINUOUS
 62
     2
100
AcDbLine
 10
376.558301
 20
39.279463
 30
0.0
 11
375.027631
 21
35.997738
 31
0.0
  0
LINE
  5
24A
100
AcDbEntity
  8
_
  6
CONTINUOUS
 62
     2
100
AcDbLine
 10
377.512601
 20
39.279463
 30
0.0
 11
375.981931
 21
35.997738
 31
0.0
  0
LINE
  5
24B
100
AcDbEntity
  8
_
  6
CONTINUOUS
 62
     2
100
AcDbLine
 10
384.766232
 20
39.2795
 30
0.0
 11
386.297498
 21
35.997701
 31
0.0
  0
LINE
  5
24C
100
AcDbEntity
  8
_
  6
CONTINUOUS
 62
     2
100
AcDbLine
 10
385.721127
 20
39.279426
 30
0.0
 11
387.251111
 21
35.997775
 31
0.0
  0
LINE
  5
24D
100
AcDbEntity
  8
_
  6
CONTINUOUS
 62
     2
100
AcDbLine
 10
386.675977
 20
39.279394
 30
0.0
 11
388.205457
 21
35.997807
 31
0.0
  0
LINE
  5
24E
100
AcDbEntity
  8
_
  6
CONTINUOUS
 62
     2
100
AcDbLine
 10
373.705609
 20
35.453975
 30
0.0
 11
388.572629
 21
35.453975
 31
0.0
  0
LINE
  5
24F
100
AcDbEntity
  8
_
  6
CONTINUOUS
 62
     2
100
AcDbLine
 10
373.353085
 20
34.697978
 30
0.0
 11
388.925153
 21
34.697978
 31
0.0
  0
LINE
  5
250
100
AcDbEntity
  8
_
  6
CONTINUOUS
 62
     2
100
AcDbLine
 10
393.719357
 20
46.320046
 30
0.0
 11
393.719357
 21
46.905588
 31
0.0
  0
LINE
  5
251
100
AcDbEntity
  8
_
  6
CONTINUOUS
 62
     2
100
AcDbLine
 10
394.594876
 20
46.320046
 30
0.0
 11
394.594876
 21
46.905588
 31
0.0
  0
LINE
  5
252
100
AcDbEntity
  8
_
  6
CONTINUOUS
 62
     2
100
AcDbLine
 10
395.470441
 20
46.320046
 30
0.0
 11
395.470441
 21
46.905588
 31
0.0
  0
LINE
  5
253
100
AcDbEntity
  8
_
  6
CONTINUOUS
 62
     2
100
AcDbLine
 10
390.962064
 20
45.720046
 30
0.0
 11
397.826367
 21
45.720046
 31
0.0
  0
LINE
  5
254
100
AcDbEntity
  8
_
  6
CONTINUOUS
 62
     2
100
AcDbLine
 10
390.962064
 20
44.96405
 30
0.0
 11
397.297147
 21
44.96405
 31
0.0
  0
LINE
  5
255
100
AcDbEntity
  8
_
  6
CONTINUOUS
 62
     2
100
AcDbLine
 10
394.913754
 20
44.472503
 30
0.0
 11
390.706128
 21
38.461416
 31
0.0
  0
LINE
  5
256
100
AcDbEntity
  8
_
  6
CONTINUOUS
 62
     2
100
AcDbLine
 10
395.896985
 20
44.47254
 30
0.0
 11
390.706174
 21
37.058554
 31
0.0
  0
LINE
  5
257
100
AcDbEntity
  8
_
  6
CONTINUOUS
 62
     2
100
AcDbLine
 10
396.821393
 20
44.472532
 30
0.0
 11
390.706174
 21
35.73772
 31
0.0
  0
LINE
  5
258
100
AcDbEntity
  8
_
  6
CONTINUOUS
 62
     2
100
AcDbLine
 10
395.37898
 20
41.366073
 30
0.0
 11
398.036023
 21
39.505392
 31
0.0
  0
LINE
  5
259
100
AcDbEntity
  8
_
  6
CONTINUOUS
 62
     2
100
AcDbLine
 10
394.94534
 20
40.746598
 30
0.0
 11
398.035977
 21
38.582398
 31
0.0
  0
LINE
  5
25A
100
AcDbEntity
  8
_
  6
CONTINUOUS
 62
     2
100
AcDbLine
 10
394.483502
 20
40.086938
 30
0.0
 11
398.035977
 21
37.59945
 31
0.0
  0
LINE
  5
25B
100
AcDbEntity
  8
_
  6
CONTINUOUS
 62
     2
100
AcDbLine
 10
393.719357
 20
39.441669
 30
0.0
 11
393.719357
 21
34.799999
 31
0.0
  0
LINE
  5
25C
100
AcDbEntity
  8
_
  6
CONTINUOUS
 62
     2
100
AcDbLine
 10
394.594876
 20
39.408947
 30
0.0
 11
394.594876
 21
34.799999
 31
0.0
  0
LINE
  5
25D
100
AcDbEntity
  8
_
  6
CONTINUOUS
 62
     2
100
AcDbLine
 10
395.470441
 20
38.79587
 30
0.0
 11
395.470441
 21
34.799999
 31
0.0
  0
LINE
  5
25E
100
AcDbEntity
  8
_
  6
CONTINUOUS
 62
     2
100
AcDbLine
 10
401.884122
 20
36.053974
 30
0.0
 11
401.884122
 21
46.905588
 31
0.0
  0
LINE
  5
25F
100
AcDbEntity
  8
_
  6
CONTINUOUS
 62
     2
100
AcDbLine
 10
402.759641
 20
36.053974
 30
0.0
 11
402.759641
 21
46.905588
 31
0.0
  0
LINE
  5
260
100
AcDbEntity
  8
_
  6
CONTINUOUS
 62
     2
100
AcDbLine
 10
403.635205
 20
36.053974
 30
0.0
 11
403.635205
 21
46.905588
 31
0.0
  0
LINE
  5
261
100
AcDbEntity
  8
_
  6
CONTINUOUS
 62
     2
100
AcDbLine
 10
399.127469
 20
43.60321
 30
0.0
 11
401.284131
 21
43.60321
 31
0.0
  0
LINE
  5
262
100
AcDbEntity
  8
_
  6
CONTINUOUS
 62
     2
100
AcDbLine
 10
399.127469
 20
42.847259
 30
0.0
 11
401.284131
 21
42.847259
 31
0.0
  0
LINE
  5
263
100
AcDbEntity
  8
_
  6
CONTINUOUS
 62
     2
100
AcDbLine
 10
404.235196
 20
43.60321
 30
0.0
 11
406.39433
 21
43.60321
 31
0.0
  0
LINE
  5
264
100
AcDbEntity
  8
_
  6
CONTINUOUS
 62
     2
100
AcDbLine
 10
404.235196
 20
42.787257
 30
0.0
 11
406.39433
 21
42.787257
 31
0.0
  0
LINE
  5
265
100
AcDbEntity
  8
_
  6
CONTINUOUS
 62
     2
100
AcDbLine
 10
397.917279
 20
35.453975
 30
0.0
 11
406.697003
 21
35.453975
 31
0.0
  0
LINE
  5
266
100
AcDbEntity
  8
_
  6
CONTINUOUS
 62
     2
100
AcDbLine
 10
397.917279
 20
34.697978
 30
0.0
 11
406.697003
 21
34.697978
 31
0.0
  0
LINE
  5
267
100
AcDbEntity
  8
_
  6
CONTINUOUS
 62
     2
100
AcDbLine
 10
329.542676
 20
40.006091
 30
0.0
 11
335.935208
 21
40.006091
 31
0.0
  0
LINE
  5
268
100
AcDbEntity
  8
_
  6
CONTINUOUS
 62
     6
100
AcDbLine
 10
600.0
 20
55.5
 30
0.0
 11
225.0
 21
55.5
 31
0.0
  0
TEXT
  5
269
100
AcDbEntity
  8
_
  6
CONTINUOUS
 62
     2
100
AcDbText
 10
291.3
 20
62.55
 30
0.0
 40
19.5
  1
化粧鏡
 41
1.076923
  7
EXCADSTD
 72
     5
 11
366.3
 21
62.55
 31
0.0
100
AcDbText
  0
TEXT
  5
26A
100
AcDbEntity
  8
_
  6
CONTINUOUS
 62
     2
100
AcDbText
 10
582.083789
 20
62.204654
 30
0.0
 40
9.0
  1
３
 41
0.826
  7
EXCADSTD
 72
     5
 11
589.163789
 21
62.204654
 31
0.0
100
AcDbText
  0
TEXT
  5
26B
100
AcDbEntity
  8
_
  6
CONTINUOUS
 62
     7
100
AcDbText
 10
455.775
 20
30.225
 30
0.0
 40
21.0
  1
９５２８００
 41
0.8
  7
EXCADSTD
 72
     5
 11
575.775
 21
30.225
 31
0.0
100
AcDbText
  0
TEXT
  5
26C
100
AcDbEntity
  8
_
  6
CONTINUOUS
 62
     6
100
AcDbText
 10
61.95
 20
51.0
 30
0.0
 40
15.0
  1
風穴
 41
0.8568
  7
EXCADSTD
 72
     5
 11
89.99796
 21
51.0
 31
0.0
100
AcDbText
  0
TEXT
  5
26D
100
AcDbEntity
  8
_
  6
CONTINUOUS
 62
     6
100
AcDbText
 10
151.35
 20
51.0
 30
0.0
 40
15.0
  1
間瀬
 41
0.8568
  7
EXCADSTD
 72
     5
 11
179.39796
 21
51.0
 31
0.0
100
AcDbText
  0
TEXT
  5
26E
100
AcDbEntity
  8
_
  6
CONTINUOUS
 62
     6
100
AcDbText
 10
190.35
 20
51.0
 30
0.0
 40
15.0
  1
又場
 41
0.8568
  7
EXCADSTD
 72
     5
 11
218.39796
 21
51.0
 31
0.0
100
AcDbText
  0
TEXT
  5
26F
100
AcDbEntity
  8
_
  6
CONTINUOUS
 62
     6
100
AcDbText
 10
55.153235
 20
29.085022
 30
0.0
 40
7.5
  1
１７
 41
0.75768
  7
EXCADSTD
 72
     5
 11
67.554833
 21
29.085022
 31
0.0
100
AcDbText
  0
TEXT
  5
270
100
AcDbEntity
  8
_
  6
CONTINUOUS
 62
     6
100
AcDbText
 10
69.267822
 20
29.085022
 30
0.0
 40
7.5
  1
１０
 41
0.75768
  7
EXCADSTD
 72
     5
 11
81.66942
 21
29.085022
 31
0.0
100
AcDbText
  0
TEXT
  5
271
100
AcDbEntity
  8
_
  6
CONTINUOUS
 62
     6
100
AcDbText
 10
86.653235
 20
29.085022
 30
0.0
 40
7.5
  1
２１
 41
0.75768
  7
EXCADSTD
 72
     5
 11
99.054833
 21
29.085022
 31
0.0
100
AcDbText
  0
TEXT
  5
272
100
AcDbEntity
  8
_
  6
CONTINUOUS
 62
     2
100
AcDbText
 10
459.600001
 20
63.525
 30
0.0
 40
19.5
  1
ＮＭ６
 41
0.801231
  7
EXCADSTD
 72
     5
 11
515.399999
 21
63.525
 31
0.0
100
AcDbText
  0
DIMENSION
  5
27F
100
AcDbEntity
  8
_2
  6
CONTINUOUS
 62
     3
100
AcDbDimension
  2
*D14
 10
404.5
 20
745.5
 30
0.0
 11
305.0
 21
752.55
 31
0.0
 70
   160
  3
STANDARD
100
AcDbAlignedDimension
 13
205.5
 23
710.5
 33
0.0
 14
404.5
 24
710.5
 34
0.0
100
AcDbRotatedDimension
1001
ACAD
1000
DSTYLE
1002
{
1070
     6
1000
_EX_NORM
1070
     7
1000
_EX_NORM
1070
    41
1040
9.0
1070
    42
1040
2.1
1070
    44
1040
3.0
1070
    73
1070
     0
1070
    74
1070
     0
1070
    75
1070
     0
1070
    76
1070
     0
1070
    77
1070
     1
1070
    78
1070
     8
1070
   140
1040
12.0
1070
   147
1040
1.05
1070
   173
1070
     1
1070
   176
1070
     3
1070
   177
1070
     3
1070
   178
1070
     2
1070
   271
1070
     2
1070
   279
1070
     2
1070
   280
1070
     0
1070
   287
1070
     5
1070
   340
1005
27E
1002
}
  0
DIMENSION
  5
28B
100
AcDbEntity
  8
_2
  6
CONTINUOUS
 62
     3
100
AcDbDimension
  2
*D15
 10
439.7
 20
145.5
 30
0.0
 11
432.65
 21
113.2
 31
0.0
 70
   160
  3
STANDARD
100
AcDbAlignedDimension
 13
402.5
 23
132.5
 33
0.0
 14
372.0
 24
145.5
 34
0.0
 50
90.0
100
AcDbRotatedDimension
1001
ACAD
1000
DSTYLE
1002
{
1070
     6
1000
_EX_NORM
1070
     7
1000
_EX_NORM
1070
    41
1040
9.0
1070
    42
1040
2.1
1070
    44
1040
3.0
1070
    73
1070
     0
1070
    74
1070
     0
1070
    75
1070
     0
1070
    76
1070
     0
1070
    77
1070
     1
1070
    78
1070
     8
1070
   140
1040
12.0
1070
   147
1040
1.05
1070
   173
1070
     1
1070
   176
1070
     3
1070
   177
1070
     3
1070
   178
1070
     2
1070
   271
1070
     2
1070
   279
1070
     2
1070
   280
1070
     0
1070
   287
1070
     5
1070
   340
1005
27E
1002
}
  0
DIMENSION
  5
297
100
AcDbEntity
  8
_2
  6
CONTINUOUS
 62
     2
100
AcDbDimension
  2
*D16
 10
439.7
 20
703.5
 30
0.0
 11
432.65
 21
424.5
 31
0.0
 70
   160
  1
778
  3
STANDARD
100
AcDbAlignedDimension
 13
372.0
 23
145.5
 33
0.0
 14
372.0
 24
703.5
 34
0.0
 50
90.0
100
AcDbRotatedDimension
1001
ACAD
1000
DSTYLE
1002
{
1070
     6
1000
_EX_NORM
1070
     7
1000
_EX_NORM
1070
    41
1040
9.0
1070
    42
1040
2.1
1070
    44
1040
3.0
1070
    73
1070
     0
1070
    74
1070
     0
1070
    75
1070
     0
1070
    76
1070
     0
1070
    77
1070
     1
1070
    78
1070
     8
1070
   140
1040
12.0
1070
   147
1040
1.05
1070
   173
1070
     1
1070
   176
1070
     3
1070
   177
1070
     3
1070
   178
1070
     2
1070
   271
1070
     2
1070
   279
1070
     2
1070
   280
1070
     0
1070
   287
1070
     5
1070
   340
1005
27E
1002
}
  0
DIMENSION
  5
2A3
100
AcDbEntity
  8
_2
  6
CONTINUOUS
 62
     2
100
AcDbDimension
  2
*D17
 10
469.7
 20
712.5
 30
0.0
 11
462.65
 21
422.5
 31
0.0
 70
   160
  1
800
  3
STANDARD
100
AcDbAlignedDimension
 13
402.5
 23
132.5
 33
0.0
 14
402.5
 24
712.5
 34
0.0
 50
90.0
100
AcDbRotatedDimension
1001
ACAD
1000
DSTYLE
1002
{
1070
     6
1000
_EX_NORM
1070
     7
1000
_EX_NORM
1070
    41
1040
9.0
1070
    42
1040
2.1
1070
    44
1040
3.0
1070
    73
1070
     0
1070
    74
1070
     0
1070
    75
1070
     0
1070
    76
1070
     0
1070
    77
1070
     1
1070
    78
1070
     8
1070
   140
1040
12.0
1070
   147
1040
1.05
1070
   173
1070
     1
1070
   176
1070
     3
1070
   177
1070
     3
1070
   178
1070
     2
1070
   271
1070
     2
1070
   279
1070
     2
1070
   280
1070
     0
1070
   287
1070
     5
1070
   340
1005
27E
1002
}
  0
LINE
  5
2A4
100
AcDbEntity
  8
_2
  6
CONTINUOUS
 62
     6
100
AcDbLine
 10
354.064466
 20
487.635534
 30
0.0
 11
340.414466
 21
473.985534
 31
0.0
  0
LINE
  5
2A5
100
AcDbEntity
  8
_2
  6
CONTINUOUS
 62
     6
100
AcDbLine
 10
367.1
 20
493.6
 30
0.0
 11
338.0
 21
464.5
 31
0.0
  0
LINE
  5
2A6
100
AcDbEntity
  8
_2
  6
CONTINUOUS
 62
     6
100
AcDbLine
 10
365.985534
 20
485.414466
 30
0.0
 11
352.535534
 21
471.964466
 31
0.0
  0
LINE
  5
2A7
100
AcDbEntity
  8
_2
  6
CONTINUOUS
 62
     6
100
AcDbLine
 10
298.064466
 20
276.635534
 30
0.0
 11
284.414466
 21
262.985534
 31
0.0
  0
LINE
  5
2A8
100
AcDbEntity
  8
_2
  6
CONTINUOUS
 62
     6
100
AcDbLine
 10
311.1
 20
282.6
 30
0.0
 11
282.0
 21
253.5
 31
0.0
  0
LINE
  5
2A9
100
AcDbEntity
  8
_2
  6
CONTINUOUS
 62
     6
100
AcDbLine
 10
309.985534
 20
274.414466
 30
0.0
 11
296.535534
 21
260.964466
 31
0.0
  0
LINE
  5
2AA
100
AcDbEntity
  8
_2
  6
CONTINUOUS
 62
     6
100
AcDbLine
 10
258.064466
 20
587.635534
 30
0.0
 11
244.414466
 21
573.985534
 31
0.0
  0
LINE
  5
2AB
100
AcDbEntity
  8
_2
  6
CONTINUOUS
 62
     6
100
AcDbLine
 10
271.1
 20
593.6
 30
0.0
 11
242.0
 21
564.5
 31
0.0
  0
LINE
  5
2AC
100
AcDbEntity
  8
_2
  6
CONTINUOUS
 62
     6
100
AcDbLine
 10
269.985534
 20
585.414466
 30
0.0
 11
256.535534
 21
571.964466
 31
0.0
  0
LINE
  5
2AD
100
AcDbEntity
  8
_2
  6
CONTINUOUS
 62
     2
100
AcDbLine
 10
207.5
 20
712.5
 30
0.0
 11
402.5
 21
712.5
 31
0.0
  0
LINE
  5
2AE
100
AcDbEntity
  8
_2
  6
CONTINUOUS
 62
     2
100
AcDbLine
 10
207.5
 20
704.5
 30
0.0
 11
402.5
 21
704.5
 31
0.0
  0
LINE
  5
2AF
100
AcDbEntity
  8
_2
  6
CONTINUOUS
 62
     2
100
AcDbLine
 10
207.5
 20
710.5
 30
0.0
 11
205.5
 21
710.5
 31
0.0
  0
LINE
  5
2B0
100
AcDbEntity
  8
_2
  6
CONTINUOUS
 62
     2
100
AcDbLine
 10
404.5
 20
710.5
 30
0.0
 11
402.5
 21
710.5
 31
0.0
  0
LINE
  5
2B1
100
AcDbEntity
  8
_2
  6
CONTINUOUS
 62
     2
100
AcDbLine
 10
207.5
 20
712.5
 30
0.0
 11
207.5
 21
704.5
 31
0.0
  0
LINE
  5
2B2
100
AcDbEntity
  8
_2
  6
CONTINUOUS
 62
     2
100
AcDbLine
 10
402.5
 20
712.5
 30
0.0
 11
402.5
 21
704.5
 31
0.0
  0
LINE
  5
2B3
100
AcDbEntity
  8
_2
  6
CONTINUOUS
 62
     6
100
AcDbLine
 10
377.0
 20
703.5
 30
0.0
 11
363.0
 21
703.5
 31
0.0
  0
LINE
  5
2B4
100
AcDbEntity
  8
_2
  6
CONTINUOUS
 62
     6
100
AcDbLine
 10
370.0
 20
696.5
 30
0.0
 11
370.0
 21
710.5
 31
0.0
  0
LINE
  5
2B5
100
AcDbEntity
  8
_2
  6
CONTINUOUS
 62
     6
100
AcDbLine
 10
233.0
 20
703.5
 30
0.0
 11
247.0
 21
703.5
 31
0.0
  0
LINE
  5
2B6
100
AcDbEntity
  8
_2
  6
CONTINUOUS
 62
     6
100
AcDbLine
 10
240.0
 20
696.5
 30
0.0
 11
240.0
 21
710.5
 31
0.0
  0
LINE
  5
2B7
100
AcDbEntity
  8
_2
  6
CONTINUOUS
 62
     2
100
AcDbLine
 10
207.5
 20
140.5
 30
0.0
 11
402.5
 21
140.5
 31
0.0
  0
LINE
  5
2B8
100
AcDbEntity
  8
_2
  6
CONTINUOUS
 62
     2
100
AcDbLine
 10
207.5
 20
132.5
 30
0.0
 11
402.5
 21
132.5
 31
0.0
  0
LINE
  5
2B9
100
AcDbEntity
  8
_2
  6
CONTINUOUS
 62
     2
100
AcDbLine
 10
404.5
 20
134.5
 30
0.0
 11
402.5
 21
134.5
 31
0.0
  0
LINE
  5
2BA
100
AcDbEntity
  8
_2
  6
CONTINUOUS
 62
     2
100
AcDbLine
 10
207.5
 20
134.5
 30
0.0
 11
205.5
 21
134.5
 31
0.0
  0
LINE
  5
2BB
100
AcDbEntity
  8
_2
  6
CONTINUOUS
 62
     2
100
AcDbLine
 10
207.5
 20
140.5
 30
0.0
 11
207.5
 21
132.5
 31
0.0
  0
LINE
  5
2BC
100
AcDbEntity
  8
_2
  6
CONTINUOUS
 62
     2
100
AcDbLine
 10
402.5
 20
140.5
 30
0.0
 11
402.5
 21
132.5
 31
0.0
  0
LINE
  5
2BD
100
AcDbEntity
  8
_2
  6
CONTINUOUS
 62
     6
100
AcDbLine
 10
233.0
 20
145.5
 30
0.0
 11
247.0
 21
145.5
 31
0.0
  0
LINE
  5
2BE
100
AcDbEntity
  8
_2
  6
CONTINUOUS
 62
     6
100
AcDbLine
 10
240.0
 20
152.5
 30
0.0
 11
240.0
 21
138.5
 31
0.0
  0
LINE
  5
2BF
100
AcDbEntity
  8
_2
  6
CONTINUOUS
 62
     6
100
AcDbLine
 10
377.0
 20
145.5
 30
0.0
 11
363.0
 21
145.5
 31
0.0
  0
LINE
  5
2C0
100
AcDbEntity
  8
_2
  6
CONTINUOUS
 62
     6
100
AcDbLine
 10
370.0
 20
152.5
 30
0.0
 11
370.0
 21
138.5
 31
0.0
  0
LINE
  5
2C1
100
AcDbEntity
  8
_2
  6
CONTINUOUS
 62
     2
100
AcDbLine
 10
205.5
 20
421.494841
 30
0.0
 11
205.5
 21
134.5
 31
0.0
  0
LINE
  5
2C2
100
AcDbEntity
  8
_2
  6
CONTINUOUS
 62
     2
100
AcDbLine
 10
404.5
 20
424.505159
 30
0.0
 11
404.5
 21
134.5
 31
0.0
  0
LINE
  5
2C3
100
AcDbEntity
  8
_2
  6
CONTINUOUS
 62
     2
100
AcDbLine
 10
205.5
 20
710.5
 30
0.0
 11
205.5
 21
426.8
 31
0.0
  0
LINE
  5
2C4
100
AcDbEntity
  8
_2
  6
CONTINUOUS
 62
     2
100
AcDbLine
 10
404.5
 20
710.5
 30
0.0
 11
404.5
 21
429.810317
 31
0.0
  0
LINE
  5
2C5
100
AcDbEntity
  8
_2
  6
CONTINUOUS
 62
     6
100
AcDbLine
 10
370.0
 20
784.7
 30
0.0
 11
370.0
 21
818.7
 31
0.0
  0
LINE
  5
2C6
100
AcDbEntity
  8
_2
  6
CONTINUOUS
 62
     6
100
AcDbLine
 10
372.0
 20
788.7
 30
0.0
 11
370.0
 21
816.7
 31
0.0
  0
LINE
  5
2C7
100
AcDbEntity
  8
_2
  6
CONTINUOUS
 62
     6
100
AcDbLine
 10
368.0
 20
788.7
 30
0.0
 11
370.0
 21
816.7
 31
0.0
  0
LINE
  5
2C8
100
AcDbEntity
  8
_2
  6
CONTINUOUS
 62
     6
100
AcDbLine
 10
240.0
 20
784.7
 30
0.0
 11
240.0
 21
818.7
 31
0.0
  0
LINE
  5
2C9
100
AcDbEntity
  8
_2
  6
CONTINUOUS
 62
     6
100
AcDbLine
 10
242.0
 20
788.7
 30
0.0
 11
240.0
 21
816.7
 31
0.0
  0
LINE
  5
2CA
100
AcDbEntity
  8
_2
  6
CONTINUOUS
 62
     6
100
AcDbLine
 10
238.0
 20
788.7
 30
0.0
 11
240.0
 21
816.7
 31
0.0
  0
LINE
  5
2CB
100
AcDbEntity
  8
_2
  6
CONTINUOUS
 62
     2
100
AcDbLine
 10
207.5
 20
778.7
 30
0.0
 11
207.5
 21
788.7
 31
0.0
  0
LINE
  5
2CC
100
AcDbEntity
  8
_2
  6
CONTINUOUS
 62
     2
100
AcDbLine
 10
402.5
 20
778.7
 30
0.0
 11
402.5
 21
788.7
 31
0.0
  0
LINE
  5
2CD
100
AcDbEntity
  8
_2
  6
CONTINUOUS
 62
     2
100
AcDbLine
 10
207.5
 20
778.7
 30
0.0
 11
402.5
 21
778.7
 31
0.0
  0
LINE
  5
2CE
100
AcDbEntity
  8
_2
  6
CONTINUOUS
 62
     2
100
AcDbLine
 10
207.5
 20
788.7
 30
0.0
 11
402.5
 21
788.7
 31
0.0
  0
LINE
  5
2CF
100
AcDbEntity
  8
_2
  6
CONTINUOUS
 62
     2
100
AcDbLine
 10
205.5
 20
779.7
 30
0.0
 11
205.5
 21
784.7
 31
0.0
  0
LINE
  5
2D0
100
AcDbEntity
  8
_2
  6
CONTINUOUS
 62
     2
100
AcDbLine
 10
404.5
 20
779.7
 30
0.0
 11
404.5
 21
784.7
 31
0.0
  0
LINE
  5
2D1
100
AcDbEntity
  8
_2
  6
CONTINUOUS
 62
     2
100
AcDbLine
 10
205.5
 20
779.7
 30
0.0
 11
207.5
 21
779.7
 31
0.0
  0
LINE
  5
2D2
100
AcDbEntity
  8
_2
  6
CONTINUOUS
 62
     2
100
AcDbLine
 10
402.5
 20
779.7
 30
0.0
 11
404.5
 21
779.7
 31
0.0
  0
LINE
  5
2D3
100
AcDbEntity
  8
_2
  6
CONTINUOUS
 62
     2
100
AcDbLine
 10
402.5
 20
784.7
 30
0.0
 11
404.5
 21
784.7
 31
0.0
  0
LINE
  5
2D4
100
AcDbEntity
  8
_2
  6
CONTINUOUS
 62
     2
100
AcDbLine
 10
205.5
 20
784.7
 30
0.0
 11
207.5
 21
784.7
 31
0.0
  0
CIRCLE
  5
2D5
100
AcDbEntity
  8
_2
  6
EXLTYPE2
 62
     6
100
AcDbCircle
 10
240.0
 20
703.5
 30
0.0
 40
2.0
  0
CIRCLE
  5
2D6
100
AcDbEntity
  8
_2
  6
EXLTYPE2
 62
     6
100
AcDbCircle
 10
370.0
 20
703.5
 30
0.0
 40
2.0
  0
CIRCLE
  5
2D7
100
AcDbEntity
  8
_2
  6
EXLTYPE2
 62
     6
100
AcDbCircle
 10
240.0
 20
145.5
 30
0.0
 40
2.0
  0
CIRCLE
  5
2D8
100
AcDbEntity
  8
_2
  6
EXLTYPE2
 62
     6
100
AcDbCircle
 10
370.0
 20
145.5
 30
0.0
 40
2.0
  0
POLYLINE
  5
2D9
100
AcDbEntity
  8
LAY-3
  6
CONTINUOUS
 62
     6
100
AcDb2dPolyline
 66
     1
 10
0.0
 20
0.0
 30
0.0
 70
   128
  0
VERTEX
  5
2DA
100
AcDbEntity
  8
LAY-3
  6
CONTINUOUS
 62
     6
100
AcDbVertex
100
AcDb2dVertex
 10
200.0
 20
419.5
 30
0.0
  0
VERTEX
  5
2DB
100
AcDbEntity
  8
LAY-3
  6
CONTINUOUS
 62
     6
100
AcDbVertex
100
AcDb2dVertex
 10
200.413012
 20
419.663035
 30
0.0
  0
VERTEX
  5
2DC
100
AcDbEntity
  8
LAY-3
  6
CONTINUOUS
 62
     6
100
AcDbVertex
100
AcDb2dVertex
 10
201.586015
 20
420.110068
 30
0.0
  0
VERTEX
  5
2DD
100
AcDbEntity
  8
LAY-3
  6
CONTINUOUS
 62
     6
100
AcDbVertex
100
AcDb2dVertex
 10
203.419964
 20
420.777986
 30
0.0
  0
VERTEX
  5
2DE
100
AcDbEntity
  8
LAY-3
  6
CONTINUOUS
 62
     6
100
AcDbVertex
100
AcDb2dVertex
 10
205.815811
 20
421.603681
 30
0.0
  0
VERTEX
  5
2DF
100
AcDbEntity
  8
LAY-3
  6
CONTINUOUS
 62
     6
100
AcDbVertex
100
AcDb2dVertex
 10
208.674511
 20
422.524042
 30
0.0
  0
VERTEX
  5
2E0
100
AcDbEntity
  8
LAY-3
  6
CONTINUOUS
 62
     6
100
AcDbVertex
100
AcDb2dVertex
 10
211.897017
 20
423.475958
 30
0.0
  0
VERTEX
  5
2E1
100
AcDbEntity
  8
LAY-3
  6
CONTINUOUS
 62
     6
100
AcDbVertex
100
AcDb2dVertex
 10
215.384282
 20
424.396319
 30
0.0
  0
VERTEX
  5
2E2
100
AcDbEntity
  8
LAY-3
  6
CONTINUOUS
 62
     6
100
AcDbVertex
100
AcDb2dVertex
 10
219.037259
 20
425.222014
 30
0.0
  0
VERTEX
  5
2E3
100
AcDbEntity
  8
LAY-3
  6
CONTINUOUS
 62
     6
100
AcDbVertex
100
AcDb2dVertex
 10
222.756902
 20
425.889932
 30
0.0
  0
VERTEX
  5
2E4
100
AcDbEntity
  8
LAY-3
  6
CONTINUOUS
 62
     6
100
AcDbVertex
100
AcDb2dVertex
 10
226.444165
 20
426.336965
 30
0.0
  0
VERTEX
  5
2E5
100
AcDbEntity
  8
LAY-3
  6
CONTINUOUS
 62
     6
100
AcDbVertex
100
AcDb2dVertex
 10
230.0
 20
426.5
 30
0.0
  0
VERTEX
  5
2E6
100
AcDbEntity
  8
LAY-3
  6
CONTINUOUS
 62
     6
100
AcDbVertex
100
AcDb2dVertex
 10
233.346314
 20
426.336965
 30
0.0
  0
VERTEX
  5
2E7
100
AcDbEntity
  8
LAY-3
  6
CONTINUOUS
 62
     6
100
AcDbVertex
100
AcDb2dVertex
 10
236.48882
 20
425.889932
 30
0.0
  0
VERTEX
  5
2E8
100
AcDbEntity
  8
LAY-3
  6
CONTINUOUS
 62
     6
100
AcDbVertex
100
AcDb2dVertex
 10
239.454186
 20
425.222014
 30
0.0
  0
VERTEX
  5
2E9
100
AcDbEntity
  8
LAY-3
  6
CONTINUOUS
 62
     6
100
AcDbVertex
100
AcDb2dVertex
 10
242.269077
 20
424.396319
 30
0.0
  0
VERTEX
  5
2EA
100
AcDbEntity
  8
LAY-3
  6
CONTINUOUS
 62
     6
100
AcDbVertex
100
AcDb2dVertex
 10
244.960159
 20
423.475958
 30
0.0
  0
VERTEX
  5
2EB
100
AcDbEntity
  8
LAY-3
  6
CONTINUOUS
 62
     6
100
AcDbVertex
100
AcDb2dVertex
 10
247.5541
 20
422.524042
 30
0.0
  0
VERTEX
  5
2EC
100
AcDbEntity
  8
LAY-3
  6
CONTINUOUS
 62
     6
100
AcDbVertex
100
AcDb2dVertex
 10
250.077565
 20
421.603681
 30
0.0
  0
VERTEX
  5
2ED
100
AcDbEntity
  8
LAY-3
  6
CONTINUOUS
 62
     6
100
AcDbVertex
100
AcDb2dVertex
 10
252.557222
 20
420.777986
 30
0.0
  0
VERTEX
  5
2EE
100
AcDbEntity
  8
LAY-3
  6
CONTINUOUS
 62
     6
100
AcDbVertex
100
AcDb2dVertex
 10
255.019735
 20
420.110068
 30
0.0
  0
VERTEX
  5
2EF
100
AcDbEntity
  8
LAY-3
  6
CONTINUOUS
 62
     6
100
AcDbVertex
100
AcDb2dVertex
 10
257.491773
 20
419.663035
 30
0.0
  0
VERTEX
  5
2F0
100
AcDbEntity
  8
LAY-3
  6
CONTINUOUS
 62
     6
100
AcDbVertex
100
AcDb2dVertex
 10
260.0
 20
419.5
 30
0.0
  0
VERTEX
  5
2F1
100
AcDbEntity
  8
LAY-3
  6
CONTINUOUS
 62
     6
100
AcDbVertex
100
AcDb2dVertex
 10
262.56537
 20
419.663035
 30
0.0
  0
VERTEX
  5
2F2
100
AcDbEntity
  8
LAY-3
  6
CONTINUOUS
 62
     6
100
AcDbVertex
100
AcDb2dVertex
 10
265.185977
 20
420.110068
 30
0.0
  0
VERTEX
  5
2F3
100
AcDbEntity
  8
LAY-3
  6
CONTINUOUS
 62
     6
100
AcDbVertex
100
AcDb2dVertex
 10
267.854203
 20
420.777986
 30
0.0
  0
VERTEX
  5
2F4
100
AcDbEntity
  8
LAY-3
  6
CONTINUOUS
 62
     6
100
AcDbVertex
100
AcDb2dVertex
 10
270.562428
 20
421.603681
 30
0.0
  0
VERTEX
  5
2F5
100
AcDbEntity
  8
LAY-3
  6
CONTINUOUS
 62
     6
100
AcDbVertex
100
AcDb2dVertex
 10
273.303034
 20
422.524042
 30
0.0
  0
VERTEX
  5
2F6
100
AcDbEntity
  8
LAY-3
  6
CONTINUOUS
 62
     6
100
AcDbVertex
100
AcDb2dVertex
 10
276.068401
 20
423.475958
 30
0.0
  0
VERTEX
  5
2F7
100
AcDbEntity
  8
LAY-3
  6
CONTINUOUS
 62
     6
100
AcDbVertex
100
AcDb2dVertex
 10
278.850912
 20
424.396319
 30
0.0
  0
VERTEX
  5
2F8
100
AcDbEntity
  8
LAY-3
  6
CONTINUOUS
 62
     6
100
AcDbVertex
100
AcDb2dVertex
 10
281.642946
 20
425.222014
 30
0.0
  0
VERTEX
  5
2F9
100
AcDbEntity
  8
LAY-3
  6
CONTINUOUS
 62
     6
100
AcDbVertex
100
AcDb2dVertex
 10
284.436884
 20
425.889932
 30
0.0
  0
VERTEX
  5
2FA
100
AcDbEntity
  8
LAY-3
  6
CONTINUOUS
 62
     6
100
AcDbVertex
100
AcDb2dVertex
 10
287.225109
 20
426.336965
 30
0.0
  0
VERTEX
  5
2FB
100
AcDbEntity
  8
LAY-3
  6
CONTINUOUS
 62
     6
100
AcDbVertex
100
AcDb2dVertex
 10
290.0
 20
426.5
 30
0.0
  0
VERTEX
  5
2FC
100
AcDbEntity
  8
LAY-3
  6
CONTINUOUS
 62
     6
100
AcDbVertex
100
AcDb2dVertex
 10
292.755844
 20
426.336965
 30
0.0
  0
VERTEX
  5
2FD
100
AcDbEntity
  8
LAY-3
  6
CONTINUOUS
 62
     6
100
AcDbVertex
100
AcDb2dVertex
 10
295.494545
 20
425.889932
 30
0.0
  0
VERTEX
  5
2FE
100
AcDbEntity
  8
LAY-3
  6
CONTINUOUS
 62
     6
100
AcDbVertex
100
AcDb2dVertex
 10
298.219913
 20
425.222014
 30
0.0
  0
VERTEX
  5
2FF
100
AcDbEntity
  8
LAY-3
  6
CONTINUOUS
 62
     6
100
AcDbVertex
100
AcDb2dVertex
 10
300.935757
 20
424.396319
 30
0.0
  0
VERTEX
  5
300
100
AcDbEntity
  8
LAY-3
  6
CONTINUOUS
 62
     6
100
AcDbVertex
100
AcDb2dVertex
 10
303.645887
 20
423.475958
 30
0.0
  0
VERTEX
  5
301
100
AcDbEntity
  8
LAY-3
  6
CONTINUOUS
 62
     6
100
AcDbVertex
100
AcDb2dVertex
 10
306.354113
 20
422.524042
 30
0.0
  0
VERTEX
  5
302
100
AcDbEntity
  8
LAY-3
  6
CONTINUOUS
 62
     6
100
AcDbVertex
100
AcDb2dVertex
 10
309.064243
 20
421.603681
 30
0.0
  0
VERTEX
  5
303
100
AcDbEntity
  8
LAY-3
  6
CONTINUOUS
 62
     6
100
AcDbVertex
100
AcDb2dVertex
 10
311.780087
 20
420.777986
 30
0.0
  0
VERTEX
  5
304
100
AcDbEntity
  8
LAY-3
  6
CONTINUOUS
 62
     6
100
AcDbVertex
100
AcDb2dVertex
 10
314.505455
 20
420.110068
 30
0.0
  0
VERTEX
  5
305
100
AcDbEntity
  8
LAY-3
  6
CONTINUOUS
 62
     6
100
AcDbVertex
100
AcDb2dVertex
 10
317.244156
 20
419.663035
 30
0.0
  0
VERTEX
  5
306
100
AcDbEntity
  8
LAY-3
  6
CONTINUOUS
 62
     6
100
AcDbVertex
100
AcDb2dVertex
 10
320.0
 20
419.5
 30
0.0
  0
VERTEX
  5
307
100
AcDbEntity
  8
LAY-3
  6
CONTINUOUS
 62
     6
100
AcDbVertex
100
AcDb2dVertex
 10
322.774891
 20
419.663035
 30
0.0
  0
VERTEX
  5
308
100
AcDbEntity
  8
LAY-3
  6
CONTINUOUS
 62
     6
100
AcDbVertex
100
AcDb2dVertex
 10
325.563116
 20
420.110068
 30
0.0
  0
VERTEX
  5
309
100
AcDbEntity
  8
LAY-3
  6
CONTINUOUS
 62
     6
100
AcDbVertex
100
AcDb2dVertex
 10
328.357054
 20
420.777986
 30
0.0
  0
VERTEX
  5
30A
100
AcDbEntity
  8
LAY-3
  6
CONTINUOUS
 62
     6
100
AcDbVertex
100
AcDb2dVertex
 10
331.149088
 20
421.603681
 30
0.0
  0
VERTEX
  5
30B
100
AcDbEntity
  8
LAY-3
  6
CONTINUOUS
 62
     6
100
AcDbVertex
100
AcDb2dVertex
 10
333.931599
 20
422.524042
 30
0.0
  0
VERTEX
  5
30C
100
AcDbEntity
  8
LAY-3
  6
CONTINUOUS
 62
     6
100
AcDbVertex
100
AcDb2dVertex
 10
336.696966
 20
423.475958
 30
0.0
  0
VERTEX
  5
30D
100
AcDbEntity
  8
LAY-3
  6
CONTINUOUS
 62
     6
100
AcDbVertex
100
AcDb2dVertex
 10
339.437572
 20
424.396319
 30
0.0
  0
VERTEX
  5
30E
100
AcDbEntity
  8
LAY-3
  6
CONTINUOUS
 62
     6
100
AcDbVertex
100
AcDb2dVertex
 10
342.145797
 20
425.222014
 30
0.0
  0
VERTEX
  5
30F
100
AcDbEntity
  8
LAY-3
  6
CONTINUOUS
 62
     6
100
AcDbVertex
100
AcDb2dVertex
 10
344.814023
 20
425.889932
 30
0.0
  0
VERTEX
  5
310
100
AcDbEntity
  8
LAY-3
  6
CONTINUOUS
 62
     6
100
AcDbVertex
100
AcDb2dVertex
 10
347.43463
 20
426.336965
 30
0.0
  0
VERTEX
  5
311
100
AcDbEntity
  8
LAY-3
  6
CONTINUOUS
 62
     6
100
AcDbVertex
100
AcDb2dVertex
 10
350.0
 20
426.5
 30
0.0
  0
VERTEX
  5
312
100
AcDbEntity
  8
LAY-3
  6
CONTINUOUS
 62
     6
100
AcDbVertex
100
AcDb2dVertex
 10
352.508227
 20
426.336965
 30
0.0
  0
VERTEX
  5
313
100
AcDbEntity
  8
LAY-3
  6
CONTINUOUS
 62
     6
100
AcDbVertex
100
AcDb2dVertex
 10
354.980265
 20
425.889932
 30
0.0
  0
VERTEX
  5
314
100
AcDbEntity
  8
LAY-3
  6
CONTINUOUS
 62
     6
100
AcDbVertex
100
AcDb2dVertex
 10
357.442778
 20
425.222014
 30
0.0
  0
VERTEX
  5
315
100
AcDbEntity
  8
LAY-3
  6
CONTINUOUS
 62
     6
100
AcDbVertex
100
AcDb2dVertex
 10
359.922435
 20
424.396319
 30
0.0
  0
VERTEX
  5
316
100
AcDbEntity
  8
LAY-3
  6
CONTINUOUS
 62
     6
100
AcDbVertex
100
AcDb2dVertex
 10
362.4459
 20
423.475958
 30
0.0
  0
VERTEX
  5
317
100
AcDbEntity
  8
LAY-3
  6
CONTINUOUS
 62
     6
100
AcDbVertex
100
AcDb2dVertex
 10
365.039841
 20
422.524042
 30
0.0
  0
VERTEX
  5
318
100
AcDbEntity
  8
LAY-3
  6
CONTINUOUS
 62
     6
100
AcDbVertex
100
AcDb2dVertex
 10
367.730923
 20
421.603681
 30
0.0
  0
VERTEX
  5
319
100
AcDbEntity
  8
LAY-3
  6
CONTINUOUS
 62
     6
100
AcDbVertex
100
AcDb2dVertex
 10
370.545814
 20
420.777986
 30
0.0
  0
VERTEX
  5
31A
100
AcDbEntity
  8
LAY-3
  6
CONTINUOUS
 62
     6
100
AcDbVertex
100
AcDb2dVertex
 10
373.51118
 20
420.110068
 30
0.0
  0
VERTEX
  5
31B
100
AcDbEntity
  8
LAY-3
  6
CONTINUOUS
 62
     6
100
AcDbVertex
100
AcDb2dVertex
 10
376.653686
 20
419.663035
 30
0.0
  0
VERTEX
  5
31C
100
AcDbEntity
  8
LAY-3
  6
CONTINUOUS
 62
     6
100
AcDbVertex
100
AcDb2dVertex
 10
380.0
 20
419.5
 30
0.0
  0
VERTEX
  5
31D
100
AcDbEntity
  8
LAY-3
  6
CONTINUOUS
 62
     6
100
AcDbVertex
100
AcDb2dVertex
 10
383.555835
 20
419.663035
 30
0.0
  0
VERTEX
  5
31E
100
AcDbEntity
  8
LAY-3
  6
CONTINUOUS
 62
     6
100
AcDbVertex
100
AcDb2dVertex
 10
387.243098
 20
420.110068
 30
0.0
  0
VERTEX
  5
31F
100
AcDbEntity
  8
LAY-3
  6
CONTINUOUS
 62
     6
100
AcDbVertex
100
AcDb2dVertex
 10
390.962741
 20
420.777986
 30
0.0
  0
VERTEX
  5
320
100
AcDbEntity
  8
LAY-3
  6
CONTINUOUS
 62
     6
100
AcDbVertex
100
AcDb2dVertex
 10
394.615718
 20
421.603681
 30
0.0
  0
VERTEX
  5
321
100
AcDbEntity
  8
LAY-3
  6
CONTINUOUS
 62
     6
100
AcDbVertex
100
AcDb2dVertex
 10
398.102983
 20
422.524042
 30
0.0
  0
VERTEX
  5
322
100
AcDbEntity
  8
LAY-3
  6
CONTINUOUS
 62
     6
100
AcDbVertex
100
AcDb2dVertex
 10
401.325489
 20
423.475958
 30
0.0
  0
VERTEX
  5
323
100
AcDbEntity
  8
LAY-3
  6
CONTINUOUS
 62
     6
100
AcDbVertex
100
AcDb2dVertex
 10
404.184189
 20
424.396319
 30
0.0
  0
VERTEX
  5
324
100
AcDbEntity
  8
LAY-3
  6
CONTINUOUS
 62
     6
100
AcDbVertex
100
AcDb2dVertex
 10
406.580036
 20
425.222014
 30
0.0
  0
VERTEX
  5
325
100
AcDbEntity
  8
LAY-3
  6
CONTINUOUS
 62
     6
100
AcDbVertex
100
AcDb2dVertex
 10
408.413985
 20
425.889932
 30
0.0
  0
VERTEX
  5
326
100
AcDbEntity
  8
LAY-3
  6
CONTINUOUS
 62
     6
100
AcDbVertex
100
AcDb2dVertex
 10
409.586988
 20
426.336965
 30
0.0
  0
VERTEX
  5
327
100
AcDbEntity
  8
LAY-3
  6
CONTINUOUS
 62
     6
100
AcDbVertex
100
AcDb2dVertex
 10
410.0
 20
426.5
 30
0.0
  0
SEQEND
  5
328
100
AcDbEntity
  8
LAY-3
  6
CONTINUOUS
 62
     6
  0
POLYLINE
  5
329
100
AcDbEntity
  8
LAY-3
  6
CONTINUOUS
 62
     6
100
AcDb2dPolyline
 66
     1
 10
0.0
 20
0.0
 30
0.0
 70
   128
  0
VERTEX
  5
32A
100
AcDbEntity
  8
LAY-3
  6
CONTINUOUS
 62
     6
100
AcDbVertex
100
AcDb2dVertex
 10
200.0
 20
424.805159
 30
0.0
  0
VERTEX
  5
32B
100
AcDbEntity
  8
LAY-3
  6
CONTINUOUS
 62
     6
100
AcDbVertex
100
AcDb2dVertex
 10
200.413012
 20
424.968194
 30
0.0
  0
VERTEX
  5
32C
100
AcDbEntity
  8
LAY-3
  6
CONTINUOUS
 62
     6
100
AcDbVertex
100
AcDb2dVertex
 10
201.586015
 20
425.415226
 30
0.0
  0
VERTEX
  5
32D
100
AcDbEntity
  8
LAY-3
  6
CONTINUOUS
 62
     6
100
AcDbVertex
100
AcDb2dVertex
 10
203.419964
 20
426.083145
 30
0.0
  0
VERTEX
  5
32E
100
AcDbEntity
  8
LAY-3
  6
CONTINUOUS
 62
     6
100
AcDbVertex
100
AcDb2dVertex
 10
205.815811
 20
426.90884
 30
0.0
  0
VERTEX
  5
32F
100
AcDbEntity
  8
LAY-3
  6
CONTINUOUS
 62
     6
100
AcDbVertex
100
AcDb2dVertex
 10
208.674511
 20
427.829201
 30
0.0
  0
VERTEX
  5
330
100
AcDbEntity
  8
LAY-3
  6
CONTINUOUS
 62
     6
100
AcDbVertex
100
AcDb2dVertex
 10
211.897017
 20
428.781116
 30
0.0
  0
VERTEX
  5
331
100
AcDbEntity
  8
LAY-3
  6
CONTINUOUS
 62
     6
100
AcDbVertex
100
AcDb2dVertex
 10
215.384282
 20
429.701477
 30
0.0
  0
VERTEX
  5
332
100
AcDbEntity
  8
LAY-3
  6
CONTINUOUS
 62
     6
100
AcDbVertex
100
AcDb2dVertex
 10
219.037259
 20
430.527172
 30
0.0
  0
VERTEX
  5
333
100
AcDbEntity
  8
LAY-3
  6
CONTINUOUS
 62
     6
100
AcDbVertex
100
AcDb2dVertex
 10
222.756902
 20
431.195091
 30
0.0
  0
VERTEX
  5
334
100
AcDbEntity
  8
LAY-3
  6
CONTINUOUS
 62
     6
100
AcDbVertex
100
AcDb2dVertex
 10
226.444165
 20
431.642123
 30
0.0
  0
VERTEX
  5
335
100
AcDbEntity
  8
LAY-3
  6
CONTINUOUS
 62
     6
100
AcDbVertex
100
AcDb2dVertex
 10
230.0
 20
431.805159
 30
0.0
  0
VERTEX
  5
336
100
AcDbEntity
  8
LAY-3
  6
CONTINUOUS
 62
     6
100
AcDbVertex
100
AcDb2dVertex
 10
233.346314
 20
431.642123
 30
0.0
  0
VERTEX
  5
337
100
AcDbEntity
  8
LAY-3
  6
CONTINUOUS
 62
     6
100
AcDbVertex
100
AcDb2dVertex
 10
236.48882
 20
431.195091
 30
0.0
  0
VERTEX
  5
338
100
AcDbEntity
  8
LAY-3
  6
CONTINUOUS
 62
     6
100
AcDbVertex
100
AcDb2dVertex
 10
239.454186
 20
430.527172
 30
0.0
  0
VERTEX
  5
339
100
AcDbEntity
  8
LAY-3
  6
CONTINUOUS
 62
     6
100
AcDbVertex
100
AcDb2dVertex
 10
242.269077
 20
429.701477
 30
0.0
  0
VERTEX
  5
33A
100
AcDbEntity
  8
LAY-3
  6
CONTINUOUS
 62
     6
100
AcDbVertex
100
AcDb2dVertex
 10
244.960159
 20
428.781116
 30
0.0
  0
VERTEX
  5
33B
100
AcDbEntity
  8
LAY-3
  6
CONTINUOUS
 62
     6
100
AcDbVertex
100
AcDb2dVertex
 10
247.5541
 20
427.829201
 30
0.0
  0
VERTEX
  5
33C
100
AcDbEntity
  8
LAY-3
  6
CONTINUOUS
 62
     6
100
AcDbVertex
100
AcDb2dVertex
 10
250.077565
 20
426.90884
 30
0.0
  0
VERTEX
  5
33D
100
AcDbEntity
  8
LAY-3
  6
CONTINUOUS
 62
     6
100
AcDbVertex
100
AcDb2dVertex
 10
252.557222
 20
426.083145
 30
0.0
  0
VERTEX
  5
33E
100
AcDbEntity
  8
LAY-3
  6
CONTINUOUS
 62
     6
100
AcDbVertex
100
AcDb2dVertex
 10
255.019735
 20
425.415226
 30
0.0
  0
VERTEX
  5
33F
100
AcDbEntity
  8
LAY-3
  6
CONTINUOUS
 62
     6
100
AcDbVertex
100
AcDb2dVertex
 10
257.491773
 20
424.968194
 30
0.0
  0
VERTEX
  5
340
100
AcDbEntity
  8
LAY-3
  6
CONTINUOUS
 62
     6
100
AcDbVertex
100
AcDb2dVertex
 10
260.0
 20
424.805159
 30
0.0
  0
VERTEX
  5
341
100
AcDbEntity
  8
LAY-3
  6
CONTINUOUS
 62
     6
100
AcDbVertex
100
AcDb2dVertex
 10
262.56537
 20
424.968194
 30
0.0
  0
VERTEX
  5
342
100
AcDbEntity
  8
LAY-3
  6
CONTINUOUS
 62
     6
100
AcDbVertex
100
AcDb2dVertex
 10
265.185977
 20
425.415226
 30
0.0
  0
VERTEX
  5
343
100
AcDbEntity
  8
LAY-3
  6
CONTINUOUS
 62
     6
100
AcDbVertex
100
AcDb2dVertex
 10
267.854203
 20
426.083145
 30
0.0
  0
VERTEX
  5
344
100
AcDbEntity
  8
LAY-3
  6
CONTINUOUS
 62
     6
100
AcDbVertex
100
AcDb2dVertex
 10
270.562428
 20
426.90884
 30
0.0
  0
VERTEX
  5
345
100
AcDbEntity
  8
LAY-3
  6
CONTINUOUS
 62
     6
100
AcDbVertex
100
AcDb2dVertex
 10
273.303034
 20
427.829201
 30
0.0
  0
VERTEX
  5
346
100
AcDbEntity
  8
LAY-3
  6
CONTINUOUS
 62
     6
100
AcDbVertex
100
AcDb2dVertex
 10
276.068401
 20
428.781116
 30
0.0
  0
VERTEX
  5
347
100
AcDbEntity
  8
LAY-3
  6
CONTINUOUS
 62
     6
100
AcDbVertex
100
AcDb2dVertex
 10
278.850912
 20
429.701477
 30
0.0
  0
VERTEX
  5
348
100
AcDbEntity
  8
LAY-3
  6
CONTINUOUS
 62
     6
100
AcDbVertex
100
AcDb2dVertex
 10
281.642946
 20
430.527172
 30
0.0
  0
VERTEX
  5
349
100
AcDbEntity
  8
LAY-3
  6
CONTINUOUS
 62
     6
100
AcDbVertex
100
AcDb2dVertex
 10
284.436884
 20
431.195091
 30
0.0
  0
VERTEX
  5
34A
100
AcDbEntity
  8
LAY-3
  6
CONTINUOUS
 62
     6
100
AcDbVertex
100
AcDb2dVertex
 10
287.225109
 20
431.642123
 30
0.0
  0
VERTEX
  5
34B
100
AcDbEntity
  8
LAY-3
  6
CONTINUOUS
 62
     6
100
AcDbVertex
100
AcDb2dVertex
 10
290.0
 20
431.805159
 30
0.0
  0
VERTEX
  5
34C
100
AcDbEntity
  8
LAY-3
  6
CONTINUOUS
 62
     6
100
AcDbVertex
100
AcDb2dVertex
 10
292.755844
 20
431.642123
 30
0.0
  0
VERTEX
  5
34D
100
AcDbEntity
  8
LAY-3
  6
CONTINUOUS
 62
     6
100
AcDbVertex
100
AcDb2dVertex
 10
295.494545
 20
431.195091
 30
0.0
  0
VERTEX
  5
34E
100
AcDbEntity
  8
LAY-3
  6
CONTINUOUS
 62
     6
100
AcDbVertex
100
AcDb2dVertex
 10
298.219913
 20
430.527172
 30
0.0
  0
VERTEX
  5
34F
100
AcDbEntity
  8
LAY-3
  6
CONTINUOUS
 62
     6
100
AcDbVertex
100
AcDb2dVertex
 10
300.935757
 20
429.701477
 30
0.0
  0
VERTEX
  5
350
100
AcDbEntity
  8
LAY-3
  6
CONTINUOUS
 62
     6
100
AcDbVertex
100
AcDb2dVertex
 10
303.645887
 20
428.781116
 30
0.0
  0
VERTEX
  5
351
100
AcDbEntity
  8
LAY-3
  6
CONTINUOUS
 62
     6
100
AcDbVertex
100
AcDb2dVertex
 10
306.354113
 20
427.829201
 30
0.0
  0
VERTEX
  5
352
100
AcDbEntity
  8
LAY-3
  6
CONTINUOUS
 62
     6
100
AcDbVertex
100
AcDb2dVertex
 10
309.064243
 20
426.90884
 30
0.0
  0
VERTEX
  5
353
100
AcDbEntity
  8
LAY-3
  6
CONTINUOUS
 62
     6
100
AcDbVertex
100
AcDb2dVertex
 10
311.780087
 20
426.083145
 30
0.0
  0
VERTEX
  5
354
100
AcDbEntity
  8
LAY-3
  6
CONTINUOUS
 62
     6
100
AcDbVertex
100
AcDb2dVertex
 10
314.505455
 20
425.415226
 30
0.0
  0
VERTEX
  5
355
100
AcDbEntity
  8
LAY-3
  6
CONTINUOUS
 62
     6
100
AcDbVertex
100
AcDb2dVertex
 10
317.244156
 20
424.968194
 30
0.0
  0
VERTEX
  5
356
100
AcDbEntity
  8
LAY-3
  6
CONTINUOUS
 62
     6
100
AcDbVertex
100
AcDb2dVertex
 10
320.0
 20
424.805159
 30
0.0
  0
VERTEX
  5
357
100
AcDbEntity
  8
LAY-3
  6
CONTINUOUS
 62
     6
100
AcDbVertex
100
AcDb2dVertex
 10
322.774891
 20
424.968194
 30
0.0
  0
VERTEX
  5
358
100
AcDbEntity
  8
LAY-3
  6
CONTINUOUS
 62
     6
100
AcDbVertex
100
AcDb2dVertex
 10
325.563116
 20
425.415226
 30
0.0
  0
VERTEX
  5
359
100
AcDbEntity
  8
LAY-3
  6
CONTINUOUS
 62
     6
100
AcDbVertex
100
AcDb2dVertex
 10
328.357054
 20
426.083145
 30
0.0
  0
VERTEX
  5
35A
100
AcDbEntity
  8
LAY-3
  6
CONTINUOUS
 62
     6
100
AcDbVertex
100
AcDb2dVertex
 10
331.149088
 20
426.90884
 30
0.0
  0
VERTEX
  5
35B
100
AcDbEntity
  8
LAY-3
  6
CONTINUOUS
 62
     6
100
AcDbVertex
100
AcDb2dVertex
 10
333.931599
 20
427.829201
 30
0.0
  0
VERTEX
  5
35C
100
AcDbEntity
  8
LAY-3
  6
CONTINUOUS
 62
     6
100
AcDbVertex
100
AcDb2dVertex
 10
336.696966
 20
428.781116
 30
0.0
  0
VERTEX
  5
35D
100
AcDbEntity
  8
LAY-3
  6
CONTINUOUS
 62
     6
100
AcDbVertex
100
AcDb2dVertex
 10
339.437572
 20
429.701477
 30
0.0
  0
VERTEX
  5
35E
100
AcDbEntity
  8
LAY-3
  6
CONTINUOUS
 62
     6
100
AcDbVertex
100
AcDb2dVertex
 10
342.145797
 20
430.527172
 30
0.0
  0
VERTEX
  5
35F
100
AcDbEntity
  8
LAY-3
  6
CONTINUOUS
 62
     6
100
AcDbVertex
100
AcDb2dVertex
 10
344.814023
 20
431.195091
 30
0.0
  0
VERTEX
  5
360
100
AcDbEntity
  8
LAY-3
  6
CONTINUOUS
 62
     6
100
AcDbVertex
100
AcDb2dVertex
 10
347.43463
 20
431.642123
 30
0.0
  0
VERTEX
  5
361
100
AcDbEntity
  8
LAY-3
  6
CONTINUOUS
 62
     6
100
AcDbVertex
100
AcDb2dVertex
 10
350.0
 20
431.805159
 30
0.0
  0
VERTEX
  5
362
100
AcDbEntity
  8
LAY-3
  6
CONTINUOUS
 62
     6
100
AcDbVertex
100
AcDb2dVertex
 10
352.508227
 20
431.642123
 30
0.0
  0
VERTEX
  5
363
100
AcDbEntity
  8
LAY-3
  6
CONTINUOUS
 62
     6
100
AcDbVertex
100
AcDb2dVertex
 10
354.980265
 20
431.195091
 30
0.0
  0
VERTEX
  5
364
100
AcDbEntity
  8
LAY-3
  6
CONTINUOUS
 62
     6
100
AcDbVertex
100
AcDb2dVertex
 10
357.442778
 20
430.527172
 30
0.0
  0
VERTEX
  5
365
100
AcDbEntity
  8
LAY-3
  6
CONTINUOUS
 62
     6
100
AcDbVertex
100
AcDb2dVertex
 10
359.922435
 20
429.701477
 30
0.0
  0
VERTEX
  5
366
100
AcDbEntity
  8
LAY-3
  6
CONTINUOUS
 62
     6
100
AcDbVertex
100
AcDb2dVertex
 10
362.4459
 20
428.781116
 30
0.0
  0
VERTEX
  5
367
100
AcDbEntity
  8
LAY-3
  6
CONTINUOUS
 62
     6
100
AcDbVertex
100
AcDb2dVertex
 10
365.039841
 20
427.829201
 30
0.0
  0
VERTEX
  5
368
100
AcDbEntity
  8
LAY-3
  6
CONTINUOUS
 62
     6
100
AcDbVertex
100
AcDb2dVertex
 10
367.730923
 20
426.90884
 30
0.0
  0
VERTEX
  5
369
100
AcDbEntity
  8
LAY-3
  6
CONTINUOUS
 62
     6
100
AcDbVertex
100
AcDb2dVertex
 10
370.545814
 20
426.083145
 30
0.0
  0
VERTEX
  5
36A
100
AcDbEntity
  8
LAY-3
  6
CONTINUOUS
 62
     6
100
AcDbVertex
100
AcDb2dVertex
 10
373.51118
 20
425.415226
 30
0.0
  0
VERTEX
  5
36B
100
AcDbEntity
  8
LAY-3
  6
CONTINUOUS
 62
     6
100
AcDbVertex
100
AcDb2dVertex
 10
376.653686
 20
424.968194
 30
0.0
  0
VERTEX
  5
36C
100
AcDbEntity
  8
LAY-3
  6
CONTINUOUS
 62
     6
100
AcDbVertex
100
AcDb2dVertex
 10
380.0
 20
424.805159
 30
0.0
  0
VERTEX
  5
36D
100
AcDbEntity
  8
LAY-3
  6
CONTINUOUS
 62
     6
100
AcDbVertex
100
AcDb2dVertex
 10
383.555835
 20
424.968194
 30
0.0
  0
VERTEX
  5
36E
100
AcDbEntity
  8
LAY-3
  6
CONTINUOUS
 62
     6
100
AcDbVertex
100
AcDb2dVertex
 10
387.243098
 20
425.415226
 30
0.0
  0
VERTEX
  5
36F
100
AcDbEntity
  8
LAY-3
  6
CONTINUOUS
 62
     6
100
AcDbVertex
100
AcDb2dVertex
 10
390.962741
 20
426.083145
 30
0.0
  0
VERTEX
  5
370
100
AcDbEntity
  8
LAY-3
  6
CONTINUOUS
 62
     6
100
AcDbVertex
100
AcDb2dVertex
 10
394.615718
 20
426.90884
 30
0.0
  0
VERTEX
  5
371
100
AcDbEntity
  8
LAY-3
  6
CONTINUOUS
 62
     6
100
AcDbVertex
100
AcDb2dVertex
 10
398.102983
 20
427.829201
 30
0.0
  0
VERTEX
  5
372
100
AcDbEntity
  8
LAY-3
  6
CONTINUOUS
 62
     6
100
AcDbVertex
100
AcDb2dVertex
 10
401.325489
 20
428.781116
 30
0.0
  0
VERTEX
  5
373
100
AcDbEntity
  8
LAY-3
  6
CONTINUOUS
 62
     6
100
AcDbVertex
100
AcDb2dVertex
 10
404.184189
 20
429.701477
 30
0.0
  0
VERTEX
  5
374
100
AcDbEntity
  8
LAY-3
  6
CONTINUOUS
 62
     6
100
AcDbVertex
100
AcDb2dVertex
 10
406.580036
 20
430.527172
 30
0.0
  0
VERTEX
  5
375
100
AcDbEntity
  8
LAY-3
  6
CONTINUOUS
 62
     6
100
AcDbVertex
100
AcDb2dVertex
 10
408.413985
 20
431.195091
 30
0.0
  0
VERTEX
  5
376
100
AcDbEntity
  8
LAY-3
  6
CONTINUOUS
 62
     6
100
AcDbVertex
100
AcDb2dVertex
 10
409.586988
 20
431.642123
 30
0.0
  0
VERTEX
  5
377
100
AcDbEntity
  8
LAY-3
  6
CONTINUOUS
 62
     6
100
AcDbVertex
100
AcDb2dVertex
 10
410.0
 20
431.805159
 30
0.0
  0
SEQEND
  5
378
100
AcDbEntity
  8
LAY-3
  6
CONTINUOUS
 62
     6
  0
TEXT
  5
379
100
AcDbEntity
  8
LAY-3
  6
CONTINUOUS
 62
     2
100
AcDbText
 10
390.8
 20
814.7
 30
0.0
 40
12.0
  1
４×３０
 41
0.6825
  7
EXCADSTD
 72
     5
 11
429.8
 21
814.7
 31
0.0
100
AcDbText
  0
LEADER
  5
37A
100
AcDbEntity
  8
LAY-3
  6
CONTINUOUS
 62
     3
100
AcDbLeader
  3
STANDARD
 73
     3
 74
     1
 75
     0
 40
0.0
 76
     3
 10
371.336548
 20
797.988325
 30
0.0
 10
390.8
 20
814.7
 30
0.0
 10
425.4
 20
814.7
 30
0.0
 77
     3
1001
ACAD
1000
DSTYLE
1002
{
1070
    41
1040
9.0
1070
     5
1000
_EX_NORM
1070
     6
1000
_EX_NORM
1070
     7
1000
_EX_NORM
1070
   341
1005
28
1002
}
  0
DIMENSION
  5
387
100
AcDbEntity
  8
LAY-3
  6
CONTINUOUS
 62
     3
100
AcDbDimension
  2
*D18
 10
370.0
 20
834.8
 30
0.0
 11
305.0
 21
841.7
 31
0.0
 70
   160
  3
STANDARD
100
AcDbAlignedDimension
 13
240.0
 23
816.7
 33
0.0
 14
370.0
 24
816.7
 34
0.0
100
AcDbRotatedDimension
1001
ACAD
1000
DSTYLE
1002
{
1070
     6
1000
_EX_NORM
1070
     7
1000
_EX_NORM
1070
    41
1040
9.0
1070
    42
1040
1.5
1070
    44
1040
3.0
1070
    73
1070
     0
1070
    74
1070
     0
1070
    75
1070
     0
1070
    76
1070
     0
1070
    77
1070
     1
1070
    78
1070
     8
1070
   140
1040
12.0
1070
   147
1040
0.9
1070
   173
1070
     1
1070
   176
1070
     3
1070
   177
1070
     3
1070
   178
1070
     2
1070
   271
1070
     2
1070
   279
1070
     2
1070
   280
1070
     0
1070
   287
1070
     5
1070
   340
1005
386
1002
}
  0
ENDSEC
  0
SECTION
  2
OBJECTS
  0
DICTIONARY
  5
19
100
AcDbDictionary
  3
ACAD_GROUP
350
1A
  3
ACAD_MLINESTYLE
350
1B
  0
DICTIONARY
  5
1A
102
{ACAD_REACTORS
330
19
102
}
100
AcDbDictionary
  0
DICTIONARY
  5
1B
102
{ACAD_REACTORS
330
19
102
}
100
AcDbDictionary
  3
STANDARD
350
1C
  0
MLINESTYLE
  5
1C
102
{ACAD_REACTORS
330
1B
102
}
100
AcDbMlineStyle
  2
Standard
 70
     0
  3

 62
     0
 51
90.0
 52
90.0
 71
     2
 49
0.5
 62
   256
  6
ByLayer
 49
-0.5
 62
   256
  6
ByLayer
  0
ENDSEC
  0
EOF
