  0
SECTION
  2
HEADER
  9
$ACADVER
  1
AC1014
  9
$ACADMAINTVER
 70
     0
  9
$DWGCODEPAGE
  3
ANSI_932
  9
$INSBASE
 10
0.0
 20
0.0
 30
0.0
  9
$EXTMIN
 10
-12.8
 20
10.0
 30
0.0
  9
$EXTMAX
 10
198.0
 20
286.0
 30
0.0
  9
$LIMMIN
 10
0.0
 20
0.0
  9
$LIMMAX
 10
210.0
 20
297.0
  9
$ORTHOMODE
 70
     0
  9
$REGENMODE
 70
     1
  9
$FILLMODE
 70
     1
  9
$QTEXTMODE
 70
     0
  9
$MIRRTEXT
 70
     1
  9
$DRAGMODE
 70
     2
  9
$LTSCALE
 40
1.0
  9
$OSMODE
 70
     0
  9
$ATTMODE
 70
     1
  9
$TEXTSIZE
 40
0.2
  9
$TRACEWID
 40
0.05
  9
$TEXTSTYLE
  7
STANDARD
  9
$CLAYER
  8
LAY-2
  9
$CELTYPE
  6
CONTINUOUS
  9
$CECOLOR
 62
   256
  9
$CELTSCALE
 40
1.0
  9
$DELOBJ
 70
     1
  9
$DISPSILH
 70
     0
  9
$DIMSCALE
 40
1.0
  9
$DIMASZ
 40
0.18
  9
$DIMEXO
 40
0.0625
  9
$DIMDLI
 40
0.38
  9
$DIMRND
 40
0.0
  9
$DIMDLE
 40
0.0
  9
$DIMEXE
 40
0.18
  9
$DIMTP
 40
0.0
  9
$DIMTM
 40
0.0
  9
$DIMTXT
 40
0.18
  9
$DIMCEN
 40
0.09
  9
$DIMTSZ
 40
0.0
  9
$DIMTOL
 70
     0
  9
$DIMLIM
 70
     0
  9
$DIMTIH
 70
     1
  9
$DIMTOH
 70
     1
  9
$DIMSE1
 70
     0
  9
$DIMSE2
 70
     0
  9
$DIMTAD
 70
     0
  9
$DIMZIN
 70
     0
  9
$DIMBLK
  1

  9
$DIMASO
 70
     1
  9
$DIMSHO
 70
     1
  9
$DIMPOST
  1

  9
$DIMAPOST
  1

  9
$DIMALT
 70
     0
  9
$DIMALTD
 70
     2
  9
$DIMALTF
 40
25.4
  9
$DIMLFAC
 40
1.0
  9
$DIMTOFL
 70
     0
  9
$DIMTVP
 40
0.0
  9
$DIMTIX
 70
     0
  9
$DIMSOXD
 70
     0
  9
$DIMSAH
 70
     0
  9
$DIMBLK1
  1

  9
$DIMBLK2
  1

  9
$DIMSTYLE
  2
STANDARD
  9
$DIMCLRD
 70
     0
  9
$DIMCLRE
 70
     0
  9
$DIMCLRT
 70
     0
  9
$DIMTFAC
 40
1.0
  9
$DIMGAP
 40
0.09
  9
$DIMJUST
 70
     0
  9
$DIMSD1
 70
     0
  9
$DIMSD2
 70
     0
  9
$DIMTOLJ
 70
     1
  9
$DIMTZIN
 70
     0
  9
$DIMALTZ
 70
     0
  9
$DIMALTTZ
 70
     0
  9
$DIMFIT
 70
     3
  9
$DIMUPT
 70
     0
  9
$DIMUNIT
 70
     2
  9
$DIMDEC
 70
     4
  9
$DIMTDEC
 70
     4
  9
$DIMALTU
 70
     2
  9
$DIMALTTD
 70
     2
  9
$DIMTXSTY
  7
STANDARD
  9
$DIMAUNIT
 70
     0
  9
$LUNITS
 70
     2
  9
$LUPREC
 70
     4
  9
$SKETCHINC
 40
0.1
  9
$FILLETRAD
 40
0.0
  9
$AUNITS
 70
     0
  9
$AUPREC
 70
     0
  9
$MENU
  1
acad
  9
$ELEVATION
 40
0.0
  9
$PELEVATION
 40
0.0
  9
$THICKNESS
 40
0.0
  9
$LIMCHECK
 70
     0
  9
$BLIPMODE
 70
     1
  9
$CHAMFERA
 40
0.0
  9
$CHAMFERB
 40
0.0
  9
$CHAMFERC
 40
0.0
  9
$CHAMFERD
 40
0.0
  9
$SKPOLY
 70
     0
  9
$TDCREATE
 40
2454517.876898449
  9
$TDUPDATE
 40
2454517.876898449
  9
$TDINDWG
 40
0.0000000000
  9
$TDUSRTIMER
 40
0.0000000000
  9
$USRTIMER
 70
     1
  9
$ANGBASE
 50
0.0
  9
$ANGDIR
 70
     0
  9
$PDMODE
 70
     0
  9
$PDSIZE
 40
0.0
  9
$PLINEWID
 40
0.0
  9
$COORDS
 70
     1
  9
$SPLFRAME
 70
     0
  9
$SPLINETYPE
 70
     6
  9
$SPLINESEGS
 70
     8
  9
$ATTDIA
 70
     0
  9
$ATTREQ
 70
     1
  9
$HANDLING
 70
     1
  9
$HANDSEED
  5
4CF
  9
$SURFTAB1
 70
     6
  9
$SURFTAB2
 70
     6
  9
$SURFTYPE
 70
     6
  9
$SURFU
 70
     6
  9
$SURFV
 70
     6
  9
$UCSNAME
  2

  9
$UCSORG
 10
0.0
 20
0.0
 30
0.0
  9
$UCSXDIR
 10
1.0
 20
0.0
 30
0.0
  9
$UCSYDIR
 10
0.0
 20
1.0
 30
0.0
  9
$PUCSNAME
  2

  9
$PUCSORG
 10
0.0
 20
0.0
 30
0.0
  9
$PUCSXDIR
 10
1.0
 20
0.0
 30
0.0
  9
$PUCSYDIR
 10
0.0
 20
1.0
 30
0.0
  9
$USERI1
 70
     0
  9
$USERI2
 70
     0
  9
$USERI3
 70
     0
  9
$USERI4
 70
     0
  9
$USERI5
 70
     0
  9
$USERR1
 40
0.0
  9
$USERR2
 40
0.0
  9
$USERR3
 40
0.0
  9
$USERR4
 40
0.0
  9
$USERR5
 40
0.0
  9
$WORLDVIEW
 70
     1
  9
$SHADEDGE
 70
     3
  9
$SHADEDIF
 70
    70
  9
$TILEMODE
 70
     1
  9
$MAXACTVP
 70
    16
  9
$PINSBASE
 10
0.0
 20
0.0
 30
0.0
  9
$PLIMCHECK
 70
     0
  9
$PEXTMIN
 10
1.000000E+20
 20
1.000000E+20
 30
1.000000E+20
  9
$PEXTMAX
 10
-1.000000E+20
 20
-1.000000E+20
 30
-1.000000E+20
  9
$PLIMMIN
 10
0.0
 20
0.0
  9
$PLIMMAX
 10
12.0
 20
9.0
  9
$UNITMODE
 70
     0
  9
$VISRETAIN
 70
     0
  9
$PLINEGEN
 70
     1
  9
$PSLTSCALE
 70
     0
  9
$TREEDEPTH
 70
  3020
  9
$PICKSTYLE
 70
     1
  9
$CMLSTYLE
  2
Standard
  9
$CMLJUST
 70
     0
  9
$CMLSCALE
 40
1.0
  9
$PROXYGRAPHICS
 70
     0
  9
$MEASUREMENT
 70
     0
  0
ENDSEC
  0
SECTION
  2
CLASSES
  0
CLASS
  1
LWPOLYLINE
  2
AcDbPolyline
  3
"AutoCAD"
 90
        0
280
     0
281
     1
  0
CLASS
  1
IMAGE
  2
AcDbRasterImage
  3
ISM
 90
      127
280
     0
281
     1
  0
CLASS
  1
OLE2FRAME
  2
AcDbOle2Frame
  3
""
 90
        0
280
     0
281
     1
  0
CLASS
  1
HATCH
  2
AcDbHatch
  3
"ACAD_SEDONA"
 90
        0
280
     0
281
     1
  0
CLASS
  1
DICTIONARYVAR
  2
AcDbDictionaryVar
  3
"AutoCAD"
 90
        0
280
     0
281
     0
  0
CLASS
  1
RASTERVARIABLES
  2
AcDbRasterVariables
  3
ISM
 90
        0
280
     0
281
     0
  0
CLASS
  1
IMAGEDEF
  2
AcDbRasterImageDef
  3
ISM
 90
        0
280
     0
281
     0
  0
CLASS
  1
IMAGEDEF_REACTOR
  2
AcDbRasterImageDefReactor
  3
ISM
 90
        1
280
     0
281
     0
  0
CLASS
  1
IDBUFFER
  2
AcDbIdBuffer
  3
"Acad"
 90
        0
280
     0
281
     0
  0
CLASS
  1
SPATIAL_FILTER
  2
AcDbSpatialFilter
  3
"Acad"
 90
        0
280
     0
281
     0
  0
CLASS
  1
XRECORD
  2
AcDbXrecord
  3
"<Built In>"
 90
        0
280
     0
281
     0
  0
CLASS
  1
SORTENTSTABLE
  2
AcDbSortentsTable
  3
"AutoCAD"
 90
        0
280
     0
281
     0
  0
CLASS
  1
LAYER_INDEX
  2
AcDbLayerIndex
  3
"Acad"
 90
        0
280
     0
281
     0
  0
CLASS
  1
SPATIAL_INDEX
  2
AcDbSpatialIndex
  3
"Acad"
 90
        0
280
     0
281
     0
  0
CLASS
  1
OBJECT_PTR
  2
CAseDLPNTableRecord
  3
"ASE-LPNTableRecord"
 90
        1
280
     0
281
     0
  0
CLASS
  1
LAYOUT
  2
AcDbLayout
  3
"AutoCAD 2000"
 90
        1
280
     0
281
     0
  0
CLASS
  1
PLOTSETTINGS
  2
AcDbPlotSettings
  3
"AutoCAD 2000"
 90
        1
280
     0
281
     0
  0
CLASS
  1
ACDBDICTIONARYWDFLT
  2
AcDbDictionaryWithDefault
  3
"AutoCAD 2000"
 90
        1
280
     0
281
     0
  0
CLASS
  1
ACDBPLACEHOLDER
  2
AcDbPlaceHolder
  3
"AutoCAD 2000"
 90
        1
280
     0
281
     0
  0
CLASS
  1
VBA_PROJECT
  2
AcDbVbaProject
  3
"acadvba"
 90
        1
280
     0
281
     0
  0
CLASS
  1
WIPEOUT
  2
AcDbWipeout
  3
WipeOut|AutoCAD Express Tool|expresstools@autodesk.com
 90
      127
280
     0
281
     1
  0
CLASS
  1
WIPEOUTVARIABLES
  2
AcDbWipeoutVariables
  3
WipeOut|AutoCAD Express Tool|expresstools@autodesk.com
 90
        0
280
     0
281
     0
  0
CLASS
  1
RTEXT
  2
RText
  3
RText|AutoCAD Express Tool|expresstools@autodesk.com
 90
        0
280
     0
281
     1
  0
CLASS
  1
ARCALIGNEDTEXT
  2
AcDbArcAlignedText
  3
ATEXT|AutoCAD Express Tool|expresstools@autodesk.com
 90
        0
280
     0
281
     1
  0
ENDSEC
  0
SECTION
  2
TABLES
  0
TABLE
  2
VPORT
  5
7
100
AcDbSymbolTable
 70
     1
  0
VPORT
  5
15
100
AcDbSymbolTableRecord
100
AcDbViewportTableRecord
  2
*ACTIVE
 70
     0
 10
0.0
 20
0.0
 11
1.0
 21
1.0
 12
185.2
 22
296.0
 13
0.0
 23
0.0
 14
1.0
 24
1.0
 15
0.0
 25
0.0
 16
0.0
 26
0.0
 36
1.0
 17
0.0
 27
0.0
 37
0.0
 40
552.0
 41
1.722533
 42
50.0
 43
0.0
 44
0.0
 50
0.0
 51
0.0
 71
     0
 72
   100
 73
     1
 74
     1
 75
     0
 76
     0
 77
     0
 78
     0
  0
ENDTAB
  0
TABLE
  2
LTYPE
  5
4
100
AcDbSymbolTable
 70
     9
  0
LTYPE
  5
11
100
AcDbSymbolTableRecord
100
AcDbLinetypeTableRecord
  2
BYBLOCK
 70
    64
  3

 72
    65
 73
     0
 40
0.0
  0
LTYPE
  5
12
100
AcDbSymbolTableRecord
100
AcDbLinetypeTableRecord
  2
BYLAYER
 70
    64
  3

 72
    65
 73
     0
 40
0.0
  0
LTYPE
  5
13
100
AcDbSymbolTableRecord
100
AcDbLinetypeTableRecord
  2
CONTINUOUS
 70
    64
  3
実線
 72
    65
 73
     0
 40
0.0
  0
LTYPE
  5
1D
100
AcDbSymbolTableRecord
100
AcDbLinetypeTableRecord
  2
EXLTYPE1
 70
    64
  3
破線
 72
    65
 73
     2
 40
3.0
 49
2.0
 74
     0
 49
-1.0
 74
     0
  0
LTYPE
  5
1E
100
AcDbSymbolTableRecord
100
AcDbLinetypeTableRecord
  2
EXLTYPE2
 70
    64
  3
点線
 72
    65
 73
     2
 40
2.0
 49
1.0
 74
     0
 49
-1.0
 74
     0
  0
LTYPE
  5
1F
100
AcDbSymbolTableRecord
100
AcDbLinetypeTableRecord
  2
EXLTYPE3
 70
    64
  3
一点鎖線
 72
    65
 73
     4
 40
10.0
 49
7.0
 74
     0
 49
-1.0
 74
     0
 49
1.0
 74
     0
 49
-1.0
 74
     0
  0
LTYPE
  5
20
100
AcDbSymbolTableRecord
100
AcDbLinetypeTableRecord
  2
EXLTYPE4
 70
    64
  3
二点鎖線
 72
    65
 73
     6
 40
12.0
 49
7.0
 74
     0
 49
-1.0
 74
     0
 49
1.0
 74
     0
 49
-1.0
 74
     0
 49
1.0
 74
     0
 49
-1.0
 74
     0
  0
LTYPE
  5
21
100
AcDbSymbolTableRecord
100
AcDbLinetypeTableRecord
  2
EXLTYPE5
 70
    64
  3
三点鎖線
 72
    65
 73
     8
 40
37.0
 49
30.0
 74
     0
 49
-1.0
 74
     0
 49
1.0
 74
     0
 49
-1.0
 74
     0
 49
1.0
 74
     0
 49
-1.0
 74
     0
 49
1.0
 74
     0
 49
-1.0
 74
     0
  0
LTYPE
  5
22
100
AcDbSymbolTableRecord
100
AcDbLinetypeTableRecord
  2
EXLTYPE6
 70
    64
  3
四点鎖線
 72
    65
 73
    10
 40
39.0
 49
30.0
 74
     0
 49
-1.0
 74
     0
 49
1.0
 74
     0
 49
-1.0
 74
     0
 49
1.0
 74
     0
 49
-1.0
 74
     0
 49
1.0
 74
     0
 49
-1.0
 74
     0
 49
1.0
 74
     0
 49
-1.0
 74
     0
  0
ENDTAB
  0
TABLE
  2
LAYER
  5
2
100
AcDbSymbolTable
 70
     3
  0
LAYER
  5
14
100
AcDbSymbolTableRecord
100
AcDbLayerTableRecord
  2
0
 70
     0
 62
     7
  6
CONTINUOUS
  0
LAYER
  5
25
100
AcDbSymbolTableRecord
100
AcDbLayerTableRecord
  2
LAY-1
 70
    64
 62
     7
  6
CONTINUOUS
  0
LAYER
  5
26
100
AcDbSymbolTableRecord
100
AcDbLayerTableRecord
  2
LAY-2
 70
    64
 62
     7
  6
CONTINUOUS
  0
ENDTAB
  0
TABLE
  2
STYLE
  5
3
100
AcDbSymbolTable
 70
     4
  0
STYLE
  5
17
100
AcDbSymbolTableRecord
100
AcDbTextStyleTableRecord
  2
STANDARD
 70
     0
 40
0.0
 41
1.0
 50
0.0
 71
     0
 42
0.0
  3
monotxt
  4
extfont
  0
STYLE
  5
23
100
AcDbSymbolTableRecord
100
AcDbTextStyleTableRecord
  2
EXCADSTD
 70
    64
 40
0.0
 41
1.0
 50
0.0
 71
     0
 42
0.2
  3
monotxt
  4
extfont
  0
STYLE
  5
24
100
AcDbSymbolTableRecord
100
AcDbTextStyleTableRecord
  2
EXCADVERT
 70
    68
 40
0.0
 41
1.0
 50
0.0
 71
     0
 42
0.286885
  3
monotxt
  4
extfont
  0
STYLE
  5
3EA
100
AcDbSymbolTableRecord
100
AcDbTextStyleTableRecord
  2
EXCADDIM1
 70
    64
 40
0.0
 41
0.84
 50
0.0
 71
     0
 42
0.2
  3
monotxt
  4
extfont
  0
ENDTAB
  0
TABLE
  2
VIEW
  5
5
100
AcDbSymbolTable
 70
     0
  0
ENDTAB
  0
TABLE
  2
UCS
  5
6
100
AcDbSymbolTable
 70
     0
  0
ENDTAB
  0
TABLE
  2
APPID
  5
8
100
AcDbSymbolTable
 70
     1
  0
APPID
  5
16
100
AcDbSymbolTableRecord
100
AcDbRegAppTableRecord
  2
ACAD
 70
     0
  0
ENDTAB
  0
TABLE
  2
DIMSTYLE
  5
9
100
AcDbSymbolTable
 70
     1
  0
DIMSTYLE
105
18
100
AcDbSymbolTableRecord
100
AcDbDimStyleTableRecord
  2
STANDARD
 70
     0
  3

  4

  5

  6

  7

 40
1.0
 41
0.18
 42
0.0625
 43
0.38
 44
0.18
 45
0.0
 46
0.0
 47
0.0
 48
0.0
 71
     0
 72
     0
 73
     1
 74
     1
 75
     0
 76
     0
 77
     0
 78
     0
140
0.18
141
0.09
142
0.0
143
25.4
144
1.0
145
0.0
146
1.0
147
0.09
170
     0
171
     2
172
     1
173
     0
174
     0
175
     0
176
     0
177
     0
178
     0
270
     2
271
     4
272
     4
273
     2
274
     2
275
     0
280
     0
281
     0
282
     0
283
     1
284
     0
285
     0
286
     0
287
     0
288
     0
340
17
  0
ENDTAB
  0
TABLE
  2
BLOCK_RECORD
  5
1
100
AcDbSymbolTable
 70
    22
  0
BLOCK_RECORD
  5
A
100
AcDbSymbolTableRecord
100
AcDbBlockTableRecord
  2
*MODEL_SPACE
  0
BLOCK_RECORD
  5
B
100
AcDbSymbolTableRecord
100
AcDbBlockTableRecord
  2
*PAPER_SPACE
  0
BLOCK_RECORD
  5
27
100
AcDbSymbolTableRecord
100
AcDbBlockTableRecord
  2
_EX_NORM
  0
BLOCK_RECORD
  5
28
100
AcDbSymbolTableRecord
100
AcDbBlockTableRecord
  2
_EX_BNORM
  0
BLOCK_RECORD
  5
29
100
AcDbSymbolTableRecord
100
AcDbBlockTableRecord
  2
_EX_BCIR
  0
BLOCK_RECORD
  5
2A
100
AcDbSymbolTableRecord
100
AcDbBlockTableRecord
  2
_EX_RCIVIL
  0
BLOCK_RECORD
  5
2B
100
AcDbSymbolTableRecord
100
AcDbBlockTableRecord
  2
_EX_SLANT
  0
BLOCK_RECORD
  5
2C
100
AcDbSymbolTableRecord
100
AcDbBlockTableRecord
  2
_EX_NONE
  0
BLOCK_RECORD
  5
2D
100
AcDbSymbolTableRecord
100
AcDbBlockTableRecord
  2
_EX_CIVIL
  0
BLOCK_RECORD
  5
2E
100
AcDbSymbolTableRecord
100
AcDbBlockTableRecord
  2
_EX_WCIR
  0
BLOCK_RECORD
  5
2F
100
AcDbSymbolTableRecord
100
AcDbBlockTableRecord
  2
_EX_WCIR2
  0
BLOCK_RECORD
  5
30
100
AcDbSymbolTableRecord
100
AcDbBlockTableRecord
  2
_EX_WNORM
  0
BLOCK_RECORD
  5
31
100
AcDbSymbolTableRecord
100
AcDbBlockTableRecord
  2
_EX_NNORM
  0
BLOCK_RECORD
  5
32
100
AcDbSymbolTableRecord
100
AcDbBlockTableRecord
  2
_EX_BBOX
  0
BLOCK_RECORD
  5
33
100
AcDbSymbolTableRecord
100
AcDbBlockTableRecord
  2
_EX_WBOX
  0
BLOCK_RECORD
  5
34
100
AcDbSymbolTableRecord
100
AcDbBlockTableRecord
  2
_EX_INTEGRAL
  0
BLOCK_RECORD
  5
3DF
100
AcDbSymbolTableRecord
100
AcDbBlockTableRecord
  2
*D14
  0
BLOCK_RECORD
  5
3EC
100
AcDbSymbolTableRecord
100
AcDbBlockTableRecord
  2
*D15
  0
BLOCK_RECORD
  5
3F8
100
AcDbSymbolTableRecord
100
AcDbBlockTableRecord
  2
*D16
  0
BLOCK_RECORD
  5
401
100
AcDbSymbolTableRecord
100
AcDbBlockTableRecord
  2
*D17
  0
BLOCK_RECORD
  5
40D
100
AcDbSymbolTableRecord
100
AcDbBlockTableRecord
  2
*D18
  0
BLOCK_RECORD
  5
422
100
AcDbSymbolTableRecord
100
AcDbBlockTableRecord
  2
*D19
  0
BLOCK_RECORD
  5
42C
100
AcDbSymbolTableRecord
100
AcDbBlockTableRecord
  2
*D20
  0
BLOCK_RECORD
  5
437
100
AcDbSymbolTableRecord
100
AcDbBlockTableRecord
  2
*D21
  0
ENDTAB
  0
ENDSEC
  0
SECTION
  2
BLOCKS
  0
BLOCK
  5
D
100
AcDbEntity
  8
0
100
AcDbBlockBegin
  2
*MODEL_SPACE
 70
     0
 10
0.0
 20
0.0
 30
0.0
  3
*MODEL_SPACE
  1

  0
ENDBLK
  5
E
100
AcDbEntity
  8
0
100
AcDbBlockEnd
  0
BLOCK
  5
F
100
AcDbEntity
 67
     1
  8
0
100
AcDbBlockBegin
  2
*PAPER_SPACE
 70
     0
 10
0.0
 20
0.0
 30
0.0
  3
*PAPER_SPACE
  1

  0
ENDBLK
  5
10
100
AcDbEntity
 67
     1
  8
0
100
AcDbBlockEnd
  0
BLOCK
  5
35
100
AcDbEntity
  8
0
100
AcDbBlockBegin
  2
_EX_NORM
 70
     0
 10
0.0
 20
0.0
 30
0.0
  3
_EX_NORM
  1

  0
LINE
  5
36
100
AcDbEntity
  8
0
  6
CONTINUOUS
 62
     0
100
AcDbLine
 10
0.0
 20
0.0
 30
0.0
 11
-1.0
 21
0.0
 31
0.0
  0
LINE
  5
37
100
AcDbEntity
  8
0
  6
CONTINUOUS
 62
     0
100
AcDbLine
 10
0.0
 20
0.0
 30
0.0
 11
-1.0
 21
0.166667
 31
0.0
  0
LINE
  5
38
100
AcDbEntity
  8
0
  6
CONTINUOUS
 62
     0
100
AcDbLine
 10
0.0
 20
0.0
 30
0.0
 11
-1.0
 21
-0.166667
 31
0.0
  0
ENDBLK
  5
39
100
AcDbEntity
  8
0
100
AcDbBlockEnd
  0
BLOCK
  5
3A
100
AcDbEntity
  8
0
100
AcDbBlockBegin
  2
_EX_BNORM
 70
     0
 10
0.0
 20
0.0
 30
0.0
  3
_EX_BNORM
  1

  0
LINE
  5
3B
100
AcDbEntity
  8
0
  6
CONTINUOUS
 62
     0
100
AcDbLine
 10
0.0
 20
0.0
 30
0.0
 11
-1.0
 21
0.0
 31
0.0
  0
LINE
  5
3C
100
AcDbEntity
  8
0
  6
CONTINUOUS
 62
     0
100
AcDbLine
 10
0.0
 20
0.0
 30
0.0
 11
-1.0
 21
0.166667
 31
0.0
  0
LINE
  5
3D
100
AcDbEntity
  8
0
  6
CONTINUOUS
 62
     0
100
AcDbLine
 10
0.0
 20
0.0
 30
0.0
 11
-1.0
 21
-0.166667
 31
0.0
  0
LINE
  5
3E
100
AcDbEntity
  8
0
  6
CONTINUOUS
 62
     0
100
AcDbLine
 10
0.0
 20
0.0
 30
0.0
 11
-1.0
 21
0.083333
 31
0.0
  0
LINE
  5
3F
100
AcDbEntity
  8
0
  6
CONTINUOUS
 62
     0
100
AcDbLine
 10
0.0
 20
0.0
 30
0.0
 11
-1.0
 21
-0.083333
 31
0.0
  0
LINE
  5
40
100
AcDbEntity
  8
0
  6
CONTINUOUS
 62
     0
100
AcDbLine
 10
-1.0
 20
0.166667
 30
0.0
 11
-1.0
 21
-0.166667
 31
0.0
  0
ENDBLK
  5
41
100
AcDbEntity
  8
0
100
AcDbBlockEnd
  0
BLOCK
  5
42
100
AcDbEntity
  8
0
100
AcDbBlockBegin
  2
_EX_BCIR
 70
     0
 10
0.0
 20
0.0
 30
0.0
  3
_EX_BCIR
  1

  0
LINE
  5
43
100
AcDbEntity
  8
0
  6
CONTINUOUS
 62
     0
100
AcDbLine
 10
0.0
 20
0.0
 30
0.0
 11
-1.0
 21
0.0
 31
0.0
  0
CIRCLE
  5
44
100
AcDbEntity
  8
0
  6
CONTINUOUS
 62
     0
100
AcDbCircle
 10
0.0
 20
0.0
 30
0.0
 40
0.5
  0
CIRCLE
  5
45
100
AcDbEntity
  8
0
  6
CONTINUOUS
 62
     0
100
AcDbCircle
 10
0.0
 20
0.0
 30
0.0
 40
0.25
  0
ENDBLK
  5
46
100
AcDbEntity
  8
0
100
AcDbBlockEnd
  0
BLOCK
  5
47
100
AcDbEntity
  8
0
100
AcDbBlockBegin
  2
_EX_RCIVIL
 70
     0
 10
0.0
 20
0.0
 30
0.0
  3
_EX_RCIVIL
  1

  0
LINE
  5
48
100
AcDbEntity
  8
0
  6
CONTINUOUS
 62
     0
100
AcDbLine
 10
0.0
 20
0.0
 30
0.0
 11
-1.0
 21
0.0
 31
0.0
  0
LINE
  5
49
100
AcDbEntity
  8
0
  6
CONTINUOUS
 62
     0
100
AcDbLine
 10
-1.0
 20
-0.25
 30
0.0
 11
0.0
 21
-0.25
 31
0.0
  0
LINE
  5
4A
100
AcDbEntity
  8
0
  6
CONTINUOUS
 62
     0
100
AcDbLine
 10
-1.0
 20
-0.125
 30
0.0
 11
0.0
 21
-0.125
 31
0.0
  0
ENDBLK
  5
4B
100
AcDbEntity
  8
0
100
AcDbBlockEnd
  0
BLOCK
  5
4C
100
AcDbEntity
  8
0
100
AcDbBlockBegin
  2
_EX_SLANT
 70
     0
 10
0.0
 20
0.0
 30
0.0
  3
_EX_SLANT
  1

  0
LINE
  5
4D
100
AcDbEntity
  8
0
  6
CONTINUOUS
 62
     0
100
AcDbLine
 10
0.0
 20
0.0
 30
0.0
 11
-1.0
 21
0.0
 31
0.0
  0
LINE
  5
4E
100
AcDbEntity
  8
0
  6
CONTINUOUS
 62
     0
100
AcDbLine
 10
0.707107
 20
0.707107
 30
0.0
 11
-0.707107
 21
-0.707107
 31
0.0
  0
ENDBLK
  5
4F
100
AcDbEntity
  8
0
100
AcDbBlockEnd
  0
BLOCK
  5
50
100
AcDbEntity
  8
0
100
AcDbBlockBegin
  2
_EX_NONE
 70
     0
 10
0.0
 20
0.0
 30
0.0
  3
_EX_NONE
  1

  0
LINE
  5
51
100
AcDbEntity
  8
0
  6
CONTINUOUS
 62
     0
100
AcDbLine
 10
0.0
 20
0.0
 30
0.0
 11
-1.0
 21
0.0
 31
0.0
  0
ENDBLK
  5
52
100
AcDbEntity
  8
0
100
AcDbBlockEnd
  0
BLOCK
  5
53
100
AcDbEntity
  8
0
100
AcDbBlockBegin
  2
_EX_CIVIL
 70
     0
 10
0.0
 20
0.0
 30
0.0
  3
_EX_CIVIL
  1

  0
LINE
  5
54
100
AcDbEntity
  8
0
  6
CONTINUOUS
 62
     0
100
AcDbLine
 10
0.0
 20
0.0
 30
0.0
 11
-1.0
 21
0.0
 31
0.0
  0
LINE
  5
55
100
AcDbEntity
  8
0
  6
CONTINUOUS
 62
     0
100
AcDbLine
 10
-1.0
 20
0.25
 30
0.0
 11
0.0
 21
0.25
 31
0.0
  0
LINE
  5
56
100
AcDbEntity
  8
0
  6
CONTINUOUS
 62
     0
100
AcDbLine
 10
-1.0
 20
0.125
 30
0.0
 11
0.0
 21
0.125
 31
0.0
  0
ENDBLK
  5
57
100
AcDbEntity
  8
0
100
AcDbBlockEnd
  0
BLOCK
  5
58
100
AcDbEntity
  8
0
100
AcDbBlockBegin
  2
_EX_WCIR
 70
     0
 10
0.0
 20
0.0
 30
0.0
  3
_EX_WCIR
  1

  0
LINE
  5
59
100
AcDbEntity
  8
0
  6
CONTINUOUS
 62
     0
100
AcDbLine
 10
0.0
 20
0.0
 30
0.0
 11
-1.0
 21
0.0
 31
0.0
  0
CIRCLE
  5
5A
100
AcDbEntity
  8
0
  6
CONTINUOUS
 62
     0
100
AcDbCircle
 10
0.0
 20
0.0
 30
0.0
 40
0.5
  0
ENDBLK
  5
5B
100
AcDbEntity
  8
0
100
AcDbBlockEnd
  0
BLOCK
  5
5C
100
AcDbEntity
  8
0
100
AcDbBlockBegin
  2
_EX_WCIR2
 70
     0
 10
0.0
 20
0.0
 30
0.0
  3
_EX_WCIR2
  1

  0
LINE
  5
5D
100
AcDbEntity
  8
0
  6
CONTINUOUS
 62
     0
100
AcDbLine
 10
-0.5
 20
0.0
 30
0.0
 11
-1.0
 21
0.0
 31
0.0
  0
CIRCLE
  5
5E
100
AcDbEntity
  8
0
  6
CONTINUOUS
 62
     0
100
AcDbCircle
 10
0.0
 20
0.0
 30
0.0
 40
0.5
  0
ENDBLK
  5
5F
100
AcDbEntity
  8
0
100
AcDbBlockEnd
  0
BLOCK
  5
60
100
AcDbEntity
  8
0
100
AcDbBlockBegin
  2
_EX_WNORM
 70
     0
 10
0.0
 20
0.0
 30
0.0
  3
_EX_WNORM
  1

  0
LINE
  5
61
100
AcDbEntity
  8
0
  6
CONTINUOUS
 62
     0
100
AcDbLine
 10
-1.0
 20
0.0
 30
0.0
 11
-1.0
 21
0.0
 31
0.0
  0
LINE
  5
62
100
AcDbEntity
  8
0
  6
CONTINUOUS
 62
     0
100
AcDbLine
 10
0.0
 20
0.0
 30
0.0
 11
-1.0
 21
0.166667
 31
0.0
  0
LINE
  5
63
100
AcDbEntity
  8
0
  6
CONTINUOUS
 62
     0
100
AcDbLine
 10
0.0
 20
0.0
 30
0.0
 11
-1.0
 21
-0.166667
 31
0.0
  0
LINE
  5
64
100
AcDbEntity
  8
0
  6
CONTINUOUS
 62
     0
100
AcDbLine
 10
-1.0
 20
0.166667
 30
0.0
 11
-1.0
 21
-0.166667
 31
0.0
  0
ENDBLK
  5
65
100
AcDbEntity
  8
0
100
AcDbBlockEnd
  0
BLOCK
  5
66
100
AcDbEntity
  8
0
100
AcDbBlockBegin
  2
_EX_NNORM
 70
     0
 10
0.0
 20
0.0
 30
0.0
  3
_EX_NNORM
  1

  0
LINE
  5
67
100
AcDbEntity
  8
0
  6
CONTINUOUS
 62
     0
100
AcDbLine
 10
0.0
 20
0.0
 30
0.0
 11
-1.0
 21
0.0
 31
0.0
  0
LINE
  5
68
100
AcDbEntity
  8
0
  6
CONTINUOUS
 62
     0
100
AcDbLine
 10
0.0
 20
0.0
 30
0.0
 11
-1.0
 21
0.166667
 31
0.0
  0
LINE
  5
69
100
AcDbEntity
  8
0
  6
CONTINUOUS
 62
     0
100
AcDbLine
 10
0.0
 20
0.0
 30
0.0
 11
-1.0
 21
-0.166667
 31
0.0
  0
LINE
  5
6A
100
AcDbEntity
  8
0
  6
CONTINUOUS
 62
     0
100
AcDbLine
 10
-1.0
 20
0.166667
 30
0.0
 11
-1.0
 21
-0.166667
 31
0.0
  0
ENDBLK
  5
6B
100
AcDbEntity
  8
0
100
AcDbBlockEnd
  0
BLOCK
  5
6C
100
AcDbEntity
  8
0
100
AcDbBlockBegin
  2
_EX_BBOX
 70
     0
 10
0.0
 20
0.0
 30
0.0
  3
_EX_BBOX
  1

  0
LINE
  5
6D
100
AcDbEntity
  8
0
  6
CONTINUOUS
 62
     0
100
AcDbLine
 10
0.0
 20
0.0
 30
0.0
 11
-1.0
 21
0.0
 31
0.0
  0
LINE
  5
6E
100
AcDbEntity
  8
0
  6
CONTINUOUS
 62
     0
100
AcDbLine
 10
-0.5
 20
0.5
 30
0.0
 11
0.5
 21
0.5
 31
0.0
  0
LINE
  5
6F
100
AcDbEntity
  8
0
  6
CONTINUOUS
 62
     0
100
AcDbLine
 10
0.5
 20
0.5
 30
0.0
 11
0.5
 21
-0.5
 31
0.0
  0
LINE
  5
70
100
AcDbEntity
  8
0
  6
CONTINUOUS
 62
     0
100
AcDbLine
 10
0.5
 20
-0.5
 30
0.0
 11
-0.5
 21
-0.5
 31
0.0
  0
LINE
  5
71
100
AcDbEntity
  8
0
  6
CONTINUOUS
 62
     0
100
AcDbLine
 10
-0.5
 20
-0.5
 30
0.0
 11
-0.5
 21
0.5
 31
0.0
  0
LINE
  5
72
100
AcDbEntity
  8
0
  6
CONTINUOUS
 62
     0
100
AcDbLine
 10
-0.25
 20
0.25
 30
0.0
 11
0.25
 21
0.25
 31
0.0
  0
LINE
  5
73
100
AcDbEntity
  8
0
  6
CONTINUOUS
 62
     0
100
AcDbLine
 10
0.25
 20
0.25
 30
0.0
 11
0.25
 21
-0.25
 31
0.0
  0
LINE
  5
74
100
AcDbEntity
  8
0
  6
CONTINUOUS
 62
     0
100
AcDbLine
 10
0.25
 20
-0.25
 30
0.0
 11
-0.25
 21
-0.25
 31
0.0
  0
LINE
  5
75
100
AcDbEntity
  8
0
  6
CONTINUOUS
 62
     0
100
AcDbLine
 10
-0.25
 20
-0.25
 30
0.0
 11
-0.25
 21
0.25
 31
0.0
  0
ENDBLK
  5
76
100
AcDbEntity
  8
0
100
AcDbBlockEnd
  0
BLOCK
  5
77
100
AcDbEntity
  8
0
100
AcDbBlockBegin
  2
_EX_WBOX
 70
     0
 10
0.0
 20
0.0
 30
0.0
  3
_EX_WBOX
  1

  0
LINE
  5
78
100
AcDbEntity
  8
0
  6
CONTINUOUS
 62
     0
100
AcDbLine
 10
-0.5
 20
0.0
 30
0.0
 11
-1.0
 21
0.0
 31
0.0
  0
LINE
  5
79
100
AcDbEntity
  8
0
  6
CONTINUOUS
 62
     0
100
AcDbLine
 10
-0.5
 20
0.5
 30
0.0
 11
0.5
 21
0.5
 31
0.0
  0
LINE
  5
7A
100
AcDbEntity
  8
0
  6
CONTINUOUS
 62
     0
100
AcDbLine
 10
0.5
 20
0.5
 30
0.0
 11
0.5
 21
-0.5
 31
0.0
  0
LINE
  5
7B
100
AcDbEntity
  8
0
  6
CONTINUOUS
 62
     0
100
AcDbLine
 10
0.5
 20
-0.5
 30
0.0
 11
-0.5
 21
-0.5
 31
0.0
  0
LINE
  5
7C
100
AcDbEntity
  8
0
  6
CONTINUOUS
 62
     0
100
AcDbLine
 10
-0.5
 20
-0.5
 30
0.0
 11
-0.5
 21
0.5
 31
0.0
  0
ENDBLK
  5
7D
100
AcDbEntity
  8
0
100
AcDbBlockEnd
  0
BLOCK
  5
7E
100
AcDbEntity
  8
0
100
AcDbBlockBegin
  2
_EX_INTEGRAL
 70
     0
 10
0.0
 20
0.0
 30
0.0
  3
_EX_INTEGRAL
  1

  0
LINE
  5
7F
100
AcDbEntity
  8
0
  6
CONTINUOUS
 62
     0
100
AcDbLine
 10
0.0
 20
0.0
 30
0.0
 11
-1.0
 21
0.0
 31
0.0
  0
ARC
  5
80
100
AcDbEntity
  8
0
  6
CONTINUOUS
 62
     0
100
AcDbCircle
 10
0.542115
 20
0.164992
 30
0.0
 40
0.56667
100
AcDbArc
 50
73.07249
 51
196.927513
  0
ARC
  5
81
100
AcDbEntity
  8
0
  6
CONTINUOUS
 62
     0
100
AcDbCircle
 10
-0.542115
 20
-0.164992
 30
0.0
 40
0.56667
100
AcDbArc
 50
253.072487
 51
16.927513
  0
ENDBLK
  5
82
100
AcDbEntity
  8
0
100
AcDbBlockEnd
  0
BLOCK
  5
3E0
100
AcDbEntity
  8
0
100
AcDbBlockBegin
  2
*D14
 70
    65
 10
0.0
 20
0.0
 30
0.0
  3
*D14
  1

  0
TEXT
  5
3E1
100
AcDbEntity
  8
LAY-2
  6
CONTINUOUS
 62
     2
100
AcDbText
 10
349.2
 20
365.196049
 30
0.0
 40
8.0
  1
40
 50
90.0
 41
0.84
  7
EXCADSTD
 72
     1
 11
349.2
 21
371.076049
 31
0.0
100
AcDbText
  0
LINE
  5
3E2
100
AcDbEntity
  8
LAY-2
  6
CONTINUOUS
 62
     3
100
AcDbLine
 10
331.010331
 20
391.076049
 30
0.0
 11
353.2
 21
391.076049
 31
0.0
  0
LINE
  5
3E3
100
AcDbEntity
  8
LAY-2
  6
CONTINUOUS
 62
     3
100
AcDbLine
 10
327.706563
 20
351.076049
 30
0.0
 11
353.2
 21
351.076049
 31
0.0
  0
LINE
  5
3E4
100
AcDbEntity
  8
LAY-2
  6
CONTINUOUS
 62
     3
100
AcDbLine
 10
351.2
 20
391.076049
 30
0.0
 11
351.2
 21
351.076049
 31
0.0
  0
LINE
  5
3E5
100
AcDbEntity
  8
LAY-2
  6
CONTINUOUS
 62
     3
100
AcDbLine
 10
352.2
 20
385.076049
 30
0.0
 11
351.2
 21
391.076049
 31
0.0
  0
LINE
  5
3E6
100
AcDbEntity
  8
LAY-2
  6
CONTINUOUS
 62
     3
100
AcDbLine
 10
351.2
 20
391.076049
 30
0.0
 11
350.2
 21
385.076049
 31
0.0
  0
LINE
  5
3E7
100
AcDbEntity
  8
LAY-2
  6
CONTINUOUS
 62
     3
100
AcDbLine
 10
350.2
 20
357.076049
 30
0.0
 11
351.2
 21
351.076049
 31
0.0
  0
LINE
  5
3E8
100
AcDbEntity
  8
LAY-2
  6
CONTINUOUS
 62
     3
100
AcDbLine
 10
351.2
 20
351.076049
 30
0.0
 11
352.2
 21
357.076049
 31
0.0
  0
ENDBLK
  5
3E9
100
AcDbEntity
  8
0
100
AcDbBlockEnd
  0
BLOCK
  5
3ED
100
AcDbEntity
  8
0
100
AcDbBlockBegin
  2
*D15
 70
    65
 10
0.0
 20
0.0
 30
0.0
  3
*D15
  1

  0
TEXT
  5
3EE
100
AcDbEntity
  8
LAY-2
  6
CONTINUOUS
 62
     2
100
AcDbText
 10
349.2
 20
220.529091
 30
0.0
 40
8.0
  1
36
 50
90.0
 41
0.84
  7
EXCADSTD
 72
     1
 11
349.2
 21
226.409091
 31
0.0
100
AcDbText
  0
LINE
  5
3EF
100
AcDbEntity
  8
LAY-2
  6
CONTINUOUS
 62
     3
100
AcDbLine
 10
327.010331
 20
208.409091
 30
0.0
 11
353.2
 21
208.409091
 31
0.0
  0
LINE
  5
3F0
100
AcDbEntity
  8
LAY-2
  6
CONTINUOUS
 62
     3
100
AcDbLine
 10
327.010331
 20
244.409091
 30
0.0
 11
353.2
 21
244.409091
 31
0.0
  0
LINE
  5
3F1
100
AcDbEntity
  8
LAY-2
  6
CONTINUOUS
 62
     3
100
AcDbLine
 10
351.2
 20
208.409091
 30
0.0
 11
351.2
 21
244.409091
 31
0.0
  0
LINE
  5
3F2
100
AcDbEntity
  8
LAY-2
  6
CONTINUOUS
 62
     3
100
AcDbLine
 10
350.2
 20
214.409091
 30
0.0
 11
351.2
 21
208.409091
 31
0.0
  0
LINE
  5
3F3
100
AcDbEntity
  8
LAY-2
  6
CONTINUOUS
 62
     3
100
AcDbLine
 10
351.2
 20
208.409091
 30
0.0
 11
352.2
 21
214.409091
 31
0.0
  0
LINE
  5
3F4
100
AcDbEntity
  8
LAY-2
  6
CONTINUOUS
 62
     3
100
AcDbLine
 10
352.2
 20
238.409091
 30
0.0
 11
351.2
 21
244.409091
 31
0.0
  0
LINE
  5
3F5
100
AcDbEntity
  8
LAY-2
  6
CONTINUOUS
 62
     3
100
AcDbLine
 10
351.2
 20
244.409091
 30
0.0
 11
350.2
 21
238.409091
 31
0.0
  0
ENDBLK
  5
3F6
100
AcDbEntity
  8
0
100
AcDbBlockEnd
  0
BLOCK
  5
3F9
100
AcDbEntity
  8
0
100
AcDbBlockBegin
  2
*D16
 70
    65
 10
0.0
 20
0.0
 30
0.0
  3
*D16
  1

  0
TEXT
  5
3FA
100
AcDbEntity
  8
LAY-2
  6
CONTINUOUS
 62
     2
100
AcDbText
 10
349.2
 20
245.049091
 30
0.0
 40
8.0
  1
8
 50
90.0
 41
0.84
  7
EXCADSTD
 72
     1
 11
349.2
 21
248.409091
 31
0.0
100
AcDbText
  0
LINE
  5
3FB
100
AcDbEntity
  8
LAY-2
  6
CONTINUOUS
 62
     3
100
AcDbLine
 10
321.010331
 20
252.409091
 30
0.0
 11
353.2
 21
252.409091
 31
0.0
  0
LINE
  5
3FC
100
AcDbEntity
  8
LAY-2
  6
CONTINUOUS
 62
     3
100
AcDbLine
 10
351.2
 20
238.409091
 30
0.0
 11
351.2
 21
258.409091
 31
0.0
  0
LINE
  5
3FD
100
AcDbEntity
  8
LAY-2
  6
CONTINUOUS
 62
     3
100
AcDbLine
 10
350.2
 20
258.409091
 30
0.0
 11
351.2
 21
252.409091
 31
0.0
  0
LINE
  5
3FE
100
AcDbEntity
  8
LAY-2
  6
CONTINUOUS
 62
     3
100
AcDbLine
 10
351.2
 20
252.409091
 30
0.0
 11
352.2
 21
258.409091
 31
0.0
  0
ENDBLK
  5
3FF
100
AcDbEntity
  8
0
100
AcDbBlockEnd
  0
BLOCK
  5
402
100
AcDbEntity
  8
0
100
AcDbBlockBegin
  2
*D17
 70
    65
 10
0.0
 20
0.0
 30
0.0
  3
*D17
  1

  0
TEXT
  5
403
100
AcDbEntity
  8
LAY-2
  6
CONTINUOUS
 62
     2
100
AcDbText
 10
211.610331
 20
274.0
 30
0.0
 40
8.0
  1
450
 41
0.84
  7
EXCADSTD
 72
     1
 11
220.010331
 21
274.0
 31
0.0
100
AcDbText
  0
LINE
  5
404
100
AcDbEntity
  8
LAY-2
  6
CONTINUOUS
 62
     3
100
AcDbLine
 10
120.010331
 20
255.409091
 30
0.0
 11
120.010331
 21
274.0
 31
0.0
  0
LINE
  5
405
100
AcDbEntity
  8
LAY-2
  6
CONTINUOUS
 62
     3
100
AcDbLine
 10
320.010331
 20
255.409091
 30
0.0
 11
320.010331
 21
274.0
 31
0.0
  0
LINE
  5
406
100
AcDbEntity
  8
LAY-2
  6
CONTINUOUS
 62
     3
100
AcDbLine
 10
120.010331
 20
272.0
 30
0.0
 11
320.010331
 21
272.0
 31
0.0
  0
LINE
  5
407
100
AcDbEntity
  8
LAY-2
  6
CONTINUOUS
 62
     3
100
AcDbLine
 10
126.010331
 20
273.0
 30
0.0
 11
120.010331
 21
272.0
 31
0.0
  0
LINE
  5
408
100
AcDbEntity
  8
LAY-2
  6
CONTINUOUS
 62
     3
100
AcDbLine
 10
120.010331
 20
272.0
 30
0.0
 11
126.010331
 21
271.0
 31
0.0
  0
LINE
  5
409
100
AcDbEntity
  8
LAY-2
  6
CONTINUOUS
 62
     3
100
AcDbLine
 10
314.010331
 20
271.0
 30
0.0
 11
320.010331
 21
272.0
 31
0.0
  0
LINE
  5
40A
100
AcDbEntity
  8
LAY-2
  6
CONTINUOUS
 62
     3
100
AcDbLine
 10
320.010331
 20
272.0
 30
0.0
 11
314.010331
 21
273.0
 31
0.0
  0
ENDBLK
  5
40B
100
AcDbEntity
  8
0
100
AcDbBlockEnd
  0
BLOCK
  5
40E
100
AcDbEntity
  8
0
100
AcDbBlockBegin
  2
*D18
 70
    65
 10
0.0
 20
0.0
 30
0.0
  3
*D18
  1

  0
TEXT
  5
40F
100
AcDbEntity
  8
LAY-2
  6
CONTINUOUS
 62
     2
100
AcDbText
 10
291.8
 20
240.999091
 30
0.0
 40
8.0
  1
%%c12.7
 50
90.0
 41
0.84
  7
EXCADSTD
 72
     1
 11
291.8
 21
252.759091
 31
0.0
100
AcDbText
  0
LINE
  5
410
100
AcDbEntity
  8
LAY-2
  6
CONTINUOUS
 62
     3
100
AcDbLine
 10
293.8
 20
265.399998
 30
0.0
 11
293.8
 21
214.059091
 31
0.0
  0
LINE
  5
411
100
AcDbEntity
  8
LAY-2
  6
CONTINUOUS
 62
     3
100
AcDbLine
 10
292.8
 20
238.759091
 30
0.0
 11
293.8
 21
232.759091
 31
0.0
  0
LINE
  5
412
100
AcDbEntity
  8
LAY-2
  6
CONTINUOUS
 62
     3
100
AcDbLine
 10
293.8
 20
232.759091
 30
0.0
 11
294.8
 21
238.759091
 31
0.0
  0
LINE
  5
413
100
AcDbEntity
  8
LAY-2
  6
CONTINUOUS
 62
     3
100
AcDbLine
 10
294.8
 20
214.059091
 30
0.0
 11
293.8
 21
220.059091
 31
0.0
  0
LINE
  5
414
100
AcDbEntity
  8
LAY-2
  6
CONTINUOUS
 62
     3
100
AcDbLine
 10
293.8
 20
220.059091
 30
0.0
 11
292.8
 21
214.059091
 31
0.0
  0
ENDBLK
  5
415
100
AcDbEntity
  8
0
100
AcDbBlockEnd
  0
BLOCK
  5
423
100
AcDbEntity
  8
0
100
AcDbBlockBegin
  2
*D19
 70
    65
 10
0.0
 20
0.0
 30
0.0
  3
*D19
  1

  0
TEXT
  5
424
100
AcDbEntity
  8
LAY-2
  6
CONTINUOUS
 62
     2
100
AcDbText
 10
309.130331
 20
431.9
 30
0.0
 40
8.0
  1
10
 41
0.84
  7
EXCADSTD
 72
     1
 11
315.010331
 21
431.9
 31
0.0
100
AcDbText
  0
LINE
  5
425
100
AcDbEntity
  8
LAY-2
  6
CONTINUOUS
 62
     3
100
AcDbLine
 10
310.010331
 20
392.076049
 30
0.0
 11
310.010331
 21
431.9
 31
0.0
  0
LINE
  5
426
100
AcDbEntity
  8
LAY-2
  6
CONTINUOUS
 62
     3
100
AcDbLine
 10
320.010331
 20
420.776049
 30
0.0
 11
320.010331
 21
431.9
 31
0.0
  0
LINE
  5
427
100
AcDbEntity
  8
LAY-2
  6
CONTINUOUS
 62
     3
100
AcDbLine
 10
304.010331
 20
429.9
 30
0.0
 11
326.010331
 21
429.9
 31
0.0
  0
LINE
  5
428
100
AcDbEntity
  8
LAY-2
  6
CONTINUOUS
 62
     3
100
AcDbLine
 10
304.010331
 20
428.9
 30
0.0
 11
310.010331
 21
429.9
 31
0.0
  0
LINE
  5
429
100
AcDbEntity
  8
LAY-2
  6
CONTINUOUS
 62
     3
100
AcDbLine
 10
310.010331
 20
429.9
 30
0.0
 11
304.010331
 21
430.9
 31
0.0
  0
ENDBLK
  5
42A
100
AcDbEntity
  8
0
100
AcDbBlockEnd
  0
BLOCK
  5
42D
100
AcDbEntity
  8
0
100
AcDbBlockBegin
  2
*D20
 70
    65
 10
0.0
 20
0.0
 30
0.0
  3
*D20
  1

  0
TEXT
  5
42E
100
AcDbEntity
  8
LAY-2
  6
CONTINUOUS
 62
     2
100
AcDbText
 10
319.130331
 20
431.9
 30
0.0
 40
8.0
  1
10
 41
0.84
  7
EXCADSTD
 72
     1
 11
325.010331
 21
431.9
 31
0.0
100
AcDbText
  0
LINE
  5
42F
100
AcDbEntity
  8
LAY-2
  6
CONTINUOUS
 62
     3
100
AcDbLine
 10
330.010331
 20
392.076049
 30
0.0
 11
330.010331
 21
431.9
 31
0.0
  0
LINE
  5
430
100
AcDbEntity
  8
LAY-2
  6
CONTINUOUS
 62
     3
100
AcDbLine
 10
314.010331
 20
429.9
 30
0.0
 11
336.010331
 21
429.9
 31
0.0
  0
CIRCLE
  5
431
100
AcDbEntity
  8
LAY-2
  6
CONTINUOUS
 62
     3
100
AcDbCircle
 10
320.010331
 20
429.9
 30
0.0
 40
0.5
  0
CIRCLE
  5
432
100
AcDbEntity
  8
LAY-2
  6
CONTINUOUS
 62
     3
100
AcDbCircle
 10
320.010331
 20
429.9
 30
0.0
 40
0.25
  0
LINE
  5
433
100
AcDbEntity
  8
LAY-2
  6
CONTINUOUS
 62
     3
100
AcDbLine
 10
336.010331
 20
430.9
 30
0.0
 11
330.010331
 21
429.9
 31
0.0
  0
LINE
  5
434
100
AcDbEntity
  8
LAY-2
  6
CONTINUOUS
 62
     3
100
AcDbLine
 10
330.010331
 20
429.9
 30
0.0
 11
336.010331
 21
428.9
 31
0.0
  0
ENDBLK
  5
435
100
AcDbEntity
  8
0
100
AcDbBlockEnd
  0
BLOCK
  5
438
100
AcDbEntity
  8
0
100
AcDbBlockBegin
  2
*D21
 70
    65
 10
0.0
 20
0.0
 30
0.0
  3
*D21
  1

  0
TEXT
  5
439
100
AcDbEntity
  8
LAY-2
  6
CONTINUOUS
 62
     2
100
AcDbText
 10
349.2
 20
398.546049
 30
0.0
 40
8.0
  1
27
 50
90.0
 41
0.84
  7
EXCADSTD
 72
     1
 11
349.2
 21
404.426049
 31
0.0
100
AcDbText
  0
LINE
  5
43A
100
AcDbEntity
  8
LAY-2
  6
CONTINUOUS
 62
     3
100
AcDbLine
 10
321.010331
 20
417.776049
 30
0.0
 11
353.2
 21
417.776049
 31
0.0
  0
LINE
  5
43B
100
AcDbEntity
  8
LAY-2
  6
CONTINUOUS
 62
     3
100
AcDbLine
 10
351.2
 20
391.076049
 30
0.0
 11
351.2
 21
417.776049
 31
0.0
  0
LINE
  5
43C
100
AcDbEntity
  8
LAY-2
  6
CONTINUOUS
 62
     3
100
AcDbLine
 10
350.2
 20
397.076049
 30
0.0
 11
351.2
 21
391.076049
 31
0.0
  0
LINE
  5
43D
100
AcDbEntity
  8
LAY-2
  6
CONTINUOUS
 62
     3
100
AcDbLine
 10
351.2
 20
391.076049
 30
0.0
 11
352.2
 21
397.076049
 31
0.0
  0
LINE
  5
43E
100
AcDbEntity
  8
LAY-2
  6
CONTINUOUS
 62
     3
100
AcDbLine
 10
352.2
 20
411.776049
 30
0.0
 11
351.2
 21
417.776049
 31
0.0
  0
LINE
  5
43F
100
AcDbEntity
  8
LAY-2
  6
CONTINUOUS
 62
     3
100
AcDbLine
 10
351.2
 20
417.776049
 30
0.0
 11
350.2
 21
411.776049
 31
0.0
  0
ENDBLK
  5
440
100
AcDbEntity
  8
0
100
AcDbBlockEnd
  0
ENDSEC
  0
SECTION
  2
ENTITIES
  0
CIRCLE
  5
83
100
AcDbEntity
  8
LAY-1
  6
CONTINUOUS
 62
     6
100
AcDbCircle
 10
50.0
 20
25.0
 30
0.0
 40
0.2
  0
CIRCLE
  5
84
100
AcDbEntity
  8
LAY-1
  6
CONTINUOUS
 62
     6
100
AcDbCircle
 10
60.0
 20
25.0
 30
0.0
 40
0.2
  0
TEXT
  5
85
100
AcDbEntity
  8
LAY-1
  6
CONTINUOUS
 62
     6
100
AcDbText
 10
40.9
 20
22.3
 30
0.0
 40
5.0
  1
１８
 41
0.756
  7
EXCADSTD
 72
     5
 11
49.1494
 21
22.3
 31
0.0
100
AcDbText
  0
TEXT
  5
86
100
AcDbEntity
  8
LAY-1
  6
CONTINUOUS
 62
     6
100
AcDbText
 10
52.9
 20
22.3
 30
0.0
 40
5.0
  1
２
 41
0.84
  7
EXCADSTD
 72
     5
 11
56.9
 21
22.3
 31
0.0
100
AcDbText
  0
TEXT
  5
87
100
AcDbEntity
  8
LAY-1
  6
CONTINUOUS
 62
     6
100
AcDbText
 10
60.9
 20
22.3
 30
0.0
 40
5.0
  1
１５
 41
0.756
  7
EXCADSTD
 72
     5
 11
69.1494
 21
22.3
 31
0.0
100
AcDbText
  0
LINE
  5
88
100
AcDbEntity
  8
LAY-1
  6
EXLTYPE2
 62
     6
100
AcDbLine
 10
40.0
 20
30.0
 30
0.0
 11
102.0
 21
30.0
 31
0.0
  0
CIRCLE
  5
89
100
AcDbEntity
  8
LAY-1
  6
CONTINUOUS
 62
     6
100
AcDbCircle
 10
81.0
 20
25.0
 30
0.0
 40
0.2
  0
CIRCLE
  5
8A
100
AcDbEntity
  8
LAY-1
  6
CONTINUOUS
 62
     6
100
AcDbCircle
 10
91.0
 20
25.0
 30
0.0
 40
0.2
  0
TEXT
  5
8B
100
AcDbEntity
  8
LAY-1
  6
CONTINUOUS
 62
     6
100
AcDbText
 10
44.6
 20
37.4
 30
0.0
 40
10.0
  1
風穴
 41
0.84
  7
EXCADSTD
 72
     5
 11
62.932
 21
37.4
 31
0.0
100
AcDbText
  0
TEXT
  5
8C
100
AcDbEntity
  8
LAY-1
  6
CONTINUOUS
 62
     6
100
AcDbText
 10
104.8
 20
37.4
 30
0.0
 40
10.0
  1
間瀬
 41
0.84
  7
EXCADSTD
 72
     5
 11
123.132
 21
37.4
 31
0.0
100
AcDbText
  0
TEXT
  5
8D
100
AcDbEntity
  8
LAY-1
  6
CONTINUOUS
 62
     6
100
AcDbText
 10
130.8
 20
37.4
 30
0.0
 40
10.0
  1
又場
 41
0.84
  7
EXCADSTD
 72
     5
 11
149.132
 21
37.4
 31
0.0
100
AcDbText
  0
LINE
  5
8E
100
AcDbEntity
  8
LAY-1
  6
EXLTYPE1
 62
     6
100
AcDbLine
 10
40.0
 20
296.0
 30
0.0
 11
-25.6
 21
296.0
 31
0.0
  0
LINE
  5
8F
100
AcDbEntity
  8
LAY-1
  6
CONTINUOUS
 62
     7
100
AcDbLine
 10
40.0
 20
20.0
 30
0.0
 11
396.0
 21
20.0
 31
0.0
  0
LINE
  5
90
100
AcDbEntity
  8
LAY-1
  6
CONTINUOUS
 62
     7
100
AcDbLine
 10
396.0
 20
572.0
 30
0.0
 11
396.0
 21
20.0
 31
0.0
  0
LINE
  5
91
100
AcDbEntity
  8
LAY-1
  6
CONTINUOUS
 62
     7
100
AcDbLine
 10
396.0
 20
572.0
 30
0.0
 11
40.0
 21
572.0
 31
0.0
  0
LINE
  5
92
100
AcDbEntity
  8
LAY-1
  6
CONTINUOUS
 62
     7
100
AcDbLine
 10
40.0
 20
572.0
 30
0.0
 11
40.0
 21
20.0
 31
0.0
  0
LINE
  5
93
100
AcDbEntity
  8
LAY-1
  6
CONTINUOUS
 62
     7
100
AcDbLine
 10
396.0
 20
64.0
 30
0.0
 11
40.0
 21
64.0
 31
0.0
  0
TEXT
  5
94
100
AcDbEntity
  8
LAY-1
  6
CONTINUOUS
 62
     2
100
AcDbText
 10
45.0
 20
55.2
 30
0.0
 40
7.6
  1
設計
 41
1.105263
  7
EXCADSTD
 72
     5
 11
63.332
 21
55.2
 31
0.0
100
AcDbText
  0
TEXT
  5
95
100
AcDbEntity
  8
LAY-1
  6
CONTINUOUS
 62
     2
100
AcDbText
 10
75.0
 20
55.2
 30
0.0
 40
7.6
  1
製図
 41
1.105263
  7
EXCADSTD
 72
     5
 11
93.332
 21
55.2
 31
0.0
100
AcDbText
  0
TEXT
  5
96
100
AcDbEntity
  8
LAY-1
  6
CONTINUOUS
 62
     2
100
AcDbText
 10
103.0
 20
55.2
 30
0.0
 40
7.6
  1
検図
 41
1.105263
  7
EXCADSTD
 72
     5
 11
121.332
 21
55.2
 31
0.0
100
AcDbText
  0
TEXT
  5
97
100
AcDbEntity
  8
LAY-1
  6
CONTINUOUS
 62
     2
100
AcDbText
 10
129.0
 20
55.2
 30
0.0
 40
7.6
  1
承認
 41
1.105263
  7
EXCADSTD
 72
     5
 11
147.332
 21
55.2
 31
0.0
100
AcDbText
  0
TEXT
  5
98
100
AcDbEntity
  8
LAY-1
  6
CONTINUOUS
 62
     2
100
AcDbText
 10
157.0
 20
61.6
 30
0.0
 40
7.6
  1
品名
 41
1.052632
  7
EXCADVERT
 72
     3
 11
157.0
 21
42.4
 31
0.0
100
AcDbText
  0
TEXT
  5
99
100
AcDbEntity
  8
LAY-1
  6
CONTINUOUS
 62
     2
100
AcDbText
 10
386.358519
 20
41.74
 30
0.0
 40
8.0
  1
２
 41
0.84
  7
EXCADSTD
 72
     5
 11
392.758519
 21
41.74
 31
0.0
100
AcDbText
  0
TEXT
  5
9A
100
AcDbEntity
  8
LAY-1
  6
CONTINUOUS
 62
     2
100
AcDbText
 10
285.0
 20
38.6
 30
0.0
 40
7.6
  1
図番
 41
1.052632
  7
EXCADVERT
 72
     3
 11
285.0
 21
21.4
 31
0.0
100
AcDbText
  0
TEXT
  5
9B
100
AcDbEntity
  8
LAY-1
  6
CONTINUOUS
 62
     2
100
AcDbText
 10
369.0
 20
61.6
 30
0.0
 40
7.6
  1
尺度
 41
1.052632
  7
EXCADVERT
 72
     3
 11
369.0
 21
42.4
 31
0.0
100
AcDbText
  0
TEXT
  5
9C
100
AcDbEntity
  8
LAY-1
  6
CONTINUOUS
 62
     2
100
AcDbText
 10
285.0
 20
61.6
 30
0.0
 40
7.6
  1
品番
 41
1.052632
  7
EXCADVERT
 72
     3
 11
285.0
 21
42.4
 31
0.0
100
AcDbText
  0
TEXT
  5
9D
100
AcDbEntity
  8
LAY-1
  6
CONTINUOUS
 62
     2
100
AcDbText
 10
375.538519
 20
53.98
 30
0.0
 40
8.0
  1
１
 41
0.84
  7
EXCADSTD
 72
     5
 11
381.938519
 21
53.98
 31
0.0
100
AcDbText
  0
TEXT
  5
9E
100
AcDbEntity
  8
LAY-1
  6
CONTINUOUS
 62
     2
100
AcDbText
 10
174.0
 20
563.2
 30
0.0
 40
7.6
  1
番号
 41
0.994737
  7
EXCADSTD
 72
     5
 11
190.4988
 21
563.2
 31
0.0
100
AcDbText
  0
TEXT
  5
9F
100
AcDbEntity
  8
LAY-1
  6
CONTINUOUS
 62
     2
100
AcDbText
 10
206.0
 20
563.2
 30
0.0
 40
7.6
  1
品名
 41
1.989474
  7
EXCADSTD
 72
     5
 11
238.9976
 21
563.2
 31
0.0
100
AcDbText
  0
TEXT
  5
A0
100
AcDbEntity
  8
LAY-1
  6
CONTINUOUS
 62
     2
100
AcDbText
 10
266.0
 20
563.2
 30
0.0
 40
7.6
  1
材質
 41
1.989474
  7
EXCADSTD
 72
     5
 11
298.9976
 21
563.2
 31
0.0
100
AcDbText
  0
TEXT
  5
A1
100
AcDbEntity
  8
LAY-1
  6
CONTINUOUS
 62
     2
100
AcDbText
 10
316.0
 20
563.2
 30
0.0
 40
7.6
  1
個数
 41
0.994737
  7
EXCADSTD
 72
     5
 11
332.4988
 21
563.2
 31
0.0
100
AcDbText
  0
TEXT
  5
A2
100
AcDbEntity
  8
LAY-1
  6
CONTINUOUS
 62
     2
100
AcDbText
 10
348.0
 20
563.2
 30
0.0
 40
7.6
  1
備考
 41
1.989474
  7
EXCADSTD
 72
     5
 11
380.9976
 21
563.2
 31
0.0
100
AcDbText
  0
TEXT
  5
A3
100
AcDbEntity
  8
LAY-1
  6
CONTINUOUS
 62
     2
100
AcDbText
 10
179.0
 20
553.2
 30
0.0
 40
7.6
  1
１
 41
0.884211
  7
EXCADSTD
 72
     5
 11
185.4
 21
553.2
 31
0.0
100
AcDbText
  0
TEXT
  5
A4
100
AcDbEntity
  8
LAY-1
  6
CONTINUOUS
 62
     2
100
AcDbText
 10
196.8
 20
553.2
 30
0.0
 40
7.6
  1
ブラケット
 41
0.884211
  7
EXCADSTD
 72
     5
 11
236.8
 21
553.2
 31
0.0
100
AcDbText
  0
TEXT
  5
A5
100
AcDbEntity
  8
LAY-1
  6
CONTINUOUS
 62
     2
100
AcDbText
 10
256.8
 20
553.2
 30
0.0
 40
7.6
  1
合成樹脂
 41
0.884211
  7
EXCADSTD
 72
     5
 11
288.8
 21
553.2
 31
0.0
100
AcDbText
  0
TEXT
  5
A6
100
AcDbEntity
  8
LAY-1
  6
CONTINUOUS
 62
     2
100
AcDbText
 10
321.0
 20
553.2
 30
0.0
 40
7.6
  1
２
 41
0.884211
  7
EXCADSTD
 72
     5
 11
327.4
 21
553.2
 31
0.0
100
AcDbText
  0
TEXT
  5
A7
100
AcDbEntity
  8
LAY-1
  6
CONTINUOUS
 62
     2
100
AcDbText
 10
179.0
 20
543.2
 30
0.0
 40
7.6
  1
２
 41
0.884211
  7
EXCADSTD
 72
     5
 11
185.4
 21
543.2
 31
0.0
100
AcDbText
  0
TEXT
  5
A8
100
AcDbEntity
  8
LAY-1
  6
CONTINUOUS
 62
     2
100
AcDbText
 10
179.0
 20
533.2
 30
0.0
 40
7.6
  1
３
 41
0.884211
  7
EXCADSTD
 72
     5
 11
185.4
 21
533.2
 31
0.0
100
AcDbText
  0
TEXT
  5
A9
100
AcDbEntity
  8
LAY-1
  6
CONTINUOUS
 62
     2
100
AcDbText
 10
196.8
 20
543.2
 30
0.0
 40
7.6
  1
パイプ
 41
0.884211
  7
EXCADSTD
 72
     5
 11
220.8
 21
543.2
 31
0.0
100
AcDbText
  0
TEXT
  5
AA
100
AcDbEntity
  8
LAY-1
  6
CONTINUOUS
 62
     2
100
AcDbText
 10
256.8
 20
543.2
 30
0.0
 40
7.6
  1
ステンレス
 41
0.884211
  7
EXCADSTD
 72
     5
 11
296.8
 21
543.2
 31
0.0
100
AcDbText
  0
TEXT
  5
AB
100
AcDbEntity
  8
LAY-1
  6
CONTINUOUS
 62
     2
100
AcDbText
 10
321.0
 20
543.2
 30
0.0
 40
7.6
  1
１
 41
0.884211
  7
EXCADSTD
 72
     5
 11
327.4
 21
543.2
 31
0.0
100
AcDbText
  0
TEXT
  5
AC
100
AcDbEntity
  8
LAY-1
  6
CONTINUOUS
 62
     2
100
AcDbText
 10
196.8
 20
533.2
 30
0.0
 40
7.6
  1
タッピンネジ
 41
0.884211
  7
EXCADSTD
 72
     5
 11
244.8
 21
533.2
 31
0.0
100
AcDbText
  0
TEXT
  5
AD
100
AcDbEntity
  8
LAY-1
  6
CONTINUOUS
 62
     2
100
AcDbText
 10
256.8
 20
533.2
 30
0.0
 40
7.6
  1
ステンレス
 41
0.884211
  7
EXCADSTD
 72
     5
 11
296.8
 21
533.2
 31
0.0
100
AcDbText
  0
TEXT
  5
AE
100
AcDbEntity
  8
LAY-1
  6
CONTINUOUS
 62
     2
100
AcDbText
 10
321.0
 20
533.2
 30
0.0
 40
7.6
  1
４
 41
0.884211
  7
EXCADSTD
 72
     5
 11
327.4
 21
533.2
 31
0.0
100
AcDbText
  0
TEXT
  5
AF
100
AcDbEntity
  8
LAY-1
  6
CONTINUOUS
 62
     2
100
AcDbText
 10
338.8
 20
553.2
 30
0.0
 40
7.6
  1
オフホワイト
 41
0.736842
  7
EXCADSTD
 72
     5
 11
378.8
 21
553.2
 31
0.0
100
AcDbText
  0
TEXT
  5
B0
100
AcDbEntity
  8
LAY-1
  6
CONTINUOUS
 62
     2
100
AcDbText
 10
338.8
 20
533.2
 30
0.0
 40
7.6
  1
十字穴付ナベ１種
 41
0.729474
  7
EXCADSTD
 72
     5
 11
391.6
 21
533.2
 31
0.0
100
AcDbText
  0
LINE
  5
B1
100
AcDbEntity
  8
LAY-1
  6
CONTINUOUS
 62
     6
100
AcDbLine
 10
152.0
 20
54.0
 30
0.0
 11
40.0
 21
54.0
 31
0.0
  0
LINE
  5
B2
100
AcDbEntity
  8
LAY-1
  6
CONTINUOUS
 62
     6
100
AcDbLine
 10
70.0
 20
20.0
 30
0.0
 11
70.0
 21
64.0
 31
0.0
  0
LINE
  5
B3
100
AcDbEntity
  8
LAY-1
  6
CONTINUOUS
 62
     6
100
AcDbLine
 10
100.0
 20
20.0
 30
0.0
 11
100.0
 21
64.0
 31
0.0
  0
LINE
  5
B4
100
AcDbEntity
  8
LAY-1
  6
CONTINUOUS
 62
     6
100
AcDbLine
 10
126.0
 20
20.0
 30
0.0
 11
126.0
 21
64.0
 31
0.0
  0
LINE
  5
B5
100
AcDbEntity
  8
LAY-1
  6
CONTINUOUS
 62
     6
100
AcDbLine
 10
152.0
 20
20.0
 30
0.0
 11
152.0
 21
64.0
 31
0.0
  0
LINE
  5
B6
100
AcDbEntity
  8
LAY-1
  6
CONTINUOUS
 62
     6
100
AcDbLine
 10
152.0
 20
40.0
 30
0.0
 11
396.0
 21
40.0
 31
0.0
  0
LINE
  5
B7
100
AcDbEntity
  8
LAY-1
  6
CONTINUOUS
 62
     6
100
AcDbLine
 10
364.0
 20
40.0
 30
0.0
 11
364.0
 21
64.0
 31
0.0
  0
LINE
  5
B8
100
AcDbEntity
  8
LAY-1
  6
CONTINUOUS
 62
     6
100
AcDbLine
 10
162.0
 20
40.0
 30
0.0
 11
162.0
 21
64.0
 31
0.0
  0
LINE
  5
B9
100
AcDbEntity
  8
LAY-1
  6
CONTINUOUS
 62
     6
100
AcDbLine
 10
393.8
 20
59.625
 30
0.0
 11
376.2
 21
44.775
 31
0.0
  0
LINE
  5
BA
100
AcDbEntity
  8
LAY-1
  6
CONTINUOUS
 62
     6
100
AcDbLine
 10
280.0
 20
64.0
 30
0.0
 11
280.0
 21
20.0
 31
0.0
  0
LINE
  5
BB
100
AcDbEntity
  8
LAY-1
  6
CONTINUOUS
 62
     6
100
AcDbLine
 10
290.0
 20
20.0
 30
0.0
 11
290.0
 21
64.0
 31
0.0
  0
LINE
  5
BC
100
AcDbEntity
  8
LAY-1
  6
CONTINUOUS
 62
     6
100
AcDbLine
 10
374.0
 20
64.0
 30
0.0
 11
374.0
 21
40.0
 31
0.0
  0
LINE
  5
BD
100
AcDbEntity
  8
LAY-1
  6
CONTINUOUS
 62
     6
100
AcDbLine
 10
336.0
 20
572.0
 30
0.0
 11
336.0
 21
532.0
 31
0.0
  0
LINE
  5
BE
100
AcDbEntity
  8
LAY-1
  6
CONTINUOUS
 62
     6
100
AcDbLine
 10
314.0
 20
572.0
 30
0.0
 11
314.0
 21
532.0
 31
0.0
  0
LINE
  5
BF
100
AcDbEntity
  8
LAY-1
  6
CONTINUOUS
 62
     6
100
AcDbLine
 10
254.0
 20
572.0
 30
0.0
 11
254.0
 21
532.0
 31
0.0
  0
LINE
  5
C0
100
AcDbEntity
  8
LAY-1
  6
CONTINUOUS
 62
     6
100
AcDbLine
 10
194.0
 20
572.0
 30
0.0
 11
194.0
 21
532.0
 31
0.0
  0
LINE
  5
C1
100
AcDbEntity
  8
LAY-1
  6
CONTINUOUS
 62
     6
100
AcDbLine
 10
172.0
 20
572.0
 30
0.0
 11
172.0
 21
532.0
 31
0.0
  0
LINE
  5
C2
100
AcDbEntity
  8
LAY-1
  6
CONTINUOUS
 62
     6
100
AcDbLine
 10
172.0
 20
562.0
 30
0.0
 11
396.0
 21
562.0
 31
0.0
  0
LINE
  5
C3
100
AcDbEntity
  8
LAY-1
  6
CONTINUOUS
 62
     6
100
AcDbLine
 10
172.0
 20
552.0
 30
0.0
 11
396.0
 21
552.0
 31
0.0
  0
LINE
  5
C4
100
AcDbEntity
  8
LAY-1
  6
CONTINUOUS
 62
     6
100
AcDbLine
 10
172.0
 20
542.0
 30
0.0
 11
396.0
 21
542.0
 31
0.0
  0
LINE
  5
C5
100
AcDbEntity
  8
LAY-1
  6
CONTINUOUS
 62
     6
100
AcDbLine
 10
172.0
 20
532.0
 30
0.0
 11
396.0
 21
532.0
 31
0.0
  0
LINE
  5
C6
100
AcDbEntity
  8
LAY-1
  6
CONTINUOUS
 62
     2
100
AcDbLine
 10
156.236
 20
33.156
 30
0.0
 11
156.236
 21
34.24
 31
0.0
  0
LINE
  5
C7
100
AcDbEntity
  8
LAY-1
  6
CONTINUOUS
 62
     2
100
AcDbLine
 10
156.236
 20
34.24
 30
0.0
 11
161.416
 21
34.24
 31
0.0
  0
LINE
  5
C8
100
AcDbEntity
  8
LAY-1
  6
CONTINUOUS
 62
     2
100
AcDbLine
 10
161.416
 20
34.24
 30
0.0
 11
161.416
 21
33.156
 31
0.0
  0
LINE
  5
C9
100
AcDbEntity
  8
LAY-1
  6
CONTINUOUS
 62
     2
100
AcDbLine
 10
161.416
 20
33.156
 30
0.0
 11
156.236
 21
33.156
 31
0.0
  0
LINE
  5
CA
100
AcDbEntity
  8
LAY-1
  6
CONTINUOUS
 62
     2
100
AcDbLine
 10
156.536
 20
33.456
 30
0.0
 11
156.536
 21
33.94
 31
0.0
  0
LINE
  5
CB
100
AcDbEntity
  8
LAY-1
  6
CONTINUOUS
 62
     2
100
AcDbLine
 10
156.536
 20
33.94
 30
0.0
 11
161.116
 21
33.94
 31
0.0
  0
LINE
  5
CC
100
AcDbEntity
  8
LAY-1
  6
CONTINUOUS
 62
     2
100
AcDbLine
 10
161.116
 20
33.94
 30
0.0
 11
161.116
 21
33.456
 31
0.0
  0
LINE
  5
CD
100
AcDbEntity
  8
LAY-1
  6
CONTINUOUS
 62
     2
100
AcDbLine
 10
161.116
 20
33.456
 30
0.0
 11
156.536
 21
33.456
 31
0.0
  0
LINE
  5
CE
100
AcDbEntity
  8
LAY-1
  6
CONTINUOUS
 62
     2
100
AcDbLine
 10
156.236
 20
30.504
 30
0.0
 11
156.236
 21
31.588
 31
0.0
  0
LINE
  5
CF
100
AcDbEntity
  8
LAY-1
  6
CONTINUOUS
 62
     2
100
AcDbLine
 10
156.236
 20
31.588
 30
0.0
 11
161.416
 21
31.588
 31
0.0
  0
LINE
  5
D0
100
AcDbEntity
  8
LAY-1
  6
CONTINUOUS
 62
     2
100
AcDbLine
 10
161.416
 20
31.588
 30
0.0
 11
161.416
 21
30.504
 31
0.0
  0
LINE
  5
D1
100
AcDbEntity
  8
LAY-1
  6
CONTINUOUS
 62
     2
100
AcDbLine
 10
161.416
 20
30.504
 30
0.0
 11
156.236
 21
30.504
 31
0.0
  0
LINE
  5
D2
100
AcDbEntity
  8
LAY-1
  6
CONTINUOUS
 62
     2
100
AcDbLine
 10
156.536
 20
30.804
 30
0.0
 11
156.536
 21
31.288
 31
0.0
  0
LINE
  5
D3
100
AcDbEntity
  8
LAY-1
  6
CONTINUOUS
 62
     2
100
AcDbLine
 10
156.536
 20
31.288
 30
0.0
 11
161.116
 21
31.288
 31
0.0
  0
LINE
  5
D4
100
AcDbEntity
  8
LAY-1
  6
CONTINUOUS
 62
     2
100
AcDbLine
 10
161.116
 20
31.288
 30
0.0
 11
161.116
 21
30.804
 31
0.0
  0
LINE
  5
D5
100
AcDbEntity
  8
LAY-1
  6
CONTINUOUS
 62
     2
100
AcDbLine
 10
161.116
 20
30.804
 30
0.0
 11
156.536
 21
30.804
 31
0.0
  0
LINE
  5
D6
100
AcDbEntity
  8
LAY-1
  6
CONTINUOUS
 62
     2
100
AcDbLine
 10
163.876
 20
33.156
 30
0.0
 11
163.876
 21
34.24
 31
0.0
  0
LINE
  5
D7
100
AcDbEntity
  8
LAY-1
  6
CONTINUOUS
 62
     2
100
AcDbLine
 10
163.876
 20
34.24
 30
0.0
 11
164.928
 21
34.24
 31
0.0
  0
LINE
  5
D8
100
AcDbEntity
  8
LAY-1
  6
CONTINUOUS
 62
     2
100
AcDbLine
 10
164.928
 20
34.24
 30
0.0
 11
164.928
 21
33.156
 31
0.0
  0
LINE
  5
D9
100
AcDbEntity
  8
LAY-1
  6
CONTINUOUS
 62
     2
100
AcDbLine
 10
164.928
 20
33.156
 30
0.0
 11
163.876
 21
33.156
 31
0.0
  0
LINE
  5
DA
100
AcDbEntity
  8
LAY-1
  6
CONTINUOUS
 62
     2
100
AcDbLine
 10
164.176
 20
33.456
 30
0.0
 11
164.176
 21
33.94
 31
0.0
  0
LINE
  5
DB
100
AcDbEntity
  8
LAY-1
  6
CONTINUOUS
 62
     2
100
AcDbLine
 10
164.176
 20
33.94
 30
0.0
 11
164.628
 21
33.94
 31
0.0
  0
LINE
  5
DC
100
AcDbEntity
  8
LAY-1
  6
CONTINUOUS
 62
     2
100
AcDbLine
 10
164.628
 20
33.94
 30
0.0
 11
164.628
 21
33.456
 31
0.0
  0
LINE
  5
DD
100
AcDbEntity
  8
LAY-1
  6
CONTINUOUS
 62
     2
100
AcDbLine
 10
164.628
 20
33.456
 30
0.0
 11
164.176
 21
33.456
 31
0.0
  0
LINE
  5
DE
100
AcDbEntity
  8
LAY-1
  6
CONTINUOUS
 62
     2
100
AcDbLine
 10
166.144
 20
33.156
 30
0.0
 11
166.144
 21
34.24
 31
0.0
  0
LINE
  5
DF
100
AcDbEntity
  8
LAY-1
  6
CONTINUOUS
 62
     2
100
AcDbLine
 10
166.144
 20
34.24
 30
0.0
 11
167.196
 21
34.24
 31
0.0
  0
LINE
  5
E0
100
AcDbEntity
  8
LAY-1
  6
CONTINUOUS
 62
     2
100
AcDbLine
 10
167.196
 20
34.24
 30
0.0
 11
167.196
 21
33.156
 31
0.0
  0
LINE
  5
E1
100
AcDbEntity
  8
LAY-1
  6
CONTINUOUS
 62
     2
100
AcDbLine
 10
167.196
 20
33.156
 30
0.0
 11
166.144
 21
33.156
 31
0.0
  0
LINE
  5
E2
100
AcDbEntity
  8
LAY-1
  6
CONTINUOUS
 62
     2
100
AcDbLine
 10
166.444
 20
33.456
 30
0.0
 11
166.444
 21
33.94
 31
0.0
  0
LINE
  5
E3
100
AcDbEntity
  8
LAY-1
  6
CONTINUOUS
 62
     2
100
AcDbLine
 10
166.444
 20
33.94
 30
0.0
 11
166.896
 21
33.94
 31
0.0
  0
LINE
  5
E4
100
AcDbEntity
  8
LAY-1
  6
CONTINUOUS
 62
     2
100
AcDbLine
 10
166.896
 20
33.94
 30
0.0
 11
166.896
 21
33.456
 31
0.0
  0
LINE
  5
E5
100
AcDbEntity
  8
LAY-1
  6
CONTINUOUS
 62
     2
100
AcDbLine
 10
166.896
 20
33.456
 30
0.0
 11
166.444
 21
33.456
 31
0.0
  0
LINE
  5
E6
100
AcDbEntity
  8
LAY-1
  6
CONTINUOUS
 62
     2
100
AcDbLine
 10
156.236
 20
27.224
 30
0.0
 11
161.619962
 21
27.224
 31
0.0
  0
ARC
  5
E7
100
AcDbEntity
  8
LAY-1
  6
CONTINUOUS
 62
     2
100
AcDbCircle
 10
161.619962
 20
29.176
 30
0.0
 40
1.952
100
AcDbArc
 50
270.0
 51
334.0
  0
LINE
  5
E8
100
AcDbEntity
  8
LAY-1
  6
CONTINUOUS
 62
     2
100
AcDbLine
 10
163.374407
 20
28.3203
 30
0.0
 11
165.155461
 21
31.972
 31
0.0
  0
LINE
  5
E9
100
AcDbEntity
  8
LAY-1
  6
CONTINUOUS
 62
     2
100
AcDbLine
 10
165.155461
 20
31.972
 30
0.0
 11
167.0159
 21
31.972
 31
0.0
  0
LINE
  5
EA
100
AcDbEntity
  8
LAY-1
  6
CONTINUOUS
 62
     2
100
AcDbLine
 10
167.0159
 20
31.972
 30
0.0
 11
164.921832
 21
27.678524
 31
0.0
  0
ARC
  5
EB
100
AcDbEntity
  8
LAY-1
  6
CONTINUOUS
 62
     2
100
AcDbCircle
 10
161.851551
 20
29.176
 30
0.0
 40
3.416
100
AcDbArc
 50
270.0
 51
334.0
  0
LINE
  5
EC
100
AcDbEntity
  8
LAY-1
  6
CONTINUOUS
 62
     2
100
AcDbLine
 10
161.851551
 20
25.76
 30
0.0
 11
156.236
 21
25.76
 31
0.0
  0
LINE
  5
ED
100
AcDbEntity
  8
LAY-1
  6
CONTINUOUS
 62
     2
100
AcDbLine
 10
156.236
 20
25.76
 30
0.0
 11
156.236
 21
27.224
 31
0.0
  0
LINE
  5
EE
100
AcDbEntity
  8
LAY-1
  6
CONTINUOUS
 62
     2
100
AcDbLine
 10
156.536
 20
26.06
 30
0.0
 11
156.536
 21
26.924
 31
0.0
  0
LINE
  5
EF
100
AcDbEntity
  8
LAY-1
  6
CONTINUOUS
 62
     2
100
AcDbLine
 10
156.536
 20
26.924
 30
0.0
 11
161.619962
 21
26.924
 31
0.0
  0
ARC
  5
F0
100
AcDbEntity
  8
LAY-1
  6
CONTINUOUS
 62
     2
100
AcDbCircle
 10
161.619962
 20
29.176
 30
0.0
 40
2.252
100
AcDbArc
 50
270.0
 51
334.0
  0
LINE
  5
F1
100
AcDbEntity
  8
LAY-1
  6
CONTINUOUS
 62
     2
100
AcDbLine
 10
163.644046
 20
28.188788
 30
0.0
 11
165.342922
 21
31.672
 31
0.0
  0
LINE
  5
F2
100
AcDbEntity
  8
LAY-1
  6
CONTINUOUS
 62
     2
100
AcDbLine
 10
165.342922
 20
31.672
 30
0.0
 11
166.535799
 21
31.672
 31
0.0
  0
LINE
  5
F3
100
AcDbEntity
  8
LAY-1
  6
CONTINUOUS
 62
     2
100
AcDbLine
 10
166.535799
 20
31.672
 30
0.0
 11
164.652193
 21
27.810036
 31
0.0
  0
ARC
  5
F4
100
AcDbEntity
  8
LAY-1
  6
CONTINUOUS
 62
     2
100
AcDbCircle
 10
161.851551
 20
29.176
 30
0.0
 40
3.116
100
AcDbArc
 50
270.0
 51
334.0
  0
LINE
  5
F5
100
AcDbEntity
  8
LAY-1
  6
CONTINUOUS
 62
     2
100
AcDbLine
 10
161.851551
 20
26.06
 30
0.0
 11
156.536
 21
26.06
 31
0.0
  0
LINE
  5
F6
100
AcDbEntity
  8
LAY-1
  6
CONTINUOUS
 62
     2
100
AcDbLine
 10
156.836
 20
26.624
 30
0.0
 11
161.619962
 21
26.624
 31
0.0
  0
ARC
  5
F7
100
AcDbEntity
  8
LAY-1
  6
CONTINUOUS
 62
     2
100
AcDbCircle
 10
161.619962
 20
29.176
 30
0.0
 40
2.552
100
AcDbArc
 50
270.0
 51
334.0
  0
LINE
  5
F8
100
AcDbEntity
  8
LAY-1
  6
CONTINUOUS
 62
     2
100
AcDbLine
 10
163.913684
 20
28.057277
 30
0.0
 11
165.530382
 21
31.372
 31
0.0
  0
LINE
  5
F9
100
AcDbEntity
  8
LAY-1
  6
CONTINUOUS
 62
     2
100
AcDbLine
 10
165.530382
 20
31.372
 30
0.0
 11
166.055699
 21
31.372
 31
0.0
  0
LINE
  5
FA
100
AcDbEntity
  8
LAY-1
  6
CONTINUOUS
 62
     2
100
AcDbLine
 10
166.055699
 20
31.372
 30
0.0
 11
164.382555
 21
27.941547
 31
0.0
  0
ARC
  5
FB
100
AcDbEntity
  8
LAY-1
  6
CONTINUOUS
 62
     2
100
AcDbCircle
 10
161.851551
 20
29.176
 30
0.0
 40
2.816
100
AcDbArc
 50
270.0
 51
334.0
  0
LINE
  5
FC
100
AcDbEntity
  8
LAY-1
  6
CONTINUOUS
 62
     2
100
AcDbLine
 10
161.851551
 20
26.36
 30
0.0
 11
156.836
 21
26.36
 31
0.0
  0
LINE
  5
FD
100
AcDbEntity
  8
LAY-1
  6
CONTINUOUS
 62
     2
100
AcDbLine
 10
156.836
 20
26.36
 30
0.0
 11
156.836
 21
26.624
 31
0.0
  0
LINE
  5
FE
100
AcDbEntity
  8
LAY-1
  6
CONTINUOUS
 62
     2
100
AcDbLine
 10
170.343962
 20
31.972
 30
0.0
 11
170.115255
 21
33.416
 31
0.0
  0
LINE
  5
FF
100
AcDbEntity
  8
LAY-1
  6
CONTINUOUS
 62
     2
100
AcDbLine
 10
170.115255
 20
33.416
 30
0.0
 11
171.807776
 21
33.416
 31
0.0
  0
LINE
  5
100
100
AcDbEntity
  8
LAY-1
  6
CONTINUOUS
 62
     2
100
AcDbLine
 10
171.807776
 20
33.416
 30
0.0
 11
172.036483
 21
31.972
 31
0.0
  0
LINE
  5
101
100
AcDbEntity
  8
LAY-1
  6
CONTINUOUS
 62
     2
100
AcDbLine
 10
172.036483
 20
31.972
 30
0.0
 11
177.558041
 21
31.972
 31
0.0
  0
LINE
  5
102
100
AcDbEntity
  8
LAY-1
  6
CONTINUOUS
 62
     2
100
AcDbLine
 10
177.558041
 20
31.972
 30
0.0
 11
176.547712
 21
29.702764
 31
0.0
  0
ARC
  5
103
100
AcDbEntity
  8
LAY-1
  6
CONTINUOUS
 62
     2
100
AcDbCircle
 10
173.993439
 20
30.84
 30
0.0
 40
2.796
100
AcDbArc
 50
270.0
 51
336.0
  0
LINE
  5
104
100
AcDbEntity
  8
LAY-1
  6
CONTINUOUS
 62
     2
100
AcDbLine
 10
173.993439
 20
28.044
 30
0.0
 11
173.893824
 21
28.044
 31
0.0
  0
LINE
  5
105
100
AcDbEntity
  8
LAY-1
  6
CONTINUOUS
 62
     2
100
AcDbLine
 10
173.893824
 20
28.044
 30
0.0
 11
173.746581
 21
28.973658
 31
0.0
  0
ARC
  5
106
100
AcDbEntity
  8
LAY-1
  6
CONTINUOUS
 62
     2
100
AcDbCircle
 10
173.374369
 20
30.468
 30
0.0
 40
1.54
100
AcDbArc
 50
283.986683
 51
336.0
  0
LINE
  5
107
100
AcDbEntity
  8
LAY-1
  6
CONTINUOUS
 62
     2
100
AcDbLine
 10
174.781229
 20
29.841626
 30
0.0
 11
175.353959
 21
31.128
 31
0.0
  0
LINE
  5
108
100
AcDbEntity
  8
LAY-1
  6
CONTINUOUS
 62
     2
100
AcDbLine
 10
175.353959
 20
31.128
 30
0.0
 11
172.170159
 21
31.128
 31
0.0
  0
LINE
  5
109
100
AcDbEntity
  8
LAY-1
  6
CONTINUOUS
 62
     2
100
AcDbLine
 10
172.170159
 20
31.128
 30
0.0
 11
173.020367
 21
25.76
 31
0.0
  0
LINE
  5
10A
100
AcDbEntity
  8
LAY-1
  6
CONTINUOUS
 62
     2
100
AcDbLine
 10
173.020367
 20
25.76
 30
0.0
 11
171.327846
 21
25.76
 31
0.0
  0
LINE
  5
10B
100
AcDbEntity
  8
LAY-1
  6
CONTINUOUS
 62
     2
100
AcDbLine
 10
171.327846
 20
25.76
 30
0.0
 11
170.477638
 21
31.128
 31
0.0
  0
LINE
  5
10C
100
AcDbEntity
  8
LAY-1
  6
CONTINUOUS
 62
     2
100
AcDbLine
 10
170.477638
 20
31.128
 30
0.0
 11
168.412
 21
31.128
 31
0.0
  0
LINE
  5
10D
100
AcDbEntity
  8
LAY-1
  6
CONTINUOUS
 62
     2
100
AcDbLine
 10
168.412
 20
31.128
 30
0.0
 11
168.412
 21
31.972
 31
0.0
  0
LINE
  5
10E
100
AcDbEntity
  8
LAY-1
  6
CONTINUOUS
 62
     2
100
AcDbLine
 10
168.412
 20
31.972
 30
0.0
 11
170.343962
 21
31.972
 31
0.0
  0
LINE
  5
10F
100
AcDbEntity
  8
LAY-1
  6
CONTINUOUS
 62
     2
100
AcDbLine
 10
170.695217
 20
31.672
 30
0.0
 11
170.46651
 21
33.116
 31
0.0
  0
LINE
  5
110
100
AcDbEntity
  8
LAY-1
  6
CONTINUOUS
 62
     2
100
AcDbLine
 10
170.46651
 20
33.116
 30
0.0
 11
171.551552
 21
33.116
 31
0.0
  0
LINE
  5
111
100
AcDbEntity
  8
LAY-1
  6
CONTINUOUS
 62
     2
100
AcDbLine
 10
171.551552
 20
33.116
 30
0.0
 11
171.780259
 21
31.672
 31
0.0
  0
LINE
  5
112
100
AcDbEntity
  8
LAY-1
  6
CONTINUOUS
 62
     2
100
AcDbLine
 10
171.780259
 20
31.672
 30
0.0
 11
177.096081
 21
31.672
 31
0.0
  0
LINE
  5
113
100
AcDbEntity
  8
LAY-1
  6
CONTINUOUS
 62
     2
100
AcDbLine
 10
177.096081
 20
31.672
 30
0.0
 11
176.273648
 21
29.824785
 31
0.0
  0
ARC
  5
114
100
AcDbEntity
  8
LAY-1
  6
CONTINUOUS
 62
     2
100
AcDbCircle
 10
173.993439
 20
30.84
 30
0.0
 40
2.496
100
AcDbArc
 50
270.0
 51
336.0
  0
LINE
  5
115
100
AcDbEntity
  8
LAY-1
  6
CONTINUOUS
 62
     2
100
AcDbLine
 10
173.993439
 20
28.344
 30
0.0
 11
174.150049
 21
28.344
 31
0.0
  0
LINE
  5
116
100
AcDbEntity
  8
LAY-1
  6
CONTINUOUS
 62
     2
100
AcDbLine
 10
174.150049
 20
28.344
 30
0.0
 11
174.082614
 21
28.769769
 31
0.0
  0
ARC
  5
117
100
AcDbEntity
  8
LAY-1
  6
CONTINUOUS
 62
     2
100
AcDbCircle
 10
173.374369
 20
30.468
 30
0.0
 40
1.84
100
AcDbArc
 50
292.638505
 51
336.0
  0
LINE
  5
118
100
AcDbEntity
  8
LAY-1
  6
CONTINUOUS
 62
     2
100
AcDbLine
 10
175.055292
 20
29.719605
 30
0.0
 11
175.815919
 21
31.428
 31
0.0
  0
LINE
  5
119
100
AcDbEntity
  8
LAY-1
  6
CONTINUOUS
 62
     2
100
AcDbLine
 10
175.815919
 20
31.428
 30
0.0
 11
171.818905
 21
31.428
 31
0.0
  0
LINE
  5
11A
100
AcDbEntity
  8
LAY-1
  6
CONTINUOUS
 62
     2
100
AcDbLine
 10
171.818905
 20
31.428
 30
0.0
 11
172.669112
 21
26.06
 31
0.0
  0
LINE
  5
11B
100
AcDbEntity
  8
LAY-1
  6
CONTINUOUS
 62
     2
100
AcDbLine
 10
172.669112
 20
26.06
 30
0.0
 11
171.58407
 21
26.06
 31
0.0
  0
LINE
  5
11C
100
AcDbEntity
  8
LAY-1
  6
CONTINUOUS
 62
     2
100
AcDbLine
 10
171.58407
 20
26.06
 30
0.0
 11
170.733863
 21
31.428
 31
0.0
  0
LINE
  5
11D
100
AcDbEntity
  8
LAY-1
  6
CONTINUOUS
 62
     2
100
AcDbLine
 10
170.733863
 20
31.428
 30
0.0
 11
168.712
 21
31.428
 31
0.0
  0
LINE
  5
11E
100
AcDbEntity
  8
LAY-1
  6
CONTINUOUS
 62
     2
100
AcDbLine
 10
168.712
 20
31.428
 30
0.0
 11
168.712
 21
31.672
 31
0.0
  0
LINE
  5
11F
100
AcDbEntity
  8
LAY-1
  6
CONTINUOUS
 62
     2
100
AcDbLine
 10
168.712
 20
31.672
 30
0.0
 11
170.695217
 21
31.672
 31
0.0
  0
LINE
  5
120
100
AcDbEntity
  8
LAY-1
  6
CONTINUOUS
 62
     2
100
AcDbLine
 10
171.26
 20
32.74
 30
0.0
 11
172.26
 21
26.36
 31
0.0
  0
LINE
  5
121
100
AcDbEntity
  8
LAY-1
  6
CONTINUOUS
 62
     2
100
AcDbLine
 10
170.88
 20
32.82
 30
0.0
 11
171.9
 21
26.34
 31
0.0
  0
LINE
  5
122
100
AcDbEntity
  8
LAY-1
  6
CONTINUOUS
 62
     2
100
AcDbLine
 10
176.1
 20
31.36
 30
0.0
 11
175.12
 21
29.1
 31
0.0
  0
LINE
  5
123
100
AcDbEntity
  8
LAY-1
  6
CONTINUOUS
 62
     2
100
AcDbLine
 10
176.6
 20
31.4
 30
0.0
 11
175.56
 21
29.18
 31
0.0
  0
LINE
  5
124
100
AcDbEntity
  8
LAY-1
  6
CONTINUOUS
 62
     2
100
AcDbLine
 10
175.28
 20
29.02
 30
0.0
 11
174.38
 21
28.64
 31
0.0
  0
LINE
  5
125
100
AcDbEntity
  8
LAY-1
  6
CONTINUOUS
 62
     2
100
AcDbLine
 10
178.842
 20
34.24
 30
0.0
 11
188.15
 21
34.24
 31
0.0
  0
LINE
  5
126
100
AcDbEntity
  8
LAY-1
  6
CONTINUOUS
 62
     2
100
AcDbLine
 10
188.15
 20
34.24
 30
0.0
 11
188.15
 21
32.776
 31
0.0
  0
LINE
  5
127
100
AcDbEntity
  8
LAY-1
  6
CONTINUOUS
 62
     2
100
AcDbLine
 10
188.15
 20
32.776
 30
0.0
 11
178.842
 21
32.776
 31
0.0
  0
LINE
  5
128
100
AcDbEntity
  8
LAY-1
  6
CONTINUOUS
 62
     2
100
AcDbLine
 10
178.842
 20
32.776
 30
0.0
 11
178.842
 21
34.24
 31
0.0
  0
LINE
  5
129
100
AcDbEntity
  8
LAY-1
  6
CONTINUOUS
 62
     2
100
AcDbLine
 10
179.142
 20
33.94
 30
0.0
 11
187.85
 21
33.94
 31
0.0
  0
LINE
  5
12A
100
AcDbEntity
  8
LAY-1
  6
CONTINUOUS
 62
     2
100
AcDbLine
 10
187.85
 20
33.94
 30
0.0
 11
187.85
 21
33.076
 31
0.0
  0
LINE
  5
12B
100
AcDbEntity
  8
LAY-1
  6
CONTINUOUS
 62
     2
100
AcDbLine
 10
187.85
 20
33.076
 30
0.0
 11
179.142
 21
33.076
 31
0.0
  0
LINE
  5
12C
100
AcDbEntity
  8
LAY-1
  6
CONTINUOUS
 62
     2
100
AcDbLine
 10
179.142
 20
33.076
 30
0.0
 11
179.142
 21
33.94
 31
0.0
  0
LINE
  5
12D
100
AcDbEntity
  8
LAY-1
  6
CONTINUOUS
 62
     2
100
AcDbLine
 10
179.46
 20
33.48
 30
0.0
 11
187.64
 21
33.48
 31
0.0
  0
LINE
  5
12E
100
AcDbEntity
  8
LAY-1
  6
CONTINUOUS
 62
     2
100
AcDbLine
 10
178.116
 20
27.224
 30
0.0
 11
188.876
 21
27.224
 31
0.0
  0
LINE
  5
12F
100
AcDbEntity
  8
LAY-1
  6
CONTINUOUS
 62
     2
100
AcDbLine
 10
188.876
 20
27.224
 30
0.0
 11
188.876
 21
25.76
 31
0.0
  0
LINE
  5
130
100
AcDbEntity
  8
LAY-1
  6
CONTINUOUS
 62
     2
100
AcDbLine
 10
188.876
 20
25.76
 30
0.0
 11
178.116
 21
25.76
 31
0.0
  0
LINE
  5
131
100
AcDbEntity
  8
LAY-1
  6
CONTINUOUS
 62
     2
100
AcDbLine
 10
178.116
 20
25.76
 30
0.0
 11
178.116
 21
27.224
 31
0.0
  0
LINE
  5
132
100
AcDbEntity
  8
LAY-1
  6
CONTINUOUS
 62
     2
100
AcDbLine
 10
178.416
 20
26.924
 30
0.0
 11
188.576
 21
26.924
 31
0.0
  0
LINE
  5
133
100
AcDbEntity
  8
LAY-1
  6
CONTINUOUS
 62
     2
100
AcDbLine
 10
188.576
 20
26.924
 30
0.0
 11
188.576
 21
26.06
 31
0.0
  0
LINE
  5
134
100
AcDbEntity
  8
LAY-1
  6
CONTINUOUS
 62
     2
100
AcDbLine
 10
188.576
 20
26.06
 30
0.0
 11
178.416
 21
26.06
 31
0.0
  0
LINE
  5
135
100
AcDbEntity
  8
LAY-1
  6
CONTINUOUS
 62
     2
100
AcDbLine
 10
178.416
 20
26.06
 30
0.0
 11
178.416
 21
26.924
 31
0.0
  0
LINE
  5
136
100
AcDbEntity
  8
LAY-1
  6
CONTINUOUS
 62
     2
100
AcDbLine
 10
178.74
 20
26.48
 30
0.0
 11
188.34
 21
26.48
 31
0.0
  0
LINE
  5
137
100
AcDbEntity
  8
LAY-1
  6
CONTINUOUS
 62
     2
100
AcDbLine
 10
191.12
 20
34.24
 30
0.0
 11
200.963217
 21
34.24
 31
0.0
  0
LINE
  5
138
100
AcDbEntity
  8
LAY-1
  6
CONTINUOUS
 62
     2
100
AcDbLine
 10
200.963217
 20
34.24
 30
0.0
 11
197.42334
 21
29.367778
 31
0.0
  0
LINE
  5
139
100
AcDbEntity
  8
LAY-1
  6
CONTINUOUS
 62
     2
100
AcDbLine
 10
197.42334
 20
29.367778
 30
0.0
 11
201.573614
 21
25.76
 31
0.0
  0
LINE
  5
13A
100
AcDbEntity
  8
LAY-1
  6
CONTINUOUS
 62
     2
100
AcDbLine
 10
201.573614
 20
25.76
 30
0.0
 11
199.480165
 21
25.76
 31
0.0
  0
LINE
  5
13B
100
AcDbEntity
  8
LAY-1
  6
CONTINUOUS
 62
     2
100
AcDbLine
 10
199.480165
 20
25.76
 30
0.0
 11
196.612977
 21
28.252409
 31
0.0
  0
LINE
  5
13C
100
AcDbEntity
  8
LAY-1
  6
CONTINUOUS
 62
     2
100
AcDbLine
 10
196.612977
 20
28.252409
 30
0.0
 11
195.825199
 21
27.168126
 31
0.0
  0
ARC
  5
13D
100
AcDbEntity
  8
LAY-1
  6
CONTINUOUS
 62
     2
100
AcDbCircle
 10
193.061597
 20
29.176
 30
0.0
 40
3.416
100
AcDbArc
 50
270.0
 51
324.0
  0
LINE
  5
13E
100
AcDbEntity
  8
LAY-1
  6
CONTINUOUS
 62
     2
100
AcDbLine
 10
193.061597
 20
25.76
 30
0.0
 11
190.492
 21
25.76
 31
0.0
  0
LINE
  5
13F
100
AcDbEntity
  8
LAY-1
  6
CONTINUOUS
 62
     2
100
AcDbLine
 10
190.492
 20
25.76
 30
0.0
 11
190.492
 21
27.224
 31
0.0
  0
LINE
  5
140
100
AcDbEntity
  8
LAY-1
  6
CONTINUOUS
 62
     2
100
AcDbLine
 10
190.492
 20
27.224
 30
0.0
 11
192.598501
 21
27.224
 31
0.0
  0
ARC
  5
141
100
AcDbEntity
  8
LAY-1
  6
CONTINUOUS
 62
     2
100
AcDbCircle
 10
192.598501
 20
29.588
 30
0.0
 40
2.364
100
AcDbArc
 50
270.0
 51
324.0
  0
LINE
  5
142
100
AcDbEntity
  8
LAY-1
  6
CONTINUOUS
 62
     2
100
AcDbLine
 10
194.511017
 20
28.198476
 30
0.0
 11
197.836783
 21
32.776
 31
0.0
  0
LINE
  5
143
100
AcDbEntity
  8
LAY-1
  6
CONTINUOUS
 62
     2
100
AcDbLine
 10
197.836783
 20
32.776
 30
0.0
 11
191.12
 21
32.776
 31
0.0
  0
LINE
  5
144
100
AcDbEntity
  8
LAY-1
  6
CONTINUOUS
 62
     2
100
AcDbLine
 10
191.12
 20
32.776
 30
0.0
 11
191.12
 21
34.24
 31
0.0
  0
LINE
  5
145
100
AcDbEntity
  8
LAY-1
  6
CONTINUOUS
 62
     2
100
AcDbLine
 10
190.792
 20
26.924
 30
0.0
 11
192.598501
 21
26.924
 31
0.0
  0
ARC
  5
146
100
AcDbEntity
  8
LAY-1
  6
CONTINUOUS
 62
     2
100
AcDbCircle
 10
192.598501
 20
29.588
 30
0.0
 40
2.664
100
AcDbArc
 50
270.0
 51
324.0
  0
LINE
  5
147
100
AcDbEntity
  8
LAY-1
  6
CONTINUOUS
 62
     2
100
AcDbLine
 10
194.753722
 20
28.02214
 30
0.0
 11
198.425566
 21
33.076
 31
0.0
  0
LINE
  5
148
100
AcDbEntity
  8
LAY-1
  6
CONTINUOUS
 62
     2
100
AcDbLine
 10
198.425566
 20
33.076
 30
0.0
 11
191.42
 21
33.076
 31
0.0
  0
LINE
  5
149
100
AcDbEntity
  8
LAY-1
  6
CONTINUOUS
 62
     2
100
AcDbLine
 10
191.42
 20
33.076
 30
0.0
 11
191.42
 21
33.94
 31
0.0
  0
LINE
  5
14A
100
AcDbEntity
  8
LAY-1
  6
CONTINUOUS
 62
     2
100
AcDbLine
 10
191.42
 20
33.94
 30
0.0
 11
200.374434
 21
33.94
 31
0.0
  0
LINE
  5
14B
100
AcDbEntity
  8
LAY-1
  6
CONTINUOUS
 62
     2
100
AcDbLine
 10
200.374434
 20
33.94
 30
0.0
 11
197.019053
 21
29.321715
 31
0.0
  0
LINE
  5
14C
100
AcDbEntity
  8
LAY-1
  6
CONTINUOUS
 62
     2
100
AcDbLine
 10
197.019053
 20
29.321715
 30
0.0
 11
200.771227
 21
26.06
 31
0.0
  0
LINE
  5
14D
100
AcDbEntity
  8
LAY-1
  6
CONTINUOUS
 62
     2
100
AcDbLine
 10
200.771227
 20
26.06
 30
0.0
 11
199.592331
 21
26.06
 31
0.0
  0
LINE
  5
14E
100
AcDbEntity
  8
LAY-1
  6
CONTINUOUS
 62
     2
100
AcDbLine
 10
199.592331
 20
26.06
 30
0.0
 11
196.562709
 21
28.69361
 31
0.0
  0
LINE
  5
14F
100
AcDbEntity
  8
LAY-1
  6
CONTINUOUS
 62
     2
100
AcDbLine
 10
196.562709
 20
28.69361
 30
0.0
 11
195.582494
 21
27.344461
 31
0.0
  0
ARC
  5
150
100
AcDbEntity
  8
LAY-1
  6
CONTINUOUS
 62
     2
100
AcDbCircle
 10
193.061597
 20
29.176
 30
0.0
 40
3.116
100
AcDbArc
 50
270.0
 51
324.0
  0
LINE
  5
151
100
AcDbEntity
  8
LAY-1
  6
CONTINUOUS
 62
     2
100
AcDbLine
 10
193.061597
 20
26.06
 30
0.0
 11
190.792
 21
26.06
 31
0.0
  0
LINE
  5
152
100
AcDbEntity
  8
LAY-1
  6
CONTINUOUS
 62
     2
100
AcDbLine
 10
190.792
 20
26.06
 30
0.0
 11
190.792
 21
26.924
 31
0.0
  0
LINE
  5
153
100
AcDbEntity
  8
LAY-1
  6
CONTINUOUS
 62
     2
100
AcDbLine
 10
191.72
 20
33.64
 30
0.0
 11
199.785651
 21
33.64
 31
0.0
  0
LINE
  5
154
100
AcDbEntity
  8
LAY-1
  6
CONTINUOUS
 62
     2
100
AcDbLine
 10
199.785651
 20
33.64
 30
0.0
 11
196.614766
 21
29.275652
 31
0.0
  0
LINE
  5
155
100
AcDbEntity
  8
LAY-1
  6
CONTINUOUS
 62
     2
100
AcDbLine
 10
196.614766
 20
29.275652
 30
0.0
 11
199.968841
 21
26.36
 31
0.0
  0
LINE
  5
156
100
AcDbEntity
  8
LAY-1
  6
CONTINUOUS
 62
     2
100
AcDbLine
 10
199.968841
 20
26.36
 30
0.0
 11
199.704496
 21
26.36
 31
0.0
  0
LINE
  5
157
100
AcDbEntity
  8
LAY-1
  6
CONTINUOUS
 62
     2
100
AcDbLine
 10
199.704496
 20
26.36
 30
0.0
 11
196.51244
 21
29.134812
 31
0.0
  0
LINE
  5
158
100
AcDbEntity
  8
LAY-1
  6
CONTINUOUS
 62
     2
100
AcDbLine
 10
196.51244
 20
29.134812
 30
0.0
 11
195.339789
 21
27.520797
 31
0.0
  0
ARC
  5
159
100
AcDbEntity
  8
LAY-1
  6
CONTINUOUS
 62
     2
100
AcDbCircle
 10
193.061597
 20
29.176
 30
0.0
 40
2.816
100
AcDbArc
 50
270.0
 51
324.0
  0
LINE
  5
15A
100
AcDbEntity
  8
LAY-1
  6
CONTINUOUS
 62
     2
100
AcDbLine
 10
193.061597
 20
26.36
 30
0.0
 11
191.092
 21
26.36
 31
0.0
  0
LINE
  5
15B
100
AcDbEntity
  8
LAY-1
  6
CONTINUOUS
 62
     2
100
AcDbLine
 10
191.092
 20
26.36
 30
0.0
 11
191.092
 21
26.624
 31
0.0
  0
LINE
  5
15C
100
AcDbEntity
  8
LAY-1
  6
CONTINUOUS
 62
     2
100
AcDbLine
 10
191.092
 20
26.624
 30
0.0
 11
192.598501
 21
26.624
 31
0.0
  0
ARC
  5
15D
100
AcDbEntity
  8
LAY-1
  6
CONTINUOUS
 62
     2
100
AcDbCircle
 10
192.598501
 20
29.588
 30
0.0
 40
2.964
100
AcDbArc
 50
270.0
 51
324.0
  0
LINE
  5
15E
100
AcDbEntity
  8
LAY-1
  6
CONTINUOUS
 62
     2
100
AcDbLine
 10
194.996427
 20
27.845805
 30
0.0
 11
199.014349
 21
33.376
 31
0.0
  0
LINE
  5
15F
100
AcDbEntity
  8
LAY-1
  6
CONTINUOUS
 62
     2
100
AcDbLine
 10
199.014349
 20
33.376
 30
0.0
 11
191.72
 21
33.376
 31
0.0
  0
LINE
  5
160
100
AcDbEntity
  8
LAY-1
  6
CONTINUOUS
 62
     2
100
AcDbLine
 10
191.72
 20
33.376
 30
0.0
 11
191.72
 21
33.64
 31
0.0
  0
LINE
  5
161
100
AcDbEntity
  8
LAY-1
  6
CONTINUOUS
 62
     2
100
AcDbLine
 10
205.154
 20
34.24
 30
0.0
 11
215.286
 21
34.24
 31
0.0
  0
LINE
  5
162
100
AcDbEntity
  8
LAY-1
  6
CONTINUOUS
 62
     2
100
AcDbLine
 10
215.286
 20
34.24
 30
0.0
 11
215.286
 21
33.396
 31
0.0
  0
LINE
  5
163
100
AcDbEntity
  8
LAY-1
  6
CONTINUOUS
 62
     2
100
AcDbLine
 10
215.286
 20
33.396
 30
0.0
 11
211.056
 21
33.396
 31
0.0
  0
LINE
  5
164
100
AcDbEntity
  8
LAY-1
  6
CONTINUOUS
 62
     2
100
AcDbLine
 10
211.056
 20
33.396
 30
0.0
 11
211.056
 21
26.812
 31
0.0
  0
LINE
  5
165
100
AcDbEntity
  8
LAY-1
  6
CONTINUOUS
 62
     2
100
AcDbLine
 10
211.056
 20
26.812
 30
0.0
 11
215.7
 21
26.812
 31
0.0
  0
LINE
  5
166
100
AcDbEntity
  8
LAY-1
  6
CONTINUOUS
 62
     2
100
AcDbLine
 10
215.7
 20
26.812
 30
0.0
 11
215.7
 21
25.76
 31
0.0
  0
LINE
  5
167
100
AcDbEntity
  8
LAY-1
  6
CONTINUOUS
 62
     2
100
AcDbLine
 10
215.7
 20
25.76
 30
0.0
 11
204.74
 21
25.76
 31
0.0
  0
LINE
  5
168
100
AcDbEntity
  8
LAY-1
  6
CONTINUOUS
 62
     2
100
AcDbLine
 10
204.74
 20
25.76
 30
0.0
 11
204.74
 21
26.812
 31
0.0
  0
LINE
  5
169
100
AcDbEntity
  8
LAY-1
  6
CONTINUOUS
 62
     2
100
AcDbLine
 10
204.74
 20
26.812
 30
0.0
 11
209.384
 21
26.812
 31
0.0
  0
LINE
  5
16A
100
AcDbEntity
  8
LAY-1
  6
CONTINUOUS
 62
     2
100
AcDbLine
 10
209.384
 20
26.812
 30
0.0
 11
209.384
 21
33.396
 31
0.0
  0
LINE
  5
16B
100
AcDbEntity
  8
LAY-1
  6
CONTINUOUS
 62
     2
100
AcDbLine
 10
209.384
 20
33.396
 30
0.0
 11
205.154
 21
33.396
 31
0.0
  0
LINE
  5
16C
100
AcDbEntity
  8
LAY-1
  6
CONTINUOUS
 62
     2
100
AcDbLine
 10
205.154
 20
33.396
 30
0.0
 11
205.154
 21
34.24
 31
0.0
  0
LINE
  5
16D
100
AcDbEntity
  8
LAY-1
  6
CONTINUOUS
 62
     2
100
AcDbLine
 10
205.454
 20
33.94
 30
0.0
 11
214.986
 21
33.94
 31
0.0
  0
LINE
  5
16E
100
AcDbEntity
  8
LAY-1
  6
CONTINUOUS
 62
     2
100
AcDbLine
 10
214.986
 20
33.94
 30
0.0
 11
214.986
 21
33.696
 31
0.0
  0
LINE
  5
16F
100
AcDbEntity
  8
LAY-1
  6
CONTINUOUS
 62
     2
100
AcDbLine
 10
214.986
 20
33.696
 30
0.0
 11
210.756
 21
33.696
 31
0.0
  0
LINE
  5
170
100
AcDbEntity
  8
LAY-1
  6
CONTINUOUS
 62
     2
100
AcDbLine
 10
210.756
 20
33.696
 30
0.0
 11
210.756
 21
26.512
 31
0.0
  0
LINE
  5
171
100
AcDbEntity
  8
LAY-1
  6
CONTINUOUS
 62
     2
100
AcDbLine
 10
210.756
 20
26.512
 30
0.0
 11
215.4
 21
26.512
 31
0.0
  0
LINE
  5
172
100
AcDbEntity
  8
LAY-1
  6
CONTINUOUS
 62
     2
100
AcDbLine
 10
215.4
 20
26.512
 30
0.0
 11
215.4
 21
26.06
 31
0.0
  0
LINE
  5
173
100
AcDbEntity
  8
LAY-1
  6
CONTINUOUS
 62
     2
100
AcDbLine
 10
215.4
 20
26.06
 30
0.0
 11
205.04
 21
26.06
 31
0.0
  0
LINE
  5
174
100
AcDbEntity
  8
LAY-1
  6
CONTINUOUS
 62
     2
100
AcDbLine
 10
205.04
 20
26.06
 30
0.0
 11
205.04
 21
26.512
 31
0.0
  0
LINE
  5
175
100
AcDbEntity
  8
LAY-1
  6
CONTINUOUS
 62
     2
100
AcDbLine
 10
205.04
 20
26.512
 30
0.0
 11
209.684
 21
26.512
 31
0.0
  0
LINE
  5
176
100
AcDbEntity
  8
LAY-1
  6
CONTINUOUS
 62
     2
100
AcDbLine
 10
209.684
 20
26.512
 30
0.0
 11
209.684
 21
33.696
 31
0.0
  0
LINE
  5
177
100
AcDbEntity
  8
LAY-1
  6
CONTINUOUS
 62
     2
100
AcDbLine
 10
209.684
 20
33.696
 30
0.0
 11
205.454
 21
33.696
 31
0.0
  0
LINE
  5
178
100
AcDbEntity
  8
LAY-1
  6
CONTINUOUS
 62
     2
100
AcDbLine
 10
205.454
 20
33.696
 30
0.0
 11
205.454
 21
33.94
 31
0.0
  0
LINE
  5
179
100
AcDbEntity
  8
LAY-1
  6
CONTINUOUS
 62
     2
100
AcDbLine
 10
210.08
 20
33.56
 30
0.0
 11
210.08
 21
26.4
 31
0.0
  0
LINE
  5
17A
100
AcDbEntity
  8
LAY-1
  6
CONTINUOUS
 62
     2
100
AcDbLine
 10
210.38
 20
33.54
 30
0.0
 11
210.38
 21
26.3
 31
0.0
  0
LINE
  5
17B
100
AcDbEntity
  8
LAY-1
  6
CONTINUOUS
 62
     2
100
AcDbLine
 10
220.22
 20
34.24
 30
0.0
 11
221.376
 21
34.24
 31
0.0
  0
LINE
  5
17C
100
AcDbEntity
  8
LAY-1
  6
CONTINUOUS
 62
     2
100
AcDbLine
 10
221.376
 20
34.24
 30
0.0
 11
221.376
 21
33.0
 31
0.0
  0
LINE
  5
17D
100
AcDbEntity
  8
LAY-1
  6
CONTINUOUS
 62
     2
100
AcDbLine
 10
221.376
 20
33.0
 30
0.0
 11
222.592
 21
33.0
 31
0.0
  0
LINE
  5
17E
100
AcDbEntity
  8
LAY-1
  6
CONTINUOUS
 62
     2
100
AcDbLine
 10
222.592
 20
33.0
 30
0.0
 11
222.592
 21
34.24
 31
0.0
  0
LINE
  5
17F
100
AcDbEntity
  8
LAY-1
  6
CONTINUOUS
 62
     2
100
AcDbLine
 10
222.592
 20
34.24
 30
0.0
 11
223.748
 21
34.24
 31
0.0
  0
LINE
  5
180
100
AcDbEntity
  8
LAY-1
  6
CONTINUOUS
 62
     2
100
AcDbLine
 10
223.748
 20
34.24
 30
0.0
 11
223.748
 21
33.0
 31
0.0
  0
LINE
  5
181
100
AcDbEntity
  8
LAY-1
  6
CONTINUOUS
 62
     2
100
AcDbLine
 10
223.748
 20
33.0
 30
0.0
 11
224.589526
 21
33.0
 31
0.0
  0
LINE
  5
182
100
AcDbEntity
  8
LAY-1
  6
CONTINUOUS
 62
     2
100
AcDbLine
 10
224.589526
 20
33.0
 30
0.0
 11
225.55832
 21
34.24
 31
0.0
  0
LINE
  5
183
100
AcDbEntity
  8
LAY-1
  6
CONTINUOUS
 62
     2
100
AcDbLine
 10
225.55832
 20
34.24
 30
0.0
 11
226.628909
 21
34.24
 31
0.0
  0
LINE
  5
184
100
AcDbEntity
  8
LAY-1
  6
CONTINUOUS
 62
     2
100
AcDbLine
 10
226.628909
 20
34.24
 30
0.0
 11
225.660115
 21
33.0
 31
0.0
  0
LINE
  5
185
100
AcDbEntity
  8
LAY-1
  6
CONTINUOUS
 62
     2
100
AcDbLine
 10
225.660115
 20
33.0
 30
0.0
 11
227.464
 21
33.0
 31
0.0
  0
LINE
  5
186
100
AcDbEntity
  8
LAY-1
  6
CONTINUOUS
 62
     2
100
AcDbLine
 10
227.464
 20
33.0
 30
0.0
 11
227.464
 21
32.652
 31
0.0
  0
LINE
  5
187
100
AcDbEntity
  8
LAY-1
  6
CONTINUOUS
 62
     2
100
AcDbLine
 10
227.464
 20
32.652
 30
0.0
 11
225.377555
 21
32.652
 31
0.0
  0
LINE
  5
188
100
AcDbEntity
  8
LAY-1
  6
CONTINUOUS
 62
     2
100
AcDbLine
 10
225.377555
 20
32.652
 30
0.0
 11
224.783556
 21
31.02
 31
0.0
  0
LINE
  5
189
100
AcDbEntity
  8
LAY-1
  6
CONTINUOUS
 62
     2
100
AcDbLine
 10
224.783556
 20
31.02
 30
0.0
 11
227.464
 21
31.02
 31
0.0
  0
LINE
  5
18A
100
AcDbEntity
  8
LAY-1
  6
CONTINUOUS
 62
     2
100
AcDbLine
 10
227.464
 20
31.02
 30
0.0
 11
227.464
 21
30.844
 31
0.0
  0
LINE
  5
18B
100
AcDbEntity
  8
LAY-1
  6
CONTINUOUS
 62
     2
100
AcDbLine
 10
227.464
 20
30.844
 30
0.0
 11
222.716
 21
30.844
 31
0.0
  0
LINE
  5
18C
100
AcDbEntity
  8
LAY-1
  6
CONTINUOUS
 62
     2
100
AcDbLine
 10
222.716
 20
30.844
 30
0.0
 11
222.716
 21
29.596
 31
0.0
  0
LINE
  5
18D
100
AcDbEntity
  8
LAY-1
  6
CONTINUOUS
 62
     2
100
AcDbLine
 10
222.716
 20
29.596
 30
0.0
 11
227.464
 21
29.596
 31
0.0
  0
LINE
  5
18E
100
AcDbEntity
  8
LAY-1
  6
CONTINUOUS
 62
     2
100
AcDbLine
 10
227.464
 20
29.596
 30
0.0
 11
227.464
 21
29.248
 31
0.0
  0
LINE
  5
18F
100
AcDbEntity
  8
LAY-1
  6
CONTINUOUS
 62
     2
100
AcDbLine
 10
227.464
 20
29.248
 30
0.0
 11
222.716
 21
29.248
 31
0.0
  0
LINE
  5
190
100
AcDbEntity
  8
LAY-1
  6
CONTINUOUS
 62
     2
100
AcDbLine
 10
222.716
 20
29.248
 30
0.0
 11
222.716
 21
28.0
 31
0.0
  0
LINE
  5
191
100
AcDbEntity
  8
LAY-1
  6
CONTINUOUS
 62
     2
100
AcDbLine
 10
222.93671
 20
28.0
 30
0.0
 11
227.464
 21
28.0
 31
0.0
  0
LINE
  5
192
100
AcDbEntity
  8
LAY-1
  6
CONTINUOUS
 62
     2
100
AcDbLine
 10
227.464
 20
28.0
 30
0.0
 11
227.464
 21
27.824
 31
0.0
  0
LINE
  5
193
100
AcDbEntity
  8
LAY-1
  6
CONTINUOUS
 62
     2
100
AcDbLine
 10
227.464
 20
27.824
 30
0.0
 11
224.700577
 21
27.824
 31
0.0
  0
LINE
  5
194
100
AcDbEntity
  8
LAY-1
  6
CONTINUOUS
 62
     2
100
AcDbLine
 10
224.700577
 20
27.824
 30
0.0
 11
226.984577
 21
25.76
 31
0.0
  0
LINE
  5
195
100
AcDbEntity
  8
LAY-1
  6
CONTINUOUS
 62
     2
100
AcDbLine
 10
226.984577
 20
25.76
 30
0.0
 11
225.41547
 21
25.76
 31
0.0
  0
LINE
  5
196
100
AcDbEntity
  8
LAY-1
  6
CONTINUOUS
 62
     2
100
AcDbLine
 10
225.41547
 20
25.76
 30
0.0
 11
222.93671
 21
28.0
 31
0.0
  0
LINE
  5
197
100
AcDbEntity
  8
LAY-1
  6
CONTINUOUS
 62
     2
100
AcDbLine
 10
222.716
 20
28.199451
 30
0.0
 11
222.716
 21
25.76
 31
0.0
  0
LINE
  5
198
100
AcDbEntity
  8
LAY-1
  6
CONTINUOUS
 62
     2
100
AcDbLine
 10
222.716
 20
25.76
 30
0.0
 11
221.252
 21
25.76
 31
0.0
  0
LINE
  5
199
100
AcDbEntity
  8
LAY-1
  6
CONTINUOUS
 62
     2
100
AcDbLine
 10
221.252
 20
25.76
 30
0.0
 11
221.252
 21
28.199451
 31
0.0
  0
LINE
  5
19A
100
AcDbEntity
  8
LAY-1
  6
CONTINUOUS
 62
     2
100
AcDbLine
 10
221.03129
 20
28.0
 30
0.0
 11
218.55253
 21
25.76
 31
0.0
  0
LINE
  5
19B
100
AcDbEntity
  8
LAY-1
  6
CONTINUOUS
 62
     2
100
AcDbLine
 10
218.55253
 20
25.76
 30
0.0
 11
216.983423
 21
25.76
 31
0.0
  0
LINE
  5
19C
100
AcDbEntity
  8
LAY-1
  6
CONTINUOUS
 62
     2
100
AcDbLine
 10
216.983423
 20
25.76
 30
0.0
 11
219.267423
 21
27.824
 31
0.0
  0
LINE
  5
19D
100
AcDbEntity
  8
LAY-1
  6
CONTINUOUS
 62
     2
100
AcDbLine
 10
219.267423
 20
27.824
 30
0.0
 11
216.504
 21
27.824
 31
0.0
  0
LINE
  5
19E
100
AcDbEntity
  8
LAY-1
  6
CONTINUOUS
 62
     2
100
AcDbLine
 10
216.504
 20
27.824
 30
0.0
 11
216.504
 21
28.0
 31
0.0
  0
LINE
  5
19F
100
AcDbEntity
  8
LAY-1
  6
CONTINUOUS
 62
     2
100
AcDbLine
 10
216.504
 20
28.0
 30
0.0
 11
221.03129
 21
28.0
 31
0.0
  0
LINE
  5
1A0
100
AcDbEntity
  8
LAY-1
  6
CONTINUOUS
 62
     2
100
AcDbLine
 10
221.252
 20
28.0
 30
0.0
 11
221.252
 21
29.248
 31
0.0
  0
LINE
  5
1A1
100
AcDbEntity
  8
LAY-1
  6
CONTINUOUS
 62
     2
100
AcDbLine
 10
221.252
 20
29.248
 30
0.0
 11
216.504
 21
29.248
 31
0.0
  0
LINE
  5
1A2
100
AcDbEntity
  8
LAY-1
  6
CONTINUOUS
 62
     2
100
AcDbLine
 10
216.504
 20
29.248
 30
0.0
 11
216.504
 21
29.596
 31
0.0
  0
LINE
  5
1A3
100
AcDbEntity
  8
LAY-1
  6
CONTINUOUS
 62
     2
100
AcDbLine
 10
216.504
 20
29.596
 30
0.0
 11
221.252
 21
29.596
 31
0.0
  0
LINE
  5
1A4
100
AcDbEntity
  8
LAY-1
  6
CONTINUOUS
 62
     2
100
AcDbLine
 10
221.252
 20
29.596
 30
0.0
 11
221.252
 21
30.844
 31
0.0
  0
LINE
  5
1A5
100
AcDbEntity
  8
LAY-1
  6
CONTINUOUS
 62
     2
100
AcDbLine
 10
221.252
 20
30.844
 30
0.0
 11
216.504
 21
30.844
 31
0.0
  0
LINE
  5
1A6
100
AcDbEntity
  8
LAY-1
  6
CONTINUOUS
 62
     2
100
AcDbLine
 10
216.504
 20
30.844
 30
0.0
 11
216.504
 21
31.02
 31
0.0
  0
LINE
  5
1A7
100
AcDbEntity
  8
LAY-1
  6
CONTINUOUS
 62
     2
100
AcDbLine
 10
216.504
 20
31.02
 30
0.0
 11
219.184444
 21
31.02
 31
0.0
  0
LINE
  5
1A8
100
AcDbEntity
  8
LAY-1
  6
CONTINUOUS
 62
     2
100
AcDbLine
 10
219.184444
 20
31.02
 30
0.0
 11
218.590445
 21
32.652
 31
0.0
  0
LINE
  5
1A9
100
AcDbEntity
  8
LAY-1
  6
CONTINUOUS
 62
     2
100
AcDbLine
 10
218.590445
 20
32.652
 30
0.0
 11
216.504
 21
32.652
 31
0.0
  0
LINE
  5
1AA
100
AcDbEntity
  8
LAY-1
  6
CONTINUOUS
 62
     2
100
AcDbLine
 10
216.504
 20
32.652
 30
0.0
 11
216.504
 21
33.0
 31
0.0
  0
LINE
  5
1AB
100
AcDbEntity
  8
LAY-1
  6
CONTINUOUS
 62
     2
100
AcDbLine
 10
216.504
 20
33.0
 30
0.0
 11
218.307885
 21
33.0
 31
0.0
  0
LINE
  5
1AC
100
AcDbEntity
  8
LAY-1
  6
CONTINUOUS
 62
     2
100
AcDbLine
 10
218.307885
 20
33.0
 30
0.0
 11
217.339091
 21
34.24
 31
0.0
  0
LINE
  5
1AD
100
AcDbEntity
  8
LAY-1
  6
CONTINUOUS
 62
     2
100
AcDbLine
 10
217.339091
 20
34.24
 30
0.0
 11
218.40968
 21
34.24
 31
0.0
  0
LINE
  5
1AE
100
AcDbEntity
  8
LAY-1
  6
CONTINUOUS
 62
     2
100
AcDbLine
 10
218.40968
 20
34.24
 30
0.0
 11
219.378474
 21
33.0
 31
0.0
  0
LINE
  5
1AF
100
AcDbEntity
  8
LAY-1
  6
CONTINUOUS
 62
     2
100
AcDbLine
 10
219.378474
 20
33.0
 30
0.0
 11
220.22
 21
33.0
 31
0.0
  0
LINE
  5
1B0
100
AcDbEntity
  8
LAY-1
  6
CONTINUOUS
 62
     2
100
AcDbLine
 10
220.22
 20
33.0
 30
0.0
 11
220.22
 21
34.24
 31
0.0
  0
LINE
  5
1B1
100
AcDbEntity
  8
LAY-1
  6
CONTINUOUS
 62
     2
100
AcDbLine
 10
219.26
 20
32.6
 30
0.0
 11
224.94
 21
32.6
 31
0.0
  0
LINE
  5
1B2
100
AcDbEntity
  8
LAY-1
  6
CONTINUOUS
 62
     2
100
AcDbLine
 10
220.6
 20
33.92
 30
0.0
 11
220.6
 21
32.86
 31
0.0
  0
LINE
  5
1B3
100
AcDbEntity
  8
LAY-1
  6
CONTINUOUS
 62
     2
100
AcDbLine
 10
221.12
 20
33.96
 30
0.0
 11
221.12
 21
32.92
 31
0.0
  0
LINE
  5
1B4
100
AcDbEntity
  8
LAY-1
  6
CONTINUOUS
 62
     2
100
AcDbLine
 10
222.94
 20
33.88
 30
0.0
 11
222.94
 21
32.88
 31
0.0
  0
LINE
  5
1B5
100
AcDbEntity
  8
LAY-1
  6
CONTINUOUS
 62
     2
100
AcDbLine
 10
223.44
 20
33.96
 30
0.0
 11
223.44
 21
33.0
 31
0.0
  0
LINE
  5
1B6
100
AcDbEntity
  8
LAY-1
  6
CONTINUOUS
 62
     2
100
AcDbLine
 10
221.68
 20
30.78
 30
0.0
 11
221.68
 21
26.12
 31
0.0
  0
LINE
  5
1B7
100
AcDbEntity
  8
LAY-1
  6
CONTINUOUS
 62
     2
100
AcDbLine
 10
222.26
 20
30.72
 30
0.0
 11
222.26
 21
26.2
 31
0.0
  0
LINE
  5
1B8
100
AcDbEntity
  8
LAY-1
  6
CONTINUOUS
 62
     2
100
AcDbLine
 10
217.84
 20
33.98
 30
0.0
 11
218.66
 21
32.92
 31
0.0
  0
LINE
  5
1B9
100
AcDbEntity
  8
LAY-1
  6
CONTINUOUS
 62
     2
100
AcDbLine
 10
218.28
 20
33.98
 30
0.0
 11
219.12
 21
32.86
 31
0.0
  0
LINE
  5
1BA
100
AcDbEntity
  8
LAY-1
  6
CONTINUOUS
 62
     2
100
AcDbLine
 10
225.72
 20
33.98
 30
0.0
 11
224.88
 21
32.92
 31
0.0
  0
LINE
  5
1BB
100
AcDbEntity
  8
LAY-1
  6
CONTINUOUS
 62
     2
100
AcDbLine
 10
226.14
 20
34.04
 30
0.0
 11
225.28
 21
32.88
 31
0.0
  0
LINE
  5
1BC
100
AcDbEntity
  8
LAY-1
  6
CONTINUOUS
 62
     2
100
AcDbLine
 10
223.76
 20
32.24
 30
0.0
 11
223.36
 21
31.08
 31
0.0
  0
LINE
  5
1BD
100
AcDbEntity
  8
LAY-1
  6
CONTINUOUS
 62
     2
100
AcDbLine
 10
224.34
 20
32.36
 30
0.0
 11
223.84
 21
31.08
 31
0.0
  0
LINE
  5
1BE
100
AcDbEntity
  8
LAY-1
  6
CONTINUOUS
 62
     2
100
AcDbLine
 10
224.94
 20
32.32
 30
0.0
 11
224.38
 21
31.08
 31
0.0
  0
LINE
  5
1BF
100
AcDbEntity
  8
LAY-1
  6
CONTINUOUS
 62
     2
100
AcDbLine
 10
220.16
 20
32.32
 30
0.0
 11
220.68
 21
31.12
 31
0.0
  0
LINE
  5
1C0
100
AcDbEntity
  8
LAY-1
  6
CONTINUOUS
 62
     2
100
AcDbLine
 10
219.64
 20
32.4
 30
0.0
 11
220.16
 21
31.12
 31
0.0
  0
LINE
  5
1C1
100
AcDbEntity
  8
LAY-1
  6
CONTINUOUS
 62
     2
100
AcDbLine
 10
219.14
 20
32.32
 30
0.0
 11
219.76
 21
30.94
 31
0.0
  0
LINE
  5
1C2
100
AcDbEntity
  8
LAY-1
  6
CONTINUOUS
 62
     2
100
AcDbLine
 10
219.6
 20
27.66
 30
0.0
 11
217.84
 21
26.06
 31
0.0
  0
LINE
  5
1C3
100
AcDbEntity
  8
LAY-1
  6
CONTINUOUS
 62
     2
100
AcDbLine
 10
220.12
 20
27.68
 30
0.0
 11
218.38
 21
26.06
 31
0.0
  0
LINE
  5
1C4
100
AcDbEntity
  8
LAY-1
  6
CONTINUOUS
 62
     2
100
AcDbLine
 10
223.72
 20
27.64
 30
0.0
 11
225.44
 21
26.06
 31
0.0
  0
LINE
  5
1C5
100
AcDbEntity
  8
LAY-1
  6
CONTINUOUS
 62
     2
100
AcDbLine
 10
224.34
 20
27.54
 30
0.0
 11
225.98
 21
26.08
 31
0.0
  0
LINE
  5
1C6
100
AcDbEntity
  8
LAY-1
  6
CONTINUOUS
 62
     2
100
AcDbLine
 10
231.88
 20
34.2
 30
0.0
 11
231.88
 21
25.8
 31
0.0
  0
LINE
  5
1C7
100
AcDbEntity
  8
LAY-1
  6
CONTINUOUS
 62
     2
100
AcDbLine
 10
231.44
 20
34.16
 30
0.0
 11
231.44
 21
25.88
 31
0.0
  0
LINE
  5
1C8
100
AcDbEntity
  8
LAY-1
  6
CONTINUOUS
 62
     2
100
AcDbLine
 10
231.02
 20
34.16
 30
0.0
 11
231.02
 21
25.84
 31
0.0
  0
LINE
  5
1C9
100
AcDbEntity
  8
LAY-1
  6
CONTINUOUS
 62
     2
100
AcDbLine
 10
230.68
 20
34.16
 30
0.0
 11
230.68
 21
25.94
 31
0.0
  0
LINE
  5
1CA
100
AcDbEntity
  8
LAY-1
  6
CONTINUOUS
 62
     2
100
AcDbLine
 10
228.54
 20
33.22
 30
0.0
 11
230.34
 21
33.22
 31
0.0
  0
LINE
  5
1CB
100
AcDbEntity
  8
LAY-1
  6
CONTINUOUS
 62
     2
100
AcDbLine
 10
232.08
 20
32.08
 30
0.0
 11
232.48
 21
31.54
 31
0.0
  0
LINE
  5
1CC
100
AcDbEntity
  8
LAY-1
  6
CONTINUOUS
 62
     2
100
AcDbLine
 10
232.08
 20
31.56
 30
0.0
 11
232.5
 21
30.98
 31
0.0
  0
LINE
  5
1CD
100
AcDbEntity
  8
LAY-1
  6
CONTINUOUS
 62
     2
100
AcDbLine
 10
232.14
 20
30.72
 30
0.0
 11
232.42
 21
30.32
 31
0.0
  0
LINE
  5
1CE
100
AcDbEntity
  8
LAY-1
  6
CONTINUOUS
 62
     2
100
AcDbLine
 10
229.24
 20
32.32
 30
0.0
 11
228.46
 21
25.66
 31
0.0
  0
LINE
  5
1CF
100
AcDbEntity
  8
LAY-1
  6
CONTINUOUS
 62
     2
100
AcDbLine
 10
229.62
 20
32.36
 30
0.0
 11
228.86
 21
25.6
 31
0.0
  0
LINE
  5
1D0
100
AcDbEntity
  8
LAY-1
  6
CONTINUOUS
 62
     2
100
AcDbLine
 10
229.92
 20
32.36
 30
0.0
 11
229.22
 21
25.8
 31
0.0
  0
LINE
  5
1D1
100
AcDbEntity
  8
LAY-1
  6
CONTINUOUS
 62
     2
100
AcDbLine
 10
232.12
 20
33.2
 30
0.0
 11
232.46
 21
33.2
 31
0.0
  0
LINE
  5
1D2
100
AcDbEntity
  8
LAY-1
  6
CONTINUOUS
 62
     2
100
AcDbLine
 10
233.8
 20
34.24
 30
0.0
 11
233.18
 21
31.98
 31
0.0
  0
LINE
  5
1D3
100
AcDbEntity
  8
LAY-1
  6
CONTINUOUS
 62
     2
100
AcDbLine
 10
234.3
 20
34.26
 30
0.0
 11
233.6
 21
32.1
 31
0.0
  0
LINE
  5
1D4
100
AcDbEntity
  8
LAY-1
  6
CONTINUOUS
 62
     2
100
AcDbLine
 10
234.78
 20
34.24
 30
0.0
 11
234.14
 21
32.04
 31
0.0
  0
LINE
  5
1D5
100
AcDbEntity
  8
LAY-1
  6
CONTINUOUS
 62
     2
100
AcDbLine
 10
235.8
 20
34.24
 30
0.0
 11
235.8
 21
25.66
 31
0.0
  0
LINE
  5
1D6
100
AcDbEntity
  8
LAY-1
  6
CONTINUOUS
 62
     2
100
AcDbLine
 10
236.14
 20
34.24
 30
0.0
 11
236.14
 21
25.66
 31
0.0
  0
LINE
  5
1D7
100
AcDbEntity
  8
LAY-1
  6
CONTINUOUS
 62
     2
100
AcDbLine
 10
236.52
 20
34.26
 30
0.0
 11
236.52
 21
25.74
 31
0.0
  0
LINE
  5
1D8
100
AcDbEntity
  8
LAY-1
  6
CONTINUOUS
 62
     2
100
AcDbLine
 10
236.92
 20
34.26
 30
0.0
 11
236.92
 21
25.66
 31
0.0
  0
LINE
  5
1D9
100
AcDbEntity
  8
LAY-1
  6
CONTINUOUS
 62
     2
100
AcDbLine
 10
237.2
 20
34.18
 30
0.0
 11
237.2
 21
25.66
 31
0.0
  0
LINE
  5
1DA
100
AcDbEntity
  8
LAY-1
  6
CONTINUOUS
 62
     2
100
AcDbLine
 10
234.76
 20
33.26
 30
0.0
 11
235.6
 21
33.26
 31
0.0
  0
LINE
  5
1DB
100
AcDbEntity
  8
LAY-1
  6
CONTINUOUS
 62
     2
100
AcDbLine
 10
237.52
 20
33.28
 30
0.0
 11
239.64
 21
33.28
 31
0.0
  0
LINE
  5
1DC
100
AcDbEntity
  8
LAY-1
  6
CONTINUOUS
 62
     2
100
AcDbLine
 10
233.22
 20
31.22
 30
0.0
 11
235.48
 21
31.22
 31
0.0
  0
LINE
  5
1DD
100
AcDbEntity
  8
LAY-1
  6
CONTINUOUS
 62
     2
100
AcDbLine
 10
237.52
 20
31.2
 30
0.0
 11
239.56
 21
31.2
 31
0.0
  0
LINE
  5
1DE
100
AcDbEntity
  8
LAY-1
  6
CONTINUOUS
 62
     2
100
AcDbLine
 10
234.16
 20
30.42
 30
0.0
 11
233.3
 21
25.74
 31
0.0
  0
LINE
  5
1DF
100
AcDbEntity
  8
LAY-1
  6
CONTINUOUS
 62
     2
100
AcDbLine
 10
234.76
 20
30.38
 30
0.0
 11
233.94
 21
25.74
 31
0.0
  0
LINE
  5
1E0
100
AcDbEntity
  8
LAY-1
  6
CONTINUOUS
 62
     2
100
AcDbLine
 10
235.26
 20
30.36
 30
0.0
 11
234.34
 21
25.7
 31
0.0
  0
LINE
  5
1E1
100
AcDbEntity
  8
LAY-1
  6
CONTINUOUS
 62
     2
100
AcDbLine
 10
237.62
 20
30.28
 30
0.0
 11
238.5
 21
25.72
 31
0.0
  0
LINE
  5
1E2
100
AcDbEntity
  8
LAY-1
  6
CONTINUOUS
 62
     2
100
AcDbLine
 10
238.068799
 20
30.29783
 30
0.0
 11
238.94
 21
25.8
 31
0.0
  0
LINE
  5
1E3
100
AcDbEntity
  8
LAY-1
  6
CONTINUOUS
 62
     2
100
AcDbLine
 10
238.555713
 20
30.291842
 30
0.0
 11
239.42
 21
25.6
 31
0.0
  0
LINE
  5
1E4
100
AcDbEntity
  8
LAY-1
  6
CONTINUOUS
 62
     2
100
AcDbLine
 10
246.968
 20
30.94
 30
0.0
 11
246.968
 21
30.3
 31
0.0
  0
LINE
  5
1E5
100
AcDbEntity
  8
LAY-1
  6
CONTINUOUS
 62
     2
100
AcDbLine
 10
246.968
 20
30.3
 30
0.0
 11
244.904
 21
30.3
 31
0.0
  0
LINE
  5
1E6
100
AcDbEntity
  8
LAY-1
  6
CONTINUOUS
 62
     2
100
AcDbLine
 10
244.904
 20
30.3
 30
0.0
 11
244.904
 21
27.911176
 31
0.0
  0
LINE
  5
1E7
100
AcDbEntity
  8
LAY-1
  6
CONTINUOUS
 62
     2
100
AcDbLine
 10
244.904
 20
27.911176
 30
0.0
 11
246.968
 21
28.349893
 31
0.0
  0
LINE
  5
1E8
100
AcDbEntity
  8
LAY-1
  6
CONTINUOUS
 62
     2
100
AcDbLine
 10
246.968
 20
28.349893
 30
0.0
 11
246.968
 21
27.063297
 31
0.0
  0
LINE
  5
1E9
100
AcDbEntity
  8
LAY-1
  6
CONTINUOUS
 62
     2
100
AcDbLine
 10
246.968
 20
27.063297
 30
0.0
 11
241.168
 21
25.830469
 31
0.0
  0
LINE
  5
1EA
100
AcDbEntity
  8
LAY-1
  6
CONTINUOUS
 62
     2
100
AcDbLine
 10
241.168
 20
25.830469
 30
0.0
 11
241.168
 21
27.117065
 31
0.0
  0
LINE
  5
1EB
100
AcDbEntity
  8
LAY-1
  6
CONTINUOUS
 62
     2
100
AcDbLine
 10
241.168
 20
27.117065
 30
0.0
 11
243.232
 21
27.555782
 31
0.0
  0
LINE
  5
1EC
100
AcDbEntity
  8
LAY-1
  6
CONTINUOUS
 62
     2
100
AcDbLine
 10
243.232
 20
27.555782
 30
0.0
 11
243.232
 21
30.3
 31
0.0
  0
LINE
  5
1ED
100
AcDbEntity
  8
LAY-1
  6
CONTINUOUS
 62
     2
100
AcDbLine
 10
243.232
 20
30.3
 30
0.0
 11
241.168
 21
30.3
 31
0.0
  0
LINE
  5
1EE
100
AcDbEntity
  8
LAY-1
  6
CONTINUOUS
 62
     2
100
AcDbLine
 10
241.168
 20
30.3
 30
0.0
 11
241.168
 21
30.94
 31
0.0
  0
LINE
  5
1EF
100
AcDbEntity
  8
LAY-1
  6
CONTINUOUS
 62
     2
100
AcDbLine
 10
241.168
 20
30.94
 30
0.0
 11
246.968
 21
30.94
 31
0.0
  0
LINE
  5
1F0
100
AcDbEntity
  8
LAY-1
  6
CONTINUOUS
 62
     2
100
AcDbLine
 10
241.468
 20
30.64
 30
0.0
 11
246.668
 21
30.64
 31
0.0
  0
LINE
  5
1F1
100
AcDbEntity
  8
LAY-1
  6
CONTINUOUS
 62
     2
100
AcDbLine
 10
244.604
 20
30.6
 30
0.0
 11
244.604
 21
27.540707
 31
0.0
  0
LINE
  5
1F2
100
AcDbEntity
  8
LAY-1
  6
CONTINUOUS
 62
     2
100
AcDbLine
 10
244.604
 20
27.540707
 30
0.0
 11
246.668
 21
27.979424
 31
0.0
  0
LINE
  5
1F3
100
AcDbEntity
  8
LAY-1
  6
CONTINUOUS
 62
     2
100
AcDbLine
 10
246.668
 20
27.979424
 30
0.0
 11
246.668
 21
27.306232
 31
0.0
  0
LINE
  5
1F4
100
AcDbEntity
  8
LAY-1
  6
CONTINUOUS
 62
     2
100
AcDbLine
 10
246.668
 20
27.306232
 30
0.0
 11
241.468
 21
26.200938
 31
0.0
  0
LINE
  5
1F5
100
AcDbEntity
  8
LAY-1
  6
CONTINUOUS
 62
     2
100
AcDbLine
 10
241.468
 20
26.200938
 30
0.0
 11
241.468
 21
26.87413
 31
0.0
  0
LINE
  5
1F6
100
AcDbEntity
  8
LAY-1
  6
CONTINUOUS
 62
     2
100
AcDbLine
 10
241.468
 20
26.87413
 30
0.0
 11
243.532
 21
27.312846
 31
0.0
  0
LINE
  5
1F7
100
AcDbEntity
  8
LAY-1
  6
CONTINUOUS
 62
     2
100
AcDbLine
 10
243.532
 20
27.312846
 30
0.0
 11
243.532
 21
30.6
 31
0.0
  0
LINE
  5
1F8
100
AcDbEntity
  8
LAY-1
  6
CONTINUOUS
 62
     2
100
AcDbLine
 10
243.9
 20
30.38
 30
0.0
 11
243.9
 21
27.4
 31
0.0
  0
LINE
  5
1F9
100
AcDbEntity
  8
LAY-1
  6
CONTINUOUS
 62
     2
100
AcDbLine
 10
244.3
 20
30.32
 30
0.0
 11
244.3
 21
27.58
 31
0.0
  0
LINE
  5
1FA
100
AcDbEntity
  8
LAY-1
  6
CONTINUOUS
 62
     2
100
AcDbLine
 10
241.8
 20
26.58
 30
0.0
 11
246.36
 21
27.58
 31
0.0
  0
LINE
  5
1FB
100
AcDbEntity
  8
LAY-1
  6
CONTINUOUS
 62
     2
100
AcDbLine
 10
248.397088
 20
34.24
 30
0.0
 11
248.696999
 21
33.416
 31
0.0
  0
LINE
  5
1FC
100
AcDbEntity
  8
LAY-1
  6
CONTINUOUS
 62
     2
100
AcDbLine
 10
248.696999
 20
33.416
 30
0.0
 11
249.736
 21
33.416
 31
0.0
  0
LINE
  5
1FD
100
AcDbEntity
  8
LAY-1
  6
CONTINUOUS
 62
     2
100
AcDbLine
 10
249.736
 20
33.416
 30
0.0
 11
249.736
 21
34.24
 31
0.0
  0
LINE
  5
1FE
100
AcDbEntity
  8
LAY-1
  6
CONTINUOUS
 62
     2
100
AcDbLine
 10
249.736
 20
34.24
 30
0.0
 11
250.992
 21
34.24
 31
0.0
  0
LINE
  5
1FF
100
AcDbEntity
  8
LAY-1
  6
CONTINUOUS
 62
     2
100
AcDbLine
 10
250.992
 20
34.24
 30
0.0
 11
250.992
 21
33.416
 31
0.0
  0
LINE
  5
200
100
AcDbEntity
  8
LAY-1
  6
CONTINUOUS
 62
     2
100
AcDbLine
 10
250.992
 20
33.416
 30
0.0
 11
251.612
 21
33.416
 31
0.0
  0
LINE
  5
201
100
AcDbEntity
  8
LAY-1
  6
CONTINUOUS
 62
     2
100
AcDbLine
 10
251.612
 20
33.416
 30
0.0
 11
251.612
 21
32.776
 31
0.0
  0
LINE
  5
202
100
AcDbEntity
  8
LAY-1
  6
CONTINUOUS
 62
     2
100
AcDbLine
 10
251.612
 20
32.776
 30
0.0
 11
248.92994
 21
32.776
 31
0.0
  0
LINE
  5
203
100
AcDbEntity
  8
LAY-1
  6
CONTINUOUS
 62
     2
100
AcDbLine
 10
248.92994
 20
32.776
 30
0.0
 11
251.483556
 21
25.76
 31
0.0
  0
LINE
  5
204
100
AcDbEntity
  8
LAY-1
  6
CONTINUOUS
 62
     2
100
AcDbLine
 10
251.483556
 20
25.76
 30
0.0
 11
249.706062
 21
25.76
 31
0.0
  0
LINE
  5
205
100
AcDbEntity
  8
LAY-1
  6
CONTINUOUS
 62
     2
100
AcDbLine
 10
249.706062
 20
25.76
 30
0.0
 11
247.152447
 21
32.776
 31
0.0
  0
LINE
  5
206
100
AcDbEntity
  8
LAY-1
  6
CONTINUOUS
 62
     2
100
AcDbLine
 10
247.152447
 20
32.776
 30
0.0
 11
240.652
 21
32.776
 31
0.0
  0
LINE
  5
207
100
AcDbEntity
  8
LAY-1
  6
CONTINUOUS
 62
     2
100
AcDbLine
 10
240.652
 20
32.776
 30
0.0
 11
240.652
 21
33.416
 31
0.0
  0
LINE
  5
208
100
AcDbEntity
  8
LAY-1
  6
CONTINUOUS
 62
     2
100
AcDbLine
 10
240.652
 20
33.416
 30
0.0
 11
246.919506
 21
33.416
 31
0.0
  0
LINE
  5
209
100
AcDbEntity
  8
LAY-1
  6
CONTINUOUS
 62
     2
100
AcDbLine
 10
246.919506
 20
33.416
 30
0.0
 11
246.619595
 21
34.24
 31
0.0
  0
LINE
  5
20A
100
AcDbEntity
  8
LAY-1
  6
CONTINUOUS
 62
     2
100
AcDbLine
 10
246.619595
 20
34.24
 30
0.0
 11
248.397088
 21
34.24
 31
0.0
  0
LINE
  5
20B
100
AcDbEntity
  8
LAY-1
  6
CONTINUOUS
 62
     2
100
AcDbLine
 10
247.347951
 20
33.116
 30
0.0
 11
247.048039
 21
33.94
 31
0.0
  0
LINE
  5
20C
100
AcDbEntity
  8
LAY-1
  6
CONTINUOUS
 62
     2
100
AcDbLine
 10
247.048039
 20
33.94
 30
0.0
 11
248.187026
 21
33.94
 31
0.0
  0
LINE
  5
20D
100
AcDbEntity
  8
LAY-1
  6
CONTINUOUS
 62
     2
100
AcDbLine
 10
248.187026
 20
33.94
 30
0.0
 11
248.486937
 21
33.116
 31
0.0
  0
LINE
  5
20E
100
AcDbEntity
  8
LAY-1
  6
CONTINUOUS
 62
     2
100
AcDbLine
 10
248.486937
 20
33.116
 30
0.0
 11
250.036
 21
33.116
 31
0.0
  0
LINE
  5
20F
100
AcDbEntity
  8
LAY-1
  6
CONTINUOUS
 62
     2
100
AcDbLine
 10
250.036
 20
33.116
 30
0.0
 11
250.036
 21
33.94
 31
0.0
  0
LINE
  5
210
100
AcDbEntity
  8
LAY-1
  6
CONTINUOUS
 62
     2
100
AcDbLine
 10
250.036
 20
33.94
 30
0.0
 11
250.692
 21
33.94
 31
0.0
  0
LINE
  5
211
100
AcDbEntity
  8
LAY-1
  6
CONTINUOUS
 62
     2
100
AcDbLine
 10
250.692
 20
33.94
 30
0.0
 11
250.692
 21
33.116
 31
0.0
  0
LINE
  5
212
100
AcDbEntity
  8
LAY-1
  6
CONTINUOUS
 62
     2
100
AcDbLine
 10
250.692
 20
33.116
 30
0.0
 11
251.312
 21
33.116
 31
0.0
  0
LINE
  5
213
100
AcDbEntity
  8
LAY-1
  6
CONTINUOUS
 62
     2
100
AcDbLine
 10
248.501496
 20
33.076
 30
0.0
 11
251.055111
 21
26.06
 31
0.0
  0
LINE
  5
214
100
AcDbEntity
  8
LAY-1
  6
CONTINUOUS
 62
     2
100
AcDbLine
 10
251.055111
 20
26.06
 30
0.0
 11
249.916125
 21
26.06
 31
0.0
  0
LINE
  5
215
100
AcDbEntity
  8
LAY-1
  6
CONTINUOUS
 62
     2
100
AcDbLine
 10
249.916125
 20
26.06
 30
0.0
 11
247.362509
 21
33.076
 31
0.0
  0
LINE
  5
216
100
AcDbEntity
  8
LAY-1
  6
CONTINUOUS
 62
     2
100
AcDbLine
 10
240.952
 20
33.116
 30
0.0
 11
247.347951
 21
33.116
 31
0.0
  0
LINE
  5
217
100
AcDbEntity
  8
LAY-1
  6
CONTINUOUS
 62
     2
100
AcDbLine
 10
247.88
 20
33.54
 30
0.0
 11
250.54
 21
26.4
 31
0.0
  0
LINE
  5
218
100
AcDbEntity
  8
LAY-1
  6
CONTINUOUS
 62
     2
100
AcDbLine
 10
247.56
 20
33.56
 30
0.0
 11
250.14
 21
26.28
 31
0.0
  0
LINE
  5
219
100
AcDbEntity
  8
LAY-1
  6
CONTINUOUS
 62
     2
100
AcDbLine
 10
258.206
 20
34.431652
 30
0.0
 11
263.788
 21
32.563941
 31
0.0
  0
LINE
  5
21A
100
AcDbEntity
  8
LAY-1
  6
CONTINUOUS
 62
     2
100
AcDbLine
 10
263.788
 20
32.563941
 30
0.0
 11
263.788
 21
31.892637
 31
0.0
  0
LINE
  5
21B
100
AcDbEntity
  8
LAY-1
  6
CONTINUOUS
 62
     2
100
AcDbLine
 10
263.788
 20
31.892637
 30
0.0
 11
262.026
 21
32.482194
 31
0.0
  0
LINE
  5
21C
100
AcDbEntity
  8
LAY-1
  6
CONTINUOUS
 62
     2
100
AcDbLine
 10
262.026
 20
32.482194
 30
0.0
 11
262.026
 21
31.332
 31
0.0
  0
LINE
  5
21D
100
AcDbEntity
  8
LAY-1
  6
CONTINUOUS
 62
     2
100
AcDbLine
 10
262.026
 20
31.332
 30
0.0
 11
254.386
 21
31.332
 31
0.0
  0
LINE
  5
21E
100
AcDbEntity
  8
LAY-1
  6
CONTINUOUS
 62
     2
100
AcDbLine
 10
254.386
 20
31.332
 30
0.0
 11
254.386
 21
32.482194
 31
0.0
  0
LINE
  5
21F
100
AcDbEntity
  8
LAY-1
  6
CONTINUOUS
 62
     2
100
AcDbLine
 10
254.386
 20
32.482194
 30
0.0
 11
252.624
 21
31.892637
 31
0.0
  0
LINE
  5
220
100
AcDbEntity
  8
LAY-1
  6
CONTINUOUS
 62
     2
100
AcDbLine
 10
252.624
 20
31.892637
 30
0.0
 11
252.624
 21
32.563941
 31
0.0
  0
LINE
  5
221
100
AcDbEntity
  8
LAY-1
  6
CONTINUOUS
 62
     2
100
AcDbLine
 10
252.624
 20
32.563941
 30
0.0
 11
258.206
 21
34.431652
 31
0.0
  0
LINE
  5
222
100
AcDbEntity
  8
LAY-1
  6
CONTINUOUS
 62
     2
100
AcDbLine
 10
254.667794
 20
32.57648
 30
0.0
 11
258.206
 21
33.760348
 31
0.0
  0
LINE
  5
223
100
AcDbEntity
  8
LAY-1
  6
CONTINUOUS
 62
     2
100
AcDbLine
 10
258.206
 20
33.760348
 30
0.0
 11
261.877305
 21
32.531946
 31
0.0
  0
LINE
  5
224
100
AcDbEntity
  8
LAY-1
  6
CONTINUOUS
 62
     2
100
AcDbLine
 10
261.6
 20
31.972
 30
0.0
 11
254.6
 21
31.972
 31
0.0
  0
LINE
  5
225
100
AcDbEntity
  8
LAY-1
  6
CONTINUOUS
 62
     2
100
AcDbLine
 10
252.98
 20
32.32
 30
0.0
 11
258.26
 21
34.12
 31
0.0
  0
LINE
  5
226
100
AcDbEntity
  8
LAY-1
  6
CONTINUOUS
 62
     2
100
AcDbLine
 10
258.24
 20
34.06
 30
0.0
 11
263.48
 21
32.32
 31
0.0
  0
LINE
  5
227
100
AcDbEntity
  8
LAY-1
  6
CONTINUOUS
 62
     2
100
AcDbLine
 10
254.66
 20
31.6
 30
0.0
 11
261.72
 21
31.62
 31
0.0
  0
LINE
  5
228
100
AcDbEntity
  8
LAY-1
  6
CONTINUOUS
 62
     2
100
AcDbLine
 10
263.788
 20
29.908
 30
0.0
 11
263.788
 21
29.268
 31
0.0
  0
LINE
  5
229
100
AcDbEntity
  8
LAY-1
  6
CONTINUOUS
 62
     2
100
AcDbLine
 10
263.788
 20
29.268
 30
0.0
 11
261.981287
 21
29.268
 31
0.0
  0
LINE
  5
22A
100
AcDbEntity
  8
LAY-1
  6
CONTINUOUS
 62
     2
100
AcDbLine
 10
261.981287
 20
29.268
 30
0.0
 11
263.617094
 21
25.76
 31
0.0
  0
LINE
  5
22B
100
AcDbEntity
  8
LAY-1
  6
CONTINUOUS
 62
     2
100
AcDbLine
 10
263.617094
 20
25.76
 30
0.0
 11
252.794906
 21
25.76
 31
0.0
  0
LINE
  5
22C
100
AcDbEntity
  8
LAY-1
  6
CONTINUOUS
 62
     2
100
AcDbLine
 10
252.794906
 20
25.76
 30
0.0
 11
254.430713
 21
29.268
 31
0.0
  0
LINE
  5
22D
100
AcDbEntity
  8
LAY-1
  6
CONTINUOUS
 62
     2
100
AcDbLine
 10
254.430713
 20
29.268
 30
0.0
 11
252.624
 21
29.268
 31
0.0
  0
LINE
  5
22E
100
AcDbEntity
  8
LAY-1
  6
CONTINUOUS
 62
     2
100
AcDbLine
 10
252.624
 20
29.268
 30
0.0
 11
252.624
 21
29.908
 31
0.0
  0
LINE
  5
22F
100
AcDbEntity
  8
LAY-1
  6
CONTINUOUS
 62
     2
100
AcDbLine
 10
252.624
 20
29.908
 30
0.0
 11
263.788
 21
29.908
 31
0.0
  0
LINE
  5
230
100
AcDbEntity
  8
LAY-1
  6
CONTINUOUS
 62
     2
100
AcDbLine
 10
252.924
 20
29.608
 30
0.0
 11
263.488
 21
29.608
 31
0.0
  0
LINE
  5
231
100
AcDbEntity
  8
LAY-1
  6
CONTINUOUS
 62
     2
100
AcDbLine
 10
261.510381
 20
29.568
 30
0.0
 11
263.146189
 21
26.06
 31
0.0
  0
LINE
  5
232
100
AcDbEntity
  8
LAY-1
  6
CONTINUOUS
 62
     2
100
AcDbLine
 10
263.146189
 20
26.06
 30
0.0
 11
253.265811
 21
26.06
 31
0.0
  0
LINE
  5
233
100
AcDbEntity
  8
LAY-1
  6
CONTINUOUS
 62
     2
100
AcDbLine
 10
253.265811
 20
26.06
 30
0.0
 11
254.901619
 21
29.568
 31
0.0
  0
LINE
  5
234
100
AcDbEntity
  8
LAY-1
  6
CONTINUOUS
 62
     2
100
AcDbLine
 10
256.046465
 20
29.268
 30
0.0
 11
260.365535
 21
29.268
 31
0.0
  0
LINE
  5
235
100
AcDbEntity
  8
LAY-1
  6
CONTINUOUS
 62
     2
100
AcDbLine
 10
260.365535
 20
29.268
 30
0.0
 11
261.702906
 21
26.4
 31
0.0
  0
LINE
  5
236
100
AcDbEntity
  8
LAY-1
  6
CONTINUOUS
 62
     2
100
AcDbLine
 10
261.702906
 20
26.4
 30
0.0
 11
254.709094
 21
26.4
 31
0.0
  0
LINE
  5
237
100
AcDbEntity
  8
LAY-1
  6
CONTINUOUS
 62
     2
100
AcDbLine
 10
254.709094
 20
26.4
 30
0.0
 11
256.046465
 21
29.268
 31
0.0
  0
LINE
  5
238
100
AcDbEntity
  8
LAY-1
  6
CONTINUOUS
 62
     2
100
AcDbLine
 10
255.22
 20
29.28
 30
0.0
 11
253.88
 21
26.44
 31
0.0
  0
LINE
  5
239
100
AcDbEntity
  8
LAY-1
  6
CONTINUOUS
 62
     2
100
AcDbLine
 10
255.7
 20
29.32
 30
0.0
 11
254.38
 21
26.44
 31
0.0
  0
LINE
  5
23A
100
AcDbEntity
  8
LAY-1
  6
CONTINUOUS
 62
     2
100
AcDbLine
 10
260.74
 20
29.26
 30
0.0
 11
262.14
 21
26.34
 31
0.0
  0
LINE
  5
23B
100
AcDbEntity
  8
LAY-1
  6
CONTINUOUS
 62
     2
100
AcDbLine
 10
261.26
 20
29.26
 30
0.0
 11
262.64
 21
26.28
 31
0.0
  0
LINE
  5
23C
100
AcDbEntity
  8
LAY-1
  6
CONTINUOUS
 62
     2
100
AcDbLine
 10
268.124
 20
34.24
 30
0.0
 11
268.124
 21
33.416
 31
0.0
  0
LINE
  5
23D
100
AcDbEntity
  8
LAY-1
  6
CONTINUOUS
 62
     2
100
AcDbLine
 10
268.124
 20
33.416
 30
0.0
 11
269.708619
 21
33.416
 31
0.0
  0
LINE
  5
23E
100
AcDbEntity
  8
LAY-1
  6
CONTINUOUS
 62
     2
100
AcDbLine
 10
269.708619
 20
33.416
 30
0.0
 11
267.667493
 21
30.50097
 31
0.0
  0
LINE
  5
23F
100
AcDbEntity
  8
LAY-1
  6
CONTINUOUS
 62
     2
100
AcDbLine
 10
267.667493
 20
30.50097
 30
0.0
 11
269.776
 21
29.024577
 31
0.0
  0
LINE
  5
240
100
AcDbEntity
  8
LAY-1
  6
CONTINUOUS
 62
     2
100
AcDbLine
 10
269.776
 20
29.024577
 30
0.0
 11
269.776
 21
27.530194
 31
0.0
  0
LINE
  5
241
100
AcDbEntity
  8
LAY-1
  6
CONTINUOUS
 62
     2
100
AcDbLine
 10
269.776
 20
27.530194
 30
0.0
 11
268.124
 21
28.686937
 31
0.0
  0
LINE
  5
242
100
AcDbEntity
  8
LAY-1
  6
CONTINUOUS
 62
     2
100
AcDbLine
 10
268.124
 20
28.686937
 30
0.0
 11
268.124
 21
25.76
 31
0.0
  0
LINE
  5
243
100
AcDbEntity
  8
LAY-1
  6
CONTINUOUS
 62
     2
100
AcDbLine
 10
268.124
 20
25.76
 30
0.0
 11
266.66
 21
25.76
 31
0.0
  0
LINE
  5
244
100
AcDbEntity
  8
LAY-1
  6
CONTINUOUS
 62
     2
100
AcDbLine
 10
266.66
 20
25.76
 30
0.0
 11
266.66
 21
29.062121
 31
0.0
  0
LINE
  5
245
100
AcDbEntity
  8
LAY-1
  6
CONTINUOUS
 62
     2
100
AcDbLine
 10
266.66
 20
29.062121
 30
0.0
 11
264.804
 21
26.411478
 31
0.0
  0
LINE
  5
246
100
AcDbEntity
  8
LAY-1
  6
CONTINUOUS
 62
     2
100
AcDbLine
 10
264.804
 20
26.411478
 30
0.0
 11
264.804
 21
28.60541
 31
0.0
  0
LINE
  5
247
100
AcDbEntity
  8
LAY-1
  6
CONTINUOUS
 62
     2
100
AcDbLine
 10
264.804
 20
28.60541
 30
0.0
 11
267.724278
 21
32.776
 31
0.0
  0
LINE
  5
248
100
AcDbEntity
  8
LAY-1
  6
CONTINUOUS
 62
     2
100
AcDbLine
 10
267.724278
 20
32.776
 30
0.0
 11
264.804
 21
32.776
 31
0.0
  0
LINE
  5
249
100
AcDbEntity
  8
LAY-1
  6
CONTINUOUS
 62
     2
100
AcDbLine
 10
264.804
 20
32.776
 30
0.0
 11
264.804
 21
33.416
 31
0.0
  0
LINE
  5
24A
100
AcDbEntity
  8
LAY-1
  6
CONTINUOUS
 62
     2
100
AcDbLine
 10
264.804
 20
33.416
 30
0.0
 11
266.66
 21
33.416
 31
0.0
  0
LINE
  5
24B
100
AcDbEntity
  8
LAY-1
  6
CONTINUOUS
 62
     2
100
AcDbLine
 10
266.66
 20
33.416
 30
0.0
 11
266.66
 21
34.24
 31
0.0
  0
LINE
  5
24C
100
AcDbEntity
  8
LAY-1
  6
CONTINUOUS
 62
     2
100
AcDbLine
 10
266.66
 20
34.24
 30
0.0
 11
268.124
 21
34.24
 31
0.0
  0
LINE
  5
24D
100
AcDbEntity
  8
LAY-1
  6
CONTINUOUS
 62
     2
100
AcDbLine
 10
267.824
 20
33.94
 30
0.0
 11
267.824
 21
33.116
 31
0.0
  0
LINE
  5
24E
100
AcDbEntity
  8
LAY-1
  6
CONTINUOUS
 62
     2
100
AcDbLine
 10
267.824
 20
33.116
 30
0.0
 11
269.132324
 21
33.116
 31
0.0
  0
LINE
  5
24F
100
AcDbEntity
  8
LAY-1
  6
CONTINUOUS
 62
     2
100
AcDbLine
 10
269.132324
 20
33.116
 30
0.0
 11
267.249674
 21
30.427297
 31
0.0
  0
LINE
  5
250
100
AcDbEntity
  8
LAY-1
  6
CONTINUOUS
 62
     2
100
AcDbLine
 10
267.249674
 20
30.427297
 30
0.0
 11
269.476
 21
28.868407
 31
0.0
  0
LINE
  5
251
100
AcDbEntity
  8
LAY-1
  6
CONTINUOUS
 62
     2
100
AcDbLine
 10
269.476
 20
28.868407
 30
0.0
 11
269.476
 21
28.106489
 31
0.0
  0
LINE
  5
252
100
AcDbEntity
  8
LAY-1
  6
CONTINUOUS
 62
     2
100
AcDbLine
 10
269.476
 20
28.106489
 30
0.0
 11
267.824
 21
29.263232
 31
0.0
  0
LINE
  5
253
100
AcDbEntity
  8
LAY-1
  6
CONTINUOUS
 62
     2
100
AcDbLine
 10
267.824
 20
29.263232
 30
0.0
 11
267.824
 21
26.06
 31
0.0
  0
LINE
  5
254
100
AcDbEntity
  8
LAY-1
  6
CONTINUOUS
 62
     2
100
AcDbLine
 10
267.824
 20
26.06
 30
0.0
 11
266.96
 21
26.06
 31
0.0
  0
LINE
  5
255
100
AcDbEntity
  8
LAY-1
  6
CONTINUOUS
 62
     2
100
AcDbLine
 10
266.96
 20
26.06
 30
0.0
 11
266.96
 21
30.0136
 31
0.0
  0
LINE
  5
256
100
AcDbEntity
  8
LAY-1
  6
CONTINUOUS
 62
     2
100
AcDbLine
 10
266.96
 20
30.0136
 30
0.0
 11
265.104
 21
27.362957
 31
0.0
  0
LINE
  5
257
100
AcDbEntity
  8
LAY-1
  6
CONTINUOUS
 62
     2
100
AcDbLine
 10
265.104
 20
27.362957
 30
0.0
 11
265.104
 21
28.510821
 31
0.0
  0
LINE
  5
258
100
AcDbEntity
  8
LAY-1
  6
CONTINUOUS
 62
     2
100
AcDbLine
 10
265.104
 20
28.510821
 30
0.0
 11
268.300573
 21
33.076
 31
0.0
  0
LINE
  5
259
100
AcDbEntity
  8
LAY-1
  6
CONTINUOUS
 62
     2
100
AcDbLine
 10
265.104
 20
33.116
 30
0.0
 11
266.96
 21
33.116
 31
0.0
  0
LINE
  5
25A
100
AcDbEntity
  8
LAY-1
  6
CONTINUOUS
 62
     2
100
AcDbLine
 10
266.96
 20
33.116
 30
0.0
 11
266.96
 21
33.94
 31
0.0
  0
LINE
  5
25B
100
AcDbEntity
  8
LAY-1
  6
CONTINUOUS
 62
     2
100
AcDbLine
 10
266.96
 20
33.94
 30
0.0
 11
267.824
 21
33.94
 31
0.0
  0
LINE
  5
25C
100
AcDbEntity
  8
LAY-1
  6
CONTINUOUS
 62
     2
100
AcDbLine
 10
267.32
 20
33.64
 30
0.0
 11
267.32
 21
33.08
 31
0.0
  0
LINE
  5
25D
100
AcDbEntity
  8
LAY-1
  6
CONTINUOUS
 62
     2
100
AcDbLine
 10
267.38
 20
29.62
 30
0.0
 11
267.38
 21
26.4
 31
0.0
  0
LINE
  5
25E
100
AcDbEntity
  8
LAY-1
  6
CONTINUOUS
 62
     2
100
AcDbLine
 10
268.4
 20
32.72
 30
0.0
 11
265.38
 21
28.36
 31
0.0
  0
LINE
  5
25F
100
AcDbEntity
  8
LAY-1
  6
CONTINUOUS
 62
     2
100
AcDbLine
 10
267.04
 20
30.22
 30
0.0
 11
269.2
 21
28.7
 31
0.0
  0
LINE
  5
260
100
AcDbEntity
  8
LAY-1
  6
CONTINUOUS
 62
     2
100
AcDbLine
 10
272.236
 20
34.24
 30
0.0
 11
273.7
 21
34.24
 31
0.0
  0
LINE
  5
261
100
AcDbEntity
  8
LAY-1
  6
CONTINUOUS
 62
     2
100
AcDbLine
 10
273.7
 20
34.24
 30
0.0
 11
273.7
 21
31.972
 31
0.0
  0
LINE
  5
262
100
AcDbEntity
  8
LAY-1
  6
CONTINUOUS
 62
     2
100
AcDbLine
 10
273.7
 20
31.972
 30
0.0
 11
275.56
 21
31.972
 31
0.0
  0
LINE
  5
263
100
AcDbEntity
  8
LAY-1
  6
CONTINUOUS
 62
     2
100
AcDbLine
 10
275.56
 20
31.972
 30
0.0
 11
275.56
 21
31.332
 31
0.0
  0
LINE
  5
264
100
AcDbEntity
  8
LAY-1
  6
CONTINUOUS
 62
     2
100
AcDbLine
 10
275.56
 20
31.332
 30
0.0
 11
273.7
 21
31.332
 31
0.0
  0
LINE
  5
265
100
AcDbEntity
  8
LAY-1
  6
CONTINUOUS
 62
     2
100
AcDbLine
 10
273.7
 20
31.332
 30
0.0
 11
273.7
 21
26.4
 31
0.0
  0
LINE
  5
266
100
AcDbEntity
  8
LAY-1
  6
CONTINUOUS
 62
     2
100
AcDbLine
 10
273.7
 20
26.4
 30
0.0
 11
275.764
 21
26.4
 31
0.0
  0
LINE
  5
267
100
AcDbEntity
  8
LAY-1
  6
CONTINUOUS
 62
     2
100
AcDbLine
 10
275.764
 20
26.4
 30
0.0
 11
275.764
 21
25.76
 31
0.0
  0
LINE
  5
268
100
AcDbEntity
  8
LAY-1
  6
CONTINUOUS
 62
     2
100
AcDbLine
 10
275.764
 20
25.76
 30
0.0
 11
269.552
 21
25.76
 31
0.0
  0
LINE
  5
269
100
AcDbEntity
  8
LAY-1
  6
CONTINUOUS
 62
     2
100
AcDbLine
 10
269.552
 20
25.76
 30
0.0
 11
269.552
 21
26.4
 31
0.0
  0
LINE
  5
26A
100
AcDbEntity
  8
LAY-1
  6
CONTINUOUS
 62
     2
100
AcDbLine
 10
269.552
 20
26.4
 30
0.0
 11
272.236
 21
26.4
 31
0.0
  0
LINE
  5
26B
100
AcDbEntity
  8
LAY-1
  6
CONTINUOUS
 62
     2
100
AcDbLine
 10
272.236
 20
26.4
 30
0.0
 11
272.236
 21
31.332
 31
0.0
  0
LINE
  5
26C
100
AcDbEntity
  8
LAY-1
  6
CONTINUOUS
 62
     2
100
AcDbLine
 10
272.236
 20
31.332
 30
0.0
 11
270.376
 21
31.332
 31
0.0
  0
LINE
  5
26D
100
AcDbEntity
  8
LAY-1
  6
CONTINUOUS
 62
     2
100
AcDbLine
 10
270.376
 20
31.332
 30
0.0
 11
270.376
 21
31.972
 31
0.0
  0
LINE
  5
26E
100
AcDbEntity
  8
LAY-1
  6
CONTINUOUS
 62
     2
100
AcDbLine
 10
270.376
 20
31.972
 30
0.0
 11
272.236
 21
31.972
 31
0.0
  0
LINE
  5
26F
100
AcDbEntity
  8
LAY-1
  6
CONTINUOUS
 62
     2
100
AcDbLine
 10
272.236
 20
31.972
 30
0.0
 11
272.236
 21
34.24
 31
0.0
  0
LINE
  5
270
100
AcDbEntity
  8
LAY-1
  6
CONTINUOUS
 62
     2
100
AcDbLine
 10
273.4
 20
33.94
 30
0.0
 11
273.4
 21
31.672
 31
0.0
  0
LINE
  5
271
100
AcDbEntity
  8
LAY-1
  6
CONTINUOUS
 62
     2
100
AcDbLine
 10
273.4
 20
31.672
 30
0.0
 11
275.26
 21
31.672
 31
0.0
  0
LINE
  5
272
100
AcDbEntity
  8
LAY-1
  6
CONTINUOUS
 62
     2
100
AcDbLine
 10
273.4
 20
31.632
 30
0.0
 11
273.4
 21
26.1
 31
0.0
  0
LINE
  5
273
100
AcDbEntity
  8
LAY-1
  6
CONTINUOUS
 62
     2
100
AcDbLine
 10
275.464
 20
26.06
 30
0.0
 11
269.852
 21
26.06
 31
0.0
  0
LINE
  5
274
100
AcDbEntity
  8
LAY-1
  6
CONTINUOUS
 62
     2
100
AcDbLine
 10
272.536
 20
26.1
 30
0.0
 11
272.536
 21
31.632
 31
0.0
  0
LINE
  5
275
100
AcDbEntity
  8
LAY-1
  6
CONTINUOUS
 62
     2
100
AcDbLine
 10
270.676
 20
31.672
 30
0.0
 11
272.536
 21
31.672
 31
0.0
  0
LINE
  5
276
100
AcDbEntity
  8
LAY-1
  6
CONTINUOUS
 62
     2
100
AcDbLine
 10
272.536
 20
31.672
 30
0.0
 11
272.536
 21
33.94
 31
0.0
  0
LINE
  5
277
100
AcDbEntity
  8
LAY-1
  6
CONTINUOUS
 62
     2
100
AcDbLine
 10
272.536
 20
33.94
 30
0.0
 11
273.4
 21
33.94
 31
0.0
  0
LINE
  5
278
100
AcDbEntity
  8
LAY-1
  6
CONTINUOUS
 62
     2
100
AcDbLine
 10
272.94
 20
33.62
 30
0.0
 11
272.94
 21
26.36
 31
0.0
  0
LINE
  5
279
100
AcDbEntity
  8
LAY-1
  6
CONTINUOUS
 62
     2
100
AcDbLine
 10
221.12
 20
31.04
 30
0.0
 11
222.96
 21
31.04
 31
0.0
  0
LINE
  5
27A
100
AcDbEntity
  8
LAY-1
  6
CONTINUOUS
 62
     2
100
AcDbLine
 10
232.36
 20
32.776
 30
0.0
 11
232.06
 21
32.776
 31
0.0
  0
LINE
  5
27B
100
AcDbEntity
  8
LAY-1
  6
CONTINUOUS
 62
     2
100
AcDbLine
 10
230.46
 20
32.776
 30
0.0
 11
228.52
 21
32.776
 31
0.0
  0
LINE
  5
27C
100
AcDbEntity
  8
LAY-1
  6
CONTINUOUS
 62
     2
100
AcDbLine
 10
239.54
 20
32.776
 30
0.0
 11
237.6
 21
32.776
 31
0.0
  0
LINE
  5
27D
100
AcDbEntity
  8
LAY-1
  6
CONTINUOUS
 62
     2
100
AcDbLine
 10
235.62
 20
32.776
 30
0.0
 11
234.64
 21
32.776
 31
0.0
  0
LINE
  5
27E
100
AcDbEntity
  8
LAY-1
  6
CONTINUOUS
 62
     2
100
AcDbLine
 10
233.16
 20
30.712
 30
0.0
 11
235.52
 21
30.712
 31
0.0
  0
LINE
  5
27F
100
AcDbEntity
  8
LAY-1
  6
CONTINUOUS
 62
     2
100
AcDbLine
 10
237.48
 20
30.712
 30
0.0
 11
239.56
 21
30.712
 31
0.0
  0
LINE
  5
280
100
AcDbEntity
  8
LAY-1
  6
CONTINUOUS
 62
     3
100
AcDbLine
 10
168.112
 20
32.272
 30
0.0
 11
168.112
 21
30.828
 31
0.0
  0
LINE
  5
281
100
AcDbEntity
  8
LAY-1
  6
CONTINUOUS
 62
     3
100
AcDbLine
 10
177.816
 20
27.524
 30
0.0
 11
177.816
 21
25.46
 31
0.0
  0
LINE
  5
282
100
AcDbEntity
  8
LAY-1
  6
CONTINUOUS
 62
     3
100
AcDbLine
 10
190.192
 20
27.524
 30
0.0
 11
190.192
 21
25.46
 31
0.0
  0
LINE
  5
283
100
AcDbEntity
  8
LAY-1
  6
CONTINUOUS
 62
     3
100
AcDbLine
 10
204.44
 20
27.112
 30
0.0
 11
204.44
 21
25.46
 31
0.0
  0
LINE
  5
284
100
AcDbEntity
  8
LAY-1
  6
CONTINUOUS
 62
     3
100
AcDbLine
 10
240.352
 20
33.716
 30
0.0
 11
240.352
 21
32.476
 31
0.0
  0
LINE
  5
285
100
AcDbEntity
  8
LAY-1
  6
CONTINUOUS
 62
     3
100
AcDbLine
 10
167.496
 20
34.54
 30
0.0
 11
167.496
 21
32.856
 31
0.0
  0
LINE
  5
286
100
AcDbEntity
  8
LAY-1
  6
CONTINUOUS
 62
     3
100
AcDbLine
 10
155.936
 20
30.204
 30
0.0
 11
161.716
 21
30.204
 31
0.0
  0
LINE
  5
287
100
AcDbEntity
  8
LAY-1
  6
CONTINUOUS
 62
     3
100
AcDbLine
 10
155.936
 20
31.888
 30
0.0
 11
161.716
 21
31.888
 31
0.0
  0
LINE
  5
288
100
AcDbEntity
  8
LAY-1
  6
CONTINUOUS
 62
     3
100
AcDbLine
 10
155.936
 20
27.524
 30
0.0
 11
161.619962
 21
27.524
 31
0.0
  0
LINE
  5
289
100
AcDbEntity
  8
LAY-1
  6
CONTINUOUS
 62
     3
100
AcDbLine
 10
165.844
 20
34.54
 30
0.0
 11
165.844
 21
32.856
 31
0.0
  0
LINE
  5
28A
100
AcDbEntity
  8
LAY-1
  6
CONTINUOUS
 62
     3
100
AcDbLine
 10
163.576
 20
34.54
 30
0.0
 11
163.576
 21
32.856
 31
0.0
  0
LINE
  5
28B
100
AcDbEntity
  8
LAY-1
  6
CONTINUOUS
 62
     3
100
AcDbLine
 10
165.228
 20
34.54
 30
0.0
 11
165.228
 21
32.856
 31
0.0
  0
LINE
  5
28C
100
AcDbEntity
  8
LAY-1
  6
CONTINUOUS
 62
     3
100
AcDbLine
 10
167.496
 20
32.272
 30
0.0
 11
164.968
 21
32.272
 31
0.0
  0
LINE
  5
28D
100
AcDbEntity
  8
LAY-1
  6
CONTINUOUS
 62
     3
100
AcDbLine
 10
167.496
 20
32.272
 30
0.0
 11
165.19147
 21
27.547013
 31
0.0
  0
LINE
  5
28E
100
AcDbEntity
  8
LAY-1
  6
CONTINUOUS
 62
     3
100
AcDbLine
 10
164.968
 20
32.272
 30
0.0
 11
163.104769
 21
28.451811
 31
0.0
  0
ARC
  5
28F
100
AcDbEntity
  8
LAY-1
  6
CONTINUOUS
 62
     3
100
AcDbCircle
 10
161.851551
 20
29.176
 30
0.0
 40
3.716
100
AcDbArc
 50
270.0
 51
334.0
  0
ARC
  5
290
100
AcDbEntity
  8
LAY-1
  6
CONTINUOUS
 62
     3
100
AcDbCircle
 10
161.619962
 20
29.176
 30
0.0
 40
1.652
100
AcDbArc
 50
270.0
 51
334.0
  0
LINE
  5
291
100
AcDbEntity
  8
LAY-1
  6
CONTINUOUS
 62
     3
100
AcDbLine
 10
155.936
 20
34.54
 30
0.0
 11
155.936
 21
32.856
 31
0.0
  0
LINE
  5
292
100
AcDbEntity
  8
LAY-1
  6
CONTINUOUS
 62
     3
100
AcDbLine
 10
155.936
 20
31.888
 30
0.0
 11
155.936
 21
30.204
 31
0.0
  0
LINE
  5
293
100
AcDbEntity
  8
LAY-1
  6
CONTINUOUS
 62
     3
100
AcDbLine
 10
155.936
 20
27.524
 30
0.0
 11
155.936
 21
25.46
 31
0.0
  0
LINE
  5
294
100
AcDbEntity
  8
LAY-1
  6
CONTINUOUS
 62
     3
100
AcDbLine
 10
165.844
 20
34.54
 30
0.0
 11
167.496
 21
34.54
 31
0.0
  0
LINE
  5
295
100
AcDbEntity
  8
LAY-1
  6
CONTINUOUS
 62
     3
100
AcDbLine
 10
155.936
 20
34.54
 30
0.0
 11
161.716
 21
34.54
 31
0.0
  0
LINE
  5
296
100
AcDbEntity
  8
LAY-1
  6
CONTINUOUS
 62
     3
100
AcDbLine
 10
163.576
 20
34.54
 30
0.0
 11
165.228
 21
34.54
 31
0.0
  0
LINE
  5
297
100
AcDbEntity
  8
LAY-1
  6
CONTINUOUS
 62
     3
100
AcDbLine
 10
155.936
 20
32.856
 30
0.0
 11
161.716
 21
32.856
 31
0.0
  0
LINE
  5
298
100
AcDbEntity
  8
LAY-1
  6
CONTINUOUS
 62
     3
100
AcDbLine
 10
163.576
 20
32.856
 30
0.0
 11
165.228
 21
32.856
 31
0.0
  0
LINE
  5
299
100
AcDbEntity
  8
LAY-1
  6
CONTINUOUS
 62
     3
100
AcDbLine
 10
165.844
 20
32.856
 30
0.0
 11
167.496
 21
32.856
 31
0.0
  0
LINE
  5
29A
100
AcDbEntity
  8
LAY-1
  6
CONTINUOUS
 62
     3
100
AcDbLine
 10
161.716
 20
34.54
 30
0.0
 11
161.716
 21
32.856
 31
0.0
  0
LINE
  5
29B
100
AcDbEntity
  8
LAY-1
  6
CONTINUOUS
 62
     3
100
AcDbLine
 10
161.716
 20
31.888
 30
0.0
 11
161.716
 21
30.204
 31
0.0
  0
LINE
  5
29C
100
AcDbEntity
  8
LAY-1
  6
CONTINUOUS
 62
     3
100
AcDbLine
 10
155.936
 20
25.46
 30
0.0
 11
161.851551
 21
25.46
 31
0.0
  0
LINE
  5
29D
100
AcDbEntity
  8
LAY-1
  6
CONTINUOUS
 62
     3
100
AcDbLine
 10
169.764
 20
33.716
 30
0.0
 11
172.064
 21
33.716
 31
0.0
  0
LINE
  5
29E
100
AcDbEntity
  8
LAY-1
  6
CONTINUOUS
 62
     3
100
AcDbLine
 10
178.02
 20
32.272
 30
0.0
 11
176.821775
 21
29.580743
 31
0.0
  0
LINE
  5
29F
100
AcDbEntity
  8
LAY-1
  6
CONTINUOUS
 62
     3
100
AcDbLine
 10
173.6376
 20
27.744
 30
0.0
 11
173.993439
 21
27.744
 31
0.0
  0
LINE
  5
2A0
100
AcDbEntity
  8
LAY-1
  6
CONTINUOUS
 62
     3
100
AcDbLine
 10
174.892
 20
30.828
 30
0.0
 11
174.507165
 21
29.963647
 31
0.0
  0
LINE
  5
2A1
100
AcDbEntity
  8
LAY-1
  6
CONTINUOUS
 62
     3
100
AcDbLine
 10
173.402507
 20
29.228319
 30
0.0
 11
173.6376
 21
27.744
 31
0.0
  0
ARC
  5
2A2
100
AcDbEntity
  8
LAY-1
  6
CONTINUOUS
 62
     3
100
AcDbCircle
 10
173.993439
 20
30.84
 30
0.0
 40
3.096
100
AcDbArc
 50
270.0
 51
336.0
  0
ARC
  5
2A3
100
AcDbEntity
  8
LAY-1
  6
CONTINUOUS
 62
     3
100
AcDbCircle
 10
173.374369
 20
30.468
 30
0.0
 40
1.24
100
AcDbArc
 50
271.300286
 51
336.0
  0
LINE
  5
2A4
100
AcDbEntity
  8
LAY-1
  6
CONTINUOUS
 62
     3
100
AcDbLine
 10
171.071622
 20
25.46
 30
0.0
 11
173.371622
 21
25.46
 31
0.0
  0
LINE
  5
2A5
100
AcDbEntity
  8
LAY-1
  6
CONTINUOUS
 62
     3
100
AcDbLine
 10
168.112
 20
32.272
 30
0.0
 11
169.992707
 21
32.272
 31
0.0
  0
LINE
  5
2A6
100
AcDbEntity
  8
LAY-1
  6
CONTINUOUS
 62
     3
100
AcDbLine
 10
172.292707
 20
32.272
 30
0.0
 11
178.02
 21
32.272
 31
0.0
  0
LINE
  5
2A7
100
AcDbEntity
  8
LAY-1
  6
CONTINUOUS
 62
     3
100
AcDbLine
 10
168.112
 20
30.828
 30
0.0
 11
170.221414
 21
30.828
 31
0.0
  0
LINE
  5
2A8
100
AcDbEntity
  8
LAY-1
  6
CONTINUOUS
 62
     3
100
AcDbLine
 10
172.521414
 20
30.828
 30
0.0
 11
174.892
 21
30.828
 31
0.0
  0
LINE
  5
2A9
100
AcDbEntity
  8
LAY-1
  6
CONTINUOUS
 62
     3
100
AcDbLine
 10
169.764
 20
33.716
 30
0.0
 11
169.992707
 21
32.272
 31
0.0
  0
LINE
  5
2AA
100
AcDbEntity
  8
LAY-1
  6
CONTINUOUS
 62
     3
100
AcDbLine
 10
170.221414
 20
30.828
 30
0.0
 11
171.071622
 21
25.46
 31
0.0
  0
LINE
  5
2AB
100
AcDbEntity
  8
LAY-1
  6
CONTINUOUS
 62
     3
100
AcDbLine
 10
172.064
 20
33.716
 30
0.0
 11
172.292707
 21
32.272
 31
0.0
  0
LINE
  5
2AC
100
AcDbEntity
  8
LAY-1
  6
CONTINUOUS
 62
     3
100
AcDbLine
 10
172.521414
 20
30.828
 30
0.0
 11
173.371622
 21
25.46
 31
0.0
  0
LINE
  5
2AD
100
AcDbEntity
  8
LAY-1
  6
CONTINUOUS
 62
     3
100
AcDbLine
 10
178.542
 20
32.476
 30
0.0
 11
188.45
 21
32.476
 31
0.0
  0
LINE
  5
2AE
100
AcDbEntity
  8
LAY-1
  6
CONTINUOUS
 62
     3
100
AcDbLine
 10
177.816
 20
27.524
 30
0.0
 11
189.176
 21
27.524
 31
0.0
  0
LINE
  5
2AF
100
AcDbEntity
  8
LAY-1
  6
CONTINUOUS
 62
     3
100
AcDbLine
 10
178.542
 20
34.54
 30
0.0
 11
178.542
 21
32.476
 31
0.0
  0
LINE
  5
2B0
100
AcDbEntity
  8
LAY-1
  6
CONTINUOUS
 62
     3
100
AcDbLine
 10
188.45
 20
34.54
 30
0.0
 11
188.45
 21
32.476
 31
0.0
  0
LINE
  5
2B1
100
AcDbEntity
  8
LAY-1
  6
CONTINUOUS
 62
     3
100
AcDbLine
 10
189.176
 20
27.524
 30
0.0
 11
189.176
 21
25.46
 31
0.0
  0
LINE
  5
2B2
100
AcDbEntity
  8
LAY-1
  6
CONTINUOUS
 62
     3
100
AcDbLine
 10
178.542
 20
34.54
 30
0.0
 11
188.45
 21
34.54
 31
0.0
  0
LINE
  5
2B3
100
AcDbEntity
  8
LAY-1
  6
CONTINUOUS
 62
     3
100
AcDbLine
 10
177.816
 20
25.46
 30
0.0
 11
189.176
 21
25.46
 31
0.0
  0
LINE
  5
2B4
100
AcDbEntity
  8
LAY-1
  6
CONTINUOUS
 62
     3
100
AcDbLine
 10
190.82
 20
34.54
 30
0.0
 11
190.82
 21
32.476
 31
0.0
  0
LINE
  5
2B5
100
AcDbEntity
  8
LAY-1
  6
CONTINUOUS
 62
     3
100
AcDbLine
 10
190.82
 20
32.476
 30
0.0
 11
197.248
 21
32.476
 31
0.0
  0
LINE
  5
2B6
100
AcDbEntity
  8
LAY-1
  6
CONTINUOUS
 62
     3
100
AcDbLine
 10
190.192
 20
27.524
 30
0.0
 11
192.598501
 21
27.524
 31
0.0
  0
LINE
  5
2B7
100
AcDbEntity
  8
LAY-1
  6
CONTINUOUS
 62
     3
100
AcDbLine
 10
197.248
 20
32.476
 30
0.0
 11
194.268312
 21
28.374811
 31
0.0
  0
LINE
  5
2B8
100
AcDbEntity
  8
LAY-1
  6
CONTINUOUS
 62
     3
100
AcDbLine
 10
202.376
 20
25.46
 30
0.0
 11
197.827627
 21
29.41384
 31
0.0
  0
LINE
  5
2B9
100
AcDbEntity
  8
LAY-1
  6
CONTINUOUS
 62
     3
100
AcDbLine
 10
199.368
 20
25.46
 30
0.0
 11
196.663246
 21
27.811207
 31
0.0
  0
ARC
  5
2BA
100
AcDbEntity
  8
LAY-1
  6
CONTINUOUS
 62
     3
100
AcDbCircle
 10
193.061597
 20
29.176
 30
0.0
 40
3.716
100
AcDbArc
 50
270.0
 51
324.0
  0
ARC
  5
2BB
100
AcDbEntity
  8
LAY-1
  6
CONTINUOUS
 62
     3
100
AcDbCircle
 10
192.598501
 20
29.588
 30
0.0
 40
2.064
100
AcDbArc
 50
270.0
 51
324.0
  0
LINE
  5
2BC
100
AcDbEntity
  8
LAY-1
  6
CONTINUOUS
 62
     3
100
AcDbLine
 10
190.192
 20
25.46
 30
0.0
 11
193.061597
 21
25.46
 31
0.0
  0
LINE
  5
2BD
100
AcDbEntity
  8
LAY-1
  6
CONTINUOUS
 62
     3
100
AcDbLine
 10
199.368
 20
25.46
 30
0.0
 11
202.376
 21
25.46
 31
0.0
  0
LINE
  5
2BE
100
AcDbEntity
  8
LAY-1
  6
CONTINUOUS
 62
     3
100
AcDbLine
 10
201.552
 20
34.54
 30
0.0
 11
197.827627
 21
29.41384
 31
0.0
  0
LINE
  5
2BF
100
AcDbEntity
  8
LAY-1
  6
CONTINUOUS
 62
     3
100
AcDbLine
 10
196.663246
 20
27.811207
 30
0.0
 11
196.067904
 21
26.99179
 31
0.0
  0
LINE
  5
2C0
100
AcDbEntity
  8
LAY-1
  6
CONTINUOUS
 62
     3
100
AcDbLine
 10
190.82
 20
34.54
 30
0.0
 11
201.552
 21
34.54
 31
0.0
  0
LINE
  5
2C1
100
AcDbEntity
  8
LAY-1
  6
CONTINUOUS
 62
     3
100
AcDbLine
 10
216.0
 20
27.112
 30
0.0
 11
216.0
 21
25.46
 31
0.0
  0
LINE
  5
2C2
100
AcDbEntity
  8
LAY-1
  6
CONTINUOUS
 62
     3
100
AcDbLine
 10
204.44
 20
25.46
 30
0.0
 11
216.0
 21
25.46
 31
0.0
  0
LINE
  5
2C3
100
AcDbEntity
  8
LAY-1
  6
CONTINUOUS
 62
     3
100
AcDbLine
 10
209.084
 20
33.096
 30
0.0
 11
209.084
 21
27.112
 31
0.0
  0
LINE
  5
2C4
100
AcDbEntity
  8
LAY-1
  6
CONTINUOUS
 62
     3
100
AcDbLine
 10
211.356
 20
33.096
 30
0.0
 11
211.356
 21
27.112
 31
0.0
  0
LINE
  5
2C5
100
AcDbEntity
  8
LAY-1
  6
CONTINUOUS
 62
     3
100
AcDbLine
 10
204.854
 20
34.54
 30
0.0
 11
204.854
 21
33.096
 31
0.0
  0
LINE
  5
2C6
100
AcDbEntity
  8
LAY-1
  6
CONTINUOUS
 62
     3
100
AcDbLine
 10
215.586
 20
34.54
 30
0.0
 11
215.586
 21
33.096
 31
0.0
  0
LINE
  5
2C7
100
AcDbEntity
  8
LAY-1
  6
CONTINUOUS
 62
     3
100
AcDbLine
 10
204.854
 20
33.096
 30
0.0
 11
209.084
 21
33.096
 31
0.0
  0
LINE
  5
2C8
100
AcDbEntity
  8
LAY-1
  6
CONTINUOUS
 62
     3
100
AcDbLine
 10
211.356
 20
33.096
 30
0.0
 11
215.586
 21
33.096
 31
0.0
  0
LINE
  5
2C9
100
AcDbEntity
  8
LAY-1
  6
CONTINUOUS
 62
     3
100
AcDbLine
 10
204.44
 20
27.112
 30
0.0
 11
209.084
 21
27.112
 31
0.0
  0
LINE
  5
2CA
100
AcDbEntity
  8
LAY-1
  6
CONTINUOUS
 62
     3
100
AcDbLine
 10
211.356
 20
27.112
 30
0.0
 11
216.0
 21
27.112
 31
0.0
  0
LINE
  5
2CB
100
AcDbEntity
  8
LAY-1
  6
CONTINUOUS
 62
     3
100
AcDbLine
 10
204.854
 20
34.54
 30
0.0
 11
215.586
 21
34.54
 31
0.0
  0
LINE
  5
2CC
100
AcDbEntity
  8
LAY-1
  6
CONTINUOUS
 62
     3
100
AcDbLine
 10
223.016
 20
27.524
 30
0.0
 11
225.3
 21
25.46
 31
0.0
  0
LINE
  5
2CD
100
AcDbEntity
  8
LAY-1
  6
CONTINUOUS
 62
     3
100
AcDbLine
 10
220.952
 20
27.524
 30
0.0
 11
218.668
 21
25.46
 31
0.0
  0
LINE
  5
2CE
100
AcDbEntity
  8
LAY-1
  6
CONTINUOUS
 62
     3
100
AcDbLine
 10
225.48
 20
27.524
 30
0.0
 11
227.764
 21
25.46
 31
0.0
  0
LINE
  5
2CF
100
AcDbEntity
  8
LAY-1
  6
CONTINUOUS
 62
     3
100
AcDbLine
 10
218.488
 20
27.524
 30
0.0
 11
216.204
 21
25.46
 31
0.0
  0
LINE
  5
2D0
100
AcDbEntity
  8
LAY-1
  6
CONTINUOUS
 62
     3
100
AcDbLine
 10
222.292
 20
34.54
 30
0.0
 11
222.292
 21
33.3
 31
0.0
  0
LINE
  5
2D1
100
AcDbEntity
  8
LAY-1
  6
CONTINUOUS
 62
     3
100
AcDbLine
 10
221.676
 20
34.54
 30
0.0
 11
221.676
 21
33.3
 31
0.0
  0
LINE
  5
2D2
100
AcDbEntity
  8
LAY-1
  6
CONTINUOUS
 62
     3
100
AcDbLine
 10
224.048
 20
34.54
 30
0.0
 11
224.048
 21
33.3
 31
0.0
  0
LINE
  5
2D3
100
AcDbEntity
  8
LAY-1
  6
CONTINUOUS
 62
     3
100
AcDbLine
 10
227.244
 20
34.54
 30
0.0
 11
226.275206
 21
33.3
 31
0.0
  0
LINE
  5
2D4
100
AcDbEntity
  8
LAY-1
  6
CONTINUOUS
 62
     3
100
AcDbLine
 10
225.412
 20
34.54
 30
0.0
 11
224.443206
 21
33.3
 31
0.0
  0
LINE
  5
2D5
100
AcDbEntity
  8
LAY-1
  6
CONTINUOUS
 62
     3
100
AcDbLine
 10
219.92
 20
34.54
 30
0.0
 11
219.92
 21
33.3
 31
0.0
  0
LINE
  5
2D6
100
AcDbEntity
  8
LAY-1
  6
CONTINUOUS
 62
     3
100
AcDbLine
 10
218.556
 20
34.54
 30
0.0
 11
219.524794
 21
33.3
 31
0.0
  0
LINE
  5
2D7
100
AcDbEntity
  8
LAY-1
  6
CONTINUOUS
 62
     3
100
AcDbLine
 10
216.724
 20
34.54
 30
0.0
 11
217.692794
 21
33.3
 31
0.0
  0
LINE
  5
2D8
100
AcDbEntity
  8
LAY-1
  6
CONTINUOUS
 62
     3
100
AcDbLine
 10
225.212
 20
31.32
 30
0.0
 11
225.587617
 21
32.352
 31
0.0
  0
LINE
  5
2D9
100
AcDbEntity
  8
LAY-1
  6
CONTINUOUS
 62
     3
100
AcDbLine
 10
223.016
 20
31.32
 30
0.0
 11
223.391617
 21
32.352
 31
0.0
  0
LINE
  5
2DA
100
AcDbEntity
  8
LAY-1
  6
CONTINUOUS
 62
     3
100
AcDbLine
 10
220.952
 20
31.32
 30
0.0
 11
220.576383
 21
32.352
 31
0.0
  0
LINE
  5
2DB
100
AcDbEntity
  8
LAY-1
  6
CONTINUOUS
 62
     3
100
AcDbLine
 10
218.756
 20
31.32
 30
0.0
 11
218.380383
 21
32.352
 31
0.0
  0
LINE
  5
2DC
100
AcDbEntity
  8
LAY-1
  6
CONTINUOUS
 62
     3
100
AcDbLine
 10
216.724
 20
34.54
 30
0.0
 11
218.556
 21
34.54
 31
0.0
  0
LINE
  5
2DD
100
AcDbEntity
  8
LAY-1
  6
CONTINUOUS
 62
     3
100
AcDbLine
 10
219.92
 20
34.54
 30
0.0
 11
221.676
 21
34.54
 31
0.0
  0
LINE
  5
2DE
100
AcDbEntity
  8
LAY-1
  6
CONTINUOUS
 62
     3
100
AcDbLine
 10
222.292
 20
34.54
 30
0.0
 11
224.048
 21
34.54
 31
0.0
  0
LINE
  5
2DF
100
AcDbEntity
  8
LAY-1
  6
CONTINUOUS
 62
     3
100
AcDbLine
 10
225.412
 20
34.54
 30
0.0
 11
227.244
 21
34.54
 31
0.0
  0
LINE
  5
2E0
100
AcDbEntity
  8
LAY-1
  6
CONTINUOUS
 62
     3
100
AcDbLine
 10
216.204
 20
33.3
 30
0.0
 11
216.204
 21
32.352
 31
0.0
  0
LINE
  5
2E1
100
AcDbEntity
  8
LAY-1
  6
CONTINUOUS
 62
     3
100
AcDbLine
 10
216.204
 20
31.32
 30
0.0
 11
216.204
 21
30.544
 31
0.0
  0
LINE
  5
2E2
100
AcDbEntity
  8
LAY-1
  6
CONTINUOUS
 62
     3
100
AcDbLine
 10
216.204
 20
29.896
 30
0.0
 11
216.204
 21
28.948
 31
0.0
  0
LINE
  5
2E3
100
AcDbEntity
  8
LAY-1
  6
CONTINUOUS
 62
     3
100
AcDbLine
 10
216.204
 20
28.3
 30
0.0
 11
216.204
 21
27.524
 31
0.0
  0
LINE
  5
2E4
100
AcDbEntity
  8
LAY-1
  6
CONTINUOUS
 62
     3
100
AcDbLine
 10
216.204
 20
25.46
 30
0.0
 11
218.668
 21
25.46
 31
0.0
  0
LINE
  5
2E5
100
AcDbEntity
  8
LAY-1
  6
CONTINUOUS
 62
     3
100
AcDbLine
 10
220.952
 20
25.46
 30
0.0
 11
223.016
 21
25.46
 31
0.0
  0
LINE
  5
2E6
100
AcDbEntity
  8
LAY-1
  6
CONTINUOUS
 62
     3
100
AcDbLine
 10
225.3
 20
25.46
 30
0.0
 11
227.764
 21
25.46
 31
0.0
  0
LINE
  5
2E7
100
AcDbEntity
  8
LAY-1
  6
CONTINUOUS
 62
     3
100
AcDbLine
 10
227.764
 20
27.524
 30
0.0
 11
227.764
 21
28.3
 31
0.0
  0
LINE
  5
2E8
100
AcDbEntity
  8
LAY-1
  6
CONTINUOUS
 62
     3
100
AcDbLine
 10
227.764
 20
28.948
 30
0.0
 11
227.764
 21
29.896
 31
0.0
  0
LINE
  5
2E9
100
AcDbEntity
  8
LAY-1
  6
CONTINUOUS
 62
     3
100
AcDbLine
 10
227.764
 20
30.544
 30
0.0
 11
227.764
 21
31.32
 31
0.0
  0
LINE
  5
2EA
100
AcDbEntity
  8
LAY-1
  6
CONTINUOUS
 62
     3
100
AcDbLine
 10
227.764
 20
32.352
 30
0.0
 11
227.764
 21
33.3
 31
0.0
  0
LINE
  5
2EB
100
AcDbEntity
  8
LAY-1
  6
CONTINUOUS
 62
     3
100
AcDbLine
 10
220.952
 20
27.524
 30
0.0
 11
220.952
 21
25.46
 31
0.0
  0
LINE
  5
2EC
100
AcDbEntity
  8
LAY-1
  6
CONTINUOUS
 62
     3
100
AcDbLine
 10
223.016
 20
27.524
 30
0.0
 11
223.016
 21
25.46
 31
0.0
  0
LINE
  5
2ED
100
AcDbEntity
  8
LAY-1
  6
CONTINUOUS
 62
     3
100
AcDbLine
 10
220.952
 20
30.544
 30
0.0
 11
220.952
 21
29.896
 31
0.0
  0
LINE
  5
2EE
100
AcDbEntity
  8
LAY-1
  6
CONTINUOUS
 62
     3
100
AcDbLine
 10
220.952
 20
28.948
 30
0.0
 11
220.952
 21
28.3
 31
0.0
  0
LINE
  5
2EF
100
AcDbEntity
  8
LAY-1
  6
CONTINUOUS
 62
     3
100
AcDbLine
 10
223.016
 20
30.544
 30
0.0
 11
223.016
 21
29.896
 31
0.0
  0
LINE
  5
2F0
100
AcDbEntity
  8
LAY-1
  6
CONTINUOUS
 62
     3
100
AcDbLine
 10
223.016
 20
28.948
 30
0.0
 11
223.016
 21
28.3
 31
0.0
  0
LINE
  5
2F1
100
AcDbEntity
  8
LAY-1
  6
CONTINUOUS
 62
     3
100
AcDbLine
 10
216.204
 20
33.3
 30
0.0
 11
217.692794
 21
33.3
 31
0.0
  0
LINE
  5
2F2
100
AcDbEntity
  8
LAY-1
  6
CONTINUOUS
 62
     3
100
AcDbLine
 10
219.524794
 20
33.3
 30
0.0
 11
219.92
 21
33.3
 31
0.0
  0
LINE
  5
2F3
100
AcDbEntity
  8
LAY-1
  6
CONTINUOUS
 62
     3
100
AcDbLine
 10
221.676
 20
33.3
 30
0.0
 11
222.292
 21
33.3
 31
0.0
  0
LINE
  5
2F4
100
AcDbEntity
  8
LAY-1
  6
CONTINUOUS
 62
     3
100
AcDbLine
 10
224.048
 20
33.3
 30
0.0
 11
224.443206
 21
33.3
 31
0.0
  0
LINE
  5
2F5
100
AcDbEntity
  8
LAY-1
  6
CONTINUOUS
 62
     3
100
AcDbLine
 10
226.275206
 20
33.3
 30
0.0
 11
227.764
 21
33.3
 31
0.0
  0
LINE
  5
2F6
100
AcDbEntity
  8
LAY-1
  6
CONTINUOUS
 62
     3
100
AcDbLine
 10
225.587617
 20
32.352
 30
0.0
 11
227.764
 21
32.352
 31
0.0
  0
LINE
  5
2F7
100
AcDbEntity
  8
LAY-1
  6
CONTINUOUS
 62
     3
100
AcDbLine
 10
216.204
 20
32.352
 30
0.0
 11
218.380383
 21
32.352
 31
0.0
  0
LINE
  5
2F8
100
AcDbEntity
  8
LAY-1
  6
CONTINUOUS
 62
     3
100
AcDbLine
 10
220.576383
 20
32.352
 30
0.0
 11
223.391617
 21
32.352
 31
0.0
  0
LINE
  5
2F9
100
AcDbEntity
  8
LAY-1
  6
CONTINUOUS
 62
     3
100
AcDbLine
 10
216.204
 20
31.32
 30
0.0
 11
218.756
 21
31.32
 31
0.0
  0
LINE
  5
2FA
100
AcDbEntity
  8
LAY-1
  6
CONTINUOUS
 62
     3
100
AcDbLine
 10
220.952
 20
31.32
 30
0.0
 11
223.016
 21
31.32
 31
0.0
  0
LINE
  5
2FB
100
AcDbEntity
  8
LAY-1
  6
CONTINUOUS
 62
     3
100
AcDbLine
 10
225.212
 20
31.32
 30
0.0
 11
227.764
 21
31.32
 31
0.0
  0
LINE
  5
2FC
100
AcDbEntity
  8
LAY-1
  6
CONTINUOUS
 62
     3
100
AcDbLine
 10
216.204
 20
30.544
 30
0.0
 11
220.952
 21
30.544
 31
0.0
  0
LINE
  5
2FD
100
AcDbEntity
  8
LAY-1
  6
CONTINUOUS
 62
     3
100
AcDbLine
 10
223.016
 20
30.544
 30
0.0
 11
227.764
 21
30.544
 31
0.0
  0
LINE
  5
2FE
100
AcDbEntity
  8
LAY-1
  6
CONTINUOUS
 62
     3
100
AcDbLine
 10
216.204
 20
29.896
 30
0.0
 11
220.952
 21
29.896
 31
0.0
  0
LINE
  5
2FF
100
AcDbEntity
  8
LAY-1
  6
CONTINUOUS
 62
     3
100
AcDbLine
 10
223.016
 20
29.896
 30
0.0
 11
227.764
 21
29.896
 31
0.0
  0
LINE
  5
300
100
AcDbEntity
  8
LAY-1
  6
CONTINUOUS
 62
     3
100
AcDbLine
 10
216.204
 20
28.948
 30
0.0
 11
220.952
 21
28.948
 31
0.0
  0
LINE
  5
301
100
AcDbEntity
  8
LAY-1
  6
CONTINUOUS
 62
     3
100
AcDbLine
 10
223.016
 20
28.948
 30
0.0
 11
227.764
 21
28.948
 31
0.0
  0
LINE
  5
302
100
AcDbEntity
  8
LAY-1
  6
CONTINUOUS
 62
     3
100
AcDbLine
 10
216.204
 20
28.3
 30
0.0
 11
220.952
 21
28.3
 31
0.0
  0
LINE
  5
303
100
AcDbEntity
  8
LAY-1
  6
CONTINUOUS
 62
     3
100
AcDbLine
 10
223.016
 20
28.3
 30
0.0
 11
227.764
 21
28.3
 31
0.0
  0
LINE
  5
304
100
AcDbEntity
  8
LAY-1
  6
CONTINUOUS
 62
     3
100
AcDbLine
 10
216.204
 20
27.524
 30
0.0
 11
218.488
 21
27.524
 31
0.0
  0
LINE
  5
305
100
AcDbEntity
  8
LAY-1
  6
CONTINUOUS
 62
     3
100
AcDbLine
 10
225.48
 20
27.524
 30
0.0
 11
227.764
 21
27.524
 31
0.0
  0
LINE
  5
306
100
AcDbEntity
  8
LAY-1
  6
CONTINUOUS
 62
     3
100
AcDbLine
 10
228.278
 20
33.508
 30
0.0
 11
228.278
 21
32.476
 31
0.0
  0
LINE
  5
307
100
AcDbEntity
  8
LAY-1
  6
CONTINUOUS
 62
     3
100
AcDbLine
 10
228.176
 20
25.46
 30
0.0
 11
228.913411
 21
32.476
 31
0.0
  0
LINE
  5
308
100
AcDbEntity
  8
LAY-1
  6
CONTINUOUS
 62
     3
100
AcDbLine
 10
229.42
 20
25.46
 30
0.0
 11
230.157411
 21
32.476
 31
0.0
  0
LINE
  5
309
100
AcDbEntity
  8
LAY-1
  6
CONTINUOUS
 62
     3
100
AcDbLine
 10
232.198
 20
32.476
 30
0.0
 11
232.716
 21
31.763034
 31
0.0
  0
LINE
  5
30A
100
AcDbEntity
  8
LAY-1
  6
CONTINUOUS
 62
     3
100
AcDbLine
 10
232.198
 20
30.172966
 30
0.0
 11
232.716
 21
29.46
 31
0.0
  0
LINE
  5
30B
100
AcDbEntity
  8
LAY-1
  6
CONTINUOUS
 62
     3
100
AcDbLine
 10
239.94
 20
25.46
 30
0.0
 11
239.038283
 21
30.412
 31
0.0
  0
LINE
  5
30C
100
AcDbEntity
  8
LAY-1
  6
CONTINUOUS
 62
     3
100
AcDbLine
 10
238.26
 20
25.46
 30
0.0
 11
237.36
 21
30.402572
 31
0.0
  0
LINE
  5
30D
100
AcDbEntity
  8
LAY-1
  6
CONTINUOUS
 62
     3
100
AcDbLine
 10
234.604
 20
25.46
 30
0.0
 11
235.504
 21
30.402572
 31
0.0
  0
LINE
  5
30E
100
AcDbEntity
  8
LAY-1
  6
CONTINUOUS
 62
     3
100
AcDbLine
 10
233.825717
 20
30.412
 30
0.0
 11
232.924
 21
25.46
 31
0.0
  0
LINE
  5
30F
100
AcDbEntity
  8
LAY-1
  6
CONTINUOUS
 62
     3
100
AcDbLine
 10
234.525801
 20
31.86
 30
0.0
 11
232.825801
 21
31.86
 31
0.0
  0
LINE
  5
310
100
AcDbEntity
  8
LAY-1
  6
CONTINUOUS
 62
     3
100
AcDbLine
 10
233.494
 20
34.54
 30
0.0
 11
233.236694
 21
33.508
 31
0.0
  0
LINE
  5
311
100
AcDbEntity
  8
LAY-1
  6
CONTINUOUS
 62
     3
100
AcDbLine
 10
233.234699
 20
33.5
 30
0.0
 11
232.825801
 21
31.86
 31
0.0
  0
LINE
  5
312
100
AcDbEntity
  8
LAY-1
  6
CONTINUOUS
 62
     3
100
AcDbLine
 10
228.176
 20
25.46
 30
0.0
 11
229.42
 21
25.46
 31
0.0
  0
LINE
  5
313
100
AcDbEntity
  8
LAY-1
  6
CONTINUOUS
 62
     3
100
AcDbLine
 10
230.342
 20
25.46
 30
0.0
 11
232.198
 21
25.46
 31
0.0
  0
LINE
  5
314
100
AcDbEntity
  8
LAY-1
  6
CONTINUOUS
 62
     3
100
AcDbLine
 10
232.924
 20
25.46
 30
0.0
 11
234.604
 21
25.46
 31
0.0
  0
LINE
  5
315
100
AcDbEntity
  8
LAY-1
  6
CONTINUOUS
 62
     3
100
AcDbLine
 10
235.504
 20
25.46
 30
0.0
 11
237.36
 21
25.46
 31
0.0
  0
LINE
  5
316
100
AcDbEntity
  8
LAY-1
  6
CONTINUOUS
 62
     3
100
AcDbLine
 10
238.26
 20
25.46
 30
0.0
 11
239.94
 21
25.46
 31
0.0
  0
LINE
  5
317
100
AcDbEntity
  8
LAY-1
  6
CONTINUOUS
 62
     3
100
AcDbLine
 10
237.36
 20
34.54
 30
0.0
 11
237.36
 21
33.508
 31
0.0
  0
LINE
  5
318
100
AcDbEntity
  8
LAY-1
  6
CONTINUOUS
 62
     3
100
AcDbLine
 10
237.36
 20
32.476
 30
0.0
 11
237.36
 21
31.444
 31
0.0
  0
LINE
  5
319
100
AcDbEntity
  8
LAY-1
  6
CONTINUOUS
 62
     3
100
AcDbLine
 10
237.36
 20
30.412
 30
0.0
 11
237.36
 21
25.46
 31
0.0
  0
LINE
  5
31A
100
AcDbEntity
  8
LAY-1
  6
CONTINUOUS
 62
     3
100
AcDbLine
 10
235.504
 20
34.54
 30
0.0
 11
235.504
 21
33.508
 31
0.0
  0
LINE
  5
31B
100
AcDbEntity
  8
LAY-1
  6
CONTINUOUS
 62
     3
100
AcDbLine
 10
235.504
 20
32.476
 30
0.0
 11
235.504
 21
31.444
 31
0.0
  0
LINE
  5
31C
100
AcDbEntity
  8
LAY-1
  6
CONTINUOUS
 62
     3
100
AcDbLine
 10
235.504
 20
30.412
 30
0.0
 11
235.504
 21
25.46
 31
0.0
  0
LINE
  5
31D
100
AcDbEntity
  8
LAY-1
  6
CONTINUOUS
 62
     3
100
AcDbLine
 10
230.342
 20
34.54
 30
0.0
 11
230.342
 21
33.508
 31
0.0
  0
LINE
  5
31E
100
AcDbEntity
  8
LAY-1
  6
CONTINUOUS
 62
     3
100
AcDbLine
 10
230.342
 20
32.476
 30
0.0
 11
230.342
 21
25.46
 31
0.0
  0
LINE
  5
31F
100
AcDbEntity
  8
LAY-1
  6
CONTINUOUS
 62
     3
100
AcDbLine
 10
228.278
 20
32.476
 30
0.0
 11
228.913411
 21
32.476
 31
0.0
  0
LINE
  5
320
100
AcDbEntity
  8
LAY-1
  6
CONTINUOUS
 62
     3
100
AcDbLine
 10
230.157411
 20
32.476
 30
0.0
 11
230.342
 21
32.476
 31
0.0
  0
LINE
  5
321
100
AcDbEntity
  8
LAY-1
  6
CONTINUOUS
 62
     3
100
AcDbLine
 10
237.36
 20
32.476
 30
0.0
 11
239.838
 21
32.476
 31
0.0
  0
LINE
  5
322
100
AcDbEntity
  8
LAY-1
  6
CONTINUOUS
 62
     3
100
AcDbLine
 10
237.36
 20
33.508
 30
0.0
 11
239.838
 21
33.508
 31
0.0
  0
LINE
  5
323
100
AcDbEntity
  8
LAY-1
  6
CONTINUOUS
 62
     3
100
AcDbLine
 10
228.278
 20
33.508
 30
0.0
 11
230.342
 21
33.508
 31
0.0
  0
LINE
  5
324
100
AcDbEntity
  8
LAY-1
  6
CONTINUOUS
 62
     3
100
AcDbLine
 10
232.198
 20
33.508
 30
0.0
 11
232.716
 21
33.508
 31
0.0
  0
LINE
  5
325
100
AcDbEntity
  8
LAY-1
  6
CONTINUOUS
 62
     3
100
AcDbLine
 10
232.198
 20
30.172966
 30
0.0
 11
232.198
 21
25.46
 31
0.0
  0
LINE
  5
326
100
AcDbEntity
  8
LAY-1
  6
CONTINUOUS
 62
     3
100
AcDbLine
 10
233.825717
 20
30.412
 30
0.0
 11
232.924
 21
30.412
 31
0.0
  0
LINE
  5
327
100
AcDbEntity
  8
LAY-1
  6
CONTINUOUS
 62
     3
100
AcDbLine
 10
239.838
 20
30.412
 30
0.0
 11
239.038283
 21
30.412
 31
0.0
  0
LINE
  5
328
100
AcDbEntity
  8
LAY-1
  6
CONTINUOUS
 62
     3
100
AcDbLine
 10
239.838
 20
31.444
 30
0.0
 11
237.36
 21
31.444
 31
0.0
  0
LINE
  5
329
100
AcDbEntity
  8
LAY-1
  6
CONTINUOUS
 62
     3
100
AcDbLine
 10
235.194
 20
34.54
 30
0.0
 11
234.936694
 21
33.508
 31
0.0
  0
LINE
  5
32A
100
AcDbEntity
  8
LAY-1
  6
CONTINUOUS
 62
     3
100
AcDbLine
 10
234.936694
 20
33.508
 30
0.0
 11
235.504
 21
33.508
 31
0.0
  0
LINE
  5
32B
100
AcDbEntity
  8
LAY-1
  6
CONTINUOUS
 62
     3
100
AcDbLine
 10
239.838
 20
33.508
 30
0.0
 11
239.838
 21
32.476
 31
0.0
  0
LINE
  5
32C
100
AcDbEntity
  8
LAY-1
  6
CONTINUOUS
 62
     3
100
AcDbLine
 10
239.838
 20
31.444
 30
0.0
 11
239.838
 21
30.412
 31
0.0
  0
LINE
  5
32D
100
AcDbEntity
  8
LAY-1
  6
CONTINUOUS
 62
     3
100
AcDbLine
 10
232.198
 20
32.476
 30
0.0
 11
232.716
 21
32.476
 31
0.0
  0
LINE
  5
32E
100
AcDbEntity
  8
LAY-1
  6
CONTINUOUS
 62
     3
100
AcDbLine
 10
234.675398
 20
32.46
 30
0.0
 11
234.525801
 21
31.86
 31
0.0
  0
LINE
  5
32F
100
AcDbEntity
  8
LAY-1
  6
CONTINUOUS
 62
     3
100
AcDbLine
 10
234.679387
 20
32.476
 30
0.0
 11
235.504
 21
32.476
 31
0.0
  0
LINE
  5
330
100
AcDbEntity
  8
LAY-1
  6
CONTINUOUS
 62
     3
100
AcDbLine
 10
232.716
 20
33.5
 30
0.0
 11
232.716
 21
32.476
 31
0.0
  0
LINE
  5
331
100
AcDbEntity
  8
LAY-1
  6
CONTINUOUS
 62
     3
100
AcDbLine
 10
232.716
 20
31.763034
 30
0.0
 11
232.716
 21
29.46
 31
0.0
  0
LINE
  5
332
100
AcDbEntity
  8
LAY-1
  6
CONTINUOUS
 62
     3
100
AcDbLine
 10
232.198
 20
34.54
 30
0.0
 11
232.198
 21
33.508
 31
0.0
  0
LINE
  5
333
100
AcDbEntity
  8
LAY-1
  6
CONTINUOUS
 62
     3
100
AcDbLine
 10
235.504
 20
31.444
 30
0.0
 11
232.924
 21
31.444
 31
0.0
  0
LINE
  5
334
100
AcDbEntity
  8
LAY-1
  6
CONTINUOUS
 62
     3
100
AcDbLine
 10
232.924
 20
31.444
 30
0.0
 11
232.924
 21
30.412
 31
0.0
  0
LINE
  5
335
100
AcDbEntity
  8
LAY-1
  6
CONTINUOUS
 62
     3
100
AcDbLine
 10
230.342
 20
34.54
 30
0.0
 11
232.198
 21
34.54
 31
0.0
  0
LINE
  5
336
100
AcDbEntity
  8
LAY-1
  6
CONTINUOUS
 62
     3
100
AcDbLine
 10
233.494
 20
34.54
 30
0.0
 11
235.194
 21
34.54
 31
0.0
  0
LINE
  5
337
100
AcDbEntity
  8
LAY-1
  6
CONTINUOUS
 62
     3
100
AcDbLine
 10
235.504
 20
34.54
 30
0.0
 11
237.36
 21
34.54
 31
0.0
  0
LINE
  5
338
100
AcDbEntity
  8
LAY-1
  6
CONTINUOUS
 62
     3
100
AcDbLine
 10
251.912
 20
33.716
 30
0.0
 11
251.912
 21
32.476
 31
0.0
  0
LINE
  5
339
100
AcDbEntity
  8
LAY-1
  6
CONTINUOUS
 62
     3
100
AcDbLine
 10
251.292
 20
34.54
 30
0.0
 11
251.292
 21
33.716
 31
0.0
  0
LINE
  5
33A
100
AcDbEntity
  8
LAY-1
  6
CONTINUOUS
 62
     3
100
AcDbLine
 10
249.436
 20
34.54
 30
0.0
 11
249.436
 21
33.716
 31
0.0
  0
LINE
  5
33B
100
AcDbEntity
  8
LAY-1
  6
CONTINUOUS
 62
     3
100
AcDbLine
 10
240.868
 20
31.24
 30
0.0
 11
247.268
 21
31.24
 31
0.0
  0
LINE
  5
33C
100
AcDbEntity
  8
LAY-1
  6
CONTINUOUS
 62
     3
100
AcDbLine
 10
242.932
 20
30.0
 30
0.0
 11
242.932
 21
27.798717
 31
0.0
  0
LINE
  5
33D
100
AcDbEntity
  8
LAY-1
  6
CONTINUOUS
 62
     3
100
AcDbLine
 10
245.204
 20
30.0
 30
0.0
 11
245.204
 21
28.281645
 31
0.0
  0
LINE
  5
33E
100
AcDbEntity
  8
LAY-1
  6
CONTINUOUS
 62
     3
100
AcDbLine
 10
240.868
 20
25.46
 30
0.0
 11
247.268
 21
26.820362
 31
0.0
  0
LINE
  5
33F
100
AcDbEntity
  8
LAY-1
  6
CONTINUOUS
 62
     3
100
AcDbLine
 10
240.868
 20
31.24
 30
0.0
 11
240.868
 21
30.0
 31
0.0
  0
LINE
  5
340
100
AcDbEntity
  8
LAY-1
  6
CONTINUOUS
 62
     3
100
AcDbLine
 10
240.868
 20
27.36
 30
0.0
 11
240.868
 21
25.46
 31
0.0
  0
LINE
  5
341
100
AcDbEntity
  8
LAY-1
  6
CONTINUOUS
 62
     3
100
AcDbLine
 10
247.268
 20
31.24
 30
0.0
 11
247.268
 21
30.0
 31
0.0
  0
LINE
  5
342
100
AcDbEntity
  8
LAY-1
  6
CONTINUOUS
 62
     3
100
AcDbLine
 10
247.268
 20
28.720362
 30
0.0
 11
247.268
 21
26.820362
 31
0.0
  0
LINE
  5
343
100
AcDbEntity
  8
LAY-1
  6
CONTINUOUS
 62
     3
100
AcDbLine
 10
240.868
 20
30.0
 30
0.0
 11
242.932
 21
30.0
 31
0.0
  0
LINE
  5
344
100
AcDbEntity
  8
LAY-1
  6
CONTINUOUS
 62
     3
100
AcDbLine
 10
245.204
 20
30.0
 30
0.0
 11
247.268
 21
30.0
 31
0.0
  0
LINE
  5
345
100
AcDbEntity
  8
LAY-1
  6
CONTINUOUS
 62
     3
100
AcDbLine
 10
240.868
 20
27.36
 30
0.0
 11
242.932
 21
27.798717
 31
0.0
  0
LINE
  5
346
100
AcDbEntity
  8
LAY-1
  6
CONTINUOUS
 62
     3
100
AcDbLine
 10
245.204
 20
28.281645
 30
0.0
 11
247.268
 21
28.720362
 31
0.0
  0
LINE
  5
347
100
AcDbEntity
  8
LAY-1
  6
CONTINUOUS
 62
     3
100
AcDbLine
 10
240.352
 20
33.716
 30
0.0
 11
246.491062
 21
33.716
 31
0.0
  0
LINE
  5
348
100
AcDbEntity
  8
LAY-1
  6
CONTINUOUS
 62
     3
100
AcDbLine
 10
248.907062
 20
33.716
 30
0.0
 11
249.436
 21
33.716
 31
0.0
  0
LINE
  5
349
100
AcDbEntity
  8
LAY-1
  6
CONTINUOUS
 62
     3
100
AcDbLine
 10
251.292
 20
33.716
 30
0.0
 11
251.912
 21
33.716
 31
0.0
  0
LINE
  5
34A
100
AcDbEntity
  8
LAY-1
  6
CONTINUOUS
 62
     3
100
AcDbLine
 10
251.912
 20
25.46
 30
0.0
 11
249.358385
 21
32.476
 31
0.0
  0
LINE
  5
34B
100
AcDbEntity
  8
LAY-1
  6
CONTINUOUS
 62
     3
100
AcDbLine
 10
248.907062
 20
33.716
 30
0.0
 11
248.60715
 21
34.54
 31
0.0
  0
LINE
  5
34C
100
AcDbEntity
  8
LAY-1
  6
CONTINUOUS
 62
     3
100
AcDbLine
 10
240.352
 20
32.476
 30
0.0
 11
246.942385
 21
32.476
 31
0.0
  0
LINE
  5
34D
100
AcDbEntity
  8
LAY-1
  6
CONTINUOUS
 62
     3
100
AcDbLine
 10
249.358385
 20
32.476
 30
0.0
 11
251.912
 21
32.476
 31
0.0
  0
LINE
  5
34E
100
AcDbEntity
  8
LAY-1
  6
CONTINUOUS
 62
     3
100
AcDbLine
 10
249.496
 20
25.46
 30
0.0
 11
246.942385
 21
32.476
 31
0.0
  0
LINE
  5
34F
100
AcDbEntity
  8
LAY-1
  6
CONTINUOUS
 62
     3
100
AcDbLine
 10
246.491062
 20
33.716
 30
0.0
 11
246.19115
 21
34.54
 31
0.0
  0
LINE
  5
350
100
AcDbEntity
  8
LAY-1
  6
CONTINUOUS
 62
     3
100
AcDbLine
 10
246.19115
 20
34.54
 30
0.0
 11
248.60715
 21
34.54
 31
0.0
  0
LINE
  5
351
100
AcDbEntity
  8
LAY-1
  6
CONTINUOUS
 62
     3
100
AcDbLine
 10
249.436
 20
34.54
 30
0.0
 11
251.292
 21
34.54
 31
0.0
  0
LINE
  5
352
100
AcDbEntity
  8
LAY-1
  6
CONTINUOUS
 62
     3
100
AcDbLine
 10
252.324
 20
30.208
 30
0.0
 11
264.088
 21
30.208
 31
0.0
  0
LINE
  5
353
100
AcDbEntity
  8
LAY-1
  6
CONTINUOUS
 62
     3
100
AcDbLine
 10
254.086
 20
31.032
 30
0.0
 11
262.326
 21
31.032
 31
0.0
  0
LINE
  5
354
100
AcDbEntity
  8
LAY-1
  6
CONTINUOUS
 62
     3
100
AcDbLine
 10
254.703261
 20
32.272
 30
0.0
 11
261.708739
 21
32.272
 31
0.0
  0
LINE
  5
355
100
AcDbEntity
  8
LAY-1
  6
CONTINUOUS
 62
     3
100
AcDbLine
 10
249.496
 20
25.46
 30
0.0
 11
251.912
 21
25.46
 31
0.0
  0
LINE
  5
356
100
AcDbEntity
  8
LAY-1
  6
CONTINUOUS
 62
     3
100
AcDbLine
 10
252.324
 20
25.46
 30
0.0
 11
264.088
 21
25.46
 31
0.0
  0
LINE
  5
357
100
AcDbEntity
  8
LAY-1
  6
CONTINUOUS
 62
     3
100
AcDbLine
 10
258.206
 20
34.748
 30
0.0
 11
252.324
 21
32.77991
 31
0.0
  0
LINE
  5
358
100
AcDbEntity
  8
LAY-1
  6
CONTINUOUS
 62
     3
100
AcDbLine
 10
258.206
 20
34.748
 30
0.0
 11
264.088
 21
32.77991
 31
0.0
  0
LINE
  5
359
100
AcDbEntity
  8
LAY-1
  6
CONTINUOUS
 62
     3
100
AcDbLine
 10
254.086
 20
31.032
 30
0.0
 11
254.086
 21
32.065467
 31
0.0
  0
LINE
  5
35A
100
AcDbEntity
  8
LAY-1
  6
CONTINUOUS
 62
     3
100
AcDbLine
 10
262.326
 20
31.032
 30
0.0
 11
262.326
 21
32.065467
 31
0.0
  0
LINE
  5
35B
100
AcDbEntity
  8
LAY-1
  6
CONTINUOUS
 62
     3
100
AcDbLine
 10
252.324
 20
25.46
 30
0.0
 11
253.959807
 21
28.968
 31
0.0
  0
LINE
  5
35C
100
AcDbEntity
  8
LAY-1
  6
CONTINUOUS
 62
     3
100
AcDbLine
 10
255.18
 20
26.7
 30
0.0
 11
256.237586
 21
28.968
 31
0.0
  0
LINE
  5
35D
100
AcDbEntity
  8
LAY-1
  6
CONTINUOUS
 62
     3
100
AcDbLine
 10
261.232
 20
26.7
 30
0.0
 11
260.174414
 21
28.968
 31
0.0
  0
LINE
  5
35E
100
AcDbEntity
  8
LAY-1
  6
CONTINUOUS
 62
     3
100
AcDbLine
 10
264.088
 20
25.46
 30
0.0
 11
262.452193
 21
28.968
 31
0.0
  0
LINE
  5
35F
100
AcDbEntity
  8
LAY-1
  6
CONTINUOUS
 62
     3
100
AcDbLine
 10
252.324
 20
32.77991
 30
0.0
 11
252.324
 21
31.47591
 31
0.0
  0
LINE
  5
360
100
AcDbEntity
  8
LAY-1
  6
CONTINUOUS
 62
     3
100
AcDbLine
 10
252.324
 20
30.208
 30
0.0
 11
252.324
 21
28.968
 31
0.0
  0
LINE
  5
361
100
AcDbEntity
  8
LAY-1
  6
CONTINUOUS
 62
     3
100
AcDbLine
 10
264.088
 20
32.77991
 30
0.0
 11
264.088
 21
31.47591
 31
0.0
  0
LINE
  5
362
100
AcDbEntity
  8
LAY-1
  6
CONTINUOUS
 62
     3
100
AcDbLine
 10
264.088
 20
30.208
 30
0.0
 11
264.088
 21
28.968
 31
0.0
  0
LINE
  5
363
100
AcDbEntity
  8
LAY-1
  6
CONTINUOUS
 62
     3
100
AcDbLine
 10
262.452193
 20
28.968
 30
0.0
 11
264.088
 21
28.968
 31
0.0
  0
LINE
  5
364
100
AcDbEntity
  8
LAY-1
  6
CONTINUOUS
 62
     3
100
AcDbLine
 10
252.324
 20
28.968
 30
0.0
 11
253.959807
 21
28.968
 31
0.0
  0
LINE
  5
365
100
AcDbEntity
  8
LAY-1
  6
CONTINUOUS
 62
     3
100
AcDbLine
 10
256.237586
 20
28.968
 30
0.0
 11
260.174414
 21
28.968
 31
0.0
  0
LINE
  5
366
100
AcDbEntity
  8
LAY-1
  6
CONTINUOUS
 62
     3
100
AcDbLine
 10
258.206
 20
33.444
 30
0.0
 11
261.708739
 21
32.272
 31
0.0
  0
LINE
  5
367
100
AcDbEntity
  8
LAY-1
  6
CONTINUOUS
 62
     3
100
AcDbLine
 10
262.326
 20
32.065467
 30
0.0
 11
264.088
 21
31.47591
 31
0.0
  0
LINE
  5
368
100
AcDbEntity
  8
LAY-1
  6
CONTINUOUS
 62
     3
100
AcDbLine
 10
258.206
 20
33.444
 30
0.0
 11
254.703261
 21
32.272
 31
0.0
  0
LINE
  5
369
100
AcDbEntity
  8
LAY-1
  6
CONTINUOUS
 62
     3
100
AcDbLine
 10
254.086
 20
32.065467
 30
0.0
 11
252.324
 21
31.47591
 31
0.0
  0
LINE
  5
36A
100
AcDbEntity
  8
LAY-1
  6
CONTINUOUS
 62
     3
100
AcDbLine
 10
255.18
 20
26.7
 30
0.0
 11
261.232
 21
26.7
 31
0.0
  0
LINE
  5
36B
100
AcDbEntity
  8
LAY-1
  6
CONTINUOUS
 62
     3
100
AcDbLine
 10
276.064
 20
26.7
 30
0.0
 11
276.064
 21
25.46
 31
0.0
  0
LINE
  5
36C
100
AcDbEntity
  8
LAY-1
  6
CONTINUOUS
 62
     3
100
AcDbLine
 10
269.252
 20
26.7
 30
0.0
 11
269.252
 21
25.46
 31
0.0
  0
LINE
  5
36D
100
AcDbEntity
  8
LAY-1
  6
CONTINUOUS
 62
     3
100
AcDbLine
 10
264.504
 20
32.476
 30
0.0
 11
267.147984
 21
32.476
 31
0.0
  0
LINE
  5
36E
100
AcDbEntity
  8
LAY-1
  6
CONTINUOUS
 62
     3
100
AcDbLine
 10
264.504
 20
28.7
 30
0.0
 11
267.147984
 21
32.476
 31
0.0
  0
LINE
  5
36F
100
AcDbEntity
  8
LAY-1
  6
CONTINUOUS
 62
     3
100
AcDbLine
 10
275.86
 20
32.272
 30
0.0
 11
275.86
 21
31.032
 31
0.0
  0
LINE
  5
370
100
AcDbEntity
  8
LAY-1
  6
CONTINUOUS
 62
     3
100
AcDbLine
 10
266.36
 20
34.54
 30
0.0
 11
268.424
 21
34.54
 31
0.0
  0
LINE
  5
371
100
AcDbEntity
  8
LAY-1
  6
CONTINUOUS
 62
     3
100
AcDbLine
 10
271.936
 20
34.54
 30
0.0
 11
274.0
 21
34.54
 31
0.0
  0
LINE
  5
372
100
AcDbEntity
  8
LAY-1
  6
CONTINUOUS
 62
     3
100
AcDbLine
 10
268.424
 20
28.110643
 30
0.0
 11
270.076
 21
26.9539
 31
0.0
  0
LINE
  5
373
100
AcDbEntity
  8
LAY-1
  6
CONTINUOUS
 62
     3
100
AcDbLine
 10
268.085311
 20
30.574643
 30
0.0
 11
270.076
 21
29.180748
 31
0.0
  0
LINE
  5
374
100
AcDbEntity
  8
LAY-1
  6
CONTINUOUS
 62
     3
100
AcDbLine
 10
264.504
 20
28.7
 30
0.0
 11
264.504
 21
25.46
 31
0.0
  0
LINE
  5
375
100
AcDbEntity
  8
LAY-1
  6
CONTINUOUS
 62
     3
100
AcDbLine
 10
264.504
 20
33.716
 30
0.0
 11
264.504
 21
32.476
 31
0.0
  0
LINE
  5
376
100
AcDbEntity
  8
LAY-1
  6
CONTINUOUS
 62
     3
100
AcDbLine
 10
266.36
 20
34.54
 30
0.0
 11
266.36
 21
33.716
 31
0.0
  0
LINE
  5
377
100
AcDbEntity
  8
LAY-1
  6
CONTINUOUS
 62
     3
100
AcDbLine
 10
266.36
 20
28.110643
 30
0.0
 11
266.36
 21
25.46
 31
0.0
  0
LINE
  5
378
100
AcDbEntity
  8
LAY-1
  6
CONTINUOUS
 62
     3
100
AcDbLine
 10
268.424
 20
34.54
 30
0.0
 11
268.424
 21
33.716
 31
0.0
  0
LINE
  5
379
100
AcDbEntity
  8
LAY-1
  6
CONTINUOUS
 62
     3
100
AcDbLine
 10
268.424
 20
28.110643
 30
0.0
 11
268.424
 21
25.46
 31
0.0
  0
LINE
  5
37A
100
AcDbEntity
  8
LAY-1
  6
CONTINUOUS
 62
     3
100
AcDbLine
 10
270.076
 20
32.272
 30
0.0
 11
270.076
 21
31.032
 31
0.0
  0
LINE
  5
37B
100
AcDbEntity
  8
LAY-1
  6
CONTINUOUS
 62
     3
100
AcDbLine
 10
270.076
 20
29.180748
 30
0.0
 11
270.076
 21
26.9539
 31
0.0
  0
LINE
  5
37C
100
AcDbEntity
  8
LAY-1
  6
CONTINUOUS
 62
     3
100
AcDbLine
 10
264.504
 20
33.716
 30
0.0
 11
266.36
 21
33.716
 31
0.0
  0
LINE
  5
37D
100
AcDbEntity
  8
LAY-1
  6
CONTINUOUS
 62
     3
100
AcDbLine
 10
268.424
 20
33.716
 30
0.0
 11
270.284913
 21
33.716
 31
0.0
  0
LINE
  5
37E
100
AcDbEntity
  8
LAY-1
  6
CONTINUOUS
 62
     3
100
AcDbLine
 10
264.504
 20
25.46
 30
0.0
 11
266.36
 21
28.110643
 31
0.0
  0
LINE
  5
37F
100
AcDbEntity
  8
LAY-1
  6
CONTINUOUS
 62
     3
100
AcDbLine
 10
268.085311
 20
30.574643
 30
0.0
 11
270.284913
 21
33.716
 31
0.0
  0
LINE
  5
380
100
AcDbEntity
  8
LAY-1
  6
CONTINUOUS
 62
     3
100
AcDbLine
 10
271.936
 20
34.54
 30
0.0
 11
271.936
 21
32.272
 31
0.0
  0
LINE
  5
381
100
AcDbEntity
  8
LAY-1
  6
CONTINUOUS
 62
     3
100
AcDbLine
 10
270.076
 20
31.032
 30
0.0
 11
271.936
 21
31.032
 31
0.0
  0
LINE
  5
382
100
AcDbEntity
  8
LAY-1
  6
CONTINUOUS
 62
     3
100
AcDbLine
 10
274.0
 20
31.032
 30
0.0
 11
275.86
 21
31.032
 31
0.0
  0
LINE
  5
383
100
AcDbEntity
  8
LAY-1
  6
CONTINUOUS
 62
     3
100
AcDbLine
 10
274.0
 20
34.54
 30
0.0
 11
274.0
 21
32.272
 31
0.0
  0
LINE
  5
384
100
AcDbEntity
  8
LAY-1
  6
CONTINUOUS
 62
     3
100
AcDbLine
 10
270.076
 20
32.272
 30
0.0
 11
271.936
 21
32.272
 31
0.0
  0
LINE
  5
385
100
AcDbEntity
  8
LAY-1
  6
CONTINUOUS
 62
     3
100
AcDbLine
 10
274.0
 20
32.272
 30
0.0
 11
275.86
 21
32.272
 31
0.0
  0
LINE
  5
386
100
AcDbEntity
  8
LAY-1
  6
CONTINUOUS
 62
     3
100
AcDbLine
 10
271.936
 20
31.032
 30
0.0
 11
271.936
 21
26.7
 31
0.0
  0
LINE
  5
387
100
AcDbEntity
  8
LAY-1
  6
CONTINUOUS
 62
     3
100
AcDbLine
 10
269.252
 20
26.7
 30
0.0
 11
271.936
 21
26.7
 31
0.0
  0
LINE
  5
388
100
AcDbEntity
  8
LAY-1
  6
CONTINUOUS
 62
     3
100
AcDbLine
 10
274.0
 20
26.7
 30
0.0
 11
276.064
 21
26.7
 31
0.0
  0
LINE
  5
389
100
AcDbEntity
  8
LAY-1
  6
CONTINUOUS
 62
     3
100
AcDbLine
 10
274.0
 20
31.032
 30
0.0
 11
274.0
 21
26.7
 31
0.0
  0
LINE
  5
38A
100
AcDbEntity
  8
LAY-1
  6
CONTINUOUS
 62
     3
100
AcDbLine
 10
269.252
 20
25.46
 30
0.0
 11
276.064
 21
25.46
 31
0.0
  0
LINE
  5
38B
100
AcDbEntity
  8
LAY-1
  6
CONTINUOUS
 62
     3
100
AcDbLine
 10
266.36
 20
25.46
 30
0.0
 11
268.424
 21
25.46
 31
0.0
  0
TEXT
  5
38C
100
AcDbEntity
  8
LAY-1
  6
CONTINUOUS
 62
     2
100
AcDbText
 10
170.0
 20
46.3
 30
0.0
 40
11.0
  1
樹脂製タオル掛
 41
1.112727
  7
EXCADSTD
 72
     5
 11
272.0
 21
46.3
 31
0.0
100
AcDbText
  0
TEXT
  5
38D
100
AcDbEntity
  8
LAY-1
  6
CONTINUOUS
 62
     7
100
AcDbText
 10
300.0
 20
23.5
 30
0.0
 40
13.0
  1
９５４１００
 41
0.926154
  7
EXCADSTD
 72
     5
 11
386.0
 21
23.5
 31
0.0
100
AcDbText
  0
TEXT
  5
38E
100
AcDbEntity
  8
LAY-1
  6
CONTINUOUS
 62
     2
100
AcDbText
 10
295.6
 20
45.8
 30
0.0
 40
12.0
  1
ＮＡ１９４Ｖ
 41
0.723333
  7
EXCADSTD
 72
     5
 11
357.6
 21
45.8
 31
0.0
100
AcDbText
  0
LINE
  5
38F
100
AcDbEntity
  8
LAY-2
  6
EXLTYPE3
 62
     1
100
AcDbLine
 10
120.010331
 20
419.776049
 30
0.0
 11
120.010331
 21
380.726788
 31
0.0
  0
LINE
  5
390
100
AcDbEntity
  8
LAY-2
  6
CONTINUOUS
 62
     2
100
AcDbLine
 10
130.010331
 20
391.076049
 30
0.0
 11
110.010331
 21
391.076049
 31
0.0
  0
ARC
  5
391
100
AcDbEntity
  8
LAY-2
  6
CONTINUOUS
 62
     2
100
AcDbCircle
 10
121.488717
 20
346.076049
 30
0.0
 40
5.0
100
AcDbArc
 50
192.598328
 51
270.0
  0
ARC
  5
392
100
AcDbEntity
  8
LAY-2
  6
CONTINUOUS
 62
     2
100
AcDbCircle
 10
409.38604
 20
410.419905
 30
0.0
 40
300.0
100
AcDbArc
 50
183.696969
 51
192.598328
  0
LINE
  5
393
100
AcDbEntity
  8
LAY-2
  6
CONTINUOUS
 62
     2
100
AcDbLine
 10
130.010331
 20
391.076049
 30
0.0
 11
128.568531
 21
343.016076
 31
0.0
  0
LINE
  5
394
100
AcDbEntity
  8
LAY-2
  6
CONTINUOUS
 62
     2
100
AcDbLine
 10
126.569431
 20
341.076049
 30
0.0
 11
121.488717
 21
341.076049
 31
0.0
  0
ARC
  5
395
100
AcDbEntity
  8
LAY-2
  6
CONTINUOUS
 62
     2
100
AcDbCircle
 10
126.569431
 20
343.076049
 30
0.0
 40
2.0
100
AcDbArc
 50
270.0
 51
358.281642
  0
LINE
  5
396
100
AcDbEntity
  8
LAY-2
  6
CONTINUOUS
 62
     2
100
AcDbLine
 10
129.901343
 20
388.041054
 30
0.0
 11
130.010331
 21
391.076049
 31
0.0
  0
ARC
  5
397
100
AcDbEntity
  8
LAY-2
  6
CONTINUOUS
 62
     2
100
AcDbCircle
 10
127.90165
 20
388.076049
 30
0.0
 40
2.0
100
AcDbArc
 50
270.0
 51
358.997426
  0
LINE
  5
398
100
AcDbEntity
  8
LAY-2
  6
CONTINUOUS
 62
     2
100
AcDbLine
 10
110.010331
 20
391.076049
 30
0.0
 11
110.211632
 21
387.991126
 31
0.0
  0
ARC
  5
399
100
AcDbEntity
  8
LAY-2
  6
CONTINUOUS
 62
     2
100
AcDbCircle
 10
112.209828
 20
388.076049
 30
0.0
 40
2.0
100
AcDbArc
 50
182.433606
 51
270.0
  0
LINE
  5
39A
100
AcDbEntity
  8
LAY-2
  6
CONTINUOUS
 62
     2
100
AcDbLine
 10
112.209828
 20
386.076049
 30
0.0
 11
127.90165
 21
386.076049
 31
0.0
  0
LINE
  5
39B
100
AcDbEntity
  8
LAY-2
  6
EXLTYPE3
 62
     1
100
AcDbLine
 10
126.810331
 20
351.076049
 30
0.0
 11
326.706563
 21
351.076049
 31
0.0
  0
LINE
  5
39C
100
AcDbEntity
  8
LAY-2
  6
CONTINUOUS
 62
     2
100
AcDbLine
 10
129.000831
 20
357.426049
 30
0.0
 11
219.010331
 21
357.426049
 31
0.0
  0
LINE
  5
39D
100
AcDbEntity
  8
LAY-2
  6
CONTINUOUS
 62
     2
100
AcDbLine
 10
221.010331
 20
357.426049
 30
0.0
 11
311.019831
 21
357.426049
 31
0.0
  0
LINE
  5
39E
100
AcDbEntity
  8
LAY-2
  6
CONTINUOUS
 62
     2
100
AcDbLine
 10
129.000831
 20
344.726049
 30
0.0
 11
219.010331
 21
344.726049
 31
0.0
  0
LINE
  5
39F
100
AcDbEntity
  8
LAY-2
  6
CONTINUOUS
 62
     2
100
AcDbLine
 10
221.010331
 20
344.726049
 30
0.0
 11
311.019831
 21
344.726049
 31
0.0
  0
LINE
  5
3A0
100
AcDbEntity
  8
LAY-2
  6
EXLTYPE3
 62
     1
100
AcDbLine
 10
120.010331
 20
198.409091
 30
0.0
 11
120.010331
 21
254.409091
 31
0.0
  0
LINE
  5
3A1
100
AcDbEntity
  8
LAY-2
  6
EXLTYPE3
 62
     1
100
AcDbLine
 10
126.010331
 20
208.409091
 30
0.0
 11
114.010331
 21
208.409091
 31
0.0
  0
LINE
  5
3A2
100
AcDbEntity
  8
LAY-2
  6
EXLTYPE3
 62
     1
100
AcDbLine
 10
126.010331
 20
244.409091
 30
0.0
 11
114.010331
 21
244.409091
 31
0.0
  0
ARC
  5
3A3
100
AcDbEntity
  8
LAY-2
  6
CONTINUOUS
 62
     2
100
AcDbCircle
 10
126.510331
 20
219.599157
 30
0.0
 40
2.0
100
AcDbArc
 50
264.805571
 51
0.0
  0
ARC
  5
3A4
100
AcDbEntity
  8
LAY-2
  6
CONTINUOUS
 62
     2
100
AcDbCircle
 10
126.510331
 20
233.219025
 30
0.0
 40
2.0
100
AcDbArc
 50
0.0
 51
95.194429
  0
LINE
  5
3A5
100
AcDbEntity
  8
LAY-2
  6
CONTINUOUS
 62
     2
100
AcDbLine
 10
126.329259
 20
235.210812
 30
0.0
 11
118.510331
 21
235.210812
 31
0.0
  0
LINE
  5
3A6
100
AcDbEntity
  8
LAY-2
  6
CONTINUOUS
 62
     2
100
AcDbLine
 10
128.510331
 20
226.409091
 30
0.0
 11
128.510331
 21
219.599157
 31
0.0
  0
LINE
  5
3A7
100
AcDbEntity
  8
LAY-2
  6
CONTINUOUS
 62
     2
100
AcDbLine
 10
128.510331
 20
226.409091
 30
0.0
 11
128.510331
 21
233.219025
 31
0.0
  0
ARC
  5
3A8
100
AcDbEntity
  8
LAY-2
  6
CONTINUOUS
 62
     2
100
AcDbCircle
 10
118.510331
 20
240.40223
 30
0.0
 40
5.191418
100
AcDbArc
 50
193.274684
 51
270.0
  0
ARC
  5
3A9
100
AcDbEntity
  8
LAY-2
  6
CONTINUOUS
 62
     2
100
AcDbCircle
 10
118.510331
 20
212.415952
 30
0.0
 40
5.191418
100
AcDbArc
 50
90.0
 51
166.725316
  0
LINE
  5
3AA
100
AcDbEntity
  8
LAY-2
  6
CONTINUOUS
 62
     2
100
AcDbLine
 10
126.329259
 20
217.60737
 30
0.0
 11
118.510331
 21
217.60737
 31
0.0
  0
ARC
  5
3AB
100
AcDbEntity
  8
LAY-2
  6
CONTINUOUS
 62
     2
100
AcDbCircle
 10
120.010331
 20
152.409091
 30
0.0
 40
100.0
100
AcDbArc
 50
86.173498
 51
93.826502
  0
ARC
  5
3AC
100
AcDbEntity
  8
LAY-2
  6
CONTINUOUS
 62
     2
100
AcDbCircle
 10
126.550403
 20
250.19062
 30
0.0
 40
2.0
100
AcDbArc
 50
6.962063
 51
90.0
  0
ARC
  5
3AD
100
AcDbEntity
  8
LAY-2
  6
CONTINUOUS
 62
     2
100
AcDbCircle
 10
113.470258
 20
250.19062
 30
0.0
 40
2.0
100
AcDbArc
 50
90.0
 51
173.037937
  0
ARC
  5
3AE
100
AcDbEntity
  8
LAY-2
  6
CONTINUOUS
 62
     2
100
AcDbCircle
 10
310.010331
 20
226.19062
 30
0.0
 40
200.0
100
AcDbArc
 50
173.037937
 51
180.0
  0
ARC
  5
3AF
100
AcDbEntity
  8
LAY-2
  6
CONTINUOUS
 62
     2
100
AcDbCircle
 10
120.010331
 20
300.409091
 30
0.0
 40
100.0
100
AcDbArc
 50
266.173498
 51
273.826502
  0
ARC
  5
3B0
100
AcDbEntity
  8
LAY-2
  6
CONTINUOUS
 62
     2
100
AcDbCircle
 10
126.550403
 20
202.627562
 30
0.0
 40
2.0
100
AcDbArc
 50
270.0
 51
353.037937
  0
ARC
  5
3B1
100
AcDbEntity
  8
LAY-2
  6
CONTINUOUS
 62
     2
100
AcDbCircle
 10
113.470258
 20
202.627562
 30
0.0
 40
2.0
100
AcDbArc
 50
186.962063
 51
270.0
  0
ARC
  5
3B2
100
AcDbEntity
  8
LAY-2
  6
CONTINUOUS
 62
     2
100
AcDbCircle
 10
310.010331
 20
226.627562
 30
0.0
 40
200.0
100
AcDbArc
 50
180.0
 51
186.962063
  0
LINE
  5
3B3
100
AcDbEntity
  8
LAY-2
  6
EXLTYPE3
 62
     1
100
AcDbLine
 10
108.01045
 20
226.409091
 30
0.0
 11
332.010211
 21
226.409091
 31
0.0
  0
LINE
  5
3B4
100
AcDbEntity
  8
LAY-2
  6
CONTINUOUS
 62
     2
100
AcDbLine
 10
128.510331
 20
232.759091
 30
0.0
 11
219.010331
 21
232.759091
 31
0.0
  0
LINE
  5
3B5
100
AcDbEntity
  8
LAY-2
  6
CONTINUOUS
 62
     2
100
AcDbLine
 10
221.010331
 20
232.759091
 30
0.0
 11
311.510331
 21
232.759091
 31
0.0
  0
LINE
  5
3B6
100
AcDbEntity
  8
LAY-2
  6
CONTINUOUS
 62
     2
100
AcDbLine
 10
128.510331
 20
220.059091
 30
0.0
 11
219.010331
 21
220.059091
 31
0.0
  0
LINE
  5
3B7
100
AcDbEntity
  8
LAY-2
  6
CONTINUOUS
 62
     2
100
AcDbLine
 10
221.010331
 20
220.059091
 30
0.0
 11
311.510331
 21
220.059091
 31
0.0
  0
ARC
  5
3B8
100
AcDbEntity
  8
LAY-2
  6
CONTINUOUS
 62
     2
100
AcDbCircle
 10
-69.989669
 20
226.627562
 30
0.0
 40
200.0
100
AcDbArc
 50
353.037937
 51
358.117933
  0
ARC
  5
3B9
100
AcDbEntity
  8
LAY-2
  6
CONTINUOUS
 62
     2
100
AcDbCircle
 10
-69.989669
 20
226.19062
 30
0.0
 40
200.0
100
AcDbArc
 50
1.882067
 51
6.962063
  0
LINE
  5
3BA
100
AcDbEntity
  8
LAY-2
  6
EXLTYPE3
 62
     1
100
AcDbLine
 10
320.010331
 20
419.776049
 30
0.0
 11
320.010331
 21
380.726788
 31
0.0
  0
LINE
  5
3BB
100
AcDbEntity
  8
LAY-2
  6
CONTINUOUS
 62
     2
100
AcDbLine
 10
310.010331
 20
391.076049
 30
0.0
 11
330.010331
 21
391.076049
 31
0.0
  0
ARC
  5
3BC
100
AcDbEntity
  8
LAY-2
  6
CONTINUOUS
 62
     2
100
AcDbCircle
 10
318.531944
 20
346.076049
 30
0.0
 40
5.0
100
AcDbArc
 50
270.0
 51
347.401672
  0
ARC
  5
3BD
100
AcDbEntity
  8
LAY-2
  6
CONTINUOUS
 62
     2
100
AcDbCircle
 10
30.634621
 20
410.419905
 30
0.0
 40
300.0
100
AcDbArc
 50
347.401672
 51
356.303031
  0
LINE
  5
3BE
100
AcDbEntity
  8
LAY-2
  6
CONTINUOUS
 62
     2
100
AcDbLine
 10
310.010331
 20
391.076049
 30
0.0
 11
311.45213
 21
343.016076
 31
0.0
  0
LINE
  5
3BF
100
AcDbEntity
  8
LAY-2
  6
CONTINUOUS
 62
     2
100
AcDbLine
 10
313.45123
 20
341.076049
 30
0.0
 11
318.531944
 21
341.076049
 31
0.0
  0
ARC
  5
3C0
100
AcDbEntity
  8
LAY-2
  6
CONTINUOUS
 62
     2
100
AcDbCircle
 10
313.45123
 20
343.076049
 30
0.0
 40
2.0
100
AcDbArc
 50
181.718358
 51
270.0
  0
LINE
  5
3C1
100
AcDbEntity
  8
LAY-2
  6
CONTINUOUS
 62
     2
100
AcDbLine
 10
310.119318
 20
388.041054
 30
0.0
 11
310.010331
 21
391.076049
 31
0.0
  0
ARC
  5
3C2
100
AcDbEntity
  8
LAY-2
  6
CONTINUOUS
 62
     2
100
AcDbCircle
 10
312.119012
 20
388.076049
 30
0.0
 40
2.0
100
AcDbArc
 50
181.002574
 51
270.0
  0
LINE
  5
3C3
100
AcDbEntity
  8
LAY-2
  6
CONTINUOUS
 62
     2
100
AcDbLine
 10
330.010331
 20
391.076049
 30
0.0
 11
329.809029
 21
387.991126
 31
0.0
  0
ARC
  5
3C4
100
AcDbEntity
  8
LAY-2
  6
CONTINUOUS
 62
     2
100
AcDbCircle
 10
327.810833
 20
388.076049
 30
0.0
 40
2.0
100
AcDbArc
 50
270.0
 51
357.566394
  0
LINE
  5
3C5
100
AcDbEntity
  8
LAY-2
  6
CONTINUOUS
 62
     2
100
AcDbLine
 10
327.810833
 20
386.076049
 30
0.0
 11
312.119012
 21
386.076049
 31
0.0
  0
LINE
  5
3C6
100
AcDbEntity
  8
LAY-2
  6
EXLTYPE3
 62
     1
100
AcDbLine
 10
320.010331
 20
198.409091
 30
0.0
 11
320.010331
 21
254.409091
 31
0.0
  0
CIRCLE
  5
3C7
100
AcDbEntity
  8
LAY-2
  6
CONTINUOUS
 62
     2
100
AcDbCircle
 10
320.010331
 20
244.409091
 30
0.0
 40
4.0
  0
ARC
  5
3C8
100
AcDbEntity
  8
LAY-2
  6
CONTINUOUS
 62
     2
100
AcDbCircle
 10
313.510331
 20
219.599157
 30
0.0
 40
2.0
100
AcDbArc
 50
180.0
 51
275.194429
  0
ARC
  5
3C9
100
AcDbEntity
  8
LAY-2
  6
CONTINUOUS
 62
     2
100
AcDbCircle
 10
313.510331
 20
233.219025
 30
0.0
 40
2.0
100
AcDbArc
 50
84.805571
 51
180.0
  0
LINE
  5
3CA
100
AcDbEntity
  8
LAY-2
  6
CONTINUOUS
 62
     2
100
AcDbLine
 10
313.691402
 20
235.210812
 30
0.0
 11
321.510331
 21
235.210812
 31
0.0
  0
LINE
  5
3CB
100
AcDbEntity
  8
LAY-2
  6
CONTINUOUS
 62
     2
100
AcDbLine
 10
311.510331
 20
226.409091
 30
0.0
 11
311.510331
 21
219.599157
 31
0.0
  0
LINE
  5
3CC
100
AcDbEntity
  8
LAY-2
  6
CONTINUOUS
 62
     2
100
AcDbLine
 10
311.510331
 20
226.409091
 30
0.0
 11
311.510331
 21
233.219025
 31
0.0
  0
ARC
  5
3CD
100
AcDbEntity
  8
LAY-2
  6
CONTINUOUS
 62
     2
100
AcDbCircle
 10
321.510331
 20
240.40223
 30
0.0
 40
5.191418
100
AcDbArc
 50
270.0
 51
346.725316
  0
ARC
  5
3CE
100
AcDbEntity
  8
LAY-2
  6
CONTINUOUS
 62
     2
100
AcDbCircle
 10
321.510331
 20
212.415952
 30
0.0
 40
5.191418
100
AcDbArc
 50
13.274684
 51
90.0
  0
LINE
  5
3CF
100
AcDbEntity
  8
LAY-2
  6
CONTINUOUS
 62
     2
100
AcDbLine
 10
313.691402
 20
217.60737
 30
0.0
 11
321.510331
 21
217.60737
 31
0.0
  0
ARC
  5
3D0
100
AcDbEntity
  8
LAY-2
  6
CONTINUOUS
 62
     2
100
AcDbCircle
 10
320.010331
 20
152.409091
 30
0.0
 40
100.0
100
AcDbArc
 50
86.173498
 51
93.826502
  0
ARC
  5
3D1
100
AcDbEntity
  8
LAY-2
  6
CONTINUOUS
 62
     2
100
AcDbCircle
 10
313.470258
 20
250.19062
 30
0.0
 40
2.0
100
AcDbArc
 50
90.0
 51
173.037937
  0
ARC
  5
3D2
100
AcDbEntity
  8
LAY-2
  6
CONTINUOUS
 62
     2
100
AcDbCircle
 10
326.550403
 20
250.19062
 30
0.0
 40
2.0
100
AcDbArc
 50
6.962063
 51
90.0
  0
ARC
  5
3D3
100
AcDbEntity
  8
LAY-2
  6
CONTINUOUS
 62
     2
100
AcDbCircle
 10
130.010331
 20
226.19062
 30
0.0
 40
200.0
100
AcDbArc
 50
0.0
 51
6.962063
  0
ARC
  5
3D4
100
AcDbEntity
  8
LAY-2
  6
CONTINUOUS
 62
     2
100
AcDbCircle
 10
320.010331
 20
300.409091
 30
0.0
 40
100.0
100
AcDbArc
 50
266.173498
 51
273.826502
  0
ARC
  5
3D5
100
AcDbEntity
  8
LAY-2
  6
CONTINUOUS
 62
     2
100
AcDbCircle
 10
313.470258
 20
202.627562
 30
0.0
 40
2.0
100
AcDbArc
 50
186.962063
 51
270.0
  0
ARC
  5
3D6
100
AcDbEntity
  8
LAY-2
  6
CONTINUOUS
 62
     2
100
AcDbCircle
 10
326.550403
 20
202.627562
 30
0.0
 40
2.0
100
AcDbArc
 50
270.0
 51
353.037937
  0
ARC
  5
3D7
100
AcDbEntity
  8
LAY-2
  6
CONTINUOUS
 62
     2
100
AcDbCircle
 10
130.010331
 20
226.627562
 30
0.0
 40
200.0
100
AcDbArc
 50
353.037937
 51
0.0
  0
ARC
  5
3D8
100
AcDbEntity
  8
LAY-2
  6
CONTINUOUS
 62
     2
100
AcDbCircle
 10
510.010331
 20
226.627562
 30
0.0
 40
200.0
100
AcDbArc
 50
181.882067
 51
186.962063
  0
ARC
  5
3D9
100
AcDbEntity
  8
LAY-2
  6
CONTINUOUS
 62
     2
100
AcDbCircle
 10
510.010331
 20
226.19062
 30
0.0
 40
200.0
100
AcDbArc
 50
173.037937
 51
178.117933
  0
LINE
  5
3DA
100
AcDbEntity
  8
LAY-2
  6
EXLTYPE3
 62
     1
100
AcDbLine
 10
314.010331
 20
244.409091
 30
0.0
 11
326.010331
 21
244.409091
 31
0.0
  0
LINE
  5
3DB
100
AcDbEntity
  8
LAY-2
  6
EXLTYPE3
 62
     1
100
AcDbLine
 10
314.010331
 20
208.409091
 30
0.0
 11
326.010331
 21
208.409091
 31
0.0
  0
CIRCLE
  5
3DC
100
AcDbEntity
  8
LAY-2
  6
CONTINUOUS
 62
     2
100
AcDbCircle
 10
320.010331
 20
208.409091
 30
0.0
 40
4.0
  0
CIRCLE
  5
3DD
100
AcDbEntity
  8
LAY-2
  6
CONTINUOUS
 62
     2
100
AcDbCircle
 10
120.010331
 20
244.409091
 30
0.0
 40
4.0
  0
CIRCLE
  5
3DE
100
AcDbEntity
  8
LAY-2
  6
CONTINUOUS
 62
     2
100
AcDbCircle
 10
120.010331
 20
208.409091
 30
0.0
 40
4.0
  0
DIMENSION
  5
3EB
100
AcDbEntity
  8
LAY-2
  6
CONTINUOUS
 62
     3
100
AcDbDimension
  2
*D14
 10
351.2
 20
351.076049
 30
0.0
 11
345.2
 21
371.076049
 31
0.0
 70
   160
  1
40
  3
STANDARD
100
AcDbAlignedDimension
 13
330.010331
 23
391.076049
 33
0.0
 14
326.706563
 24
351.076049
 34
0.0
 50
90.0
100
AcDbRotatedDimension
1001
ACAD
1000
DSTYLE
1002
{
1070
     6
1000
_EX_NORM
1070
     7
1000
_EX_NORM
1070
    41
1040
6.0
1070
    42
1040
1.0
1070
    44
1040
2.0
1070
    73
1070
     0
1070
    74
1070
     0
1070
    75
1070
     0
1070
    76
1070
     0
1070
    77
1070
     1
1070
    78
1070
     8
1070
   140
1040
8.0
1070
   147
1040
2.0
1070
   173
1070
     1
1070
   176
1070
     3
1070
   177
1070
     3
1070
   178
1070
     2
1070
   271
1070
     2
1070
   279
1070
     2
1070
   280
1070
     0
1070
   287
1070
     5
1070
   340
1005
3EA
1002
}
  0
DIMENSION
  5
3F7
100
AcDbEntity
  8
LAY-2
  6
CONTINUOUS
 62
     3
100
AcDbDimension
  2
*D15
 10
351.2
 20
244.409091
 30
0.0
 11
345.2
 21
226.409091
 31
0.0
 70
   160
  3
STANDARD
100
AcDbAlignedDimension
 13
326.010331
 23
208.409091
 33
0.0
 14
326.010331
 24
244.409091
 34
0.0
 50
90.0
100
AcDbRotatedDimension
1001
ACAD
1000
DSTYLE
1002
{
1070
     6
1000
_EX_NORM
1070
     7
1000
_EX_NORM
1070
    41
1040
6.0
1070
    42
1040
1.0
1070
    44
1040
2.0
1070
    73
1070
     0
1070
    74
1070
     0
1070
    75
1070
     0
1070
    76
1070
     0
1070
    77
1070
     1
1070
    78
1070
     8
1070
   140
1040
8.0
1070
   147
1040
2.0
1070
   173
1070
     1
1070
   176
1070
     3
1070
   177
1070
     3
1070
   178
1070
     2
1070
   271
1070
     2
1070
   279
1070
     2
1070
   280
1070
     0
1070
   287
1070
     5
1070
   340
1005
3EA
1002
}
  0
DIMENSION
  5
400
100
AcDbEntity
  8
LAY-2
  6
CONTINUOUS
 62
     3
100
AcDbDimension
  2
*D16
 10
351.2
 20
252.409091
 30
0.0
 11
345.2
 21
248.409091
 31
0.0
 70
   160
  3
STANDARD
100
AcDbAlignedDimension
 13
326.010331
 23
244.409091
 33
0.0
 14
320.010331
 24
252.409091
 34
0.0
 50
90.0
100
AcDbRotatedDimension
1001
ACAD
1000
DSTYLE
1002
{
1070
     6
1000
_EX_NONE
1070
     7
1000
_EX_NORM
1070
    41
1040
6.0
1070
    42
1040
1.0
1070
    44
1040
2.0
1070
    73
1070
     0
1070
    74
1070
     0
1070
    75
1070
     1
1070
    76
1070
     0
1070
    77
1070
     1
1070
    78
1070
     8
1070
   140
1040
8.0
1070
   147
1040
2.0
1070
   173
1070
     1
1070
   176
1070
     3
1070
   177
1070
     3
1070
   178
1070
     2
1070
   271
1070
     2
1070
   279
1070
     2
1070
   280
1070
     0
1070
   287
1070
     5
1070
   340
1005
3EA
1002
}
  0
DIMENSION
  5
40C
100
AcDbEntity
  8
LAY-2
  6
CONTINUOUS
 62
     3
100
AcDbDimension
  2
*D17
 10
320.010331
 20
272.0
 30
0.0
 11
220.010331
 21
278.0
 31
0.0
 70
   160
  1
450
  3
STANDARD
100
AcDbAlignedDimension
 13
120.010331
 23
254.409091
 33
0.0
 14
320.010331
 24
254.409091
 34
0.0
100
AcDbRotatedDimension
1001
ACAD
1000
DSTYLE
1002
{
1070
     6
1000
_EX_NORM
1070
     7
1000
_EX_NORM
1070
    41
1040
6.0
1070
    42
1040
1.0
1070
    44
1040
2.0
1070
    73
1070
     0
1070
    74
1070
     0
1070
    75
1070
     0
1070
    76
1070
     0
1070
    77
1070
     1
1070
    78
1070
     8
1070
   140
1040
8.0
1070
   147
1040
2.0
1070
   173
1070
     1
1070
   176
1070
     3
1070
   177
1070
     3
1070
   178
1070
     2
1070
   271
1070
     2
1070
   279
1070
     2
1070
   280
1070
     0
1070
   287
1070
     5
1070
   340
1005
3EA
1002
}
  0
DIMENSION
  5
416
100
AcDbEntity
  8
LAY-2
  6
CONTINUOUS
 62
     3
100
AcDbDimension
  2
*D18
 10
293.8
 20
220.059091
 30
0.0
 11
287.8
 21
252.759091
 31
0.0
 70
   160
  1
%%c12.7
  3
STANDARD
100
AcDbAlignedDimension
 13
293.8
 23
232.759091
 33
0.0
 14
293.8
 24
220.059091
 34
0.0
 50
90.0
100
AcDbRotatedDimension
1001
ACAD
1000
DSTYLE
1002
{
1070
     6
1000
_EX_NORM
1070
     7
1000
_EX_NORM
1070
    41
1040
6.0
1070
    42
1040
0.0
1070
    44
1040
0.0
1070
    73
1070
     0
1070
    74
1070
     0
1070
    75
1070
     1
1070
    76
1070
     1
1070
    77
1070
     1
1070
    78
1070
     8
1070
   140
1040
8.0
1070
   147
1040
2.0
1070
   173
1070
     1
1070
   176
1070
     3
1070
   177
1070
     3
1070
   178
1070
     2
1070
   271
1070
     2
1070
   279
1070
     2
1070
   280
1070
     0
1070
   287
1070
     5
1070
   340
1005
3EA
1002
}
  0
LINE
  5
417
100
AcDbEntity
  8
LAY-2
  6
CONTINUOUS
 62
     2
100
AcDbLine
 10
118.510331
 20
391.076049
 30
0.0
 11
118.510331
 21
414.076049
 31
0.0
  0
LINE
  5
418
100
AcDbEntity
  8
LAY-2
  6
CONTINUOUS
 62
     2
100
AcDbLine
 10
121.510331
 20
391.076049
 30
0.0
 11
121.510331
 21
414.076049
 31
0.0
  0
LINE
  5
419
100
AcDbEntity
  8
LAY-2
  6
CONTINUOUS
 62
     2
100
AcDbLine
 10
120.010331
 20
417.776049
 30
0.0
 11
118.510331
 21
414.076049
 31
0.0
  0
LINE
  5
41A
100
AcDbEntity
  8
LAY-2
  6
CONTINUOUS
 62
     2
100
AcDbLine
 10
120.010331
 20
417.776049
 30
0.0
 11
121.510331
 21
414.076049
 31
0.0
  0
LINE
  5
41B
100
AcDbEntity
  8
LAY-2
  6
CONTINUOUS
 62
     2
100
AcDbLine
 10
318.510331
 20
391.076049
 30
0.0
 11
318.510331
 21
414.076049
 31
0.0
  0
LINE
  5
41C
100
AcDbEntity
  8
LAY-2
  6
CONTINUOUS
 62
     2
100
AcDbLine
 10
321.510331
 20
391.076049
 30
0.0
 11
321.510331
 21
414.076049
 31
0.0
  0
LINE
  5
41D
100
AcDbEntity
  8
LAY-2
  6
CONTINUOUS
 62
     2
100
AcDbLine
 10
320.010331
 20
417.776049
 30
0.0
 11
318.510331
 21
414.076049
 31
0.0
  0
LINE
  5
41E
100
AcDbEntity
  8
LAY-2
  6
CONTINUOUS
 62
     2
100
AcDbLine
 10
320.010331
 20
417.776049
 30
0.0
 11
321.510331
 21
414.076049
 31
0.0
  0
TEXT
  5
41F
100
AcDbEntity
  8
LAY-2
  6
CONTINUOUS
 62
     2
100
AcDbText
 10
80.3
 20
416.275371
 30
0.0
 40
8.0
  1
^J４×３０
 41
0.6322
  7
EXCADSTD
 72
     5
 11
109.3
 21
416.275371
 31
0.0
100
AcDbText
  0
TEXT
  5
420
100
AcDbEntity
  8
LAY-2
  6
CONTINUOUS
 62
     2
100
AcDbText
 10
108.8
 20
416.275371
 30
0.0
 40
8.0
  1
^J
 41
0.0
  7
EXCADSTD
 72
     5
 11
108.8
 21
416.275371
 31
0.0
100
AcDbText
  0
LEADER
  5
421
100
AcDbEntity
  8
LAY-2
  6
CONTINUOUS
 62
     3
100
AcDbLeader
  3
STANDARD
 73
     3
 74
     1
 75
     0
 40
0.0
 76
     3
 10
118.510331
 20
405.6
 30
0.0
 10
107.8
 20
415.275371
 30
0.0
 10
81.7
 20
415.275371
 30
0.0
 77
     3
1001
ACAD
1000
DSTYLE
1002
{
1070
    41
1040
6.0
1070
     5
1000
_EX_NORM
1070
     6
1000
_EX_NORM
1070
     7
1000
_EX_NORM
1070
   341
1005
27
1002
}
  0
DIMENSION
  5
42B
100
AcDbEntity
  8
LAY-2
  6
CONTINUOUS
 62
     3
100
AcDbDimension
  2
*D19
 10
320.010331
 20
429.9
 30
0.0
 11
315.010331
 21
435.9
 31
0.0
 70
   160
  3
STANDARD
100
AcDbAlignedDimension
 13
310.010331
 23
391.076049
 33
0.0
 14
320.010331
 24
419.776049
 34
0.0
100
AcDbRotatedDimension
1001
ACAD
1000
DSTYLE
1002
{
1070
     6
1000
_EX_NORM
1070
     7
1000
_EX_NONE
1070
    41
1040
6.0
1070
    42
1040
1.0
1070
    44
1040
2.0
1070
    73
1070
     0
1070
    74
1070
     0
1070
    75
1070
     0
1070
    76
1070
     0
1070
    77
1070
     1
1070
    78
1070
     8
1070
   140
1040
8.0
1070
   147
1040
2.0
1070
   173
1070
     1
1070
   176
1070
     3
1070
   177
1070
     3
1070
   178
1070
     2
1070
   271
1070
     2
1070
   279
1070
     2
1070
   280
1070
     0
1070
   287
1070
     5
1070
   340
1005
3EA
1002
}
  0
DIMENSION
  5
436
100
AcDbEntity
  8
LAY-2
  6
CONTINUOUS
 62
     3
100
AcDbDimension
  2
*D20
 10
330.010331
 20
429.9
 30
0.0
 11
325.010331
 21
435.9
 31
0.0
 70
   160
  3
STANDARD
100
AcDbAlignedDimension
 13
320.010331
 23
419.776049
 33
0.0
 14
330.010331
 24
391.076049
 34
0.0
100
AcDbRotatedDimension
1001
ACAD
1000
DSTYLE
1002
{
1070
     6
1000
_EX_BCIR
1070
     7
1000
_EX_NORM
1070
    41
1040
1.0
1070
    42
1040
1.0
1070
    44
1040
2.0
1070
    73
1070
     0
1070
    74
1070
     0
1070
    75
1070
     1
1070
    76
1070
     0
1070
    77
1070
     1
1070
    78
1070
     8
1070
   140
1040
8.0
1070
   147
1040
2.0
1070
   173
1070
     1
1070
   176
1070
     3
1070
   177
1070
     3
1070
   178
1070
     2
1070
   271
1070
     2
1070
   279
1070
     2
1070
   280
1070
     0
1070
   287
1070
     5
1070
   340
1005
3EA
1002
}
  0
DIMENSION
  5
441
100
AcDbEntity
  8
LAY-2
  6
CONTINUOUS
 62
     3
100
AcDbDimension
  2
*D21
 10
351.2
 20
417.776049
 30
0.0
 11
345.2
 21
404.426049
 31
0.0
 70
   160
  1
27
  3
STANDARD
100
AcDbAlignedDimension
 13
351.2
 23
391.076049
 33
0.0
 14
320.010331
 24
417.776049
 34
0.0
 50
90.0
100
AcDbRotatedDimension
1001
ACAD
1000
DSTYLE
1002
{
1070
     6
1000
_EX_NORM
1070
     7
1000
_EX_NORM
1070
    41
1040
6.0
1070
    42
1040
1.0
1070
    44
1040
2.0
1070
    73
1070
     0
1070
    74
1070
     0
1070
    75
1070
     1
1070
    76
1070
     0
1070
    77
1070
     1
1070
    78
1070
     8
1070
   140
1040
8.0
1070
   147
1040
2.0
1070
   173
1070
     1
1070
   176
1070
     3
1070
   177
1070
     3
1070
   178
1070
     2
1070
   271
1070
     2
1070
   279
1070
     2
1070
   280
1070
     0
1070
   287
1070
     5
1070
   340
1005
3EA
1002
}
  0
LEADER
  5
442
100
AcDbEntity
  8
LAY-2
  6
CONTINUOUS
 62
     3
100
AcDbLeader
  3
STANDARD
 73
     3
 74
     1
 75
     0
 40
0.0
 76
     2
 10
129.631359
 20
378.443653
 30
0.0
 10
159.178542
 20
401.902326
 30
0.0
 77
     3
1001
ACAD
1000
DSTYLE
1002
{
1070
    41
1040
6.0
1070
     5
1000
_EX_NORM
1070
     6
1000
_EX_NORM
1070
     7
1000
_EX_NORM
1070
   341
1005
27
1002
}
  0
LEADER
  5
443
100
AcDbEntity
  8
LAY-2
  6
CONTINUOUS
 62
     3
100
AcDbLeader
  3
STANDARD
 73
     3
 74
     1
 75
     0
 40
0.0
 76
     2
 10
244.3
 20
357.426049
 30
0.0
 10
265.558698
 20
376.45147
 30
0.0
 77
     3
1001
ACAD
1000
DSTYLE
1002
{
1070
    41
1040
6.0
1070
     5
1000
_EX_NORM
1070
     6
1000
_EX_NORM
1070
     7
1000
_EX_NORM
1070
   341
1005
27
1002
}
  0
LEADER
  5
444
100
AcDbEntity
  8
LAY-2
  6
CONTINUOUS
 62
     3
100
AcDbLeader
  3
STANDARD
 73
     3
 74
     1
 75
     0
 40
0.0
 76
     2
 10
121.510331
 20
403.3
 30
0.0
 10
158.646558
 20
427.63875
 30
0.0
 77
     3
1001
ACAD
1000
DSTYLE
1002
{
1070
    41
1040
6.0
1070
     5
1000
_EX_NORM
1070
     6
1000
_EX_NORM
1070
     7
1000
_EX_NORM
1070
   341
1005
27
1002
}
  0
LEADER
  5
445
100
AcDbEntity
  8
LAY-2
  6
CONTINUOUS
 62
     3
100
AcDbLeader
  3
STANDARD
 73
     3
 74
     1
 75
     0
 40
0.0
 76
     2
 10
318.510331
 20
402.6
 30
0.0
 10
281.315051
 20
427.549688
 30
0.0
 77
     3
1001
ACAD
1000
DSTYLE
1002
{
1070
    41
1040
6.0
1070
     5
1000
_EX_NORM
1070
     6
1000
_EX_NORM
1070
     7
1000
_EX_NORM
1070
   341
1005
27
1002
}
  0
LEADER
  5
446
100
AcDbEntity
  8
LAY-2
  6
CONTINUOUS
 62
     3
100
AcDbLeader
  3
STANDARD
 73
     3
 74
     1
 75
     0
 40
0.0
 76
     2
 10
310.389302
 20
378.443653
 30
0.0
 10
280.842119
 20
401.902326
 30
0.0
 77
     3
1001
ACAD
1000
DSTYLE
1002
{
1070
    41
1040
6.0
1070
     5
1000
_EX_NORM
1070
     6
1000
_EX_NORM
1070
     7
1000
_EX_NORM
1070
   341
1005
27
1002
}
  0
TEXT
  5
447
100
AcDbEntity
  8
LAY-2
  6
CONTINUOUS
 62
     2
100
AcDbText
 10
159.939263
 20
401.049224
 30
0.0
 40
14.142136
  1
１
 41
0.84
  7
EXCADSTD
 72
     5
 11
171.252971
 21
401.049224
 31
0.0
100
AcDbText
  0
TEXT
  5
448
100
AcDbEntity
  8
LAY-2
  6
CONTINUOUS
 62
     2
100
AcDbText
 10
265.939263
 20
401.049224
 30
0.0
 40
14.142136
  1
１
 41
0.84
  7
EXCADSTD
 72
     5
 11
277.252971
 21
401.049224
 31
0.0
100
AcDbText
  0
TEXT
  5
449
100
AcDbEntity
  8
LAY-2
  6
CONTINUOUS
 62
     2
100
AcDbText
 10
265.939263
 20
426.049224
 30
0.0
 40
14.142136
  1
３
 41
0.84
  7
EXCADSTD
 72
     5
 11
277.252971
 21
426.049224
 31
0.0
100
AcDbText
  0
TEXT
  5
44A
100
AcDbEntity
  8
LAY-2
  6
CONTINUOUS
 62
     2
100
AcDbText
 10
159.93927
 20
426.049231
 30
0.0
 40
14.14212
  1
３
 41
0.84
  7
EXCADSTD
 72
     5
 11
171.252967
 21
426.049231
 31
0.0
100
AcDbText
  0
TEXT
  5
44B
100
AcDbEntity
  8
LAY-2
  6
CONTINUOUS
 62
     2
100
AcDbText
 10
265.939263
 20
376.049224
 30
0.0
 40
14.142136
  1
２
 41
0.84
  7
EXCADSTD
 72
     5
 11
277.252971
 21
376.049224
 31
0.0
100
AcDbText
  0
ARC
  5
44C
100
AcDbEntity
  8
LAY-2
  6
CONTINUOUS
 62
     3
100
AcDbCircle
 10
226.353312
 20
347.901049
 30
0.0
 40
8.0
100
AcDbArc
 50
156.617036
 51
203.382964
  0
ARC
  5
44D
100
AcDbEntity
  8
LAY-2
  6
CONTINUOUS
 62
     3
100
AcDbCircle
 10
211.667349
 20
354.251049
 30
0.0
 40
8.0
100
AcDbArc
 50
336.617036
 51
23.382964
  0
ARC
  5
44E
100
AcDbEntity
  8
LAY-2
  6
CONTINUOUS
 62
     3
100
AcDbCircle
 10
228.353312
 20
347.901049
 30
0.0
 40
8.0
100
AcDbArc
 50
156.617036
 51
203.382964
  0
ARC
  5
44F
100
AcDbEntity
  8
LAY-2
  6
CONTINUOUS
 62
     3
100
AcDbCircle
 10
213.667349
 20
354.251049
 30
0.0
 40
8.0
100
AcDbArc
 50
336.617036
 51
23.382964
  0
ARC
  5
450
100
AcDbEntity
  8
LAY-2
  6
CONTINUOUS
 62
     3
100
AcDbCircle
 10
226.353312
 20
223.234091
 30
0.0
 40
8.0
100
AcDbArc
 50
156.617036
 51
203.382964
  0
ARC
  5
451
100
AcDbEntity
  8
LAY-2
  6
CONTINUOUS
 62
     3
100
AcDbCircle
 10
211.667349
 20
229.584091
 30
0.0
 40
8.0
100
AcDbArc
 50
336.617036
 51
23.382964
  0
ARC
  5
452
100
AcDbEntity
  8
LAY-2
  6
CONTINUOUS
 62
     3
100
AcDbCircle
 10
228.353312
 20
223.234091
 30
0.0
 40
8.0
100
AcDbArc
 50
156.617036
 51
203.382964
  0
ARC
  5
453
100
AcDbEntity
  8
LAY-2
  6
CONTINUOUS
 62
     3
100
AcDbCircle
 10
213.667349
 20
229.584091
 30
0.0
 40
8.0
100
AcDbArc
 50
336.617036
 51
23.382964
  0
LINE
  5
454
100
AcDbEntity
  8
LAY-2
  6
CONTINUOUS
 62
     3
100
AcDbLine
 10
322.060331
 20
243.909091
 30
0.0
 11
322.060331
 21
244.909091
 31
0.0
  0
LINE
  5
455
100
AcDbEntity
  8
LAY-2
  6
CONTINUOUS
 62
     3
100
AcDbLine
 10
319.510331
 20
246.459091
 30
0.0
 11
320.510331
 21
246.459091
 31
0.0
  0
LINE
  5
456
100
AcDbEntity
  8
LAY-2
  6
CONTINUOUS
 62
     3
100
AcDbLine
 10
319.510331
 20
242.359091
 30
0.0
 11
320.510331
 21
242.359091
 31
0.0
  0
LINE
  5
457
100
AcDbEntity
  8
LAY-2
  6
CONTINUOUS
 62
     3
100
AcDbLine
 10
317.960331
 20
244.909091
 30
0.0
 11
319.010331
 21
244.909091
 31
0.0
  0
LINE
  5
458
100
AcDbEntity
  8
LAY-2
  6
CONTINUOUS
 62
     3
100
AcDbLine
 10
321.010331
 20
244.909091
 30
0.0
 11
322.060331
 21
244.909091
 31
0.0
  0
LINE
  5
459
100
AcDbEntity
  8
LAY-2
  6
CONTINUOUS
 62
     3
100
AcDbLine
 10
319.510331
 20
246.459091
 30
0.0
 11
319.510331
 21
245.409091
 31
0.0
  0
LINE
  5
45A
100
AcDbEntity
  8
LAY-2
  6
CONTINUOUS
 62
     3
100
AcDbLine
 10
319.510331
 20
243.409091
 30
0.0
 11
319.510331
 21
242.359091
 31
0.0
  0
LINE
  5
45B
100
AcDbEntity
  8
LAY-2
  6
CONTINUOUS
 62
     3
100
AcDbLine
 10
317.960331
 20
243.909091
 30
0.0
 11
319.010331
 21
243.909091
 31
0.0
  0
LINE
  5
45C
100
AcDbEntity
  8
LAY-2
  6
CONTINUOUS
 62
     3
100
AcDbLine
 10
321.010331
 20
243.909091
 30
0.0
 11
322.060331
 21
243.909091
 31
0.0
  0
LINE
  5
45D
100
AcDbEntity
  8
LAY-2
  6
CONTINUOUS
 62
     3
100
AcDbLine
 10
320.510331
 20
246.459091
 30
0.0
 11
320.510331
 21
245.409091
 31
0.0
  0
LINE
  5
45E
100
AcDbEntity
  8
LAY-2
  6
CONTINUOUS
 62
     3
100
AcDbLine
 10
320.510331
 20
243.409091
 30
0.0
 11
320.510331
 21
242.359091
 31
0.0
  0
ARC
  5
45F
100
AcDbEntity
  8
LAY-2
  6
CONTINUOUS
 62
     3
100
AcDbCircle
 10
319.010331
 20
245.409091
 30
0.0
 40
0.5
100
AcDbArc
 50
270.0
 51
0.0
  0
ARC
  5
460
100
AcDbEntity
  8
LAY-2
  6
CONTINUOUS
 62
     3
100
AcDbCircle
 10
319.010331
 20
243.409091
 30
0.0
 40
0.5
100
AcDbArc
 50
0.0
 51
90.0
  0
ARC
  5
461
100
AcDbEntity
  8
LAY-2
  6
CONTINUOUS
 62
     3
100
AcDbCircle
 10
321.010331
 20
243.409091
 30
0.0
 40
0.5
100
AcDbArc
 50
90.0
 51
180.0
  0
ARC
  5
462
100
AcDbEntity
  8
LAY-2
  6
CONTINUOUS
 62
     3
100
AcDbCircle
 10
321.010331
 20
245.409091
 30
0.0
 40
0.5
100
AcDbArc
 50
180.0
 51
270.0
  0
LINE
  5
463
100
AcDbEntity
  8
LAY-2
  6
CONTINUOUS
 62
     3
100
AcDbLine
 10
317.960331
 20
243.909091
 30
0.0
 11
317.960331
 21
244.909091
 31
0.0
  0
CIRCLE
  5
464
100
AcDbEntity
  8
LAY-2
  6
CONTINUOUS
 62
     3
100
AcDbCircle
 10
320.010331
 20
244.409091
 30
0.0
 40
3.5
  0
ARC
  5
465
100
AcDbEntity
  8
LAY-2
  6
CONTINUOUS
 62
     3
100
AcDbCircle
 10
319.010331
 20
207.409091
 30
0.0
 40
0.5
100
AcDbArc
 50
0.0
 51
90.0
  0
ARC
  5
466
100
AcDbEntity
  8
LAY-2
  6
CONTINUOUS
 62
     3
100
AcDbCircle
 10
319.010331
 20
209.409091
 30
0.0
 40
0.5
100
AcDbArc
 50
270.0
 51
0.0
  0
ARC
  5
467
100
AcDbEntity
  8
LAY-2
  6
CONTINUOUS
 62
     3
100
AcDbCircle
 10
321.010331
 20
209.409091
 30
0.0
 40
0.5
100
AcDbArc
 50
180.0
 51
270.0
  0
ARC
  5
468
100
AcDbEntity
  8
LAY-2
  6
CONTINUOUS
 62
     3
100
AcDbCircle
 10
321.010331
 20
207.409091
 30
0.0
 40
0.5
100
AcDbArc
 50
90.0
 51
180.0
  0
LINE
  5
469
100
AcDbEntity
  8
LAY-2
  6
CONTINUOUS
 62
     3
100
AcDbLine
 10
319.510331
 20
206.359091
 30
0.0
 11
320.510331
 21
206.359091
 31
0.0
  0
LINE
  5
46A
100
AcDbEntity
  8
LAY-2
  6
CONTINUOUS
 62
     3
100
AcDbLine
 10
319.510331
 20
206.359091
 30
0.0
 11
319.510331
 21
207.409091
 31
0.0
  0
LINE
  5
46B
100
AcDbEntity
  8
LAY-2
  6
CONTINUOUS
 62
     3
100
AcDbLine
 10
320.510331
 20
206.359091
 30
0.0
 11
320.510331
 21
207.409091
 31
0.0
  0
LINE
  5
46C
100
AcDbEntity
  8
LAY-2
  6
CONTINUOUS
 62
     3
100
AcDbLine
 10
319.510331
 20
210.459091
 30
0.0
 11
320.510331
 21
210.459091
 31
0.0
  0
LINE
  5
46D
100
AcDbEntity
  8
LAY-2
  6
CONTINUOUS
 62
     3
100
AcDbLine
 10
319.510331
 20
209.409091
 30
0.0
 11
319.510331
 21
210.459091
 31
0.0
  0
LINE
  5
46E
100
AcDbEntity
  8
LAY-2
  6
CONTINUOUS
 62
     3
100
AcDbLine
 10
320.510331
 20
209.409091
 30
0.0
 11
320.510331
 21
210.459091
 31
0.0
  0
LINE
  5
46F
100
AcDbEntity
  8
LAY-2
  6
CONTINUOUS
 62
     3
100
AcDbLine
 10
322.060331
 20
208.909091
 30
0.0
 11
322.060331
 21
207.909091
 31
0.0
  0
LINE
  5
470
100
AcDbEntity
  8
LAY-2
  6
CONTINUOUS
 62
     3
100
AcDbLine
 10
321.010331
 20
207.909091
 30
0.0
 11
322.060331
 21
207.909091
 31
0.0
  0
LINE
  5
471
100
AcDbEntity
  8
LAY-2
  6
CONTINUOUS
 62
     3
100
AcDbLine
 10
321.010331
 20
208.909091
 30
0.0
 11
322.060331
 21
208.909091
 31
0.0
  0
LINE
  5
472
100
AcDbEntity
  8
LAY-2
  6
CONTINUOUS
 62
     3
100
AcDbLine
 10
317.960331
 20
208.909091
 30
0.0
 11
317.960331
 21
207.909091
 31
0.0
  0
LINE
  5
473
100
AcDbEntity
  8
LAY-2
  6
CONTINUOUS
 62
     3
100
AcDbLine
 10
317.960331
 20
207.909091
 30
0.0
 11
319.010331
 21
207.909091
 31
0.0
  0
LINE
  5
474
100
AcDbEntity
  8
LAY-2
  6
CONTINUOUS
 62
     3
100
AcDbLine
 10
317.960331
 20
208.909091
 30
0.0
 11
319.010331
 21
208.909091
 31
0.0
  0
CIRCLE
  5
475
100
AcDbEntity
  8
LAY-2
  6
CONTINUOUS
 62
     3
100
AcDbCircle
 10
320.010331
 20
208.409091
 30
0.0
 40
3.5
  0
ARC
  5
476
100
AcDbEntity
  8
LAY-2
  6
CONTINUOUS
 62
     3
100
AcDbCircle
 10
121.010331
 20
245.409091
 30
0.0
 40
0.5
100
AcDbArc
 50
180.0
 51
270.0
  0
ARC
  5
477
100
AcDbEntity
  8
LAY-2
  6
CONTINUOUS
 62
     3
100
AcDbCircle
 10
121.010331
 20
243.409091
 30
0.0
 40
0.5
100
AcDbArc
 50
90.0
 51
180.0
  0
ARC
  5
478
100
AcDbEntity
  8
LAY-2
  6
CONTINUOUS
 62
     3
100
AcDbCircle
 10
119.010331
 20
243.409091
 30
0.0
 40
0.5
100
AcDbArc
 50
0.0
 51
90.0
  0
ARC
  5
479
100
AcDbEntity
  8
LAY-2
  6
CONTINUOUS
 62
     3
100
AcDbCircle
 10
119.010331
 20
245.409091
 30
0.0
 40
0.5
100
AcDbArc
 50
270.0
 51
0.0
  0
LINE
  5
47A
100
AcDbEntity
  8
LAY-2
  6
CONTINUOUS
 62
     3
100
AcDbLine
 10
120.510331
 20
246.459091
 30
0.0
 11
119.510331
 21
246.459091
 31
0.0
  0
LINE
  5
47B
100
AcDbEntity
  8
LAY-2
  6
CONTINUOUS
 62
     3
100
AcDbLine
 10
120.510331
 20
246.459091
 30
0.0
 11
120.510331
 21
245.409091
 31
0.0
  0
LINE
  5
47C
100
AcDbEntity
  8
LAY-2
  6
CONTINUOUS
 62
     3
100
AcDbLine
 10
119.510331
 20
246.459091
 30
0.0
 11
119.510331
 21
245.409091
 31
0.0
  0
LINE
  5
47D
100
AcDbEntity
  8
LAY-2
  6
CONTINUOUS
 62
     3
100
AcDbLine
 10
120.510331
 20
242.359091
 30
0.0
 11
119.510331
 21
242.359091
 31
0.0
  0
LINE
  5
47E
100
AcDbEntity
  8
LAY-2
  6
CONTINUOUS
 62
     3
100
AcDbLine
 10
120.510331
 20
243.409091
 30
0.0
 11
120.510331
 21
242.359091
 31
0.0
  0
LINE
  5
47F
100
AcDbEntity
  8
LAY-2
  6
CONTINUOUS
 62
     3
100
AcDbLine
 10
119.510331
 20
243.409091
 30
0.0
 11
119.510331
 21
242.359091
 31
0.0
  0
LINE
  5
480
100
AcDbEntity
  8
LAY-2
  6
CONTINUOUS
 62
     3
100
AcDbLine
 10
117.960331
 20
243.909091
 30
0.0
 11
117.960331
 21
244.909091
 31
0.0
  0
LINE
  5
481
100
AcDbEntity
  8
LAY-2
  6
CONTINUOUS
 62
     3
100
AcDbLine
 10
119.010331
 20
244.909091
 30
0.0
 11
117.960331
 21
244.909091
 31
0.0
  0
LINE
  5
482
100
AcDbEntity
  8
LAY-2
  6
CONTINUOUS
 62
     3
100
AcDbLine
 10
119.010331
 20
243.909091
 30
0.0
 11
117.960331
 21
243.909091
 31
0.0
  0
LINE
  5
483
100
AcDbEntity
  8
LAY-2
  6
CONTINUOUS
 62
     3
100
AcDbLine
 10
122.060331
 20
243.909091
 30
0.0
 11
122.060331
 21
244.909091
 31
0.0
  0
LINE
  5
484
100
AcDbEntity
  8
LAY-2
  6
CONTINUOUS
 62
     3
100
AcDbLine
 10
122.060331
 20
244.909091
 30
0.0
 11
121.010331
 21
244.909091
 31
0.0
  0
LINE
  5
485
100
AcDbEntity
  8
LAY-2
  6
CONTINUOUS
 62
     3
100
AcDbLine
 10
122.060331
 20
243.909091
 30
0.0
 11
121.010331
 21
243.909091
 31
0.0
  0
CIRCLE
  5
486
100
AcDbEntity
  8
LAY-2
  6
CONTINUOUS
 62
     3
100
AcDbCircle
 10
120.010331
 20
244.409091
 30
0.0
 40
3.5
  0
ARC
  5
487
100
AcDbEntity
  8
LAY-2
  6
CONTINUOUS
 62
     3
100
AcDbCircle
 10
121.010331
 20
207.409091
 30
0.0
 40
0.5
100
AcDbArc
 50
90.0
 51
180.0
  0
ARC
  5
488
100
AcDbEntity
  8
LAY-2
  6
CONTINUOUS
 62
     3
100
AcDbCircle
 10
121.010331
 20
209.409091
 30
0.0
 40
0.5
100
AcDbArc
 50
180.0
 51
270.0
  0
ARC
  5
489
100
AcDbEntity
  8
LAY-2
  6
CONTINUOUS
 62
     3
100
AcDbCircle
 10
119.010331
 20
209.409091
 30
0.0
 40
0.5
100
AcDbArc
 50
270.0
 51
0.0
  0
ARC
  5
48A
100
AcDbEntity
  8
LAY-2
  6
CONTINUOUS
 62
     3
100
AcDbCircle
 10
119.010331
 20
207.409091
 30
0.0
 40
0.5
100
AcDbArc
 50
0.0
 51
90.0
  0
LINE
  5
48B
100
AcDbEntity
  8
LAY-2
  6
CONTINUOUS
 62
     3
100
AcDbLine
 10
120.510331
 20
206.359091
 30
0.0
 11
119.510331
 21
206.359091
 31
0.0
  0
LINE
  5
48C
100
AcDbEntity
  8
LAY-2
  6
CONTINUOUS
 62
     3
100
AcDbLine
 10
120.510331
 20
206.359091
 30
0.0
 11
120.510331
 21
207.409091
 31
0.0
  0
LINE
  5
48D
100
AcDbEntity
  8
LAY-2
  6
CONTINUOUS
 62
     3
100
AcDbLine
 10
119.510331
 20
206.359091
 30
0.0
 11
119.510331
 21
207.409091
 31
0.0
  0
LINE
  5
48E
100
AcDbEntity
  8
LAY-2
  6
CONTINUOUS
 62
     3
100
AcDbLine
 10
120.510331
 20
210.459091
 30
0.0
 11
119.510331
 21
210.459091
 31
0.0
  0
LINE
  5
48F
100
AcDbEntity
  8
LAY-2
  6
CONTINUOUS
 62
     3
100
AcDbLine
 10
120.510331
 20
209.409091
 30
0.0
 11
120.510331
 21
210.459091
 31
0.0
  0
LINE
  5
490
100
AcDbEntity
  8
LAY-2
  6
CONTINUOUS
 62
     3
100
AcDbLine
 10
119.510331
 20
209.409091
 30
0.0
 11
119.510331
 21
210.459091
 31
0.0
  0
LINE
  5
491
100
AcDbEntity
  8
LAY-2
  6
CONTINUOUS
 62
     3
100
AcDbLine
 10
117.960331
 20
208.909091
 30
0.0
 11
117.960331
 21
207.909091
 31
0.0
  0
LINE
  5
492
100
AcDbEntity
  8
LAY-2
  6
CONTINUOUS
 62
     3
100
AcDbLine
 10
119.010331
 20
207.909091
 30
0.0
 11
117.960331
 21
207.909091
 31
0.0
  0
LINE
  5
493
100
AcDbEntity
  8
LAY-2
  6
CONTINUOUS
 62
     3
100
AcDbLine
 10
119.010331
 20
208.909091
 30
0.0
 11
117.960331
 21
208.909091
 31
0.0
  0
LINE
  5
494
100
AcDbEntity
  8
LAY-2
  6
CONTINUOUS
 62
     3
100
AcDbLine
 10
122.060331
 20
208.909091
 30
0.0
 11
122.060331
 21
207.909091
 31
0.0
  0
LINE
  5
495
100
AcDbEntity
  8
LAY-2
  6
CONTINUOUS
 62
     3
100
AcDbLine
 10
122.060331
 20
207.909091
 30
0.0
 11
121.010331
 21
207.909091
 31
0.0
  0
LINE
  5
496
100
AcDbEntity
  8
LAY-2
  6
CONTINUOUS
 62
     3
100
AcDbLine
 10
122.060331
 20
208.909091
 30
0.0
 11
121.010331
 21
208.909091
 31
0.0
  0
CIRCLE
  5
497
100
AcDbEntity
  8
LAY-2
  6
CONTINUOUS
 62
     3
100
AcDbCircle
 10
120.010331
 20
208.409091
 30
0.0
 40
3.5
  0
ELLIPSE
  5
498
100
AcDbEntity
  8
LAY-2
  6
CONTINUOUS
 62
     3
100
AcDbEllipse
 10
320.010331
 20
384.516215
 30
0.0
 11
4.0
 21
0.0
 31
0.0
210
0.0
220
0.0
230
1.0
 40
0.221564
 41
0.0
 42
3.1415926535897931
  0
ELLIPSE
  5
499
100
AcDbEntity
  8
LAY-2
  6
CONTINUOUS
 62
     3
100
AcDbEllipse
 10
320.010331
 20
384.516215
 30
0.0
 11
4.0
 21
0.0
 31
0.0
210
0.0
220
0.0
230
1.0
 40
0.447357
 41
3.1415926535897931
 42
0.0
  0
LINE
  5
49A
100
AcDbEntity
  8
LAY-2
  6
CONTINUOUS
 62
     3
100
AcDbLine
 10
319.510331
 20
385.176919
 30
0.0
 11
319.510331
 21
385.395519
 31
0.0
  0
LINE
  5
49B
100
AcDbEntity
  8
LAY-2
  6
CONTINUOUS
 62
     3
100
AcDbLine
 10
320.510331
 20
385.176919
 30
0.0
 11
320.510331
 21
385.395519
 31
0.0
  0
ARC
  5
49C
100
AcDbEntity
  8
LAY-2
  6
CONTINUOUS
 62
     3
100
AcDbCircle
 10
320.010331
 20
391.156049
 30
0.0
 40
6.0
100
AcDbArc
 50
255.773578
 51
265.219808
  0
ARC
  5
49D
100
AcDbEntity
  8
LAY-2
  6
CONTINUOUS
 62
     3
100
AcDbCircle
 10
320.010331
 20
391.156049
 30
0.0
 40
6.0
100
AcDbArc
 50
274.780192
 51
284.226422
  0
ELLIPSE
  5
49E
100
AcDbEntity
  8
LAY-2
  6
CONTINUOUS
 62
     3
100
AcDbEllipse
 10
120.010331
 20
384.516215
 30
0.0
 11
-4.0
 21
0.0000000000000005
 31
0.0
210
0.0
220
0.0
230
1.0
 40
0.221564
 41
3.1415926535897931
 42
0.0
  0
ELLIPSE
  5
49F
100
AcDbEntity
  8
LAY-2
  6
CONTINUOUS
 62
     3
100
AcDbEllipse
 10
120.010331
 20
384.516215
 30
0.0
 11
-4.0
 21
0.0000000000000005
 31
0.0
210
0.0
220
0.0
230
1.0
 40
0.447357
 41
0.0
 42
3.1415926535897931
  0
ARC
  5
4A0
100
AcDbEntity
  8
LAY-2
  6
CONTINUOUS
 62
     3
100
AcDbCircle
 10
120.010331
 20
391.156049
 30
0.0
 40
6.0
100
AcDbArc
 50
274.780192
 51
284.226422
  0
ARC
  5
4A1
100
AcDbEntity
  8
LAY-2
  6
CONTINUOUS
 62
     3
100
AcDbCircle
 10
120.010331
 20
391.156049
 30
0.0
 40
6.0
100
AcDbArc
 50
255.773578
 51
265.219808
  0
LINE
  5
4A2
100
AcDbEntity
  8
LAY-2
  6
CONTINUOUS
 62
     3
100
AcDbLine
 10
119.510331
 20
385.176919
 30
0.0
 11
119.510331
 21
385.395519
 31
0.0
  0
LINE
  5
4A3
100
AcDbEntity
  8
LAY-2
  6
CONTINUOUS
 62
     3
100
AcDbLine
 10
120.510331
 20
385.176919
 30
0.0
 11
120.510331
 21
385.395519
 31
0.0
  0
LINE
  5
4A4
100
AcDbEntity
  8
LAY-2
  6
CONTINUOUS
 62
     3
100
AcDbLine
 10
118.010331
 20
400.605371
 30
0.0
 11
122.010331
 21
401.346727
 31
0.0
  0
LINE
  5
4A5
100
AcDbEntity
  8
LAY-2
  6
CONTINUOUS
 62
     3
100
AcDbLine
 10
118.010331
 20
402.005371
 30
0.0
 11
122.010331
 21
402.746727
 31
0.0
  0
LINE
  5
4A6
100
AcDbEntity
  8
LAY-2
  6
CONTINUOUS
 62
     3
100
AcDbLine
 10
118.010331
 20
403.405371
 30
0.0
 11
122.010331
 21
404.146727
 31
0.0
  0
LINE
  5
4A7
100
AcDbEntity
  8
LAY-2
  6
CONTINUOUS
 62
     3
100
AcDbLine
 10
118.010331
 20
404.805371
 30
0.0
 11
122.010331
 21
405.546727
 31
0.0
  0
LINE
  5
4A8
100
AcDbEntity
  8
LAY-2
  6
CONTINUOUS
 62
     3
100
AcDbLine
 10
118.010331
 20
406.205371
 30
0.0
 11
122.010331
 21
406.946727
 31
0.0
  0
LINE
  5
4A9
100
AcDbEntity
  8
LAY-2
  6
CONTINUOUS
 62
     3
100
AcDbLine
 10
118.010331
 20
407.605371
 30
0.0
 11
122.010331
 21
408.346727
 31
0.0
  0
LINE
  5
4AA
100
AcDbEntity
  8
LAY-2
  6
CONTINUOUS
 62
     3
100
AcDbLine
 10
118.010331
 20
409.005371
 30
0.0
 11
122.010331
 21
409.746727
 31
0.0
  0
LINE
  5
4AB
100
AcDbEntity
  8
LAY-2
  6
CONTINUOUS
 62
     3
100
AcDbLine
 10
118.010331
 20
410.405371
 30
0.0
 11
122.010331
 21
411.146727
 31
0.0
  0
LINE
  5
4AC
100
AcDbEntity
  8
LAY-2
  6
CONTINUOUS
 62
     3
100
AcDbLine
 10
118.010331
 20
411.805371
 30
0.0
 11
122.010331
 21
412.546727
 31
0.0
  0
LINE
  5
4AD
100
AcDbEntity
  8
LAY-2
  6
CONTINUOUS
 62
     3
100
AcDbLine
 10
118.010331
 20
413.205371
 30
0.0
 11
122.010331
 21
413.946727
 31
0.0
  0
LINE
  5
4AE
100
AcDbEntity
  8
LAY-2
  6
CONTINUOUS
 62
     3
100
AcDbLine
 10
118.242354
 20
414.648374
 30
0.0
 11
121.531192
 21
415.257924
 31
0.0
  0
LINE
  5
4AF
100
AcDbEntity
  8
LAY-2
  6
CONTINUOUS
 62
     3
100
AcDbLine
 10
118.856032
 20
416.162112
 30
0.0
 11
121.00329
 21
416.560083
 31
0.0
  0
LINE
  5
4B0
100
AcDbEntity
  8
LAY-2
  6
CONTINUOUS
 62
     3
100
AcDbLine
 10
118.010331
 20
392.205371
 30
0.0
 11
122.010331
 21
392.946727
 31
0.0
  0
LINE
  5
4B1
100
AcDbEntity
  8
LAY-2
  6
CONTINUOUS
 62
     3
100
AcDbLine
 10
118.010331
 20
393.605371
 30
0.0
 11
122.010331
 21
394.346727
 31
0.0
  0
LINE
  5
4B2
100
AcDbEntity
  8
LAY-2
  6
CONTINUOUS
 62
     3
100
AcDbLine
 10
118.010331
 20
395.005371
 30
0.0
 11
122.010331
 21
395.746727
 31
0.0
  0
LINE
  5
4B3
100
AcDbEntity
  8
LAY-2
  6
CONTINUOUS
 62
     3
100
AcDbLine
 10
118.010331
 20
396.405371
 30
0.0
 11
122.010331
 21
397.146727
 31
0.0
  0
LINE
  5
4B4
100
AcDbEntity
  8
LAY-2
  6
CONTINUOUS
 62
     3
100
AcDbLine
 10
118.010331
 20
397.805371
 30
0.0
 11
122.010331
 21
398.546727
 31
0.0
  0
LINE
  5
4B5
100
AcDbEntity
  8
LAY-2
  6
CONTINUOUS
 62
     3
100
AcDbLine
 10
118.010331
 20
399.205371
 30
0.0
 11
122.010331
 21
399.946727
 31
0.0
  0
LINE
  5
4B6
100
AcDbEntity
  8
LAY-2
  6
CONTINUOUS
 62
     3
100
AcDbLine
 10
119.470779
 20
391.076049
 30
0.0
 11
122.010331
 21
391.546727
 31
0.0
  0
LINE
  5
4B7
100
AcDbEntity
  8
LAY-2
  6
CONTINUOUS
 62
     3
100
AcDbLine
 10
318.010331
 20
400.605371
 30
0.0
 11
322.010331
 21
401.346727
 31
0.0
  0
LINE
  5
4B8
100
AcDbEntity
  8
LAY-2
  6
CONTINUOUS
 62
     3
100
AcDbLine
 10
318.010331
 20
402.005371
 30
0.0
 11
322.010331
 21
402.746727
 31
0.0
  0
LINE
  5
4B9
100
AcDbEntity
  8
LAY-2
  6
CONTINUOUS
 62
     3
100
AcDbLine
 10
318.010331
 20
403.405371
 30
0.0
 11
322.010331
 21
404.146727
 31
0.0
  0
LINE
  5
4BA
100
AcDbEntity
  8
LAY-2
  6
CONTINUOUS
 62
     3
100
AcDbLine
 10
318.010331
 20
404.805371
 30
0.0
 11
322.010331
 21
405.546727
 31
0.0
  0
LINE
  5
4BB
100
AcDbEntity
  8
LAY-2
  6
CONTINUOUS
 62
     3
100
AcDbLine
 10
318.010331
 20
406.205371
 30
0.0
 11
322.010331
 21
406.946727
 31
0.0
  0
LINE
  5
4BC
100
AcDbEntity
  8
LAY-2
  6
CONTINUOUS
 62
     3
100
AcDbLine
 10
318.010331
 20
407.605371
 30
0.0
 11
322.010331
 21
408.346727
 31
0.0
  0
LINE
  5
4BD
100
AcDbEntity
  8
LAY-2
  6
CONTINUOUS
 62
     3
100
AcDbLine
 10
318.010331
 20
409.005371
 30
0.0
 11
322.010331
 21
409.746727
 31
0.0
  0
LINE
  5
4BE
100
AcDbEntity
  8
LAY-2
  6
CONTINUOUS
 62
     3
100
AcDbLine
 10
318.010331
 20
410.405371
 30
0.0
 11
322.010331
 21
411.146727
 31
0.0
  0
LINE
  5
4BF
100
AcDbEntity
  8
LAY-2
  6
CONTINUOUS
 62
     3
100
AcDbLine
 10
318.010331
 20
392.205371
 30
0.0
 11
322.010331
 21
392.946727
 31
0.0
  0
LINE
  5
4C0
100
AcDbEntity
  8
LAY-2
  6
CONTINUOUS
 62
     3
100
AcDbLine
 10
318.010331
 20
393.605371
 30
0.0
 11
322.010331
 21
394.346727
 31
0.0
  0
LINE
  5
4C1
100
AcDbEntity
  8
LAY-2
  6
CONTINUOUS
 62
     3
100
AcDbLine
 10
318.010331
 20
395.005371
 30
0.0
 11
322.010331
 21
395.746727
 31
0.0
  0
LINE
  5
4C2
100
AcDbEntity
  8
LAY-2
  6
CONTINUOUS
 62
     3
100
AcDbLine
 10
318.010331
 20
396.405371
 30
0.0
 11
322.010331
 21
397.146727
 31
0.0
  0
LINE
  5
4C3
100
AcDbEntity
  8
LAY-2
  6
CONTINUOUS
 62
     3
100
AcDbLine
 10
318.010331
 20
397.805371
 30
0.0
 11
322.010331
 21
398.546727
 31
0.0
  0
LINE
  5
4C4
100
AcDbEntity
  8
LAY-2
  6
CONTINUOUS
 62
     3
100
AcDbLine
 10
318.010331
 20
399.205371
 30
0.0
 11
322.010331
 21
399.946727
 31
0.0
  0
LINE
  5
4C5
100
AcDbEntity
  8
LAY-2
  6
CONTINUOUS
 62
     3
100
AcDbLine
 10
319.470779
 20
391.076049
 30
0.0
 11
322.010331
 21
391.546727
 31
0.0
  0
LINE
  5
4C6
100
AcDbEntity
  8
LAY-2
  6
CONTINUOUS
 62
     3
100
AcDbLine
 10
318.010331
 20
411.805371
 30
0.0
 11
322.010331
 21
412.546727
 31
0.0
  0
LINE
  5
4C7
100
AcDbEntity
  8
LAY-2
  6
CONTINUOUS
 62
     3
100
AcDbLine
 10
318.010331
 20
413.205371
 30
0.0
 11
322.010331
 21
413.946727
 31
0.0
  0
LINE
  5
4C8
100
AcDbEntity
  8
LAY-2
  6
CONTINUOUS
 62
     3
100
AcDbLine
 10
318.242354
 20
414.648374
 30
0.0
 11
321.531192
 21
415.257924
 31
0.0
  0
LINE
  5
4C9
100
AcDbEntity
  8
LAY-2
  6
CONTINUOUS
 62
     3
100
AcDbLine
 10
318.856032
 20
416.162112
 30
0.0
 11
321.00329
 21
416.560083
 31
0.0
  0
CIRCLE
  5
4CA
100
AcDbEntity
  8
LAY-2
  6
CONTINUOUS
 62
     3
100
AcDbCircle
 10
167.010331
 20
408.120291
 30
0.0
 40
10.0
  0
CIRCLE
  5
4CB
100
AcDbEntity
  8
LAY-2
  6
CONTINUOUS
 62
     3
100
AcDbCircle
 10
273.010331
 20
408.120291
 30
0.0
 40
10.0
  0
CIRCLE
  5
4CC
100
AcDbEntity
  8
LAY-2
  6
CONTINUOUS
 62
     3
100
AcDbCircle
 10
273.010331
 20
433.120291
 30
0.0
 40
10.0
  0
CIRCLE
  5
4CD
100
AcDbEntity
  8
LAY-2
  6
CONTINUOUS
 62
     3
100
AcDbCircle
 10
167.010331
 20
433.120291
 30
0.0
 40
10.0
  0
CIRCLE
  5
4CE
100
AcDbEntity
  8
LAY-2
  6
CONTINUOUS
 62
     3
100
AcDbCircle
 10
273.010331
 20
383.120291
 30
0.0
 40
10.0
  0
ENDSEC
  0
SECTION
  2
OBJECTS
  0
DICTIONARY
  5
19
100
AcDbDictionary
  3
ACAD_GROUP
350
1A
  3
ACAD_MLINESTYLE
350
1B
  0
DICTIONARY
  5
1A
102
{ACAD_REACTORS
330
19
102
}
100
AcDbDictionary
  0
DICTIONARY
  5
1B
102
{ACAD_REACTORS
330
19
102
}
100
AcDbDictionary
  3
STANDARD
350
1C
  0
MLINESTYLE
  5
1C
102
{ACAD_REACTORS
330
1B
102
}
100
AcDbMlineStyle
  2
Standard
 70
     0
  3

 62
     0
 51
90.0
 52
90.0
 71
     2
 49
0.5
 62
   256
  6
ByLayer
 49
-0.5
 62
   256
  6
ByLayer
  0
ENDSEC
  0
EOF
