  0
SECTION
  2
HEADER
  9
$ACADVER
  1
AC1014
  9
$ACADMAINTVER
 70
     0
  9
$DWGCODEPAGE
  3
ANSI_932
  9
$INSBASE
 10
0.0
 20
0.0
 30
0.0
  9
$EXTMIN
 10
-7.1
 20
11.5
 30
0.0
  9
$EXTMAX
 10
199.9
 20
291.5
 30
0.0
  9
$LIMMIN
 10
0.0
 20
0.0
  9
$LIMMAX
 10
210.0
 20
297.0
  9
$ORTHOMODE
 70
     0
  9
$REGENMODE
 70
     1
  9
$FILLMODE
 70
     1
  9
$QTEXTMODE
 70
     0
  9
$MIRRTEXT
 70
     1
  9
$DRAGMODE
 70
     2
  9
$LTSCALE
 40
1.0
  9
$OSMODE
 70
     0
  9
$ATTMODE
 70
     1
  9
$TEXTSIZE
 40
0.2
  9
$TRACEWID
 40
0.05
  9
$TEXTSTYLE
  7
STANDARD
  9
$CLAYER
  8
便器
  9
$CELTYPE
  6
CONTINUOUS
  9
$CECOLOR
 62
   256
  9
$CELTSCALE
 40
1.0
  9
$DELOBJ
 70
     1
  9
$DISPSILH
 70
     0
  9
$DIMSCALE
 40
1.0
  9
$DIMASZ
 40
0.18
  9
$DIMEXO
 40
0.0625
  9
$DIMDLI
 40
0.38
  9
$DIMRND
 40
0.0
  9
$DIMDLE
 40
0.0
  9
$DIMEXE
 40
0.18
  9
$DIMTP
 40
0.0
  9
$DIMTM
 40
0.0
  9
$DIMTXT
 40
0.18
  9
$DIMCEN
 40
0.09
  9
$DIMTSZ
 40
0.0
  9
$DIMTOL
 70
     0
  9
$DIMLIM
 70
     0
  9
$DIMTIH
 70
     1
  9
$DIMTOH
 70
     1
  9
$DIMSE1
 70
     0
  9
$DIMSE2
 70
     0
  9
$DIMTAD
 70
     0
  9
$DIMZIN
 70
     0
  9
$DIMBLK
  1

  9
$DIMASO
 70
     1
  9
$DIMSHO
 70
     1
  9
$DIMPOST
  1

  9
$DIMAPOST
  1

  9
$DIMALT
 70
     0
  9
$DIMALTD
 70
     2
  9
$DIMALTF
 40
25.4
  9
$DIMLFAC
 40
1.0
  9
$DIMTOFL
 70
     0
  9
$DIMTVP
 40
0.0
  9
$DIMTIX
 70
     0
  9
$DIMSOXD
 70
     0
  9
$DIMSAH
 70
     0
  9
$DIMBLK1
  1

  9
$DIMBLK2
  1

  9
$DIMSTYLE
  2
STANDARD
  9
$DIMCLRD
 70
     0
  9
$DIMCLRE
 70
     0
  9
$DIMCLRT
 70
     0
  9
$DIMTFAC
 40
1.0
  9
$DIMGAP
 40
0.09
  9
$DIMJUST
 70
     0
  9
$DIMSD1
 70
     0
  9
$DIMSD2
 70
     0
  9
$DIMTOLJ
 70
     1
  9
$DIMTZIN
 70
     0
  9
$DIMALTZ
 70
     0
  9
$DIMALTTZ
 70
     0
  9
$DIMFIT
 70
     3
  9
$DIMUPT
 70
     0
  9
$DIMUNIT
 70
     2
  9
$DIMDEC
 70
     4
  9
$DIMTDEC
 70
     4
  9
$DIMALTU
 70
     2
  9
$DIMALTTD
 70
     2
  9
$DIMTXSTY
  7
STANDARD
  9
$DIMAUNIT
 70
     0
  9
$LUNITS
 70
     2
  9
$LUPREC
 70
     4
  9
$SKETCHINC
 40
0.1
  9
$FILLETRAD
 40
0.0
  9
$AUNITS
 70
     0
  9
$AUPREC
 70
     0
  9
$MENU
  1
acad
  9
$ELEVATION
 40
0.0
  9
$PELEVATION
 40
0.0
  9
$THICKNESS
 40
0.0
  9
$LIMCHECK
 70
     0
  9
$BLIPMODE
 70
     1
  9
$CHAMFERA
 40
0.0
  9
$CHAMFERB
 40
0.0
  9
$CHAMFERC
 40
0.0
  9
$CHAMFERD
 40
0.0
  9
$SKPOLY
 70
     0
  9
$TDCREATE
 40
2454992.357711054
  9
$TDUPDATE
 40
2454992.357711054
  9
$TDINDWG
 40
0.0000000000
  9
$TDUSRTIMER
 40
0.0000000000
  9
$USRTIMER
 70
     1
  9
$ANGBASE
 50
0.0
  9
$ANGDIR
 70
     0
  9
$PDMODE
 70
     0
  9
$PDSIZE
 40
0.0
  9
$PLINEWID
 40
0.0
  9
$COORDS
 70
     1
  9
$SPLFRAME
 70
     0
  9
$SPLINETYPE
 70
     6
  9
$SPLINESEGS
 70
     8
  9
$ATTDIA
 70
     0
  9
$ATTREQ
 70
     1
  9
$HANDLING
 70
     1
  9
$HANDSEED
  5
8EA
  9
$SURFTAB1
 70
     6
  9
$SURFTAB2
 70
     6
  9
$SURFTYPE
 70
     6
  9
$SURFU
 70
     6
  9
$SURFV
 70
     6
  9
$UCSNAME
  2

  9
$UCSORG
 10
0.0
 20
0.0
 30
0.0
  9
$UCSXDIR
 10
1.0
 20
0.0
 30
0.0
  9
$UCSYDIR
 10
0.0
 20
1.0
 30
0.0
  9
$PUCSNAME
  2

  9
$PUCSORG
 10
0.0
 20
0.0
 30
0.0
  9
$PUCSXDIR
 10
1.0
 20
0.0
 30
0.0
  9
$PUCSYDIR
 10
0.0
 20
1.0
 30
0.0
  9
$USERI1
 70
     0
  9
$USERI2
 70
     0
  9
$USERI3
 70
     0
  9
$USERI4
 70
     0
  9
$USERI5
 70
     0
  9
$USERR1
 40
0.0
  9
$USERR2
 40
0.0
  9
$USERR3
 40
0.0
  9
$USERR4
 40
0.0
  9
$USERR5
 40
0.0
  9
$WORLDVIEW
 70
     1
  9
$SHADEDGE
 70
     3
  9
$SHADEDIF
 70
    70
  9
$TILEMODE
 70
     1
  9
$MAXACTVP
 70
    16
  9
$PINSBASE
 10
0.0
 20
0.0
 30
0.0
  9
$PLIMCHECK
 70
     0
  9
$PEXTMIN
 10
1.000000E+20
 20
1.000000E+20
 30
1.000000E+20
  9
$PEXTMAX
 10
-1.000000E+20
 20
-1.000000E+20
 30
-1.000000E+20
  9
$PLIMMIN
 10
0.0
 20
0.0
  9
$PLIMMAX
 10
12.0
 20
9.0
  9
$UNITMODE
 70
     0
  9
$VISRETAIN
 70
     0
  9
$PLINEGEN
 70
     1
  9
$PSLTSCALE
 70
     0
  9
$TREEDEPTH
 70
  3020
  9
$PICKSTYLE
 70
     1
  9
$CMLSTYLE
  2
Standard
  9
$CMLJUST
 70
     0
  9
$CMLSCALE
 40
1.0
  9
$PROXYGRAPHICS
 70
     0
  9
$MEASUREMENT
 70
     0
  0
ENDSEC
  0
SECTION
  2
CLASSES
  0
CLASS
  1
LWPOLYLINE
  2
AcDbPolyline
  3
"AutoCAD"
 90
        0
280
     0
281
     1
  0
CLASS
  1
IMAGE
  2
AcDbRasterImage
  3
ISM
 90
      127
280
     0
281
     1
  0
CLASS
  1
OLE2FRAME
  2
AcDbOle2Frame
  3
""
 90
        0
280
     0
281
     1
  0
CLASS
  1
HATCH
  2
AcDbHatch
  3
"ACAD_SEDONA"
 90
        0
280
     0
281
     1
  0
CLASS
  1
DICTIONARYVAR
  2
AcDbDictionaryVar
  3
"AutoCAD"
 90
        0
280
     0
281
     0
  0
CLASS
  1
RASTERVARIABLES
  2
AcDbRasterVariables
  3
ISM
 90
        0
280
     0
281
     0
  0
CLASS
  1
IMAGEDEF
  2
AcDbRasterImageDef
  3
ISM
 90
        0
280
     0
281
     0
  0
CLASS
  1
IMAGEDEF_REACTOR
  2
AcDbRasterImageDefReactor
  3
ISM
 90
        1
280
     0
281
     0
  0
CLASS
  1
IDBUFFER
  2
AcDbIdBuffer
  3
"Acad"
 90
        0
280
     0
281
     0
  0
CLASS
  1
SPATIAL_FILTER
  2
AcDbSpatialFilter
  3
"Acad"
 90
        0
280
     0
281
     0
  0
CLASS
  1
XRECORD
  2
AcDbXrecord
  3
"<Built In>"
 90
        0
280
     0
281
     0
  0
CLASS
  1
SORTENTSTABLE
  2
AcDbSortentsTable
  3
"AutoCAD"
 90
        0
280
     0
281
     0
  0
CLASS
  1
LAYER_INDEX
  2
AcDbLayerIndex
  3
"Acad"
 90
        0
280
     0
281
     0
  0
CLASS
  1
SPATIAL_INDEX
  2
AcDbSpatialIndex
  3
"Acad"
 90
        0
280
     0
281
     0
  0
CLASS
  1
OBJECT_PTR
  2
CAseDLPNTableRecord
  3
"ASE-LPNTableRecord"
 90
        1
280
     0
281
     0
  0
CLASS
  1
LAYOUT
  2
AcDbLayout
  3
"AutoCAD 2000"
 90
        1
280
     0
281
     0
  0
CLASS
  1
PLOTSETTINGS
  2
AcDbPlotSettings
  3
"AutoCAD 2000"
 90
        1
280
     0
281
     0
  0
CLASS
  1
ACDBDICTIONARYWDFLT
  2
AcDbDictionaryWithDefault
  3
"AutoCAD 2000"
 90
        1
280
     0
281
     0
  0
CLASS
  1
ACDBPLACEHOLDER
  2
AcDbPlaceHolder
  3
"AutoCAD 2000"
 90
        1
280
     0
281
     0
  0
CLASS
  1
VBA_PROJECT
  2
AcDbVbaProject
  3
"acadvba"
 90
        1
280
     0
281
     0
  0
CLASS
  1
WIPEOUT
  2
AcDbWipeout
  3
WipeOut|AutoCAD Express Tool|expresstools@autodesk.com
 90
      127
280
     0
281
     1
  0
CLASS
  1
WIPEOUTVARIABLES
  2
AcDbWipeoutVariables
  3
WipeOut|AutoCAD Express Tool|expresstools@autodesk.com
 90
        0
280
     0
281
     0
  0
CLASS
  1
RTEXT
  2
RText
  3
RText|AutoCAD Express Tool|expresstools@autodesk.com
 90
        0
280
     0
281
     1
  0
CLASS
  1
ARCALIGNEDTEXT
  2
AcDbArcAlignedText
  3
ATEXT|AutoCAD Express Tool|expresstools@autodesk.com
 90
        0
280
     0
281
     1
  0
ENDSEC
  0
SECTION
  2
TABLES
  0
TABLE
  2
VPORT
  5
7
100
AcDbSymbolTable
 70
     1
  0
VPORT
  5
15
100
AcDbSymbolTableRecord
100
AcDbViewportTableRecord
  2
*ACTIVE
 70
     0
 10
0.0
 20
0.0
 11
1.0
 21
1.0
 12
964.0
 22
1515.0
 13
0.0
 23
0.0
 14
1.0
 24
1.0
 15
0.0
 25
0.0
 16
0.0
 26
0.0
 36
1.0
 17
0.0
 27
0.0
 37
0.0
 40
2800.0
 41
1.722533
 42
50.0
 43
0.0
 44
0.0
 50
0.0
 51
0.0
 71
     0
 72
   100
 73
     1
 74
     1
 75
     0
 76
     0
 77
     0
 78
     0
  0
ENDTAB
  0
TABLE
  2
LTYPE
  5
4
100
AcDbSymbolTable
 70
     9
  0
LTYPE
  5
11
100
AcDbSymbolTableRecord
100
AcDbLinetypeTableRecord
  2
BYBLOCK
 70
    64
  3

 72
    65
 73
     0
 40
0.0
  0
LTYPE
  5
12
100
AcDbSymbolTableRecord
100
AcDbLinetypeTableRecord
  2
BYLAYER
 70
    64
  3

 72
    65
 73
     0
 40
0.0
  0
LTYPE
  5
13
100
AcDbSymbolTableRecord
100
AcDbLinetypeTableRecord
  2
CONTINUOUS
 70
    64
  3
実線
 72
    65
 73
     0
 40
0.0
  0
LTYPE
  5
1D
100
AcDbSymbolTableRecord
100
AcDbLinetypeTableRecord
  2
EXLTYPE1
 70
    64
  3
破線
 72
    65
 73
     2
 40
3.0
 49
2.0
 74
     0
 49
-1.0
 74
     0
  0
LTYPE
  5
1E
100
AcDbSymbolTableRecord
100
AcDbLinetypeTableRecord
  2
EXLTYPE2
 70
    64
  3
点線
 72
    65
 73
     2
 40
2.0
 49
1.0
 74
     0
 49
-1.0
 74
     0
  0
LTYPE
  5
1F
100
AcDbSymbolTableRecord
100
AcDbLinetypeTableRecord
  2
EXLTYPE3
 70
    64
  3
一点鎖線
 72
    65
 73
     4
 40
10.0
 49
7.0
 74
     0
 49
-1.0
 74
     0
 49
1.0
 74
     0
 49
-1.0
 74
     0
  0
LTYPE
  5
20
100
AcDbSymbolTableRecord
100
AcDbLinetypeTableRecord
  2
EXLTYPE4
 70
    64
  3
二点鎖線
 72
    65
 73
     6
 40
12.0
 49
7.0
 74
     0
 49
-1.0
 74
     0
 49
1.0
 74
     0
 49
-1.0
 74
     0
 49
1.0
 74
     0
 49
-1.0
 74
     0
  0
LTYPE
  5
21
100
AcDbSymbolTableRecord
100
AcDbLinetypeTableRecord
  2
EXLTYPE5
 70
    64
  3
三点鎖線
 72
    65
 73
     8
 40
37.0
 49
30.0
 74
     0
 49
-1.0
 74
     0
 49
1.0
 74
     0
 49
-1.0
 74
     0
 49
1.0
 74
     0
 49
-1.0
 74
     0
 49
1.0
 74
     0
 49
-1.0
 74
     0
  0
LTYPE
  5
22
100
AcDbSymbolTableRecord
100
AcDbLinetypeTableRecord
  2
EXLTYPE6
 70
    64
  3
四点鎖線
 72
    65
 73
    10
 40
39.0
 49
30.0
 74
     0
 49
-1.0
 74
     0
 49
1.0
 74
     0
 49
-1.0
 74
     0
 49
1.0
 74
     0
 49
-1.0
 74
     0
 49
1.0
 74
     0
 49
-1.0
 74
     0
 49
1.0
 74
     0
 49
-1.0
 74
     0
  0
ENDTAB
  0
TABLE
  2
LAYER
  5
2
100
AcDbSymbolTable
 70
    11
  0
LAYER
  5
14
100
AcDbSymbolTableRecord
100
AcDbLayerTableRecord
  2
0
 70
     0
 62
     7
  6
CONTINUOUS
  0
LAYER
  5
25
100
AcDbSymbolTableRecord
100
AcDbLayerTableRecord
  2
枠
 70
    64
 62
     7
  6
CONTINUOUS
  0
LAYER
  5
26
100
AcDbSymbolTableRecord
100
AcDbLayerTableRecord
  2
便器
 70
    64
 62
     7
  6
CONTINUOUS
  0
LAYER
  5
27
100
AcDbSymbolTableRecord
100
AcDbLayerTableRecord
  2
タンク
 70
    64
 62
     7
  6
CONTINUOUS
  0
LAYER
  5
28
100
AcDbSymbolTableRecord
100
AcDbLayerTableRecord
  2
止水栓
 70
    64
 62
     7
  6
CONTINUOUS
  0
LAYER
  5
29
100
AcDbSymbolTableRecord
100
AcDbLayerTableRecord
  2
便座
 70
    64
 62
     7
  6
CONTINUOUS
  0
LAYER
  5
2A
100
AcDbSymbolTableRecord
100
AcDbLayerTableRecord
  2
紙巻器
 70
    64
 62
     7
  6
CONTINUOUS
  0
LAYER
  5
2B
100
AcDbSymbolTableRecord
100
AcDbLayerTableRecord
  2
給水管
 70
    64
 62
     7
  6
CONTINUOUS
  0
LAYER
  5
2C
100
AcDbSymbolTableRecord
100
AcDbLayerTableRecord
  2
ﾃｷｽﾄ
 70
    64
 62
     7
  6
CONTINUOUS
  0
LAYER
  5
2D
100
AcDbSymbolTableRecord
100
AcDbLayerTableRecord
  2
寸法
 70
    64
 62
     7
  6
CONTINUOUS
  0
LAYER
  5
2E
100
AcDbSymbolTableRecord
100
AcDbLayerTableRecord
  2
器具明細表
 70
    64
 62
     7
  6
CONTINUOUS
  0
ENDTAB
  0
TABLE
  2
STYLE
  5
3
100
AcDbSymbolTable
 70
     6
  0
STYLE
  5
17
100
AcDbSymbolTableRecord
100
AcDbTextStyleTableRecord
  2
STANDARD
 70
     0
 40
0.0
 41
1.0
 50
0.0
 71
     0
 42
0.0
  3
monotxt
  4
extfont
  0
STYLE
  5
23
100
AcDbSymbolTableRecord
100
AcDbTextStyleTableRecord
  2
EXCADSTD
 70
    64
 40
0.0
 41
1.0
 50
0.0
 71
     0
 42
0.2
  3
monotxt
  4
extfont
  0
STYLE
  5
24
100
AcDbSymbolTableRecord
100
AcDbTextStyleTableRecord
  2
EXCADVERT
 70
    68
 40
0.0
 41
1.0
 50
0.0
 71
     0
 42
0.286885
  3
monotxt
  4
extfont
  0
STYLE
  5
B3
100
AcDbSymbolTableRecord
100
AcDbTextStyleTableRecord
  2
EXCADTTF1
 70
    64
 40
0.0
 41
1.0
 50
0.0
 71
     0
 42
0.2
  3
MS Gothic.ttf
  4

1001
ACAD
1000
MS Gothic
1071
    32817
  0
STYLE
  5
16C
100
AcDbSymbolTableRecord
100
AcDbTextStyleTableRecord
  2
EXCADDIM1
 70
    64
 40
0.0
 41
0.95
 50
0.0
 71
     0
 42
0.2
  3
monotxt
  4
extfont
  0
STYLE
  5
8AA
100
AcDbSymbolTableRecord
100
AcDbTextStyleTableRecord
  2
EXCADDIM2
 70
    64
 40
0.0
 41
0.84
 50
0.0
 71
     0
 42
0.2
  3
monotxt
  4
extfont
  0
ENDTAB
  0
TABLE
  2
VIEW
  5
5
100
AcDbSymbolTable
 70
     0
  0
ENDTAB
  0
TABLE
  2
UCS
  5
6
100
AcDbSymbolTable
 70
     0
  0
ENDTAB
  0
TABLE
  2
APPID
  5
8
100
AcDbSymbolTable
 70
     1
  0
APPID
  5
16
100
AcDbSymbolTableRecord
100
AcDbRegAppTableRecord
  2
ACAD
 70
     0
  0
ENDTAB
  0
TABLE
  2
DIMSTYLE
  5
9
100
AcDbSymbolTable
 70
     1
  0
DIMSTYLE
105
18
100
AcDbSymbolTableRecord
100
AcDbDimStyleTableRecord
  2
STANDARD
 70
     0
  3

  4

  5

  6

  7

 40
1.0
 41
0.18
 42
0.0625
 43
0.38
 44
0.18
 45
0.0
 46
0.0
 47
0.0
 48
0.0
 71
     0
 72
     0
 73
     1
 74
     1
 75
     0
 76
     0
 77
     0
 78
     0
140
0.18
141
0.09
142
0.0
143
25.4
144
1.0
145
0.0
146
1.0
147
0.09
170
     0
171
     2
172
     1
173
     0
174
     0
175
     0
176
     0
177
     0
178
     0
270
     2
271
     4
272
     4
273
     2
274
     2
275
     0
280
     0
281
     0
282
     0
283
     1
284
     0
285
     0
286
     0
287
     0
288
     0
340
17
  0
ENDTAB
  0
TABLE
  2
BLOCK_RECORD
  5
1
100
AcDbSymbolTable
 70
    33
  0
BLOCK_RECORD
  5
A
100
AcDbSymbolTableRecord
100
AcDbBlockTableRecord
  2
*MODEL_SPACE
  0
BLOCK_RECORD
  5
B
100
AcDbSymbolTableRecord
100
AcDbBlockTableRecord
  2
*PAPER_SPACE
  0
BLOCK_RECORD
  5
2F
100
AcDbSymbolTableRecord
100
AcDbBlockTableRecord
  2
_EX_NORM
  0
BLOCK_RECORD
  5
30
100
AcDbSymbolTableRecord
100
AcDbBlockTableRecord
  2
_EX_BNORM
  0
BLOCK_RECORD
  5
31
100
AcDbSymbolTableRecord
100
AcDbBlockTableRecord
  2
_EX_BCIR
  0
BLOCK_RECORD
  5
32
100
AcDbSymbolTableRecord
100
AcDbBlockTableRecord
  2
_EX_RCIVIL
  0
BLOCK_RECORD
  5
33
100
AcDbSymbolTableRecord
100
AcDbBlockTableRecord
  2
_EX_SLANT
  0
BLOCK_RECORD
  5
34
100
AcDbSymbolTableRecord
100
AcDbBlockTableRecord
  2
_EX_NONE
  0
BLOCK_RECORD
  5
35
100
AcDbSymbolTableRecord
100
AcDbBlockTableRecord
  2
_EX_CIVIL
  0
BLOCK_RECORD
  5
36
100
AcDbSymbolTableRecord
100
AcDbBlockTableRecord
  2
_EX_WCIR
  0
BLOCK_RECORD
  5
37
100
AcDbSymbolTableRecord
100
AcDbBlockTableRecord
  2
_EX_WCIR2
  0
BLOCK_RECORD
  5
38
100
AcDbSymbolTableRecord
100
AcDbBlockTableRecord
  2
_EX_WNORM
  0
BLOCK_RECORD
  5
39
100
AcDbSymbolTableRecord
100
AcDbBlockTableRecord
  2
_EX_NNORM
  0
BLOCK_RECORD
  5
3A
100
AcDbSymbolTableRecord
100
AcDbBlockTableRecord
  2
_EX_BBOX
  0
BLOCK_RECORD
  5
3B
100
AcDbSymbolTableRecord
100
AcDbBlockTableRecord
  2
_EX_WBOX
  0
BLOCK_RECORD
  5
3C
100
AcDbSymbolTableRecord
100
AcDbBlockTableRecord
  2
_EX_INTEGRAL
  0
BLOCK_RECORD
  5
3D
100
AcDbSymbolTableRecord
100
AcDbBlockTableRecord
  2
_OPEN30
  0
BLOCK_RECORD
  5
162
100
AcDbSymbolTableRecord
100
AcDbBlockTableRecord
  2
*D15
  0
BLOCK_RECORD
  5
170
100
AcDbSymbolTableRecord
100
AcDbBlockTableRecord
  2
*D16
  0
BLOCK_RECORD
  5
17A
100
AcDbSymbolTableRecord
100
AcDbBlockTableRecord
  2
*D17
  0
BLOCK_RECORD
  5
1FF
100
AcDbSymbolTableRecord
100
AcDbBlockTableRecord
  2
*D18
  0
BLOCK_RECORD
  5
828
100
AcDbSymbolTableRecord
100
AcDbBlockTableRecord
  2
*D19
  0
BLOCK_RECORD
  5
832
100
AcDbSymbolTableRecord
100
AcDbBlockTableRecord
  2
*D20
  0
BLOCK_RECORD
  5
83C
100
AcDbSymbolTableRecord
100
AcDbBlockTableRecord
  2
*D21
  0
BLOCK_RECORD
  5
846
100
AcDbSymbolTableRecord
100
AcDbBlockTableRecord
  2
*D22
  0
BLOCK_RECORD
  5
850
100
AcDbSymbolTableRecord
100
AcDbBlockTableRecord
  2
*D23
  0
BLOCK_RECORD
  5
864
100
AcDbSymbolTableRecord
100
AcDbBlockTableRecord
  2
*D24
  0
BLOCK_RECORD
  5
86F
100
AcDbSymbolTableRecord
100
AcDbBlockTableRecord
  2
*D25
  0
BLOCK_RECORD
  5
879
100
AcDbSymbolTableRecord
100
AcDbBlockTableRecord
  2
*D26
  0
BLOCK_RECORD
  5
883
100
AcDbSymbolTableRecord
100
AcDbBlockTableRecord
  2
*D27
  0
BLOCK_RECORD
  5
88D
100
AcDbSymbolTableRecord
100
AcDbBlockTableRecord
  2
*D28
  0
BLOCK_RECORD
  5
897
100
AcDbSymbolTableRecord
100
AcDbBlockTableRecord
  2
*D29
  0
BLOCK_RECORD
  5
8A1
100
AcDbSymbolTableRecord
100
AcDbBlockTableRecord
  2
*D30
  0
BLOCK_RECORD
  5
8AC
100
AcDbSymbolTableRecord
100
AcDbBlockTableRecord
  2
*D31
  0
BLOCK_RECORD
  5
8B6
100
AcDbSymbolTableRecord
100
AcDbBlockTableRecord
  2
*D32
  0
ENDTAB
  0
ENDSEC
  0
SECTION
  2
BLOCKS
  0
BLOCK
  5
D
100
AcDbEntity
  8
0
100
AcDbBlockBegin
  2
*MODEL_SPACE
 70
     0
 10
0.0
 20
0.0
 30
0.0
  3
*MODEL_SPACE
  1

  0
ENDBLK
  5
E
100
AcDbEntity
  8
0
100
AcDbBlockEnd
  0
BLOCK
  5
F
100
AcDbEntity
 67
     1
  8
0
100
AcDbBlockBegin
  2
*PAPER_SPACE
 70
     0
 10
0.0
 20
0.0
 30
0.0
  3
*PAPER_SPACE
  1

  0
ENDBLK
  5
10
100
AcDbEntity
 67
     1
  8
0
100
AcDbBlockEnd
  0
BLOCK
  5
3E
100
AcDbEntity
  8
0
100
AcDbBlockBegin
  2
_EX_NORM
 70
     0
 10
0.0
 20
0.0
 30
0.0
  3
_EX_NORM
  1

  0
LINE
  5
3F
100
AcDbEntity
  8
0
  6
CONTINUOUS
 62
     0
100
AcDbLine
 10
0.0
 20
0.0
 30
0.0
 11
-1.0
 21
0.0
 31
0.0
  0
LINE
  5
40
100
AcDbEntity
  8
0
  6
CONTINUOUS
 62
     0
100
AcDbLine
 10
0.0
 20
0.0
 30
0.0
 11
-1.0
 21
0.166667
 31
0.0
  0
LINE
  5
41
100
AcDbEntity
  8
0
  6
CONTINUOUS
 62
     0
100
AcDbLine
 10
0.0
 20
0.0
 30
0.0
 11
-1.0
 21
-0.166667
 31
0.0
  0
ENDBLK
  5
42
100
AcDbEntity
  8
0
100
AcDbBlockEnd
  0
BLOCK
  5
43
100
AcDbEntity
  8
0
100
AcDbBlockBegin
  2
_EX_BNORM
 70
     0
 10
0.0
 20
0.0
 30
0.0
  3
_EX_BNORM
  1

  0
LINE
  5
44
100
AcDbEntity
  8
0
  6
CONTINUOUS
 62
     0
100
AcDbLine
 10
0.0
 20
0.0
 30
0.0
 11
-1.0
 21
0.0
 31
0.0
  0
LINE
  5
45
100
AcDbEntity
  8
0
  6
CONTINUOUS
 62
     0
100
AcDbLine
 10
0.0
 20
0.0
 30
0.0
 11
-1.0
 21
0.166667
 31
0.0
  0
LINE
  5
46
100
AcDbEntity
  8
0
  6
CONTINUOUS
 62
     0
100
AcDbLine
 10
0.0
 20
0.0
 30
0.0
 11
-1.0
 21
-0.166667
 31
0.0
  0
LINE
  5
47
100
AcDbEntity
  8
0
  6
CONTINUOUS
 62
     0
100
AcDbLine
 10
0.0
 20
0.0
 30
0.0
 11
-1.0
 21
0.083333
 31
0.0
  0
LINE
  5
48
100
AcDbEntity
  8
0
  6
CONTINUOUS
 62
     0
100
AcDbLine
 10
0.0
 20
0.0
 30
0.0
 11
-1.0
 21
-0.083333
 31
0.0
  0
LINE
  5
49
100
AcDbEntity
  8
0
  6
CONTINUOUS
 62
     0
100
AcDbLine
 10
-1.0
 20
0.166667
 30
0.0
 11
-1.0
 21
-0.166667
 31
0.0
  0
ENDBLK
  5
4A
100
AcDbEntity
  8
0
100
AcDbBlockEnd
  0
BLOCK
  5
4B
100
AcDbEntity
  8
0
100
AcDbBlockBegin
  2
_EX_BCIR
 70
     0
 10
0.0
 20
0.0
 30
0.0
  3
_EX_BCIR
  1

  0
LINE
  5
4C
100
AcDbEntity
  8
0
  6
CONTINUOUS
 62
     0
100
AcDbLine
 10
0.0
 20
0.0
 30
0.0
 11
-1.0
 21
0.0
 31
0.0
  0
CIRCLE
  5
4D
100
AcDbEntity
  8
0
  6
CONTINUOUS
 62
     0
100
AcDbCircle
 10
0.0
 20
0.0
 30
0.0
 40
0.5
  0
CIRCLE
  5
4E
100
AcDbEntity
  8
0
  6
CONTINUOUS
 62
     0
100
AcDbCircle
 10
0.0
 20
0.0
 30
0.0
 40
0.25
  0
ENDBLK
  5
4F
100
AcDbEntity
  8
0
100
AcDbBlockEnd
  0
BLOCK
  5
50
100
AcDbEntity
  8
0
100
AcDbBlockBegin
  2
_EX_RCIVIL
 70
     0
 10
0.0
 20
0.0
 30
0.0
  3
_EX_RCIVIL
  1

  0
LINE
  5
51
100
AcDbEntity
  8
0
  6
CONTINUOUS
 62
     0
100
AcDbLine
 10
0.0
 20
0.0
 30
0.0
 11
-1.0
 21
0.0
 31
0.0
  0
LINE
  5
52
100
AcDbEntity
  8
0
  6
CONTINUOUS
 62
     0
100
AcDbLine
 10
-1.0
 20
-0.25
 30
0.0
 11
0.0
 21
-0.25
 31
0.0
  0
LINE
  5
53
100
AcDbEntity
  8
0
  6
CONTINUOUS
 62
     0
100
AcDbLine
 10
-1.0
 20
-0.125
 30
0.0
 11
0.0
 21
-0.125
 31
0.0
  0
ENDBLK
  5
54
100
AcDbEntity
  8
0
100
AcDbBlockEnd
  0
BLOCK
  5
55
100
AcDbEntity
  8
0
100
AcDbBlockBegin
  2
_EX_SLANT
 70
     0
 10
0.0
 20
0.0
 30
0.0
  3
_EX_SLANT
  1

  0
LINE
  5
56
100
AcDbEntity
  8
0
  6
CONTINUOUS
 62
     0
100
AcDbLine
 10
0.0
 20
0.0
 30
0.0
 11
-1.0
 21
0.0
 31
0.0
  0
LINE
  5
57
100
AcDbEntity
  8
0
  6
CONTINUOUS
 62
     0
100
AcDbLine
 10
0.707107
 20
0.707107
 30
0.0
 11
-0.707107
 21
-0.707107
 31
0.0
  0
ENDBLK
  5
58
100
AcDbEntity
  8
0
100
AcDbBlockEnd
  0
BLOCK
  5
59
100
AcDbEntity
  8
0
100
AcDbBlockBegin
  2
_EX_NONE
 70
     0
 10
0.0
 20
0.0
 30
0.0
  3
_EX_NONE
  1

  0
LINE
  5
5A
100
AcDbEntity
  8
0
  6
CONTINUOUS
 62
     0
100
AcDbLine
 10
0.0
 20
0.0
 30
0.0
 11
-1.0
 21
0.0
 31
0.0
  0
ENDBLK
  5
5B
100
AcDbEntity
  8
0
100
AcDbBlockEnd
  0
BLOCK
  5
5C
100
AcDbEntity
  8
0
100
AcDbBlockBegin
  2
_EX_CIVIL
 70
     0
 10
0.0
 20
0.0
 30
0.0
  3
_EX_CIVIL
  1

  0
LINE
  5
5D
100
AcDbEntity
  8
0
  6
CONTINUOUS
 62
     0
100
AcDbLine
 10
0.0
 20
0.0
 30
0.0
 11
-1.0
 21
0.0
 31
0.0
  0
LINE
  5
5E
100
AcDbEntity
  8
0
  6
CONTINUOUS
 62
     0
100
AcDbLine
 10
-1.0
 20
0.25
 30
0.0
 11
0.0
 21
0.25
 31
0.0
  0
LINE
  5
5F
100
AcDbEntity
  8
0
  6
CONTINUOUS
 62
     0
100
AcDbLine
 10
-1.0
 20
0.125
 30
0.0
 11
0.0
 21
0.125
 31
0.0
  0
ENDBLK
  5
60
100
AcDbEntity
  8
0
100
AcDbBlockEnd
  0
BLOCK
  5
61
100
AcDbEntity
  8
0
100
AcDbBlockBegin
  2
_EX_WCIR
 70
     0
 10
0.0
 20
0.0
 30
0.0
  3
_EX_WCIR
  1

  0
LINE
  5
62
100
AcDbEntity
  8
0
  6
CONTINUOUS
 62
     0
100
AcDbLine
 10
0.0
 20
0.0
 30
0.0
 11
-1.0
 21
0.0
 31
0.0
  0
CIRCLE
  5
63
100
AcDbEntity
  8
0
  6
CONTINUOUS
 62
     0
100
AcDbCircle
 10
0.0
 20
0.0
 30
0.0
 40
0.5
  0
ENDBLK
  5
64
100
AcDbEntity
  8
0
100
AcDbBlockEnd
  0
BLOCK
  5
65
100
AcDbEntity
  8
0
100
AcDbBlockBegin
  2
_EX_WCIR2
 70
     0
 10
0.0
 20
0.0
 30
0.0
  3
_EX_WCIR2
  1

  0
LINE
  5
66
100
AcDbEntity
  8
0
  6
CONTINUOUS
 62
     0
100
AcDbLine
 10
-0.5
 20
0.0
 30
0.0
 11
-1.0
 21
0.0
 31
0.0
  0
CIRCLE
  5
67
100
AcDbEntity
  8
0
  6
CONTINUOUS
 62
     0
100
AcDbCircle
 10
0.0
 20
0.0
 30
0.0
 40
0.5
  0
ENDBLK
  5
68
100
AcDbEntity
  8
0
100
AcDbBlockEnd
  0
BLOCK
  5
69
100
AcDbEntity
  8
0
100
AcDbBlockBegin
  2
_EX_WNORM
 70
     0
 10
0.0
 20
0.0
 30
0.0
  3
_EX_WNORM
  1

  0
LINE
  5
6A
100
AcDbEntity
  8
0
  6
CONTINUOUS
 62
     0
100
AcDbLine
 10
-1.0
 20
0.0
 30
0.0
 11
-1.0
 21
0.0
 31
0.0
  0
LINE
  5
6B
100
AcDbEntity
  8
0
  6
CONTINUOUS
 62
     0
100
AcDbLine
 10
0.0
 20
0.0
 30
0.0
 11
-1.0
 21
0.166667
 31
0.0
  0
LINE
  5
6C
100
AcDbEntity
  8
0
  6
CONTINUOUS
 62
     0
100
AcDbLine
 10
0.0
 20
0.0
 30
0.0
 11
-1.0
 21
-0.166667
 31
0.0
  0
LINE
  5
6D
100
AcDbEntity
  8
0
  6
CONTINUOUS
 62
     0
100
AcDbLine
 10
-1.0
 20
0.166667
 30
0.0
 11
-1.0
 21
-0.166667
 31
0.0
  0
ENDBLK
  5
6E
100
AcDbEntity
  8
0
100
AcDbBlockEnd
  0
BLOCK
  5
6F
100
AcDbEntity
  8
0
100
AcDbBlockBegin
  2
_EX_NNORM
 70
     0
 10
0.0
 20
0.0
 30
0.0
  3
_EX_NNORM
  1

  0
LINE
  5
70
100
AcDbEntity
  8
0
  6
CONTINUOUS
 62
     0
100
AcDbLine
 10
0.0
 20
0.0
 30
0.0
 11
-1.0
 21
0.0
 31
0.0
  0
LINE
  5
71
100
AcDbEntity
  8
0
  6
CONTINUOUS
 62
     0
100
AcDbLine
 10
0.0
 20
0.0
 30
0.0
 11
-1.0
 21
0.166667
 31
0.0
  0
LINE
  5
72
100
AcDbEntity
  8
0
  6
CONTINUOUS
 62
     0
100
AcDbLine
 10
0.0
 20
0.0
 30
0.0
 11
-1.0
 21
-0.166667
 31
0.0
  0
LINE
  5
73
100
AcDbEntity
  8
0
  6
CONTINUOUS
 62
     0
100
AcDbLine
 10
-1.0
 20
0.166667
 30
0.0
 11
-1.0
 21
-0.166667
 31
0.0
  0
ENDBLK
  5
74
100
AcDbEntity
  8
0
100
AcDbBlockEnd
  0
BLOCK
  5
75
100
AcDbEntity
  8
0
100
AcDbBlockBegin
  2
_EX_BBOX
 70
     0
 10
0.0
 20
0.0
 30
0.0
  3
_EX_BBOX
  1

  0
LINE
  5
76
100
AcDbEntity
  8
0
  6
CONTINUOUS
 62
     0
100
AcDbLine
 10
0.0
 20
0.0
 30
0.0
 11
-1.0
 21
0.0
 31
0.0
  0
LINE
  5
77
100
AcDbEntity
  8
0
  6
CONTINUOUS
 62
     0
100
AcDbLine
 10
-0.5
 20
0.5
 30
0.0
 11
0.5
 21
0.5
 31
0.0
  0
LINE
  5
78
100
AcDbEntity
  8
0
  6
CONTINUOUS
 62
     0
100
AcDbLine
 10
0.5
 20
0.5
 30
0.0
 11
0.5
 21
-0.5
 31
0.0
  0
LINE
  5
79
100
AcDbEntity
  8
0
  6
CONTINUOUS
 62
     0
100
AcDbLine
 10
0.5
 20
-0.5
 30
0.0
 11
-0.5
 21
-0.5
 31
0.0
  0
LINE
  5
7A
100
AcDbEntity
  8
0
  6
CONTINUOUS
 62
     0
100
AcDbLine
 10
-0.5
 20
-0.5
 30
0.0
 11
-0.5
 21
0.5
 31
0.0
  0
LINE
  5
7B
100
AcDbEntity
  8
0
  6
CONTINUOUS
 62
     0
100
AcDbLine
 10
-0.25
 20
0.25
 30
0.0
 11
0.25
 21
0.25
 31
0.0
  0
LINE
  5
7C
100
AcDbEntity
  8
0
  6
CONTINUOUS
 62
     0
100
AcDbLine
 10
0.25
 20
0.25
 30
0.0
 11
0.25
 21
-0.25
 31
0.0
  0
LINE
  5
7D
100
AcDbEntity
  8
0
  6
CONTINUOUS
 62
     0
100
AcDbLine
 10
0.25
 20
-0.25
 30
0.0
 11
-0.25
 21
-0.25
 31
0.0
  0
LINE
  5
7E
100
AcDbEntity
  8
0
  6
CONTINUOUS
 62
     0
100
AcDbLine
 10
-0.25
 20
-0.25
 30
0.0
 11
-0.25
 21
0.25
 31
0.0
  0
ENDBLK
  5
7F
100
AcDbEntity
  8
0
100
AcDbBlockEnd
  0
BLOCK
  5
80
100
AcDbEntity
  8
0
100
AcDbBlockBegin
  2
_EX_WBOX
 70
     0
 10
0.0
 20
0.0
 30
0.0
  3
_EX_WBOX
  1

  0
LINE
  5
81
100
AcDbEntity
  8
0
  6
CONTINUOUS
 62
     0
100
AcDbLine
 10
-0.5
 20
0.0
 30
0.0
 11
-1.0
 21
0.0
 31
0.0
  0
LINE
  5
82
100
AcDbEntity
  8
0
  6
CONTINUOUS
 62
     0
100
AcDbLine
 10
-0.5
 20
0.5
 30
0.0
 11
0.5
 21
0.5
 31
0.0
  0
LINE
  5
83
100
AcDbEntity
  8
0
  6
CONTINUOUS
 62
     0
100
AcDbLine
 10
0.5
 20
0.5
 30
0.0
 11
0.5
 21
-0.5
 31
0.0
  0
LINE
  5
84
100
AcDbEntity
  8
0
  6
CONTINUOUS
 62
     0
100
AcDbLine
 10
0.5
 20
-0.5
 30
0.0
 11
-0.5
 21
-0.5
 31
0.0
  0
LINE
  5
85
100
AcDbEntity
  8
0
  6
CONTINUOUS
 62
     0
100
AcDbLine
 10
-0.5
 20
-0.5
 30
0.0
 11
-0.5
 21
0.5
 31
0.0
  0
ENDBLK
  5
86
100
AcDbEntity
  8
0
100
AcDbBlockEnd
  0
BLOCK
  5
87
100
AcDbEntity
  8
0
100
AcDbBlockBegin
  2
_EX_INTEGRAL
 70
     0
 10
0.0
 20
0.0
 30
0.0
  3
_EX_INTEGRAL
  1

  0
LINE
  5
88
100
AcDbEntity
  8
0
  6
CONTINUOUS
 62
     0
100
AcDbLine
 10
0.0
 20
0.0
 30
0.0
 11
-1.0
 21
0.0
 31
0.0
  0
ARC
  5
89
100
AcDbEntity
  8
0
  6
CONTINUOUS
 62
     0
100
AcDbCircle
 10
0.542115
 20
0.164992
 30
0.0
 40
0.56667
100
AcDbArc
 50
73.07249
 51
196.927513
  0
ARC
  5
8A
100
AcDbEntity
  8
0
  6
CONTINUOUS
 62
     0
100
AcDbCircle
 10
-0.542115
 20
-0.164992
 30
0.0
 40
0.56667
100
AcDbArc
 50
253.072487
 51
16.927513
  0
ENDBLK
  5
8B
100
AcDbEntity
  8
0
100
AcDbBlockEnd
  0
BLOCK
  5
8C
100
AcDbEntity
  8
0
100
AcDbBlockBegin
  2
_OPEN30
 70
     0
 10
0.0
 20
0.0
 30
0.0
  3
_OPEN30
  1

  0
LINE
  5
8D
100
AcDbEntity
  8
0
  6
CONTINUOUS
 62
     6
100
AcDbLine
 10
-1.0
 20
0.267949
 30
0.0
 11
0.0
 21
0.0
 31
0.0
  0
LINE
  5
8E
100
AcDbEntity
  8
0
  6
CONTINUOUS
 62
     6
100
AcDbLine
 10
0.0
 20
0.0
 30
0.0
 11
-1.0
 21
-0.267949
 31
0.0
  0
LINE
  5
8F
100
AcDbEntity
  8
0
  6
CONTINUOUS
 62
     6
100
AcDbLine
 10
0.0
 20
0.0
 30
0.0
 11
-1.0
 21
0.0
 31
0.0
  0
ENDBLK
  5
90
100
AcDbEntity
  8
0
100
AcDbBlockEnd
  0
BLOCK
  5
163
100
AcDbEntity
  8
0
100
AcDbBlockBegin
  2
*D15
 70
    65
 10
0.0
 20
0.0
 30
0.0
  3
*D15
  1

  0
LINE
  5
164
100
AcDbEntity
  8
タンク
  6
CONTINUOUS
 62
     3
100
AcDbLine
 10
370.019141
 20
1449.145488
 30
0.0
 11
370.019141
 21
1549.310688
 31
0.0
  0
TEXT
  5
165
100
AcDbEntity
  8
タンク
  6
CONTINUOUS
 62
     2
100
AcDbText
 10
432.473945
 20
1532.810688
 30
0.0
 40
40.0
  1
225
 41
0.945
  7
EXCADSTD
 72
     1
 11
482.453945
 21
1532.810688
 31
0.0
100
AcDbText
  0
LINE
  5
166
100
AcDbEntity
  8
タンク
  6
CONTINUOUS
 62
     3
100
AcDbLine
 10
370.019141
 20
1529.310688
 30
0.0
 11
594.888748
 21
1529.310688
 31
0.0
  0
LINE
  5
167
100
AcDbEntity
  8
タンク
  6
CONTINUOUS
 62
     3
100
AcDbLine
 10
405.019141
 20
1535.144022
 30
0.0
 11
370.019141
 21
1529.310688
 31
0.0
  0
LINE
  5
168
100
AcDbEntity
  8
タンク
  6
CONTINUOUS
 62
     3
100
AcDbLine
 10
370.019141
 20
1529.310688
 30
0.0
 11
405.019141
 21
1523.477355
 31
0.0
  0
LINE
  5
169
100
AcDbEntity
  8
タンク
  6
CONTINUOUS
 62
     3
100
AcDbLine
 10
559.888748
 20
1523.477355
 30
0.0
 11
594.888748
 21
1529.310688
 31
0.0
  0
LINE
  5
16A
100
AcDbEntity
  8
タンク
  6
CONTINUOUS
 62
     3
100
AcDbLine
 10
594.888748
 20
1529.310688
 30
0.0
 11
559.888748
 21
1535.144022
 31
0.0
  0
ENDBLK
  5
16B
100
AcDbEntity
  8
0
100
AcDbBlockEnd
  0
BLOCK
  5
171
100
AcDbEntity
  8
0
100
AcDbBlockBegin
  2
*D16
 70
    65
 10
0.0
 20
0.0
 30
0.0
  3
*D16
  1

  0
TEXT
  5
172
100
AcDbEntity
  8
タンク
  6
CONTINUOUS
 62
     2
100
AcDbText
 10
242.5
 20
1169.330688
 30
0.0
 40
40.0
  1
460
 50
90.0
 41
0.945
  7
EXCADSTD
 72
     1
 11
242.5
 21
1219.310688
 31
0.0
100
AcDbText
  0
LINE
  5
173
100
AcDbEntity
  8
タンク
  6
CONTINUOUS
 62
     3
100
AcDbLine
 10
246.0
 20
1449.310688
 30
0.0
 11
246.0
 21
989.310688
 31
0.0
  0
LINE
  5
174
100
AcDbEntity
  8
タンク
  6
CONTINUOUS
 62
     3
100
AcDbLine
 10
251.833333
 20
1414.310688
 30
0.0
 11
246.0
 21
1449.310688
 31
0.0
  0
LINE
  5
175
100
AcDbEntity
  8
タンク
  6
CONTINUOUS
 62
     3
100
AcDbLine
 10
246.0
 20
1449.310688
 30
0.0
 11
240.166667
 21
1414.310688
 31
0.0
  0
LINE
  5
176
100
AcDbEntity
  8
タンク
  6
CONTINUOUS
 62
     3
100
AcDbLine
 10
240.166667
 20
1024.310688
 30
0.0
 11
246.0
 21
989.310688
 31
0.0
  0
LINE
  5
177
100
AcDbEntity
  8
タンク
  6
CONTINUOUS
 62
     3
100
AcDbLine
 10
246.0
 20
989.310688
 30
0.0
 11
251.833333
 21
1024.310688
 31
0.0
  0
ENDBLK
  5
178
100
AcDbEntity
  8
0
100
AcDbBlockEnd
  0
BLOCK
  5
17B
100
AcDbEntity
  8
0
100
AcDbBlockBegin
  2
*D17
 70
    65
 10
0.0
 20
0.0
 30
0.0
  3
*D17
  1

  0
LINE
  5
17C
100
AcDbEntity
  8
タンク
  6
CONTINUOUS
 62
     3
100
AcDbLine
 10
1453.403005
 20
1396.310688
 30
0.0
 11
1453.403005
 21
1549.310688
 31
0.0
  0
LINE
  5
17D
100
AcDbEntity
  8
タンク
  6
CONTINUOUS
 62
     3
100
AcDbLine
 10
1888.403005
 20
1396.310688
 30
0.0
 11
1888.403005
 21
1549.310688
 31
0.0
  0
TEXT
  5
17E
100
AcDbEntity
  8
タンク
  6
CONTINUOUS
 62
     2
100
AcDbText
 10
1620.923006
 20
1532.810688
 30
0.0
 40
40.0
  1
435
 41
0.945
  7
EXCADSTD
 72
     1
 11
1670.903005
 21
1532.810688
 31
0.0
100
AcDbText
  0
LINE
  5
17F
100
AcDbEntity
  8
タンク
  6
CONTINUOUS
 62
     3
100
AcDbLine
 10
1453.403005
 20
1529.310688
 30
0.0
 11
1888.403005
 21
1529.310688
 31
0.0
  0
LINE
  5
180
100
AcDbEntity
  8
タンク
  6
CONTINUOUS
 62
     3
100
AcDbLine
 10
1488.403005
 20
1535.144022
 30
0.0
 11
1453.403005
 21
1529.310688
 31
0.0
  0
LINE
  5
181
100
AcDbEntity
  8
タンク
  6
CONTINUOUS
 62
     3
100
AcDbLine
 10
1453.403005
 20
1529.310688
 30
0.0
 11
1488.403005
 21
1523.477355
 31
0.0
  0
LINE
  5
182
100
AcDbEntity
  8
タンク
  6
CONTINUOUS
 62
     3
100
AcDbLine
 10
1853.403005
 20
1523.477355
 30
0.0
 11
1888.403005
 21
1529.310688
 31
0.0
  0
LINE
  5
183
100
AcDbEntity
  8
タンク
  6
CONTINUOUS
 62
     3
100
AcDbLine
 10
1888.403005
 20
1529.310688
 30
0.0
 11
1853.403005
 21
1535.144022
 31
0.0
  0
ENDBLK
  5
184
100
AcDbEntity
  8
0
100
AcDbBlockEnd
  0
BLOCK
  5
200
100
AcDbEntity
  8
0
100
AcDbBlockBegin
  2
*D18
 70
    65
 10
0.0
 20
0.0
 30
0.0
  3
*D18
  1

  0
LINE
  5
201
100
AcDbEntity
  8
止水栓
  6
CONTINUOUS
 62
     3
100
AcDbLine
 10
1600.903005
 20
584.443207
 30
0.0
 11
1600.903005
 21
521.0
 31
0.0
  0
LINE
  5
202
100
AcDbEntity
  8
止水栓
  6
CONTINUOUS
 62
     3
100
AcDbLine
 10
1740.903005
 20
584.443207
 30
0.0
 11
1740.903005
 21
521.0
 31
0.0
  0
TEXT
  5
203
100
AcDbEntity
  8
止水栓
  6
CONTINUOUS
 62
     2
100
AcDbText
 10
1620.923005
 20
544.5
 30
0.0
 40
40.0
  1
140
 41
0.945
  7
EXCADSTD
 72
     1
 11
1670.903005
 21
544.5
 31
0.0
100
AcDbText
  0
LINE
  5
204
100
AcDbEntity
  8
止水栓
  6
CONTINUOUS
 62
     3
100
AcDbLine
 10
1600.903005
 20
541.0
 30
0.0
 11
1740.903005
 21
541.0
 31
0.0
  0
LINE
  5
205
100
AcDbEntity
  8
止水栓
  6
CONTINUOUS
 62
     3
100
AcDbLine
 10
1635.903005
 20
546.833333
 30
0.0
 11
1600.903005
 21
541.0
 31
0.0
  0
LINE
  5
206
100
AcDbEntity
  8
止水栓
  6
CONTINUOUS
 62
     3
100
AcDbLine
 10
1600.903005
 20
541.0
 30
0.0
 11
1635.903005
 21
535.166667
 31
0.0
  0
LINE
  5
207
100
AcDbEntity
  8
止水栓
  6
CONTINUOUS
 62
     3
100
AcDbLine
 10
1705.903005
 20
535.166667
 30
0.0
 11
1740.903005
 21
541.0
 31
0.0
  0
LINE
  5
208
100
AcDbEntity
  8
止水栓
  6
CONTINUOUS
 62
     3
100
AcDbLine
 10
1740.903005
 20
541.0
 30
0.0
 11
1705.903005
 21
546.833333
 31
0.0
  0
ENDBLK
  5
209
100
AcDbEntity
  8
0
100
AcDbBlockEnd
  0
BLOCK
  5
829
100
AcDbEntity
  8
0
100
AcDbBlockBegin
  2
*D19
 70
    65
 10
0.0
 20
0.0
 30
0.0
  3
*D19
  1

  0
TEXT
  5
82A
100
AcDbEntity
  8
寸法
  6
CONTINUOUS
 62
     2
100
AcDbText
 10
1191.5
 20
2381.330231
 30
0.0
 40
40.0
  1
355
 50
90.0
 41
0.945
  7
EXCADSTD
 72
     1
 11
1191.5
 21
2431.31023
 31
0.0
100
AcDbText
  0
LINE
  5
82B
100
AcDbEntity
  8
寸法
  6
CONTINUOUS
 62
     3
100
AcDbLine
 10
1195.0
 20
2608.809773
 30
0.0
 11
1195.0
 21
2253.810688
 31
0.0
  0
LINE
  5
82C
100
AcDbEntity
  8
寸法
  6
CONTINUOUS
 62
     3
100
AcDbLine
 10
1200.833333
 20
2573.809773
 30
0.0
 11
1195.0
 21
2608.809773
 31
0.0
  0
LINE
  5
82D
100
AcDbEntity
  8
寸法
  6
CONTINUOUS
 62
     3
100
AcDbLine
 10
1195.0
 20
2608.809773
 30
0.0
 11
1189.166667
 21
2573.809773
 31
0.0
  0
LINE
  5
82E
100
AcDbEntity
  8
寸法
  6
CONTINUOUS
 62
     3
100
AcDbLine
 10
1189.166667
 20
2288.810688
 30
0.0
 11
1195.0
 21
2253.810688
 31
0.0
  0
LINE
  5
82F
100
AcDbEntity
  8
寸法
  6
CONTINUOUS
 62
     3
100
AcDbLine
 10
1195.0
 20
2253.810688
 30
0.0
 11
1200.833333
 21
2288.810688
 31
0.0
  0
ENDBLK
  5
830
100
AcDbEntity
  8
0
100
AcDbBlockEnd
  0
BLOCK
  5
833
100
AcDbEntity
  8
0
100
AcDbBlockBegin
  2
*D20
 70
    65
 10
0.0
 20
0.0
 30
0.0
  3
*D20
  1

  0
TEXT
  5
834
100
AcDbEntity
  8
寸法
  6
CONTINUOUS
 62
     2
100
AcDbText
 10
303.5
 20
2231.330688
 30
0.0
 40
40.0
  1
300
 50
90.0
 41
0.945
  7
EXCADSTD
 72
     1
 11
303.5
 21
2281.310688
 31
0.0
100
AcDbText
  0
LINE
  5
835
100
AcDbEntity
  8
寸法
  6
CONTINUOUS
 62
     3
100
AcDbLine
 10
307.0
 20
2431.310688
 30
0.0
 11
307.0
 21
2131.310688
 31
0.0
  0
LINE
  5
836
100
AcDbEntity
  8
寸法
  6
CONTINUOUS
 62
     3
100
AcDbLine
 10
312.0
 20
2401.310688
 30
0.0
 11
307.0
 21
2431.310688
 31
0.0
  0
LINE
  5
837
100
AcDbEntity
  8
寸法
  6
CONTINUOUS
 62
     3
100
AcDbLine
 10
307.0
 20
2431.310688
 30
0.0
 11
302.0
 21
2401.310688
 31
0.0
  0
LINE
  5
838
100
AcDbEntity
  8
寸法
  6
CONTINUOUS
 62
     3
100
AcDbLine
 10
302.0
 20
2161.310688
 30
0.0
 11
307.0
 21
2131.310688
 31
0.0
  0
LINE
  5
839
100
AcDbEntity
  8
寸法
  6
CONTINUOUS
 62
     3
100
AcDbLine
 10
307.0
 20
2131.310688
 30
0.0
 11
312.0
 21
2161.310688
 31
0.0
  0
ENDBLK
  5
83A
100
AcDbEntity
  8
0
100
AcDbBlockEnd
  0
BLOCK
  5
83D
100
AcDbEntity
  8
0
100
AcDbBlockBegin
  2
*D21
 70
    65
 10
0.0
 20
0.0
 30
0.0
  3
*D21
  1

  0
TEXT
  5
83E
100
AcDbEntity
  8
寸法
  6
CONTINUOUS
 62
     2
100
AcDbText
 10
834.908906
 20
2128.5
 30
0.0
 40
40.0
  1
440
 41
0.945
  7
EXCADSTD
 72
     1
 11
884.888906
 21
2128.5
 31
0.0
100
AcDbText
  0
LINE
  5
83F
100
AcDbEntity
  8
寸法
  6
CONTINUOUS
 62
     3
100
AcDbLine
 10
664.888906
 20
2125.0
 30
0.0
 11
1104.888906
 21
2125.0
 31
0.0
  0
LINE
  5
840
100
AcDbEntity
  8
寸法
  6
CONTINUOUS
 62
     3
100
AcDbLine
 10
699.888906
 20
2130.833333
 30
0.0
 11
664.888906
 21
2125.0
 31
0.0
  0
LINE
  5
841
100
AcDbEntity
  8
寸法
  6
CONTINUOUS
 62
     3
100
AcDbLine
 10
664.888906
 20
2125.0
 30
0.0
 11
699.888906
 21
2119.166667
 31
0.0
  0
LINE
  5
842
100
AcDbEntity
  8
寸法
  6
CONTINUOUS
 62
     3
100
AcDbLine
 10
1069.888906
 20
2119.166667
 30
0.0
 11
1104.888906
 21
2125.0
 31
0.0
  0
LINE
  5
843
100
AcDbEntity
  8
寸法
  6
CONTINUOUS
 62
     3
100
AcDbLine
 10
1104.888906
 20
2125.0
 30
0.0
 11
1069.888906
 21
2130.833333
 31
0.0
  0
ENDBLK
  5
844
100
AcDbEntity
  8
0
100
AcDbBlockEnd
  0
BLOCK
  5
847
100
AcDbEntity
  8
0
100
AcDbBlockBegin
  2
*D22
 70
    65
 10
0.0
 20
0.0
 30
0.0
  3
*D22
  1

  0
TEXT
  5
848
100
AcDbEntity
  8
寸法
  6
CONTINUOUS
 62
     2
100
AcDbText
 10
687.408434
 20
2064.5
 30
0.0
 40
40.0
  1
735
 41
0.945
  7
EXCADSTD
 72
     1
 11
737.388434
 21
2064.5
 31
0.0
100
AcDbText
  0
LINE
  5
849
100
AcDbEntity
  8
寸法
  6
CONTINUOUS
 62
     3
100
AcDbLine
 10
369.887962
 20
2061.0
 30
0.0
 11
1104.888906
 21
2061.0
 31
0.0
  0
LINE
  5
84A
100
AcDbEntity
  8
寸法
  6
CONTINUOUS
 62
     3
100
AcDbLine
 10
399.887962
 20
2066.0
 30
0.0
 11
369.887962
 21
2061.0
 31
0.0
  0
LINE
  5
84B
100
AcDbEntity
  8
寸法
  6
CONTINUOUS
 62
     3
100
AcDbLine
 10
369.887962
 20
2061.0
 30
0.0
 11
399.887962
 21
2056.0
 31
0.0
  0
LINE
  5
84C
100
AcDbEntity
  8
寸法
  6
CONTINUOUS
 62
     3
100
AcDbLine
 10
1074.888906
 20
2056.0
 30
0.0
 11
1104.888906
 21
2061.0
 31
0.0
  0
LINE
  5
84D
100
AcDbEntity
  8
寸法
  6
CONTINUOUS
 62
     3
100
AcDbLine
 10
1104.888906
 20
2061.0
 30
0.0
 11
1074.888906
 21
2066.0
 31
0.0
  0
ENDBLK
  5
84E
100
AcDbEntity
  8
0
100
AcDbBlockEnd
  0
BLOCK
  5
851
100
AcDbEntity
  8
0
100
AcDbBlockBegin
  2
*D23
 70
    65
 10
0.0
 20
0.0
 30
0.0
  3
*D23
  1

  0
TEXT
  5
852
100
AcDbEntity
  8
寸法
  6
CONTINUOUS
 62
     2
100
AcDbText
 10
679.908906
 20
1999.5
 30
0.0
 40
40.0
  1
750
 41
0.945
  7
EXCADSTD
 72
     1
 11
729.888906
 21
1999.5
 31
0.0
100
AcDbText
  0
LINE
  5
853
100
AcDbEntity
  8
寸法
  6
CONTINUOUS
 62
     3
100
AcDbLine
 10
354.888906
 20
1996.0
 30
0.0
 11
1104.888906
 21
1996.0
 31
0.0
  0
LINE
  5
854
100
AcDbEntity
  8
寸法
  6
CONTINUOUS
 62
     3
100
AcDbLine
 10
384.888906
 20
2001.0
 30
0.0
 11
354.888906
 21
1996.0
 31
0.0
  0
LINE
  5
855
100
AcDbEntity
  8
寸法
  6
CONTINUOUS
 62
     3
100
AcDbLine
 10
354.888906
 20
1996.0
 30
0.0
 11
384.888906
 21
1991.0
 31
0.0
  0
LINE
  5
856
100
AcDbEntity
  8
寸法
  6
CONTINUOUS
 62
     3
100
AcDbLine
 10
1074.888906
 20
1991.0
 30
0.0
 11
1104.888906
 21
1996.0
 31
0.0
  0
LINE
  5
857
100
AcDbEntity
  8
寸法
  6
CONTINUOUS
 62
     3
100
AcDbLine
 10
1104.888906
 20
1996.0
 30
0.0
 11
1074.888906
 21
2001.0
 31
0.0
  0
ENDBLK
  5
858
100
AcDbEntity
  8
0
100
AcDbBlockEnd
  0
BLOCK
  5
865
100
AcDbEntity
  8
0
100
AcDbBlockBegin
  2
*D24
 70
    65
 10
0.0
 20
0.0
 30
0.0
  3
*D24
  1

  0
TEXT
  5
866
100
AcDbEntity
  8
寸法
  6
CONTINUOUS
 62
     2
100
AcDbText
 10
680.5
 20
659.330688
 30
0.0
 40
40.0
  1
170
 50
90.0
 41
0.945
  7
EXCADSTD
 72
     1
 11
680.5
 21
709.310688
 31
0.0
100
AcDbText
  0
LINE
  5
867
100
AcDbEntity
  8
寸法
  6
CONTINUOUS
 62
     3
100
AcDbLine
 10
684.0
 20
794.310688
 30
0.0
 11
684.0
 21
624.310688
 31
0.0
  0
LINE
  5
868
100
AcDbEntity
  8
寸法
  6
CONTINUOUS
 62
     3
100
AcDbLine
 10
689.0
 20
764.310688
 30
0.0
 11
684.0
 21
794.310688
 31
0.0
  0
LINE
  5
869
100
AcDbEntity
  8
寸法
  6
CONTINUOUS
 62
     3
100
AcDbLine
 10
684.0
 20
794.310688
 30
0.0
 11
679.0
 21
764.310688
 31
0.0
  0
LINE
  5
86A
100
AcDbEntity
  8
寸法
  6
CONTINUOUS
 62
     3
100
AcDbLine
 10
679.0
 20
654.310688
 30
0.0
 11
684.0
 21
624.310688
 31
0.0
  0
LINE
  5
86B
100
AcDbEntity
  8
寸法
  6
CONTINUOUS
 62
     3
100
AcDbLine
 10
684.0
 20
624.310688
 30
0.0
 11
689.0
 21
654.310688
 31
0.0
  0
ENDBLK
  5
86C
100
AcDbEntity
  8
0
100
AcDbBlockEnd
  0
BLOCK
  5
870
100
AcDbEntity
  8
0
100
AcDbBlockBegin
  2
*D25
 70
    65
 10
0.0
 20
0.0
 30
0.0
  3
*D25
  1

  0
TEXT
  5
871
100
AcDbEntity
  8
寸法
  6
CONTINUOUS
 62
     2
100
AcDbText
 10
407.443417
 20
544.5
 30
0.0
 40
40.0
  1
205
 41
0.945
  7
EXCADSTD
 72
     1
 11
457.423417
 21
544.5
 31
0.0
100
AcDbText
  0
LINE
  5
872
100
AcDbEntity
  8
寸法
  6
CONTINUOUS
 62
     3
100
AcDbLine
 10
354.888906
 20
541.0
 30
0.0
 11
559.957929
 21
541.0
 31
0.0
  0
LINE
  5
873
100
AcDbEntity
  8
寸法
  6
CONTINUOUS
 62
     3
100
AcDbLine
 10
384.888906
 20
546.0
 30
0.0
 11
354.888906
 21
541.0
 31
0.0
  0
LINE
  5
874
100
AcDbEntity
  8
寸法
  6
CONTINUOUS
 62
     3
100
AcDbLine
 10
354.888906
 20
541.0
 30
0.0
 11
384.888906
 21
536.0
 31
0.0
  0
LINE
  5
875
100
AcDbEntity
  8
寸法
  6
CONTINUOUS
 62
     3
100
AcDbLine
 10
529.957929
 20
536.0
 30
0.0
 11
559.957929
 21
541.0
 31
0.0
  0
LINE
  5
876
100
AcDbEntity
  8
寸法
  6
CONTINUOUS
 62
     3
100
AcDbLine
 10
559.957929
 20
541.0
 30
0.0
 11
529.957929
 21
546.0
 31
0.0
  0
ENDBLK
  5
877
100
AcDbEntity
  8
0
100
AcDbBlockEnd
  0
BLOCK
  5
87A
100
AcDbEntity
  8
0
100
AcDbBlockBegin
  2
*D26
 70
    65
 10
0.0
 20
0.0
 30
0.0
  3
*D26
  1

  0
TEXT
  5
87B
100
AcDbEntity
  8
寸法
  6
CONTINUOUS
 62
     2
100
AcDbText
 10
502.408951
 20
481.5
 30
0.0
 40
40.0
  1
395
 41
0.945
  7
EXCADSTD
 72
     1
 11
552.388951
 21
481.5
 31
0.0
100
AcDbText
  0
LINE
  5
87C
100
AcDbEntity
  8
寸法
  6
CONTINUOUS
 62
     3
100
AcDbLine
 10
354.888906
 20
478.0
 30
0.0
 11
749.888995
 21
478.0
 31
0.0
  0
LINE
  5
87D
100
AcDbEntity
  8
寸法
  6
CONTINUOUS
 62
     3
100
AcDbLine
 10
384.888906
 20
483.0
 30
0.0
 11
354.888906
 21
478.0
 31
0.0
  0
LINE
  5
87E
100
AcDbEntity
  8
寸法
  6
CONTINUOUS
 62
     3
100
AcDbLine
 10
354.888906
 20
478.0
 30
0.0
 11
384.888906
 21
473.0
 31
0.0
  0
LINE
  5
87F
100
AcDbEntity
  8
寸法
  6
CONTINUOUS
 62
     3
100
AcDbLine
 10
719.888995
 20
473.0
 30
0.0
 11
749.888995
 21
478.0
 31
0.0
  0
LINE
  5
880
100
AcDbEntity
  8
寸法
  6
CONTINUOUS
 62
     3
100
AcDbLine
 10
749.888995
 20
478.0
 30
0.0
 11
719.888995
 21
483.0
 31
0.0
  0
ENDBLK
  5
881
100
AcDbEntity
  8
0
100
AcDbBlockEnd
  0
BLOCK
  5
884
100
AcDbEntity
  8
0
100
AcDbBlockBegin
  2
*D27
 70
    65
 10
0.0
 20
0.0
 30
0.0
  3
*D27
  1

  0
TEXT
  5
885
100
AcDbEntity
  8
寸法
  6
CONTINUOUS
 62
     2
100
AcDbText
 10
242.5
 20
756.830688
 30
0.0
 40
40.0
  1
365
 50
90.0
 41
0.945
  7
EXCADSTD
 72
     1
 11
242.5
 21
806.810688
 31
0.0
100
AcDbText
  0
LINE
  5
886
100
AcDbEntity
  8
寸法
  6
CONTINUOUS
 62
     3
100
AcDbLine
 10
246.0
 20
989.310688
 30
0.0
 11
246.0
 21
624.310688
 31
0.0
  0
LINE
  5
887
100
AcDbEntity
  8
寸法
  6
CONTINUOUS
 62
     3
100
AcDbLine
 10
251.0
 20
959.310688
 30
0.0
 11
246.0
 21
989.310688
 31
0.0
  0
LINE
  5
888
100
AcDbEntity
  8
寸法
  6
CONTINUOUS
 62
     3
100
AcDbLine
 10
246.0
 20
989.310688
 30
0.0
 11
241.0
 21
959.310688
 31
0.0
  0
LINE
  5
889
100
AcDbEntity
  8
寸法
  6
CONTINUOUS
 62
     3
100
AcDbLine
 10
241.0
 20
654.310688
 30
0.0
 11
246.0
 21
624.310688
 31
0.0
  0
LINE
  5
88A
100
AcDbEntity
  8
寸法
  6
CONTINUOUS
 62
     3
100
AcDbLine
 10
246.0
 20
624.310688
 30
0.0
 11
251.0
 21
654.310688
 31
0.0
  0
ENDBLK
  5
88B
100
AcDbEntity
  8
0
100
AcDbBlockEnd
  0
BLOCK
  5
88E
100
AcDbEntity
  8
0
100
AcDbBlockBegin
  2
*D28
 70
    65
 10
0.0
 20
0.0
 30
0.0
  3
*D28
  1

  0
TEXT
  5
88F
100
AcDbEntity
  8
寸法
  6
CONTINUOUS
 62
     2
100
AcDbText
 10
1190.5
 20
749.330688
 30
0.0
 40
40.0
  1
350
 50
90.0
 41
0.945
  7
EXCADSTD
 72
     1
 11
1190.5
 21
799.310688
 31
0.0
100
AcDbText
  0
LINE
  5
890
100
AcDbEntity
  8
寸法
  6
CONTINUOUS
 62
     3
100
AcDbLine
 10
1194.0
 20
974.310688
 30
0.0
 11
1194.0
 21
624.310688
 31
0.0
  0
LINE
  5
891
100
AcDbEntity
  8
寸法
  6
CONTINUOUS
 62
     3
100
AcDbLine
 10
1199.0
 20
944.310688
 30
0.0
 11
1194.0
 21
974.310688
 31
0.0
  0
LINE
  5
892
100
AcDbEntity
  8
寸法
  6
CONTINUOUS
 62
     3
100
AcDbLine
 10
1194.0
 20
974.310688
 30
0.0
 11
1189.0
 21
944.310688
 31
0.0
  0
LINE
  5
893
100
AcDbEntity
  8
寸法
  6
CONTINUOUS
 62
     3
100
AcDbLine
 10
1189.0
 20
654.310688
 30
0.0
 11
1194.0
 21
624.310688
 31
0.0
  0
LINE
  5
894
100
AcDbEntity
  8
寸法
  6
CONTINUOUS
 62
     3
100
AcDbLine
 10
1194.0
 20
624.310688
 30
0.0
 11
1199.0
 21
654.310688
 31
0.0
  0
ENDBLK
  5
895
100
AcDbEntity
  8
0
100
AcDbBlockEnd
  0
BLOCK
  5
898
100
AcDbEntity
  8
0
100
AcDbBlockBegin
  2
*D29
 70
    65
 10
0.0
 20
0.0
 30
0.0
  3
*D29
  1

  0
TEXT
  5
899
100
AcDbEntity
  8
寸法
  6
CONTINUOUS
 62
     2
100
AcDbText
 10
1269.5
 20
898.250688
 30
0.0
 40
40.0
  1
（710）
 50
90.0
 41
0.945
  7
EXCADSTD
 72
     1
 11
1269.5
 21
979.310688
 31
0.0
100
AcDbText
  0
LINE
  5
89A
100
AcDbEntity
  8
寸法
  6
CONTINUOUS
 62
     3
100
AcDbLine
 10
1273.0
 20
1334.310688
 30
0.0
 11
1273.0
 21
624.310688
 31
0.0
  0
LINE
  5
89B
100
AcDbEntity
  8
寸法
  6
CONTINUOUS
 62
     3
100
AcDbLine
 10
1278.0
 20
1304.310688
 30
0.0
 11
1273.0
 21
1334.310688
 31
0.0
  0
LINE
  5
89C
100
AcDbEntity
  8
寸法
  6
CONTINUOUS
 62
     3
100
AcDbLine
 10
1273.0
 20
1334.310688
 30
0.0
 11
1268.0
 21
1304.310688
 31
0.0
  0
LINE
  5
89D
100
AcDbEntity
  8
寸法
  6
CONTINUOUS
 62
     3
100
AcDbLine
 10
1268.0
 20
654.310688
 30
0.0
 11
1273.0
 21
624.310688
 31
0.0
  0
LINE
  5
89E
100
AcDbEntity
  8
寸法
  6
CONTINUOUS
 62
     3
100
AcDbLine
 10
1273.0
 20
624.310688
 30
0.0
 11
1278.0
 21
654.310688
 31
0.0
  0
ENDBLK
  5
89F
100
AcDbEntity
  8
0
100
AcDbBlockEnd
  0
BLOCK
  5
8A2
100
AcDbEntity
  8
0
100
AcDbBlockBegin
  2
*D30
 70
    65
 10
0.0
 20
0.0
 30
0.0
  3
*D30
  1

  0
TEXT
  5
8A3
100
AcDbEntity
  8
寸法
  6
CONTINUOUS
 62
     2
100
AcDbText
 10
362.888906
 20
682.5
 30
0.0
 40
40.0
  1
100
 41
0.84
  7
EXCADSTD
 72
     1
 11
404.888906
 21
682.5
 31
0.0
100
AcDbText
  0
LINE
  5
8A4
100
AcDbEntity
  8
寸法
  6
CONTINUOUS
 62
     3
100
AcDbLine
 10
354.888906
 20
679.0
 30
0.0
 11
454.888906
 21
679.0
 31
0.0
  0
LINE
  5
8A5
100
AcDbEntity
  8
寸法
  6
CONTINUOUS
 62
     3
100
AcDbLine
 10
384.888906
 20
684.0
 30
0.0
 11
354.888906
 21
679.0
 31
0.0
  0
LINE
  5
8A6
100
AcDbEntity
  8
寸法
  6
CONTINUOUS
 62
     3
100
AcDbLine
 10
354.888906
 20
679.0
 30
0.0
 11
384.888906
 21
674.0
 31
0.0
  0
LINE
  5
8A7
100
AcDbEntity
  8
寸法
  6
CONTINUOUS
 62
     3
100
AcDbLine
 10
424.888906
 20
674.0
 30
0.0
 11
454.888906
 21
679.0
 31
0.0
  0
LINE
  5
8A8
100
AcDbEntity
  8
寸法
  6
CONTINUOUS
 62
     3
100
AcDbLine
 10
454.888906
 20
679.0
 30
0.0
 11
424.888906
 21
684.0
 31
0.0
  0
ENDBLK
  5
8A9
100
AcDbEntity
  8
0
100
AcDbBlockEnd
  0
BLOCK
  5
8AD
100
AcDbEntity
  8
0
100
AcDbBlockBegin
  2
*D31
 70
    65
 10
0.0
 20
0.0
 30
0.0
  3
*D31
  1

  0
TEXT
  5
8AE
100
AcDbEntity
  8
寸法
  6
CONTINUOUS
 62
     2
100
AcDbText
 10
678.828906
 20
1228.5
 30
0.0
 40
40.0
  1
（810）
 41
0.945
  7
EXCADSTD
 72
     1
 11
759.888906
 21
1228.5
 31
0.0
100
AcDbText
  0
LINE
  5
8AF
100
AcDbEntity
  8
寸法
  6
CONTINUOUS
 62
     3
100
AcDbLine
 10
1164.888906
 20
1225.0
 30
0.0
 11
354.888906
 21
1225.0
 31
0.0
  0
LINE
  5
8B0
100
AcDbEntity
  8
寸法
  6
CONTINUOUS
 62
     3
100
AcDbLine
 10
1129.888906
 20
1219.166667
 30
0.0
 11
1164.888906
 21
1225.0
 31
0.0
  0
LINE
  5
8B1
100
AcDbEntity
  8
寸法
  6
CONTINUOUS
 62
     3
100
AcDbLine
 10
1164.888906
 20
1225.0
 30
0.0
 11
1129.888906
 21
1230.833333
 31
0.0
  0
LINE
  5
8B2
100
AcDbEntity
  8
寸法
  6
CONTINUOUS
 62
     3
100
AcDbLine
 10
389.888906
 20
1230.833333
 30
0.0
 11
354.888906
 21
1225.0
 31
0.0
  0
LINE
  5
8B3
100
AcDbEntity
  8
寸法
  6
CONTINUOUS
 62
     3
100
AcDbLine
 10
354.888906
 20
1225.0
 30
0.0
 11
389.888906
 21
1219.166667
 31
0.0
  0
ENDBLK
  5
8B4
100
AcDbEntity
  8
0
100
AcDbBlockEnd
  0
BLOCK
  5
8B7
100
AcDbEntity
  8
0
100
AcDbBlockBegin
  2
*D32
 70
    65
 10
0.0
 20
0.0
 30
0.0
  3
*D32
  1

  0
LINE
  5
8B8
100
AcDbEntity
  8
寸法
  6
CONTINUOUS
 62
     3
100
AcDbLine
 10
341.1
 20
924.260688
 30
0.0
 11
290.0
 21
924.260688
 31
0.0
  0
TEXT
  5
8B9
100
AcDbEntity
  8
寸法
  6
CONTINUOUS
 62
     2
100
AcDbText
 10
307.0
 20
669.285688
 30
0.0
 40
40.0
  1
300（壁給水）
 50
90.0
 41
0.84
  7
EXCADSTD
 72
     1
 11
307.0
 21
774.285688
 31
0.0
100
AcDbText
  0
LINE
  5
8BA
100
AcDbEntity
  8
寸法
  6
CONTINUOUS
 62
     3
100
AcDbLine
 10
310.0
 20
624.310688
 30
0.0
 11
310.0
 21
924.260688
 31
0.0
  0
LINE
  5
8BB
100
AcDbEntity
  8
寸法
  6
CONTINUOUS
 62
     3
100
AcDbLine
 10
305.0
 20
654.310688
 30
0.0
 11
310.0
 21
624.310688
 31
0.0
  0
LINE
  5
8BC
100
AcDbEntity
  8
寸法
  6
CONTINUOUS
 62
     3
100
AcDbLine
 10
310.0
 20
624.310688
 30
0.0
 11
315.0
 21
654.310688
 31
0.0
  0
LINE
  5
8BD
100
AcDbEntity
  8
寸法
  6
CONTINUOUS
 62
     3
100
AcDbLine
 10
315.0
 20
894.260688
 30
0.0
 11
310.0
 21
924.260688
 31
0.0
  0
LINE
  5
8BE
100
AcDbEntity
  8
寸法
  6
CONTINUOUS
 62
     3
100
AcDbLine
 10
310.0
 20
924.260688
 30
0.0
 11
305.0
 21
894.260688
 31
0.0
  0
ENDBLK
  5
8BF
100
AcDbEntity
  8
0
100
AcDbBlockEnd
  0
ENDSEC
  0
SECTION
  2
ENTITIES
  0
TEXT
  5
91
100
AcDbEntity
  8
枠
  6
CONTINUOUS
 62
     2
100
AcDbText
 10
201.5
 20
287.5
 30
0.0
 40
45.0
  1
製図
 41
1.026667
  7
EXCADSTD
 72
     5
 11
302.326
 21
287.5
 31
0.0
100
AcDbText
  0
TEXT
  5
92
100
AcDbEntity
  8
枠
  6
CONTINUOUS
 62
     2
100
AcDbText
 10
356.5
 20
287.5
 30
0.0
 40
45.0
  1
写図
 41
1.026667
  7
EXCADSTD
 72
     5
 11
457.326
 21
287.5
 31
0.0
100
AcDbText
  0
TEXT
  5
93
100
AcDbEntity
  8
枠
  6
CONTINUOUS
 62
     2
100
AcDbText
 10
504.0
 20
287.5
 30
0.0
 40
45.0
  1
検図
 41
0.933333
  7
EXCADSTD
 72
     5
 11
595.66
 21
287.5
 31
0.0
100
AcDbText
  0
TEXT
  5
94
100
AcDbEntity
  8
枠
  6
CONTINUOUS
 62
     2
100
AcDbText
 10
634.0
 20
287.5
 30
0.0
 40
45.0
  1
承認
 41
0.933333
  7
EXCADSTD
 72
     5
 11
725.66
 21
287.5
 31
0.0
100
AcDbText
  0
TEXT
  5
95
100
AcDbEntity
  8
枠
  6
CONTINUOUS
 62
     2
100
AcDbText
 10
774.0
 20
325.0
 30
0.0
 40
45.0
  1
品名
  7
EXCADVERT
 72
     3
 11
774.0
 21
225.0
 31
0.0
100
AcDbText
  0
TEXT
  5
96
100
AcDbEntity
  8
枠
  6
CONTINUOUS
 62
     2
100
AcDbText
 10
1414.0
 20
325.0
 30
0.0
 40
45.0
  1
品番
  7
EXCADVERT
 72
     3
 11
1414.0
 21
225.0
 31
0.0
100
AcDbText
  0
TEXT
  5
97
100
AcDbEntity
  8
枠
  6
CONTINUOUS
 62
     2
100
AcDbText
 10
1834.0
 20
325.0
 30
0.0
 40
45.0
  1
尺度
  7
EXCADVERT
 72
     3
 11
1834.0
 21
225.0
 31
0.0
100
AcDbText
  0
TEXT
  5
98
100
AcDbEntity
  8
枠
  6
CONTINUOUS
 62
     2
100
AcDbText
 10
1414.0
 20
210.0
 30
0.0
 40
45.0
  1
図番
  7
EXCADVERT
 72
     3
 11
1414.0
 21
120.0
 31
0.0
100
AcDbText
  0
LINE
  5
99
100
AcDbEntity
  8
枠
  6
CONTINUOUS
 62
     7
100
AcDbLine
 10
179.0
 20
115.0
 30
0.0
 11
1999.0
 21
115.0
 31
0.0
  0
LINE
  5
9A
100
AcDbEntity
  8
枠
  6
CONTINUOUS
 62
     7
100
AcDbLine
 10
1999.0
 20
115.0
 30
0.0
 11
1999.0
 21
2915.0
 31
0.0
  0
LINE
  5
9B
100
AcDbEntity
  8
枠
  6
CONTINUOUS
 62
     7
100
AcDbLine
 10
179.0
 20
115.0
 30
0.0
 11
179.0
 21
2915.0
 31
0.0
  0
LINE
  5
9C
100
AcDbEntity
  8
枠
  6
CONTINUOUS
 62
     7
100
AcDbLine
 10
179.0
 20
2915.0
 30
0.0
 11
1999.0
 21
2915.0
 31
0.0
  0
LINE
  5
9D
100
AcDbEntity
  8
枠
  6
CONTINUOUS
 62
     7
100
AcDbLine
 10
179.0
 20
335.0
 30
0.0
 11
1999.0
 21
335.0
 31
0.0
  0
LINE
  5
9E
100
AcDbEntity
  8
枠
  6
CONTINUOUS
 62
     6
100
AcDbLine
 10
1999.0
 20
215.0
 30
0.0
 11
749.0
 21
215.0
 31
0.0
  0
LINE
  5
9F
100
AcDbEntity
  8
枠
  6
CONTINUOUS
 62
     6
100
AcDbLine
 10
1859.0
 20
335.0
 30
0.0
 11
1859.0
 21
215.0
 31
0.0
  0
LINE
  5
A0
100
AcDbEntity
  8
枠
  6
CONTINUOUS
 62
     6
100
AcDbLine
 10
1809.0
 20
335.0
 30
0.0
 11
1809.0
 21
215.0
 31
0.0
  0
LINE
  5
A1
100
AcDbEntity
  8
枠
  6
CONTINUOUS
 62
     6
100
AcDbLine
 10
1439.0
 20
335.0
 30
0.0
 11
1439.0
 21
115.0
 31
0.0
  0
LINE
  5
A2
100
AcDbEntity
  8
枠
  6
CONTINUOUS
 62
     6
100
AcDbLine
 10
1389.0
 20
335.0
 30
0.0
 11
1389.0
 21
115.0
 31
0.0
  0
LINE
  5
A3
100
AcDbEntity
  8
枠
  6
CONTINUOUS
 62
     6
100
AcDbLine
 10
799.0
 20
335.0
 30
0.0
 11
799.0
 21
215.0
 31
0.0
  0
LINE
  5
A4
100
AcDbEntity
  8
枠
  6
CONTINUOUS
 62
     6
100
AcDbLine
 10
749.0
 20
335.0
 30
0.0
 11
749.0
 21
115.0
 31
0.0
  0
LINE
  5
A5
100
AcDbEntity
  8
枠
  6
CONTINUOUS
 62
     6
100
AcDbLine
 10
619.0
 20
335.0
 30
0.0
 11
619.0
 21
115.0
 31
0.0
  0
LINE
  5
A6
100
AcDbEntity
  8
枠
  6
CONTINUOUS
 62
     6
100
AcDbLine
 10
489.0
 20
335.0
 30
0.0
 11
489.0
 21
115.0
 31
0.0
  0
LINE
  5
A7
100
AcDbEntity
  8
枠
  6
CONTINUOUS
 62
     6
100
AcDbLine
 10
334.0
 20
335.0
 30
0.0
 11
334.0
 21
115.0
 31
0.0
  0
LINE
  5
A8
100
AcDbEntity
  8
枠
  6
CONTINUOUS
 62
     6
100
AcDbLine
 10
179.0
 20
285.0
 30
0.0
 11
749.0
 21
285.0
 31
0.0
  0
LINE
  5
A9
100
AcDbEntity
  8
枠
  6
CONTINUOUS
 62
     6
100
AcDbLine
 10
1891.654114
 20
238.00293
 30
0.0
 11
1968.993896
 21
316.699829
 31
0.0
  0
TEXT
  5
AA
100
AcDbEntity
  8
枠
  6
CONTINUOUS
 62
     2
100
AcDbText
 10
1011.649044
 20
627.66358
 30
0.0
 40
40.0
  1
Ｆ．Ｌ
 41
0.833
  7
EXCADSTD
 72
     5
 11
1130.649044
 21
627.66358
 31
0.0
100
AcDbText
  0
LINE
  5
AB
100
AcDbEntity
  8
枠
  6
EXLTYPE2
 62
     6
100
AcDbLine
 10
179.0
 20
165.0
 30
0.0
 11
489.0
 21
165.0
 31
0.0
  0
CIRCLE
  5
AC
100
AcDbEntity
  8
枠
  6
CONTINUOUS
 62
     6
100
AcDbCircle
 10
229.0
 20
140.0
 30
0.0
 40
1.0
  0
CIRCLE
  5
AD
100
AcDbEntity
  8
枠
  6
CONTINUOUS
 62
     6
100
AcDbCircle
 10
279.0
 20
140.0
 30
0.0
 40
1.0
  0
CIRCLE
  5
AE
100
AcDbEntity
  8
枠
  6
CONTINUOUS
 62
     6
100
AcDbCircle
 10
384.0
 20
140.0
 30
0.0
 40
1.0
  0
CIRCLE
  5
AF
100
AcDbEntity
  8
枠
  6
CONTINUOUS
 62
     6
100
AcDbCircle
 10
434.0
 20
140.0
 30
0.0
 40
1.0
  0
TEXT
  5
B0
100
AcDbEntity
  8
枠
  6
CONTINUOUS
 62
     6
100
AcDbText
 10
634.5
 20
200.0
 30
0.0
 40
50.0
  1
古林
 41
0.8568
  7
EXCADSTD
 72
     5
 11
727.9932
 21
200.0
 31
0.0
100
AcDbText
  0
TEXT
  5
B1
100
AcDbEntity
  8
枠
  6
CONTINUOUS
 62
     6
100
AcDbText
 10
206.5
 20
200.0
 30
0.0
 40
50.0
  1
間瀬
 41
0.8736
  7
EXCADSTD
 72
     5
 11
301.8264
 21
200.0
 31
0.0
100
AcDbText
  0
TEXT
  5
B2
100
AcDbEntity
  8
枠
  6
CONTINUOUS
 62
     7
100
AcDbText
 10
1453.25
 20
130.75
 30
0.0
 40
70.0
  1
Ｃ４５４Ｗ０２５
 41
0.795
  7
EXCADSTD
 72
     5
 11
1983.25
 21
130.75
 31
0.0
100
AcDbText
  0
TEXT
  5
B4
100
AcDbEntity
  8
枠
  6
CONTINUOUS
 62
     2
100
AcDbText
 10
769.0
 20
135.0
 30
0.0
 40
45.0
  1
ジャニス工業株式会社
  7
EXCADTTF1
 72
     5
 11
1369.0
 21
135.0
 31
0.0
100
AcDbText
  0
LINE
  5
B5
100
AcDbEntity
  8
枠
  6
EXLTYPE2
 62
     6
100
AcDbLine
 10
-71.0
 20
1515.0
 30
0.0
 11
179.0
 21
1515.0
 31
0.0
  0
TEXT
  5
B6
100
AcDbEntity
  8
枠
  6
CONTINUOUS
 62
     6
100
AcDbText
 10
181.044116
 20
126.950073
 30
0.0
 40
25.0
  1
２１
 41
0.75768
  7
EXCADSTD
 72
     5
 11
222.382775
 21
126.950073
 31
0.0
100
AcDbText
  0
TEXT
  5
B7
100
AcDbEntity
  8
枠
  6
CONTINUOUS
 62
     6
100
AcDbText
 10
243.544116
 20
126.950073
 30
0.0
 40
25.0
  1
２
 41
0.89208
  7
EXCADSTD
 72
     5
 11
264.784116
 21
126.950073
 31
0.0
100
AcDbText
  0
TEXT
  5
B8
100
AcDbEntity
  8
枠
  6
CONTINUOUS
 62
     6
100
AcDbText
 10
295.119116
 20
126.950073
 30
0.0
 40
25.0
  1
５
 41
0.89208
  7
EXCADSTD
 72
     5
 11
316.359116
 21
126.950073
 31
0.0
100
AcDbText
  0
TEXT
  5
B9
100
AcDbEntity
  8
便器
  6
CONTINUOUS
 62
     2
100
AcDbText
 10
716.388906
 20
2688.310688
 30
0.0
 40
40.0
  1
６５８
 41
0.833
  7
EXCADSTD
 72
     5
 11
835.388906
 21
2688.310688
 31
0.0
100
AcDbText
  0
LINE
  5
BA
100
AcDbEntity
  8
便器
  6
CONTINUOUS
 62
     3
100
AcDbLine
 10
446.888906
 20
2684.810688
 30
0.0
 11
1104.888906
 21
2684.810688
 31
0.0
  0
LINE
  5
BB
100
AcDbEntity
  8
便器
  6
CONTINUOUS
 62
     3
100
AcDbLine
 10
481.888906
 20
2690.644022
 30
0.0
 11
446.888906
 21
2684.810688
 31
0.0
  0
LINE
  5
BC
100
AcDbEntity
  8
便器
  6
CONTINUOUS
 62
     3
100
AcDbLine
 10
446.888906
 20
2684.810688
 30
0.0
 11
481.888906
 21
2678.977355
 31
0.0
  0
LINE
  5
BD
100
AcDbEntity
  8
便器
  6
CONTINUOUS
 62
     3
100
AcDbLine
 10
1069.888906
 20
2678.977355
 30
0.0
 11
1104.888906
 21
2684.810688
 31
0.0
  0
LINE
  5
BE
100
AcDbEntity
  8
便器
  6
CONTINUOUS
 62
     3
100
AcDbLine
 10
1104.888906
 20
2684.810688
 30
0.0
 11
1069.888906
 21
2690.644022
 31
0.0
  0
LINE
  5
BF
100
AcDbEntity
  8
便器
  6
CONTINUOUS
 62
     7
100
AcDbLine
 10
354.888906
 20
624.310688
 30
0.0
 11
354.888906
 21
1813.310688
 31
0.0
  0
ARC
  5
C0
100
AcDbEntity
  8
便器
  6
CONTINUOUS
 62
     7
100
AcDbCircle
 10
885.76938
 20
2614.310688
 30
0.0
 40
1700.0
100
AcDbArc
 50
270.0
 51
276.21765
  0
ARC
  5
C1
100
AcDbEntity
  8
便器
  6
CONTINUOUS
 62
     7
100
AcDbCircle
 10
456.821264
 20
1405.470295
 30
0.0
 40
800.0
100
AcDbArc
 50
306.467163
 51
318.292306
  0
LINE
  5
C2
100
AcDbEntity
  8
便器
  6
CONTINUOUS
 62
     7
100
AcDbLine
 10
569.888906
 20
974.310688
 30
0.0
 11
1096.888906
 21
974.310688
 31
0.0
  0
ARC
  5
C3
100
AcDbEntity
  8
便器
  6
CONTINUOUS
 62
     7
100
AcDbCircle
 10
569.888906
 20
989.310688
 30
0.0
 40
15.0
100
AcDbArc
 50
180.0
 51
270.0
  0
ARC
  5
C4
100
AcDbEntity
  8
便器
  6
CONTINUOUS
 62
     7
100
AcDbCircle
 10
584.888906
 20
989.310688
 30
0.0
 40
15.0
100
AcDbArc
 50
180.0
 51
270.0
  0
LINE
  5
C5
100
AcDbEntity
  8
便器
  6
CONTINUOUS
 62
     7
100
AcDbLine
 10
793.918813
 20
652.789295
 30
0.0
 11
624.721059
 21
652.789295
 31
0.0
  0
ARC
  5
C6
100
AcDbEntity
  8
便器
  6
CONTINUOUS
 62
     7
100
AcDbCircle
 10
785.346914
 20
926.222431
 30
0.0
 40
90.0
100
AcDbArc
 50
211.828369
 51
256.973694
  0
ARC
  5
C7
100
AcDbEntity
  8
便器
  6
CONTINUOUS
 62
     7
100
AcDbCircle
 10
621.664357
 20
765.285953
 30
0.0
 40
100.0
100
AcDbArc
 50
26.881409
 51
70.612389
  0
LINE
  5
C8
100
AcDbEntity
  8
便器
  6
CONTINUOUS
 62
     7
100
AcDbLine
 10
710.858754
 20
810.500507
 30
0.0
 11
752.592358
 21
728.172982
 31
0.0
  0
LINE
  5
C9
100
AcDbEntity
  8
便器
  6
CONTINUOUS
 62
     7
100
AcDbLine
 10
493.01543
 20
919.434636
 30
0.0
 11
550.46199
 21
889.497057
 31
0.0
  0
ARC
  5
CA
100
AcDbEntity
  8
便器
  6
CONTINUOUS
 62
     7
100
AcDbCircle
 10
554.982076
 20
902.96822
 30
0.0
 40
5.0
100
AcDbArc
 50
80.46875
 51
193.324463
  0
ARC
  5
CB
100
AcDbEntity
  8
便器
  6
CONTINUOUS
 62
     7
100
AcDbCircle
 10
556.469899
 20
901.025501
 30
0.0
 40
13.0
100
AcDbArc
 50
193.324402
 51
248.608002
  0
LINE
  5
CC
100
AcDbEntity
  8
便器
  6
CONTINUOUS
 62
     7
100
AcDbLine
 10
498.946645
 20
917.446796
 30
0.0
 11
555.810003
 21
907.899219
 31
0.0
  0
ARC
  5
CD
100
AcDbEntity
  8
便器
  6
CONTINUOUS
 62
     7
100
AcDbCircle
 10
572.702706
 20
1015.909748
 30
0.0
 40
120.0
100
AcDbArc
 50
208.141946
 51
223.445677
  0
LINE
  5
CE
100
AcDbEntity
  8
便器
  6
CONTINUOUS
 62
     7
100
AcDbLine
 10
466.88889
 20
959.310841
 30
0.0
 11
544.888906
 21
959.310841
 31
0.0
  0
ARC
  5
CF
100
AcDbEntity
  8
便器
  6
CONTINUOUS
 62
     7
100
AcDbCircle
 10
502.258367
 20
937.170704
 30
0.0
 40
20.0
100
AcDbArc
 50
231.942261
 51
260.46875
  0
ARC
  5
D0
100
AcDbEntity
  8
便器
  6
CONTINUOUS
 62
     7
100
AcDbCircle
 10
496.469905
 20
943.704763
 30
0.0
 40
15.0
100
AcDbArc
 50
223.445677
 51
264.37099
  0
LINE
  5
D1
100
AcDbEntity
  8
便器
  6
CONTINUOUS
 62
     7
100
AcDbLine
 10
540.888906
 20
910.404438
 30
0.0
 11
543.819845
 21
898.029438
 31
0.0
  0
LINE
  5
D2
100
AcDbEntity
  8
便器
  6
CONTINUOUS
 62
     7
100
AcDbLine
 10
551.622873
 20
841.581383
 30
0.0
 11
568.292984
 21
747.039994
 31
0.0
  0
LINE
  5
D3
100
AcDbEntity
  8
便器
  6
CONTINUOUS
 62
     7
100
AcDbLine
 10
571.100003
 20
748.076297
 30
0.0
 11
572.696118
 21
750.862629
 31
0.0
  0
LINE
  5
D4
100
AcDbEntity
  8
便器
  6
CONTINUOUS
 62
     7
100
AcDbLine
 10
612.171773
 20
750.876758
 30
0.0
 11
609.721059
 21
728.604801
 31
0.0
  0
ARC
  5
D5
100
AcDbEntity
  8
便器
  6
CONTINUOUS
 62
     7
100
AcDbCircle
 10
2386.043996
 20
523.154499
 30
0.0
 40
1800.0
100
AcDbArc
 50
174.679565
 51
176.778442
  0
LINE
  5
D6
100
AcDbEntity
  8
便器
  6
CONTINUOUS
 62
     7
100
AcDbLine
 10
568.292984
 20
747.039994
 30
0.0
 11
570.072766
 21
747.353802
 31
0.0
  0
ARC
  5
D7
100
AcDbEntity
  8
便器
  6
CONTINUOUS
 62
     7
100
AcDbCircle
 10
569.802697
 20
748.829289
 30
0.0
 40
1.5
100
AcDbArc
 50
280.00002
 51
330.194112
  0
ARC
  5
D8
100
AcDbEntity
  8
便器
  6
CONTINUOUS
 62
     7
100
AcDbCircle
 10
643.583638
 20
685.424885
 30
0.0
 40
50.0
100
AcDbArc
 50
140.717712
 51
174.679565
  0
ARC
  5
D9
100
AcDbEntity
  8
便器
  6
CONTINUOUS
 62
     7
100
AcDbCircle
 10
624.721059
 20
667.789295
 30
0.0
 40
15.0
100
AcDbArc
 50
180.0
 51
270.0
  0
ARC
  5
DA
100
AcDbEntity
  8
便器
  6
CONTINUOUS
 62
     7
100
AcDbCircle
 10
587.853048
 20
731.011066
 30
0.0
 40
22.0
100
AcDbArc
 50
320.717712
 51
353.720703
  0
LINE
  5
DB
100
AcDbEntity
  8
便器
  6
CONTINUOUS
 62
     7
100
AcDbLine
 10
669.665775
 20
793.398616
 30
0.0
 11
614.715471
 21
845.226743
 31
0.0
  0
LINE
  5
DC
100
AcDbEntity
  8
便器
  6
CONTINUOUS
 62
     7
100
AcDbLine
 10
679.957843
 20
804.310688
 30
0.0
 11
601.359998
 21
878.442748
 31
0.0
  0
LINE
  5
DD
100
AcDbEntity
  8
便器
  6
CONTINUOUS
 62
     7
100
AcDbLine
 10
654.860074
 20
859.615399
 30
0.0
 11
554.072595
 21
895.083779
 31
0.0
  0
ARC
  5
DE
100
AcDbEntity
  8
便器
  6
CONTINUOUS
 62
     7
100
AcDbCircle
 10
542.0879
 20
838.997975
 30
0.0
 40
50.0
100
AcDbArc
 50
14.745883
 51
68.607847
  0
LINE
  5
DF
100
AcDbEntity
  8
便器
  6
CONTINUOUS
 62
     7
100
AcDbLine
 10
595.839075
 20
754.943324
 30
0.0
 11
572.696118
 21
750.862629
 31
0.0
  0
LINE
  5
E0
100
AcDbEntity
  8
便器
  6
CONTINUOUS
 62
     7
100
AcDbLine
 10
597.575993
 20
753.730768
 30
0.0
 11
581.428205
 21
845.309423
 31
0.0
  0
ARC
  5
E1
100
AcDbEntity
  8
便器
  6
CONTINUOUS
 62
     7
100
AcDbCircle
 10
587.539919
 20
850.961001
 30
0.0
 40
3.0
100
AcDbArc
 50
280.000104
 51
14.745883
  0
LINE
  5
E2
100
AcDbEntity
  8
便器
  6
CONTINUOUS
 62
     7
100
AcDbLine
 10
557.06788
 20
839.495232
 30
0.0
 11
572.696118
 21
750.862629
 31
0.0
  0
LINE
  5
E3
100
AcDbEntity
  8
便器
  6
CONTINUOUS
 62
     7
100
AcDbLine
 10
580.210833
 20
843.575949
 30
0.0
 11
557.06788
 21
839.495232
 31
0.0
  0
ARC
  5
E4
100
AcDbEntity
  8
便器
  6
CONTINUOUS
 62
     7
100
AcDbCircle
 10
553.653512
 20
840.416344
 30
0.0
 40
1.5
100
AcDbArc
 50
49.805786
 51
99.999878
  0
LINE
  5
E5
100
AcDbEntity
  8
便器
  6
CONTINUOUS
 62
     7
100
AcDbLine
 10
554.615044
 20
841.567628
 30
0.0
 11
557.06788
 21
839.495232
 31
0.0
  0
LINE
  5
E6
100
AcDbEntity
  8
便器
  6
CONTINUOUS
 62
     7
100
AcDbLine
 10
551.622873
 20
841.581383
 30
0.0
 11
553.40265
 21
841.895218
 31
0.0
  0
ARC
  5
E7
100
AcDbEntity
  8
便器
  6
CONTINUOUS
 62
     7
100
AcDbCircle
 10
579.950357
 20
845.053184
 30
0.0
 40
1.5
100
AcDbArc
 50
279.999207
 51
9.998627
  0
ARC
  5
E8
100
AcDbEntity
  8
便器
  6
CONTINUOUS
 62
     7
100
AcDbCircle
 10
582.904744
 20
845.574299
 30
0.0
 40
1.5
100
AcDbArc
 50
100.001587
 51
189.999817
  0
LINE
  5
E9
100
AcDbEntity
  8
便器
  6
CONTINUOUS
 62
     7
100
AcDbLine
 10
588.060869
 20
848.006579
 30
0.0
 11
582.634399
 21
847.049736
 31
0.0
  0
LINE
  5
EA
100
AcDbEntity
  8
便器
  6
CONTINUOUS
 62
     2
100
AcDbLine
 10
581.427511
 20
845.31384
 30
0.0
 11
581.428287
 21
845.309438
 31
0.0
  0
LINE
  5
EB
100
AcDbEntity
  8
便器
  6
CONTINUOUS
 62
     7
100
AcDbLine
 10
612.122016
 20
751.838894
 30
0.0
 11
590.576584
 21
851.481964
 31
0.0
  0
LINE
  5
EC
100
AcDbEntity
  8
便器
  6
CONTINUOUS
 62
     7
100
AcDbLine
 10
608.060058
 20
841.477122
 30
0.0
 11
620.480579
 21
783.631594
 31
0.0
  0
ARC
  5
ED
100
AcDbEntity
  8
便器
  6
CONTINUOUS
 62
     7
100
AcDbCircle
 10
609.189779
 20
751.204868
 30
0.0
 40
3.0
100
AcDbArc
 50
353.720703
 51
100.000122
  0
ARC
  5
EE
100
AcDbEntity
  8
便器
  6
CONTINUOUS
 62
     7
100
AcDbCircle
 10
596.099549
 20
753.466089
 30
0.0
 40
1.5
100
AcDbArc
 50
10.001271
 51
100.000691
  0
ARC
  5
EF
100
AcDbEntity
  8
便器
  6
CONTINUOUS
 62
     7
100
AcDbCircle
 10
599.053998
 20
753.986855
 30
0.0
 40
1.5
100
AcDbArc
 50
190.000081
 51
279.998311
  0
LINE
  5
F0
100
AcDbEntity
  8
便器
  6
CONTINUOUS
 62
     7
100
AcDbLine
 10
599.314504
 20
752.509876
 30
0.0
 11
608.668828
 21
754.159305
 31
0.0
  0
LINE
  5
F1
100
AcDbEntity
  8
便器
  6
CONTINUOUS
 62
     7
100
AcDbLine
 10
597.576769
 20
753.726366
 30
0.0
 11
597.575993
 21
753.730768
 31
0.0
  0
ARC
  5
F2
100
AcDbEntity
  8
便器
  6
CONTINUOUS
 62
     7
100
AcDbCircle
 10
611.97092
 20
842.316857
 30
0.0
 40
4.0
100
AcDbArc
 50
46.674838
 51
192.118479
  0
LINE
  5
F3
100
AcDbEntity
  8
便器
  6
CONTINUOUS
 62
     7
100
AcDbLine
 10
597.041524
 20
900.976368
 30
0.0
 11
588.750524
 21
902.368458
 31
0.0
  0
ARC
  5
F4
100
AcDbEntity
  8
便器
  6
CONTINUOUS
 62
     7
100
AcDbCircle
 10
555.732381
 20
899.800251
 30
0.0
 40
5.0
100
AcDbArc
 50
193.32457
 51
250.612389
  0
LINE
  5
F5
100
AcDbEntity
  8
便器
  6
CONTINUOUS
 62
     7
100
AcDbLine
 10
550.113765
 20
901.828243
 30
0.0
 11
550.866994
 21
898.647938
 31
0.0
  0
LINE
  5
F6
100
AcDbEntity
  8
便器
  6
CONTINUOUS
 62
     7
100
AcDbLine
 10
551.728155
 20
888.921115
 30
0.0
 11
560.325363
 21
885.553265
 31
0.0
  0
ARC
  5
F7
100
AcDbEntity
  8
便器
  6
CONTINUOUS
 62
     7
100
AcDbCircle
 10
682.391884
 20
880.230146
 30
0.0
 40
30.0
100
AcDbArc
 50
200.0
 51
242.151528
  0
LINE
  5
F8
100
AcDbEntity
  8
便器
  6
CONTINUOUS
 62
     7
100
AcDbLine
 10
650.596224
 20
879.873871
 30
0.0
 11
654.201105
 21
869.969542
 31
0.0
  0
ARC
  5
F9
100
AcDbEntity
  8
便器
  6
CONTINUOUS
 62
     7
100
AcDbCircle
 10
700.383748
 20
873.48476
 30
0.0
 40
10.0
100
AcDbArc
 50
31.828369
 51
80.468658
  0
LINE
  5
FA
100
AcDbEntity
  8
便器
  6
CONTINUOUS
 62
     7
100
AcDbLine
 10
789.25897
 20
914.310688
 30
0.0
 11
885.76938
 21
914.310688
 31
0.0
  0
ARC
  5
FB
100
AcDbEntity
  8
便器
  6
CONTINUOUS
 62
     7
100
AcDbCircle
 10
484.692251
 20
877.123035
 30
0.0
 40
400.0
100
AcDbArc
 50
329.200317
 51
344.363647
  0
ARC
  5
FC
100
AcDbEntity
  8
便器
  6
CONTINUOUS
 62
     7
100
AcDbCircle
 10
708.299154
 20
782.179462
 30
0.0
 40
80.0
100
AcDbArc
 50
315.584901
 51
0.0
  0
LINE
  5
FD
100
AcDbEntity
  8
便器
  6
CONTINUOUS
 62
     6
100
AcDbLine
 10
752.788686
 20
602.196043
 30
0.0
 11
752.788686
 21
624.310688
 31
0.0
  0
LINE
  5
FE
100
AcDbEntity
  8
便器
  6
CONTINUOUS
 62
     6
100
AcDbLine
 10
746.988821
 20
602.196043
 30
0.0
 11
746.988821
 21
624.310688
 31
0.0
  0
ARC
  5
FF
100
AcDbEntity
  8
便器
  6
CONTINUOUS
 62
     6
100
AcDbCircle
 10
766.985464
 20
601.82144
 30
0.0
 40
20.0
100
AcDbArc
 50
178.926758
 51
211.259766
  0
ARC
  5
100
100
AcDbEntity
  8
便器
  6
CONTINUOUS
 62
     6
100
AcDbCircle
 10
732.792348
 20
601.82144
 30
0.0
 40
20.0
100
AcDbArc
 50
328.740234
 51
1.073222
  0
ARC
  5
101
100
AcDbEntity
  8
便器
  6
CONTINUOUS
 62
     7
100
AcDbCircle
 10
759.72791
 20
731.790147
 30
0.0
 40
8.0
100
AcDbArc
 50
206.881436
 51
315.584901
  0
LINE
  5
102
100
AcDbEntity
  8
便器
  6
CONTINUOUS
 62
     7
100
AcDbLine
 10
788.299154
 20
809.310444
 30
0.0
 11
788.299154
 21
782.179462
 31
0.0
  0
ARC
  5
103
100
AcDbEntity
  8
便器
  6
CONTINUOUS
 62
     7
100
AcDbCircle
 10
758.299062
 20
809.310444
 30
0.0
 40
30.0
100
AcDbArc
 50
0.0
 51
76.973663
  0
ARC
  5
104
100
AcDbEntity
  8
便器
  6
CONTINUOUS
 62
     7
100
AcDbCircle
 10
-233.985117
 20
454.146809
 30
0.0
 40
1200.0
100
AcDbArc
 50
8.152191
 51
14.351532
  0
ARC
  5
105
100
AcDbEntity
  8
便器
  6
CONTINUOUS
 62
     7
100
AcDbCircle
 10
938.254567
 20
754.070301
 30
0.0
 40
10.0
100
AcDbArc
 50
126.467102
 51
194.351563
  0
LINE
  5
106
100
AcDbEntity
  8
便器
  6
CONTINUOUS
 62
     7
100
AcDbLine
 10
1047.368918
 20
865.773052
 30
0.0
 11
1047.282094
 21
865.676624
 31
0.0
  0
ARC
  5
107
100
AcDbEntity
  8
便器
  6
CONTINUOUS
 62
     7
100
AcDbCircle
 10
874.816595
 20
1032.804302
 30
0.0
 40
240.0
100
AcDbArc
 50
318.244302
 51
343.177979
  0
LINE
  5
108
100
AcDbEntity
  8
便器
  6
CONTINUOUS
 62
     7
100
AcDbLine
 10
1053.957448
 20
873.09032
 30
0.0
 11
1053.750696
 21
872.8607
 31
0.0
  0
ARC
  5
109
100
AcDbEntity
  8
便器
  6
CONTINUOUS
 62
     7
100
AcDbCircle
 10
1096.888906
 20
966.310688
 30
0.0
 40
8.0
100
AcDbArc
 50
0.0
 51
90.0
  0
ARC
  5
10A
100
AcDbEntity
  8
便器
  6
CONTINUOUS
 62
     7
100
AcDbCircle
 10
1096.888906
 20
965.663529
 30
0.0
 40
8.0
100
AcDbArc
 50
343.177979
 51
2.318085
  0
ARC
  5
10B
100
AcDbEntity
  8
便器
  6
CONTINUOUS
 62
     7
100
AcDbCircle
 10
749.61907
 20
455.827839
 30
0.0
 40
200.0
100
AcDbArc
 50
93.577928
 51
100.000153
  0
ARC
  5
10C
100
AcDbEntity
  8
便器
  6
CONTINUOUS
 62
     7
100
AcDbCircle
 10
750.158742
 20
455.827839
 30
0.0
 40
200.0
100
AcDbArc
 50
79.999847
 51
86.422443
  0
ARC
  5
10D
100
AcDbEntity
  8
便器
  6
CONTINUOUS
 62
     6
100
AcDbCircle
 10
749.888906
 20
663.790272
 30
0.0
 40
6.000327
100
AcDbArc
 50
46.653809
 51
133.346207
  0
ARC
  5
10E
100
AcDbEntity
  8
便器
  6
CONTINUOUS
 62
     6
100
AcDbCircle
 10
760.870352
 20
652.152088
 30
0.0
 40
22.000227
100
AcDbArc
 50
133.342773
 51
178.341858
  0
ARC
  5
10F
100
AcDbEntity
  8
便器
  6
CONTINUOUS
 62
     6
100
AcDbCircle
 10
738.907461
 20
652.152088
 30
0.0
 40
21.998959
100
AcDbArc
 50
1.658232
 51
46.657364
  0
ARC
  5
110
100
AcDbEntity
  8
便器
  6
CONTINUOUS
 62
     7
100
AcDbCircle
 10
789.25897
 20
3914.310688
 30
0.0
 40
3000.0
100
AcDbArc
 50
264.37099
 51
270.0
  0
ARC
  5
111
100
AcDbEntity
  8
便器
  6
CONTINUOUS
 62
     7
100
AcDbCircle
 10
1659.903871
 20
682.6395
 30
0.0
 40
100.0
100
AcDbArc
 50
17.650124
 51
37.469461
  0
ARC
  5
112
100
AcDbEntity
  8
便器
  6
CONTINUOUS
 62
     7
100
AcDbCircle
 10
1681.90214
 20
682.6395
 30
0.0
 40
100.0
100
AcDbArc
 50
142.530539
 51
162.349876
  0
LINE
  5
113
100
AcDbEntity
  8
便器
  6
CONTINUOUS
 62
     7
100
AcDbLine
 10
1558.403005
 20
624.310688
 30
0.0
 11
1586.609562
 21
712.959866
 31
0.0
  0
LINE
  5
114
100
AcDbEntity
  8
便器
  6
CONTINUOUS
 62
     6
100
AcDbLine
 10
1603.802786
 20
602.196043
 30
0.0
 11
1603.802786
 21
624.310688
 31
0.0
  0
LINE
  5
115
100
AcDbEntity
  8
便器
  6
CONTINUOUS
 62
     6
100
AcDbLine
 10
1598.00292
 20
602.196043
 30
0.0
 11
1598.00292
 21
624.310688
 31
0.0
  0
ARC
  5
116
100
AcDbEntity
  8
便器
  6
CONTINUOUS
 62
     6
100
AcDbCircle
 10
1617.999563
 20
601.82144
 30
0.0
 40
20.0
100
AcDbArc
 50
178.926758
 51
211.259766
  0
ARC
  5
117
100
AcDbEntity
  8
便器
  6
CONTINUOUS
 62
     6
100
AcDbCircle
 10
1583.806448
 20
601.82144
 30
0.0
 40
20.0
100
AcDbArc
 50
328.740234
 51
1.073222
  0
LINE
  5
118
100
AcDbEntity
  8
便器
  6
CONTINUOUS
 62
     6
100
AcDbLine
 10
1743.802786
 20
602.196043
 30
0.0
 11
1743.802786
 21
624.310688
 31
0.0
  0
LINE
  5
119
100
AcDbEntity
  8
便器
  6
CONTINUOUS
 62
     6
100
AcDbLine
 10
1738.00292
 20
602.196043
 30
0.0
 11
1738.00292
 21
624.310688
 31
0.0
  0
ARC
  5
11A
100
AcDbEntity
  8
便器
  6
CONTINUOUS
 62
     6
100
AcDbCircle
 10
1757.999563
 20
601.82144
 30
0.0
 40
20.0
100
AcDbArc
 50
178.926758
 51
211.259766
  0
ARC
  5
11B
100
AcDbEntity
  8
便器
  6
CONTINUOUS
 62
     6
100
AcDbCircle
 10
1723.806448
 20
601.82144
 30
0.0
 40
20.0
100
AcDbArc
 50
328.740234
 51
1.073222
  0
LINE
  5
11C
100
AcDbEntity
  8
便器
  6
CONTINUOUS
 62
     7
100
AcDbLine
 10
1783.403005
 20
624.310688
 30
0.0
 11
1755.196449
 21
712.959866
 31
0.0
  0
LINE
  5
11D
100
AcDbEntity
  8
便器
  6
CONTINUOUS
 62
     7
100
AcDbLine
 10
1501.321676
 20
974.310688
 30
0.0
 11
1840.484335
 21
974.310688
 31
0.0
  0
ARC
  5
11E
100
AcDbEntity
  8
便器
  6
CONTINUOUS
 62
     7
100
AcDbCircle
 10
1731.553457
 20
994.899616
 30
0.0
 40
240.0
100
AcDbArc
 50
187.078444
 51
198.380981
  0
ARC
  5
11F
100
AcDbEntity
  8
便器
  6
CONTINUOUS
 62
     7
100
AcDbCircle
 10
1703.732137
 20
1002.514474
 30
0.0
 40
200.0
100
AcDbArc
 50
207.785927
 51
232.402769
  0
ARC
  5
120
100
AcDbEntity
  8
便器
  6
CONTINUOUS
 62
     7
100
AcDbCircle
 10
1522.369558
 20
906.949756
 30
0.0
 40
5.0
100
AcDbArc
 50
27.785927
 51
81.469299
  0
ARC
  5
121
100
AcDbEntity
  8
便器
  6
CONTINUOUS
 62
     7
100
AcDbCircle
 10
1511.389882
 20
921.742146
 30
0.0
 40
8.0
100
AcDbArc
 50
198.38092
 51
262.010518
  0
LINE
  5
122
100
AcDbEntity
  8
便器
  6
CONTINUOUS
 62
     7
100
AcDbLine
 10
1510.203176
 20
913.830677
 30
0.0
 11
1522.438833
 21
911.995319
 31
0.0
  0
ARC
  5
123
100
AcDbEntity
  8
便器
  6
CONTINUOUS
 62
     7
100
AcDbCircle
 10
1532.902214
 20
780.665116
 30
0.0
 40
80.0
100
AcDbArc
 50
0.127434
 51
52.402769
  0
ARC
  5
124
100
AcDbEntity
  8
便器
  6
CONTINUOUS
 62
     7
100
AcDbCircle
 10
1562.850485
 20
773.890273
 30
0.0
 40
50.0
100
AcDbArc
 50
322.530539
 51
359.007405
  0
ARC
  5
125
100
AcDbEntity
  8
便器
  6
CONTINUOUS
 62
     7
100
AcDbCircle
 10
1212.903005
 20
779.953388
 30
0.0
 40
400.0
100
AcDbArc
 50
359.007405
 51
0.127434
  0
ARC
  5
126
100
AcDbEntity
  8
便器
  6
CONTINUOUS
 62
     7
100
AcDbCircle
 10
1501.321676
 20
966.310688
 30
0.0
 40
8.0
100
AcDbArc
 50
90.0
 51
187.078444
  0
ARC
  5
127
100
AcDbEntity
  8
便器
  6
CONTINUOUS
 62
     7
100
AcDbCircle
 10
1638.073874
 20
1002.514474
 30
0.0
 40
200.0
100
AcDbArc
 50
307.597231
 51
332.214073
  0
ARC
  5
128
100
AcDbEntity
  8
便器
  6
CONTINUOUS
 62
     7
100
AcDbCircle
 10
1808.903797
 20
780.665116
 30
0.0
 40
80.0
100
AcDbArc
 50
127.597231
 51
179.872566
  0
ARC
  5
129
100
AcDbEntity
  8
便器
  6
CONTINUOUS
 62
     7
100
AcDbCircle
 10
1778.955526
 20
773.890273
 30
0.0
 40
50.0
100
AcDbArc
 50
180.992595
 51
217.469461
  0
ARC
  5
12A
100
AcDbEntity
  8
便器
  6
CONTINUOUS
 62
     7
100
AcDbCircle
 10
2128.903005
 20
779.953388
 30
0.0
 40
400.0
100
AcDbArc
 50
179.872566
 51
180.992595
  0
ARC
  5
12B
100
AcDbEntity
  8
便器
  6
CONTINUOUS
 62
     7
100
AcDbCircle
 10
1610.252553
 20
994.899616
 30
0.0
 40
240.0
100
AcDbArc
 50
341.619019
 51
352.921556
  0
ARC
  5
12C
100
AcDbEntity
  8
便器
  6
CONTINUOUS
 62
     7
100
AcDbCircle
 10
1830.416128
 20
921.742146
 30
0.0
 40
8.0
100
AcDbArc
 50
277.989482
 51
341.61908
  0
ARC
  5
12D
100
AcDbEntity
  8
便器
  6
CONTINUOUS
 62
     7
100
AcDbCircle
 10
1819.436452
 20
906.949756
 30
0.0
 40
5.0
100
AcDbArc
 50
98.530701
 51
152.214073
  0
LINE
  5
12E
100
AcDbEntity
  8
便器
  6
CONTINUOUS
 62
     7
100
AcDbLine
 10
1831.602834
 20
913.830677
 30
0.0
 11
1819.367177
 21
911.995319
 31
0.0
  0
ARC
  5
12F
100
AcDbEntity
  8
便器
  6
CONTINUOUS
 62
     7
100
AcDbCircle
 10
1840.484335
 20
966.310688
 30
0.0
 40
8.0
100
AcDbArc
 50
352.921556
 51
90.0
  0
LINE
  5
130
100
AcDbEntity
  8
便器
  6
CONTINUOUS
 62
     7
100
AcDbLine
 10
1324.0
 20
624.310688
 30
0.0
 11
1949.0
 21
624.310688
 31
0.0
  0
LINE
  5
131
100
AcDbEntity
  8
便器
  6
CONTINUOUS
 62
     7
100
AcDbLine
 10
354.888906
 20
624.310688
 30
0.0
 11
1293.0
 21
624.310688
 31
0.0
  0
LINE
  5
132
100
AcDbEntity
  8
便器
  6
CONTINUOUS
 62
     7
100
AcDbLine
 10
671.882963
 20
888.410113
 30
0.0
 11
702.039602
 21
883.346699
 31
0.0
  0
LINE
  5
133
100
AcDbEntity
  8
便器
  6
CONTINUOUS
 62
     7
100
AcDbLine
 10
555.810003
 20
907.899219
 30
0.0
 11
657.528366
 21
890.820306
 31
0.0
  0
ARC
  5
134
100
AcDbEntity
  8
便器
  6
CONTINUOUS
 62
     7
100
AcDbCircle
 10
658.113765
 20
882.610032
 30
0.0
 40
8.0
100
AcDbArc
 50
97.301839
 51
200.0
  0
ARC
  5
135
100
AcDbEntity
  8
便器
  6
CONTINUOUS
 62
     7
100
AcDbCircle
 10
563.903844
 20
1015.909748
 30
0.0
 40
120.0
100
AcDbArc
 50
196.992228
 51
231.942261
  0
ARC
  5
136
100
AcDbEntity
  8
便器
  6
CONTINUOUS
 62
     2
100
AcDbCircle
 10
1493.267629
 20
1314.366535
 30
0.0
 40
400.0
100
AcDbArc
 50
272.512308
 51
282.802368
  0
ARC
  5
137
100
AcDbEntity
  8
便器
  6
CONTINUOUS
 62
     2
100
AcDbCircle
 10
1465.768911
 20
1307.080463
 30
0.0
 40
400.0
100
AcDbArc
 50
278.573914
 51
286.878052
  0
ARC
  5
138
100
AcDbEntity
  8
便器
  6
CONTINUOUS
 62
     2
100
AcDbCircle
 10
1848.538381
 20
1314.366535
 30
0.0
 40
400.0
100
AcDbArc
 50
257.197632
 51
267.487692
  0
ARC
  5
139
100
AcDbEntity
  8
便器
  6
CONTINUOUS
 62
     2
100
AcDbCircle
 10
1876.037099
 20
1307.080463
 30
0.0
 40
400.0
100
AcDbArc
 50
253.121948
 51
261.426086
  0
LINE
  5
13A
100
AcDbEntity
  8
便器
  6
CONTINUOUS
 62
     7
100
AcDbLine
 10
354.888906
 20
2831.310688
 30
0.0
 11
1267.888906
 21
2831.310688
 31
0.0
  0
LINE
  5
13B
100
AcDbEntity
  8
便器
  6
EXLTYPE3
 62
     6
100
AcDbLine
 10
1124.88985
 20
2431.310688
 30
0.0
 11
354.888906
 21
2431.310688
 31
0.0
  0
ARC
  5
13C
100
AcDbEntity
  8
便器
  6
CONTINUOUS
 62
     7
100
AcDbCircle
 10
974.284475
 20
213.625874
 30
0.0
 40
2400.0
100
AcDbArc
 50
94.134827
 51
99.202217
  0
ARC
  5
13D
100
AcDbEntity
  8
便器
  6
CONTINUOUS
 62
     7
100
AcDbCircle
 10
840.893239
 20
2803.810688
 30
0.0
 40
550.0
100
AcDbArc
 50
265.865173
 51
266.908298
  0
ARC
  5
13E
100
AcDbEntity
  8
便器
  6
CONTINUOUS
 62
     7
100
AcDbCircle
 10
974.284475
 20
4648.995502
 30
0.0
 40
2400.0
100
AcDbArc
 50
260.797783
 51
265.865173
  0
ARC
  5
13F
100
AcDbEntity
  8
便器
  6
CONTINUOUS
 62
     7
100
AcDbCircle
 10
840.893239
 20
2058.810688
 30
0.0
 40
550.0
100
AcDbArc
 50
93.091702
 51
94.134827
  0
ARC
  5
140
100
AcDbEntity
  8
便器
  6
EXLTYPE2
 62
     2
100
AcDbCircle
 10
494.268118
 20
2312.071445
 30
0.0
 40
20.0
100
AcDbArc
 50
201.868774
 51
264.246399
  0
LINE
  5
141
100
AcDbEntity
  8
便器
  6
EXLTYPE2
 62
     2
100
AcDbLine
 10
555.696157
 20
2285.780811
 30
0.0
 11
492.26311
 21
2292.172189
 31
0.0
  0
LINE
  5
142
100
AcDbEntity
  8
便器
  6
EXLTYPE2
 62
     2
100
AcDbLine
 10
555.696157
 20
2576.840565
 30
0.0
 11
492.26311
 21
2570.449187
 31
0.0
  0
ARC
  5
143
100
AcDbEntity
  8
便器
  6
EXLTYPE2
 62
     2
100
AcDbCircle
 10
494.268118
 20
2550.549915
 30
0.0
 40
20.0
100
AcDbArc
 50
95.753601
 51
158.131226
  0
ARC
  5
144
100
AcDbEntity
  8
便器
  6
EXLTYPE2
 62
     2
100
AcDbCircle
 10
974.284475
 20
213.625874
 30
0.0
 40
2400.0
100
AcDbArc
 50
99.202217
 51
100.044434
  0
ARC
  5
145
100
AcDbEntity
  8
便器
  6
EXLTYPE2
 62
     2
100
AcDbCircle
 10
974.284475
 20
4648.995502
 30
0.0
 40
2400.0
100
AcDbArc
 50
259.955566
 51
260.797783
  0
ARC
  5
146
100
AcDbEntity
  8
便器
  6
EXLTYPE2
 62
     7
100
AcDbCircle
 10
494.888906
 20
2431.310688
 30
0.0
 40
48.0
100
AcDbArc
 50
194.344257
 51
194.359741
  0
ARC
  5
147
100
AcDbEntity
  8
便器
  6
EXLTYPE2
 62
     2
100
AcDbCircle
 10
840.893239
 20
2803.810688
 30
0.0
 40
550.0
100
AcDbArc
 50
266.908298
 51
279.551941
  0
ARC
  5
148
100
AcDbEntity
  8
便器
  6
EXLTYPE2
 62
     2
100
AcDbCircle
 10
890.67568
 20
2507.970112
 30
0.0
 40
250.0
100
AcDbArc
 50
279.551941
 51
309.950989
  0
ARC
  5
149
100
AcDbEntity
  8
便器
  6
EXLTYPE2
 62
     2
100
AcDbCircle
 10
954.888906
 20
2431.310688
 30
0.0
 40
150.0
100
AcDbArc
 50
309.950989
 51
50.04895
  0
ARC
  5
14A
100
AcDbEntity
  8
便器
  6
EXLTYPE2
 62
     2
100
AcDbCircle
 10
890.67568
 20
2354.651264
 30
0.0
 40
250.0
100
AcDbArc
 50
50.049011
 51
80.448059
  0
ARC
  5
14B
100
AcDbEntity
  8
便器
  6
EXLTYPE2
 62
     2
100
AcDbCircle
 10
840.893239
 20
2058.810688
 30
0.0
 40
550.0
100
AcDbArc
 50
80.448059
 51
93.091702
  0
LINE
  5
14C
100
AcDbEntity
  8
便器
  6
CONTINUOUS
 62
     7
100
AcDbLine
 10
354.888906
 20
1963.0
 30
0.0
 11
354.888906
 21
2831.310688
 31
0.0
  0
LINE
  5
14D
100
AcDbEntity
  8
便器
  6
CONTINUOUS
 62
     6
100
AcDbLine
 10
638.88793
 20
2361.310688
 30
0.0
 11
690.889883
 21
2361.310688
 31
0.0
  0
LINE
  5
14E
100
AcDbEntity
  8
便器
  6
CONTINUOUS
 62
     6
100
AcDbLine
 10
638.88793
 20
2501.310688
 30
0.0
 11
690.889883
 21
2501.310688
 31
0.0
  0
LINE
  5
14F
100
AcDbEntity
  8
便器
  6
CONTINUOUS
 62
     6
100
AcDbLine
 10
664.888906
 20
2475.309712
 30
0.0
 11
664.888906
 21
2527.311665
 31
0.0
  0
ARC
  5
150
100
AcDbEntity
  8
便器
  6
EXLTYPE2
 62
     2
100
AcDbCircle
 10
788.888876
 20
2431.310688
 30
0.0
 40
200.0
100
AcDbArc
 50
158.247925
 51
201.930603
  0
ARC
  5
151
100
AcDbEntity
  8
便器
  6
EXLTYPE2
 62
     2
100
AcDbCircle
 10
631.190603
 20
2494.802845
 30
0.0
 40
30.0
100
AcDbArc
 50
96.234741
 51
158.069397
  0
ARC
  5
152
100
AcDbEntity
  8
便器
  6
EXLTYPE2
 62
     2
100
AcDbCircle
 10
888.57784
 20
138.820698
 30
0.0
 40
2400.0
100
AcDbArc
 50
92.620636
 51
96.235444
  0
ARC
  5
153
100
AcDbEntity
  8
便器
  6
EXLTYPE2
 62
     2
100
AcDbCircle
 10
799.47817
 20
2296.310688
 30
0.0
 40
240.0
100
AcDbArc
 50
78.798218
 51
90.0
  0
ARC
  5
154
100
AcDbEntity
  8
便器
  6
EXLTYPE2
 62
     2
100
AcDbCircle
 10
816.962026
 20
2384.596104
 30
0.0
 40
150.0
100
AcDbArc
 50
31.268616
 51
78.798218
  0
LINE
  5
155
100
AcDbEntity
  8
便器
  6
EXLTYPE2
 62
     2
100
AcDbLine
 10
778.842947
 20
2536.310688
 30
0.0
 11
799.47817
 21
2536.310688
 31
0.0
  0
ARC
  5
156
100
AcDbEntity
  8
便器
  6
EXLTYPE2
 62
     2
100
AcDbCircle
 10
893.888906
 20
2431.310688
 30
0.0
 40
60.0
100
AcDbArc
 50
328.731384
 51
29.434662
  0
ARC
  5
157
100
AcDbEntity
  8
便器
  6
EXLTYPE2
 62
     2
100
AcDbCircle
 10
816.962026
 20
2478.025272
 30
0.0
 40
150.0
100
AcDbArc
 50
281.201782
 51
328.731384
  0
ARC
  5
158
100
AcDbEntity
  8
便器
  6
EXLTYPE2
 62
     2
100
AcDbCircle
 10
799.47817
 20
2566.310688
 30
0.0
 40
240.0
100
AcDbArc
 50
270.0
 51
281.201782
  0
LINE
  5
159
100
AcDbEntity
  8
便器
  6
EXLTYPE2
 62
     2
100
AcDbLine
 10
778.842947
 20
2326.310688
 30
0.0
 11
799.47817
 21
2326.310688
 31
0.0
  0
ARC
  5
15A
100
AcDbEntity
  8
便器
  6
EXLTYPE2
 62
     2
100
AcDbCircle
 10
888.57784
 20
4723.800678
 30
0.0
 40
2400.0
100
AcDbArc
 50
263.764556
 51
267.379364
  0
ARC
  5
15B
100
AcDbEntity
  8
便器
  6
EXLTYPE2
 62
     2
100
AcDbCircle
 10
631.190603
 20
2367.818531
 30
0.0
 40
30.0
100
AcDbArc
 50
201.930603
 51
263.765259
  0
CIRCLE
  5
15C
100
AcDbEntity
  8
便器
  6
EXLTYPE2
 62
     2
100
AcDbCircle
 10
749.888906
 20
2501.310688
 30
0.0
 40
5.5
  0
LINE
  5
15D
100
AcDbEntity
  8
便器
  6
CONTINUOUS
 62
     3
100
AcDbLine
 10
446.888906
 20
2483.30941
 30
0.0
 11
446.888906
 21
2704.810688
 31
0.0
  0
CIRCLE
  5
15E
100
AcDbEntity
  8
便器
  6
EXLTYPE2
 62
     2
100
AcDbCircle
 10
749.888906
 20
2361.310688
 30
0.0
 40
5.5
  0
LINE
  5
15F
100
AcDbEntity
  8
便器
  6
EXLTYPE3
 62
     6
100
AcDbLine
 10
1670.903005
 20
604.310688
 30
0.0
 11
1670.903005
 21
1470.0
 31
0.0
  0
ARC
  5
160
100
AcDbEntity
  8
便器
  6
EXLTYPE2
 62
     2
100
AcDbCircle
 10
846.923147
 20
2453.61449
 30
0.0
 40
400.0
100
AcDbArc
 50
183.196442
 51
201.870619
  0
ARC
  5
161
100
AcDbEntity
  8
便器
  6
EXLTYPE2
 62
     2
100
AcDbCircle
 10
846.923147
 20
2409.006885
 30
0.0
 40
400.0
100
AcDbArc
 50
158.131251
 51
176.803558
  0
DIMENSION
  5
16D
100
AcDbEntity
  8
タンク
  6
CONTINUOUS
 62
     3
100
AcDbDimension
  2
*D15
 10
594.888748
 20
1529.310688
 30
0.0
 11
482.453945
 21
1552.810688
 31
0.0
 70
   160
  1
225
  3
STANDARD
100
AcDbAlignedDimension
 13
370.019141
 23
1442.145488
 33
0.0
 14
594.888748
 24
1529.310688
 34
0.0
100
AcDbRotatedDimension
1001
ACAD
1000
DSTYLE
1002
{
1070
     6
1000
_EX_NORM
1070
     7
1000
_EX_NORM
1070
    41
1040
35.0
1070
    42
1040
7.0
1070
    44
1040
20.0
1070
    73
1070
     0
1070
    74
1070
     0
1070
    75
1070
     0
1070
    76
1070
     1
1070
    77
1070
     1
1070
    78
1070
     0
1070
   140
1040
40.0
1070
   147
1040
3.5
1070
   173
1070
     1
1070
   176
1070
     3
1070
   177
1070
     3
1070
   178
1070
     2
1070
   271
1070
     0
1070
   279
1070
     2
1070
   280
1070
     0
1070
   287
1070
     5
1070
   340
1005
16C
1002
}
  0
LINE
  5
16E
100
AcDbEntity
  8
タンク
  6
CONTINUOUS
 62
     3
100
AcDbLine
 10
370.017191
 20
1449.310688
 30
0.0
 11
223.0
 21
1449.310688
 31
0.0
  0
LINE
  5
16F
100
AcDbEntity
  8
タンク
  6
CONTINUOUS
 62
     3
100
AcDbLine
 10
363.017192
 20
1449.310688
 30
0.0
 11
226.0
 21
1449.310688
 31
0.0
  0
DIMENSION
  5
179
100
AcDbEntity
  8
タンク
  6
CONTINUOUS
 62
     3
100
AcDbDimension
  2
*D16
 10
246.0
 20
989.310688
 30
0.0
 11
222.5
 21
1219.310688
 31
0.0
 70
   160
  1
460
  3
STANDARD
100
AcDbAlignedDimension
 13
246.0
 23
1449.310688
 33
0.0
 14
246.0
 24
989.310688
 34
0.0
 50
90.0
100
AcDbRotatedDimension
1001
ACAD
1000
DSTYLE
1002
{
1070
     6
1000
_EX_NORM
1070
     7
1000
_EX_NORM
1070
    41
1040
35.0
1070
    42
1040
0.0
1070
    44
1040
0.0
1070
    73
1070
     0
1070
    74
1070
     0
1070
    75
1070
     1
1070
    76
1070
     1
1070
    77
1070
     1
1070
    78
1070
     0
1070
   140
1040
40.0
1070
   147
1040
3.5
1070
   173
1070
     1
1070
   176
1070
     3
1070
   177
1070
     3
1070
   178
1070
     2
1070
   271
1070
     0
1070
   279
1070
     2
1070
   280
1070
     0
1070
   287
1070
     5
1070
   340
1005
16C
1002
}
  0
DIMENSION
  5
185
100
AcDbEntity
  8
タンク
  6
CONTINUOUS
 62
     3
100
AcDbDimension
  2
*D17
 10
1888.403005
 20
1529.310688
 30
0.0
 11
1670.903005
 21
1552.810688
 31
0.0
 70
   160
  1
435
  3
STANDARD
100
AcDbAlignedDimension
 13
1453.403005
 23
1389.310688
 33
0.0
 14
1888.403005
 24
1389.310688
 34
0.0
100
AcDbRotatedDimension
1001
ACAD
1000
DSTYLE
1002
{
1070
     6
1000
_EX_NORM
1070
     7
1000
_EX_NORM
1070
    41
1040
35.0
1070
    42
1040
7.0
1070
    44
1040
20.0
1070
    73
1070
     0
1070
    74
1070
     0
1070
    75
1070
     0
1070
    76
1070
     0
1070
    77
1070
     1
1070
    78
1070
     0
1070
   140
1040
40.0
1070
   147
1040
3.5
1070
   173
1070
     1
1070
   176
1070
     3
1070
   177
1070
     3
1070
   178
1070
     2
1070
   271
1070
     0
1070
   279
1070
     2
1070
   280
1070
     0
1070
   287
1070
     5
1070
   340
1005
16C
1002
}
  0
LINE
  5
186
100
AcDbEntity
  8
タンク
  6
CONTINUOUS
 62
     6
100
AcDbLine
 10
500.938406
 20
954.310841
 30
0.0
 11
500.938406
 21
948.410841
 31
0.0
  0
LINE
  5
187
100
AcDbEntity
  8
タンク
  6
CONTINUOUS
 62
     6
100
AcDbLine
 10
497.538406
 20
954.310841
 30
0.0
 11
497.538406
 21
948.410841
 31
0.0
  0
ARC
  5
188
100
AcDbEntity
  8
タンク
  6
CONTINUOUS
 62
     6
100
AcDbCircle
 10
499.238406
 20
951.050841
 30
0.0
 40
3.14
100
AcDbArc
 50
237.220919
 51
302.779081
  0
LINE
  5
189
100
AcDbEntity
  8
タンク
  6
CONTINUOUS
 62
     6
100
AcDbLine
 10
497.538406
 20
954.310841
 30
0.0
 11
504.888406
 21
954.310841
 31
0.0
  0
LINE
  5
18A
100
AcDbEntity
  8
タンク
  6
CONTINUOUS
 62
     6
100
AcDbLine
 10
493.888406
 20
955.310841
 30
0.0
 11
493.888406
 21
954.310841
 31
0.0
  0
LINE
  5
18B
100
AcDbEntity
  8
タンク
  6
CONTINUOUS
 62
     6
100
AcDbLine
 10
512.238406
 20
954.310841
 30
0.0
 11
512.238406
 21
948.410841
 31
0.0
  0
LINE
  5
18C
100
AcDbEntity
  8
タンク
  6
CONTINUOUS
 62
     6
100
AcDbLine
 10
515.888406
 20
955.310841
 30
0.0
 11
515.888406
 21
954.310841
 31
0.0
  0
LINE
  5
18D
100
AcDbEntity
  8
タンク
  6
CONTINUOUS
 62
     6
100
AcDbLine
 10
491.388406
 20
955.310841
 30
0.0
 11
518.388406
 21
955.310841
 31
0.0
  0
LINE
  5
18E
100
AcDbEntity
  8
タンク
  6
CONTINUOUS
 62
     6
100
AcDbLine
 10
493.888406
 20
954.310841
 30
0.0
 11
515.888406
 21
954.310841
 31
0.0
  0
LINE
  5
18F
100
AcDbEntity
  8
タンク
  6
CONTINUOUS
 62
     6
100
AcDbLine
 10
508.838406
 20
954.310841
 30
0.0
 11
508.838406
 21
948.410841
 31
0.0
  0
ARC
  5
190
100
AcDbEntity
  8
タンク
  6
CONTINUOUS
 62
     6
100
AcDbCircle
 10
504.888406
 20
963.763341
 30
0.0
 40
15.8525
100
AcDbArc
 50
255.571476
 51
284.428524
  0
ARC
  5
191
100
AcDbEntity
  8
タンク
  6
CONTINUOUS
 62
     6
100
AcDbCircle
 10
510.538406
 20
951.050841
 30
0.0
 40
3.14
100
AcDbArc
 50
237.220919
 51
302.779081
  0
LINE
  5
192
100
AcDbEntity
  8
タンク
  6
CONTINUOUS
 62
     6
100
AcDbLine
 10
499.238406
 20
947.910841
 30
0.0
 11
510.538406
 21
947.910841
 31
0.0
  0
LINE
  5
193
100
AcDbEntity
  8
タンク
  6
CONTINUOUS
 62
     6
100
AcDbLine
 10
502.388406
 20
936.818593
 30
0.0
 11
507.388406
 21
936.818593
 31
0.0
  0
LINE
  5
194
100
AcDbEntity
  8
タンク
  6
CONTINUOUS
 62
     6
100
AcDbLine
 10
500.938406
 20
940.818593
 30
0.0
 11
508.838406
 21
940.818593
 31
0.0
  0
LINE
  5
195
100
AcDbEntity
  8
タンク
  6
CONTINUOUS
 62
     6
100
AcDbLine
 10
501.838406
 20
940.818593
 30
0.0
 11
502.388406
 21
936.818593
 31
0.0
  0
LINE
  5
196
100
AcDbEntity
  8
タンク
  6
CONTINUOUS
 62
     6
100
AcDbLine
 10
507.938406
 20
940.818593
 30
0.0
 11
507.388406
 21
936.818593
 31
0.0
  0
LINE
  5
197
100
AcDbEntity
  8
タンク
  6
CONTINUOUS
 62
     6
100
AcDbLine
 10
501.838406
 20
947.910841
 30
0.0
 11
501.838406
 21
940.818593
 31
0.0
  0
LINE
  5
198
100
AcDbEntity
  8
タンク
  6
CONTINUOUS
 62
     6
100
AcDbLine
 10
500.938406
 20
947.910841
 30
0.0
 11
500.938406
 21
940.818593
 31
0.0
  0
LINE
  5
199
100
AcDbEntity
  8
タンク
  6
CONTINUOUS
 62
     6
100
AcDbLine
 10
507.938406
 20
947.910841
 30
0.0
 11
507.938406
 21
940.818593
 31
0.0
  0
LINE
  5
19A
100
AcDbEntity
  8
タンク
  6
CONTINUOUS
 62
     6
100
AcDbLine
 10
508.838406
 20
947.910841
 30
0.0
 11
508.838406
 21
940.818593
 31
0.0
  0
LINE
  5
19B
100
AcDbEntity
  8
タンク
  6
CONTINUOUS
 62
     6
100
AcDbLine
 10
491.388406
 20
959.310841
 30
0.0
 11
491.388406
 21
955.310841
 31
0.0
  0
LINE
  5
19C
100
AcDbEntity
  8
タンク
  6
CONTINUOUS
 62
     6
100
AcDbLine
 10
518.388406
 20
959.310841
 30
0.0
 11
518.388406
 21
955.310841
 31
0.0
  0
ARC
  5
19D
100
AcDbEntity
  8
タンク
  6
CONTINUOUS
 62
     7
100
AcDbCircle
 10
-2007.112038
 20
2431.310688
 30
0.0
 40
2602.0
100
AcDbArc
 50
356.069023
 51
3.913289
  0
ARC
  5
19E
100
AcDbEntity
  8
タンク
  6
CONTINUOUS
 62
     7
100
AcDbCircle
 10
1377.43113
 20
2431.310688
 30
0.0
 40
1007.543168
100
AcDbArc
 50
169.038434
 51
190.961566
  0
LINE
  5
19F
100
AcDbEntity
  8
タンク
  6
CONTINUOUS
 62
     7
100
AcDbLine
 10
546.865204
 20
2213.810688
 30
0.0
 11
419.686789
 21
2213.810688
 31
0.0
  0
ARC
  5
1A0
100
AcDbEntity
  8
タンク
  6
CONTINUOUS
 62
     7
100
AcDbCircle
 10
419.686789
 20
2245.810688
 30
0.0
 40
32.0
100
AcDbArc
 50
190.961566
 51
270.0
  0
ARC
  5
1A1
100
AcDbEntity
  8
タンク
  6
CONTINUOUS
 62
     7
100
AcDbCircle
 10
546.865204
 20
2255.810688
 30
0.0
 40
42.0
100
AcDbArc
 50
270.0
 51
356.069023
  0
LINE
  5
1A2
100
AcDbEntity
  8
タンク
  6
CONTINUOUS
 62
     7
100
AcDbLine
 10
546.865204
 20
2648.810688
 30
0.0
 11
419.686789
 21
2648.810688
 31
0.0
  0
ARC
  5
1A3
100
AcDbEntity
  8
タンク
  6
CONTINUOUS
 62
     7
100
AcDbCircle
 10
419.686789
 20
2616.810688
 30
0.0
 40
32.0
100
AcDbArc
 50
90.0
 51
169.038434
  0
ARC
  5
1A4
100
AcDbEntity
  8
タンク
  6
CONTINUOUS
 62
     7
100
AcDbCircle
 10
546.865204
 20
2606.810688
 30
0.0
 40
42.0
100
AcDbArc
 50
3.930977
 51
90.0
  0
ARC
  5
1A5
100
AcDbEntity
  8
タンク
  6
CONTINUOUS
 62
     7
100
AcDbCircle
 10
-5417.109107
 20
1384.424374
 30
0.0
 40
6010.0
100
AcDbArc
 50
356.888701
 51
0.046583
  0
ARC
  5
1A6
100
AcDbEntity
  8
タンク
  6
CONTINUOUS
 62
     7
100
AcDbCircle
 10
10397.55401
 20
1283.871085
 30
0.0
 40
10010.0
100
AcDbArc
 50
179.758695
 51
181.619491
  0
ARC
  5
1A7
100
AcDbEntity
  8
タンク
  6
CONTINUOUS
 62
     7
100
AcDbCircle
 10
403.547625
 20
1001.310688
 30
0.0
 40
12.0
100
AcDbArc
 50
181.619491
 51
270.0
  0
ARC
  5
1A8
100
AcDbEntity
  8
タンク
  6
CONTINUOUS
 62
     7
100
AcDbCircle
 10
-414.493918
 20
1112.502936
 30
0.0
 40
1000.0
100
AcDbArc
 50
353.538085
 51
356.888701
  0
ARC
  5
1A9
100
AcDbEntity
  8
タンク
  6
CONTINUOUS
 62
     7
100
AcDbCircle
 10
567.229202
 20
1001.310688
 30
0.0
 40
12.0
100
AcDbArc
 50
270.0
 51
353.538085
  0
ARC
  5
1AA
100
AcDbEntity
  8
タンク
  6
CONTINUOUS
 62
     7
100
AcDbCircle
 10
395.729897
 20
1351.187324
 30
0.0
 40
20.0
100
AcDbArc
 50
181.256498
 51
220.0
  0
LINE
  5
1AB
100
AcDbEntity
  8
タンク
  6
CONTINUOUS
 62
     7
100
AcDbLine
 10
374.888906
 20
1389.310688
 30
0.0
 11
375.734706
 21
1350.748759
 31
0.0
  0
ARC
  5
1AC
100
AcDbEntity
  8
タンク
  6
CONTINUOUS
 62
     7
100
AcDbCircle
 10
377.642874
 20
1326.070884
 30
0.0
 40
10.0
100
AcDbArc
 50
25.583939
 51
40.0
  0
LINE
  5
1AD
100
AcDbEntity
  8
タンク
  6
CONTINUOUS
 62
     7
100
AcDbLine
 10
380.409008
 20
1338.331572
 30
0.0
 11
385.303318
 21
1332.49876
 31
0.0
  0
ARC
  5
1AE
100
AcDbEntity
  8
タンク
  6
CONTINUOUS
 62
     7
100
AcDbCircle
 10
377.642874
 20
1326.070884
 30
0.0
 40
10.0
100
AcDbArc
 50
359.758695
 51
25.583939
  0
LINE
  5
1AF
100
AcDbEntity
  8
タンク
  6
CONTINUOUS
 62
     6
100
AcDbLine
 10
416.172239
 20
986.810688
 30
0.0
 11
416.172239
 21
989.310688
 31
0.0
  0
ARC
  5
1B0
100
AcDbEntity
  8
タンク
  6
CONTINUOUS
 62
     6
100
AcDbCircle
 10
463.172239
 20
986.810688
 30
0.0
 40
1.0
100
AcDbArc
 50
270.0
 51
0.0
  0
LINE
  5
1B1
100
AcDbEntity
  8
タンク
  6
CONTINUOUS
 62
     6
100
AcDbLine
 10
464.172239
 20
986.810688
 30
0.0
 11
464.172239
 21
989.310688
 31
0.0
  0
LINE
  5
1B2
100
AcDbEntity
  8
タンク
  6
CONTINUOUS
 62
     7
100
AcDbLine
 10
403.547625
 20
989.310688
 30
0.0
 11
567.229202
 21
989.310688
 31
0.0
  0
LINE
  5
1B3
100
AcDbEntity
  8
タンク
  6
CONTINUOUS
 62
     6
100
AcDbLine
 10
463.172239
 20
985.810688
 30
0.0
 11
417.172239
 21
985.810688
 31
0.0
  0
ARC
  5
1B4
100
AcDbEntity
  8
タンク
  6
CONTINUOUS
 62
     6
100
AcDbCircle
 10
417.172239
 20
986.810688
 30
0.0
 40
1.0
100
AcDbArc
 50
180.0
 51
270.0
  0
LINE
  5
1B5
100
AcDbEntity
  8
タンク
  6
CONTINUOUS
 62
     7
100
AcDbLine
 10
594.975716
 20
1389.310688
 30
0.0
 11
374.888842
 21
1389.310688
 31
0.0
  0
ARC
  5
1B6
100
AcDbEntity
  8
タンク
  6
CONTINUOUS
 62
     7
100
AcDbCircle
 10
297.678168
 20
-553.837423
 30
0.0
 40
2000.0
100
AcDbArc
 50
81.724231
 51
87.714897
  0
ARC
  5
1B7
100
AcDbEntity
  8
タンク
  6
CONTINUOUS
 62
     7
100
AcDbCircle
 10
1169.796326
 20
1461.02547
 30
0.0
 40
800.0
100
AcDbArc
 50
181.352305
 51
185.011856
  0
ARC
  5
1B8
100
AcDbEntity
  8
タンク
  6
CONTINUOUS
 62
     7
100
AcDbCircle
 10
374.847366
 20
1391.310688
 30
0.0
 40
2.0
100
AcDbArc
 50
185.011856
 51
270.0
  0
ARC
  5
1B9
100
AcDbEntity
  8
タンク
  6
CONTINUOUS
 62
     7
100
AcDbCircle
 10
377.017191
 20
1442.310688
 30
0.0
 40
7.0
100
AcDbArc
 50
49.274085
 51
181.352305
  0
ARC
  5
1BA
100
AcDbEntity
  8
タンク
  6
CONTINUOUS
 62
     7
100
AcDbCircle
 10
377.143058
 20
1437.577735
 30
0.0
 40
7.0
100
AcDbArc
 50
87.714897
 51
181.694391
  0
ARC
  5
1BB
100
AcDbEntity
  8
タンク
  6
CONTINUOUS
 62
     7
100
AcDbCircle
 10
391.370899
 20
1458.983153
 30
0.0
 40
15.0
100
AcDbArc
 50
229.274085
 51
267.334921
  0
ARC
  5
1BC
100
AcDbEntity
  8
タンク
  6
CONTINUOUS
 62
     7
100
AcDbCircle
 10
584.258137
 20
1416.429798
 30
0.0
 40
9.0
100
AcDbArc
 50
5.284383
 51
81.724231
  0
ARC
  5
1BD
100
AcDbEntity
  8
タンク
  6
CONTINUOUS
 62
     7
100
AcDbCircle
 10
95.344966
 20
1371.209101
 30
0.0
 40
500.0
100
AcDbArc
 50
2.074743
 51
5.284383
  0
LINE
  5
1BE
100
AcDbEntity
  8
タンク
  6
CONTINUOUS
 62
     3
100
AcDbLine
 10
594.888748
 20
1398.000182
 30
0.0
 11
594.888748
 21
1549.310688
 31
0.0
  0
ARC
  5
1BF
100
AcDbEntity
  8
タンク
  6
CONTINUOUS
 62
     7
100
AcDbCircle
 10
11453.651936
 20
1576.442522
 30
0.0
 40
10000.0
100
AcDbArc
 50
181.072249
 51
181.63932
  0
ARC
  5
1C0
100
AcDbEntity
  8
タンク
  6
CONTINUOUS
 62
     7
100
AcDbCircle
 10
-8111.845925
 20
1576.442522
 30
0.0
 40
10000.0
100
AcDbArc
 50
358.36068
 51
358.927751
  0
ARC
  5
1C1
100
AcDbEntity
  8
タンク
  6
CONTINUOUS
 62
     7
100
AcDbCircle
 10
3157.048975
 20
1338.999246
 30
0.0
 40
1700.0
100
AcDbArc
 50
181.63932
 51
189.618133
  0
ARC
  5
1C2
100
AcDbEntity
  8
タンク
  6
CONTINUOUS
 62
     7
100
AcDbCircle
 10
184.757036
 20
1338.999246
 30
0.0
 40
1700.0
100
AcDbArc
 50
350.381867
 51
358.36068
  0
ARC
  5
1C3
100
AcDbEntity
  8
タンク
  6
CONTINUOUS
 62
     7
100
AcDbCircle
 10
2072.511447
 20
1155.210372
 30
0.0
 40
600.0
100
AcDbArc
 50
189.618133
 51
194.567767
  0
ARC
  5
1C4
100
AcDbEntity
  8
タンク
  6
CONTINUOUS
 62
     7
100
AcDbCircle
 10
1269.294564
 20
1155.210372
 30
0.0
 40
600.0
100
AcDbArc
 50
345.432233
 51
350.381867
  0
LINE
  5
1C5
100
AcDbEntity
  8
タンク
  6
CONTINUOUS
 62
     7
100
AcDbLine
 10
1453.403005
 20
1389.310688
 30
0.0
 11
1888.403005
 21
1389.310688
 31
0.0
  0
LINE
  5
1C6
100
AcDbEntity
  8
タンク
  6
CONTINUOUS
 62
     7
100
AcDbLine
 10
1453.403005
 20
1389.310688
 30
0.0
 11
1888.403005
 21
1389.310688
 31
0.0
  0
ARC
  5
1C7
100
AcDbEntity
  8
タンク
  6
CONTINUOUS
 62
     7
100
AcDbCircle
 10
1670.903005
 20
-56.594308
 30
0.0
 40
1505.904996
100
AcDbArc
 50
82.077721
 51
90.0
  0
ARC
  5
1C8
100
AcDbEntity
  8
タンク
  6
CONTINUOUS
 62
     6
100
AcDbCircle
 10
1670.903005
 20
-861.201812
 30
0.0
 40
2305.5125
100
AcDbArc
 50
84.834815
 51
90.0
  0
LINE
  5
1C9
100
AcDbEntity
  8
タンク
  6
CONTINUOUS
 62
     7
100
AcDbLine
 10
1878.142635
 20
1424.310688
 30
0.0
 11
1463.663376
 21
1424.310688
 31
0.0
  0
ARC
  5
1CA
100
AcDbEntity
  8
タンク
  6
CONTINUOUS
 62
     7
100
AcDbCircle
 10
1670.903005
 20
-56.594308
 30
0.0
 40
1505.904996
100
AcDbArc
 50
90.0
 51
97.922279
  0
ARC
  5
1CB
100
AcDbEntity
  8
タンク
  6
CONTINUOUS
 62
     6
100
AcDbCircle
 10
1670.903005
 20
-861.201812
 30
0.0
 40
2305.5125
100
AcDbArc
 50
90.0
 51
95.165185
  0
ARC
  5
1CC
100
AcDbEntity
  8
タンク
  6
CONTINUOUS
 62
     7
100
AcDbCircle
 10
1463.663376
 20
1415.310688
 30
0.0
 40
9.0
100
AcDbArc
 50
90.0
 51
175.710402
  0
ARC
  5
1CD
100
AcDbEntity
  8
タンク
  6
CONTINUOUS
 62
     7
100
AcDbCircle
 10
1953.287952
 20
1378.585025
 30
0.0
 40
500.0
100
AcDbArc
 50
174.455585
 51
178.770835
  0
ARC
  5
1CE
100
AcDbEntity
  8
タンク
  6
CONTINUOUS
 62
     7
100
AcDbCircle
 10
1464.585046
 20
1426.024142
 30
0.0
 40
9.0
100
AcDbArc
 50
95.154384
 51
174.455585
  0
ARC
  5
1CF
100
AcDbEntity
  8
タンク
  6
CONTINUOUS
 62
     7
100
AcDbCircle
 10
1878.142635
 20
1415.310688
 30
0.0
 40
9.0
100
AcDbArc
 50
4.289598
 51
90.0
  0
ARC
  5
1D0
100
AcDbEntity
  8
タンク
  6
CONTINUOUS
 62
     7
100
AcDbCircle
 10
1388.518058
 20
1378.585025
 30
0.0
 40
500.0
100
AcDbArc
 50
1.229165
 51
5.544415
  0
ARC
  5
1D1
100
AcDbEntity
  8
タンク
  6
CONTINUOUS
 62
     7
100
AcDbCircle
 10
1877.220964
 20
1426.024142
 30
0.0
 40
9.0
100
AcDbArc
 50
5.544415
 51
84.845616
  0
ARC
  5
1D2
100
AcDbEntity
  8
タンク
  6
CONTINUOUS
 62
     6
100
AcDbCircle
 10
1889.459477
 20
1319.442225
 30
0.0
 40
25.0
100
AcDbArc
 50
0.0
 51
26.603699
  0
ARC
  5
1D3
100
AcDbEntity
  8
タンク
  6
CONTINUOUS
 62
     6
100
AcDbCircle
 10
1989.290807
 20
1357.328105
 30
0.0
 40
77.0
100
AcDbArc
 50
188.557007
 51
192.856995
  0
ARC
  5
1D4
100
AcDbEntity
  8
タンク
  6
CONTINUOUS
 62
     6
100
AcDbCircle
 10
1559.154707
 20
1283.828345
 30
0.0
 40
360.0
100
AcDbArc
 50
8.72937
 51
10.635132
  0
ARC
  5
1D5
100
AcDbEntity
  8
タンク
  6
CONTINUOUS
 62
     6
100
AcDbCircle
 10
1919.095957
 20
1341.306765
 30
0.0
 40
5.0
100
AcDbArc
 50
192.857056
 51
214.698669
  0
ARC
  5
1D6
100
AcDbEntity
  8
タンク
  6
CONTINUOUS
 62
     6
100
AcDbCircle
 10
1917.845807
 20
1349.156755
 30
0.0
 40
5.0
100
AcDbArc
 50
167.391174
 51
182.519958
  0
ARC
  5
1D7
100
AcDbEntity
  8
タンク
  6
CONTINUOUS
 62
     6
100
AcDbCircle
 10
1942.069727
 20
1350.222835
 30
0.0
 40
29.24737
100
AcDbArc
 50
182.519958
 51
188.557007
  0
ARC
  5
1D8
100
AcDbEntity
  8
タンク
  6
CONTINUOUS
 62
     6
100
AcDbCircle
 10
1900.459477
 20
1305.624165
 30
0.0
 40
18.0
100
AcDbArc
 50
328.506104
 51
3.653961
  0
ARC
  5
1D9
100
AcDbEntity
  8
タンク
  6
CONTINUOUS
 62
     6
100
AcDbCircle
 10
1912.397217
 20
1298.310455
 30
0.0
 40
4.0
100
AcDbArc
 50
270.0
 51
328.506104
  0
ARC
  5
1DA
100
AcDbEntity
  8
タンク
  6
CONTINUOUS
 62
     6
100
AcDbCircle
 10
1559.154707
 20
1283.828345
 30
0.0
 40
360.0
100
AcDbArc
 50
3.653961
 51
8.72937
  0
LINE
  5
1DB
100
AcDbEntity
  8
タンク
  6
CONTINUOUS
 62
     6
100
AcDbLine
 10
1914.459477
 20
1319.442225
 30
0.0
 11
1914.459477
 21
1294.883055
 31
0.0
  0
LINE
  5
1DC
100
AcDbEntity
  8
タンク
  6
CONTINUOUS
 62
     6
100
AcDbLine
 10
1908.636367
 20
1361.509015
 30
0.0
 11
1908.636367
 21
1344.072155
 31
0.0
  0
ARC
  5
1DD
100
AcDbEntity
  8
タンク
  6
CONTINUOUS
 62
     6
100
AcDbCircle
 10
1906.234447
 20
1358.310455
 30
0.0
 40
4.0
100
AcDbArc
 50
25.944489
 51
90.0
  0
LINE
  5
1DE
100
AcDbEntity
  8
タンク
  6
CONTINUOUS
 62
     6
100
AcDbLine
 10
1887.459457
 20
1346.810455
 30
0.0
 11
1887.459457
 21
1341.810455
 31
0.0
  0
LINE
  5
1DF
100
AcDbEntity
  8
タンク
  6
CONTINUOUS
 62
     6
100
AcDbLine
 10
1887.459457
 20
1360.560455
 30
0.0
 11
1885.459447
 21
1360.560455
 31
0.0
  0
LINE
  5
1E0
100
AcDbEntity
  8
タンク
  6
CONTINUOUS
 62
     6
100
AcDbLine
 10
1887.459457
 20
1328.060455
 30
0.0
 11
1885.459457
 21
1328.060455
 31
0.0
  0
LINE
  5
1E1
100
AcDbEntity
  8
タンク
  6
CONTINUOUS
 62
     6
100
AcDbLine
 10
1887.459457
 20
1326.310455
 30
0.0
 11
1888.562507
 21
1326.310455
 31
0.0
  0
LINE
  5
1E2
100
AcDbEntity
  8
タンク
  6
CONTINUOUS
 62
     6
100
AcDbLine
 10
1887.459457
 20
1362.310455
 30
0.0
 11
1887.459457
 21
1326.310455
 31
0.0
  0
ARC
  5
1E3
100
AcDbEntity
  8
タンク
  6
CONTINUOUS
 62
     6
100
AcDbCircle
 10
1868.459477
 20
1313.200615
 30
0.0
 40
24.0
100
AcDbArc
 50
0.0
 51
35.659302
  0
ARC
  5
1E4
100
AcDbEntity
  8
タンク
  6
CONTINUOUS
 62
     6
100
AcDbCircle
 10
1868.959427
 20
1317.575475
 30
0.0
 40
24.0
100
AcDbArc
 50
0.0
 51
37.658508
  0
LINE
  5
1E5
100
AcDbEntity
  8
タンク
  6
CONTINUOUS
 62
     6
100
AcDbLine
 10
1906.234447
 20
1362.310455
 30
0.0
 11
1887.459457
 21
1362.310455
 31
0.0
  0
LINE
  5
1E6
100
AcDbEntity
  8
タンク
  6
CONTINUOUS
 62
     6
100
AcDbLine
 10
1892.459477
 20
1314.426635
 30
0.0
 11
1892.459477
 21
1294.310455
 31
0.0
  0
LINE
  5
1E7
100
AcDbEntity
  8
タンク
  6
CONTINUOUS
 62
     6
100
AcDbLine
 10
1892.959477
 20
1317.575475
 30
0.0
 11
1892.959477
 21
1294.310455
 31
0.0
  0
LINE
  5
1E8
100
AcDbEntity
  8
タンク
  6
CONTINUOUS
 62
     6
100
AcDbLine
 10
1912.397217
 20
1294.310455
 30
0.0
 11
1892.459477
 21
1294.310455
 31
0.0
  0
ARC
  5
1E9
100
AcDbEntity
  8
タンク
  6
CONTINUOUS
 62
     6
100
AcDbCircle
 10
1877.459457
 20
1344.310455
 30
0.0
 40
36.0
100
AcDbArc
 50
9.493713
 51
25.944489
  0
ARC
  5
1EA
100
AcDbEntity
  8
タンク
  6
CONTINUOUS
 62
     6
100
AcDbCircle
 10
1938.636367
 20
1344.072155
 30
0.0
 40
30.0
100
AcDbArc
 50
180.0
 51
206.603699
  0
LINE
  5
1EB
100
AcDbEntity
  8
タンク
  6
CONTINUOUS
 62
     6
100
AcDbLine
 10
543.130299
 20
2648.810843
 30
0.0
 11
543.130299
 21
2664.354793
 31
0.0
  0
ARC
  5
1EC
100
AcDbEntity
  8
タンク
  6
CONTINUOUS
 62
     6
100
AcDbCircle
 10
524.885499
 20
2667.623673
 30
0.0
 40
9.1224
100
AcDbArc
 50
90.0
 51
99.33316
  0
ARC
  5
1ED
100
AcDbEntity
  8
タンク
  6
CONTINUOUS
 62
     6
100
AcDbCircle
 10
526.364949
 20
2658.621879
 30
0.0
 40
18.244958
100
AcDbArc
 50
99.33316
 51
122.19651
  0
ARC
  5
1EE
100
AcDbEntity
  8
タンク
  6
CONTINUOUS
 62
     6
100
AcDbCircle
 10
502.568449
 20
2686.670573
 30
0.0
 40
19.2584
100
AcDbArc
 50
293.546326
 51
305.556152
  0
ARC
  5
1EF
100
AcDbEntity
  8
タンク
  6
CONTINUOUS
 62
     6
100
AcDbCircle
 10
510.695099
 20
2664.354783
 30
0.0
 40
4.0544
100
AcDbArc
 50
164.010132
 51
180.0
  0
ARC
  5
1F0
100
AcDbEntity
  8
タンク
  6
CONTINUOUS
 62
     6
100
AcDbCircle
 10
511.669509
 20
2664.075583
 30
0.0
 40
5.068
100
AcDbArc
 50
117.411407
 51
164.010132
  0
ARC
  5
1F1
100
AcDbEntity
  8
タンク
  6
CONTINUOUS
 62
     6
100
AcDbCircle
 10
498.113979
 20
2692.908943
 30
0.0
 40
26.92688
100
AcDbArc
 50
305.556152
 51
308.724487
  0
ARC
  5
1F2
100
AcDbEntity
  8
タンク
  6
CONTINUOUS
 62
     6
100
AcDbCircle
 10
518.803869
 20
2670.630293
 30
0.0
 40
4.0544
100
AcDbArc
 50
122.196686
 51
161.721527
  0
ARC
  5
1F3
100
AcDbEntity
  8
タンク
  6
CONTINUOUS
 62
     6
100
AcDbCircle
 10
539.075899
 20
2664.354793
 30
0.0
 40
4.0544
100
AcDbArc
 50
0.0
 51
15.989868
  0
ARC
  5
1F4
100
AcDbEntity
  8
タンク
  6
CONTINUOUS
 62
     6
100
AcDbCircle
 10
533.435119
 20
2655.077603
 30
0.0
 40
15.204
100
AcDbArc
 50
62.588623
 51
66.453674
  0
ARC
  5
1F5
100
AcDbEntity
  8
タンク
  6
CONTINUOUS
 62
     6
100
AcDbCircle
 10
538.101519
 20
2664.075573
 30
0.0
 40
5.068
100
AcDbArc
 50
15.989868
 51
62.588623
  0
ARC
  5
1F6
100
AcDbEntity
  8
タンク
  6
CONTINUOUS
 62
     6
100
AcDbCircle
 10
538.101519
 20
2664.075573
 30
0.0
 40
5.068
100
AcDbArc
 50
15.989868
 51
62.588623
  0
ARC
  5
1F7
100
AcDbEntity
  8
タンク
  6
CONTINUOUS
 62
     6
100
AcDbCircle
 10
530.966609
 20
2670.630613
 30
0.0
 40
4.0544
100
AcDbArc
 50
18.280151
 51
57.805664
  0
ARC
  5
1F8
100
AcDbEntity
  8
タンク
  6
CONTINUOUS
 62
     6
100
AcDbCircle
 10
524.885499
 20
2667.623673
 30
0.0
 40
9.1224
100
AcDbArc
 50
80.66687
 51
90.0
  0
ARC
  5
1F9
100
AcDbEntity
  8
タンク
  6
CONTINUOUS
 62
     6
100
AcDbCircle
 10
523.406089
 20
2658.622043
 30
0.0
 40
18.2448
100
AcDbArc
 50
57.805664
 51
80.66687
  0
ARC
  5
1FA
100
AcDbEntity
  8
タンク
  6
CONTINUOUS
 62
     6
100
AcDbCircle
 10
551.661759
 20
2692.909243
 30
0.0
 40
26.92688
100
AcDbArc
 50
231.274048
 51
234.443848
  0
ARC
  5
1FB
100
AcDbEntity
  8
タンク
  6
CONTINUOUS
 62
     6
100
AcDbCircle
 10
547.202549
 20
2686.670573
 30
0.0
 40
19.2584
100
AcDbArc
 50
234.443848
 51
246.453674
  0
ARC
  5
1FC
100
AcDbEntity
  8
タンク
  6
CONTINUOUS
 62
     6
100
AcDbCircle
 10
516.335879
 20
2655.077603
 30
0.0
 40
15.204
100
AcDbArc
 50
113.546326
 51
117.411407
  0
LINE
  5
1FD
100
AcDbEntity
  8
タンク
  6
CONTINUOUS
 62
     6
100
AcDbLine
 10
506.645439
 20
2648.810533
 30
0.0
 11
506.645439
 21
2664.354483
 31
0.0
  0
LEADER
  5
1FE
100
AcDbEntity
  8
止水栓
  6
CONTINUOUS
 62
     6
100
AcDbLeader
  3
STANDARD
 73
     3
 74
     1
 75
     0
 40
0.0
 76
     2
 10
444.588906
 20
620.642677
 30
0.0
 10
325.0
 20
556.0
 30
0.0
 77
     6
1001
ACAD
1000
DSTYLE
1002
{
1070
    41
1040
35.0
1070
     5
1000
_EX_NORM
1070
     6
1000
_EX_NORM
1070
     7
1000
_EX_NORM
1070
   341
1005
2F
1002
}
  0
DIMENSION
  5
20A
100
AcDbEntity
  8
止水栓
  6
CONTINUOUS
 62
     3
100
AcDbDimension
  2
*D18
 10
1740.903005
 20
541.0
 30
0.0
 11
1670.903005
 21
564.5
 31
0.0
 70
   160
  1
140
  3
STANDARD
100
AcDbAlignedDimension
 13
1600.903005
 23
591.443207
 33
0.0
 14
1740.903005
 24
591.443207
 34
0.0
100
AcDbRotatedDimension
1001
ACAD
1000
DSTYLE
1002
{
1070
     6
1000
_EX_NORM
1070
     7
1000
_EX_NORM
1070
    41
1040
35.0
1070
    42
1040
7.0
1070
    44
1040
20.0
1070
    73
1070
     0
1070
    74
1070
     0
1070
    75
1070
     0
1070
    76
1070
     0
1070
    77
1070
     1
1070
    78
1070
     0
1070
   140
1040
40.0
1070
   147
1040
3.5
1070
   173
1070
     1
1070
   176
1070
     3
1070
   177
1070
     3
1070
   178
1070
     2
1070
   271
1070
     0
1070
   279
1070
     2
1070
   280
1070
     0
1070
   287
1070
     5
1070
   340
1005
16C
1002
}
  0
LINE
  5
20B
100
AcDbEntity
  8
止水栓
  6
CONTINUOUS
 62
     6
100
AcDbLine
 10
325.0
 20
556.0
 30
0.0
 11
234.357836
 21
556.0
 31
0.0
  0
TEXT
  5
20C
100
AcDbEntity
  8
止水栓
  6
CONTINUOUS
 62
     6
100
AcDbText
 10
280.357836
 20
559.5
 30
0.0
 40
40.0
  1
／ 
 41
0.945
  7
EXCADSTD
 72
     5
 11
316.357836
 21
559.5
 31
0.0
100
AcDbText
  0
TEXT
  5
20D
100
AcDbEntity
  8
止水栓
  6
CONTINUOUS
 62
     2
100
AcDbText
 10
300.957836
 20
559.4
 30
0.0
 40
25.0
  1
２
 41
0.84
  7
EXCADSTD
 72
     5
 11
320.957836
 21
559.4
 31
0.0
100
AcDbText
  0
TEXT
  5
20E
100
AcDbEntity
  8
止水栓
  6
CONTINUOUS
 62
     2
100
AcDbText
 10
233.857836
 20
559.5
 30
0.0
 40
40.0
  1
Ｒ
 41
0.945
  7
EXCADSTD
 72
     5
 11
269.857836
 21
559.5
 31
0.0
100
AcDbText
  0
TEXT
  5
20F
100
AcDbEntity
  8
止水栓
  6
CONTINUOUS
 62
     2
100
AcDbText
 10
270.357836
 20
574.7
 30
0.0
 40
25.0
  1
１
 41
0.84
  7
EXCADSTD
 72
     5
 11
290.357836
 21
574.7
 31
0.0
100
AcDbText
  0
LINE
  5
210
100
AcDbEntity
  8
止水栓
  6
CONTINUOUS
 62
     6
100
AcDbLine
 10
448.388906
 20
757.442907
 30
0.0
 11
434.847566
 21
985.810688
 31
0.0
  0
LINE
  5
211
100
AcDbEntity
  8
止水栓
  6
CONTINUOUS
 62
     6
100
AcDbLine
 10
461.401051
 20
757.881454
 30
0.0
 11
447.885715
 21
985.810688
 31
0.0
  0
LINE
  5
212
100
AcDbEntity
  8
止水栓
  6
CONTINUOUS
 62
     6
100
AcDbLine
 10
464.204406
 20
2151.310688
 30
0.0
 11
465.418104
 21
2149.208472
 31
0.0
  0
LINE
  5
213
100
AcDbEntity
  8
止水栓
  6
CONTINUOUS
 62
     6
100
AcDbLine
 10
465.366406
 20
2151.310688
 30
0.0
 11
444.411406
 21
2151.310688
 31
0.0
  0
LINE
  5
214
100
AcDbEntity
  8
止水栓
  6
CONTINUOUS
 62
     6
100
AcDbLine
 10
445.573406
 20
2151.310688
 30
0.0
 11
444.359708
 21
2149.208472
 31
0.0
  0
LINE
  5
215
100
AcDbEntity
  8
止水栓
  6
CONTINUOUS
 62
     6
100
AcDbLine
 10
444.411406
 20
2144.454869
 30
0.0
 11
444.411406
 21
2155.310688
 31
0.0
  0
LINE
  5
216
100
AcDbEntity
  8
止水栓
  6
CONTINUOUS
 62
     6
100
AcDbLine
 10
445.573406
 20
2155.310688
 30
0.0
 11
445.573406
 21
2151.310688
 31
0.0
  0
LINE
  5
217
100
AcDbEntity
  8
止水栓
  6
CONTINUOUS
 62
     6
100
AcDbLine
 10
464.204406
 20
2155.310688
 30
0.0
 11
464.204406
 21
2151.310688
 31
0.0
  0
LINE
  5
218
100
AcDbEntity
  8
止水栓
  6
CONTINUOUS
 62
     6
100
AcDbLine
 10
465.366406
 20
2144.454869
 30
0.0
 11
465.366406
 21
2155.084858
 31
0.0
  0
POLYLINE
  5
219
100
AcDbEntity
  8
止水栓
  6
CONTINUOUS
 62
     6
100
AcDb2dPolyline
 66
     1
 10
0.0
 20
0.0
 30
0.0
 70
   128
  0
VERTEX
  5
21A
100
AcDbEntity
  8
止水栓
  6
CONTINUOUS
 62
     6
100
AcDbVertex
100
AcDb2dVertex
 10
460.746603
 20
2161.533833
 30
0.0
  0
VERTEX
  5
21B
100
AcDbEntity
  8
止水栓
  6
CONTINUOUS
 62
     6
100
AcDbVertex
100
AcDb2dVertex
 10
460.72463
 20
2162.017231
 30
0.0
  0
VERTEX
  5
21C
100
AcDbEntity
  8
止水栓
  6
CONTINUOUS
 62
     6
100
AcDbVertex
100
AcDb2dVertex
 10
460.658712
 20
2162.498188
 30
0.0
  0
VERTEX
  5
21D
100
AcDbEntity
  8
止水栓
  6
CONTINUOUS
 62
     6
100
AcDbVertex
100
AcDb2dVertex
 10
460.548849
 20
2162.971821
 30
0.0
  0
VERTEX
  5
21E
100
AcDbEntity
  8
止水栓
  6
CONTINUOUS
 62
     6
100
AcDbVertex
100
AcDb2dVertex
 10
460.39504
 20
2163.435688
 30
0.0
  0
VERTEX
  5
21F
100
AcDbEntity
  8
止水栓
  6
CONTINUOUS
 62
     6
100
AcDbVertex
100
AcDb2dVertex
 10
460.202169
 20
2163.882465
 30
0.0
  0
VERTEX
  5
220
100
AcDbEntity
  8
止水栓
  6
CONTINUOUS
 62
     6
100
AcDbVertex
100
AcDb2dVertex
 10
459.965353
 20
2164.314594
 30
0.0
  0
VERTEX
  5
221
100
AcDbEntity
  8
止水栓
  6
CONTINUOUS
 62
     6
100
AcDbVertex
100
AcDb2dVertex
 10
459.691915
 20
2164.722309
 30
0.0
  0
VERTEX
  5
222
100
AcDbEntity
  8
止水栓
  6
CONTINUOUS
 62
     6
100
AcDbVertex
100
AcDb2dVertex
 10
459.381857
 20
2165.108051
 30
0.0
  0
VERTEX
  5
223
100
AcDbEntity
  8
止水栓
  6
CONTINUOUS
 62
     6
100
AcDbVertex
100
AcDb2dVertex
 10
459.04006
 20
2165.464497
 30
0.0
  0
VERTEX
  5
224
100
AcDbEntity
  8
止水栓
  6
CONTINUOUS
 62
     6
100
AcDbVertex
100
AcDb2dVertex
 10
458.664083
 20
2165.794087
 30
0.0
  0
VERTEX
  5
225
100
AcDbEntity
  8
止水栓
  6
CONTINUOUS
 62
     6
100
AcDbVertex
100
AcDb2dVertex
 10
458.261251
 20
2166.087055
 30
0.0
  0
VERTEX
  5
226
100
AcDbEntity
  8
止水栓
  6
CONTINUOUS
 62
     6
100
AcDbVertex
100
AcDb2dVertex
 10
457.831564
 20
2166.350727
 30
0.0
  0
VERTEX
  5
227
100
AcDbEntity
  8
止水栓
  6
CONTINUOUS
 62
     6
100
AcDbVertex
100
AcDb2dVertex
 10
457.379903
 20
2166.575337
 30
0.0
  0
VERTEX
  5
228
100
AcDbEntity
  8
止水栓
  6
CONTINUOUS
 62
     6
100
AcDbVertex
100
AcDb2dVertex
 10
456.911153
 20
2166.760883
 30
0.0
  0
VERTEX
  5
229
100
AcDbEntity
  8
止水栓
  6
CONTINUOUS
 62
     6
100
AcDbVertex
100
AcDb2dVertex
 10
456.425314
 20
2166.904926
 30
0.0
  0
VERTEX
  5
22A
100
AcDbEntity
  8
止水栓
  6
CONTINUOUS
 62
     6
100
AcDbVertex
100
AcDb2dVertex
 10
455.929708
 20
2167.009907
 30
0.0
  0
VERTEX
  5
22B
100
AcDbEntity
  8
止水栓
  6
CONTINUOUS
 62
     6
100
AcDbVertex
100
AcDb2dVertex
 10
455.424337
 20
2167.073383
 30
0.0
  0
VERTEX
  5
22C
100
AcDbEntity
  8
止水栓
  6
CONTINUOUS
 62
     6
100
AcDbVertex
100
AcDb2dVertex
 10
454.916525
 20
2167.095356
 30
0.0
  0
VERTEX
  5
22D
100
AcDbEntity
  8
止水栓
  6
CONTINUOUS
 62
     6
100
AcDbVertex
100
AcDb2dVertex
 10
454.906759
 20
2167.095356
 30
0.0
  0
VERTEX
  5
22E
100
AcDbEntity
  8
止水栓
  6
CONTINUOUS
 62
     6
100
AcDbVertex
100
AcDb2dVertex
 10
454.899435
 20
2167.095356
 30
0.0
  0
VERTEX
  5
22F
100
AcDbEntity
  8
止水栓
  6
CONTINUOUS
 62
     6
100
AcDbVertex
100
AcDb2dVertex
 10
454.889669
 20
2167.095356
 30
0.0
  0
SEQEND
  5
230
100
AcDbEntity
  8
止水栓
  6
CONTINUOUS
 62
     6
  0
LINE
  5
231
100
AcDbEntity
  8
止水栓
  6
CONTINUOUS
 62
     6
100
AcDbLine
 10
461.639669
 20
2201.3102
 30
0.0
 11
448.139669
 21
2201.3102
 31
0.0
  0
LINE
  5
232
100
AcDbEntity
  8
止水栓
  6
CONTINUOUS
 62
     6
100
AcDbLine
 10
459.639669
 20
2177.3102
 30
0.0
 11
450.139669
 21
2177.3102
 31
0.0
  0
LINE
  5
233
100
AcDbEntity
  8
止水栓
  6
CONTINUOUS
 62
     6
100
AcDbLine
 10
460.639669
 20
2174.3102
 30
0.0
 11
449.139669
 21
2174.3102
 31
0.0
  0
LINE
  5
234
100
AcDbEntity
  8
止水栓
  6
CONTINUOUS
 62
     6
100
AcDbLine
 10
459.639669
 20
2185.3102
 30
0.0
 11
450.139669
 21
2185.3102
 31
0.0
  0
LINE
  5
235
100
AcDbEntity
  8
止水栓
  6
CONTINUOUS
 62
     6
100
AcDbLine
 10
459.639669
 20
2190.3102
 30
0.0
 11
450.139669
 21
2190.3102
 31
0.0
  0
LINE
  5
236
100
AcDbEntity
  8
止水栓
  6
CONTINUOUS
 62
     6
100
AcDbLine
 10
459.639669
 20
2182.3102
 30
0.0
 11
450.139669
 21
2182.3102
 31
0.0
  0
LINE
  5
237
100
AcDbEntity
  8
止水栓
  6
CONTINUOUS
 62
     6
100
AcDbLine
 10
461.639669
 20
2193.3102
 30
0.0
 11
448.139669
 21
2193.3102
 31
0.0
  0
POLYLINE
  5
238
100
AcDbEntity
  8
止水栓
  6
CONTINUOUS
 62
     6
100
AcDb2dPolyline
 66
     1
 10
0.0
 20
0.0
 30
0.0
 70
   128
  0
VERTEX
  5
239
100
AcDbEntity
  8
止水栓
  6
CONTINUOUS
 62
     6
100
AcDbVertex
100
AcDb2dVertex
 10
454.889669
 20
2167.095356
 30
0.0
  0
VERTEX
  5
23A
100
AcDbEntity
  8
止水栓
  6
CONTINUOUS
 62
     6
100
AcDbVertex
100
AcDb2dVertex
 10
454.391622
 20
2167.073383
 30
0.0
  0
VERTEX
  5
23B
100
AcDbEntity
  8
止水栓
  6
CONTINUOUS
 62
     6
100
AcDbVertex
100
AcDb2dVertex
 10
453.896017
 20
2167.007465
 30
0.0
  0
VERTEX
  5
23C
100
AcDbEntity
  8
止水栓
  6
CONTINUOUS
 62
     6
100
AcDbVertex
100
AcDb2dVertex
 10
453.407736
 20
2166.904926
 30
0.0
  0
VERTEX
  5
23D
100
AcDbEntity
  8
止水栓
  6
CONTINUOUS
 62
     6
100
AcDbVertex
100
AcDb2dVertex
 10
452.921896
 20
2166.758442
 30
0.0
  0
VERTEX
  5
23E
100
AcDbEntity
  8
止水栓
  6
CONTINUOUS
 62
     6
100
AcDbVertex
100
AcDb2dVertex
 10
452.453146
 20
2166.572895
 30
0.0
  0
VERTEX
  5
23F
100
AcDbEntity
  8
止水栓
  6
CONTINUOUS
 62
     6
100
AcDbVertex
100
AcDb2dVertex
 10
452.001486
 20
2166.350727
 30
0.0
  0
VERTEX
  5
240
100
AcDbEntity
  8
止水栓
  6
CONTINUOUS
 62
     6
100
AcDbVertex
100
AcDb2dVertex
 10
451.571798
 20
2166.089497
 30
0.0
  0
VERTEX
  5
241
100
AcDbEntity
  8
止水栓
  6
CONTINUOUS
 62
     6
100
AcDbVertex
100
AcDb2dVertex
 10
451.168966
 20
2165.794087
 30
0.0
  0
VERTEX
  5
242
100
AcDbEntity
  8
止水栓
  6
CONTINUOUS
 62
     6
100
AcDbVertex
100
AcDb2dVertex
 10
450.792989
 20
2165.466938
 30
0.0
  0
VERTEX
  5
243
100
AcDbEntity
  8
止水栓
  6
CONTINUOUS
 62
     6
100
AcDbVertex
100
AcDb2dVertex
 10
450.451193
 20
2165.108051
 30
0.0
  0
VERTEX
  5
244
100
AcDbEntity
  8
止水栓
  6
CONTINUOUS
 62
     6
100
AcDbVertex
100
AcDb2dVertex
 10
450.141134
 20
2164.722309
 30
0.0
  0
VERTEX
  5
245
100
AcDbEntity
  8
止水栓
  6
CONTINUOUS
 62
     6
100
AcDbVertex
100
AcDb2dVertex
 10
449.867696
 20
2164.314594
 30
0.0
  0
VERTEX
  5
246
100
AcDbEntity
  8
止水栓
  6
CONTINUOUS
 62
     6
100
AcDbVertex
100
AcDb2dVertex
 10
449.63088
 20
2163.884907
 30
0.0
  0
VERTEX
  5
247
100
AcDbEntity
  8
止水栓
  6
CONTINUOUS
 62
     6
100
AcDbVertex
100
AcDb2dVertex
 10
449.438009
 20
2163.435688
 30
0.0
  0
VERTEX
  5
248
100
AcDbEntity
  8
止水栓
  6
CONTINUOUS
 62
     6
100
AcDbVertex
100
AcDb2dVertex
 10
449.2842
 20
2162.971821
 30
0.0
  0
VERTEX
  5
249
100
AcDbEntity
  8
止水栓
  6
CONTINUOUS
 62
     6
100
AcDbVertex
100
AcDb2dVertex
 10
449.174337
 20
2162.498188
 30
0.0
  0
VERTEX
  5
24A
100
AcDbEntity
  8
止水栓
  6
CONTINUOUS
 62
     6
100
AcDbVertex
100
AcDb2dVertex
 10
449.108419
 20
2162.017231
 30
0.0
  0
VERTEX
  5
24B
100
AcDbEntity
  8
止水栓
  6
CONTINUOUS
 62
     6
100
AcDbVertex
100
AcDb2dVertex
 10
449.084005
 20
2161.533833
 30
0.0
  0
VERTEX
  5
24C
100
AcDbEntity
  8
止水栓
  6
CONTINUOUS
 62
     6
100
AcDbVertex
100
AcDb2dVertex
 10
449.108419
 20
2161.047993
 30
0.0
  0
VERTEX
  5
24D
100
AcDbEntity
  8
止水栓
  6
CONTINUOUS
 62
     6
100
AcDbVertex
100
AcDb2dVertex
 10
449.174337
 20
2160.567036
 30
0.0
  0
VERTEX
  5
24E
100
AcDbEntity
  8
止水栓
  6
CONTINUOUS
 62
     6
100
AcDbVertex
100
AcDb2dVertex
 10
449.2842
 20
2160.093403
 30
0.0
  0
VERTEX
  5
24F
100
AcDbEntity
  8
止水栓
  6
CONTINUOUS
 62
     6
100
AcDbVertex
100
AcDb2dVertex
 10
449.438009
 20
2159.631977
 30
0.0
  0
VERTEX
  5
250
100
AcDbEntity
  8
止水栓
  6
CONTINUOUS
 62
     6
100
AcDbVertex
100
AcDb2dVertex
 10
449.63088
 20
2159.182758
 30
0.0
  0
VERTEX
  5
251
100
AcDbEntity
  8
止水栓
  6
CONTINUOUS
 62
     6
100
AcDbVertex
100
AcDb2dVertex
 10
449.867696
 20
2158.753071
 30
0.0
  0
VERTEX
  5
252
100
AcDbEntity
  8
止水栓
  6
CONTINUOUS
 62
     6
100
AcDbVertex
100
AcDb2dVertex
 10
450.141134
 20
2158.342915
 30
0.0
  0
VERTEX
  5
253
100
AcDbEntity
  8
止水栓
  6
CONTINUOUS
 62
     6
100
AcDbVertex
100
AcDb2dVertex
 10
450.451193
 20
2157.959614
 30
0.0
  0
VERTEX
  5
254
100
AcDbEntity
  8
止水栓
  6
CONTINUOUS
 62
     6
100
AcDbVertex
100
AcDb2dVertex
 10
450.792989
 20
2157.600727
 30
0.0
  0
VERTEX
  5
255
100
AcDbEntity
  8
止水栓
  6
CONTINUOUS
 62
     6
100
AcDbVertex
100
AcDb2dVertex
 10
451.168966
 20
2157.273579
 30
0.0
  0
VERTEX
  5
256
100
AcDbEntity
  8
止水栓
  6
CONTINUOUS
 62
     6
100
AcDbVertex
100
AcDb2dVertex
 10
451.571798
 20
2156.978169
 30
0.0
  0
VERTEX
  5
257
100
AcDbEntity
  8
止水栓
  6
CONTINUOUS
 62
     6
100
AcDbVertex
100
AcDb2dVertex
 10
452.001486
 20
2156.716938
 30
0.0
  0
VERTEX
  5
258
100
AcDbEntity
  8
止水栓
  6
CONTINUOUS
 62
     6
100
AcDbVertex
100
AcDb2dVertex
 10
452.453146
 20
2156.492329
 30
0.0
  0
VERTEX
  5
259
100
AcDbEntity
  8
止水栓
  6
CONTINUOUS
 62
     6
100
AcDbVertex
100
AcDb2dVertex
 10
452.921896
 20
2156.306782
 30
0.0
  0
VERTEX
  5
25A
100
AcDbEntity
  8
止水栓
  6
CONTINUOUS
 62
     6
100
AcDbVertex
100
AcDb2dVertex
 10
453.407736
 20
2156.162739
 30
0.0
  0
VERTEX
  5
25B
100
AcDbEntity
  8
止水栓
  6
CONTINUOUS
 62
     6
100
AcDbVertex
100
AcDb2dVertex
 10
453.903341
 20
2156.057758
 30
0.0
  0
VERTEX
  5
25C
100
AcDbEntity
  8
止水栓
  6
CONTINUOUS
 62
     6
100
AcDbVertex
100
AcDb2dVertex
 10
454.408712
 20
2155.994282
 30
0.0
  0
VERTEX
  5
25D
100
AcDbEntity
  8
止水栓
  6
CONTINUOUS
 62
     6
100
AcDbVertex
100
AcDb2dVertex
 10
454.916525
 20
2155.972309
 30
0.0
  0
VERTEX
  5
25E
100
AcDbEntity
  8
止水栓
  6
CONTINUOUS
 62
     6
100
AcDbVertex
100
AcDb2dVertex
 10
455.424337
 20
2155.994282
 30
0.0
  0
VERTEX
  5
25F
100
AcDbEntity
  8
止水栓
  6
CONTINUOUS
 62
     6
100
AcDbVertex
100
AcDb2dVertex
 10
455.929708
 20
2156.057758
 30
0.0
  0
VERTEX
  5
260
100
AcDbEntity
  8
止水栓
  6
CONTINUOUS
 62
     6
100
AcDbVertex
100
AcDb2dVertex
 10
456.425314
 20
2156.162739
 30
0.0
  0
VERTEX
  5
261
100
AcDbEntity
  8
止水栓
  6
CONTINUOUS
 62
     6
100
AcDbVertex
100
AcDb2dVertex
 10
456.911153
 20
2156.306782
 30
0.0
  0
VERTEX
  5
262
100
AcDbEntity
  8
止水栓
  6
CONTINUOUS
 62
     6
100
AcDbVertex
100
AcDb2dVertex
 10
457.379903
 20
2156.492329
 30
0.0
  0
VERTEX
  5
263
100
AcDbEntity
  8
止水栓
  6
CONTINUOUS
 62
     6
100
AcDbVertex
100
AcDb2dVertex
 10
457.831564
 20
2156.716938
 30
0.0
  0
VERTEX
  5
264
100
AcDbEntity
  8
止水栓
  6
CONTINUOUS
 62
     6
100
AcDbVertex
100
AcDb2dVertex
 10
458.261251
 20
2156.978169
 30
0.0
  0
VERTEX
  5
265
100
AcDbEntity
  8
止水栓
  6
CONTINUOUS
 62
     6
100
AcDbVertex
100
AcDb2dVertex
 10
458.664083
 20
2157.273579
 30
0.0
  0
VERTEX
  5
266
100
AcDbEntity
  8
止水栓
  6
CONTINUOUS
 62
     6
100
AcDbVertex
100
AcDb2dVertex
 10
459.04006
 20
2157.600727
 30
0.0
  0
VERTEX
  5
267
100
AcDbEntity
  8
止水栓
  6
CONTINUOUS
 62
     6
100
AcDbVertex
100
AcDb2dVertex
 10
459.381857
 20
2157.959614
 30
0.0
  0
VERTEX
  5
268
100
AcDbEntity
  8
止水栓
  6
CONTINUOUS
 62
     6
100
AcDbVertex
100
AcDb2dVertex
 10
459.691915
 20
2158.342915
 30
0.0
  0
VERTEX
  5
269
100
AcDbEntity
  8
止水栓
  6
CONTINUOUS
 62
     6
100
AcDbVertex
100
AcDb2dVertex
 10
459.965353
 20
2158.753071
 30
0.0
  0
VERTEX
  5
26A
100
AcDbEntity
  8
止水栓
  6
CONTINUOUS
 62
     6
100
AcDbVertex
100
AcDb2dVertex
 10
460.202169
 20
2159.182758
 30
0.0
  0
VERTEX
  5
26B
100
AcDbEntity
  8
止水栓
  6
CONTINUOUS
 62
     6
100
AcDbVertex
100
AcDb2dVertex
 10
460.39504
 20
2159.631977
 30
0.0
  0
VERTEX
  5
26C
100
AcDbEntity
  8
止水栓
  6
CONTINUOUS
 62
     6
100
AcDbVertex
100
AcDb2dVertex
 10
460.548849
 20
2160.093403
 30
0.0
  0
VERTEX
  5
26D
100
AcDbEntity
  8
止水栓
  6
CONTINUOUS
 62
     6
100
AcDbVertex
100
AcDb2dVertex
 10
460.658712
 20
2160.567036
 30
0.0
  0
VERTEX
  5
26E
100
AcDbEntity
  8
止水栓
  6
CONTINUOUS
 62
     6
100
AcDbVertex
100
AcDb2dVertex
 10
460.72463
 20
2161.047993
 30
0.0
  0
VERTEX
  5
26F
100
AcDbEntity
  8
止水栓
  6
CONTINUOUS
 62
     6
100
AcDbVertex
100
AcDb2dVertex
 10
460.746603
 20
2161.531391
 30
0.0
  0
SEQEND
  5
270
100
AcDbEntity
  8
止水栓
  6
CONTINUOUS
 62
     6
  0
LINE
  5
271
100
AcDbEntity
  8
止水栓
  6
CONTINUOUS
 62
     6
100
AcDbLine
 10
465.389669
 20
2172.3102
 30
0.0
 11
444.389669
 21
2172.3102
 31
0.0
  0
LINE
  5
272
100
AcDbEntity
  8
止水栓
  6
CONTINUOUS
 62
     6
100
AcDbLine
 10
465.858907
 20
2155.310688
 30
0.0
 11
443.918905
 21
2155.310688
 31
0.0
  0
LINE
  5
273
100
AcDbEntity
  8
止水栓
  6
CONTINUOUS
 62
     6
100
AcDbLine
 10
465.858907
 20
2167.3102
 30
0.0
 11
443.920431
 21
2167.3102
 31
0.0
  0
LINE
  5
274
100
AcDbEntity
  8
止水栓
  6
CONTINUOUS
 62
     6
100
AcDbLine
 10
465.389669
 20
2167.3102
 30
0.0
 11
465.389669
 21
2172.3102
 31
0.0
  0
LINE
  5
275
100
AcDbEntity
  8
止水栓
  6
CONTINUOUS
 62
     6
100
AcDbLine
 10
461.639669
 20
2193.3102
 30
0.0
 11
461.639669
 21
2201.3102
 31
0.0
  0
LINE
  5
276
100
AcDbEntity
  8
止水栓
  6
CONTINUOUS
 62
     6
100
AcDbLine
 10
460.639669
 20
2174.3102
 30
0.0
 11
460.639669
 21
2177.3102
 31
0.0
  0
LINE
  5
277
100
AcDbEntity
  8
止水栓
  6
CONTINUOUS
 62
     6
100
AcDbLine
 10
458.889669
 20
2172.3102
 30
0.0
 11
458.889669
 21
2174.3102
 31
0.0
  0
ARC
  5
278
100
AcDbEntity
  8
止水栓
  6
CONTINUOUS
 62
     6
100
AcDbCircle
 10
459.639669
 20
2187.8102
 30
0.0
 40
2.5
100
AcDbArc
 50
0.0
 51
90.0
  0
ARC
  5
279
100
AcDbEntity
  8
止水栓
  6
CONTINUOUS
 62
     6
100
AcDbCircle
 10
459.639669
 20
2187.8102
 30
0.0
 40
2.5
100
AcDbArc
 50
270.0
 51
0.0
  0
ARC
  5
27A
100
AcDbEntity
  8
止水栓
  6
CONTINUOUS
 62
     6
100
AcDbCircle
 10
459.639669
 20
2179.8102
 30
0.0
 40
2.5
100
AcDbArc
 50
0.0
 51
90.0
  0
LINE
  5
27B
100
AcDbEntity
  8
止水栓
  6
CONTINUOUS
 62
     6
100
AcDbLine
 10
460.639669
 20
2182.3102
 30
0.0
 11
460.639669
 21
2185.3102
 31
0.0
  0
LINE
  5
27C
100
AcDbEntity
  8
止水栓
  6
CONTINUOUS
 62
     6
100
AcDbLine
 10
460.639669
 20
2190.3102
 30
0.0
 11
460.639669
 21
2193.3102
 31
0.0
  0
ARC
  5
27D
100
AcDbEntity
  8
止水栓
  6
CONTINUOUS
 62
     6
100
AcDbCircle
 10
459.639669
 20
2179.8102
 30
0.0
 40
2.5
100
AcDbArc
 50
270.0
 51
0.0
  0
POLYLINE
  5
27E
100
AcDbEntity
  8
止水栓
  6
CONTINUOUS
 62
     6
100
AcDb2dPolyline
 66
     1
 10
0.0
 20
0.0
 30
0.0
 70
   128
  0
VERTEX
  5
27F
100
AcDbEntity
  8
止水栓
  6
CONTINUOUS
 62
     6
100
AcDbVertex
100
AcDb2dVertex
 10
467.301778
 20
2160.269184
 30
0.0
  0
VERTEX
  5
280
100
AcDbEntity
  8
止水栓
  6
CONTINUOUS
 62
     6
100
AcDbVertex
100
AcDb2dVertex
 10
467.348165
 20
2160.693989
 30
0.0
  0
VERTEX
  5
281
100
AcDbEntity
  8
止水栓
  6
CONTINUOUS
 62
     6
100
AcDbVertex
100
AcDb2dVertex
 10
467.375021
 20
2161.126118
 30
0.0
  0
VERTEX
  5
282
100
AcDbEntity
  8
止水栓
  6
CONTINUOUS
 62
     6
100
AcDbVertex
100
AcDb2dVertex
 10
467.384786
 20
2161.560688
 30
0.0
  0
SEQEND
  5
283
100
AcDbEntity
  8
止水栓
  6
CONTINUOUS
 62
     6
  0
POLYLINE
  5
284
100
AcDbEntity
  8
止水栓
  6
CONTINUOUS
 62
     6
100
AcDb2dPolyline
 66
     1
 10
0.0
 20
0.0
 30
0.0
 70
   128
  0
VERTEX
  5
285
100
AcDbEntity
  8
止水栓
  6
CONTINUOUS
 62
     6
100
AcDbVertex
100
AcDb2dVertex
 10
465.971212
 20
2157.039204
 30
0.0
  0
VERTEX
  5
286
100
AcDbEntity
  8
止水栓
  6
CONTINUOUS
 62
     6
100
AcDbVertex
100
AcDb2dVertex
 10
466.1592
 20
2157.239399
 30
0.0
  0
VERTEX
  5
287
100
AcDbEntity
  8
止水栓
  6
CONTINUOUS
 62
     6
100
AcDbVertex
100
AcDb2dVertex
 10
466.339864
 20
2157.473774
 30
0.0
  0
VERTEX
  5
288
100
AcDbEntity
  8
止水栓
  6
CONTINUOUS
 62
     6
100
AcDbVertex
100
AcDb2dVertex
 10
466.510763
 20
2157.737446
 30
0.0
  0
VERTEX
  5
289
100
AcDbEntity
  8
止水栓
  6
CONTINUOUS
 62
     6
100
AcDbVertex
100
AcDb2dVertex
 10
466.667013
 20
2158.032856
 30
0.0
  0
VERTEX
  5
28A
100
AcDbEntity
  8
止水栓
  6
CONTINUOUS
 62
     6
100
AcDbVertex
100
AcDb2dVertex
 10
466.811056
 20
2158.35268
 30
0.0
  0
VERTEX
  5
28B
100
AcDbEntity
  8
止水栓
  6
CONTINUOUS
 62
     6
100
AcDbVertex
100
AcDb2dVertex
 10
466.942892
 20
2158.69936
 30
0.0
  0
VERTEX
  5
28C
100
AcDbEntity
  8
止水栓
  6
CONTINUOUS
 62
     6
100
AcDbVertex
100
AcDb2dVertex
 10
467.057638
 20
2159.065571
 30
0.0
  0
VERTEX
  5
28D
100
AcDbEntity
  8
止水栓
  6
CONTINUOUS
 62
     6
100
AcDbVertex
100
AcDb2dVertex
 10
467.155294
 20
2159.451313
 30
0.0
  0
VERTEX
  5
28E
100
AcDbEntity
  8
止水栓
  6
CONTINUOUS
 62
     6
100
AcDbVertex
100
AcDb2dVertex
 10
467.235861
 20
2159.854145
 30
0.0
  0
VERTEX
  5
28F
100
AcDbEntity
  8
止水栓
  6
CONTINUOUS
 62
     6
100
AcDbVertex
100
AcDb2dVertex
 10
467.301778
 20
2160.269184
 30
0.0
  0
SEQEND
  5
290
100
AcDbEntity
  8
止水栓
  6
CONTINUOUS
 62
     6
  0
ARC
  5
291
100
AcDbEntity
  8
止水栓
  6
CONTINUOUS
 62
     6
100
AcDbCircle
 10
456.640157
 20
2161.309223
 30
0.0
 40
10.998535
100
AcDbArc
 50
326.94841
 51
33.059082
  0
POLYLINE
  5
292
100
AcDbEntity
  8
止水栓
  6
CONTINUOUS
 62
     6
100
AcDb2dPolyline
 66
     1
 10
0.0
 20
0.0
 30
0.0
 70
   128
  0
VERTEX
  5
293
100
AcDbEntity
  8
止水栓
  6
CONTINUOUS
 62
     6
100
AcDbVertex
100
AcDb2dVertex
 10
467.384786
 20
2161.560688
 30
0.0
  0
VERTEX
  5
294
100
AcDbEntity
  8
止水栓
  6
CONTINUOUS
 62
     6
100
AcDbVertex
100
AcDb2dVertex
 10
467.375021
 20
2161.9977
 30
0.0
  0
VERTEX
  5
295
100
AcDbEntity
  8
止水栓
  6
CONTINUOUS
 62
     6
100
AcDbVertex
100
AcDb2dVertex
 10
467.348165
 20
2162.429829
 30
0.0
  0
VERTEX
  5
296
100
AcDbEntity
  8
止水栓
  6
CONTINUOUS
 62
     6
100
AcDbVertex
100
AcDb2dVertex
 10
467.301778
 20
2162.854633
 30
0.0
  0
VERTEX
  5
297
100
AcDbEntity
  8
止水栓
  6
CONTINUOUS
 62
     6
100
AcDbVertex
100
AcDb2dVertex
 10
467.235861
 20
2163.269672
 30
0.0
  0
VERTEX
  5
298
100
AcDbEntity
  8
止水栓
  6
CONTINUOUS
 62
     6
100
AcDbVertex
100
AcDb2dVertex
 10
467.155294
 20
2163.670063
 30
0.0
  0
VERTEX
  5
299
100
AcDbEntity
  8
止水栓
  6
CONTINUOUS
 62
     6
100
AcDbVertex
100
AcDb2dVertex
 10
467.057638
 20
2164.055805
 30
0.0
  0
VERTEX
  5
29A
100
AcDbEntity
  8
止水栓
  6
CONTINUOUS
 62
     6
100
AcDbVertex
100
AcDb2dVertex
 10
466.94045
 20
2164.424458
 30
0.0
  0
VERTEX
  5
29B
100
AcDbEntity
  8
止水栓
  6
CONTINUOUS
 62
     6
100
AcDbVertex
100
AcDb2dVertex
 10
466.811056
 20
2164.768696
 30
0.0
  0
VERTEX
  5
29C
100
AcDbEntity
  8
止水栓
  6
CONTINUOUS
 62
     6
100
AcDbVertex
100
AcDb2dVertex
 10
466.667013
 20
2165.090962
 30
0.0
  0
VERTEX
  5
29D
100
AcDbEntity
  8
止水栓
  6
CONTINUOUS
 62
     6
100
AcDbVertex
100
AcDb2dVertex
 10
466.508321
 20
2165.38393
 30
0.0
  0
VERTEX
  5
29E
100
AcDbEntity
  8
止水栓
  6
CONTINUOUS
 62
     6
100
AcDbVertex
100
AcDb2dVertex
 10
466.339864
 20
2165.650044
 30
0.0
  0
VERTEX
  5
29F
100
AcDbEntity
  8
止水栓
  6
CONTINUOUS
 62
     6
100
AcDbVertex
100
AcDb2dVertex
 10
466.1592
 20
2165.881977
 30
0.0
  0
VERTEX
  5
2A0
100
AcDbEntity
  8
止水栓
  6
CONTINUOUS
 62
     6
100
AcDbVertex
100
AcDb2dVertex
 10
465.971212
 20
2166.084614
 30
0.0
  0
VERTEX
  5
2A1
100
AcDbEntity
  8
止水栓
  6
CONTINUOUS
 62
     6
100
AcDbVertex
100
AcDb2dVertex
 10
465.773458
 20
2166.25063
 30
0.0
  0
VERTEX
  5
2A2
100
AcDbEntity
  8
止水栓
  6
CONTINUOUS
 62
     6
100
AcDbVertex
100
AcDb2dVertex
 10
465.56838
 20
2166.382465
 30
0.0
  0
VERTEX
  5
2A3
100
AcDbEntity
  8
止水栓
  6
CONTINUOUS
 62
     6
100
AcDbVertex
100
AcDb2dVertex
 10
465.360861
 20
2166.475239
 30
0.0
  0
VERTEX
  5
2A4
100
AcDbEntity
  8
止水栓
  6
CONTINUOUS
 62
     6
100
AcDbVertex
100
AcDb2dVertex
 10
465.148458
 20
2166.533833
 30
0.0
  0
VERTEX
  5
2A5
100
AcDbEntity
  8
止水栓
  6
CONTINUOUS
 62
     6
100
AcDbVertex
100
AcDb2dVertex
 10
464.936056
 20
2166.550922
 30
0.0
  0
VERTEX
  5
2A6
100
AcDbEntity
  8
止水栓
  6
CONTINUOUS
 62
     6
100
AcDbVertex
100
AcDb2dVertex
 10
464.721212
 20
2166.531391
 30
0.0
  0
VERTEX
  5
2A7
100
AcDbEntity
  8
止水栓
  6
CONTINUOUS
 62
     6
100
AcDbVertex
100
AcDb2dVertex
 10
464.50881
 20
2166.475239
 30
0.0
  0
VERTEX
  5
2A8
100
AcDbEntity
  8
止水栓
  6
CONTINUOUS
 62
     6
100
AcDbVertex
100
AcDb2dVertex
 10
464.30129
 20
2166.382465
 30
0.0
  0
VERTEX
  5
2A9
100
AcDbEntity
  8
止水栓
  6
CONTINUOUS
 62
     6
100
AcDbVertex
100
AcDb2dVertex
 10
464.096212
 20
2166.25063
 30
0.0
  0
VERTEX
  5
2AA
100
AcDbEntity
  8
止水栓
  6
CONTINUOUS
 62
     6
100
AcDbVertex
100
AcDb2dVertex
 10
463.898458
 20
2166.084614
 30
0.0
  0
VERTEX
  5
2AB
100
AcDbEntity
  8
止水栓
  6
CONTINUOUS
 62
     6
100
AcDbVertex
100
AcDb2dVertex
 10
463.71047
 20
2165.881977
 30
0.0
  0
VERTEX
  5
2AC
100
AcDbEntity
  8
止水栓
  6
CONTINUOUS
 62
     6
100
AcDbVertex
100
AcDb2dVertex
 10
463.529806
 20
2165.647602
 30
0.0
  0
VERTEX
  5
2AD
100
AcDbEntity
  8
止水栓
  6
CONTINUOUS
 62
     6
100
AcDbVertex
100
AcDb2dVertex
 10
463.361349
 20
2165.38393
 30
0.0
  0
VERTEX
  5
2AE
100
AcDbEntity
  8
止水栓
  6
CONTINUOUS
 62
     6
100
AcDbVertex
100
AcDb2dVertex
 10
463.202657
 20
2165.090962
 30
0.0
  0
VERTEX
  5
2AF
100
AcDbEntity
  8
止水栓
  6
CONTINUOUS
 62
     6
100
AcDbVertex
100
AcDb2dVertex
 10
463.058614
 20
2164.768696
 30
0.0
  0
VERTEX
  5
2B0
100
AcDbEntity
  8
止水栓
  6
CONTINUOUS
 62
     6
100
AcDbVertex
100
AcDb2dVertex
 10
462.92922
 20
2164.424458
 30
0.0
  0
VERTEX
  5
2B1
100
AcDbEntity
  8
止水栓
  6
CONTINUOUS
 62
     6
100
AcDbVertex
100
AcDb2dVertex
 10
462.814474
 20
2164.055805
 30
0.0
  0
VERTEX
  5
2B2
100
AcDbEntity
  8
止水栓
  6
CONTINUOUS
 62
     6
100
AcDbVertex
100
AcDb2dVertex
 10
462.714376
 20
2163.670063
 30
0.0
  0
VERTEX
  5
2B3
100
AcDbEntity
  8
止水栓
  6
CONTINUOUS
 62
     6
100
AcDbVertex
100
AcDb2dVertex
 10
462.63381
 20
2163.267231
 30
0.0
  0
VERTEX
  5
2B4
100
AcDbEntity
  8
止水栓
  6
CONTINUOUS
 62
     6
100
AcDbVertex
100
AcDb2dVertex
 10
462.567892
 20
2162.852192
 30
0.0
  0
VERTEX
  5
2B5
100
AcDbEntity
  8
止水栓
  6
CONTINUOUS
 62
     6
100
AcDbVertex
100
AcDb2dVertex
 10
462.521505
 20
2162.427387
 30
0.0
  0
VERTEX
  5
2B6
100
AcDbEntity
  8
止水栓
  6
CONTINUOUS
 62
     6
100
AcDbVertex
100
AcDb2dVertex
 10
462.49465
 20
2161.995258
 30
0.0
  0
VERTEX
  5
2B7
100
AcDbEntity
  8
止水栓
  6
CONTINUOUS
 62
     6
100
AcDbVertex
100
AcDb2dVertex
 10
462.484884
 20
2161.560688
 30
0.0
  0
VERTEX
  5
2B8
100
AcDbEntity
  8
止水栓
  6
CONTINUOUS
 62
     6
100
AcDbVertex
100
AcDb2dVertex
 10
462.49465
 20
2161.126118
 30
0.0
  0
VERTEX
  5
2B9
100
AcDbEntity
  8
止水栓
  6
CONTINUOUS
 62
     6
100
AcDbVertex
100
AcDb2dVertex
 10
462.523946
 20
2160.693989
 30
0.0
  0
VERTEX
  5
2BA
100
AcDbEntity
  8
止水栓
  6
CONTINUOUS
 62
     6
100
AcDbVertex
100
AcDb2dVertex
 10
462.570333
 20
2160.269184
 30
0.0
  0
VERTEX
  5
2BB
100
AcDbEntity
  8
止水栓
  6
CONTINUOUS
 62
     6
100
AcDbVertex
100
AcDb2dVertex
 10
462.63381
 20
2159.854145
 30
0.0
  0
VERTEX
  5
2BC
100
AcDbEntity
  8
止水栓
  6
CONTINUOUS
 62
     6
100
AcDbVertex
100
AcDb2dVertex
 10
462.714376
 20
2159.451313
 30
0.0
  0
VERTEX
  5
2BD
100
AcDbEntity
  8
止水栓
  6
CONTINUOUS
 62
     6
100
AcDbVertex
100
AcDb2dVertex
 10
462.814474
 20
2159.065571
 30
0.0
  0
VERTEX
  5
2BE
100
AcDbEntity
  8
止水栓
  6
CONTINUOUS
 62
     6
100
AcDbVertex
100
AcDb2dVertex
 10
462.92922
 20
2158.69936
 30
0.0
  0
VERTEX
  5
2BF
100
AcDbEntity
  8
止水栓
  6
CONTINUOUS
 62
     6
100
AcDbVertex
100
AcDb2dVertex
 10
463.058614
 20
2158.35268
 30
0.0
  0
VERTEX
  5
2C0
100
AcDbEntity
  8
止水栓
  6
CONTINUOUS
 62
     6
100
AcDbVertex
100
AcDb2dVertex
 10
463.202657
 20
2158.032856
 30
0.0
  0
VERTEX
  5
2C1
100
AcDbEntity
  8
止水栓
  6
CONTINUOUS
 62
     6
100
AcDbVertex
100
AcDb2dVertex
 10
463.361349
 20
2157.737446
 30
0.0
  0
VERTEX
  5
2C2
100
AcDbEntity
  8
止水栓
  6
CONTINUOUS
 62
     6
100
AcDbVertex
100
AcDb2dVertex
 10
463.529806
 20
2157.473774
 30
0.0
  0
VERTEX
  5
2C3
100
AcDbEntity
  8
止水栓
  6
CONTINUOUS
 62
     6
100
AcDbVertex
100
AcDb2dVertex
 10
463.71047
 20
2157.239399
 30
0.0
  0
VERTEX
  5
2C4
100
AcDbEntity
  8
止水栓
  6
CONTINUOUS
 62
     6
100
AcDbVertex
100
AcDb2dVertex
 10
463.898458
 20
2157.039204
 30
0.0
  0
VERTEX
  5
2C5
100
AcDbEntity
  8
止水栓
  6
CONTINUOUS
 62
     6
100
AcDbVertex
100
AcDb2dVertex
 10
464.096212
 20
2156.870747
 30
0.0
  0
VERTEX
  5
2C6
100
AcDbEntity
  8
止水栓
  6
CONTINUOUS
 62
     6
100
AcDbVertex
100
AcDb2dVertex
 10
464.30129
 20
2156.741352
 30
0.0
  0
VERTEX
  5
2C7
100
AcDbEntity
  8
止水栓
  6
CONTINUOUS
 62
     6
100
AcDbVertex
100
AcDb2dVertex
 10
464.50881
 20
2156.646137
 30
0.0
  0
VERTEX
  5
2C8
100
AcDbEntity
  8
止水栓
  6
CONTINUOUS
 62
     6
100
AcDbVertex
100
AcDb2dVertex
 10
464.721212
 20
2156.589985
 30
0.0
  0
VERTEX
  5
2C9
100
AcDbEntity
  8
止水栓
  6
CONTINUOUS
 62
     6
100
AcDbVertex
100
AcDb2dVertex
 10
464.936056
 20
2156.570454
 30
0.0
  0
VERTEX
  5
2CA
100
AcDbEntity
  8
止水栓
  6
CONTINUOUS
 62
     6
100
AcDbVertex
100
AcDb2dVertex
 10
465.148458
 20
2156.589985
 30
0.0
  0
VERTEX
  5
2CB
100
AcDbEntity
  8
止水栓
  6
CONTINUOUS
 62
     6
100
AcDbVertex
100
AcDb2dVertex
 10
465.360861
 20
2156.646137
 30
0.0
  0
VERTEX
  5
2CC
100
AcDbEntity
  8
止水栓
  6
CONTINUOUS
 62
     6
100
AcDbVertex
100
AcDb2dVertex
 10
465.56838
 20
2156.741352
 30
0.0
  0
VERTEX
  5
2CD
100
AcDbEntity
  8
止水栓
  6
CONTINUOUS
 62
     6
100
AcDbVertex
100
AcDb2dVertex
 10
465.773458
 20
2156.870747
 30
0.0
  0
VERTEX
  5
2CE
100
AcDbEntity
  8
止水栓
  6
CONTINUOUS
 62
     6
100
AcDbVertex
100
AcDb2dVertex
 10
465.971212
 20
2157.039204
 30
0.0
  0
SEQEND
  5
2CF
100
AcDbEntity
  8
止水栓
  6
CONTINUOUS
 62
     6
  0
LINE
  5
2D0
100
AcDbEntity
  8
止水栓
  6
CONTINUOUS
 62
     6
100
AcDbLine
 10
444.389669
 20
2167.3102
 30
0.0
 11
444.389669
 21
2172.3102
 31
0.0
  0
LINE
  5
2D1
100
AcDbEntity
  8
止水栓
  6
CONTINUOUS
 62
     6
100
AcDbLine
 10
448.139669
 20
2193.3102
 30
0.0
 11
448.139669
 21
2201.3102
 31
0.0
  0
LINE
  5
2D2
100
AcDbEntity
  8
止水栓
  6
CONTINUOUS
 62
     6
100
AcDbLine
 10
449.139669
 20
2174.3102
 30
0.0
 11
449.139669
 21
2177.3102
 31
0.0
  0
LINE
  5
2D3
100
AcDbEntity
  8
止水栓
  6
CONTINUOUS
 62
     6
100
AcDbLine
 10
450.889669
 20
2172.3102
 30
0.0
 11
450.889669
 21
2174.3102
 31
0.0
  0
LINE
  5
2D4
100
AcDbEntity
  8
止水栓
  6
CONTINUOUS
 62
     6
100
AcDbLine
 10
449.139669
 20
2182.3102
 30
0.0
 11
449.139669
 21
2185.3102
 31
0.0
  0
ARC
  5
2D5
100
AcDbEntity
  8
止水栓
  6
CONTINUOUS
 62
     6
100
AcDbCircle
 10
450.139669
 20
2187.8102
 30
0.0
 40
2.5
100
AcDbArc
 50
90.0
 51
180.0
  0
ARC
  5
2D6
100
AcDbEntity
  8
止水栓
  6
CONTINUOUS
 62
     6
100
AcDbCircle
 10
450.139669
 20
2187.8102
 30
0.0
 40
2.5
100
AcDbArc
 50
180.0
 51
270.0
  0
LINE
  5
2D7
100
AcDbEntity
  8
止水栓
  6
CONTINUOUS
 62
     6
100
AcDbLine
 10
449.139669
 20
2190.3102
 30
0.0
 11
449.139669
 21
2193.3102
 31
0.0
  0
ARC
  5
2D8
100
AcDbEntity
  8
止水栓
  6
CONTINUOUS
 62
     6
100
AcDbCircle
 10
450.139669
 20
2179.8102
 30
0.0
 40
2.5
100
AcDbArc
 50
90.0
 51
180.0
  0
ARC
  5
2D9
100
AcDbEntity
  8
止水栓
  6
CONTINUOUS
 62
     6
100
AcDbCircle
 10
450.139669
 20
2179.8102
 30
0.0
 40
2.5
100
AcDbArc
 50
180.0
 51
270.0
  0
POLYLINE
  5
2DA
100
AcDbEntity
  8
止水栓
  6
CONTINUOUS
 62
     6
100
AcDb2dPolyline
 66
     1
 10
0.0
 20
0.0
 30
0.0
 70
   128
  0
VERTEX
  5
2DB
100
AcDbEntity
  8
止水栓
  6
CONTINUOUS
 62
     6
100
AcDbVertex
100
AcDb2dVertex
 10
447.28713
 20
2161.568012
 30
0.0
  0
VERTEX
  5
2DC
100
AcDbEntity
  8
止水栓
  6
CONTINUOUS
 62
     6
100
AcDbVertex
100
AcDb2dVertex
 10
447.277364
 20
2161.970844
 30
0.0
  0
VERTEX
  5
2DD
100
AcDbEntity
  8
止水栓
  6
CONTINUOUS
 62
     6
100
AcDbVertex
100
AcDb2dVertex
 10
447.248068
 20
2162.371235
 30
0.0
  0
VERTEX
  5
2DE
100
AcDbEntity
  8
止水栓
  6
CONTINUOUS
 62
     6
100
AcDbVertex
100
AcDb2dVertex
 10
447.201681
 20
2162.766743
 30
0.0
  0
VERTEX
  5
2DF
100
AcDbEntity
  8
止水栓
  6
CONTINUOUS
 62
     6
100
AcDbVertex
100
AcDb2dVertex
 10
447.138204
 20
2163.150044
 30
0.0
  0
VERTEX
  5
2E0
100
AcDbEntity
  8
止水栓
  6
CONTINUOUS
 62
     6
100
AcDbVertex
100
AcDb2dVertex
 10
447.057638
 20
2163.523579
 30
0.0
  0
VERTEX
  5
2E1
100
AcDbEntity
  8
止水栓
  6
CONTINUOUS
 62
     6
100
AcDbVertex
100
AcDb2dVertex
 10
446.95754
 20
2163.882465
 30
0.0
  0
VERTEX
  5
2E2
100
AcDbEntity
  8
止水栓
  6
CONTINUOUS
 62
     6
100
AcDbVertex
100
AcDb2dVertex
 10
446.842794
 20
2164.221821
 30
0.0
  0
VERTEX
  5
2E3
100
AcDbEntity
  8
止水栓
  6
CONTINUOUS
 62
     6
100
AcDbVertex
100
AcDb2dVertex
 10
446.7134
 20
2164.544087
 30
0.0
  0
VERTEX
  5
2E4
100
AcDbEntity
  8
止水栓
  6
CONTINUOUS
 62
     6
100
AcDbVertex
100
AcDb2dVertex
 10
446.569357
 20
2164.841938
 30
0.0
  0
VERTEX
  5
2E5
100
AcDbEntity
  8
止水栓
  6
CONTINUOUS
 62
     6
100
AcDbVertex
100
AcDb2dVertex
 10
446.410665
 20
2165.112934
 30
0.0
  0
VERTEX
  5
2E6
100
AcDbEntity
  8
止水栓
  6
CONTINUOUS
 62
     6
100
AcDbVertex
100
AcDb2dVertex
 10
446.242208
 20
2165.359516
 30
0.0
  0
VERTEX
  5
2E7
100
AcDbEntity
  8
止水栓
  6
CONTINUOUS
 62
     6
100
AcDbVertex
100
AcDb2dVertex
 10
446.061544
 20
2165.576801
 30
0.0
  0
VERTEX
  5
2E8
100
AcDbEntity
  8
止水栓
  6
CONTINUOUS
 62
     6
100
AcDbVertex
100
AcDb2dVertex
 10
445.871114
 20
2165.76479
 30
0.0
  0
VERTEX
  5
2E9
100
AcDbEntity
  8
止水栓
  6
CONTINUOUS
 62
     6
100
AcDbVertex
100
AcDb2dVertex
 10
445.673361
 20
2165.918598
 30
0.0
  0
VERTEX
  5
2EA
100
AcDbEntity
  8
止水栓
  6
CONTINUOUS
 62
     6
100
AcDbVertex
100
AcDb2dVertex
 10
445.470724
 20
2166.038227
 30
0.0
  0
VERTEX
  5
2EB
100
AcDbEntity
  8
止水栓
  6
CONTINUOUS
 62
     6
100
AcDbVertex
100
AcDb2dVertex
 10
445.260763
 20
2166.126118
 30
0.0
  0
VERTEX
  5
2EC
100
AcDbEntity
  8
止水栓
  6
CONTINUOUS
 62
     6
100
AcDbVertex
100
AcDb2dVertex
 10
445.050802
 20
2166.179829
 30
0.0
  0
VERTEX
  5
2ED
100
AcDbEntity
  8
止水栓
  6
CONTINUOUS
 62
     6
100
AcDbVertex
100
AcDb2dVertex
 10
444.835958
 20
2166.196919
 30
0.0
  0
VERTEX
  5
2EE
100
AcDbEntity
  8
止水栓
  6
CONTINUOUS
 62
     6
100
AcDbVertex
100
AcDb2dVertex
 10
444.623556
 20
2166.179829
 30
0.0
  0
VERTEX
  5
2EF
100
AcDbEntity
  8
止水栓
  6
CONTINUOUS
 62
     6
100
AcDbVertex
100
AcDb2dVertex
 10
444.411153
 20
2166.126118
 30
0.0
  0
VERTEX
  5
2F0
100
AcDbEntity
  8
止水栓
  6
CONTINUOUS
 62
     6
100
AcDbVertex
100
AcDb2dVertex
 10
444.201193
 20
2166.038227
 30
0.0
  0
VERTEX
  5
2F1
100
AcDbEntity
  8
止水栓
  6
CONTINUOUS
 62
     6
100
AcDbVertex
100
AcDb2dVertex
 10
443.998556
 20
2165.918598
 30
0.0
  0
VERTEX
  5
2F2
100
AcDbEntity
  8
止水栓
  6
CONTINUOUS
 62
     6
100
AcDbVertex
100
AcDb2dVertex
 10
443.800802
 20
2165.762348
 30
0.0
  0
VERTEX
  5
2F3
100
AcDbEntity
  8
止水栓
  6
CONTINUOUS
 62
     6
100
AcDbVertex
100
AcDb2dVertex
 10
443.612814
 20
2165.576801
 30
0.0
  0
VERTEX
  5
2F4
100
AcDbEntity
  8
止水栓
  6
CONTINUOUS
 62
     6
100
AcDbVertex
100
AcDb2dVertex
 10
443.43215
 20
2165.359516
 30
0.0
  0
VERTEX
  5
2F5
100
AcDbEntity
  8
止水栓
  6
CONTINUOUS
 62
     6
100
AcDbVertex
100
AcDb2dVertex
 10
443.261251
 20
2165.115376
 30
0.0
  0
VERTEX
  5
2F6
100
AcDbEntity
  8
止水栓
  6
CONTINUOUS
 62
     6
100
AcDbVertex
100
AcDb2dVertex
 10
443.105001
 20
2164.841938
 30
0.0
  0
VERTEX
  5
2F7
100
AcDbEntity
  8
止水栓
  6
CONTINUOUS
 62
     6
100
AcDbVertex
100
AcDb2dVertex
 10
442.960958
 20
2164.544087
 30
0.0
  0
VERTEX
  5
2F8
100
AcDbEntity
  8
止水栓
  6
CONTINUOUS
 62
     6
100
AcDbVertex
100
AcDb2dVertex
 10
442.829122
 20
2164.221821
 30
0.0
  0
VERTEX
  5
2F9
100
AcDbEntity
  8
止水栓
  6
CONTINUOUS
 62
     6
100
AcDbVertex
100
AcDb2dVertex
 10
442.714376
 20
2163.882465
 30
0.0
  0
VERTEX
  5
2FA
100
AcDbEntity
  8
止水栓
  6
CONTINUOUS
 62
     6
100
AcDbVertex
100
AcDb2dVertex
 10
442.61672
 20
2163.523579
 30
0.0
  0
VERTEX
  5
2FB
100
AcDbEntity
  8
止水栓
  6
CONTINUOUS
 62
     6
100
AcDbVertex
100
AcDb2dVertex
 10
442.536153
 20
2163.152485
 30
0.0
  0
VERTEX
  5
2FC
100
AcDbEntity
  8
止水栓
  6
CONTINUOUS
 62
     6
100
AcDbVertex
100
AcDb2dVertex
 10
442.470236
 20
2162.766743
 30
0.0
  0
VERTEX
  5
2FD
100
AcDbEntity
  8
止水栓
  6
CONTINUOUS
 62
     6
100
AcDbVertex
100
AcDb2dVertex
 10
442.423849
 20
2162.371235
 30
0.0
  0
VERTEX
  5
2FE
100
AcDbEntity
  8
止水栓
  6
CONTINUOUS
 62
     6
100
AcDbVertex
100
AcDb2dVertex
 10
442.396993
 20
2161.970844
 30
0.0
  0
VERTEX
  5
2FF
100
AcDbEntity
  8
止水栓
  6
CONTINUOUS
 62
     6
100
AcDbVertex
100
AcDb2dVertex
 10
442.387228
 20
2161.568012
 30
0.0
  0
VERTEX
  5
300
100
AcDbEntity
  8
止水栓
  6
CONTINUOUS
 62
     6
100
AcDbVertex
100
AcDb2dVertex
 10
442.396993
 20
2161.16518
 30
0.0
  0
VERTEX
  5
301
100
AcDbEntity
  8
止水栓
  6
CONTINUOUS
 62
     6
100
AcDbVertex
100
AcDb2dVertex
 10
442.423849
 20
2160.76479
 30
0.0
  0
VERTEX
  5
302
100
AcDbEntity
  8
止水栓
  6
CONTINUOUS
 62
     6
100
AcDbVertex
100
AcDb2dVertex
 10
442.470236
 20
2160.369282
 30
0.0
  0
VERTEX
  5
303
100
AcDbEntity
  8
止水栓
  6
CONTINUOUS
 62
     6
100
AcDbVertex
100
AcDb2dVertex
 10
442.533712
 20
2159.98354
 30
0.0
  0
VERTEX
  5
304
100
AcDbEntity
  8
止水栓
  6
CONTINUOUS
 62
     6
100
AcDbVertex
100
AcDb2dVertex
 10
442.61672
 20
2159.610005
 30
0.0
  0
VERTEX
  5
305
100
AcDbEntity
  8
止水栓
  6
CONTINUOUS
 62
     6
100
AcDbVertex
100
AcDb2dVertex
 10
442.714376
 20
2159.251118
 30
0.0
  0
VERTEX
  5
306
100
AcDbEntity
  8
止水栓
  6
CONTINUOUS
 62
     6
100
AcDbVertex
100
AcDb2dVertex
 10
442.829122
 20
2158.911762
 30
0.0
  0
VERTEX
  5
307
100
AcDbEntity
  8
止水栓
  6
CONTINUOUS
 62
     6
100
AcDbVertex
100
AcDb2dVertex
 10
442.960958
 20
2158.589497
 30
0.0
  0
VERTEX
  5
308
100
AcDbEntity
  8
止水栓
  6
CONTINUOUS
 62
     6
100
AcDbVertex
100
AcDb2dVertex
 10
443.105001
 20
2158.294087
 30
0.0
  0
VERTEX
  5
309
100
AcDbEntity
  8
止水栓
  6
CONTINUOUS
 62
     6
100
AcDbVertex
100
AcDb2dVertex
 10
443.261251
 20
2158.020649
 30
0.0
  0
VERTEX
  5
30A
100
AcDbEntity
  8
止水栓
  6
CONTINUOUS
 62
     6
100
AcDbVertex
100
AcDb2dVertex
 10
443.43215
 20
2157.774067
 30
0.0
  0
VERTEX
  5
30B
100
AcDbEntity
  8
止水栓
  6
CONTINUOUS
 62
     6
100
AcDbVertex
100
AcDb2dVertex
 10
443.610372
 20
2157.556782
 30
0.0
  0
VERTEX
  5
30C
100
AcDbEntity
  8
止水栓
  6
CONTINUOUS
 62
     6
100
AcDbVertex
100
AcDb2dVertex
 10
443.800802
 20
2157.371235
 30
0.0
  0
VERTEX
  5
30D
100
AcDbEntity
  8
止水栓
  6
CONTINUOUS
 62
     6
100
AcDbVertex
100
AcDb2dVertex
 10
443.998556
 20
2157.217426
 30
0.0
  0
VERTEX
  5
30E
100
AcDbEntity
  8
止水栓
  6
CONTINUOUS
 62
     6
100
AcDbVertex
100
AcDb2dVertex
 10
444.201193
 20
2157.095356
 30
0.0
  0
VERTEX
  5
30F
100
AcDbEntity
  8
止水栓
  6
CONTINUOUS
 62
     6
100
AcDbVertex
100
AcDb2dVertex
 10
444.411153
 20
2157.007465
 30
0.0
  0
VERTEX
  5
310
100
AcDbEntity
  8
止水栓
  6
CONTINUOUS
 62
     6
100
AcDbVertex
100
AcDb2dVertex
 10
444.623556
 20
2156.953755
 30
0.0
  0
VERTEX
  5
311
100
AcDbEntity
  8
止水栓
  6
CONTINUOUS
 62
     6
100
AcDbVertex
100
AcDb2dVertex
 10
444.835958
 20
2156.936665
 30
0.0
  0
VERTEX
  5
312
100
AcDbEntity
  8
止水栓
  6
CONTINUOUS
 62
     6
100
AcDbVertex
100
AcDb2dVertex
 10
445.050802
 20
2156.956196
 30
0.0
  0
VERTEX
  5
313
100
AcDbEntity
  8
止水栓
  6
CONTINUOUS
 62
     6
100
AcDbVertex
100
AcDb2dVertex
 10
445.260763
 20
2157.007465
 30
0.0
  0
VERTEX
  5
314
100
AcDbEntity
  8
止水栓
  6
CONTINUOUS
 62
     6
100
AcDbVertex
100
AcDb2dVertex
 10
445.470724
 20
2157.095356
 30
0.0
  0
VERTEX
  5
315
100
AcDbEntity
  8
止水栓
  6
CONTINUOUS
 62
     6
100
AcDbVertex
100
AcDb2dVertex
 10
445.673361
 20
2157.217426
 30
0.0
  0
VERTEX
  5
316
100
AcDbEntity
  8
止水栓
  6
CONTINUOUS
 62
     6
100
AcDbVertex
100
AcDb2dVertex
 10
445.871114
 20
2157.371235
 30
0.0
  0
SEQEND
  5
317
100
AcDbEntity
  8
止水栓
  6
CONTINUOUS
 62
     6
  0
POLYLINE
  5
318
100
AcDbEntity
  8
止水栓
  6
CONTINUOUS
 62
     6
100
AcDb2dPolyline
 66
     1
 10
0.0
 20
0.0
 30
0.0
 70
   128
  0
VERTEX
  5
319
100
AcDbEntity
  8
止水栓
  6
CONTINUOUS
 62
     6
100
AcDbVertex
100
AcDb2dVertex
 10
447.201681
 20
2160.369282
 30
0.0
  0
VERTEX
  5
31A
100
AcDbEntity
  8
止水栓
  6
CONTINUOUS
 62
     6
100
AcDbVertex
100
AcDb2dVertex
 10
447.248068
 20
2160.762348
 30
0.0
  0
VERTEX
  5
31B
100
AcDbEntity
  8
止水栓
  6
CONTINUOUS
 62
     6
100
AcDbVertex
100
AcDb2dVertex
 10
447.277364
 20
2161.162739
 30
0.0
  0
VERTEX
  5
31C
100
AcDbEntity
  8
止水栓
  6
CONTINUOUS
 62
     6
100
AcDbVertex
100
AcDb2dVertex
 10
447.28713
 20
2161.565571
 30
0.0
  0
SEQEND
  5
31D
100
AcDbEntity
  8
止水栓
  6
CONTINUOUS
 62
     6
  0
POLYLINE
  5
31E
100
AcDbEntity
  8
止水栓
  6
CONTINUOUS
 62
     6
100
AcDb2dPolyline
 66
     1
 10
0.0
 20
0.0
 30
0.0
 70
   128
  0
VERTEX
  5
31F
100
AcDbEntity
  8
止水栓
  6
CONTINUOUS
 62
     6
100
AcDbVertex
100
AcDb2dVertex
 10
445.871114
 20
2157.371235
 30
0.0
  0
VERTEX
  5
320
100
AcDbEntity
  8
止水栓
  6
CONTINUOUS
 62
     6
100
AcDbVertex
100
AcDb2dVertex
 10
446.061544
 20
2157.556782
 30
0.0
  0
VERTEX
  5
321
100
AcDbEntity
  8
止水栓
  6
CONTINUOUS
 62
     6
100
AcDbVertex
100
AcDb2dVertex
 10
446.242208
 20
2157.774067
 30
0.0
  0
VERTEX
  5
322
100
AcDbEntity
  8
止水栓
  6
CONTINUOUS
 62
     6
100
AcDbVertex
100
AcDb2dVertex
 10
446.410665
 20
2158.020649
 30
0.0
  0
VERTEX
  5
323
100
AcDbEntity
  8
止水栓
  6
CONTINUOUS
 62
     6
100
AcDbVertex
100
AcDb2dVertex
 10
446.569357
 20
2158.294087
 30
0.0
  0
VERTEX
  5
324
100
AcDbEntity
  8
止水栓
  6
CONTINUOUS
 62
     6
100
AcDbVertex
100
AcDb2dVertex
 10
446.7134
 20
2158.591938
 30
0.0
  0
VERTEX
  5
325
100
AcDbEntity
  8
止水栓
  6
CONTINUOUS
 62
     6
100
AcDbVertex
100
AcDb2dVertex
 10
446.842794
 20
2158.911762
 30
0.0
  0
VERTEX
  5
326
100
AcDbEntity
  8
止水栓
  6
CONTINUOUS
 62
     6
100
AcDbVertex
100
AcDb2dVertex
 10
446.95754
 20
2159.251118
 30
0.0
  0
VERTEX
  5
327
100
AcDbEntity
  8
止水栓
  6
CONTINUOUS
 62
     6
100
AcDbVertex
100
AcDb2dVertex
 10
447.057638
 20
2159.610005
 30
0.0
  0
VERTEX
  5
328
100
AcDbEntity
  8
止水栓
  6
CONTINUOUS
 62
     6
100
AcDbVertex
100
AcDb2dVertex
 10
447.138204
 20
2159.98354
 30
0.0
  0
VERTEX
  5
329
100
AcDbEntity
  8
止水栓
  6
CONTINUOUS
 62
     6
100
AcDbVertex
100
AcDb2dVertex
 10
447.201681
 20
2160.369282
 30
0.0
  0
SEQEND
  5
32A
100
AcDbEntity
  8
止水栓
  6
CONTINUOUS
 62
     6
  0
ARC
  5
32B
100
AcDbEntity
  8
止水栓
  6
CONTINUOUS
 62
     6
100
AcDbCircle
 10
453.139181
 20
2161.309223
 30
0.0
 40
10.99987
100
AcDbArc
 50
146.937744
 51
213.054688
  0
LINE
  5
32C
100
AcDbEntity
  8
止水栓
  6
CONTINUOUS
 62
     6
100
AcDbLine
 10
448.388906
 20
2201.08437
 30
0.0
 11
448.388906
 21
2213.810688
 31
0.0
  0
LINE
  5
32D
100
AcDbEntity
  8
止水栓
  6
CONTINUOUS
 62
     6
100
AcDbLine
 10
461.388906
 20
2201.08437
 30
0.0
 11
461.388906
 21
2213.810688
 31
0.0
  0
LINE
  5
32E
100
AcDbEntity
  8
止水栓
  6
EXLTYPE3
 62
     6
100
AcDbLine
 10
409.888902
 20
883.311176
 30
0.0
 11
409.888902
 21
754.191669
 31
0.0
  0
ARC
  5
32F
100
AcDbEntity
  8
止水栓
  6
EXLTYPE3
 62
     6
100
AcDbCircle
 10
425.030571
 20
754.191669
 30
0.0
 40
15.141669
100
AcDbArc
 50
180.0
 51
0.0
  0
LINE
  5
330
100
AcDbEntity
  8
止水栓
  6
EXLTYPE2
 62
     6
100
AcDbLine
 10
399.087951
 20
904.310688
 30
0.0
 11
398.087951
 21
906.042739
 31
0.0
  0
LINE
  5
331
100
AcDbEntity
  8
止水栓
  6
EXLTYPE2
 62
     6
100
AcDbLine
 10
418.037951
 20
904.310688
 30
0.0
 11
419.037951
 21
906.042739
 31
0.0
  0
LINE
  5
332
100
AcDbEntity
  8
止水栓
  6
EXLTYPE2
 62
     6
100
AcDbLine
 10
419.037951
 20
904.310688
 30
0.0
 11
398.087951
 21
904.310688
 31
0.0
  0
LINE
  5
333
100
AcDbEntity
  8
止水栓
  6
EXLTYPE2
 62
     6
100
AcDbLine
 10
418.037951
 20
904.310688
 30
0.0
 11
418.037951
 21
901.83061
 31
0.0
  0
LINE
  5
334
100
AcDbEntity
  8
止水栓
  6
EXLTYPE2
 62
     6
100
AcDbLine
 10
419.037951
 20
908.313034
 30
0.0
 11
419.037951
 21
901.83061
 31
0.0
  0
LINE
  5
335
100
AcDbEntity
  8
止水栓
  6
EXLTYPE2
 62
     6
100
AcDbLine
 10
399.087951
 20
904.310688
 30
0.0
 11
399.087951
 21
901.83061
 31
0.0
  0
LINE
  5
336
100
AcDbEntity
  8
止水栓
  6
EXLTYPE2
 62
     6
100
AcDbLine
 10
398.087951
 20
907.310688
 30
0.0
 11
398.087951
 21
901.83061
 31
0.0
  0
ARC
  5
337
100
AcDbEntity
  8
止水栓
  6
EXLTYPE2
 62
     6
100
AcDbCircle
 10
410.312676
 20
895.832075
 30
0.0
 40
10.99987
100
AcDbArc
 50
326.937744
 51
33.054687
  0
POLYLINE
  5
338
100
AcDbEntity
  8
止水栓
  6
EXLTYPE2
 62
     6
100
AcDb2dPolyline
 66
     1
 10
0.0
 20
0.0
 30
0.0
 70
   128
  0
VERTEX
  5
339
100
AcDbEntity
  8
止水栓
  6
EXLTYPE2
 62
     6
100
AcDbVertex
100
AcDb2dVertex
 10
416.164727
 20
895.573286
 30
0.0
  0
VERTEX
  5
33A
100
AcDbEntity
  8
止水栓
  6
EXLTYPE2
 62
     6
100
AcDbVertex
100
AcDb2dVertex
 10
416.174492
 20
895.170454
 30
0.0
  0
VERTEX
  5
33B
100
AcDbEntity
  8
止水栓
  6
EXLTYPE2
 62
     6
100
AcDbVertex
100
AcDb2dVertex
 10
416.203789
 20
894.770064
 30
0.0
  0
VERTEX
  5
33C
100
AcDbEntity
  8
止水栓
  6
EXLTYPE2
 62
     6
100
AcDbVertex
100
AcDb2dVertex
 10
416.250176
 20
894.374556
 30
0.0
  0
VERTEX
  5
33D
100
AcDbEntity
  8
止水栓
  6
EXLTYPE2
 62
     6
100
AcDbVertex
100
AcDb2dVertex
 10
416.313652
 20
893.991255
 30
0.0
  0
VERTEX
  5
33E
100
AcDbEntity
  8
止水栓
  6
EXLTYPE2
 62
     6
100
AcDbVertex
100
AcDb2dVertex
 10
416.394219
 20
893.61772
 30
0.0
  0
VERTEX
  5
33F
100
AcDbEntity
  8
止水栓
  6
EXLTYPE2
 62
     6
100
AcDbVertex
100
AcDb2dVertex
 10
416.494317
 20
893.258833
 30
0.0
  0
VERTEX
  5
340
100
AcDbEntity
  8
止水栓
  6
EXLTYPE2
 62
     6
100
AcDbVertex
100
AcDb2dVertex
 10
416.609063
 20
892.919478
 30
0.0
  0
VERTEX
  5
341
100
AcDbEntity
  8
止水栓
  6
EXLTYPE2
 62
     6
100
AcDbVertex
100
AcDb2dVertex
 10
416.738457
 20
892.597212
 30
0.0
  0
VERTEX
  5
342
100
AcDbEntity
  8
止水栓
  6
EXLTYPE2
 62
     6
100
AcDbVertex
100
AcDb2dVertex
 10
416.8825
 20
892.29936
 30
0.0
  0
VERTEX
  5
343
100
AcDbEntity
  8
止水栓
  6
EXLTYPE2
 62
     6
100
AcDbVertex
100
AcDb2dVertex
 10
417.041192
 20
892.028364
 30
0.0
  0
VERTEX
  5
344
100
AcDbEntity
  8
止水栓
  6
EXLTYPE2
 62
     6
100
AcDbVertex
100
AcDb2dVertex
 10
417.209649
 20
891.781782
 30
0.0
  0
VERTEX
  5
345
100
AcDbEntity
  8
止水栓
  6
EXLTYPE2
 62
     6
100
AcDbVertex
100
AcDb2dVertex
 10
417.390313
 20
891.564497
 30
0.0
  0
VERTEX
  5
346
100
AcDbEntity
  8
止水栓
  6
EXLTYPE2
 62
     6
100
AcDbVertex
100
AcDb2dVertex
 10
417.580742
 20
891.376509
 30
0.0
  0
VERTEX
  5
347
100
AcDbEntity
  8
止水栓
  6
EXLTYPE2
 62
     6
100
AcDbVertex
100
AcDb2dVertex
 10
417.778496
 20
891.2227
 30
0.0
  0
VERTEX
  5
348
100
AcDbEntity
  8
止水栓
  6
EXLTYPE2
 62
     6
100
AcDbVertex
100
AcDb2dVertex
 10
417.981133
 20
891.103071
 30
0.0
  0
VERTEX
  5
349
100
AcDbEntity
  8
止水栓
  6
EXLTYPE2
 62
     6
100
AcDbVertex
100
AcDb2dVertex
 10
418.191094
 20
891.015181
 30
0.0
  0
VERTEX
  5
34A
100
AcDbEntity
  8
止水栓
  6
EXLTYPE2
 62
     6
100
AcDbVertex
100
AcDb2dVertex
 10
418.401055
 20
890.96147
 30
0.0
  0
VERTEX
  5
34B
100
AcDbEntity
  8
止水栓
  6
EXLTYPE2
 62
     6
100
AcDbVertex
100
AcDb2dVertex
 10
418.615899
 20
890.94438
 30
0.0
  0
VERTEX
  5
34C
100
AcDbEntity
  8
止水栓
  6
EXLTYPE2
 62
     6
100
AcDbVertex
100
AcDb2dVertex
 10
418.828301
 20
890.96147
 30
0.0
  0
VERTEX
  5
34D
100
AcDbEntity
  8
止水栓
  6
EXLTYPE2
 62
     6
100
AcDbVertex
100
AcDb2dVertex
 10
419.040703
 20
891.015181
 30
0.0
  0
VERTEX
  5
34E
100
AcDbEntity
  8
止水栓
  6
EXLTYPE2
 62
     6
100
AcDbVertex
100
AcDb2dVertex
 10
419.250664
 20
891.103071
 30
0.0
  0
VERTEX
  5
34F
100
AcDbEntity
  8
止水栓
  6
EXLTYPE2
 62
     6
100
AcDbVertex
100
AcDb2dVertex
 10
419.453301
 20
891.2227
 30
0.0
  0
VERTEX
  5
350
100
AcDbEntity
  8
止水栓
  6
EXLTYPE2
 62
     6
100
AcDbVertex
100
AcDb2dVertex
 10
419.651055
 20
891.37895
 30
0.0
  0
VERTEX
  5
351
100
AcDbEntity
  8
止水栓
  6
EXLTYPE2
 62
     6
100
AcDbVertex
100
AcDb2dVertex
 10
419.839043
 20
891.564497
 30
0.0
  0
VERTEX
  5
352
100
AcDbEntity
  8
止水栓
  6
EXLTYPE2
 62
     6
100
AcDbVertex
100
AcDb2dVertex
 10
420.019707
 20
891.781782
 30
0.0
  0
VERTEX
  5
353
100
AcDbEntity
  8
止水栓
  6
EXLTYPE2
 62
     6
100
AcDbVertex
100
AcDb2dVertex
 10
420.190606
 20
892.025923
 30
0.0
  0
VERTEX
  5
354
100
AcDbEntity
  8
止水栓
  6
EXLTYPE2
 62
     6
100
AcDbVertex
100
AcDb2dVertex
 10
420.346856
 20
892.29936
 30
0.0
  0
VERTEX
  5
355
100
AcDbEntity
  8
止水栓
  6
EXLTYPE2
 62
     6
100
AcDbVertex
100
AcDb2dVertex
 10
420.490899
 20
892.597212
 30
0.0
  0
VERTEX
  5
356
100
AcDbEntity
  8
止水栓
  6
EXLTYPE2
 62
     6
100
AcDbVertex
100
AcDb2dVertex
 10
420.622734
 20
892.919478
 30
0.0
  0
VERTEX
  5
357
100
AcDbEntity
  8
止水栓
  6
EXLTYPE2
 62
     6
100
AcDbVertex
100
AcDb2dVertex
 10
420.737481
 20
893.258833
 30
0.0
  0
VERTEX
  5
358
100
AcDbEntity
  8
止水栓
  6
EXLTYPE2
 62
     6
100
AcDbVertex
100
AcDb2dVertex
 10
420.835137
 20
893.61772
 30
0.0
  0
VERTEX
  5
359
100
AcDbEntity
  8
止水栓
  6
EXLTYPE2
 62
     6
100
AcDbVertex
100
AcDb2dVertex
 10
420.915703
 20
893.988814
 30
0.0
  0
VERTEX
  5
35A
100
AcDbEntity
  8
止水栓
  6
EXLTYPE2
 62
     6
100
AcDbVertex
100
AcDb2dVertex
 10
420.981621
 20
894.374556
 30
0.0
  0
VERTEX
  5
35B
100
AcDbEntity
  8
止水栓
  6
EXLTYPE2
 62
     6
100
AcDbVertex
100
AcDb2dVertex
 10
421.028008
 20
894.770064
 30
0.0
  0
VERTEX
  5
35C
100
AcDbEntity
  8
止水栓
  6
EXLTYPE2
 62
     6
100
AcDbVertex
100
AcDb2dVertex
 10
421.054863
 20
895.170454
 30
0.0
  0
VERTEX
  5
35D
100
AcDbEntity
  8
止水栓
  6
EXLTYPE2
 62
     6
100
AcDbVertex
100
AcDb2dVertex
 10
421.064629
 20
895.573286
 30
0.0
  0
VERTEX
  5
35E
100
AcDbEntity
  8
止水栓
  6
EXLTYPE2
 62
     6
100
AcDbVertex
100
AcDb2dVertex
 10
421.054863
 20
895.976118
 30
0.0
  0
VERTEX
  5
35F
100
AcDbEntity
  8
止水栓
  6
EXLTYPE2
 62
     6
100
AcDbVertex
100
AcDb2dVertex
 10
421.028008
 20
896.376509
 30
0.0
  0
VERTEX
  5
360
100
AcDbEntity
  8
止水栓
  6
EXLTYPE2
 62
     6
100
AcDbVertex
100
AcDb2dVertex
 10
420.981621
 20
896.772017
 30
0.0
  0
VERTEX
  5
361
100
AcDbEntity
  8
止水栓
  6
EXLTYPE2
 62
     6
100
AcDbVertex
100
AcDb2dVertex
 10
420.918145
 20
897.157759
 30
0.0
  0
VERTEX
  5
362
100
AcDbEntity
  8
止水栓
  6
EXLTYPE2
 62
     6
100
AcDbVertex
100
AcDb2dVertex
 10
420.835137
 20
897.531294
 30
0.0
  0
VERTEX
  5
363
100
AcDbEntity
  8
止水栓
  6
EXLTYPE2
 62
     6
100
AcDbVertex
100
AcDb2dVertex
 10
420.737481
 20
897.890181
 30
0.0
  0
VERTEX
  5
364
100
AcDbEntity
  8
止水栓
  6
EXLTYPE2
 62
     6
100
AcDbVertex
100
AcDb2dVertex
 10
420.622734
 20
898.229536
 30
0.0
  0
VERTEX
  5
365
100
AcDbEntity
  8
止水栓
  6
EXLTYPE2
 62
     6
100
AcDbVertex
100
AcDb2dVertex
 10
420.490899
 20
898.551802
 30
0.0
  0
VERTEX
  5
366
100
AcDbEntity
  8
止水栓
  6
EXLTYPE2
 62
     6
100
AcDbVertex
100
AcDb2dVertex
 10
420.346856
 20
898.847212
 30
0.0
  0
VERTEX
  5
367
100
AcDbEntity
  8
止水栓
  6
EXLTYPE2
 62
     6
100
AcDbVertex
100
AcDb2dVertex
 10
420.190606
 20
899.12065
 30
0.0
  0
VERTEX
  5
368
100
AcDbEntity
  8
止水栓
  6
EXLTYPE2
 62
     6
100
AcDbVertex
100
AcDb2dVertex
 10
420.019707
 20
899.367232
 30
0.0
  0
VERTEX
  5
369
100
AcDbEntity
  8
止水栓
  6
EXLTYPE2
 62
     6
100
AcDbVertex
100
AcDb2dVertex
 10
419.841484
 20
899.584517
 30
0.0
  0
VERTEX
  5
36A
100
AcDbEntity
  8
止水栓
  6
EXLTYPE2
 62
     6
100
AcDbVertex
100
AcDb2dVertex
 10
419.651055
 20
899.770064
 30
0.0
  0
VERTEX
  5
36B
100
AcDbEntity
  8
止水栓
  6
EXLTYPE2
 62
     6
100
AcDbVertex
100
AcDb2dVertex
 10
419.453301
 20
899.923872
 30
0.0
  0
VERTEX
  5
36C
100
AcDbEntity
  8
止水栓
  6
EXLTYPE2
 62
     6
100
AcDbVertex
100
AcDb2dVertex
 10
419.250664
 20
900.045943
 30
0.0
  0
VERTEX
  5
36D
100
AcDbEntity
  8
止水栓
  6
EXLTYPE2
 62
     6
100
AcDbVertex
100
AcDb2dVertex
 10
419.040703
 20
900.133833
 30
0.0
  0
VERTEX
  5
36E
100
AcDbEntity
  8
止水栓
  6
EXLTYPE2
 62
     6
100
AcDbVertex
100
AcDb2dVertex
 10
418.828301
 20
900.187544
 30
0.0
  0
VERTEX
  5
36F
100
AcDbEntity
  8
止水栓
  6
EXLTYPE2
 62
     6
100
AcDbVertex
100
AcDb2dVertex
 10
418.615899
 20
900.204634
 30
0.0
  0
VERTEX
  5
370
100
AcDbEntity
  8
止水栓
  6
EXLTYPE2
 62
     6
100
AcDbVertex
100
AcDb2dVertex
 10
418.401055
 20
900.185103
 30
0.0
  0
VERTEX
  5
371
100
AcDbEntity
  8
止水栓
  6
EXLTYPE2
 62
     6
100
AcDbVertex
100
AcDb2dVertex
 10
418.191094
 20
900.133833
 30
0.0
  0
VERTEX
  5
372
100
AcDbEntity
  8
止水栓
  6
EXLTYPE2
 62
     6
100
AcDbVertex
100
AcDb2dVertex
 10
417.981133
 20
900.045943
 30
0.0
  0
VERTEX
  5
373
100
AcDbEntity
  8
止水栓
  6
EXLTYPE2
 62
     6
100
AcDbVertex
100
AcDb2dVertex
 10
417.778496
 20
899.923872
 30
0.0
  0
VERTEX
  5
374
100
AcDbEntity
  8
止水栓
  6
EXLTYPE2
 62
     6
100
AcDbVertex
100
AcDb2dVertex
 10
417.580742
 20
899.770064
 30
0.0
  0
SEQEND
  5
375
100
AcDbEntity
  8
止水栓
  6
EXLTYPE2
 62
     6
  0
LINE
  5
376
100
AcDbEntity
  8
止水栓
  6
EXLTYPE2
 62
     6
100
AcDbLine
 10
419.062188
 20
889.831099
 30
0.0
 11
419.062188
 21
884.831099
 31
0.0
  0
POLYLINE
  5
377
100
AcDbEntity
  8
止水栓
  6
EXLTYPE2
 62
     6
100
AcDb2dPolyline
 66
     1
 10
0.0
 20
0.0
 30
0.0
 70
   128
  0
VERTEX
  5
378
100
AcDbEntity
  8
止水栓
  6
EXLTYPE2
 62
     6
100
AcDbVertex
100
AcDb2dVertex
 10
396.06707
 20
895.58061
 30
0.0
  0
VERTEX
  5
379
100
AcDbEntity
  8
止水栓
  6
EXLTYPE2
 62
     6
100
AcDbVertex
100
AcDb2dVertex
 10
396.076836
 20
895.143599
 30
0.0
  0
VERTEX
  5
37A
100
AcDbEntity
  8
止水栓
  6
EXLTYPE2
 62
     6
100
AcDbVertex
100
AcDb2dVertex
 10
396.103692
 20
894.71147
 30
0.0
  0
VERTEX
  5
37B
100
AcDbEntity
  8
止水栓
  6
EXLTYPE2
 62
     6
100
AcDbVertex
100
AcDb2dVertex
 10
396.150078
 20
894.286665
 30
0.0
  0
VERTEX
  5
37C
100
AcDbEntity
  8
止水栓
  6
EXLTYPE2
 62
     6
100
AcDbVertex
100
AcDb2dVertex
 10
396.215996
 20
893.871626
 30
0.0
  0
VERTEX
  5
37D
100
AcDbEntity
  8
止水栓
  6
EXLTYPE2
 62
     6
100
AcDbVertex
100
AcDb2dVertex
 10
396.296563
 20
893.471235
 30
0.0
  0
VERTEX
  5
37E
100
AcDbEntity
  8
止水栓
  6
EXLTYPE2
 62
     6
100
AcDbVertex
100
AcDb2dVertex
 10
396.394219
 20
893.085493
 30
0.0
  0
VERTEX
  5
37F
100
AcDbEntity
  8
止水栓
  6
EXLTYPE2
 62
     6
100
AcDbVertex
100
AcDb2dVertex
 10
396.511406
 20
892.716841
 30
0.0
  0
VERTEX
  5
380
100
AcDbEntity
  8
止水栓
  6
EXLTYPE2
 62
     6
100
AcDbVertex
100
AcDb2dVertex
 10
396.640801
 20
892.372603
 30
0.0
  0
VERTEX
  5
381
100
AcDbEntity
  8
止水栓
  6
EXLTYPE2
 62
     6
100
AcDbVertex
100
AcDb2dVertex
 10
396.784844
 20
892.050337
 30
0.0
  0
VERTEX
  5
382
100
AcDbEntity
  8
止水栓
  6
EXLTYPE2
 62
     6
100
AcDbVertex
100
AcDb2dVertex
 10
396.943535
 20
891.757368
 30
0.0
  0
VERTEX
  5
383
100
AcDbEntity
  8
止水栓
  6
EXLTYPE2
 62
     6
100
AcDbVertex
100
AcDb2dVertex
 10
397.111992
 20
891.491255
 30
0.0
  0
VERTEX
  5
384
100
AcDbEntity
  8
止水栓
  6
EXLTYPE2
 62
     6
100
AcDbVertex
100
AcDb2dVertex
 10
397.292656
 20
891.259321
 30
0.0
  0
VERTEX
  5
385
100
AcDbEntity
  8
止水栓
  6
EXLTYPE2
 62
     6
100
AcDbVertex
100
AcDb2dVertex
 10
397.480645
 20
891.056685
 30
0.0
  0
VERTEX
  5
386
100
AcDbEntity
  8
止水栓
  6
EXLTYPE2
 62
     6
100
AcDbVertex
100
AcDb2dVertex
 10
397.678399
 20
890.890669
 30
0.0
  0
VERTEX
  5
387
100
AcDbEntity
  8
止水栓
  6
EXLTYPE2
 62
     6
100
AcDbVertex
100
AcDb2dVertex
 10
397.883477
 20
890.758833
 30
0.0
  0
VERTEX
  5
388
100
AcDbEntity
  8
止水栓
  6
EXLTYPE2
 62
     6
100
AcDbVertex
100
AcDb2dVertex
 10
398.090996
 20
890.66606
 30
0.0
  0
VERTEX
  5
389
100
AcDbEntity
  8
止水栓
  6
EXLTYPE2
 62
     6
100
AcDbVertex
100
AcDb2dVertex
 10
398.303399
 20
890.607466
 30
0.0
  0
VERTEX
  5
38A
100
AcDbEntity
  8
止水栓
  6
EXLTYPE2
 62
     6
100
AcDbVertex
100
AcDb2dVertex
 10
398.515801
 20
890.590376
 30
0.0
  0
VERTEX
  5
38B
100
AcDbEntity
  8
止水栓
  6
EXLTYPE2
 62
     6
100
AcDbVertex
100
AcDb2dVertex
 10
398.730645
 20
890.609907
 30
0.0
  0
VERTEX
  5
38C
100
AcDbEntity
  8
止水栓
  6
EXLTYPE2
 62
     6
100
AcDbVertex
100
AcDb2dVertex
 10
398.943047
 20
890.66606
 30
0.0
  0
VERTEX
  5
38D
100
AcDbEntity
  8
止水栓
  6
EXLTYPE2
 62
     6
100
AcDbVertex
100
AcDb2dVertex
 10
399.150567
 20
890.758833
 30
0.0
  0
VERTEX
  5
38E
100
AcDbEntity
  8
止水栓
  6
EXLTYPE2
 62
     6
100
AcDbVertex
100
AcDb2dVertex
 10
399.355645
 20
890.890669
 30
0.0
  0
VERTEX
  5
38F
100
AcDbEntity
  8
止水栓
  6
EXLTYPE2
 62
     6
100
AcDbVertex
100
AcDb2dVertex
 10
399.553399
 20
891.056685
 30
0.0
  0
VERTEX
  5
390
100
AcDbEntity
  8
止水栓
  6
EXLTYPE2
 62
     6
100
AcDbVertex
100
AcDb2dVertex
 10
399.741387
 20
891.259321
 30
0.0
  0
VERTEX
  5
391
100
AcDbEntity
  8
止水栓
  6
EXLTYPE2
 62
     6
100
AcDbVertex
100
AcDb2dVertex
 10
399.922051
 20
891.493696
 30
0.0
  0
VERTEX
  5
392
100
AcDbEntity
  8
止水栓
  6
EXLTYPE2
 62
     6
100
AcDbVertex
100
AcDb2dVertex
 10
400.090508
 20
891.757368
 30
0.0
  0
VERTEX
  5
393
100
AcDbEntity
  8
止水栓
  6
EXLTYPE2
 62
     6
100
AcDbVertex
100
AcDb2dVertex
 10
400.249199
 20
892.050337
 30
0.0
  0
VERTEX
  5
394
100
AcDbEntity
  8
止水栓
  6
EXLTYPE2
 62
     6
100
AcDbVertex
100
AcDb2dVertex
 10
400.393242
 20
892.372603
 30
0.0
  0
VERTEX
  5
395
100
AcDbEntity
  8
止水栓
  6
EXLTYPE2
 62
     6
100
AcDbVertex
100
AcDb2dVertex
 10
400.522637
 20
892.716841
 30
0.0
  0
VERTEX
  5
396
100
AcDbEntity
  8
止水栓
  6
EXLTYPE2
 62
     6
100
AcDbVertex
100
AcDb2dVertex
 10
400.637383
 20
893.085493
 30
0.0
  0
VERTEX
  5
397
100
AcDbEntity
  8
止水栓
  6
EXLTYPE2
 62
     6
100
AcDbVertex
100
AcDb2dVertex
 10
400.737481
 20
893.471235
 30
0.0
  0
VERTEX
  5
398
100
AcDbEntity
  8
止水栓
  6
EXLTYPE2
 62
     6
100
AcDbVertex
100
AcDb2dVertex
 10
400.818047
 20
893.874068
 30
0.0
  0
VERTEX
  5
399
100
AcDbEntity
  8
止水栓
  6
EXLTYPE2
 62
     6
100
AcDbVertex
100
AcDb2dVertex
 10
400.883965
 20
894.289107
 30
0.0
  0
VERTEX
  5
39A
100
AcDbEntity
  8
止水栓
  6
EXLTYPE2
 62
     6
100
AcDbVertex
100
AcDb2dVertex
 10
400.930352
 20
894.713911
 30
0.0
  0
VERTEX
  5
39B
100
AcDbEntity
  8
止水栓
  6
EXLTYPE2
 62
     6
100
AcDbVertex
100
AcDb2dVertex
 10
400.957207
 20
895.14604
 30
0.0
  0
VERTEX
  5
39C
100
AcDbEntity
  8
止水栓
  6
EXLTYPE2
 62
     6
100
AcDbVertex
100
AcDb2dVertex
 10
400.966973
 20
895.58061
 30
0.0
  0
VERTEX
  5
39D
100
AcDbEntity
  8
止水栓
  6
EXLTYPE2
 62
     6
100
AcDbVertex
100
AcDb2dVertex
 10
400.957207
 20
896.015181
 30
0.0
  0
VERTEX
  5
39E
100
AcDbEntity
  8
止水栓
  6
EXLTYPE2
 62
     6
100
AcDbVertex
100
AcDb2dVertex
 10
400.92791
 20
896.44731
 30
0.0
  0
VERTEX
  5
39F
100
AcDbEntity
  8
止水栓
  6
EXLTYPE2
 62
     6
100
AcDbVertex
100
AcDb2dVertex
 10
400.881524
 20
896.872114
 30
0.0
  0
VERTEX
  5
3A0
100
AcDbEntity
  8
止水栓
  6
EXLTYPE2
 62
     6
100
AcDbVertex
100
AcDb2dVertex
 10
400.818047
 20
897.287153
 30
0.0
  0
VERTEX
  5
3A1
100
AcDbEntity
  8
止水栓
  6
EXLTYPE2
 62
     6
100
AcDbVertex
100
AcDb2dVertex
 10
400.737481
 20
897.689985
 30
0.0
  0
VERTEX
  5
3A2
100
AcDbEntity
  8
止水栓
  6
EXLTYPE2
 62
     6
100
AcDbVertex
100
AcDb2dVertex
 10
400.637383
 20
898.075728
 30
0.0
  0
VERTEX
  5
3A3
100
AcDbEntity
  8
止水栓
  6
EXLTYPE2
 62
     6
100
AcDbVertex
100
AcDb2dVertex
 10
400.522637
 20
898.441939
 30
0.0
  0
VERTEX
  5
3A4
100
AcDbEntity
  8
止水栓
  6
EXLTYPE2
 62
     6
100
AcDbVertex
100
AcDb2dVertex
 10
400.393242
 20
898.788618
 30
0.0
  0
VERTEX
  5
3A5
100
AcDbEntity
  8
止水栓
  6
EXLTYPE2
 62
     6
100
AcDbVertex
100
AcDb2dVertex
 10
400.249199
 20
899.108443
 30
0.0
  0
VERTEX
  5
3A6
100
AcDbEntity
  8
止水栓
  6
EXLTYPE2
 62
     6
100
AcDbVertex
100
AcDb2dVertex
 10
400.090508
 20
899.403853
 30
0.0
  0
VERTEX
  5
3A7
100
AcDbEntity
  8
止水栓
  6
EXLTYPE2
 62
     6
100
AcDbVertex
100
AcDb2dVertex
 10
399.922051
 20
899.667525
 30
0.0
  0
VERTEX
  5
3A8
100
AcDbEntity
  8
止水栓
  6
EXLTYPE2
 62
     6
100
AcDbVertex
100
AcDb2dVertex
 10
399.741387
 20
899.9019
 30
0.0
  0
VERTEX
  5
3A9
100
AcDbEntity
  8
止水栓
  6
EXLTYPE2
 62
     6
100
AcDbVertex
100
AcDb2dVertex
 10
399.553399
 20
900.102095
 30
0.0
  0
VERTEX
  5
3AA
100
AcDbEntity
  8
止水栓
  6
EXLTYPE2
 62
     6
100
AcDbVertex
100
AcDb2dVertex
 10
399.355645
 20
900.270552
 30
0.0
  0
VERTEX
  5
3AB
100
AcDbEntity
  8
止水栓
  6
EXLTYPE2
 62
     6
100
AcDbVertex
100
AcDb2dVertex
 10
399.150567
 20
900.399946
 30
0.0
  0
VERTEX
  5
3AC
100
AcDbEntity
  8
止水栓
  6
EXLTYPE2
 62
     6
100
AcDbVertex
100
AcDb2dVertex
 10
398.943047
 20
900.495161
 30
0.0
  0
VERTEX
  5
3AD
100
AcDbEntity
  8
止水栓
  6
EXLTYPE2
 62
     6
100
AcDbVertex
100
AcDb2dVertex
 10
398.730645
 20
900.551314
 30
0.0
  0
VERTEX
  5
3AE
100
AcDbEntity
  8
止水栓
  6
EXLTYPE2
 62
     6
100
AcDbVertex
100
AcDb2dVertex
 10
398.515801
 20
900.570845
 30
0.0
  0
VERTEX
  5
3AF
100
AcDbEntity
  8
止水栓
  6
EXLTYPE2
 62
     6
100
AcDbVertex
100
AcDb2dVertex
 10
398.303399
 20
900.551314
 30
0.0
  0
VERTEX
  5
3B0
100
AcDbEntity
  8
止水栓
  6
EXLTYPE2
 62
     6
100
AcDbVertex
100
AcDb2dVertex
 10
398.090996
 20
900.495161
 30
0.0
  0
VERTEX
  5
3B1
100
AcDbEntity
  8
止水栓
  6
EXLTYPE2
 62
     6
100
AcDbVertex
100
AcDb2dVertex
 10
397.883477
 20
900.399946
 30
0.0
  0
VERTEX
  5
3B2
100
AcDbEntity
  8
止水栓
  6
EXLTYPE2
 62
     6
100
AcDbVertex
100
AcDb2dVertex
 10
397.678399
 20
900.270552
 30
0.0
  0
VERTEX
  5
3B3
100
AcDbEntity
  8
止水栓
  6
EXLTYPE2
 62
     6
100
AcDbVertex
100
AcDb2dVertex
 10
397.480645
 20
900.102095
 30
0.0
  0
SEQEND
  5
3B4
100
AcDbEntity
  8
止水栓
  6
EXLTYPE2
 62
     6
  0
ARC
  5
3B5
100
AcDbEntity
  8
止水栓
  6
EXLTYPE2
 62
     6
100
AcDbCircle
 10
406.811699
 20
895.832075
 30
0.0
 40
10.998535
100
AcDbArc
 50
146.94841
 51
213.059082
  0
LINE
  5
3B6
100
AcDbEntity
  8
止水栓
  6
EXLTYPE2
 62
     6
100
AcDbLine
 10
398.062188
 20
889.831099
 30
0.0
 11
398.062188
 21
884.831099
 31
0.0
  0
LINE
  5
3B7
100
AcDbEntity
  8
止水栓
  6
EXLTYPE2
 62
     6
100
AcDbLine
 10
397.592949
 20
889.831099
 30
0.0
 11
419.531426
 21
889.831099
 31
0.0
  0
LINE
  5
3B8
100
AcDbEntity
  8
止水栓
  6
EXLTYPE2
 62
     6
100
AcDbLine
 10
398.062188
 20
884.831099
 30
0.0
 11
419.062188
 21
884.831099
 31
0.0
  0
POLYLINE
  5
3B9
100
AcDbEntity
  8
止水栓
  6
EXLTYPE2
 62
     6
100
AcDb2dPolyline
 66
     1
 10
0.0
 20
0.0
 30
0.0
 70
   128
  0
VERTEX
  5
3BA
100
AcDbEntity
  8
止水栓
  6
EXLTYPE2
 62
     6
100
AcDbVertex
100
AcDb2dVertex
 10
408.562188
 20
890.045943
 30
0.0
  0
VERTEX
  5
3BB
100
AcDbEntity
  8
止水栓
  6
EXLTYPE2
 62
     6
100
AcDbVertex
100
AcDb2dVertex
 10
409.060234
 20
890.067915
 30
0.0
  0
VERTEX
  5
3BC
100
AcDbEntity
  8
止水栓
  6
EXLTYPE2
 62
     6
100
AcDbVertex
100
AcDb2dVertex
 10
409.55584
 20
890.133833
 30
0.0
  0
VERTEX
  5
3BD
100
AcDbEntity
  8
止水栓
  6
EXLTYPE2
 62
     6
100
AcDbVertex
100
AcDb2dVertex
 10
410.044121
 20
890.236372
 30
0.0
  0
VERTEX
  5
3BE
100
AcDbEntity
  8
止水栓
  6
EXLTYPE2
 62
     6
100
AcDbVertex
100
AcDb2dVertex
 10
410.529961
 20
890.382857
 30
0.0
  0
VERTEX
  5
3BF
100
AcDbEntity
  8
止水栓
  6
EXLTYPE2
 62
     6
100
AcDbVertex
100
AcDb2dVertex
 10
410.998711
 20
890.568403
 30
0.0
  0
VERTEX
  5
3C0
100
AcDbEntity
  8
止水栓
  6
EXLTYPE2
 62
     6
100
AcDbVertex
100
AcDb2dVertex
 10
411.450371
 20
890.790571
 30
0.0
  0
VERTEX
  5
3C1
100
AcDbEntity
  8
止水栓
  6
EXLTYPE2
 62
     6
100
AcDbVertex
100
AcDb2dVertex
 10
411.880059
 20
891.051802
 30
0.0
  0
VERTEX
  5
3C2
100
AcDbEntity
  8
止水栓
  6
EXLTYPE2
 62
     6
100
AcDbVertex
100
AcDb2dVertex
 10
412.282891
 20
891.347212
 30
0.0
  0
VERTEX
  5
3C3
100
AcDbEntity
  8
止水栓
  6
EXLTYPE2
 62
     6
100
AcDbVertex
100
AcDb2dVertex
 10
412.658867
 20
891.67436
 30
0.0
  0
VERTEX
  5
3C4
100
AcDbEntity
  8
止水栓
  6
EXLTYPE2
 62
     6
100
AcDbVertex
100
AcDb2dVertex
 10
413.000664
 20
892.033247
 30
0.0
  0
VERTEX
  5
3C5
100
AcDbEntity
  8
止水栓
  6
EXLTYPE2
 62
     6
100
AcDbVertex
100
AcDb2dVertex
 10
413.310723
 20
892.418989
 30
0.0
  0
VERTEX
  5
3C6
100
AcDbEntity
  8
止水栓
  6
EXLTYPE2
 62
     6
100
AcDbVertex
100
AcDb2dVertex
 10
413.58416
 20
892.826704
 30
0.0
  0
VERTEX
  5
3C7
100
AcDbEntity
  8
止水栓
  6
EXLTYPE2
 62
     6
100
AcDbVertex
100
AcDb2dVertex
 10
413.820977
 20
893.256392
 30
0.0
  0
VERTEX
  5
3C8
100
AcDbEntity
  8
止水栓
  6
EXLTYPE2
 62
     6
100
AcDbVertex
100
AcDb2dVertex
 10
414.013848
 20
893.70561
 30
0.0
  0
VERTEX
  5
3C9
100
AcDbEntity
  8
止水栓
  6
EXLTYPE2
 62
     6
100
AcDbVertex
100
AcDb2dVertex
 10
414.167656
 20
894.169478
 30
0.0
  0
VERTEX
  5
3CA
100
AcDbEntity
  8
止水栓
  6
EXLTYPE2
 62
     6
100
AcDbVertex
100
AcDb2dVertex
 10
414.27752
 20
894.64311
 30
0.0
  0
VERTEX
  5
3CB
100
AcDbEntity
  8
止水栓
  6
EXLTYPE2
 62
     6
100
AcDbVertex
100
AcDb2dVertex
 10
414.343438
 20
895.124068
 30
0.0
  0
VERTEX
  5
3CC
100
AcDbEntity
  8
止水栓
  6
EXLTYPE2
 62
     6
100
AcDbVertex
100
AcDb2dVertex
 10
414.367852
 20
895.607466
 30
0.0
  0
VERTEX
  5
3CD
100
AcDbEntity
  8
止水栓
  6
EXLTYPE2
 62
     6
100
AcDbVertex
100
AcDb2dVertex
 10
414.343438
 20
896.093306
 30
0.0
  0
VERTEX
  5
3CE
100
AcDbEntity
  8
止水栓
  6
EXLTYPE2
 62
     6
100
AcDbVertex
100
AcDb2dVertex
 10
414.27752
 20
896.574263
 30
0.0
  0
VERTEX
  5
3CF
100
AcDbEntity
  8
止水栓
  6
EXLTYPE2
 62
     6
100
AcDbVertex
100
AcDb2dVertex
 10
414.167656
 20
897.047896
 30
0.0
  0
VERTEX
  5
3D0
100
AcDbEntity
  8
止水栓
  6
EXLTYPE2
 62
     6
100
AcDbVertex
100
AcDb2dVertex
 10
414.013848
 20
897.509321
 30
0.0
  0
VERTEX
  5
3D1
100
AcDbEntity
  8
止水栓
  6
EXLTYPE2
 62
     6
100
AcDbVertex
100
AcDb2dVertex
 10
413.820977
 20
897.95854
 30
0.0
  0
VERTEX
  5
3D2
100
AcDbEntity
  8
止水栓
  6
EXLTYPE2
 62
     6
100
AcDbVertex
100
AcDb2dVertex
 10
413.58416
 20
898.388228
 30
0.0
  0
VERTEX
  5
3D3
100
AcDbEntity
  8
止水栓
  6
EXLTYPE2
 62
     6
100
AcDbVertex
100
AcDb2dVertex
 10
413.310723
 20
898.798384
 30
0.0
  0
VERTEX
  5
3D4
100
AcDbEntity
  8
止水栓
  6
EXLTYPE2
 62
     6
100
AcDbVertex
100
AcDb2dVertex
 10
413.000664
 20
899.181685
 30
0.0
  0
VERTEX
  5
3D5
100
AcDbEntity
  8
止水栓
  6
EXLTYPE2
 62
     6
100
AcDbVertex
100
AcDb2dVertex
 10
412.658867
 20
899.540571
 30
0.0
  0
VERTEX
  5
3D6
100
AcDbEntity
  8
止水栓
  6
EXLTYPE2
 62
     6
100
AcDbVertex
100
AcDb2dVertex
 10
412.282891
 20
899.86772
 30
0.0
  0
VERTEX
  5
3D7
100
AcDbEntity
  8
止水栓
  6
EXLTYPE2
 62
     6
100
AcDbVertex
100
AcDb2dVertex
 10
411.880059
 20
900.16313
 30
0.0
  0
VERTEX
  5
3D8
100
AcDbEntity
  8
止水栓
  6
EXLTYPE2
 62
     6
100
AcDbVertex
100
AcDb2dVertex
 10
411.450371
 20
900.42436
 30
0.0
  0
VERTEX
  5
3D9
100
AcDbEntity
  8
止水栓
  6
EXLTYPE2
 62
     6
100
AcDbVertex
100
AcDb2dVertex
 10
410.998711
 20
900.64897
 30
0.0
  0
VERTEX
  5
3DA
100
AcDbEntity
  8
止水栓
  6
EXLTYPE2
 62
     6
100
AcDbVertex
100
AcDb2dVertex
 10
410.529961
 20
900.834517
 30
0.0
  0
VERTEX
  5
3DB
100
AcDbEntity
  8
止水栓
  6
EXLTYPE2
 62
     6
100
AcDbVertex
100
AcDb2dVertex
 10
410.044121
 20
900.97856
 30
0.0
  0
VERTEX
  5
3DC
100
AcDbEntity
  8
止水栓
  6
EXLTYPE2
 62
     6
100
AcDbVertex
100
AcDb2dVertex
 10
409.548516
 20
901.08354
 30
0.0
  0
VERTEX
  5
3DD
100
AcDbEntity
  8
止水栓
  6
EXLTYPE2
 62
     6
100
AcDbVertex
100
AcDb2dVertex
 10
409.043145
 20
901.147017
 30
0.0
  0
VERTEX
  5
3DE
100
AcDbEntity
  8
止水栓
  6
EXLTYPE2
 62
     6
100
AcDbVertex
100
AcDb2dVertex
 10
408.535332
 20
901.168989
 30
0.0
  0
VERTEX
  5
3DF
100
AcDbEntity
  8
止水栓
  6
EXLTYPE2
 62
     6
100
AcDbVertex
100
AcDb2dVertex
 10
408.02752
 20
901.147017
 30
0.0
  0
VERTEX
  5
3E0
100
AcDbEntity
  8
止水栓
  6
EXLTYPE2
 62
     6
100
AcDbVertex
100
AcDb2dVertex
 10
407.522149
 20
901.08354
 30
0.0
  0
VERTEX
  5
3E1
100
AcDbEntity
  8
止水栓
  6
EXLTYPE2
 62
     6
100
AcDbVertex
100
AcDb2dVertex
 10
407.026543
 20
900.97856
 30
0.0
  0
VERTEX
  5
3E2
100
AcDbEntity
  8
止水栓
  6
EXLTYPE2
 62
     6
100
AcDbVertex
100
AcDb2dVertex
 10
406.540703
 20
900.834517
 30
0.0
  0
VERTEX
  5
3E3
100
AcDbEntity
  8
止水栓
  6
EXLTYPE2
 62
     6
100
AcDbVertex
100
AcDb2dVertex
 10
406.071953
 20
900.64897
 30
0.0
  0
VERTEX
  5
3E4
100
AcDbEntity
  8
止水栓
  6
EXLTYPE2
 62
     6
100
AcDbVertex
100
AcDb2dVertex
 10
405.620293
 20
900.42436
 30
0.0
  0
VERTEX
  5
3E5
100
AcDbEntity
  8
止水栓
  6
EXLTYPE2
 62
     6
100
AcDbVertex
100
AcDb2dVertex
 10
405.190606
 20
900.16313
 30
0.0
  0
VERTEX
  5
3E6
100
AcDbEntity
  8
止水栓
  6
EXLTYPE2
 62
     6
100
AcDbVertex
100
AcDb2dVertex
 10
404.787774
 20
899.86772
 30
0.0
  0
VERTEX
  5
3E7
100
AcDbEntity
  8
止水栓
  6
EXLTYPE2
 62
     6
100
AcDbVertex
100
AcDb2dVertex
 10
404.411797
 20
899.540571
 30
0.0
  0
VERTEX
  5
3E8
100
AcDbEntity
  8
止水栓
  6
EXLTYPE2
 62
     6
100
AcDbVertex
100
AcDb2dVertex
 10
404.07
 20
899.181685
 30
0.0
  0
VERTEX
  5
3E9
100
AcDbEntity
  8
止水栓
  6
EXLTYPE2
 62
     6
100
AcDbVertex
100
AcDb2dVertex
 10
403.759942
 20
898.798384
 30
0.0
  0
VERTEX
  5
3EA
100
AcDbEntity
  8
止水栓
  6
EXLTYPE2
 62
     6
100
AcDbVertex
100
AcDb2dVertex
 10
403.486504
 20
898.388228
 30
0.0
  0
VERTEX
  5
3EB
100
AcDbEntity
  8
止水栓
  6
EXLTYPE2
 62
     6
100
AcDbVertex
100
AcDb2dVertex
 10
403.249688
 20
897.95854
 30
0.0
  0
VERTEX
  5
3EC
100
AcDbEntity
  8
止水栓
  6
EXLTYPE2
 62
     6
100
AcDbVertex
100
AcDb2dVertex
 10
403.056817
 20
897.509321
 30
0.0
  0
VERTEX
  5
3ED
100
AcDbEntity
  8
止水栓
  6
EXLTYPE2
 62
     6
100
AcDbVertex
100
AcDb2dVertex
 10
402.903008
 20
897.047896
 30
0.0
  0
VERTEX
  5
3EE
100
AcDbEntity
  8
止水栓
  6
EXLTYPE2
 62
     6
100
AcDbVertex
100
AcDb2dVertex
 10
402.793145
 20
896.574263
 30
0.0
  0
VERTEX
  5
3EF
100
AcDbEntity
  8
止水栓
  6
EXLTYPE2
 62
     6
100
AcDbVertex
100
AcDb2dVertex
 10
402.727227
 20
896.093306
 30
0.0
  0
VERTEX
  5
3F0
100
AcDbEntity
  8
止水栓
  6
EXLTYPE2
 62
     6
100
AcDbVertex
100
AcDb2dVertex
 10
402.705254
 20
895.609907
 30
0.0
  0
SEQEND
  5
3F1
100
AcDbEntity
  8
止水栓
  6
EXLTYPE2
 62
     6
  0
POLYLINE
  5
3F2
100
AcDbEntity
  8
止水栓
  6
EXLTYPE2
 62
     6
100
AcDb2dPolyline
 66
     1
 10
0.0
 20
0.0
 30
0.0
 70
   128
  0
VERTEX
  5
3F3
100
AcDbEntity
  8
止水栓
  6
EXLTYPE2
 62
     6
100
AcDbVertex
100
AcDb2dVertex
 10
402.705254
 20
895.607466
 30
0.0
  0
VERTEX
  5
3F4
100
AcDbEntity
  8
止水栓
  6
EXLTYPE2
 62
     6
100
AcDbVertex
100
AcDb2dVertex
 10
402.727227
 20
895.124068
 30
0.0
  0
VERTEX
  5
3F5
100
AcDbEntity
  8
止水栓
  6
EXLTYPE2
 62
     6
100
AcDbVertex
100
AcDb2dVertex
 10
402.793145
 20
894.64311
 30
0.0
  0
VERTEX
  5
3F6
100
AcDbEntity
  8
止水栓
  6
EXLTYPE2
 62
     6
100
AcDbVertex
100
AcDb2dVertex
 10
402.903008
 20
894.169478
 30
0.0
  0
VERTEX
  5
3F7
100
AcDbEntity
  8
止水栓
  6
EXLTYPE2
 62
     6
100
AcDbVertex
100
AcDb2dVertex
 10
403.056817
 20
893.70561
 30
0.0
  0
VERTEX
  5
3F8
100
AcDbEntity
  8
止水栓
  6
EXLTYPE2
 62
     6
100
AcDbVertex
100
AcDb2dVertex
 10
403.249688
 20
893.258833
 30
0.0
  0
VERTEX
  5
3F9
100
AcDbEntity
  8
止水栓
  6
EXLTYPE2
 62
     6
100
AcDbVertex
100
AcDb2dVertex
 10
403.486504
 20
892.826704
 30
0.0
  0
VERTEX
  5
3FA
100
AcDbEntity
  8
止水栓
  6
EXLTYPE2
 62
     6
100
AcDbVertex
100
AcDb2dVertex
 10
403.759942
 20
892.418989
 30
0.0
  0
VERTEX
  5
3FB
100
AcDbEntity
  8
止水栓
  6
EXLTYPE2
 62
     6
100
AcDbVertex
100
AcDb2dVertex
 10
404.07
 20
892.033247
 30
0.0
  0
VERTEX
  5
3FC
100
AcDbEntity
  8
止水栓
  6
EXLTYPE2
 62
     6
100
AcDbVertex
100
AcDb2dVertex
 10
404.411797
 20
891.676802
 30
0.0
  0
VERTEX
  5
3FD
100
AcDbEntity
  8
止水栓
  6
EXLTYPE2
 62
     6
100
AcDbVertex
100
AcDb2dVertex
 10
404.787774
 20
891.347212
 30
0.0
  0
VERTEX
  5
3FE
100
AcDbEntity
  8
止水栓
  6
EXLTYPE2
 62
     6
100
AcDbVertex
100
AcDb2dVertex
 10
405.190606
 20
891.054243
 30
0.0
  0
VERTEX
  5
3FF
100
AcDbEntity
  8
止水栓
  6
EXLTYPE2
 62
     6
100
AcDbVertex
100
AcDb2dVertex
 10
405.620293
 20
890.790571
 30
0.0
  0
VERTEX
  5
400
100
AcDbEntity
  8
止水栓
  6
EXLTYPE2
 62
     6
100
AcDbVertex
100
AcDb2dVertex
 10
406.071953
 20
890.565962
 30
0.0
  0
VERTEX
  5
401
100
AcDbEntity
  8
止水栓
  6
EXLTYPE2
 62
     6
100
AcDbVertex
100
AcDb2dVertex
 10
406.540703
 20
890.380415
 30
0.0
  0
VERTEX
  5
402
100
AcDbEntity
  8
止水栓
  6
EXLTYPE2
 62
     6
100
AcDbVertex
100
AcDb2dVertex
 10
407.026543
 20
890.236372
 30
0.0
  0
VERTEX
  5
403
100
AcDbEntity
  8
止水栓
  6
EXLTYPE2
 62
     6
100
AcDbVertex
100
AcDb2dVertex
 10
407.522149
 20
890.131392
 30
0.0
  0
VERTEX
  5
404
100
AcDbEntity
  8
止水栓
  6
EXLTYPE2
 62
     6
100
AcDbVertex
100
AcDb2dVertex
 10
408.02752
 20
890.067915
 30
0.0
  0
VERTEX
  5
405
100
AcDbEntity
  8
止水栓
  6
EXLTYPE2
 62
     6
100
AcDbVertex
100
AcDb2dVertex
 10
408.535332
 20
890.045943
 30
0.0
  0
VERTEX
  5
406
100
AcDbEntity
  8
止水栓
  6
EXLTYPE2
 62
     6
100
AcDbVertex
100
AcDb2dVertex
 10
408.545098
 20
890.045943
 30
0.0
  0
VERTEX
  5
407
100
AcDbEntity
  8
止水栓
  6
EXLTYPE2
 62
     6
100
AcDbVertex
100
AcDb2dVertex
 10
408.552422
 20
890.045943
 30
0.0
  0
VERTEX
  5
408
100
AcDbEntity
  8
止水栓
  6
EXLTYPE2
 62
     6
100
AcDbVertex
100
AcDb2dVertex
 10
408.562188
 20
890.045943
 30
0.0
  0
SEQEND
  5
409
100
AcDbEntity
  8
止水栓
  6
EXLTYPE2
 62
     6
  0
POLYLINE
  5
40A
100
AcDbEntity
  8
止水栓
  6
EXLTYPE2
 62
     6
100
AcDb2dPolyline
 66
     1
 10
0.0
 20
0.0
 30
0.0
 70
   128
  0
VERTEX
  5
40B
100
AcDbEntity
  8
止水栓
  6
EXLTYPE2
 62
     6
100
AcDbVertex
100
AcDb2dVertex
 10
416.250176
 20
896.772017
 30
0.0
  0
VERTEX
  5
40C
100
AcDbEntity
  8
止水栓
  6
EXLTYPE2
 62
     6
100
AcDbVertex
100
AcDb2dVertex
 10
416.203789
 20
896.37895
 30
0.0
  0
VERTEX
  5
40D
100
AcDbEntity
  8
止水栓
  6
EXLTYPE2
 62
     6
100
AcDbVertex
100
AcDb2dVertex
 10
416.174492
 20
895.97856
 30
0.0
  0
VERTEX
  5
40E
100
AcDbEntity
  8
止水栓
  6
EXLTYPE2
 62
     6
100
AcDbVertex
100
AcDb2dVertex
 10
416.164727
 20
895.575728
 30
0.0
  0
SEQEND
  5
40F
100
AcDbEntity
  8
止水栓
  6
EXLTYPE2
 62
     6
  0
POLYLINE
  5
410
100
AcDbEntity
  8
止水栓
  6
EXLTYPE2
 62
     6
100
AcDb2dPolyline
 66
     1
 10
0.0
 20
0.0
 30
0.0
 70
   128
  0
VERTEX
  5
411
100
AcDbEntity
  8
止水栓
  6
EXLTYPE2
 62
     6
100
AcDbVertex
100
AcDb2dVertex
 10
396.150078
 20
896.872114
 30
0.0
  0
VERTEX
  5
412
100
AcDbEntity
  8
止水栓
  6
EXLTYPE2
 62
     6
100
AcDbVertex
100
AcDb2dVertex
 10
396.103692
 20
896.44731
 30
0.0
  0
VERTEX
  5
413
100
AcDbEntity
  8
止水栓
  6
EXLTYPE2
 62
     6
100
AcDbVertex
100
AcDb2dVertex
 10
396.076836
 20
896.015181
 30
0.0
  0
VERTEX
  5
414
100
AcDbEntity
  8
止水栓
  6
EXLTYPE2
 62
     6
100
AcDbVertex
100
AcDb2dVertex
 10
396.06707
 20
895.58061
 30
0.0
  0
SEQEND
  5
415
100
AcDbEntity
  8
止水栓
  6
EXLTYPE2
 62
     6
  0
POLYLINE
  5
416
100
AcDbEntity
  8
止水栓
  6
EXLTYPE2
 62
     6
100
AcDb2dPolyline
 66
     1
 10
0.0
 20
0.0
 30
0.0
 70
   128
  0
VERTEX
  5
417
100
AcDbEntity
  8
止水栓
  6
EXLTYPE2
 62
     6
100
AcDbVertex
100
AcDb2dVertex
 10
417.580742
 20
899.770064
 30
0.0
  0
VERTEX
  5
418
100
AcDbEntity
  8
止水栓
  6
EXLTYPE2
 62
     6
100
AcDbVertex
100
AcDb2dVertex
 10
417.390313
 20
899.584517
 30
0.0
  0
VERTEX
  5
419
100
AcDbEntity
  8
止水栓
  6
EXLTYPE2
 62
     6
100
AcDbVertex
100
AcDb2dVertex
 10
417.209649
 20
899.367232
 30
0.0
  0
VERTEX
  5
41A
100
AcDbEntity
  8
止水栓
  6
EXLTYPE2
 62
     6
100
AcDbVertex
100
AcDb2dVertex
 10
417.041192
 20
899.12065
 30
0.0
  0
VERTEX
  5
41B
100
AcDbEntity
  8
止水栓
  6
EXLTYPE2
 62
     6
100
AcDbVertex
100
AcDb2dVertex
 10
416.8825
 20
898.847212
 30
0.0
  0
VERTEX
  5
41C
100
AcDbEntity
  8
止水栓
  6
EXLTYPE2
 62
     6
100
AcDbVertex
100
AcDb2dVertex
 10
416.738457
 20
898.54936
 30
0.0
  0
VERTEX
  5
41D
100
AcDbEntity
  8
止水栓
  6
EXLTYPE2
 62
     6
100
AcDbVertex
100
AcDb2dVertex
 10
416.609063
 20
898.229536
 30
0.0
  0
VERTEX
  5
41E
100
AcDbEntity
  8
止水栓
  6
EXLTYPE2
 62
     6
100
AcDbVertex
100
AcDb2dVertex
 10
416.494317
 20
897.890181
 30
0.0
  0
VERTEX
  5
41F
100
AcDbEntity
  8
止水栓
  6
EXLTYPE2
 62
     6
100
AcDbVertex
100
AcDb2dVertex
 10
416.394219
 20
897.531294
 30
0.0
  0
VERTEX
  5
420
100
AcDbEntity
  8
止水栓
  6
EXLTYPE2
 62
     6
100
AcDbVertex
100
AcDb2dVertex
 10
416.313652
 20
897.157759
 30
0.0
  0
VERTEX
  5
421
100
AcDbEntity
  8
止水栓
  6
EXLTYPE2
 62
     6
100
AcDbVertex
100
AcDb2dVertex
 10
416.250176
 20
896.772017
 30
0.0
  0
SEQEND
  5
422
100
AcDbEntity
  8
止水栓
  6
EXLTYPE2
 62
     6
  0
POLYLINE
  5
423
100
AcDbEntity
  8
止水栓
  6
EXLTYPE2
 62
     6
100
AcDb2dPolyline
 66
     1
 10
0.0
 20
0.0
 30
0.0
 70
   128
  0
VERTEX
  5
424
100
AcDbEntity
  8
止水栓
  6
EXLTYPE2
 62
     6
100
AcDbVertex
100
AcDb2dVertex
 10
397.480645
 20
900.102095
 30
0.0
  0
VERTEX
  5
425
100
AcDbEntity
  8
止水栓
  6
EXLTYPE2
 62
     6
100
AcDbVertex
100
AcDb2dVertex
 10
397.292656
 20
899.9019
 30
0.0
  0
VERTEX
  5
426
100
AcDbEntity
  8
止水栓
  6
EXLTYPE2
 62
     6
100
AcDbVertex
100
AcDb2dVertex
 10
397.111992
 20
899.667525
 30
0.0
  0
VERTEX
  5
427
100
AcDbEntity
  8
止水栓
  6
EXLTYPE2
 62
     6
100
AcDbVertex
100
AcDb2dVertex
 10
396.941094
 20
899.403853
 30
0.0
  0
VERTEX
  5
428
100
AcDbEntity
  8
止水栓
  6
EXLTYPE2
 62
     6
100
AcDbVertex
100
AcDb2dVertex
 10
396.784844
 20
899.108443
 30
0.0
  0
VERTEX
  5
429
100
AcDbEntity
  8
止水栓
  6
EXLTYPE2
 62
     6
100
AcDbVertex
100
AcDb2dVertex
 10
396.640801
 20
898.788618
 30
0.0
  0
VERTEX
  5
42A
100
AcDbEntity
  8
止水栓
  6
EXLTYPE2
 62
     6
100
AcDbVertex
100
AcDb2dVertex
 10
396.508965
 20
898.441939
 30
0.0
  0
VERTEX
  5
42B
100
AcDbEntity
  8
止水栓
  6
EXLTYPE2
 62
     6
100
AcDbVertex
100
AcDb2dVertex
 10
396.394219
 20
898.075728
 30
0.0
  0
VERTEX
  5
42C
100
AcDbEntity
  8
止水栓
  6
EXLTYPE2
 62
     6
100
AcDbVertex
100
AcDb2dVertex
 10
396.296563
 20
897.689985
 30
0.0
  0
VERTEX
  5
42D
100
AcDbEntity
  8
止水栓
  6
EXLTYPE2
 62
     6
100
AcDbVertex
100
AcDb2dVertex
 10
396.215996
 20
897.287153
 30
0.0
  0
VERTEX
  5
42E
100
AcDbEntity
  8
止水栓
  6
EXLTYPE2
 62
     6
100
AcDbVertex
100
AcDb2dVertex
 10
396.150078
 20
896.872114
 30
0.0
  0
SEQEND
  5
42F
100
AcDbEntity
  8
止水栓
  6
EXLTYPE2
 62
     6
  0
LINE
  5
430
100
AcDbEntity
  8
止水栓
  6
EXLTYPE2
 62
     6
100
AcDbLine
 10
397.592949
 20
901.83061
 30
0.0
 11
419.532952
 21
901.83061
 31
0.0
  0
LINE
  5
431
100
AcDbEntity
  8
止水栓
  6
EXLTYPE3
 62
     6
100
AcDbLine
 10
440.172239
 20
985.810688
 30
0.0
 11
440.172239
 21
754.191669
 31
0.0
  0
LINE
  5
432
100
AcDbEntity
  8
止水栓
  6
EXLTYPE3
 62
     6
100
AcDbLine
 10
454.888906
 20
716.0
 30
0.0
 11
454.888906
 21
603.0
 31
0.0
  0
LINE
  5
433
100
AcDbEntity
  8
止水栓
  6
CONTINUOUS
 62
     6
100
AcDbLine
 10
1390.922928
 20
687.459733
 30
0.0
 11
1393.403005
 21
687.459733
 31
0.0
  0
LINE
  5
434
100
AcDbEntity
  8
止水栓
  6
CONTINUOUS
 62
     6
100
AcDbLine
 10
1386.920581
 20
688.459733
 30
0.0
 11
1393.403005
 21
688.459733
 31
0.0
  0
LINE
  5
435
100
AcDbEntity
  8
止水栓
  6
CONTINUOUS
 62
     6
100
AcDbLine
 10
1390.922928
 20
668.509733
 30
0.0
 11
1393.403005
 21
668.509733
 31
0.0
  0
LINE
  5
436
100
AcDbEntity
  8
止水栓
  6
CONTINUOUS
 62
     6
100
AcDbLine
 10
1387.922928
 20
667.509733
 30
0.0
 11
1393.403005
 21
667.509733
 31
0.0
  0
LINE
  5
437
100
AcDbEntity
  8
止水栓
  6
CONTINUOUS
 62
     6
100
AcDbLine
 10
1431.402517
 20
684.73397
 30
0.0
 11
1439.402517
 21
684.73397
 31
0.0
  0
LINE
  5
438
100
AcDbEntity
  8
止水栓
  6
CONTINUOUS
 62
     6
100
AcDbLine
 10
1431.402517
 20
671.23397
 30
0.0
 11
1439.402517
 21
671.23397
 31
0.0
  0
ARC
  5
439
100
AcDbEntity
  8
止水栓
  6
CONTINUOUS
 62
     6
100
AcDbCircle
 10
1417.902517
 20
682.73397
 30
0.0
 40
2.5
100
AcDbArc
 50
90.0
 51
180.0
  0
ARC
  5
43A
100
AcDbEntity
  8
止水栓
  6
CONTINUOUS
 62
     6
100
AcDbCircle
 10
1417.902517
 20
682.73397
 30
0.0
 40
2.5
100
AcDbArc
 50
0.0
 51
90.0
  0
LINE
  5
43B
100
AcDbEntity
  8
止水栓
  6
CONTINUOUS
 62
     6
100
AcDbLine
 10
1428.402517
 20
683.73397
 30
0.0
 11
1431.402517
 21
683.73397
 31
0.0
  0
ARC
  5
43C
100
AcDbEntity
  8
止水栓
  6
CONTINUOUS
 62
     6
100
AcDbCircle
 10
1425.902517
 20
682.73397
 30
0.0
 40
2.5
100
AcDbArc
 50
90.0
 51
180.0
  0
ARC
  5
43D
100
AcDbEntity
  8
止水栓
  6
CONTINUOUS
 62
     6
100
AcDbCircle
 10
1425.902517
 20
682.73397
 30
0.0
 40
2.5
100
AcDbArc
 50
0.0
 51
90.0
  0
LINE
  5
43E
100
AcDbEntity
  8
止水栓
  6
CONTINUOUS
 62
     6
100
AcDbLine
 10
1420.402517
 20
683.73397
 30
0.0
 11
1423.402517
 21
683.73397
 31
0.0
  0
ARC
  5
43F
100
AcDbEntity
  8
止水栓
  6
CONTINUOUS
 62
     6
100
AcDbCircle
 10
1417.902517
 20
673.23397
 30
0.0
 40
2.5
100
AcDbArc
 50
180.0
 51
270.0
  0
LINE
  5
440
100
AcDbEntity
  8
止水栓
  6
CONTINUOUS
 62
     6
100
AcDbLine
 10
1428.402517
 20
672.23397
 30
0.0
 11
1431.402517
 21
672.23397
 31
0.0
  0
LINE
  5
441
100
AcDbEntity
  8
止水栓
  6
CONTINUOUS
 62
     6
100
AcDbLine
 10
1420.402517
 20
672.23397
 30
0.0
 11
1423.402517
 21
672.23397
 31
0.0
  0
ARC
  5
442
100
AcDbEntity
  8
止水栓
  6
CONTINUOUS
 62
     6
100
AcDbCircle
 10
1417.902517
 20
673.23397
 30
0.0
 40
2.5
100
AcDbArc
 50
270.0
 51
0.0
  0
ARC
  5
443
100
AcDbEntity
  8
止水栓
  6
CONTINUOUS
 62
     6
100
AcDbCircle
 10
1425.902517
 20
673.23397
 30
0.0
 40
2.5
100
AcDbArc
 50
180.0
 51
270.0
  0
ARC
  5
444
100
AcDbEntity
  8
止水栓
  6
CONTINUOUS
 62
     6
100
AcDbCircle
 10
1425.902517
 20
673.23397
 30
0.0
 40
2.5
100
AcDbArc
 50
270.0
 51
0.0
  0
LINE
  5
445
100
AcDbEntity
  8
止水栓
  6
CONTINUOUS
 62
     6
100
AcDbLine
 10
1431.402517
 20
671.23397
 30
0.0
 11
1431.402517
 21
684.73397
 31
0.0
  0
LINE
  5
446
100
AcDbEntity
  8
止水栓
  6
CONTINUOUS
 62
     6
100
AcDbLine
 10
1420.402517
 20
673.23397
 30
0.0
 11
1420.402517
 21
682.73397
 31
0.0
  0
LINE
  5
447
100
AcDbEntity
  8
止水栓
  6
CONTINUOUS
 62
     6
100
AcDbLine
 10
1428.402517
 20
673.23397
 30
0.0
 11
1428.402517
 21
682.73397
 31
0.0
  0
LINE
  5
448
100
AcDbEntity
  8
止水栓
  6
CONTINUOUS
 62
     6
100
AcDbLine
 10
1423.402517
 20
673.23397
 30
0.0
 11
1423.402517
 21
682.73397
 31
0.0
  0
LINE
  5
449
100
AcDbEntity
  8
止水栓
  6
CONTINUOUS
 62
     6
100
AcDbLine
 10
1439.402517
 20
671.23397
 30
0.0
 11
1439.402517
 21
684.73397
 31
0.0
  0
ARC
  5
44A
100
AcDbEntity
  8
止水栓
  6
CONTINUOUS
 62
     6
100
AcDbCircle
 10
1399.401541
 20
679.734458
 30
0.0
 40
10.99987
100
AcDbArc
 50
56.937744
 51
123.054687
  0
POLYLINE
  5
44B
100
AcDbEntity
  8
止水栓
  6
CONTINUOUS
 62
     6
100
AcDb2dPolyline
 66
     1
 10
0.0
 20
0.0
 30
0.0
 70
   128
  0
VERTEX
  5
44C
100
AcDbEntity
  8
止水栓
  6
CONTINUOUS
 62
     6
100
AcDbVertex
100
AcDb2dVertex
 10
1399.66033
 20
685.586509
 30
0.0
  0
VERTEX
  5
44D
100
AcDbEntity
  8
止水栓
  6
CONTINUOUS
 62
     6
100
AcDbVertex
100
AcDb2dVertex
 10
1400.063162
 20
685.596274
 30
0.0
  0
VERTEX
  5
44E
100
AcDbEntity
  8
止水栓
  6
CONTINUOUS
 62
     6
100
AcDbVertex
100
AcDb2dVertex
 10
1400.463552
 20
685.625571
 30
0.0
  0
VERTEX
  5
44F
100
AcDbEntity
  8
止水栓
  6
CONTINUOUS
 62
     6
100
AcDbVertex
100
AcDb2dVertex
 10
1400.85906
 20
685.671958
 30
0.0
  0
VERTEX
  5
450
100
AcDbEntity
  8
止水栓
  6
CONTINUOUS
 62
     6
100
AcDbVertex
100
AcDb2dVertex
 10
1401.242361
 20
685.735435
 30
0.0
  0
VERTEX
  5
451
100
AcDbEntity
  8
止水栓
  6
CONTINUOUS
 62
     6
100
AcDbVertex
100
AcDb2dVertex
 10
1401.615896
 20
685.816001
 30
0.0
  0
VERTEX
  5
452
100
AcDbEntity
  8
止水栓
  6
CONTINUOUS
 62
     6
100
AcDbVertex
100
AcDb2dVertex
 10
1401.974783
 20
685.916099
 30
0.0
  0
VERTEX
  5
453
100
AcDbEntity
  8
止水栓
  6
CONTINUOUS
 62
     6
100
AcDbVertex
100
AcDb2dVertex
 10
1402.314138
 20
686.030845
 30
0.0
  0
VERTEX
  5
454
100
AcDbEntity
  8
止水栓
  6
CONTINUOUS
 62
     6
100
AcDbVertex
100
AcDb2dVertex
 10
1402.636404
 20
686.160239
 30
0.0
  0
VERTEX
  5
455
100
AcDbEntity
  8
止水栓
  6
CONTINUOUS
 62
     6
100
AcDbVertex
100
AcDb2dVertex
 10
1402.934255
 20
686.304282
 30
0.0
  0
VERTEX
  5
456
100
AcDbEntity
  8
止水栓
  6
CONTINUOUS
 62
     6
100
AcDbVertex
100
AcDb2dVertex
 10
1403.205251
 20
686.462974
 30
0.0
  0
VERTEX
  5
457
100
AcDbEntity
  8
止水栓
  6
CONTINUOUS
 62
     6
100
AcDbVertex
100
AcDb2dVertex
 10
1403.451834
 20
686.631431
 30
0.0
  0
VERTEX
  5
458
100
AcDbEntity
  8
止水栓
  6
CONTINUOUS
 62
     6
100
AcDbVertex
100
AcDb2dVertex
 10
1403.669119
 20
686.812095
 30
0.0
  0
VERTEX
  5
459
100
AcDbEntity
  8
止水栓
  6
CONTINUOUS
 62
     6
100
AcDbVertex
100
AcDb2dVertex
 10
1403.857107
 20
687.002524
 30
0.0
  0
VERTEX
  5
45A
100
AcDbEntity
  8
止水栓
  6
CONTINUOUS
 62
     6
100
AcDbVertex
100
AcDb2dVertex
 10
1404.010916
 20
687.200278
 30
0.0
  0
VERTEX
  5
45B
100
AcDbEntity
  8
止水栓
  6
CONTINUOUS
 62
     6
100
AcDbVertex
100
AcDb2dVertex
 10
1404.130544
 20
687.402915
 30
0.0
  0
VERTEX
  5
45C
100
AcDbEntity
  8
止水栓
  6
CONTINUOUS
 62
     6
100
AcDbVertex
100
AcDb2dVertex
 10
1404.218435
 20
687.612876
 30
0.0
  0
VERTEX
  5
45D
100
AcDbEntity
  8
止水栓
  6
CONTINUOUS
 62
     6
100
AcDbVertex
100
AcDb2dVertex
 10
1404.272146
 20
687.822837
 30
0.0
  0
VERTEX
  5
45E
100
AcDbEntity
  8
止水栓
  6
CONTINUOUS
 62
     6
100
AcDbVertex
100
AcDb2dVertex
 10
1404.289236
 20
688.037681
 30
0.0
  0
VERTEX
  5
45F
100
AcDbEntity
  8
止水栓
  6
CONTINUOUS
 62
     6
100
AcDbVertex
100
AcDb2dVertex
 10
1404.272146
 20
688.250083
 30
0.0
  0
VERTEX
  5
460
100
AcDbEntity
  8
止水栓
  6
CONTINUOUS
 62
     6
100
AcDbVertex
100
AcDb2dVertex
 10
1404.218435
 20
688.462485
 30
0.0
  0
VERTEX
  5
461
100
AcDbEntity
  8
止水栓
  6
CONTINUOUS
 62
     6
100
AcDbVertex
100
AcDb2dVertex
 10
1404.130544
 20
688.672446
 30
0.0
  0
VERTEX
  5
462
100
AcDbEntity
  8
止水栓
  6
CONTINUOUS
 62
     6
100
AcDbVertex
100
AcDb2dVertex
 10
1404.010916
 20
688.875083
 30
0.0
  0
VERTEX
  5
463
100
AcDbEntity
  8
止水栓
  6
CONTINUOUS
 62
     6
100
AcDbVertex
100
AcDb2dVertex
 10
1403.854666
 20
689.072837
 30
0.0
  0
VERTEX
  5
464
100
AcDbEntity
  8
止水栓
  6
CONTINUOUS
 62
     6
100
AcDbVertex
100
AcDb2dVertex
 10
1403.669119
 20
689.260825
 30
0.0
  0
VERTEX
  5
465
100
AcDbEntity
  8
止水栓
  6
CONTINUOUS
 62
     6
100
AcDbVertex
100
AcDb2dVertex
 10
1403.451834
 20
689.441489
 30
0.0
  0
VERTEX
  5
466
100
AcDbEntity
  8
止水栓
  6
CONTINUOUS
 62
     6
100
AcDbVertex
100
AcDb2dVertex
 10
1403.207693
 20
689.612388
 30
0.0
  0
VERTEX
  5
467
100
AcDbEntity
  8
止水栓
  6
CONTINUOUS
 62
     6
100
AcDbVertex
100
AcDb2dVertex
 10
1402.934255
 20
689.768638
 30
0.0
  0
VERTEX
  5
468
100
AcDbEntity
  8
止水栓
  6
CONTINUOUS
 62
     6
100
AcDbVertex
100
AcDb2dVertex
 10
1402.636404
 20
689.912681
 30
0.0
  0
VERTEX
  5
469
100
AcDbEntity
  8
止水栓
  6
CONTINUOUS
 62
     6
100
AcDbVertex
100
AcDb2dVertex
 10
1402.314138
 20
690.044517
 30
0.0
  0
VERTEX
  5
46A
100
AcDbEntity
  8
止水栓
  6
CONTINUOUS
 62
     6
100
AcDbVertex
100
AcDb2dVertex
 10
1401.974783
 20
690.159263
 30
0.0
  0
VERTEX
  5
46B
100
AcDbEntity
  8
止水栓
  6
CONTINUOUS
 62
     6
100
AcDbVertex
100
AcDb2dVertex
 10
1401.615896
 20
690.256919
 30
0.0
  0
VERTEX
  5
46C
100
AcDbEntity
  8
止水栓
  6
CONTINUOUS
 62
     6
100
AcDbVertex
100
AcDb2dVertex
 10
1401.244802
 20
690.337485
 30
0.0
  0
VERTEX
  5
46D
100
AcDbEntity
  8
止水栓
  6
CONTINUOUS
 62
     6
100
AcDbVertex
100
AcDb2dVertex
 10
1400.85906
 20
690.403403
 30
0.0
  0
VERTEX
  5
46E
100
AcDbEntity
  8
止水栓
  6
CONTINUOUS
 62
     6
100
AcDbVertex
100
AcDb2dVertex
 10
1400.463552
 20
690.44979
 30
0.0
  0
VERTEX
  5
46F
100
AcDbEntity
  8
止水栓
  6
CONTINUOUS
 62
     6
100
AcDbVertex
100
AcDb2dVertex
 10
1400.063162
 20
690.476645
 30
0.0
  0
VERTEX
  5
470
100
AcDbEntity
  8
止水栓
  6
CONTINUOUS
 62
     6
100
AcDbVertex
100
AcDb2dVertex
 10
1399.66033
 20
690.486411
 30
0.0
  0
VERTEX
  5
471
100
AcDbEntity
  8
止水栓
  6
CONTINUOUS
 62
     6
100
AcDbVertex
100
AcDb2dVertex
 10
1399.257498
 20
690.476645
 30
0.0
  0
VERTEX
  5
472
100
AcDbEntity
  8
止水栓
  6
CONTINUOUS
 62
     6
100
AcDbVertex
100
AcDb2dVertex
 10
1398.857107
 20
690.44979
 30
0.0
  0
VERTEX
  5
473
100
AcDbEntity
  8
止水栓
  6
CONTINUOUS
 62
     6
100
AcDbVertex
100
AcDb2dVertex
 10
1398.461599
 20
690.403403
 30
0.0
  0
VERTEX
  5
474
100
AcDbEntity
  8
止水栓
  6
CONTINUOUS
 62
     6
100
AcDbVertex
100
AcDb2dVertex
 10
1398.075857
 20
690.339927
 30
0.0
  0
VERTEX
  5
475
100
AcDbEntity
  8
止水栓
  6
CONTINUOUS
 62
     6
100
AcDbVertex
100
AcDb2dVertex
 10
1397.702322
 20
690.256919
 30
0.0
  0
VERTEX
  5
476
100
AcDbEntity
  8
止水栓
  6
CONTINUOUS
 62
     6
100
AcDbVertex
100
AcDb2dVertex
 10
1397.343435
 20
690.159263
 30
0.0
  0
VERTEX
  5
477
100
AcDbEntity
  8
止水栓
  6
CONTINUOUS
 62
     6
100
AcDbVertex
100
AcDb2dVertex
 10
1397.00408
 20
690.044517
 30
0.0
  0
VERTEX
  5
478
100
AcDbEntity
  8
止水栓
  6
CONTINUOUS
 62
     6
100
AcDbVertex
100
AcDb2dVertex
 10
1396.681814
 20
689.912681
 30
0.0
  0
VERTEX
  5
479
100
AcDbEntity
  8
止水栓
  6
CONTINUOUS
 62
     6
100
AcDbVertex
100
AcDb2dVertex
 10
1396.386404
 20
689.768638
 30
0.0
  0
VERTEX
  5
47A
100
AcDbEntity
  8
止水栓
  6
CONTINUOUS
 62
     6
100
AcDbVertex
100
AcDb2dVertex
 10
1396.112966
 20
689.612388
 30
0.0
  0
VERTEX
  5
47B
100
AcDbEntity
  8
止水栓
  6
CONTINUOUS
 62
     6
100
AcDbVertex
100
AcDb2dVertex
 10
1395.866384
 20
689.441489
 30
0.0
  0
VERTEX
  5
47C
100
AcDbEntity
  8
止水栓
  6
CONTINUOUS
 62
     6
100
AcDbVertex
100
AcDb2dVertex
 10
1395.649099
 20
689.263267
 30
0.0
  0
VERTEX
  5
47D
100
AcDbEntity
  8
止水栓
  6
CONTINUOUS
 62
     6
100
AcDbVertex
100
AcDb2dVertex
 10
1395.463552
 20
689.072837
 30
0.0
  0
VERTEX
  5
47E
100
AcDbEntity
  8
止水栓
  6
CONTINUOUS
 62
     6
100
AcDbVertex
100
AcDb2dVertex
 10
1395.309744
 20
688.875083
 30
0.0
  0
VERTEX
  5
47F
100
AcDbEntity
  8
止水栓
  6
CONTINUOUS
 62
     6
100
AcDbVertex
100
AcDb2dVertex
 10
1395.187673
 20
688.672446
 30
0.0
  0
VERTEX
  5
480
100
AcDbEntity
  8
止水栓
  6
CONTINUOUS
 62
     6
100
AcDbVertex
100
AcDb2dVertex
 10
1395.099783
 20
688.462485
 30
0.0
  0
VERTEX
  5
481
100
AcDbEntity
  8
止水栓
  6
CONTINUOUS
 62
     6
100
AcDbVertex
100
AcDb2dVertex
 10
1395.046072
 20
688.250083
 30
0.0
  0
VERTEX
  5
482
100
AcDbEntity
  8
止水栓
  6
CONTINUOUS
 62
     6
100
AcDbVertex
100
AcDb2dVertex
 10
1395.028982
 20
688.037681
 30
0.0
  0
VERTEX
  5
483
100
AcDbEntity
  8
止水栓
  6
CONTINUOUS
 62
     6
100
AcDbVertex
100
AcDb2dVertex
 10
1395.048513
 20
687.822837
 30
0.0
  0
VERTEX
  5
484
100
AcDbEntity
  8
止水栓
  6
CONTINUOUS
 62
     6
100
AcDbVertex
100
AcDb2dVertex
 10
1395.099783
 20
687.612876
 30
0.0
  0
VERTEX
  5
485
100
AcDbEntity
  8
止水栓
  6
CONTINUOUS
 62
     6
100
AcDbVertex
100
AcDb2dVertex
 10
1395.187673
 20
687.402915
 30
0.0
  0
VERTEX
  5
486
100
AcDbEntity
  8
止水栓
  6
CONTINUOUS
 62
     6
100
AcDbVertex
100
AcDb2dVertex
 10
1395.309744
 20
687.200278
 30
0.0
  0
VERTEX
  5
487
100
AcDbEntity
  8
止水栓
  6
CONTINUOUS
 62
     6
100
AcDbVertex
100
AcDb2dVertex
 10
1395.463552
 20
687.002524
 30
0.0
  0
SEQEND
  5
488
100
AcDbEntity
  8
止水栓
  6
CONTINUOUS
 62
     6
  0
LINE
  5
489
100
AcDbEntity
  8
止水栓
  6
CONTINUOUS
 62
     6
100
AcDbLine
 10
1410.402517
 20
681.98397
 30
0.0
 11
1412.402517
 21
681.98397
 31
0.0
  0
LINE
  5
48A
100
AcDbEntity
  8
止水栓
  6
CONTINUOUS
 62
     6
100
AcDbLine
 10
1412.402517
 20
683.73397
 30
0.0
 11
1415.402517
 21
683.73397
 31
0.0
  0
LINE
  5
48B
100
AcDbEntity
  8
止水栓
  6
CONTINUOUS
 62
     6
100
AcDbLine
 10
1405.402517
 20
688.48397
 30
0.0
 11
1410.402517
 21
688.48397
 31
0.0
  0
POLYLINE
  5
48C
100
AcDbEntity
  8
止水栓
  6
CONTINUOUS
 62
     6
100
AcDb2dPolyline
 66
     1
 10
0.0
 20
0.0
 30
0.0
 70
   128
  0
VERTEX
  5
48D
100
AcDbEntity
  8
止水栓
  6
CONTINUOUS
 62
     6
100
AcDbVertex
100
AcDb2dVertex
 10
1399.653005
 20
665.488853
 30
0.0
  0
VERTEX
  5
48E
100
AcDbEntity
  8
止水栓
  6
CONTINUOUS
 62
     6
100
AcDbVertex
100
AcDb2dVertex
 10
1400.090017
 20
665.498618
 30
0.0
  0
VERTEX
  5
48F
100
AcDbEntity
  8
止水栓
  6
CONTINUOUS
 62
     6
100
AcDbVertex
100
AcDb2dVertex
 10
1400.522146
 20
665.525474
 30
0.0
  0
VERTEX
  5
490
100
AcDbEntity
  8
止水栓
  6
CONTINUOUS
 62
     6
100
AcDbVertex
100
AcDb2dVertex
 10
1400.946951
 20
665.57186
 30
0.0
  0
VERTEX
  5
491
100
AcDbEntity
  8
止水栓
  6
CONTINUOUS
 62
     6
100
AcDbVertex
100
AcDb2dVertex
 10
1401.36199
 20
665.637778
 30
0.0
  0
VERTEX
  5
492
100
AcDbEntity
  8
止水栓
  6
CONTINUOUS
 62
     6
100
AcDbVertex
100
AcDb2dVertex
 10
1401.76238
 20
665.718345
 30
0.0
  0
VERTEX
  5
493
100
AcDbEntity
  8
止水栓
  6
CONTINUOUS
 62
     6
100
AcDbVertex
100
AcDb2dVertex
 10
1402.148123
 20
665.816001
 30
0.0
  0
VERTEX
  5
494
100
AcDbEntity
  8
止水栓
  6
CONTINUOUS
 62
     6
100
AcDbVertex
100
AcDb2dVertex
 10
1402.516775
 20
665.933188
 30
0.0
  0
VERTEX
  5
495
100
AcDbEntity
  8
止水栓
  6
CONTINUOUS
 62
     6
100
AcDbVertex
100
AcDb2dVertex
 10
1402.861013
 20
666.062583
 30
0.0
  0
VERTEX
  5
496
100
AcDbEntity
  8
止水栓
  6
CONTINUOUS
 62
     6
100
AcDbVertex
100
AcDb2dVertex
 10
1403.183279
 20
666.206626
 30
0.0
  0
VERTEX
  5
497
100
AcDbEntity
  8
止水栓
  6
CONTINUOUS
 62
     6
100
AcDbVertex
100
AcDb2dVertex
 10
1403.476248
 20
666.365317
 30
0.0
  0
VERTEX
  5
498
100
AcDbEntity
  8
止水栓
  6
CONTINUOUS
 62
     6
100
AcDbVertex
100
AcDb2dVertex
 10
1403.742361
 20
666.533774
 30
0.0
  0
VERTEX
  5
499
100
AcDbEntity
  8
止水栓
  6
CONTINUOUS
 62
     6
100
AcDbVertex
100
AcDb2dVertex
 10
1403.974294
 20
666.714438
 30
0.0
  0
VERTEX
  5
49A
100
AcDbEntity
  8
止水栓
  6
CONTINUOUS
 62
     6
100
AcDbVertex
100
AcDb2dVertex
 10
1404.176931
 20
666.902427
 30
0.0
  0
VERTEX
  5
49B
100
AcDbEntity
  8
止水栓
  6
CONTINUOUS
 62
     6
100
AcDbVertex
100
AcDb2dVertex
 10
1404.342947
 20
667.100181
 30
0.0
  0
VERTEX
  5
49C
100
AcDbEntity
  8
止水栓
  6
CONTINUOUS
 62
     6
100
AcDbVertex
100
AcDb2dVertex
 10
1404.474783
 20
667.305259
 30
0.0
  0
VERTEX
  5
49D
100
AcDbEntity
  8
止水栓
  6
CONTINUOUS
 62
     6
100
AcDbVertex
100
AcDb2dVertex
 10
1404.567556
 20
667.512778
 30
0.0
  0
VERTEX
  5
49E
100
AcDbEntity
  8
止水栓
  6
CONTINUOUS
 62
     6
100
AcDbVertex
100
AcDb2dVertex
 10
1404.62615
 20
667.725181
 30
0.0
  0
VERTEX
  5
49F
100
AcDbEntity
  8
止水栓
  6
CONTINUOUS
 62
     6
100
AcDbVertex
100
AcDb2dVertex
 10
1404.64324
 20
667.937583
 30
0.0
  0
VERTEX
  5
4A0
100
AcDbEntity
  8
止水栓
  6
CONTINUOUS
 62
     6
100
AcDbVertex
100
AcDb2dVertex
 10
1404.623709
 20
668.152427
 30
0.0
  0
VERTEX
  5
4A1
100
AcDbEntity
  8
止水栓
  6
CONTINUOUS
 62
     6
100
AcDbVertex
100
AcDb2dVertex
 10
1404.567556
 20
668.364829
 30
0.0
  0
VERTEX
  5
4A2
100
AcDbEntity
  8
止水栓
  6
CONTINUOUS
 62
     6
100
AcDbVertex
100
AcDb2dVertex
 10
1404.474783
 20
668.572349
 30
0.0
  0
VERTEX
  5
4A3
100
AcDbEntity
  8
止水栓
  6
CONTINUOUS
 62
     6
100
AcDbVertex
100
AcDb2dVertex
 10
1404.342947
 20
668.777427
 30
0.0
  0
VERTEX
  5
4A4
100
AcDbEntity
  8
止水栓
  6
CONTINUOUS
 62
     6
100
AcDbVertex
100
AcDb2dVertex
 10
1404.176931
 20
668.975181
 30
0.0
  0
VERTEX
  5
4A5
100
AcDbEntity
  8
止水栓
  6
CONTINUOUS
 62
     6
100
AcDbVertex
100
AcDb2dVertex
 10
1403.974294
 20
669.163169
 30
0.0
  0
VERTEX
  5
4A6
100
AcDbEntity
  8
止水栓
  6
CONTINUOUS
 62
     6
100
AcDbVertex
100
AcDb2dVertex
 10
1403.739919
 20
669.343833
 30
0.0
  0
VERTEX
  5
4A7
100
AcDbEntity
  8
止水栓
  6
CONTINUOUS
 62
     6
100
AcDbVertex
100
AcDb2dVertex
 10
1403.476248
 20
669.51229
 30
0.0
  0
VERTEX
  5
4A8
100
AcDbEntity
  8
止水栓
  6
CONTINUOUS
 62
     6
100
AcDbVertex
100
AcDb2dVertex
 10
1403.183279
 20
669.670981
 30
0.0
  0
VERTEX
  5
4A9
100
AcDbEntity
  8
止水栓
  6
CONTINUOUS
 62
     6
100
AcDbVertex
100
AcDb2dVertex
 10
1402.861013
 20
669.815024
 30
0.0
  0
VERTEX
  5
4AA
100
AcDbEntity
  8
止水栓
  6
CONTINUOUS
 62
     6
100
AcDbVertex
100
AcDb2dVertex
 10
1402.516775
 20
669.944419
 30
0.0
  0
VERTEX
  5
4AB
100
AcDbEntity
  8
止水栓
  6
CONTINUOUS
 62
     6
100
AcDbVertex
100
AcDb2dVertex
 10
1402.148123
 20
670.059165
 30
0.0
  0
VERTEX
  5
4AC
100
AcDbEntity
  8
止水栓
  6
CONTINUOUS
 62
     6
100
AcDbVertex
100
AcDb2dVertex
 10
1401.76238
 20
670.159263
 30
0.0
  0
VERTEX
  5
4AD
100
AcDbEntity
  8
止水栓
  6
CONTINUOUS
 62
     6
100
AcDbVertex
100
AcDb2dVertex
 10
1401.359548
 20
670.239829
 30
0.0
  0
VERTEX
  5
4AE
100
AcDbEntity
  8
止水栓
  6
CONTINUOUS
 62
     6
100
AcDbVertex
100
AcDb2dVertex
 10
1400.944509
 20
670.305747
 30
0.0
  0
VERTEX
  5
4AF
100
AcDbEntity
  8
止水栓
  6
CONTINUOUS
 62
     6
100
AcDbVertex
100
AcDb2dVertex
 10
1400.519705
 20
670.352134
 30
0.0
  0
VERTEX
  5
4B0
100
AcDbEntity
  8
止水栓
  6
CONTINUOUS
 62
     6
100
AcDbVertex
100
AcDb2dVertex
 10
1400.087576
 20
670.378989
 30
0.0
  0
VERTEX
  5
4B1
100
AcDbEntity
  8
止水栓
  6
CONTINUOUS
 62
     6
100
AcDbVertex
100
AcDb2dVertex
 10
1399.653005
 20
670.388755
 30
0.0
  0
VERTEX
  5
4B2
100
AcDbEntity
  8
止水栓
  6
CONTINUOUS
 62
     6
100
AcDbVertex
100
AcDb2dVertex
 10
1399.218435
 20
670.378989
 30
0.0
  0
VERTEX
  5
4B3
100
AcDbEntity
  8
止水栓
  6
CONTINUOUS
 62
     6
100
AcDbVertex
100
AcDb2dVertex
 10
1398.786306
 20
670.349692
 30
0.0
  0
VERTEX
  5
4B4
100
AcDbEntity
  8
止水栓
  6
CONTINUOUS
 62
     6
100
AcDbVertex
100
AcDb2dVertex
 10
1398.361501
 20
670.303306
 30
0.0
  0
VERTEX
  5
4B5
100
AcDbEntity
  8
止水栓
  6
CONTINUOUS
 62
     6
100
AcDbVertex
100
AcDb2dVertex
 10
1397.946462
 20
670.239829
 30
0.0
  0
VERTEX
  5
4B6
100
AcDbEntity
  8
止水栓
  6
CONTINUOUS
 62
     6
100
AcDbVertex
100
AcDb2dVertex
 10
1397.54363
 20
670.159263
 30
0.0
  0
VERTEX
  5
4B7
100
AcDbEntity
  8
止水栓
  6
CONTINUOUS
 62
     6
100
AcDbVertex
100
AcDb2dVertex
 10
1397.157888
 20
670.059165
 30
0.0
  0
VERTEX
  5
4B8
100
AcDbEntity
  8
止水栓
  6
CONTINUOUS
 62
     6
100
AcDbVertex
100
AcDb2dVertex
 10
1396.791677
 20
669.944419
 30
0.0
  0
VERTEX
  5
4B9
100
AcDbEntity
  8
止水栓
  6
CONTINUOUS
 62
     6
100
AcDbVertex
100
AcDb2dVertex
 10
1396.444998
 20
669.815024
 30
0.0
  0
VERTEX
  5
4BA
100
AcDbEntity
  8
止水栓
  6
CONTINUOUS
 62
     6
100
AcDbVertex
100
AcDb2dVertex
 10
1396.125173
 20
669.670981
 30
0.0
  0
VERTEX
  5
4BB
100
AcDbEntity
  8
止水栓
  6
CONTINUOUS
 62
     6
100
AcDbVertex
100
AcDb2dVertex
 10
1395.829763
 20
669.51229
 30
0.0
  0
VERTEX
  5
4BC
100
AcDbEntity
  8
止水栓
  6
CONTINUOUS
 62
     6
100
AcDbVertex
100
AcDb2dVertex
 10
1395.566091
 20
669.343833
 30
0.0
  0
VERTEX
  5
4BD
100
AcDbEntity
  8
止水栓
  6
CONTINUOUS
 62
     6
100
AcDbVertex
100
AcDb2dVertex
 10
1395.331716
 20
669.163169
 30
0.0
  0
VERTEX
  5
4BE
100
AcDbEntity
  8
止水栓
  6
CONTINUOUS
 62
     6
100
AcDbVertex
100
AcDb2dVertex
 10
1395.131521
 20
668.975181
 30
0.0
  0
VERTEX
  5
4BF
100
AcDbEntity
  8
止水栓
  6
CONTINUOUS
 62
     6
100
AcDbVertex
100
AcDb2dVertex
 10
1394.963064
 20
668.777427
 30
0.0
  0
VERTEX
  5
4C0
100
AcDbEntity
  8
止水栓
  6
CONTINUOUS
 62
     6
100
AcDbVertex
100
AcDb2dVertex
 10
1394.833669
 20
668.572349
 30
0.0
  0
VERTEX
  5
4C1
100
AcDbEntity
  8
止水栓
  6
CONTINUOUS
 62
     6
100
AcDbVertex
100
AcDb2dVertex
 10
1394.738455
 20
668.364829
 30
0.0
  0
VERTEX
  5
4C2
100
AcDbEntity
  8
止水栓
  6
CONTINUOUS
 62
     6
100
AcDbVertex
100
AcDb2dVertex
 10
1394.682302
 20
668.152427
 30
0.0
  0
VERTEX
  5
4C3
100
AcDbEntity
  8
止水栓
  6
CONTINUOUS
 62
     6
100
AcDbVertex
100
AcDb2dVertex
 10
1394.662771
 20
667.937583
 30
0.0
  0
VERTEX
  5
4C4
100
AcDbEntity
  8
止水栓
  6
CONTINUOUS
 62
     6
100
AcDbVertex
100
AcDb2dVertex
 10
1394.682302
 20
667.725181
 30
0.0
  0
VERTEX
  5
4C5
100
AcDbEntity
  8
止水栓
  6
CONTINUOUS
 62
     6
100
AcDbVertex
100
AcDb2dVertex
 10
1394.738455
 20
667.512778
 30
0.0
  0
VERTEX
  5
4C6
100
AcDbEntity
  8
止水栓
  6
CONTINUOUS
 62
     6
100
AcDbVertex
100
AcDb2dVertex
 10
1394.833669
 20
667.305259
 30
0.0
  0
VERTEX
  5
4C7
100
AcDbEntity
  8
止水栓
  6
CONTINUOUS
 62
     6
100
AcDbVertex
100
AcDb2dVertex
 10
1394.963064
 20
667.100181
 30
0.0
  0
VERTEX
  5
4C8
100
AcDbEntity
  8
止水栓
  6
CONTINUOUS
 62
     6
100
AcDbVertex
100
AcDb2dVertex
 10
1395.131521
 20
666.902427
 30
0.0
  0
SEQEND
  5
4C9
100
AcDbEntity
  8
止水栓
  6
CONTINUOUS
 62
     6
  0
ARC
  5
4CA
100
AcDbEntity
  8
止水栓
  6
CONTINUOUS
 62
     6
100
AcDbCircle
 10
1399.401541
 20
676.233481
 30
0.0
 40
10.998535
100
AcDbArc
 50
236.94841
 51
303.059082
  0
LINE
  5
4CB
100
AcDbEntity
  8
止水栓
  6
CONTINUOUS
 62
     6
100
AcDbLine
 10
1410.402517
 20
673.98397
 30
0.0
 11
1412.402517
 21
673.98397
 31
0.0
  0
LINE
  5
4CC
100
AcDbEntity
  8
止水栓
  6
CONTINUOUS
 62
     6
100
AcDbLine
 10
1412.402517
 20
672.23397
 30
0.0
 11
1415.402517
 21
672.23397
 31
0.0
  0
LINE
  5
4CD
100
AcDbEntity
  8
止水栓
  6
CONTINUOUS
 62
     6
100
AcDbLine
 10
1405.402517
 20
667.48397
 30
0.0
 11
1410.402517
 21
667.48397
 31
0.0
  0
LINE
  5
4CE
100
AcDbEntity
  8
止水栓
  6
CONTINUOUS
 62
     6
100
AcDbLine
 10
1405.402517
 20
667.014731
 30
0.0
 11
1405.402517
 21
688.953208
 31
0.0
  0
LINE
  5
4CF
100
AcDbEntity
  8
止水栓
  6
CONTINUOUS
 62
     6
100
AcDbLine
 10
1410.402517
 20
667.48397
 30
0.0
 11
1410.402517
 21
688.48397
 31
0.0
  0
POLYLINE
  5
4D0
100
AcDbEntity
  8
止水栓
  6
CONTINUOUS
 62
     6
100
AcDb2dPolyline
 66
     1
 10
0.0
 20
0.0
 30
0.0
 70
   128
  0
VERTEX
  5
4D1
100
AcDbEntity
  8
止水栓
  6
CONTINUOUS
 62
     6
100
AcDbVertex
100
AcDb2dVertex
 10
1405.187673
 20
677.98397
 30
0.0
  0
VERTEX
  5
4D2
100
AcDbEntity
  8
止水栓
  6
CONTINUOUS
 62
     6
100
AcDbVertex
100
AcDb2dVertex
 10
1405.165701
 20
678.482017
 30
0.0
  0
VERTEX
  5
4D3
100
AcDbEntity
  8
止水栓
  6
CONTINUOUS
 62
     6
100
AcDbVertex
100
AcDb2dVertex
 10
1405.099783
 20
678.977622
 30
0.0
  0
VERTEX
  5
4D4
100
AcDbEntity
  8
止水栓
  6
CONTINUOUS
 62
     6
100
AcDbVertex
100
AcDb2dVertex
 10
1404.997244
 20
679.465903
 30
0.0
  0
VERTEX
  5
4D5
100
AcDbEntity
  8
止水栓
  6
CONTINUOUS
 62
     6
100
AcDbVertex
100
AcDb2dVertex
 10
1404.850759
 20
679.951743
 30
0.0
  0
VERTEX
  5
4D6
100
AcDbEntity
  8
止水栓
  6
CONTINUOUS
 62
     6
100
AcDbVertex
100
AcDb2dVertex
 10
1404.665212
 20
680.420493
 30
0.0
  0
VERTEX
  5
4D7
100
AcDbEntity
  8
止水栓
  6
CONTINUOUS
 62
     6
100
AcDbVertex
100
AcDb2dVertex
 10
1404.443044
 20
680.872153
 30
0.0
  0
VERTEX
  5
4D8
100
AcDbEntity
  8
止水栓
  6
CONTINUOUS
 62
     6
100
AcDbVertex
100
AcDb2dVertex
 10
1404.181814
 20
681.301841
 30
0.0
  0
VERTEX
  5
4D9
100
AcDbEntity
  8
止水栓
  6
CONTINUOUS
 62
     6
100
AcDbVertex
100
AcDb2dVertex
 10
1403.886404
 20
681.704673
 30
0.0
  0
VERTEX
  5
4DA
100
AcDbEntity
  8
止水栓
  6
CONTINUOUS
 62
     6
100
AcDbVertex
100
AcDb2dVertex
 10
1403.559255
 20
682.080649
 30
0.0
  0
VERTEX
  5
4DB
100
AcDbEntity
  8
止水栓
  6
CONTINUOUS
 62
     6
100
AcDbVertex
100
AcDb2dVertex
 10
1403.200369
 20
682.422446
 30
0.0
  0
VERTEX
  5
4DC
100
AcDbEntity
  8
止水栓
  6
CONTINUOUS
 62
     6
100
AcDbVertex
100
AcDb2dVertex
 10
1402.814626
 20
682.732505
 30
0.0
  0
VERTEX
  5
4DD
100
AcDbEntity
  8
止水栓
  6
CONTINUOUS
 62
     6
100
AcDbVertex
100
AcDb2dVertex
 10
1402.406912
 20
683.005942
 30
0.0
  0
VERTEX
  5
4DE
100
AcDbEntity
  8
止水栓
  6
CONTINUOUS
 62
     6
100
AcDbVertex
100
AcDb2dVertex
 10
1401.977224
 20
683.242759
 30
0.0
  0
VERTEX
  5
4DF
100
AcDbEntity
  8
止水栓
  6
CONTINUOUS
 62
     6
100
AcDbVertex
100
AcDb2dVertex
 10
1401.528005
 20
683.43563
 30
0.0
  0
VERTEX
  5
4E0
100
AcDbEntity
  8
止水栓
  6
CONTINUOUS
 62
     6
100
AcDbVertex
100
AcDb2dVertex
 10
1401.064138
 20
683.589438
 30
0.0
  0
VERTEX
  5
4E1
100
AcDbEntity
  8
止水栓
  6
CONTINUOUS
 62
     6
100
AcDbVertex
100
AcDb2dVertex
 10
1400.590505
 20
683.699302
 30
0.0
  0
VERTEX
  5
4E2
100
AcDbEntity
  8
止水栓
  6
CONTINUOUS
 62
     6
100
AcDbVertex
100
AcDb2dVertex
 10
1400.109548
 20
683.76522
 30
0.0
  0
VERTEX
  5
4E3
100
AcDbEntity
  8
止水栓
  6
CONTINUOUS
 62
     6
100
AcDbVertex
100
AcDb2dVertex
 10
1399.62615
 20
683.789634
 30
0.0
  0
VERTEX
  5
4E4
100
AcDbEntity
  8
止水栓
  6
CONTINUOUS
 62
     6
100
AcDbVertex
100
AcDb2dVertex
 10
1399.14031
 20
683.76522
 30
0.0
  0
VERTEX
  5
4E5
100
AcDbEntity
  8
止水栓
  6
CONTINUOUS
 62
     6
100
AcDbVertex
100
AcDb2dVertex
 10
1398.659353
 20
683.699302
 30
0.0
  0
VERTEX
  5
4E6
100
AcDbEntity
  8
止水栓
  6
CONTINUOUS
 62
     6
100
AcDbVertex
100
AcDb2dVertex
 10
1398.18572
 20
683.589438
 30
0.0
  0
VERTEX
  5
4E7
100
AcDbEntity
  8
止水栓
  6
CONTINUOUS
 62
     6
100
AcDbVertex
100
AcDb2dVertex
 10
1397.724294
 20
683.43563
 30
0.0
  0
VERTEX
  5
4E8
100
AcDbEntity
  8
止水栓
  6
CONTINUOUS
 62
     6
100
AcDbVertex
100
AcDb2dVertex
 10
1397.275076
 20
683.242759
 30
0.0
  0
VERTEX
  5
4E9
100
AcDbEntity
  8
止水栓
  6
CONTINUOUS
 62
     6
100
AcDbVertex
100
AcDb2dVertex
 10
1396.845388
 20
683.005942
 30
0.0
  0
VERTEX
  5
4EA
100
AcDbEntity
  8
止水栓
  6
CONTINUOUS
 62
     6
100
AcDbVertex
100
AcDb2dVertex
 10
1396.435232
 20
682.732505
 30
0.0
  0
VERTEX
  5
4EB
100
AcDbEntity
  8
止水栓
  6
CONTINUOUS
 62
     6
100
AcDbVertex
100
AcDb2dVertex
 10
1396.051931
 20
682.422446
 30
0.0
  0
VERTEX
  5
4EC
100
AcDbEntity
  8
止水栓
  6
CONTINUOUS
 62
     6
100
AcDbVertex
100
AcDb2dVertex
 10
1395.693044
 20
682.080649
 30
0.0
  0
VERTEX
  5
4ED
100
AcDbEntity
  8
止水栓
  6
CONTINUOUS
 62
     6
100
AcDbVertex
100
AcDb2dVertex
 10
1395.365896
 20
681.704673
 30
0.0
  0
VERTEX
  5
4EE
100
AcDbEntity
  8
止水栓
  6
CONTINUOUS
 62
     6
100
AcDbVertex
100
AcDb2dVertex
 10
1395.070486
 20
681.301841
 30
0.0
  0
VERTEX
  5
4EF
100
AcDbEntity
  8
止水栓
  6
CONTINUOUS
 62
     6
100
AcDbVertex
100
AcDb2dVertex
 10
1394.809255
 20
680.872153
 30
0.0
  0
VERTEX
  5
4F0
100
AcDbEntity
  8
止水栓
  6
CONTINUOUS
 62
     6
100
AcDbVertex
100
AcDb2dVertex
 10
1394.584646
 20
680.420493
 30
0.0
  0
VERTEX
  5
4F1
100
AcDbEntity
  8
止水栓
  6
CONTINUOUS
 62
     6
100
AcDbVertex
100
AcDb2dVertex
 10
1394.399099
 20
679.951743
 30
0.0
  0
VERTEX
  5
4F2
100
AcDbEntity
  8
止水栓
  6
CONTINUOUS
 62
     6
100
AcDbVertex
100
AcDb2dVertex
 10
1394.255056
 20
679.465903
 30
0.0
  0
VERTEX
  5
4F3
100
AcDbEntity
  8
止水栓
  6
CONTINUOUS
 62
     6
100
AcDbVertex
100
AcDb2dVertex
 10
1394.150076
 20
678.970298
 30
0.0
  0
VERTEX
  5
4F4
100
AcDbEntity
  8
止水栓
  6
CONTINUOUS
 62
     6
100
AcDbVertex
100
AcDb2dVertex
 10
1394.086599
 20
678.464927
 30
0.0
  0
VERTEX
  5
4F5
100
AcDbEntity
  8
止水栓
  6
CONTINUOUS
 62
     6
100
AcDbVertex
100
AcDb2dVertex
 10
1394.064626
 20
677.957114
 30
0.0
  0
VERTEX
  5
4F6
100
AcDbEntity
  8
止水栓
  6
CONTINUOUS
 62
     6
100
AcDbVertex
100
AcDb2dVertex
 10
1394.086599
 20
677.449302
 30
0.0
  0
VERTEX
  5
4F7
100
AcDbEntity
  8
止水栓
  6
CONTINUOUS
 62
     6
100
AcDbVertex
100
AcDb2dVertex
 10
1394.150076
 20
676.943931
 30
0.0
  0
VERTEX
  5
4F8
100
AcDbEntity
  8
止水栓
  6
CONTINUOUS
 62
     6
100
AcDbVertex
100
AcDb2dVertex
 10
1394.255056
 20
676.448325
 30
0.0
  0
VERTEX
  5
4F9
100
AcDbEntity
  8
止水栓
  6
CONTINUOUS
 62
     6
100
AcDbVertex
100
AcDb2dVertex
 10
1394.399099
 20
675.962485
 30
0.0
  0
VERTEX
  5
4FA
100
AcDbEntity
  8
止水栓
  6
CONTINUOUS
 62
     6
100
AcDbVertex
100
AcDb2dVertex
 10
1394.584646
 20
675.493735
 30
0.0
  0
VERTEX
  5
4FB
100
AcDbEntity
  8
止水栓
  6
CONTINUOUS
 62
     6
100
AcDbVertex
100
AcDb2dVertex
 10
1394.809255
 20
675.042075
 30
0.0
  0
VERTEX
  5
4FC
100
AcDbEntity
  8
止水栓
  6
CONTINUOUS
 62
     6
100
AcDbVertex
100
AcDb2dVertex
 10
1395.070486
 20
674.612388
 30
0.0
  0
VERTEX
  5
4FD
100
AcDbEntity
  8
止水栓
  6
CONTINUOUS
 62
     6
100
AcDbVertex
100
AcDb2dVertex
 10
1395.365896
 20
674.209556
 30
0.0
  0
VERTEX
  5
4FE
100
AcDbEntity
  8
止水栓
  6
CONTINUOUS
 62
     6
100
AcDbVertex
100
AcDb2dVertex
 10
1395.693044
 20
673.833579
 30
0.0
  0
VERTEX
  5
4FF
100
AcDbEntity
  8
止水栓
  6
CONTINUOUS
 62
     6
100
AcDbVertex
100
AcDb2dVertex
 10
1396.051931
 20
673.491782
 30
0.0
  0
VERTEX
  5
500
100
AcDbEntity
  8
止水栓
  6
CONTINUOUS
 62
     6
100
AcDbVertex
100
AcDb2dVertex
 10
1396.435232
 20
673.181724
 30
0.0
  0
VERTEX
  5
501
100
AcDbEntity
  8
止水栓
  6
CONTINUOUS
 62
     6
100
AcDbVertex
100
AcDb2dVertex
 10
1396.845388
 20
672.908286
 30
0.0
  0
VERTEX
  5
502
100
AcDbEntity
  8
止水栓
  6
CONTINUOUS
 62
     6
100
AcDbVertex
100
AcDb2dVertex
 10
1397.275076
 20
672.67147
 30
0.0
  0
VERTEX
  5
503
100
AcDbEntity
  8
止水栓
  6
CONTINUOUS
 62
     6
100
AcDbVertex
100
AcDb2dVertex
 10
1397.724294
 20
672.478599
 30
0.0
  0
VERTEX
  5
504
100
AcDbEntity
  8
止水栓
  6
CONTINUOUS
 62
     6
100
AcDbVertex
100
AcDb2dVertex
 10
1398.18572
 20
672.32479
 30
0.0
  0
VERTEX
  5
505
100
AcDbEntity
  8
止水栓
  6
CONTINUOUS
 62
     6
100
AcDbVertex
100
AcDb2dVertex
 10
1398.659353
 20
672.214927
 30
0.0
  0
VERTEX
  5
506
100
AcDbEntity
  8
止水栓
  6
CONTINUOUS
 62
     6
100
AcDbVertex
100
AcDb2dVertex
 10
1399.14031
 20
672.149009
 30
0.0
  0
VERTEX
  5
507
100
AcDbEntity
  8
止水栓
  6
CONTINUOUS
 62
     6
100
AcDbVertex
100
AcDb2dVertex
 10
1399.623709
 20
672.127036
 30
0.0
  0
SEQEND
  5
508
100
AcDbEntity
  8
止水栓
  6
CONTINUOUS
 62
     6
  0
LINE
  5
509
100
AcDbEntity
  8
止水栓
  6
CONTINUOUS
 62
     6
100
AcDbLine
 10
1412.402517
 20
672.23397
 30
0.0
 11
1412.402517
 21
683.73397
 31
0.0
  0
LINE
  5
50A
100
AcDbEntity
  8
止水栓
  6
CONTINUOUS
 62
     6
100
AcDbLine
 10
1415.402517
 20
673.23397
 30
0.0
 11
1415.402517
 21
682.73397
 31
0.0
  0
POLYLINE
  5
50B
100
AcDbEntity
  8
止水栓
  6
CONTINUOUS
 62
     6
100
AcDb2dPolyline
 66
     1
 10
0.0
 20
0.0
 30
0.0
 70
   128
  0
VERTEX
  5
50C
100
AcDbEntity
  8
止水栓
  6
CONTINUOUS
 62
     6
100
AcDbVertex
100
AcDb2dVertex
 10
1399.62615
 20
672.127036
 30
0.0
  0
VERTEX
  5
50D
100
AcDbEntity
  8
止水栓
  6
CONTINUOUS
 62
     6
100
AcDbVertex
100
AcDb2dVertex
 10
1400.109548
 20
672.149009
 30
0.0
  0
VERTEX
  5
50E
100
AcDbEntity
  8
止水栓
  6
CONTINUOUS
 62
     6
100
AcDbVertex
100
AcDb2dVertex
 10
1400.590505
 20
672.214927
 30
0.0
  0
VERTEX
  5
50F
100
AcDbEntity
  8
止水栓
  6
CONTINUOUS
 62
     6
100
AcDbVertex
100
AcDb2dVertex
 10
1401.064138
 20
672.32479
 30
0.0
  0
VERTEX
  5
510
100
AcDbEntity
  8
止水栓
  6
CONTINUOUS
 62
     6
100
AcDbVertex
100
AcDb2dVertex
 10
1401.528005
 20
672.478599
 30
0.0
  0
VERTEX
  5
511
100
AcDbEntity
  8
止水栓
  6
CONTINUOUS
 62
     6
100
AcDbVertex
100
AcDb2dVertex
 10
1401.974783
 20
672.67147
 30
0.0
  0
VERTEX
  5
512
100
AcDbEntity
  8
止水栓
  6
CONTINUOUS
 62
     6
100
AcDbVertex
100
AcDb2dVertex
 10
1402.406912
 20
672.908286
 30
0.0
  0
VERTEX
  5
513
100
AcDbEntity
  8
止水栓
  6
CONTINUOUS
 62
     6
100
AcDbVertex
100
AcDb2dVertex
 10
1402.814626
 20
673.181724
 30
0.0
  0
VERTEX
  5
514
100
AcDbEntity
  8
止水栓
  6
CONTINUOUS
 62
     6
100
AcDbVertex
100
AcDb2dVertex
 10
1403.200369
 20
673.491782
 30
0.0
  0
VERTEX
  5
515
100
AcDbEntity
  8
止水栓
  6
CONTINUOUS
 62
     6
100
AcDbVertex
100
AcDb2dVertex
 10
1403.556814
 20
673.833579
 30
0.0
  0
VERTEX
  5
516
100
AcDbEntity
  8
止水栓
  6
CONTINUOUS
 62
     6
100
AcDbVertex
100
AcDb2dVertex
 10
1403.886404
 20
674.209556
 30
0.0
  0
VERTEX
  5
517
100
AcDbEntity
  8
止水栓
  6
CONTINUOUS
 62
     6
100
AcDbVertex
100
AcDb2dVertex
 10
1404.179373
 20
674.612388
 30
0.0
  0
VERTEX
  5
518
100
AcDbEntity
  8
止水栓
  6
CONTINUOUS
 62
     6
100
AcDbVertex
100
AcDb2dVertex
 10
1404.443044
 20
675.042075
 30
0.0
  0
VERTEX
  5
519
100
AcDbEntity
  8
止水栓
  6
CONTINUOUS
 62
     6
100
AcDbVertex
100
AcDb2dVertex
 10
1404.667654
 20
675.493735
 30
0.0
  0
VERTEX
  5
51A
100
AcDbEntity
  8
止水栓
  6
CONTINUOUS
 62
     6
100
AcDbVertex
100
AcDb2dVertex
 10
1404.853201
 20
675.962485
 30
0.0
  0
VERTEX
  5
51B
100
AcDbEntity
  8
止水栓
  6
CONTINUOUS
 62
     6
100
AcDbVertex
100
AcDb2dVertex
 10
1404.997244
 20
676.448325
 30
0.0
  0
VERTEX
  5
51C
100
AcDbEntity
  8
止水栓
  6
CONTINUOUS
 62
     6
100
AcDbVertex
100
AcDb2dVertex
 10
1405.102224
 20
676.943931
 30
0.0
  0
VERTEX
  5
51D
100
AcDbEntity
  8
止水栓
  6
CONTINUOUS
 62
     6
100
AcDbVertex
100
AcDb2dVertex
 10
1405.165701
 20
677.449302
 30
0.0
  0
VERTEX
  5
51E
100
AcDbEntity
  8
止水栓
  6
CONTINUOUS
 62
     6
100
AcDbVertex
100
AcDb2dVertex
 10
1405.187673
 20
677.957114
 30
0.0
  0
VERTEX
  5
51F
100
AcDbEntity
  8
止水栓
  6
CONTINUOUS
 62
     6
100
AcDbVertex
100
AcDb2dVertex
 10
1405.187673
 20
677.96688
 30
0.0
  0
VERTEX
  5
520
100
AcDbEntity
  8
止水栓
  6
CONTINUOUS
 62
     6
100
AcDbVertex
100
AcDb2dVertex
 10
1405.187673
 20
677.974204
 30
0.0
  0
VERTEX
  5
521
100
AcDbEntity
  8
止水栓
  6
CONTINUOUS
 62
     6
100
AcDbVertex
100
AcDb2dVertex
 10
1405.187673
 20
677.98397
 30
0.0
  0
SEQEND
  5
522
100
AcDbEntity
  8
止水栓
  6
CONTINUOUS
 62
     6
  0
POLYLINE
  5
523
100
AcDbEntity
  8
止水栓
  6
CONTINUOUS
 62
     6
100
AcDb2dPolyline
 66
     1
 10
0.0
 20
0.0
 30
0.0
 70
   128
  0
VERTEX
  5
524
100
AcDbEntity
  8
止水栓
  6
CONTINUOUS
 62
     6
100
AcDbVertex
100
AcDb2dVertex
 10
1398.461599
 20
685.671958
 30
0.0
  0
VERTEX
  5
525
100
AcDbEntity
  8
止水栓
  6
CONTINUOUS
 62
     6
100
AcDbVertex
100
AcDb2dVertex
 10
1398.854666
 20
685.625571
 30
0.0
  0
VERTEX
  5
526
100
AcDbEntity
  8
止水栓
  6
CONTINUOUS
 62
     6
100
AcDbVertex
100
AcDb2dVertex
 10
1399.255056
 20
685.596274
 30
0.0
  0
VERTEX
  5
527
100
AcDbEntity
  8
止水栓
  6
CONTINUOUS
 62
     6
100
AcDbVertex
100
AcDb2dVertex
 10
1399.657888
 20
685.586509
 30
0.0
  0
SEQEND
  5
528
100
AcDbEntity
  8
止水栓
  6
CONTINUOUS
 62
     6
  0
POLYLINE
  5
529
100
AcDbEntity
  8
止水栓
  6
CONTINUOUS
 62
     6
100
AcDb2dPolyline
 66
     1
 10
0.0
 20
0.0
 30
0.0
 70
   128
  0
VERTEX
  5
52A
100
AcDbEntity
  8
止水栓
  6
CONTINUOUS
 62
     6
100
AcDbVertex
100
AcDb2dVertex
 10
1398.361501
 20
665.57186
 30
0.0
  0
VERTEX
  5
52B
100
AcDbEntity
  8
止水栓
  6
CONTINUOUS
 62
     6
100
AcDbVertex
100
AcDb2dVertex
 10
1398.786306
 20
665.525474
 30
0.0
  0
VERTEX
  5
52C
100
AcDbEntity
  8
止水栓
  6
CONTINUOUS
 62
     6
100
AcDbVertex
100
AcDb2dVertex
 10
1399.218435
 20
665.498618
 30
0.0
  0
VERTEX
  5
52D
100
AcDbEntity
  8
止水栓
  6
CONTINUOUS
 62
     6
100
AcDbVertex
100
AcDb2dVertex
 10
1399.653005
 20
665.488853
 30
0.0
  0
SEQEND
  5
52E
100
AcDbEntity
  8
止水栓
  6
CONTINUOUS
 62
     6
  0
POLYLINE
  5
52F
100
AcDbEntity
  8
止水栓
  6
CONTINUOUS
 62
     6
100
AcDb2dPolyline
 66
     1
 10
0.0
 20
0.0
 30
0.0
 70
   128
  0
VERTEX
  5
530
100
AcDbEntity
  8
止水栓
  6
CONTINUOUS
 62
     6
100
AcDbVertex
100
AcDb2dVertex
 10
1395.463552
 20
687.002524
 30
0.0
  0
VERTEX
  5
531
100
AcDbEntity
  8
止水栓
  6
CONTINUOUS
 62
     6
100
AcDbVertex
100
AcDb2dVertex
 10
1395.649099
 20
686.812095
 30
0.0
  0
VERTEX
  5
532
100
AcDbEntity
  8
止水栓
  6
CONTINUOUS
 62
     6
100
AcDbVertex
100
AcDb2dVertex
 10
1395.866384
 20
686.631431
 30
0.0
  0
VERTEX
  5
533
100
AcDbEntity
  8
止水栓
  6
CONTINUOUS
 62
     6
100
AcDbVertex
100
AcDb2dVertex
 10
1396.112966
 20
686.462974
 30
0.0
  0
VERTEX
  5
534
100
AcDbEntity
  8
止水栓
  6
CONTINUOUS
 62
     6
100
AcDbVertex
100
AcDb2dVertex
 10
1396.386404
 20
686.304282
 30
0.0
  0
VERTEX
  5
535
100
AcDbEntity
  8
止水栓
  6
CONTINUOUS
 62
     6
100
AcDbVertex
100
AcDb2dVertex
 10
1396.684255
 20
686.160239
 30
0.0
  0
VERTEX
  5
536
100
AcDbEntity
  8
止水栓
  6
CONTINUOUS
 62
     6
100
AcDbVertex
100
AcDb2dVertex
 10
1397.00408
 20
686.030845
 30
0.0
  0
VERTEX
  5
537
100
AcDbEntity
  8
止水栓
  6
CONTINUOUS
 62
     6
100
AcDbVertex
100
AcDb2dVertex
 10
1397.343435
 20
685.916099
 30
0.0
  0
VERTEX
  5
538
100
AcDbEntity
  8
止水栓
  6
CONTINUOUS
 62
     6
100
AcDbVertex
100
AcDb2dVertex
 10
1397.702322
 20
685.816001
 30
0.0
  0
VERTEX
  5
539
100
AcDbEntity
  8
止水栓
  6
CONTINUOUS
 62
     6
100
AcDbVertex
100
AcDb2dVertex
 10
1398.075857
 20
685.735435
 30
0.0
  0
VERTEX
  5
53A
100
AcDbEntity
  8
止水栓
  6
CONTINUOUS
 62
     6
100
AcDbVertex
100
AcDb2dVertex
 10
1398.461599
 20
685.671958
 30
0.0
  0
SEQEND
  5
53B
100
AcDbEntity
  8
止水栓
  6
CONTINUOUS
 62
     6
  0
POLYLINE
  5
53C
100
AcDbEntity
  8
止水栓
  6
CONTINUOUS
 62
     6
100
AcDb2dPolyline
 66
     1
 10
0.0
 20
0.0
 30
0.0
 70
   128
  0
VERTEX
  5
53D
100
AcDbEntity
  8
止水栓
  6
CONTINUOUS
 62
     6
100
AcDbVertex
100
AcDb2dVertex
 10
1395.131521
 20
666.902427
 30
0.0
  0
VERTEX
  5
53E
100
AcDbEntity
  8
止水栓
  6
CONTINUOUS
 62
     6
100
AcDbVertex
100
AcDb2dVertex
 10
1395.331716
 20
666.714438
 30
0.0
  0
VERTEX
  5
53F
100
AcDbEntity
  8
止水栓
  6
CONTINUOUS
 62
     6
100
AcDbVertex
100
AcDb2dVertex
 10
1395.566091
 20
666.533774
 30
0.0
  0
VERTEX
  5
540
100
AcDbEntity
  8
止水栓
  6
CONTINUOUS
 62
     6
100
AcDbVertex
100
AcDb2dVertex
 10
1395.829763
 20
666.362876
 30
0.0
  0
VERTEX
  5
541
100
AcDbEntity
  8
止水栓
  6
CONTINUOUS
 62
     6
100
AcDbVertex
100
AcDb2dVertex
 10
1396.125173
 20
666.206626
 30
0.0
  0
VERTEX
  5
542
100
AcDbEntity
  8
止水栓
  6
CONTINUOUS
 62
     6
100
AcDbVertex
100
AcDb2dVertex
 10
1396.444998
 20
666.062583
 30
0.0
  0
VERTEX
  5
543
100
AcDbEntity
  8
止水栓
  6
CONTINUOUS
 62
     6
100
AcDbVertex
100
AcDb2dVertex
 10
1396.791677
 20
665.930747
 30
0.0
  0
VERTEX
  5
544
100
AcDbEntity
  8
止水栓
  6
CONTINUOUS
 62
     6
100
AcDbVertex
100
AcDb2dVertex
 10
1397.157888
 20
665.816001
 30
0.0
  0
VERTEX
  5
545
100
AcDbEntity
  8
止水栓
  6
CONTINUOUS
 62
     6
100
AcDbVertex
100
AcDb2dVertex
 10
1397.54363
 20
665.718345
 30
0.0
  0
VERTEX
  5
546
100
AcDbEntity
  8
止水栓
  6
CONTINUOUS
 62
     6
100
AcDbVertex
100
AcDb2dVertex
 10
1397.946462
 20
665.637778
 30
0.0
  0
VERTEX
  5
547
100
AcDbEntity
  8
止水栓
  6
CONTINUOUS
 62
     6
100
AcDbVertex
100
AcDb2dVertex
 10
1398.361501
 20
665.57186
 30
0.0
  0
SEQEND
  5
548
100
AcDbEntity
  8
止水栓
  6
CONTINUOUS
 62
     6
  0
LINE
  5
549
100
AcDbEntity
  8
止水栓
  6
CONTINUOUS
 62
     6
100
AcDbLine
 10
1393.403005
 20
667.014731
 30
0.0
 11
1393.403005
 21
688.954734
 31
0.0
  0
LINE
  5
54A
100
AcDbEntity
  8
止水栓
  6
CONTINUOUS
 62
     6
100
AcDbLine
 10
1439.402517
 20
684.48397
 30
0.0
 11
1449.103005
 21
684.48397
 31
0.0
  0
LINE
  5
54B
100
AcDbEntity
  8
止水栓
  6
CONTINUOUS
 62
     6
100
AcDbLine
 10
1439.402517
 20
671.48397
 30
0.0
 11
1449.103005
 21
671.48397
 31
0.0
  0
LINE
  5
54C
100
AcDbEntity
  8
止水栓
  6
EXLTYPE3
 62
     6
100
AcDbLine
 10
1370.903005
 20
881.542907
 30
0.0
 11
1370.903005
 21
824.000231
 31
0.0
  0
ARC
  5
54D
100
AcDbEntity
  8
止水栓
  6
EXLTYPE4
 62
     6
100
AcDbCircle
 10
1370.903005
 20
924.310918
 30
0.0
 40
27.5
100
AcDbArc
 50
294.79044
 51
245.209515
  0
LINE
  5
54E
100
AcDbEntity
  8
止水栓
  6
EXLTYPE2
 62
     6
100
AcDbLine
 10
1361.587505
 20
904.310918
 30
0.0
 11
1360.373807
 21
906.413135
 31
0.0
  0
LINE
  5
54F
100
AcDbEntity
  8
止水栓
  6
EXLTYPE2
 62
     6
100
AcDbLine
 10
1360.425505
 20
904.310918
 30
0.0
 11
1381.380505
 21
904.310918
 31
0.0
  0
LINE
  5
550
100
AcDbEntity
  8
止水栓
  6
EXLTYPE2
 62
     6
100
AcDbLine
 10
1380.218505
 20
904.310918
 30
0.0
 11
1381.432204
 21
906.413135
 31
0.0
  0
POLYLINE
  5
551
100
AcDbEntity
  8
止水栓
  6
EXLTYPE2
 62
     6
100
AcDb2dPolyline
 66
     1
 10
0.0
 20
0.0
 30
0.0
 70
   128
  0
VERTEX
  5
552
100
AcDbEntity
  8
止水栓
  6
EXLTYPE2
 62
     6
100
AcDbVertex
100
AcDb2dVertex
 10
1358.407888
 20
895.530614
 30
0.0
  0
VERTEX
  5
553
100
AcDbEntity
  8
止水栓
  6
EXLTYPE2
 62
     6
100
AcDbVertex
100
AcDb2dVertex
 10
1358.417654
 20
895.093602
 30
0.0
  0
VERTEX
  5
554
100
AcDbEntity
  8
止水栓
  6
EXLTYPE2
 62
     6
100
AcDbVertex
100
AcDb2dVertex
 10
1358.444509
 20
894.661474
 30
0.0
  0
VERTEX
  5
555
100
AcDbEntity
  8
止水栓
  6
EXLTYPE2
 62
     6
100
AcDbVertex
100
AcDb2dVertex
 10
1358.490896
 20
894.236669
 30
0.0
  0
VERTEX
  5
556
100
AcDbEntity
  8
止水栓
  6
EXLTYPE2
 62
     6
100
AcDbVertex
100
AcDb2dVertex
 10
1358.556814
 20
893.82163
 30
0.0
  0
VERTEX
  5
557
100
AcDbEntity
  8
止水栓
  6
EXLTYPE2
 62
     6
100
AcDbVertex
100
AcDb2dVertex
 10
1358.63738
 20
893.421239
 30
0.0
  0
VERTEX
  5
558
100
AcDbEntity
  8
止水栓
  6
EXLTYPE2
 62
     6
100
AcDbVertex
100
AcDb2dVertex
 10
1358.735037
 20
893.035497
 30
0.0
  0
VERTEX
  5
559
100
AcDbEntity
  8
止水栓
  6
EXLTYPE2
 62
     6
100
AcDbVertex
100
AcDb2dVertex
 10
1358.852224
 20
892.666845
 30
0.0
  0
VERTEX
  5
55A
100
AcDbEntity
  8
止水栓
  6
EXLTYPE2
 62
     6
100
AcDbVertex
100
AcDb2dVertex
 10
1358.981619
 20
892.322606
 30
0.0
  0
VERTEX
  5
55B
100
AcDbEntity
  8
止水栓
  6
EXLTYPE2
 62
     6
100
AcDbVertex
100
AcDb2dVertex
 10
1359.125662
 20
892.000341
 30
0.0
  0
VERTEX
  5
55C
100
AcDbEntity
  8
止水栓
  6
EXLTYPE2
 62
     6
100
AcDbVertex
100
AcDb2dVertex
 10
1359.284353
 20
891.707372
 30
0.0
  0
VERTEX
  5
55D
100
AcDbEntity
  8
止水栓
  6
EXLTYPE2
 62
     6
100
AcDbVertex
100
AcDb2dVertex
 10
1359.45281
 20
891.441259
 30
0.0
  0
VERTEX
  5
55E
100
AcDbEntity
  8
止水栓
  6
EXLTYPE2
 62
     6
100
AcDbVertex
100
AcDb2dVertex
 10
1359.633474
 20
891.209325
 30
0.0
  0
VERTEX
  5
55F
100
AcDbEntity
  8
止水栓
  6
EXLTYPE2
 62
     6
100
AcDbVertex
100
AcDb2dVertex
 10
1359.821462
 20
891.006688
 30
0.0
  0
VERTEX
  5
560
100
AcDbEntity
  8
止水栓
  6
EXLTYPE2
 62
     6
100
AcDbVertex
100
AcDb2dVertex
 10
1360.019216
 20
890.840673
 30
0.0
  0
VERTEX
  5
561
100
AcDbEntity
  8
止水栓
  6
EXLTYPE2
 62
     6
100
AcDbVertex
100
AcDb2dVertex
 10
1360.224294
 20
890.708837
 30
0.0
  0
VERTEX
  5
562
100
AcDbEntity
  8
止水栓
  6
EXLTYPE2
 62
     6
100
AcDbVertex
100
AcDb2dVertex
 10
1360.431814
 20
890.616063
 30
0.0
  0
VERTEX
  5
563
100
AcDbEntity
  8
止水栓
  6
EXLTYPE2
 62
     6
100
AcDbVertex
100
AcDb2dVertex
 10
1360.644216
 20
890.55747
 30
0.0
  0
VERTEX
  5
564
100
AcDbEntity
  8
止水栓
  6
EXLTYPE2
 62
     6
100
AcDbVertex
100
AcDb2dVertex
 10
1360.856619
 20
890.54038
 30
0.0
  0
VERTEX
  5
565
100
AcDbEntity
  8
止水栓
  6
EXLTYPE2
 62
     6
100
AcDbVertex
100
AcDb2dVertex
 10
1361.071462
 20
890.559911
 30
0.0
  0
VERTEX
  5
566
100
AcDbEntity
  8
止水栓
  6
EXLTYPE2
 62
     6
100
AcDbVertex
100
AcDb2dVertex
 10
1361.283865
 20
890.616063
 30
0.0
  0
VERTEX
  5
567
100
AcDbEntity
  8
止水栓
  6
EXLTYPE2
 62
     6
100
AcDbVertex
100
AcDb2dVertex
 10
1361.491384
 20
890.708837
 30
0.0
  0
VERTEX
  5
568
100
AcDbEntity
  8
止水栓
  6
EXLTYPE2
 62
     6
100
AcDbVertex
100
AcDb2dVertex
 10
1361.696462
 20
890.840673
 30
0.0
  0
VERTEX
  5
569
100
AcDbEntity
  8
止水栓
  6
EXLTYPE2
 62
     6
100
AcDbVertex
100
AcDb2dVertex
 10
1361.894216
 20
891.006688
 30
0.0
  0
VERTEX
  5
56A
100
AcDbEntity
  8
止水栓
  6
EXLTYPE2
 62
     6
100
AcDbVertex
100
AcDb2dVertex
 10
1362.082205
 20
891.209325
 30
0.0
  0
VERTEX
  5
56B
100
AcDbEntity
  8
止水栓
  6
EXLTYPE2
 62
     6
100
AcDbVertex
100
AcDb2dVertex
 10
1362.262869
 20
891.4437
 30
0.0
  0
VERTEX
  5
56C
100
AcDbEntity
  8
止水栓
  6
EXLTYPE2
 62
     6
100
AcDbVertex
100
AcDb2dVertex
 10
1362.431326
 20
891.707372
 30
0.0
  0
VERTEX
  5
56D
100
AcDbEntity
  8
止水栓
  6
EXLTYPE2
 62
     6
100
AcDbVertex
100
AcDb2dVertex
 10
1362.590017
 20
892.000341
 30
0.0
  0
VERTEX
  5
56E
100
AcDbEntity
  8
止水栓
  6
EXLTYPE2
 62
     6
100
AcDbVertex
100
AcDb2dVertex
 10
1362.73406
 20
892.322606
 30
0.0
  0
VERTEX
  5
56F
100
AcDbEntity
  8
止水栓
  6
EXLTYPE2
 62
     6
100
AcDbVertex
100
AcDb2dVertex
 10
1362.863455
 20
892.666845
 30
0.0
  0
VERTEX
  5
570
100
AcDbEntity
  8
止水栓
  6
EXLTYPE2
 62
     6
100
AcDbVertex
100
AcDb2dVertex
 10
1362.978201
 20
893.035497
 30
0.0
  0
VERTEX
  5
571
100
AcDbEntity
  8
止水栓
  6
EXLTYPE2
 62
     6
100
AcDbVertex
100
AcDb2dVertex
 10
1363.078298
 20
893.421239
 30
0.0
  0
VERTEX
  5
572
100
AcDbEntity
  8
止水栓
  6
EXLTYPE2
 62
     6
100
AcDbVertex
100
AcDb2dVertex
 10
1363.158865
 20
893.824071
 30
0.0
  0
VERTEX
  5
573
100
AcDbEntity
  8
止水栓
  6
EXLTYPE2
 62
     6
100
AcDbVertex
100
AcDb2dVertex
 10
1363.224783
 20
894.23911
 30
0.0
  0
VERTEX
  5
574
100
AcDbEntity
  8
止水栓
  6
EXLTYPE2
 62
     6
100
AcDbVertex
100
AcDb2dVertex
 10
1363.271169
 20
894.663915
 30
0.0
  0
VERTEX
  5
575
100
AcDbEntity
  8
止水栓
  6
EXLTYPE2
 62
     6
100
AcDbVertex
100
AcDb2dVertex
 10
1363.298025
 20
895.096044
 30
0.0
  0
VERTEX
  5
576
100
AcDbEntity
  8
止水栓
  6
EXLTYPE2
 62
     6
100
AcDbVertex
100
AcDb2dVertex
 10
1363.307791
 20
895.530614
 30
0.0
  0
VERTEX
  5
577
100
AcDbEntity
  8
止水栓
  6
EXLTYPE2
 62
     6
100
AcDbVertex
100
AcDb2dVertex
 10
1363.298025
 20
895.965185
 30
0.0
  0
VERTEX
  5
578
100
AcDbEntity
  8
止水栓
  6
EXLTYPE2
 62
     6
100
AcDbVertex
100
AcDb2dVertex
 10
1363.268728
 20
896.397313
 30
0.0
  0
VERTEX
  5
579
100
AcDbEntity
  8
止水栓
  6
EXLTYPE2
 62
     6
100
AcDbVertex
100
AcDb2dVertex
 10
1363.222341
 20
896.822118
 30
0.0
  0
VERTEX
  5
57A
100
AcDbEntity
  8
止水栓
  6
EXLTYPE2
 62
     6
100
AcDbVertex
100
AcDb2dVertex
 10
1363.158865
 20
897.237157
 30
0.0
  0
VERTEX
  5
57B
100
AcDbEntity
  8
止水栓
  6
EXLTYPE2
 62
     6
100
AcDbVertex
100
AcDb2dVertex
 10
1363.078298
 20
897.639989
 30
0.0
  0
VERTEX
  5
57C
100
AcDbEntity
  8
止水栓
  6
EXLTYPE2
 62
     6
100
AcDbVertex
100
AcDb2dVertex
 10
1362.978201
 20
898.025731
 30
0.0
  0
VERTEX
  5
57D
100
AcDbEntity
  8
止水栓
  6
EXLTYPE2
 62
     6
100
AcDbVertex
100
AcDb2dVertex
 10
1362.863455
 20
898.391942
 30
0.0
  0
VERTEX
  5
57E
100
AcDbEntity
  8
止水栓
  6
EXLTYPE2
 62
     6
100
AcDbVertex
100
AcDb2dVertex
 10
1362.73406
 20
898.738622
 30
0.0
  0
VERTEX
  5
57F
100
AcDbEntity
  8
止水栓
  6
EXLTYPE2
 62
     6
100
AcDbVertex
100
AcDb2dVertex
 10
1362.590017
 20
899.058446
 30
0.0
  0
VERTEX
  5
580
100
AcDbEntity
  8
止水栓
  6
EXLTYPE2
 62
     6
100
AcDbVertex
100
AcDb2dVertex
 10
1362.431326
 20
899.353856
 30
0.0
  0
VERTEX
  5
581
100
AcDbEntity
  8
止水栓
  6
EXLTYPE2
 62
     6
100
AcDbVertex
100
AcDb2dVertex
 10
1362.262869
 20
899.617528
 30
0.0
  0
VERTEX
  5
582
100
AcDbEntity
  8
止水栓
  6
EXLTYPE2
 62
     6
100
AcDbVertex
100
AcDb2dVertex
 10
1362.082205
 20
899.851903
 30
0.0
  0
VERTEX
  5
583
100
AcDbEntity
  8
止水栓
  6
EXLTYPE2
 62
     6
100
AcDbVertex
100
AcDb2dVertex
 10
1361.894216
 20
900.052099
 30
0.0
  0
VERTEX
  5
584
100
AcDbEntity
  8
止水栓
  6
EXLTYPE2
 62
     6
100
AcDbVertex
100
AcDb2dVertex
 10
1361.696462
 20
900.220556
 30
0.0
  0
VERTEX
  5
585
100
AcDbEntity
  8
止水栓
  6
EXLTYPE2
 62
     6
100
AcDbVertex
100
AcDb2dVertex
 10
1361.491384
 20
900.34995
 30
0.0
  0
VERTEX
  5
586
100
AcDbEntity
  8
止水栓
  6
EXLTYPE2
 62
     6
100
AcDbVertex
100
AcDb2dVertex
 10
1361.283865
 20
900.445165
 30
0.0
  0
VERTEX
  5
587
100
AcDbEntity
  8
止水栓
  6
EXLTYPE2
 62
     6
100
AcDbVertex
100
AcDb2dVertex
 10
1361.071462
 20
900.501317
 30
0.0
  0
VERTEX
  5
588
100
AcDbEntity
  8
止水栓
  6
EXLTYPE2
 62
     6
100
AcDbVertex
100
AcDb2dVertex
 10
1360.856619
 20
900.520849
 30
0.0
  0
VERTEX
  5
589
100
AcDbEntity
  8
止水栓
  6
EXLTYPE2
 62
     6
100
AcDbVertex
100
AcDb2dVertex
 10
1360.644216
 20
900.501317
 30
0.0
  0
VERTEX
  5
58A
100
AcDbEntity
  8
止水栓
  6
EXLTYPE2
 62
     6
100
AcDbVertex
100
AcDb2dVertex
 10
1360.431814
 20
900.445165
 30
0.0
  0
VERTEX
  5
58B
100
AcDbEntity
  8
止水栓
  6
EXLTYPE2
 62
     6
100
AcDbVertex
100
AcDb2dVertex
 10
1360.224294
 20
900.34995
 30
0.0
  0
VERTEX
  5
58C
100
AcDbEntity
  8
止水栓
  6
EXLTYPE2
 62
     6
100
AcDbVertex
100
AcDb2dVertex
 10
1360.019216
 20
900.220556
 30
0.0
  0
VERTEX
  5
58D
100
AcDbEntity
  8
止水栓
  6
EXLTYPE2
 62
     6
100
AcDbVertex
100
AcDb2dVertex
 10
1359.821462
 20
900.052099
 30
0.0
  0
SEQEND
  5
58E
100
AcDbEntity
  8
止水栓
  6
EXLTYPE2
 62
     6
  0
LINE
  5
58F
100
AcDbEntity
  8
止水栓
  6
EXLTYPE2
 62
     6
100
AcDbLine
 10
1359.933767
 20
889.781102
 30
0.0
 11
1381.872244
 21
889.781102
 31
0.0
  0
LINE
  5
590
100
AcDbEntity
  8
止水栓
  6
EXLTYPE2
 62
     6
100
AcDbLine
 10
1360.403005
 20
884.781102
 30
0.0
 11
1381.403005
 21
884.781102
 31
0.0
  0
ARC
  5
591
100
AcDbEntity
  8
止水栓
  6
EXLTYPE2
 62
     6
100
AcDbCircle
 10
1369.152517
 20
895.782079
 30
0.0
 40
10.998535
100
AcDbArc
 50
146.94841
 51
213.059082
  0
POLYLINE
  5
592
100
AcDbEntity
  8
止水栓
  6
EXLTYPE2
 62
     6
100
AcDb2dPolyline
 66
     1
 10
0.0
 20
0.0
 30
0.0
 70
   128
  0
VERTEX
  5
593
100
AcDbEntity
  8
止水栓
  6
EXLTYPE2
 62
     6
100
AcDbVertex
100
AcDb2dVertex
 10
1359.821462
 20
900.052099
 30
0.0
  0
VERTEX
  5
594
100
AcDbEntity
  8
止水栓
  6
EXLTYPE2
 62
     6
100
AcDbVertex
100
AcDb2dVertex
 10
1359.633474
 20
899.851903
 30
0.0
  0
VERTEX
  5
595
100
AcDbEntity
  8
止水栓
  6
EXLTYPE2
 62
     6
100
AcDbVertex
100
AcDb2dVertex
 10
1359.45281
 20
899.617528
 30
0.0
  0
VERTEX
  5
596
100
AcDbEntity
  8
止水栓
  6
EXLTYPE2
 62
     6
100
AcDbVertex
100
AcDb2dVertex
 10
1359.281912
 20
899.353856
 30
0.0
  0
VERTEX
  5
597
100
AcDbEntity
  8
止水栓
  6
EXLTYPE2
 62
     6
100
AcDbVertex
100
AcDb2dVertex
 10
1359.125662
 20
899.058446
 30
0.0
  0
VERTEX
  5
598
100
AcDbEntity
  8
止水栓
  6
EXLTYPE2
 62
     6
100
AcDbVertex
100
AcDb2dVertex
 10
1358.981619
 20
898.738622
 30
0.0
  0
VERTEX
  5
599
100
AcDbEntity
  8
止水栓
  6
EXLTYPE2
 62
     6
100
AcDbVertex
100
AcDb2dVertex
 10
1358.849783
 20
898.391942
 30
0.0
  0
VERTEX
  5
59A
100
AcDbEntity
  8
止水栓
  6
EXLTYPE2
 62
     6
100
AcDbVertex
100
AcDb2dVertex
 10
1358.735037
 20
898.025731
 30
0.0
  0
VERTEX
  5
59B
100
AcDbEntity
  8
止水栓
  6
EXLTYPE2
 62
     6
100
AcDbVertex
100
AcDb2dVertex
 10
1358.63738
 20
897.639989
 30
0.0
  0
VERTEX
  5
59C
100
AcDbEntity
  8
止水栓
  6
EXLTYPE2
 62
     6
100
AcDbVertex
100
AcDb2dVertex
 10
1358.556814
 20
897.237157
 30
0.0
  0
VERTEX
  5
59D
100
AcDbEntity
  8
止水栓
  6
EXLTYPE2
 62
     6
100
AcDbVertex
100
AcDb2dVertex
 10
1358.490896
 20
896.822118
 30
0.0
  0
SEQEND
  5
59E
100
AcDbEntity
  8
止水栓
  6
EXLTYPE2
 62
     6
  0
POLYLINE
  5
59F
100
AcDbEntity
  8
止水栓
  6
EXLTYPE2
 62
     6
100
AcDb2dPolyline
 66
     1
 10
0.0
 20
0.0
 30
0.0
 70
   128
  0
VERTEX
  5
5A0
100
AcDbEntity
  8
止水栓
  6
EXLTYPE2
 62
     6
100
AcDbVertex
100
AcDb2dVertex
 10
1358.490896
 20
896.822118
 30
0.0
  0
VERTEX
  5
5A1
100
AcDbEntity
  8
止水栓
  6
EXLTYPE2
 62
     6
100
AcDbVertex
100
AcDb2dVertex
 10
1358.444509
 20
896.397313
 30
0.0
  0
VERTEX
  5
5A2
100
AcDbEntity
  8
止水栓
  6
EXLTYPE2
 62
     6
100
AcDbVertex
100
AcDb2dVertex
 10
1358.417654
 20
895.965185
 30
0.0
  0
VERTEX
  5
5A3
100
AcDbEntity
  8
止水栓
  6
EXLTYPE2
 62
     6
100
AcDbVertex
100
AcDb2dVertex
 10
1358.407888
 20
895.530614
 30
0.0
  0
SEQEND
  5
5A4
100
AcDbEntity
  8
止水栓
  6
EXLTYPE2
 62
     6
  0
LINE
  5
5A5
100
AcDbEntity
  8
止水栓
  6
EXLTYPE2
 62
     6
100
AcDbLine
 10
1360.403005
 20
889.781102
 30
0.0
 11
1360.403005
 21
884.781102
 31
0.0
  0
POLYLINE
  5
5A6
100
AcDbEntity
  8
止水栓
  6
EXLTYPE2
 62
     6
100
AcDb2dPolyline
 66
     1
 10
0.0
 20
0.0
 30
0.0
 70
   128
  0
VERTEX
  5
5A7
100
AcDbEntity
  8
止水栓
  6
EXLTYPE2
 62
     6
100
AcDbVertex
100
AcDb2dVertex
 10
1379.92156
 20
899.720067
 30
0.0
  0
VERTEX
  5
5A8
100
AcDbEntity
  8
止水栓
  6
EXLTYPE2
 62
     6
100
AcDbVertex
100
AcDb2dVertex
 10
1379.73113
 20
899.53452
 30
0.0
  0
VERTEX
  5
5A9
100
AcDbEntity
  8
止水栓
  6
EXLTYPE2
 62
     6
100
AcDbVertex
100
AcDb2dVertex
 10
1379.550466
 20
899.317235
 30
0.0
  0
VERTEX
  5
5AA
100
AcDbEntity
  8
止水栓
  6
EXLTYPE2
 62
     6
100
AcDbVertex
100
AcDb2dVertex
 10
1379.382009
 20
899.070653
 30
0.0
  0
VERTEX
  5
5AB
100
AcDbEntity
  8
止水栓
  6
EXLTYPE2
 62
     6
100
AcDbVertex
100
AcDb2dVertex
 10
1379.223318
 20
898.797216
 30
0.0
  0
VERTEX
  5
5AC
100
AcDbEntity
  8
止水栓
  6
EXLTYPE2
 62
     6
100
AcDbVertex
100
AcDb2dVertex
 10
1379.079275
 20
898.499364
 30
0.0
  0
VERTEX
  5
5AD
100
AcDbEntity
  8
止水栓
  6
EXLTYPE2
 62
     6
100
AcDbVertex
100
AcDb2dVertex
 10
1378.94988
 20
898.17954
 30
0.0
  0
VERTEX
  5
5AE
100
AcDbEntity
  8
止水栓
  6
EXLTYPE2
 62
     6
100
AcDbVertex
100
AcDb2dVertex
 10
1378.835134
 20
897.840185
 30
0.0
  0
VERTEX
  5
5AF
100
AcDbEntity
  8
止水栓
  6
EXLTYPE2
 62
     6
100
AcDbVertex
100
AcDb2dVertex
 10
1378.735037
 20
897.481298
 30
0.0
  0
VERTEX
  5
5B0
100
AcDbEntity
  8
止水栓
  6
EXLTYPE2
 62
     6
100
AcDbVertex
100
AcDb2dVertex
 10
1378.65447
 20
897.107763
 30
0.0
  0
VERTEX
  5
5B1
100
AcDbEntity
  8
止水栓
  6
EXLTYPE2
 62
     6
100
AcDbVertex
100
AcDb2dVertex
 10
1378.590994
 20
896.72202
 30
0.0
  0
SEQEND
  5
5B2
100
AcDbEntity
  8
止水栓
  6
EXLTYPE2
 62
     6
  0
POLYLINE
  5
5B3
100
AcDbEntity
  8
止水栓
  6
EXLTYPE2
 62
     6
100
AcDb2dPolyline
 66
     1
 10
0.0
 20
0.0
 30
0.0
 70
   128
  0
VERTEX
  5
5B4
100
AcDbEntity
  8
止水栓
  6
EXLTYPE2
 62
     6
100
AcDbVertex
100
AcDb2dVertex
 10
1378.590994
 20
896.72202
 30
0.0
  0
VERTEX
  5
5B5
100
AcDbEntity
  8
止水栓
  6
EXLTYPE2
 62
     6
100
AcDbVertex
100
AcDb2dVertex
 10
1378.544607
 20
896.328954
 30
0.0
  0
VERTEX
  5
5B6
100
AcDbEntity
  8
止水栓
  6
EXLTYPE2
 62
     6
100
AcDbVertex
100
AcDb2dVertex
 10
1378.51531
 20
895.928563
 30
0.0
  0
VERTEX
  5
5B7
100
AcDbEntity
  8
止水栓
  6
EXLTYPE2
 62
     6
100
AcDbVertex
100
AcDb2dVertex
 10
1378.505544
 20
895.525731
 30
0.0
  0
SEQEND
  5
5B8
100
AcDbEntity
  8
止水栓
  6
EXLTYPE2
 62
     6
  0
POLYLINE
  5
5B9
100
AcDbEntity
  8
止水栓
  6
EXLTYPE2
 62
     6
100
AcDb2dPolyline
 66
     1
 10
0.0
 20
0.0
 30
0.0
 70
   128
  0
VERTEX
  5
5BA
100
AcDbEntity
  8
止水栓
  6
EXLTYPE2
 62
     6
100
AcDbVertex
100
AcDb2dVertex
 10
1378.505544
 20
895.52329
 30
0.0
  0
VERTEX
  5
5BB
100
AcDbEntity
  8
止水栓
  6
EXLTYPE2
 62
     6
100
AcDbVertex
100
AcDb2dVertex
 10
1378.51531
 20
895.120458
 30
0.0
  0
VERTEX
  5
5BC
100
AcDbEntity
  8
止水栓
  6
EXLTYPE2
 62
     6
100
AcDbVertex
100
AcDb2dVertex
 10
1378.544607
 20
894.720067
 30
0.0
  0
VERTEX
  5
5BD
100
AcDbEntity
  8
止水栓
  6
EXLTYPE2
 62
     6
100
AcDbVertex
100
AcDb2dVertex
 10
1378.590994
 20
894.32456
 30
0.0
  0
VERTEX
  5
5BE
100
AcDbEntity
  8
止水栓
  6
EXLTYPE2
 62
     6
100
AcDbVertex
100
AcDb2dVertex
 10
1378.65447
 20
893.941259
 30
0.0
  0
VERTEX
  5
5BF
100
AcDbEntity
  8
止水栓
  6
EXLTYPE2
 62
     6
100
AcDbVertex
100
AcDb2dVertex
 10
1378.735037
 20
893.567724
 30
0.0
  0
VERTEX
  5
5C0
100
AcDbEntity
  8
止水栓
  6
EXLTYPE2
 62
     6
100
AcDbVertex
100
AcDb2dVertex
 10
1378.835134
 20
893.208837
 30
0.0
  0
VERTEX
  5
5C1
100
AcDbEntity
  8
止水栓
  6
EXLTYPE2
 62
     6
100
AcDbVertex
100
AcDb2dVertex
 10
1378.94988
 20
892.869481
 30
0.0
  0
VERTEX
  5
5C2
100
AcDbEntity
  8
止水栓
  6
EXLTYPE2
 62
     6
100
AcDbVertex
100
AcDb2dVertex
 10
1379.079275
 20
892.547216
 30
0.0
  0
VERTEX
  5
5C3
100
AcDbEntity
  8
止水栓
  6
EXLTYPE2
 62
     6
100
AcDbVertex
100
AcDb2dVertex
 10
1379.223318
 20
892.249364
 30
0.0
  0
VERTEX
  5
5C4
100
AcDbEntity
  8
止水栓
  6
EXLTYPE2
 62
     6
100
AcDbVertex
100
AcDb2dVertex
 10
1379.382009
 20
891.978368
 30
0.0
  0
VERTEX
  5
5C5
100
AcDbEntity
  8
止水栓
  6
EXLTYPE2
 62
     6
100
AcDbVertex
100
AcDb2dVertex
 10
1379.550466
 20
891.731786
 30
0.0
  0
VERTEX
  5
5C6
100
AcDbEntity
  8
止水栓
  6
EXLTYPE2
 62
     6
100
AcDbVertex
100
AcDb2dVertex
 10
1379.73113
 20
891.514501
 30
0.0
  0
VERTEX
  5
5C7
100
AcDbEntity
  8
止水栓
  6
EXLTYPE2
 62
     6
100
AcDbVertex
100
AcDb2dVertex
 10
1379.92156
 20
891.326513
 30
0.0
  0
VERTEX
  5
5C8
100
AcDbEntity
  8
止水栓
  6
EXLTYPE2
 62
     6
100
AcDbVertex
100
AcDb2dVertex
 10
1380.119314
 20
891.172704
 30
0.0
  0
VERTEX
  5
5C9
100
AcDbEntity
  8
止水栓
  6
EXLTYPE2
 62
     6
100
AcDbVertex
100
AcDb2dVertex
 10
1380.321951
 20
891.053075
 30
0.0
  0
VERTEX
  5
5CA
100
AcDbEntity
  8
止水栓
  6
EXLTYPE2
 62
     6
100
AcDbVertex
100
AcDb2dVertex
 10
1380.531912
 20
890.965185
 30
0.0
  0
VERTEX
  5
5CB
100
AcDbEntity
  8
止水栓
  6
EXLTYPE2
 62
     6
100
AcDbVertex
100
AcDb2dVertex
 10
1380.741873
 20
890.911474
 30
0.0
  0
VERTEX
  5
5CC
100
AcDbEntity
  8
止水栓
  6
EXLTYPE2
 62
     6
100
AcDbVertex
100
AcDb2dVertex
 10
1380.956716
 20
890.894384
 30
0.0
  0
VERTEX
  5
5CD
100
AcDbEntity
  8
止水栓
  6
EXLTYPE2
 62
     6
100
AcDbVertex
100
AcDb2dVertex
 10
1381.169119
 20
890.911474
 30
0.0
  0
VERTEX
  5
5CE
100
AcDbEntity
  8
止水栓
  6
EXLTYPE2
 62
     6
100
AcDbVertex
100
AcDb2dVertex
 10
1381.381521
 20
890.965185
 30
0.0
  0
VERTEX
  5
5CF
100
AcDbEntity
  8
止水栓
  6
EXLTYPE2
 62
     6
100
AcDbVertex
100
AcDb2dVertex
 10
1381.591482
 20
891.053075
 30
0.0
  0
VERTEX
  5
5D0
100
AcDbEntity
  8
止水栓
  6
EXLTYPE2
 62
     6
100
AcDbVertex
100
AcDb2dVertex
 10
1381.794119
 20
891.172704
 30
0.0
  0
VERTEX
  5
5D1
100
AcDbEntity
  8
止水栓
  6
EXLTYPE2
 62
     6
100
AcDbVertex
100
AcDb2dVertex
 10
1381.991873
 20
891.328954
 30
0.0
  0
VERTEX
  5
5D2
100
AcDbEntity
  8
止水栓
  6
EXLTYPE2
 62
     6
100
AcDbVertex
100
AcDb2dVertex
 10
1382.179861
 20
891.514501
 30
0.0
  0
VERTEX
  5
5D3
100
AcDbEntity
  8
止水栓
  6
EXLTYPE2
 62
     6
100
AcDbVertex
100
AcDb2dVertex
 10
1382.360525
 20
891.731786
 30
0.0
  0
VERTEX
  5
5D4
100
AcDbEntity
  8
止水栓
  6
EXLTYPE2
 62
     6
100
AcDbVertex
100
AcDb2dVertex
 10
1382.531423
 20
891.975927
 30
0.0
  0
VERTEX
  5
5D5
100
AcDbEntity
  8
止水栓
  6
EXLTYPE2
 62
     6
100
AcDbVertex
100
AcDb2dVertex
 10
1382.687673
 20
892.249364
 30
0.0
  0
VERTEX
  5
5D6
100
AcDbEntity
  8
止水栓
  6
EXLTYPE2
 62
     6
100
AcDbVertex
100
AcDb2dVertex
 10
1382.831716
 20
892.547216
 30
0.0
  0
VERTEX
  5
5D7
100
AcDbEntity
  8
止水栓
  6
EXLTYPE2
 62
     6
100
AcDbVertex
100
AcDb2dVertex
 10
1382.963552
 20
892.869481
 30
0.0
  0
VERTEX
  5
5D8
100
AcDbEntity
  8
止水栓
  6
EXLTYPE2
 62
     6
100
AcDbVertex
100
AcDb2dVertex
 10
1383.078298
 20
893.208837
 30
0.0
  0
VERTEX
  5
5D9
100
AcDbEntity
  8
止水栓
  6
EXLTYPE2
 62
     6
100
AcDbVertex
100
AcDb2dVertex
 10
1383.175955
 20
893.567724
 30
0.0
  0
VERTEX
  5
5DA
100
AcDbEntity
  8
止水栓
  6
EXLTYPE2
 62
     6
100
AcDbVertex
100
AcDb2dVertex
 10
1383.256521
 20
893.938817
 30
0.0
  0
VERTEX
  5
5DB
100
AcDbEntity
  8
止水栓
  6
EXLTYPE2
 62
     6
100
AcDbVertex
100
AcDb2dVertex
 10
1383.322439
 20
894.32456
 30
0.0
  0
VERTEX
  5
5DC
100
AcDbEntity
  8
止水栓
  6
EXLTYPE2
 62
     6
100
AcDbVertex
100
AcDb2dVertex
 10
1383.368826
 20
894.720067
 30
0.0
  0
VERTEX
  5
5DD
100
AcDbEntity
  8
止水栓
  6
EXLTYPE2
 62
     6
100
AcDbVertex
100
AcDb2dVertex
 10
1383.395681
 20
895.120458
 30
0.0
  0
VERTEX
  5
5DE
100
AcDbEntity
  8
止水栓
  6
EXLTYPE2
 62
     6
100
AcDbVertex
100
AcDb2dVertex
 10
1383.405447
 20
895.52329
 30
0.0
  0
VERTEX
  5
5DF
100
AcDbEntity
  8
止水栓
  6
EXLTYPE2
 62
     6
100
AcDbVertex
100
AcDb2dVertex
 10
1383.395681
 20
895.926122
 30
0.0
  0
VERTEX
  5
5E0
100
AcDbEntity
  8
止水栓
  6
EXLTYPE2
 62
     6
100
AcDbVertex
100
AcDb2dVertex
 10
1383.368826
 20
896.326513
 30
0.0
  0
VERTEX
  5
5E1
100
AcDbEntity
  8
止水栓
  6
EXLTYPE2
 62
     6
100
AcDbVertex
100
AcDb2dVertex
 10
1383.322439
 20
896.72202
 30
0.0
  0
VERTEX
  5
5E2
100
AcDbEntity
  8
止水栓
  6
EXLTYPE2
 62
     6
100
AcDbVertex
100
AcDb2dVertex
 10
1383.258962
 20
897.107763
 30
0.0
  0
VERTEX
  5
5E3
100
AcDbEntity
  8
止水栓
  6
EXLTYPE2
 62
     6
100
AcDbVertex
100
AcDb2dVertex
 10
1383.175955
 20
897.481298
 30
0.0
  0
VERTEX
  5
5E4
100
AcDbEntity
  8
止水栓
  6
EXLTYPE2
 62
     6
100
AcDbVertex
100
AcDb2dVertex
 10
1383.078298
 20
897.840185
 30
0.0
  0
VERTEX
  5
5E5
100
AcDbEntity
  8
止水栓
  6
EXLTYPE2
 62
     6
100
AcDbVertex
100
AcDb2dVertex
 10
1382.963552
 20
898.17954
 30
0.0
  0
VERTEX
  5
5E6
100
AcDbEntity
  8
止水栓
  6
EXLTYPE2
 62
     6
100
AcDbVertex
100
AcDb2dVertex
 10
1382.831716
 20
898.501806
 30
0.0
  0
VERTEX
  5
5E7
100
AcDbEntity
  8
止水栓
  6
EXLTYPE2
 62
     6
100
AcDbVertex
100
AcDb2dVertex
 10
1382.687673
 20
898.797216
 30
0.0
  0
VERTEX
  5
5E8
100
AcDbEntity
  8
止水栓
  6
EXLTYPE2
 62
     6
100
AcDbVertex
100
AcDb2dVertex
 10
1382.531423
 20
899.070653
 30
0.0
  0
VERTEX
  5
5E9
100
AcDbEntity
  8
止水栓
  6
EXLTYPE2
 62
     6
100
AcDbVertex
100
AcDb2dVertex
 10
1382.360525
 20
899.317235
 30
0.0
  0
VERTEX
  5
5EA
100
AcDbEntity
  8
止水栓
  6
EXLTYPE2
 62
     6
100
AcDbVertex
100
AcDb2dVertex
 10
1382.182302
 20
899.53452
 30
0.0
  0
VERTEX
  5
5EB
100
AcDbEntity
  8
止水栓
  6
EXLTYPE2
 62
     6
100
AcDbVertex
100
AcDb2dVertex
 10
1381.991873
 20
899.720067
 30
0.0
  0
VERTEX
  5
5EC
100
AcDbEntity
  8
止水栓
  6
EXLTYPE2
 62
     6
100
AcDbVertex
100
AcDb2dVertex
 10
1381.794119
 20
899.873876
 30
0.0
  0
VERTEX
  5
5ED
100
AcDbEntity
  8
止水栓
  6
EXLTYPE2
 62
     6
100
AcDbVertex
100
AcDb2dVertex
 10
1381.591482
 20
899.995946
 30
0.0
  0
VERTEX
  5
5EE
100
AcDbEntity
  8
止水栓
  6
EXLTYPE2
 62
     6
100
AcDbVertex
100
AcDb2dVertex
 10
1381.381521
 20
900.083837
 30
0.0
  0
VERTEX
  5
5EF
100
AcDbEntity
  8
止水栓
  6
EXLTYPE2
 62
     6
100
AcDbVertex
100
AcDb2dVertex
 10
1381.169119
 20
900.137548
 30
0.0
  0
VERTEX
  5
5F0
100
AcDbEntity
  8
止水栓
  6
EXLTYPE2
 62
     6
100
AcDbVertex
100
AcDb2dVertex
 10
1380.956716
 20
900.154638
 30
0.0
  0
VERTEX
  5
5F1
100
AcDbEntity
  8
止水栓
  6
EXLTYPE2
 62
     6
100
AcDbVertex
100
AcDb2dVertex
 10
1380.741873
 20
900.135106
 30
0.0
  0
VERTEX
  5
5F2
100
AcDbEntity
  8
止水栓
  6
EXLTYPE2
 62
     6
100
AcDbVertex
100
AcDb2dVertex
 10
1380.531912
 20
900.083837
 30
0.0
  0
VERTEX
  5
5F3
100
AcDbEntity
  8
止水栓
  6
EXLTYPE2
 62
     6
100
AcDbVertex
100
AcDb2dVertex
 10
1380.321951
 20
899.995946
 30
0.0
  0
VERTEX
  5
5F4
100
AcDbEntity
  8
止水栓
  6
EXLTYPE2
 62
     6
100
AcDbVertex
100
AcDb2dVertex
 10
1380.119314
 20
899.873876
 30
0.0
  0
VERTEX
  5
5F5
100
AcDbEntity
  8
止水栓
  6
EXLTYPE2
 62
     6
100
AcDbVertex
100
AcDb2dVertex
 10
1379.92156
 20
899.720067
 30
0.0
  0
SEQEND
  5
5F6
100
AcDbEntity
  8
止水栓
  6
EXLTYPE2
 62
     6
  0
LINE
  5
5F7
100
AcDbEntity
  8
止水栓
  6
EXLTYPE2
 62
     6
100
AcDbLine
 10
1381.403005
 20
889.781102
 30
0.0
 11
1381.403005
 21
884.781102
 31
0.0
  0
POLYLINE
  5
5F8
100
AcDbEntity
  8
止水栓
  6
EXLTYPE2
 62
     6
100
AcDb2dPolyline
 66
     1
 10
0.0
 20
0.0
 30
0.0
 70
   128
  0
VERTEX
  5
5F9
100
AcDbEntity
  8
止水栓
  6
EXLTYPE2
 62
     6
100
AcDbVertex
100
AcDb2dVertex
 10
1370.903005
 20
889.995946
 30
0.0
  0
VERTEX
  5
5FA
100
AcDbEntity
  8
止水栓
  6
EXLTYPE2
 62
     6
100
AcDbVertex
100
AcDb2dVertex
 10
1371.401052
 20
890.017919
 30
0.0
  0
VERTEX
  5
5FB
100
AcDbEntity
  8
止水栓
  6
EXLTYPE2
 62
     6
100
AcDbVertex
100
AcDb2dVertex
 10
1371.896658
 20
890.083837
 30
0.0
  0
VERTEX
  5
5FC
100
AcDbEntity
  8
止水栓
  6
EXLTYPE2
 62
     6
100
AcDbVertex
100
AcDb2dVertex
 10
1372.384939
 20
890.186376
 30
0.0
  0
VERTEX
  5
5FD
100
AcDbEntity
  8
止水栓
  6
EXLTYPE2
 62
     6
100
AcDbVertex
100
AcDb2dVertex
 10
1372.870779
 20
890.33286
 30
0.0
  0
VERTEX
  5
5FE
100
AcDbEntity
  8
止水栓
  6
EXLTYPE2
 62
     6
100
AcDbVertex
100
AcDb2dVertex
 10
1373.339529
 20
890.518407
 30
0.0
  0
VERTEX
  5
5FF
100
AcDbEntity
  8
止水栓
  6
EXLTYPE2
 62
     6
100
AcDbVertex
100
AcDb2dVertex
 10
1373.791189
 20
890.740575
 30
0.0
  0
VERTEX
  5
600
100
AcDbEntity
  8
止水栓
  6
EXLTYPE2
 62
     6
100
AcDbVertex
100
AcDb2dVertex
 10
1374.220876
 20
891.001806
 30
0.0
  0
VERTEX
  5
601
100
AcDbEntity
  8
止水栓
  6
EXLTYPE2
 62
     6
100
AcDbVertex
100
AcDb2dVertex
 10
1374.623709
 20
891.297216
 30
0.0
  0
VERTEX
  5
602
100
AcDbEntity
  8
止水栓
  6
EXLTYPE2
 62
     6
100
AcDbVertex
100
AcDb2dVertex
 10
1374.999685
 20
891.624364
 30
0.0
  0
VERTEX
  5
603
100
AcDbEntity
  8
止水栓
  6
EXLTYPE2
 62
     6
100
AcDbVertex
100
AcDb2dVertex
 10
1375.341482
 20
891.983251
 30
0.0
  0
VERTEX
  5
604
100
AcDbEntity
  8
止水栓
  6
EXLTYPE2
 62
     6
100
AcDbVertex
100
AcDb2dVertex
 10
1375.651541
 20
892.368993
 30
0.0
  0
VERTEX
  5
605
100
AcDbEntity
  8
止水栓
  6
EXLTYPE2
 62
     6
100
AcDbVertex
100
AcDb2dVertex
 10
1375.924978
 20
892.776708
 30
0.0
  0
VERTEX
  5
606
100
AcDbEntity
  8
止水栓
  6
EXLTYPE2
 62
     6
100
AcDbVertex
100
AcDb2dVertex
 10
1376.161794
 20
893.206395
 30
0.0
  0
VERTEX
  5
607
100
AcDbEntity
  8
止水栓
  6
EXLTYPE2
 62
     6
100
AcDbVertex
100
AcDb2dVertex
 10
1376.354666
 20
893.655614
 30
0.0
  0
VERTEX
  5
608
100
AcDbEntity
  8
止水栓
  6
EXLTYPE2
 62
     6
100
AcDbVertex
100
AcDb2dVertex
 10
1376.508474
 20
894.119481
 30
0.0
  0
VERTEX
  5
609
100
AcDbEntity
  8
止水栓
  6
EXLTYPE2
 62
     6
100
AcDbVertex
100
AcDb2dVertex
 10
1376.618337
 20
894.593114
 30
0.0
  0
VERTEX
  5
60A
100
AcDbEntity
  8
止水栓
  6
EXLTYPE2
 62
     6
100
AcDbVertex
100
AcDb2dVertex
 10
1376.684255
 20
895.074071
 30
0.0
  0
VERTEX
  5
60B
100
AcDbEntity
  8
止水栓
  6
EXLTYPE2
 62
     6
100
AcDbVertex
100
AcDb2dVertex
 10
1376.708669
 20
895.55747
 30
0.0
  0
VERTEX
  5
60C
100
AcDbEntity
  8
止水栓
  6
EXLTYPE2
 62
     6
100
AcDbVertex
100
AcDb2dVertex
 10
1376.684255
 20
896.04331
 30
0.0
  0
VERTEX
  5
60D
100
AcDbEntity
  8
止水栓
  6
EXLTYPE2
 62
     6
100
AcDbVertex
100
AcDb2dVertex
 10
1376.618337
 20
896.524267
 30
0.0
  0
VERTEX
  5
60E
100
AcDbEntity
  8
止水栓
  6
EXLTYPE2
 62
     6
100
AcDbVertex
100
AcDb2dVertex
 10
1376.508474
 20
896.997899
 30
0.0
  0
VERTEX
  5
60F
100
AcDbEntity
  8
止水栓
  6
EXLTYPE2
 62
     6
100
AcDbVertex
100
AcDb2dVertex
 10
1376.354666
 20
897.459325
 30
0.0
  0
VERTEX
  5
610
100
AcDbEntity
  8
止水栓
  6
EXLTYPE2
 62
     6
100
AcDbVertex
100
AcDb2dVertex
 10
1376.161794
 20
897.908544
 30
0.0
  0
VERTEX
  5
611
100
AcDbEntity
  8
止水栓
  6
EXLTYPE2
 62
     6
100
AcDbVertex
100
AcDb2dVertex
 10
1375.924978
 20
898.338231
 30
0.0
  0
VERTEX
  5
612
100
AcDbEntity
  8
止水栓
  6
EXLTYPE2
 62
     6
100
AcDbVertex
100
AcDb2dVertex
 10
1375.651541
 20
898.748388
 30
0.0
  0
VERTEX
  5
613
100
AcDbEntity
  8
止水栓
  6
EXLTYPE2
 62
     6
100
AcDbVertex
100
AcDb2dVertex
 10
1375.341482
 20
899.131688
 30
0.0
  0
VERTEX
  5
614
100
AcDbEntity
  8
止水栓
  6
EXLTYPE2
 62
     6
100
AcDbVertex
100
AcDb2dVertex
 10
1374.999685
 20
899.490575
 30
0.0
  0
VERTEX
  5
615
100
AcDbEntity
  8
止水栓
  6
EXLTYPE2
 62
     6
100
AcDbVertex
100
AcDb2dVertex
 10
1374.623709
 20
899.817724
 30
0.0
  0
VERTEX
  5
616
100
AcDbEntity
  8
止水栓
  6
EXLTYPE2
 62
     6
100
AcDbVertex
100
AcDb2dVertex
 10
1374.220876
 20
900.113134
 30
0.0
  0
VERTEX
  5
617
100
AcDbEntity
  8
止水栓
  6
EXLTYPE2
 62
     6
100
AcDbVertex
100
AcDb2dVertex
 10
1373.791189
 20
900.374364
 30
0.0
  0
VERTEX
  5
618
100
AcDbEntity
  8
止水栓
  6
EXLTYPE2
 62
     6
100
AcDbVertex
100
AcDb2dVertex
 10
1373.339529
 20
900.598974
 30
0.0
  0
VERTEX
  5
619
100
AcDbEntity
  8
止水栓
  6
EXLTYPE2
 62
     6
100
AcDbVertex
100
AcDb2dVertex
 10
1372.870779
 20
900.78452
 30
0.0
  0
VERTEX
  5
61A
100
AcDbEntity
  8
止水栓
  6
EXLTYPE2
 62
     6
100
AcDbVertex
100
AcDb2dVertex
 10
1372.384939
 20
900.928563
 30
0.0
  0
VERTEX
  5
61B
100
AcDbEntity
  8
止水栓
  6
EXLTYPE2
 62
     6
100
AcDbVertex
100
AcDb2dVertex
 10
1371.889334
 20
901.033544
 30
0.0
  0
VERTEX
  5
61C
100
AcDbEntity
  8
止水栓
  6
EXLTYPE2
 62
     6
100
AcDbVertex
100
AcDb2dVertex
 10
1371.383962
 20
901.09702
 30
0.0
  0
VERTEX
  5
61D
100
AcDbEntity
  8
止水栓
  6
EXLTYPE2
 62
     6
100
AcDbVertex
100
AcDb2dVertex
 10
1370.87615
 20
901.118993
 30
0.0
  0
VERTEX
  5
61E
100
AcDbEntity
  8
止水栓
  6
EXLTYPE2
 62
     6
100
AcDbVertex
100
AcDb2dVertex
 10
1370.368337
 20
901.09702
 30
0.0
  0
VERTEX
  5
61F
100
AcDbEntity
  8
止水栓
  6
EXLTYPE2
 62
     6
100
AcDbVertex
100
AcDb2dVertex
 10
1369.862966
 20
901.033544
 30
0.0
  0
VERTEX
  5
620
100
AcDbEntity
  8
止水栓
  6
EXLTYPE2
 62
     6
100
AcDbVertex
100
AcDb2dVertex
 10
1369.367361
 20
900.928563
 30
0.0
  0
VERTEX
  5
621
100
AcDbEntity
  8
止水栓
  6
EXLTYPE2
 62
     6
100
AcDbVertex
100
AcDb2dVertex
 10
1368.881521
 20
900.78452
 30
0.0
  0
VERTEX
  5
622
100
AcDbEntity
  8
止水栓
  6
EXLTYPE2
 62
     6
100
AcDbVertex
100
AcDb2dVertex
 10
1368.412771
 20
900.598974
 30
0.0
  0
VERTEX
  5
623
100
AcDbEntity
  8
止水栓
  6
EXLTYPE2
 62
     6
100
AcDbVertex
100
AcDb2dVertex
 10
1367.961111
 20
900.374364
 30
0.0
  0
VERTEX
  5
624
100
AcDbEntity
  8
止水栓
  6
EXLTYPE2
 62
     6
100
AcDbVertex
100
AcDb2dVertex
 10
1367.531423
 20
900.113134
 30
0.0
  0
VERTEX
  5
625
100
AcDbEntity
  8
止水栓
  6
EXLTYPE2
 62
     6
100
AcDbVertex
100
AcDb2dVertex
 10
1367.128591
 20
899.817724
 30
0.0
  0
VERTEX
  5
626
100
AcDbEntity
  8
止水栓
  6
EXLTYPE2
 62
     6
100
AcDbVertex
100
AcDb2dVertex
 10
1366.752615
 20
899.490575
 30
0.0
  0
VERTEX
  5
627
100
AcDbEntity
  8
止水栓
  6
EXLTYPE2
 62
     6
100
AcDbVertex
100
AcDb2dVertex
 10
1366.410818
 20
899.131688
 30
0.0
  0
VERTEX
  5
628
100
AcDbEntity
  8
止水栓
  6
EXLTYPE2
 62
     6
100
AcDbVertex
100
AcDb2dVertex
 10
1366.100759
 20
898.748388
 30
0.0
  0
VERTEX
  5
629
100
AcDbEntity
  8
止水栓
  6
EXLTYPE2
 62
     6
100
AcDbVertex
100
AcDb2dVertex
 10
1365.827322
 20
898.338231
 30
0.0
  0
VERTEX
  5
62A
100
AcDbEntity
  8
止水栓
  6
EXLTYPE2
 62
     6
100
AcDbVertex
100
AcDb2dVertex
 10
1365.590505
 20
897.908544
 30
0.0
  0
VERTEX
  5
62B
100
AcDbEntity
  8
止水栓
  6
EXLTYPE2
 62
     6
100
AcDbVertex
100
AcDb2dVertex
 10
1365.397634
 20
897.459325
 30
0.0
  0
VERTEX
  5
62C
100
AcDbEntity
  8
止水栓
  6
EXLTYPE2
 62
     6
100
AcDbVertex
100
AcDb2dVertex
 10
1365.243826
 20
896.997899
 30
0.0
  0
VERTEX
  5
62D
100
AcDbEntity
  8
止水栓
  6
EXLTYPE2
 62
     6
100
AcDbVertex
100
AcDb2dVertex
 10
1365.133962
 20
896.524267
 30
0.0
  0
VERTEX
  5
62E
100
AcDbEntity
  8
止水栓
  6
EXLTYPE2
 62
     6
100
AcDbVertex
100
AcDb2dVertex
 10
1365.068044
 20
896.04331
 30
0.0
  0
VERTEX
  5
62F
100
AcDbEntity
  8
止水栓
  6
EXLTYPE2
 62
     6
100
AcDbVertex
100
AcDb2dVertex
 10
1365.046072
 20
895.559911
 30
0.0
  0
SEQEND
  5
630
100
AcDbEntity
  8
止水栓
  6
EXLTYPE2
 62
     6
  0
POLYLINE
  5
631
100
AcDbEntity
  8
止水栓
  6
EXLTYPE2
 62
     6
100
AcDb2dPolyline
 66
     1
 10
0.0
 20
0.0
 30
0.0
 70
   128
  0
VERTEX
  5
632
100
AcDbEntity
  8
止水栓
  6
EXLTYPE2
 62
     6
100
AcDbVertex
100
AcDb2dVertex
 10
1365.046072
 20
895.55747
 30
0.0
  0
VERTEX
  5
633
100
AcDbEntity
  8
止水栓
  6
EXLTYPE2
 62
     6
100
AcDbVertex
100
AcDb2dVertex
 10
1365.068044
 20
895.074071
 30
0.0
  0
VERTEX
  5
634
100
AcDbEntity
  8
止水栓
  6
EXLTYPE2
 62
     6
100
AcDbVertex
100
AcDb2dVertex
 10
1365.133962
 20
894.593114
 30
0.0
  0
VERTEX
  5
635
100
AcDbEntity
  8
止水栓
  6
EXLTYPE2
 62
     6
100
AcDbVertex
100
AcDb2dVertex
 10
1365.243826
 20
894.119481
 30
0.0
  0
VERTEX
  5
636
100
AcDbEntity
  8
止水栓
  6
EXLTYPE2
 62
     6
100
AcDbVertex
100
AcDb2dVertex
 10
1365.397634
 20
893.655614
 30
0.0
  0
VERTEX
  5
637
100
AcDbEntity
  8
止水栓
  6
EXLTYPE2
 62
     6
100
AcDbVertex
100
AcDb2dVertex
 10
1365.590505
 20
893.208837
 30
0.0
  0
VERTEX
  5
638
100
AcDbEntity
  8
止水栓
  6
EXLTYPE2
 62
     6
100
AcDbVertex
100
AcDb2dVertex
 10
1365.827322
 20
892.776708
 30
0.0
  0
VERTEX
  5
639
100
AcDbEntity
  8
止水栓
  6
EXLTYPE2
 62
     6
100
AcDbVertex
100
AcDb2dVertex
 10
1366.100759
 20
892.368993
 30
0.0
  0
VERTEX
  5
63A
100
AcDbEntity
  8
止水栓
  6
EXLTYPE2
 62
     6
100
AcDbVertex
100
AcDb2dVertex
 10
1366.410818
 20
891.983251
 30
0.0
  0
VERTEX
  5
63B
100
AcDbEntity
  8
止水栓
  6
EXLTYPE2
 62
     6
100
AcDbVertex
100
AcDb2dVertex
 10
1366.752615
 20
891.626806
 30
0.0
  0
VERTEX
  5
63C
100
AcDbEntity
  8
止水栓
  6
EXLTYPE2
 62
     6
100
AcDbVertex
100
AcDb2dVertex
 10
1367.128591
 20
891.297216
 30
0.0
  0
VERTEX
  5
63D
100
AcDbEntity
  8
止水栓
  6
EXLTYPE2
 62
     6
100
AcDbVertex
100
AcDb2dVertex
 10
1367.531423
 20
891.004247
 30
0.0
  0
VERTEX
  5
63E
100
AcDbEntity
  8
止水栓
  6
EXLTYPE2
 62
     6
100
AcDbVertex
100
AcDb2dVertex
 10
1367.961111
 20
890.740575
 30
0.0
  0
VERTEX
  5
63F
100
AcDbEntity
  8
止水栓
  6
EXLTYPE2
 62
     6
100
AcDbVertex
100
AcDb2dVertex
 10
1368.412771
 20
890.515966
 30
0.0
  0
VERTEX
  5
640
100
AcDbEntity
  8
止水栓
  6
EXLTYPE2
 62
     6
100
AcDbVertex
100
AcDb2dVertex
 10
1368.881521
 20
890.330419
 30
0.0
  0
VERTEX
  5
641
100
AcDbEntity
  8
止水栓
  6
EXLTYPE2
 62
     6
100
AcDbVertex
100
AcDb2dVertex
 10
1369.367361
 20
890.186376
 30
0.0
  0
VERTEX
  5
642
100
AcDbEntity
  8
止水栓
  6
EXLTYPE2
 62
     6
100
AcDbVertex
100
AcDb2dVertex
 10
1369.862966
 20
890.081395
 30
0.0
  0
VERTEX
  5
643
100
AcDbEntity
  8
止水栓
  6
EXLTYPE2
 62
     6
100
AcDbVertex
100
AcDb2dVertex
 10
1370.368337
 20
890.017919
 30
0.0
  0
VERTEX
  5
644
100
AcDbEntity
  8
止水栓
  6
EXLTYPE2
 62
     6
100
AcDbVertex
100
AcDb2dVertex
 10
1370.87615
 20
889.995946
 30
0.0
  0
VERTEX
  5
645
100
AcDbEntity
  8
止水栓
  6
EXLTYPE2
 62
     6
100
AcDbVertex
100
AcDb2dVertex
 10
1370.885916
 20
889.995946
 30
0.0
  0
VERTEX
  5
646
100
AcDbEntity
  8
止水栓
  6
EXLTYPE2
 62
     6
100
AcDbVertex
100
AcDb2dVertex
 10
1370.89324
 20
889.995946
 30
0.0
  0
VERTEX
  5
647
100
AcDbEntity
  8
止水栓
  6
EXLTYPE2
 62
     6
100
AcDbVertex
100
AcDb2dVertex
 10
1370.903005
 20
889.995946
 30
0.0
  0
SEQEND
  5
648
100
AcDbEntity
  8
止水栓
  6
EXLTYPE2
 62
     6
  0
LINE
  5
649
100
AcDbEntity
  8
止水栓
  6
EXLTYPE2
 62
     6
100
AcDbLine
 10
1360.425505
 20
911.166737
 30
0.0
 11
1360.425505
 21
901.780614
 31
0.0
  0
LINE
  5
64A
100
AcDbEntity
  8
止水栓
  6
EXLTYPE2
 62
     6
100
AcDbLine
 10
1361.587505
 20
901.780614
 30
0.0
 11
1361.587505
 21
904.310918
 31
0.0
  0
LINE
  5
64B
100
AcDbEntity
  8
止水栓
  6
EXLTYPE2
 62
     6
100
AcDbLine
 10
1380.218505
 20
901.780614
 30
0.0
 11
1380.218505
 21
904.310918
 31
0.0
  0
LINE
  5
64C
100
AcDbEntity
  8
止水栓
  6
EXLTYPE2
 62
     6
100
AcDbLine
 10
1381.380505
 20
911.166737
 30
0.0
 11
1381.380505
 21
901.780614
 31
0.0
  0
LINE
  5
64D
100
AcDbEntity
  8
止水栓
  6
EXLTYPE2
 62
     6
100
AcDbLine
 10
1359.933767
 20
901.780614
 30
0.0
 11
1381.873837
 21
901.780614
 31
0.0
  0
ARC
  5
64E
100
AcDbEntity
  8
止水栓
  6
EXLTYPE2
 62
     6
100
AcDbCircle
 10
1372.653494
 20
895.782079
 30
0.0
 40
10.99987
100
AcDbArc
 50
326.937744
 51
33.047067
  0
ARC
  5
64F
100
AcDbEntity
  8
止水栓
  6
CONTINUOUS
 62
     6
100
AcDbCircle
 10
1449.103005
 20
769.783971
 30
0.0
 40
98.300002
100
AcDbArc
 50
270.0
 51
0.0
  0
ARC
  5
650
100
AcDbEntity
  8
止水栓
  6
EXLTYPE3
 62
     6
100
AcDbCircle
 10
1455.903006
 20
824.000231
 30
0.0
 40
85.000001
100
AcDbArc
 50
180.0
 51
0.0
  0
ARC
  5
651
100
AcDbEntity
  8
止水栓
  6
CONTINUOUS
 62
     6
100
AcDbCircle
 10
1449.103005
 20
769.783971
 30
0.0
 40
85.300002
100
AcDbArc
 50
270.0
 51
0.0
  0
LINE
  5
652
100
AcDbEntity
  8
止水栓
  6
CONTINUOUS
 62
     6
100
AcDbLine
 10
1534.403007
 20
896.083059
 30
0.0
 11
1534.403007
 21
769.783971
 31
0.0
  0
LINE
  5
653
100
AcDbEntity
  8
止水栓
  6
EXLTYPE3
 62
     6
100
AcDbLine
 10
1540.903007
 20
886.382331
 30
0.0
 11
1540.903007
 21
824.000231
 31
0.0
  0
LINE
  5
654
100
AcDbEntity
  8
止水栓
  6
CONTINUOUS
 62
     6
100
AcDbLine
 10
1547.403007
 20
877.769921
 30
0.0
 11
1547.403007
 21
769.783971
 31
0.0
  0
LINE
  5
655
100
AcDbEntity
  8
止水栓
  6
CONTINUOUS
 62
     6
100
AcDbLine
 10
1361.683555
 20
925.309453
 30
0.0
 11
1380.122455
 21
925.309453
 31
0.0
  0
LINE
  5
656
100
AcDbEntity
  8
止水栓
  6
CONTINUOUS
 62
     6
100
AcDbLine
 10
1380.122191
 20
923.309942
 30
0.0
 11
1361.68382
 21
923.309942
 31
0.0
  0
ARC
  5
657
100
AcDbEntity
  8
止水栓
  6
CONTINUOUS
 62
     6
100
AcDbCircle
 10
1314.925505
 20
911.166737
 30
0.0
 40
45.5
100
AcDbArc
 50
0.0
 51
13.214335
  0
ARC
  5
658
100
AcDbEntity
  8
止水栓
  6
CONTINUOUS
 62
     6
100
AcDbCircle
 10
1426.880505
 20
911.166737
 30
0.0
 40
45.5
100
AcDbArc
 50
166.785665
 51
180.0
  0
CIRCLE
  5
659
100
AcDbEntity
  8
止水栓
  6
CONTINUOUS
 62
     6
100
AcDbCircle
 10
1370.903005
 20
924.310918
 30
0.0
 40
9.273367
  0
CIRCLE
  5
65A
100
AcDbEntity
  8
止水栓
  6
CONTINUOUS
 62
     6
100
AcDbCircle
 10
1370.903005
 20
924.310918
 30
0.0
 40
9.959438
  0
CIRCLE
  5
65B
100
AcDbEntity
  8
止水栓
  6
CONTINUOUS
 62
     6
100
AcDbCircle
 10
1370.903005
 20
924.310918
 30
0.0
 40
12.0
  0
LINE
  5
65C
100
AcDbEntity
  8
止水栓
  6
CONTINUOUS
 62
     6
100
AcDbLine
 10
1381.522928
 20
640.307488
 30
0.0
 11
1360.322928
 21
640.307488
 31
0.0
  0
ARC
  5
65D
100
AcDbEntity
  8
止水栓
  6
CONTINUOUS
 62
     6
100
AcDbCircle
 10
1381.122928
 20
615.310688
 30
0.0
 40
25.0
100
AcDbArc
 50
63.322579
 51
89.083228
  0
ARC
  5
65E
100
AcDbEntity
  8
止水栓
  6
CONTINUOUS
 62
     6
100
AcDbCircle
 10
1360.722928
 20
615.310688
 30
0.0
 40
25.0
100
AcDbArc
 50
90.916772
 51
116.677421
  0
LINE
  5
65F
100
AcDbEntity
  8
止水栓
  6
CONTINUOUS
 62
     6
100
AcDbLine
 10
1362.021028
 20
614.605456
 30
0.0
 11
1361.732521
 21
624.310688
 31
0.0
  0
LINE
  5
660
100
AcDbEntity
  8
止水栓
  6
CONTINUOUS
 62
     6
100
AcDbLine
 10
1379.784982
 20
614.605456
 30
0.0
 11
1380.07349
 21
624.310688
 31
0.0
  0
LINE
  5
661
100
AcDbEntity
  8
止水栓
  6
CONTINUOUS
 62
     6
100
AcDbLine
 10
1361.003005
 20
615.196882
 30
0.0
 11
1360.732079
 21
624.310688
 31
0.0
  0
LINE
  5
662
100
AcDbEntity
  8
止水栓
  6
CONTINUOUS
 62
     6
100
AcDbLine
 10
1380.803005
 20
615.196882
 30
0.0
 11
1381.073932
 21
624.310688
 31
0.0
  0
LINE
  5
663
100
AcDbEntity
  8
止水栓
  6
CONTINUOUS
 62
     6
100
AcDbLine
 10
1379.553005
 20
614.470688
 30
0.0
 11
1380.803005
 21
615.196882
 31
0.0
  0
LINE
  5
664
100
AcDbEntity
  8
止水栓
  6
CONTINUOUS
 62
     6
100
AcDbLine
 10
1379.553005
 20
614.470688
 30
0.0
 11
1362.253005
 21
614.470688
 31
0.0
  0
LINE
  5
665
100
AcDbEntity
  8
止水栓
  6
CONTINUOUS
 62
     6
100
AcDbLine
 10
1362.253005
 20
614.470688
 30
0.0
 11
1361.003005
 21
615.196882
 31
0.0
  0
LINE
  5
666
100
AcDbEntity
  8
止水栓
  6
CONTINUOUS
 62
     6
100
AcDbLine
 10
1380.803005
 20
615.196882
 30
0.0
 11
1361.003005
 21
615.196882
 31
0.0
  0
ARC
  5
667
100
AcDbEntity
  8
止水栓
  6
CONTINUOUS
 62
     6
100
AcDbCircle
 10
1356.122928
 20
626.813793
 30
0.0
 40
12.7
100
AcDbArc
 50
121.438859
 51
180.0
  0
LINE
  5
668
100
AcDbEntity
  8
止水栓
  6
CONTINUOUS
 62
     6
100
AcDbLine
 10
1343.422928
 20
626.813793
 30
0.0
 11
1343.422928
 21
624.310688
 31
0.0
  0
LINE
  5
669
100
AcDbEntity
  8
止水栓
  6
CONTINUOUS
 62
     6
100
AcDbLine
 10
1370.022928
 20
699.683956
 30
0.0
 11
1361.922928
 21
699.683956
 31
0.0
  0
LINE
  5
66A
100
AcDbEntity
  8
止水栓
  6
CONTINUOUS
 62
     6
100
AcDbLine
 10
1371.822928
 20
699.683956
 30
0.0
 11
1379.922928
 21
699.683956
 31
0.0
  0
LINE
  5
66B
100
AcDbEntity
  8
止水栓
  6
CONTINUOUS
 62
     6
100
AcDbLine
 10
1371.822928
 20
699.683956
 30
0.0
 11
1371.822928
 21
698.983956
 31
0.0
  0
LINE
  5
66C
100
AcDbEntity
  8
止水栓
  6
CONTINUOUS
 62
     6
100
AcDbLine
 10
1370.022928
 20
699.683956
 30
0.0
 11
1370.022928
 21
698.983956
 31
0.0
  0
LINE
  5
66D
100
AcDbEntity
  8
止水栓
  6
CONTINUOUS
 62
     6
100
AcDbLine
 10
1379.922928
 20
699.683956
 30
0.0
 11
1379.922928
 21
698.983956
 31
0.0
  0
LINE
  5
66E
100
AcDbEntity
  8
止水栓
  6
CONTINUOUS
 62
     6
100
AcDbLine
 10
1361.922928
 20
699.683956
 30
0.0
 11
1361.922928
 21
698.983956
 31
0.0
  0
LINE
  5
66F
100
AcDbEntity
  8
止水栓
  6
CONTINUOUS
 62
     6
100
AcDbLine
 10
1382.922928
 20
698.983956
 30
0.0
 11
1358.922928
 21
698.983956
 31
0.0
  0
LINE
  5
670
100
AcDbEntity
  8
止水栓
  6
CONTINUOUS
 62
     6
100
AcDbLine
 10
1382.922928
 20
698.983956
 30
0.0
 11
1382.922928
 21
691.237453
 31
0.0
  0
ARC
  5
671
100
AcDbEntity
  8
止水栓
  6
CONTINUOUS
 62
     6
100
AcDbCircle
 10
1387.421755
 20
693.419323
 30
0.0
 40
5.0
100
AcDbArc
 50
205.872755
 51
262.555023
  0
LINE
  5
672
100
AcDbEntity
  8
止水栓
  6
CONTINUOUS
 62
     6
100
AcDbLine
 10
1388.796839
 20
688.461471
 30
0.0
 11
1390.922968
 21
687.233947
 31
0.0
  0
LINE
  5
673
100
AcDbEntity
  8
止水栓
  6
CONTINUOUS
 62
     6
100
AcDbLine
 10
1358.922928
 20
662.373921
 30
0.0
 11
1358.922928
 21
698.983956
 31
0.0
  0
ARC
  5
674
100
AcDbEntity
  8
止水栓
  6
CONTINUOUS
 62
     6
100
AcDbCircle
 10
1387.922928
 20
662.506465
 30
0.0
 40
5.0
100
AcDbArc
 50
90.0
 51
180.0
  0
LINE
  5
675
100
AcDbEntity
  8
止水栓
  6
CONTINUOUS
 62
     6
100
AcDbLine
 10
1382.922928
 20
662.494504
 30
0.0
 11
1382.922928
 21
662.373921
 31
0.0
  0
LINE
  5
676
100
AcDbEntity
  8
止水栓
  6
CONTINUOUS
 62
     6
100
AcDbLine
 10
1360.653005
 20
646.970688
 30
0.0
 11
1361.707173
 21
648.778011
 31
0.0
  0
LINE
  5
677
100
AcDbEntity
  8
止水栓
  6
CONTINUOUS
 62
     6
100
AcDbLine
 10
1361.743046
 20
649.984733
 30
0.0
 11
1361.707173
 21
648.778011
 31
0.0
  0
LINE
  5
678
100
AcDbEntity
  8
止水栓
  6
CONTINUOUS
 62
     6
100
AcDbLine
 10
1360.742604
 20
649.984733
 30
0.0
 11
1360.653005
 21
646.970688
 31
0.0
  0
LINE
  5
679
100
AcDbEntity
  8
止水栓
  6
CONTINUOUS
 62
     6
100
AcDbLine
 10
1381.153005
 20
646.970688
 30
0.0
 11
1380.098837
 21
648.778011
 31
0.0
  0
LINE
  5
67A
100
AcDbEntity
  8
止水栓
  6
CONTINUOUS
 62
     6
100
AcDbLine
 10
1380.062965
 20
649.984733
 30
0.0
 11
1380.098837
 21
648.778011
 31
0.0
  0
LINE
  5
67B
100
AcDbEntity
  8
止水栓
  6
CONTINUOUS
 62
     6
100
AcDbLine
 10
1381.063407
 20
649.984733
 30
0.0
 11
1381.153005
 21
646.970688
 31
0.0
  0
LINE
  5
67C
100
AcDbEntity
  8
止水栓
  6
CONTINUOUS
 62
     6
100
AcDbLine
 10
1381.099279
 20
648.778011
 30
0.0
 11
1360.706732
 21
648.778011
 31
0.0
  0
LINE
  5
67D
100
AcDbEntity
  8
止水栓
  6
CONTINUOUS
 62
     6
100
AcDbLine
 10
1358.672928
 20
649.981532
 30
0.0
 11
1383.172928
 21
649.981532
 31
0.0
  0
LINE
  5
67E
100
AcDbEntity
  8
止水栓
  6
CONTINUOUS
 62
     6
100
AcDbLine
 10
1358.172928
 20
659.342832
 30
0.0
 11
1358.172928
 21
650.270208
 31
0.0
  0
LINE
  5
67F
100
AcDbEntity
  8
止水栓
  6
CONTINUOUS
 62
     6
100
AcDbLine
 10
1383.672928
 20
659.342832
 30
0.0
 11
1383.672928
 21
650.270208
 31
0.0
  0
LINE
  5
680
100
AcDbEntity
  8
止水栓
  6
CONTINUOUS
 62
     6
100
AcDbLine
 10
1383.172928
 20
649.981532
 30
0.0
 11
1383.672928
 21
650.270208
 31
0.0
  0
LINE
  5
681
100
AcDbEntity
  8
止水栓
  6
CONTINUOUS
 62
     6
100
AcDbLine
 10
1358.672928
 20
649.981532
 30
0.0
 11
1358.172928
 21
650.270208
 31
0.0
  0
ARC
  5
682
100
AcDbEntity
  8
止水栓
  6
CONTINUOUS
 62
     6
100
AcDbCircle
 10
1364.547928
 20
649.159878
 30
0.0
 40
10.182953
100
AcDbArc
 50
51.240977
 51
128.759023
  0
ARC
  5
683
100
AcDbEntity
  8
止水栓
  6
CONTINUOUS
 62
     6
100
AcDbCircle
 10
1377.297928
 20
649.159878
 30
0.0
 40
10.182953
100
AcDbArc
 50
51.240977
 51
128.759023
  0
ARC
  5
684
100
AcDbEntity
  8
止水栓
  6
CONTINUOUS
 62
     6
100
AcDbCircle
 10
1364.547928
 20
668.882259
 30
0.0
 40
18.612052
100
AcDbArc
 50
249.969519
 51
290.030481
  0
ARC
  5
685
100
AcDbEntity
  8
止水栓
  6
CONTINUOUS
 62
     6
100
AcDbCircle
 10
1377.297928
 20
668.882259
 30
0.0
 40
18.612052
100
AcDbArc
 50
249.969519
 51
290.030481
  0
ARC
  5
686
100
AcDbEntity
  8
止水栓
  6
CONTINUOUS
 62
     6
100
AcDbCircle
 10
1389.422928
 20
662.373921
 30
0.0
 40
6.5
100
AcDbArc
 50
180.0
 51
207.795772
  0
ARC
  5
687
100
AcDbEntity
  8
止水栓
  6
CONTINUOUS
 62
     6
100
AcDbCircle
 10
1352.422928
 20
662.373921
 30
0.0
 40
6.5
100
AcDbArc
 50
332.204228
 51
0.0
  0
LINE
  5
688
100
AcDbEntity
  8
止水栓
  6
CONTINUOUS
 62
     6
100
AcDbLine
 10
1388.796837
 20
667.506466
 30
0.0
 11
1390.922966
 21
668.73399
 31
0.0
  0
LINE
  5
689
100
AcDbEntity
  8
止水栓
  6
CONTINUOUS
 62
     6
100
AcDbLine
 10
1390.922968
 20
688.461455
 30
0.0
 11
1390.922968
 21
667.506465
 31
0.0
  0
LINE
  5
68A
100
AcDbEntity
  8
止水栓
  6
CONTINUOUS
 62
     6
100
AcDbLine
 10
1360.653005
 20
646.970688
 30
0.0
 11
1360.653005
 21
640.307488
 31
0.0
  0
LINE
  5
68B
100
AcDbEntity
  8
止水栓
  6
CONTINUOUS
 62
     6
100
AcDbLine
 10
1381.153005
 20
646.970688
 30
0.0
 11
1381.153005
 21
640.307488
 31
0.0
  0
ARC
  5
68C
100
AcDbEntity
  8
止水栓
  6
CONTINUOUS
 62
     6
100
AcDbCircle
 10
1385.722928
 20
626.813793
 30
0.0
 40
12.7
100
AcDbArc
 50
0.0
 51
58.561141
  0
POLYLINE
  5
68D
100
AcDbEntity
  8
止水栓
  6
CONTINUOUS
 62
     6
100
AcDb2dPolyline
 66
     1
 10
0.0
 20
0.0
 30
0.0
 70
   128
  0
VERTEX
  5
68E
100
AcDbEntity
  8
止水栓
  6
CONTINUOUS
 62
     6
100
AcDbVertex
100
AcDb2dVertex
 10
1398.422928
 20
626.813793
 30
0.0
  0
VERTEX
  5
68F
100
AcDbEntity
  8
止水栓
  6
CONTINUOUS
 62
     6
100
AcDbVertex
100
AcDb2dVertex
 10
1398.422928
 20
624.310688
 30
0.0
  0
SEQEND
  5
690
100
AcDbEntity
  8
止水栓
  6
CONTINUOUS
 62
     6
  0
LINE
  5
691
100
AcDbEntity
  8
止水栓
  6
CONTINUOUS
 62
     6
100
AcDbLine
 10
468.388906
 20
640.310688
 30
0.0
 11
441.388906
 21
640.310688
 31
0.0
  0
LINE
  5
692
100
AcDbEntity
  8
止水栓
  6
CONTINUOUS
 62
     6
100
AcDbLine
 10
444.618984
 20
646.973888
 30
0.0
 11
444.618984
 21
640.310688
 31
0.0
  0
LINE
  5
693
100
AcDbEntity
  8
止水栓
  6
CONTINUOUS
 62
     6
100
AcDbLine
 10
465.118984
 20
646.973888
 30
0.0
 11
465.118984
 21
640.310688
 31
0.0
  0
ARC
  5
694
100
AcDbEntity
  8
止水栓
  6
CONTINUOUS
 62
     6
100
AcDbCircle
 10
441.388906
 20
626.310688
 30
0.0
 40
14.0
100
AcDbArc
 50
90.0
 51
180.0
  0
LINE
  5
695
100
AcDbEntity
  8
止水栓
  6
CONTINUOUS
 62
     6
100
AcDbLine
 10
465.188906
 20
624.310688
 30
0.0
 11
465.188906
 21
618.630688
 31
0.0
  0
LINE
  5
696
100
AcDbEntity
  8
止水栓
  6
CONTINUOUS
 62
     6
100
AcDbLine
 10
463.959422
 20
616.471204
 30
0.0
 11
464.204406
 21
624.310688
 31
0.0
  0
LINE
  5
697
100
AcDbEntity
  8
止水栓
  6
CONTINUOUS
 62
     6
100
AcDbLine
 10
465.158281
 20
617.650688
 30
0.0
 11
444.619531
 21
617.650688
 31
0.0
  0
LINE
  5
698
100
AcDbEntity
  8
止水栓
  6
CONTINUOUS
 62
     6
100
AcDbLine
 10
465.188906
 20
618.630688
 30
0.0
 11
465.158281
 21
617.650688
 31
0.0
  0
LINE
  5
699
100
AcDbEntity
  8
止水栓
  6
CONTINUOUS
 62
     6
100
AcDbLine
 10
465.157281
 20
617.649688
 30
0.0
 11
463.658281
 21
616.150688
 31
0.0
  0
LINE
  5
69A
100
AcDbEntity
  8
止水栓
  6
CONTINUOUS
 62
     6
100
AcDbLine
 10
463.658281
 20
616.150688
 30
0.0
 11
446.119531
 21
616.150688
 31
0.0
  0
LINE
  5
69B
100
AcDbEntity
  8
止水栓
  6
CONTINUOUS
 62
     6
100
AcDbLine
 10
445.81839
 20
616.471204
 30
0.0
 11
445.573406
 21
624.310688
 31
0.0
  0
LINE
  5
69C
100
AcDbEntity
  8
止水栓
  6
CONTINUOUS
 62
     6
100
AcDbLine
 10
444.620531
 20
617.649688
 30
0.0
 11
446.119531
 21
616.150688
 31
0.0
  0
LINE
  5
69D
100
AcDbEntity
  8
止水栓
  6
CONTINUOUS
 62
     6
100
AcDbLine
 10
444.588906
 20
624.310688
 30
0.0
 11
444.588906
 21
618.630688
 31
0.0
  0
LINE
  5
69E
100
AcDbEntity
  8
止水栓
  6
CONTINUOUS
 62
     6
100
AcDbLine
 10
444.588906
 20
618.630688
 30
0.0
 11
444.619531
 21
617.650688
 31
0.0
  0
LINE
  5
69F
100
AcDbEntity
  8
止水栓
  6
CONTINUOUS
 62
     6
100
AcDbLine
 10
427.388906
 20
624.310688
 30
0.0
 11
427.388906
 21
626.310688
 31
0.0
  0
LINE
  5
6A0
100
AcDbEntity
  8
止水栓
  6
CONTINUOUS
 62
     6
100
AcDbLine
 10
482.388906
 20
624.310688
 30
0.0
 11
482.388906
 21
626.310688
 31
0.0
  0
ARC
  5
6A1
100
AcDbEntity
  8
止水栓
  6
CONTINUOUS
 62
     6
100
AcDbCircle
 10
468.388906
 20
626.310688
 30
0.0
 40
14.0
100
AcDbArc
 50
0.0
 51
90.0
  0
ARC
  5
6A2
100
AcDbEntity
  8
止水栓
  6
CONTINUOUS
 62
     6
100
AcDbCircle
 10
483.863646
 20
652.985171
 30
0.0
 40
25.0
100
AcDbArc
 50
141.057556
 51
141.057605
  0
LINE
  5
6A3
100
AcDbEntity
  8
止水栓
  6
CONTINUOUS
 62
     6
100
AcDbLine
 10
455.788891
 20
699.670957
 30
0.0
 11
463.888891
 21
699.670957
 31
0.0
  0
LINE
  5
6A4
100
AcDbEntity
  8
止水栓
  6
CONTINUOUS
 62
     6
100
AcDbLine
 10
453.988891
 20
699.670957
 30
0.0
 11
445.888891
 21
699.670957
 31
0.0
  0
LINE
  5
6A5
100
AcDbEntity
  8
止水栓
  6
CONTINUOUS
 62
     6
100
AcDbLine
 10
453.988891
 20
699.670957
 30
0.0
 11
453.988891
 21
698.970957
 31
0.0
  0
LINE
  5
6A6
100
AcDbEntity
  8
止水栓
  6
CONTINUOUS
 62
     6
100
AcDbLine
 10
455.788891
 20
699.670957
 30
0.0
 11
455.788891
 21
698.970957
 31
0.0
  0
LINE
  5
6A7
100
AcDbEntity
  8
止水栓
  6
CONTINUOUS
 62
     6
100
AcDbLine
 10
445.888891
 20
699.670957
 30
0.0
 11
445.888891
 21
698.970957
 31
0.0
  0
LINE
  5
6A8
100
AcDbEntity
  8
止水栓
  6
CONTINUOUS
 62
     6
100
AcDbLine
 10
463.888891
 20
699.670957
 30
0.0
 11
463.888891
 21
698.970957
 31
0.0
  0
LINE
  5
6A9
100
AcDbEntity
  8
止水栓
  6
CONTINUOUS
 62
     6
100
AcDbLine
 10
442.888891
 20
698.970957
 30
0.0
 11
466.888891
 21
698.970957
 31
0.0
  0
LINE
  5
6AA
100
AcDbEntity
  8
止水栓
  6
CONTINUOUS
 62
     6
100
AcDbLine
 10
442.888891
 20
698.970957
 30
0.0
 11
442.888891
 21
662.496721
 31
0.0
  0
LINE
  5
6AB
100
AcDbEntity
  8
止水栓
  6
CONTINUOUS
 62
     6
100
AcDbLine
 10
466.888891
 20
698.970957
 30
0.0
 11
466.888891
 21
661.459726
 31
0.0
  0
LINE
  5
6AC
100
AcDbEntity
  8
止水栓
  6
CONTINUOUS
 62
     6
100
AcDbLine
 10
444.712539
 20
648.764999
 30
0.0
 11
465.105087
 21
648.764999
 31
0.0
  0
LINE
  5
6AD
100
AcDbEntity
  8
止水栓
  6
CONTINUOUS
 62
     6
100
AcDbLine
 10
467.888891
 20
649.971721
 30
0.0
 11
441.888891
 21
649.971721
 31
0.0
  0
ARC
  5
6AE
100
AcDbEntity
  8
止水栓
  6
CONTINUOUS
 62
     6
100
AcDbCircle
 10
454.888891
 20
633.896156
 30
0.0
 40
25.78689
100
AcDbArc
 50
73.078523
 51
106.828962
  0
LINE
  5
6AF
100
AcDbEntity
  8
止水栓
  6
CONTINUOUS
 62
     6
100
AcDbLine
 10
447.423182
 20
651.088176
 30
0.0
 11
447.423182
 21
658.566591
 31
0.0
  0
ARC
  5
6B0
100
AcDbEntity
  8
止水栓
  6
CONTINUOUS
 62
     6
100
AcDbCircle
 10
454.888891
 20
675.758611
 30
0.0
 40
25.78689
100
AcDbArc
 50
253.141624
 51
286.921477
  0
LINE
  5
6B1
100
AcDbEntity
  8
止水栓
  6
CONTINUOUS
 62
     6
100
AcDbLine
 10
444.748412
 20
649.971721
 30
0.0
 11
444.658813
 21
646.957676
 31
0.0
  0
LINE
  5
6B2
100
AcDbEntity
  8
止水栓
  6
CONTINUOUS
 62
     6
100
AcDbLine
 10
445.748853
 20
649.971721
 30
0.0
 11
445.712981
 21
648.764999
 31
0.0
  0
LINE
  5
6B3
100
AcDbEntity
  8
止水栓
  6
CONTINUOUS
 62
     6
100
AcDbLine
 10
444.658813
 20
646.957676
 30
0.0
 11
445.712981
 21
648.764999
 31
0.0
  0
ARC
  5
6B4
100
AcDbEntity
  8
止水栓
  6
CONTINUOUS
 62
     6
100
AcDbCircle
 10
443.670431
 20
656.836959
 30
0.0
 40
6.865249
100
AcDbArc
 50
246.844796
 51
303.136123
  0
ARC
  5
6B5
100
AcDbEntity
  8
止水栓
  6
CONTINUOUS
 62
     6
100
AcDbCircle
 10
443.670431
 20
652.817808
 30
0.0
 40
6.865249
100
AcDbArc
 50
56.863877
 51
123.136123
  0
LINE
  5
6B6
100
AcDbEntity
  8
止水栓
  6
CONTINUOUS
 62
     6
100
AcDbLine
 10
462.394444
 20
651.088176
 30
0.0
 11
462.394444
 21
658.566591
 31
0.0
  0
ARC
  5
6B7
100
AcDbEntity
  8
止水栓
  6
CONTINUOUS
 62
     6
100
AcDbCircle
 10
466.147196
 20
656.836959
 30
0.0
 40
6.865249
100
AcDbArc
 50
236.863877
 51
293.155204
  0
LINE
  5
6B8
100
AcDbEntity
  8
止水栓
  6
CONTINUOUS
 62
     6
100
AcDbLine
 10
465.069215
 20
649.971721
 30
0.0
 11
465.158813
 21
646.957676
 31
0.0
  0
LINE
  5
6B9
100
AcDbEntity
  8
止水栓
  6
CONTINUOUS
 62
     6
100
AcDbLine
 10
439.877834
 20
651.132805
 30
0.0
 11
441.888891
 21
649.971721
 31
0.0
  0
ARC
  5
6BA
100
AcDbEntity
  8
止水栓
  6
CONTINUOUS
 62
     6
100
AcDbCircle
 10
468.888891
 20
661.459726
 30
0.0
 40
2.0
100
AcDbArc
 50
180.0
 51
240.0
  0
ARC
  5
6BB
100
AcDbEntity
  8
止水栓
  6
CONTINUOUS
 62
     6
100
AcDbCircle
 10
440.888891
 20
661.459726
 30
0.0
 40
2.0
100
AcDbArc
 50
300.0
 51
0.0
  0
LINE
  5
6BC
100
AcDbEntity
  8
止水栓
  6
CONTINUOUS
 62
     6
100
AcDbLine
 10
442.888891
 20
662.496721
 30
0.0
 11
442.888891
 21
661.459726
 31
0.0
  0
LINE
  5
6BD
100
AcDbEntity
  8
止水栓
  6
CONTINUOUS
 62
     6
100
AcDbLine
 10
439.877834
 20
658.566591
 30
0.0
 11
441.888891
 21
659.727675
 31
0.0
  0
LINE
  5
6BE
100
AcDbEntity
  8
止水栓
  6
CONTINUOUS
 62
     6
100
AcDbLine
 10
439.877834
 20
651.132805
 30
0.0
 11
439.877834
 21
658.566591
 31
0.0
  0
LINE
  5
6BF
100
AcDbEntity
  8
止水栓
  6
CONTINUOUS
 62
     6
100
AcDbLine
 10
464.068773
 20
649.971721
 30
0.0
 11
464.104645
 21
648.764999
 31
0.0
  0
LINE
  5
6C0
100
AcDbEntity
  8
止水栓
  6
CONTINUOUS
 62
     6
100
AcDbLine
 10
465.158813
 20
646.957676
 30
0.0
 11
464.104645
 21
648.764999
 31
0.0
  0
ARC
  5
6C1
100
AcDbEntity
  8
止水栓
  6
CONTINUOUS
 62
     6
100
AcDbCircle
 10
466.147196
 20
652.817808
 30
0.0
 40
6.865249
100
AcDbArc
 50
56.863877
 51
123.136123
  0
LINE
  5
6C2
100
AcDbEntity
  8
止水栓
  6
CONTINUOUS
 62
     6
100
AcDbLine
 10
469.899948
 20
658.566591
 30
0.0
 11
467.888891
 21
659.727675
 31
0.0
  0
LINE
  5
6C3
100
AcDbEntity
  8
止水栓
  6
CONTINUOUS
 62
     6
100
AcDbLine
 10
469.899948
 20
651.132805
 30
0.0
 11
467.888891
 21
649.971721
 31
0.0
  0
LINE
  5
6C4
100
AcDbEntity
  8
止水栓
  6
CONTINUOUS
 62
     6
100
AcDbLine
 10
469.899948
 20
651.132805
 30
0.0
 11
469.899948
 21
658.566591
 31
0.0
  0
LINE
  5
6C5
100
AcDbEntity
  8
止水栓
  6
EXLTYPE2
 62
     6
100
AcDbLine
 10
345.183674
 20
933.212587
 30
0.0
 11
354.888906
 21
933.501095
 31
0.0
  0
LINE
  5
6C6
100
AcDbEntity
  8
止水栓
  6
EXLTYPE2
 62
     6
100
AcDbLine
 10
345.183674
 20
915.448634
 30
0.0
 11
354.888906
 21
915.160126
 31
0.0
  0
LINE
  5
6C7
100
AcDbEntity
  8
止水栓
  6
EXLTYPE2
 62
     6
100
AcDbLine
 10
345.7751
 20
934.23061
 30
0.0
 11
354.888906
 21
934.501537
 31
0.0
  0
LINE
  5
6C8
100
AcDbEntity
  8
止水栓
  6
EXLTYPE2
 62
     6
100
AcDbLine
 10
345.7751
 20
914.43061
 30
0.0
 11
354.888906
 21
914.159684
 31
0.0
  0
LINE
  5
6C9
100
AcDbEntity
  8
止水栓
  6
EXLTYPE2
 62
     6
100
AcDbLine
 10
345.048906
 20
915.68061
 30
0.0
 11
345.7751
 21
914.43061
 31
0.0
  0
LINE
  5
6CA
100
AcDbEntity
  8
止水栓
  6
EXLTYPE2
 62
     6
100
AcDbLine
 10
345.048906
 20
915.68061
 30
0.0
 11
345.048906
 21
932.98061
 31
0.0
  0
LINE
  5
6CB
100
AcDbEntity
  8
止水栓
  6
EXLTYPE2
 62
     6
100
AcDbLine
 10
345.048906
 20
932.98061
 30
0.0
 11
345.7751
 21
934.23061
 31
0.0
  0
LINE
  5
6CC
100
AcDbEntity
  8
止水栓
  6
EXLTYPE2
 62
     6
100
AcDbLine
 10
345.7751
 20
914.43061
 30
0.0
 11
345.7751
 21
934.23061
 31
0.0
  0
ARC
  5
6CD
100
AcDbEntity
  8
止水栓
  6
EXLTYPE2
 62
     6
100
AcDbCircle
 10
357.392011
 20
909.510688
 30
0.0
 40
12.7
100
AcDbArc
 50
270.0
 51
328.561141
  0
ARC
  5
6CE
100
AcDbEntity
  8
止水栓
  6
EXLTYPE2
 62
     6
100
AcDbCircle
 10
345.888906
 20
914.110688
 30
0.0
 40
25.0
100
AcDbArc
 50
333.322579
 51
359.083228
  0
POLYLINE
  5
6CF
100
AcDbEntity
  8
止水栓
  6
EXLTYPE2
 62
     6
100
AcDb2dPolyline
 66
     1
 10
0.0
 20
0.0
 30
0.0
 70
   128
  0
VERTEX
  5
6D0
100
AcDbEntity
  8
止水栓
  6
EXLTYPE2
 62
     6
100
AcDbVertex
100
AcDb2dVertex
 10
357.392011
 20
896.810688
 30
0.0
  0
VERTEX
  5
6D1
100
AcDbEntity
  8
止水栓
  6
EXLTYPE2
 62
     6
100
AcDbVertex
100
AcDb2dVertex
 10
354.888906
 20
896.810688
 30
0.0
  0
SEQEND
  5
6D2
100
AcDbEntity
  8
止水栓
  6
EXLTYPE2
 62
     6
  0
ARC
  5
6D3
100
AcDbEntity
  8
止水栓
  6
EXLTYPE2
 62
     6
100
AcDbCircle
 10
357.392011
 20
939.110688
 30
0.0
 40
12.7
100
AcDbArc
 50
31.438859
 51
90.0
  0
LINE
  5
6D4
100
AcDbEntity
  8
止水栓
  6
EXLTYPE2
 62
     6
100
AcDbLine
 10
357.392011
 20
951.810688
 30
0.0
 11
354.888906
 21
951.810688
 31
0.0
  0
ARC
  5
6D5
100
AcDbEntity
  8
止水栓
  6
EXLTYPE2
 62
     6
100
AcDbCircle
 10
345.888906
 20
934.510688
 30
0.0
 40
25.0
100
AcDbArc
 50
0.916772
 51
26.677421
  0
LINE
  5
6D6
100
AcDbEntity
  8
止水栓
  6
EXLTYPE2
 62
     6
100
AcDbLine
 10
377.548906
 20
934.58061
 30
0.0
 11
370.885706
 21
934.58061
 31
0.0
  0
LINE
  5
6D7
100
AcDbEntity
  8
止水栓
  6
EXLTYPE2
 62
     6
100
AcDbLine
 10
377.548906
 20
914.08061
 30
0.0
 11
370.885706
 21
914.08061
 31
0.0
  0
LINE
  5
6D8
100
AcDbEntity
  8
止水栓
  6
EXLTYPE2
 62
     6
100
AcDbLine
 10
370.885706
 20
913.710688
 30
0.0
 11
370.885706
 21
934.910688
 31
0.0
  0
ARC
  5
6D9
100
AcDbEntity
  8
止水栓
  6
EXLTYPE2
 62
     6
100
AcDbCircle
 10
345.888906
 20
914.110688
 30
0.0
 40
25.0
100
AcDbArc
 50
333.322579
 51
359.083228
  0
LINE
  5
6DA
100
AcDbEntity
  8
止水栓
  6
EXLTYPE2
 62
     6
100
AcDbLine
 10
377.536891
 20
934.58061
 30
0.0
 11
379.344213
 21
933.526442
 31
0.0
  0
LINE
  5
6DB
100
AcDbEntity
  8
止水栓
  6
EXLTYPE2
 62
     6
100
AcDbLine
 10
380.550935
 20
933.49057
 30
0.0
 11
379.344213
 21
933.526442
 31
0.0
  0
LINE
  5
6DC
100
AcDbEntity
  8
止水栓
  6
EXLTYPE2
 62
     6
100
AcDbLine
 10
380.550935
 20
934.491012
 30
0.0
 11
377.536891
 21
934.58061
 31
0.0
  0
LINE
  5
6DD
100
AcDbEntity
  8
止水栓
  6
EXLTYPE2
 62
     6
100
AcDbLine
 10
377.536891
 20
914.08061
 30
0.0
 11
379.344213
 21
915.134779
 31
0.0
  0
LINE
  5
6DE
100
AcDbEntity
  8
止水栓
  6
EXLTYPE2
 62
     6
100
AcDbLine
 10
380.550935
 20
915.170651
 30
0.0
 11
379.344213
 21
915.134779
 31
0.0
  0
LINE
  5
6DF
100
AcDbEntity
  8
止水栓
  6
EXLTYPE2
 62
     6
100
AcDbLine
 10
380.550935
 20
914.170209
 30
0.0
 11
377.536891
 21
914.08061
 31
0.0
  0
LINE
  5
6E0
100
AcDbEntity
  8
止水栓
  6
EXLTYPE2
 62
     6
100
AcDbLine
 10
379.344213
 20
914.134337
 30
0.0
 11
379.344213
 21
934.526884
 31
0.0
  0
LINE
  5
6E1
100
AcDbEntity
  8
止水栓
  6
EXLTYPE2
 62
     6
100
AcDbLine
 10
380.547735
 20
936.560688
 30
0.0
 11
380.547735
 21
912.060688
 31
0.0
  0
LINE
  5
6E2
100
AcDbEntity
  8
止水栓
  6
EXLTYPE2
 62
     6
100
AcDbLine
 10
389.909034
 20
937.060688
 30
0.0
 11
380.83641
 21
937.060688
 31
0.0
  0
LINE
  5
6E3
100
AcDbEntity
  8
止水栓
  6
EXLTYPE2
 62
     6
100
AcDbLine
 10
389.909034
 20
911.560688
 30
0.0
 11
380.83641
 21
911.560688
 31
0.0
  0
LINE
  5
6E4
100
AcDbEntity
  8
止水栓
  6
EXLTYPE2
 62
     6
100
AcDbLine
 10
380.547735
 20
912.060688
 30
0.0
 11
380.83641
 21
911.560688
 31
0.0
  0
LINE
  5
6E5
100
AcDbEntity
  8
止水栓
  6
EXLTYPE2
 62
     6
100
AcDbLine
 10
380.547735
 20
936.560688
 30
0.0
 11
380.83641
 21
937.060688
 31
0.0
  0
ARC
  5
6E6
100
AcDbEntity
  8
止水栓
  6
EXLTYPE2
 62
     6
100
AcDbCircle
 10
379.726081
 20
930.685688
 30
0.0
 40
10.182953
100
AcDbArc
 50
321.240977
 51
38.759023
  0
ARC
  5
6E7
100
AcDbEntity
  8
止水栓
  6
EXLTYPE2
 62
     6
100
AcDbCircle
 10
379.726081
 20
917.935688
 30
0.0
 40
10.182953
100
AcDbArc
 50
321.240977
 51
38.759023
  0
ARC
  5
6E8
100
AcDbEntity
  8
止水栓
  6
EXLTYPE2
 62
     6
100
AcDbCircle
 10
399.448462
 20
930.685688
 30
0.0
 40
18.612052
100
AcDbArc
 50
159.969519
 51
200.030481
  0
ARC
  5
6E9
100
AcDbEntity
  8
止水栓
  6
EXLTYPE2
 62
     6
100
AcDbCircle
 10
399.448462
 20
917.935688
 30
0.0
 40
18.612052
100
AcDbArc
 50
159.969519
 51
200.030481
  0
ARC
  5
6EA
100
AcDbEntity
  8
止水栓
  6
EXLTYPE2
 62
     6
100
AcDbCircle
 10
393.087951
 20
907.310688
 30
0.0
 40
5.0
100
AcDbArc
 50
0.0
 51
90.0
  0
LINE
  5
6EB
100
AcDbEntity
  8
止水栓
  6
EXLTYPE2
 62
     6
100
AcDbLine
 10
430.250158
 20
925.210688
 30
0.0
 11
430.250158
 21
933.310688
 31
0.0
  0
LINE
  5
6EC
100
AcDbEntity
  8
止水栓
  6
EXLTYPE2
 62
     6
100
AcDbLine
 10
430.250158
 20
923.410688
 30
0.0
 11
430.250158
 21
915.310688
 31
0.0
  0
LINE
  5
6ED
100
AcDbEntity
  8
止水栓
  6
EXLTYPE2
 62
     6
100
AcDbLine
 10
430.250158
 20
923.410688
 30
0.0
 11
429.550158
 21
923.410688
 31
0.0
  0
LINE
  5
6EE
100
AcDbEntity
  8
止水栓
  6
EXLTYPE2
 62
     6
100
AcDbLine
 10
430.250158
 20
925.210688
 30
0.0
 11
429.550158
 21
925.210688
 31
0.0
  0
LINE
  5
6EF
100
AcDbEntity
  8
止水栓
  6
EXLTYPE2
 62
     6
100
AcDbLine
 10
430.250158
 20
915.310688
 30
0.0
 11
429.550158
 21
915.310688
 31
0.0
  0
LINE
  5
6F0
100
AcDbEntity
  8
止水栓
  6
EXLTYPE2
 62
     6
100
AcDbLine
 10
430.250158
 20
933.310688
 30
0.0
 11
429.550158
 21
933.310688
 31
0.0
  0
LINE
  5
6F1
100
AcDbEntity
  8
止水栓
  6
EXLTYPE2
 62
     6
100
AcDbLine
 10
429.550158
 20
912.310688
 30
0.0
 11
429.550158
 21
936.310688
 31
0.0
  0
LINE
  5
6F2
100
AcDbEntity
  8
止水栓
  6
EXLTYPE2
 62
     6
100
AcDbLine
 10
429.550158
 20
912.310688
 30
0.0
 11
421.803655
 21
912.310688
 31
0.0
  0
LINE
  5
6F3
100
AcDbEntity
  8
止水栓
  6
EXLTYPE2
 62
     6
100
AcDbLine
 10
392.940123
 20
936.310688
 30
0.0
 11
429.550158
 21
936.310688
 31
0.0
  0
ARC
  5
6F4
100
AcDbEntity
  8
止水栓
  6
EXLTYPE2
 62
     6
100
AcDbCircle
 10
423.985525
 20
907.811861
 30
0.0
 40
5.0
100
AcDbArc
 50
115.872755
 51
171.499305
  0
ARC
  5
6F5
100
AcDbEntity
  8
止水栓
  6
EXLTYPE2
 62
     6
100
AcDbCircle
 10
392.940123
 20
942.810688
 30
0.0
 40
6.5
100
AcDbArc
 50
242.204228
 51
270.0
  0
ARC
  5
6F6
100
AcDbEntity
  8
止水栓
  6
EXLTYPE2
 62
     6
100
AcDbCircle
 10
392.940123
 20
905.810688
 30
0.0
 40
6.5
100
AcDbArc
 50
90.0
 51
117.795772
  0
LINE
  5
6F7
100
AcDbEntity
  8
止水栓
  6
EXLTYPE3
 62
     6
100
AcDbLine
 10
341.1
 20
924.310688
 30
0.0
 11
434.0
 21
924.310688
 31
0.0
  0
ARC
  5
6F8
100
AcDbEntity
  8
止水栓
  6
EXLTYPE2
 62
     6
100
AcDbCircle
 10
356.887962
 20
2144.810688
 30
0.0
 40
14.0
100
AcDbArc
 50
0.0
 51
90.0
  0
LINE
  5
6F9
100
AcDbEntity
  8
止水栓
  6
EXLTYPE2
 62
     6
100
AcDbLine
 10
354.887962
 20
2158.810688
 30
0.0
 11
356.887962
 21
2158.810688
 31
0.0
  0
ARC
  5
6FA
100
AcDbEntity
  8
止水栓
  6
EXLTYPE2
 62
     6
100
AcDbCircle
 10
356.887962
 20
2117.810688
 30
0.0
 40
14.0
100
AcDbArc
 50
270.0
 51
0.0
  0
LINE
  5
6FB
100
AcDbEntity
  8
止水栓
  6
EXLTYPE2
 62
     6
100
AcDbLine
 10
354.887962
 20
2103.810688
 30
0.0
 11
356.887962
 21
2103.810688
 31
0.0
  0
LINE
  5
6FC
100
AcDbEntity
  8
止水栓
  6
EXLTYPE2
 62
     6
100
AcDbLine
 10
354.887962
 20
2121.010688
 30
0.0
 11
349.207962
 21
2121.010688
 31
0.0
  0
LINE
  5
6FD
100
AcDbEntity
  8
止水栓
  6
EXLTYPE2
 62
     6
100
AcDbLine
 10
347.048478
 20
2122.240172
 30
0.0
 11
354.887962
 21
2121.995188
 31
0.0
  0
LINE
  5
6FE
100
AcDbEntity
  8
止水栓
  6
EXLTYPE2
 62
     6
100
AcDbLine
 10
348.227962
 20
2121.041313
 30
0.0
 11
348.227962
 21
2141.580063
 31
0.0
  0
LINE
  5
6FF
100
AcDbEntity
  8
止水栓
  6
EXLTYPE2
 62
     6
100
AcDbLine
 10
349.207962
 20
2121.010688
 30
0.0
 11
348.227962
 21
2121.041313
 31
0.0
  0
LINE
  5
700
100
AcDbEntity
  8
止水栓
  6
EXLTYPE2
 62
     6
100
AcDbLine
 10
348.226962
 20
2121.042313
 30
0.0
 11
346.727962
 21
2122.541313
 31
0.0
  0
LINE
  5
701
100
AcDbEntity
  8
止水栓
  6
EXLTYPE2
 62
     6
100
AcDbLine
 10
346.727962
 20
2122.541313
 30
0.0
 11
346.727962
 21
2140.080063
 31
0.0
  0
LINE
  5
702
100
AcDbEntity
  8
止水栓
  6
EXLTYPE2
 62
     6
100
AcDbLine
 10
347.048478
 20
2140.381204
 30
0.0
 11
354.887962
 21
2140.626188
 31
0.0
  0
LINE
  5
703
100
AcDbEntity
  8
止水栓
  6
EXLTYPE2
 62
     6
100
AcDbLine
 10
348.226962
 20
2141.579063
 30
0.0
 11
346.727962
 21
2140.080063
 31
0.0
  0
LINE
  5
704
100
AcDbEntity
  8
止水栓
  6
EXLTYPE2
 62
     6
100
AcDbLine
 10
354.887962
 20
2141.610688
 30
0.0
 11
349.207962
 21
2141.610688
 31
0.0
  0
LINE
  5
705
100
AcDbEntity
  8
止水栓
  6
EXLTYPE2
 62
     6
100
AcDbLine
 10
349.207962
 20
2141.610688
 30
0.0
 11
348.227962
 21
2141.580063
 31
0.0
  0
LINE
  5
706
100
AcDbEntity
  8
止水栓
  6
EXLTYPE2
 62
     6
100
AcDbLine
 10
430.250158
 20
2130.410703
 30
0.0
 11
430.250158
 21
2122.310703
 31
0.0
  0
LINE
  5
707
100
AcDbEntity
  8
止水栓
  6
EXLTYPE2
 62
     6
100
AcDbLine
 10
430.250158
 20
2132.210703
 30
0.0
 11
430.250158
 21
2140.310703
 31
0.0
  0
LINE
  5
708
100
AcDbEntity
  8
止水栓
  6
EXLTYPE2
 62
     6
100
AcDbLine
 10
380.550922
 20
2121.881272
 30
0.0
 11
379.356229
 21
2121.843938
 31
0.0
  0
LINE
  5
709
100
AcDbEntity
  8
止水栓
  6
EXLTYPE2
 62
     6
100
AcDbLine
 10
380.550922
 20
2140.740104
 30
0.0
 11
379.356229
 21
2140.777438
 31
0.0
  0
LINE
  5
70A
100
AcDbEntity
  8
止水栓
  6
EXLTYPE2
 62
     6
100
AcDbLine
 10
380.550922
 20
2121.010688
 30
0.0
 11
370.888906
 21
2121.010688
 31
0.0
  0
LINE
  5
70B
100
AcDbEntity
  8
止水栓
  6
EXLTYPE2
 62
     6
100
AcDbLine
 10
380.550922
 20
2141.610688
 30
0.0
 11
370.888906
 21
2141.610688
 31
0.0
  0
LINE
  5
70C
100
AcDbEntity
  8
止水栓
  6
EXLTYPE2
 62
     6
100
AcDbLine
 10
381.712006
 20
2146.32176
 30
0.0
 11
389.145792
 21
2146.32176
 31
0.0
  0
LINE
  5
70D
100
AcDbEntity
  8
止水栓
  6
EXLTYPE2
 62
     6
100
AcDbLine
 10
389.145792
 20
2146.32176
 30
0.0
 11
390.306876
 21
2144.310703
 31
0.0
  0
LINE
  5
70E
100
AcDbEntity
  8
止水栓
  6
EXLTYPE2
 62
     6
100
AcDbLine
 10
393.075922
 20
2143.310703
 30
0.0
 11
392.038927
 21
2143.310703
 31
0.0
  0
ARC
  5
70F
100
AcDbEntity
  8
止水栓
  6
EXLTYPE2
 62
     6
100
AcDbCircle
 10
392.038927
 20
2145.310703
 30
0.0
 40
2.0
100
AcDbArc
 50
210.0
 51
270.0
  0
ARC
  5
710
100
AcDbEntity
  8
止水栓
  6
EXLTYPE2
 62
     6
100
AcDbCircle
 10
392.038927
 20
2117.310703
 30
0.0
 40
2.0
100
AcDbArc
 50
90.0
 51
150.0
  0
LINE
  5
711
100
AcDbEntity
  8
止水栓
  6
EXLTYPE2
 62
     6
100
AcDbLine
 10
381.667377
 20
2116.299647
 30
0.0
 11
389.145792
 21
2116.299647
 31
0.0
  0
LINE
  5
712
100
AcDbEntity
  8
止水栓
  6
EXLTYPE2
 62
     6
100
AcDbLine
 10
389.145792
 20
2116.299647
 30
0.0
 11
390.306876
 21
2118.310703
 31
0.0
  0
LINE
  5
713
100
AcDbEntity
  8
止水栓
  6
EXLTYPE2
 62
     6
100
AcDbLine
 10
381.712006
 20
2146.32176
 30
0.0
 11
380.550922
 21
2144.310703
 31
0.0
  0
LINE
  5
714
100
AcDbEntity
  8
止水栓
  6
EXLTYPE2
 62
     6
100
AcDbLine
 10
381.667377
 20
2116.376947
 30
0.0
 11
380.550922
 21
2118.310703
 31
0.0
  0
ARC
  5
715
100
AcDbEntity
  8
止水栓
  6
EXLTYPE2
 62
     6
100
AcDbCircle
 10
387.41616
 20
2120.052399
 30
0.0
 40
6.865249
100
AcDbArc
 50
146.863877
 51
203.155204
  0
LINE
  5
716
100
AcDbEntity
  8
止水栓
  6
EXLTYPE2
 62
     6
100
AcDbLine
 10
381.667377
 20
2123.80515
 30
0.0
 11
389.145792
 21
2123.80515
 31
0.0
  0
ARC
  5
717
100
AcDbEntity
  8
止水栓
  6
EXLTYPE2
 62
     6
100
AcDbCircle
 10
383.397009
 20
2120.052399
 30
0.0
 40
6.865249
100
AcDbArc
 50
326.863877
 51
33.136123
  0
ARC
  5
718
100
AcDbEntity
  8
止水栓
  6
EXLTYPE2
 62
     6
100
AcDbCircle
 10
383.397009
 20
2142.529164
 30
0.0
 40
6.865249
100
AcDbArc
 50
326.863877
 51
33.136123
  0
ARC
  5
719
100
AcDbEntity
  8
止水栓
  6
EXLTYPE2
 62
     6
100
AcDbCircle
 10
387.41616
 20
2142.529164
 30
0.0
 40
6.865249
100
AcDbArc
 50
156.844796
 51
213.136123
  0
ARC
  5
71A
100
AcDbEntity
  8
止水栓
  6
EXLTYPE2
 62
     6
100
AcDbCircle
 10
406.337812
 20
2131.310703
 30
0.0
 40
25.78689
100
AcDbArc
 50
163.141624
 51
196.921477
  0
LINE
  5
71B
100
AcDbEntity
  8
止水栓
  6
EXLTYPE2
 62
     6
100
AcDbLine
 10
381.667377
 20
2138.776412
 30
0.0
 11
389.145792
 21
2138.776412
 31
0.0
  0
ARC
  5
71C
100
AcDbEntity
  8
止水栓
  6
EXLTYPE2
 62
     6
100
AcDbCircle
 10
364.475357
 20
2131.310703
 30
0.0
 40
25.78689
100
AcDbArc
 50
343.078523
 51
16.828962
  0
LINE
  5
71D
100
AcDbEntity
  8
止水栓
  6
EXLTYPE2
 62
     6
100
AcDbLine
 10
380.550922
 20
2118.310703
 30
0.0
 11
380.550922
 21
2144.310703
 31
0.0
  0
LINE
  5
71E
100
AcDbEntity
  8
止水栓
  6
EXLTYPE2
 62
     6
100
AcDbLine
 10
429.550158
 20
2119.310703
 30
0.0
 11
392.038927
 21
2119.310703
 31
0.0
  0
LINE
  5
71F
100
AcDbEntity
  8
止水栓
  6
EXLTYPE2
 62
     6
100
AcDbLine
 10
429.550158
 20
2143.310703
 30
0.0
 11
393.075922
 21
2143.310703
 31
0.0
  0
LINE
  5
720
100
AcDbEntity
  8
止水栓
  6
EXLTYPE2
 62
     6
100
AcDbLine
 10
429.550158
 20
2143.310703
 30
0.0
 11
429.550158
 21
2119.310703
 31
0.0
  0
LINE
  5
721
100
AcDbEntity
  8
止水栓
  6
EXLTYPE2
 62
     6
100
AcDbLine
 10
430.250158
 20
2122.310703
 30
0.0
 11
429.550158
 21
2122.310703
 31
0.0
  0
LINE
  5
722
100
AcDbEntity
  8
止水栓
  6
EXLTYPE2
 62
     6
100
AcDbLine
 10
430.250158
 20
2140.310703
 30
0.0
 11
429.550158
 21
2140.310703
 31
0.0
  0
LINE
  5
723
100
AcDbEntity
  8
止水栓
  6
EXLTYPE2
 62
     6
100
AcDbLine
 10
430.250158
 20
2130.410703
 30
0.0
 11
429.550158
 21
2130.410703
 31
0.0
  0
LINE
  5
724
100
AcDbEntity
  8
止水栓
  6
EXLTYPE2
 62
     6
100
AcDbLine
 10
430.250158
 20
2132.210703
 30
0.0
 11
429.550158
 21
2132.210703
 31
0.0
  0
LINE
  5
725
100
AcDbEntity
  8
止水栓
  6
EXLTYPE2
 62
     6
100
AcDbLine
 10
379.356229
 20
2140.777438
 30
0.0
 11
377.912997
 21
2141.610688
 31
0.0
  0
LINE
  5
726
100
AcDbEntity
  8
止水栓
  6
EXLTYPE2
 62
     6
100
AcDbLine
 10
379.356229
 20
2121.010688
 30
0.0
 11
379.356229
 21
2141.610688
 31
0.0
  0
LINE
  5
727
100
AcDbEntity
  8
止水栓
  6
EXLTYPE2
 62
     6
100
AcDbLine
 10
379.356229
 20
2121.843938
 30
0.0
 11
377.912997
 21
2121.010688
 31
0.0
  0
LINE
  5
728
100
AcDbEntity
  8
止水栓
  6
EXLTYPE2
 62
     6
100
AcDbLine
 10
370.888906
 20
2144.810688
 30
0.0
 11
370.888906
 21
2117.810688
 31
0.0
  0
CIRCLE
  5
729
100
AcDbEntity
  8
止水栓
  6
CONTINUOUS
 62
     6
100
AcDbCircle
 10
454.888906
 20
2131.309467
 30
0.0
 40
12.0
  0
CIRCLE
  5
72A
100
AcDbEntity
  8
止水栓
  6
CONTINUOUS
 62
     6
100
AcDbCircle
 10
454.888906
 20
2131.309467
 30
0.0
 40
9.959438
  0
CIRCLE
  5
72B
100
AcDbEntity
  8
止水栓
  6
CONTINUOUS
 62
     6
100
AcDbCircle
 10
454.888906
 20
2131.309467
 30
0.0
 40
9.273367
  0
ARC
  5
72C
100
AcDbEntity
  8
止水栓
  6
CONTINUOUS
 62
     6
100
AcDbCircle
 10
398.911406
 20
2144.453648
 30
0.0
 40
45.5
100
AcDbArc
 50
346.785665
 51
0.0
  0
ARC
  5
72D
100
AcDbEntity
  8
止水栓
  6
CONTINUOUS
 62
     6
100
AcDbCircle
 10
510.866406
 20
2144.453648
 30
0.0
 40
45.5
100
AcDbArc
 50
180.0
 51
193.214335
  0
LINE
  5
72E
100
AcDbEntity
  8
止水栓
  6
CONTINUOUS
 62
     6
100
AcDbLine
 10
445.669721
 20
2132.310444
 30
0.0
 11
464.108091
 21
2132.310444
 31
0.0
  0
LINE
  5
72F
100
AcDbEntity
  8
止水栓
  6
CONTINUOUS
 62
     6
100
AcDbLine
 10
464.108356
 20
2130.310932
 30
0.0
 11
445.669456
 21
2130.310932
 31
0.0
  0
ARC
  5
730
100
AcDbEntity
  8
止水栓
  6
CONTINUOUS
 62
     6
100
AcDbCircle
 10
454.888906
 20
2131.310688
 30
0.0
 40
27.5
100
AcDbArc
 50
114.79044
 51
157.132946
  0
ARC
  5
731
100
AcDbEntity
  8
止水栓
  6
CONTINUOUS
 62
     6
100
AcDbCircle
 10
454.888906
 20
2131.310688
 30
0.0
 40
27.5
100
AcDbArc
 50
202.867054
 51
64.998019
  0
ARC
  5
732
100
AcDbEntity
  8
便座
  6
CONTINUOUS
 62
     6
100
AcDbCircle
 10
879.88932
 20
3013.311848
 30
0.0
 40
1988.0
100
AcDbArc
 50
265.81463
 51
269.999851
  0
LINE
  5
733
100
AcDbEntity
  8
便座
  6
CONTINUOUS
 62
     6
100
AcDbLine
 10
758.88793
 20
978.310627
 30
0.0
 11
805.355215
 21
979.507221
 31
0.0
  0
LINE
  5
734
100
AcDbEntity
  8
便座
  6
CONTINUOUS
 62
     6
100
AcDbLine
 10
851.189506
 20
1040.310749
 30
0.0
 11
691.17629
 21
1040.310749
 31
0.0
  0
ARC
  5
735
100
AcDbEntity
  8
便座
  6
CONTINUOUS
 62
     6
100
AcDbCircle
 10
879.888906
 20
3013.312153
 30
0.0
 40
2000.000274
100
AcDbArc
 50
265.814642
 51
270.000017
  0
LINE
  5
736
100
AcDbEntity
  8
便座
  6
CONTINUOUS
 62
     6
100
AcDbLine
 10
1099.137622
 20
1008.310627
 30
0.0
 11
710.789785
 21
1008.310627
 31
0.0
  0
LINE
  5
737
100
AcDbEntity
  8
便座
  6
CONTINUOUS
 62
     6
100
AcDbLine
 10
702.388906
 20
987.310719
 30
0.0
 11
1107.95043
 21
987.310719
 31
0.0
  0
LINE
  5
738
100
AcDbEntity
  8
便座
  6
CONTINUOUS
 62
     6
100
AcDbLine
 10
687.252226
 20
1037.086455
 30
0.0
 11
684.080801
 21
1021.043171
 31
0.0
  0
ARC
  5
739
100
AcDbEntity
  8
便座
  6
CONTINUOUS
 62
     6
100
AcDbCircle
 10
660.946035
 20
21.310658
 30
0.0
 40
999.999741
100
AcDbArc
 50
85.814773
 51
88.674324
  0
LINE
  5
73A
100
AcDbEntity
  8
便座
  6
CONTINUOUS
 62
     6
100
AcDbLine
 10
681.38793
 20
1008.310627
 30
0.0
 11
690.340566
 21
1008.310627
 31
0.0
  0
LINE
  5
73B
100
AcDbEntity
  8
便座
  6
CONTINUOUS
 62
     6
100
AcDbLine
 10
640.888967
 20
982.310719
 30
0.0
 11
671.986074
 21
985.344624
 31
0.0
  0
LINE
  5
73C
100
AcDbEntity
  8
便座
  6
CONTINUOUS
 62
     6
100
AcDbLine
 10
640.888967
 20
982.310719
 30
0.0
 11
640.888967
 21
974.310688
 31
0.0
  0
LINE
  5
73D
100
AcDbEntity
  8
便座
  6
CONTINUOUS
 62
     6
100
AcDbLine
 10
684.080801
 20
1021.043171
 30
0.0
 11
681.563711
 21
1008.310627
 31
0.0
  0
ARC
  5
73E
100
AcDbEntity
  8
便座
  6
CONTINUOUS
 62
     6
100
AcDbCircle
 10
671.373281
 20
991.313099
 30
0.0
 40
5.999851
100
AcDbArc
 50
275.862109
 51
347.192521
  0
LINE
  5
73F
100
AcDbEntity
  8
便座
  6
CONTINUOUS
 62
     6
100
AcDbLine
 10
677.222891
 20
989.983296
 30
0.0
 11
681.38793
 21
1008.310627
 31
0.0
  0
ARC
  5
740
100
AcDbEntity
  8
便座
  6
CONTINUOUS
 62
     6
100
AcDbCircle
 10
660.967208
 20
21.310326
 30
0.0
 40
1012.0
100
AcDbArc
 50
85.816249
 51
88.381474
  0
LINE
  5
741
100
AcDbEntity
  8
便座
  6
CONTINUOUS
 62
     6
100
AcDbLine
 10
697.071523
 20
988.310627
 30
0.0
 11
693.88793
 21
974.310688
 31
0.0
  0
ARC
  5
742
100
AcDbEntity
  8
便座
  6
CONTINUOUS
 62
     6
100
AcDbCircle
 10
710.789785
 20
1001.310658
 30
0.0
 40
6.99997
100
AcDbArc
 50
90.0
 51
162.582827
  0
LINE
  5
743
100
AcDbEntity
  8
便座
  6
CONTINUOUS
 62
     6
100
AcDbLine
 10
690.340566
 20
1008.310627
 30
0.0
 11
710.789785
 21
1008.310627
 31
0.0
  0
LINE
  5
744
100
AcDbEntity
  8
便座
  6
CONTINUOUS
 62
     6
100
AcDbLine
 10
699.117422
 20
997.316059
 30
0.0
 11
697.071523
 21
988.310627
 31
0.0
  0
ARC
  5
745
100
AcDbEntity
  8
便座
  6
CONTINUOUS
 62
     6
100
AcDbCircle
 10
703.006582
 20
988.810658
 30
0.0
 40
1.499357
100
AcDbArc
 50
199.474967
 51
270.0
  0
LINE
  5
746
100
AcDbEntity
  8
便座
  6
CONTINUOUS
 62
     6
100
AcDbLine
 10
697.071523
 20
988.310627
 30
0.0
 11
701.480703
 21
988.310627
 31
0.0
  0
ARC
  5
747
100
AcDbEntity
  8
便座
  6
CONTINUOUS
 62
     6
100
AcDbCircle
 10
761.419668
 20
985.644001
 30
0.0
 40
59.999009
100
AcDbArc
 50
162.780069
 51
177.452688
  0
LINE
  5
748
100
AcDbEntity
  8
便座
  6
CONTINUOUS
 62
     6
100
AcDbLine
 10
699.468984
 20
1008.310627
 30
0.0
 11
700.111067
 21
1020.543154
 31
0.0
  0
ARC
  5
749
100
AcDbEntity
  8
便座
  6
CONTINUOUS
 62
     6
100
AcDbCircle
 10
690.340566
 20
999.310688
 30
0.0
 40
9.000652
100
AcDbArc
 50
347.196423
 51
90.0
  0
LINE
  5
74A
100
AcDbEntity
  8
便座
  6
CONTINUOUS
 62
     6
100
AcDbLine
 10
758.88793
 20
978.310627
 30
0.0
 11
757.503652
 21
987.310719
 31
0.0
  0
ARC
  5
74B
100
AcDbEntity
  8
便座
  6
CONTINUOUS
 62
     6
100
AcDbCircle
 10
691.17629
 20
1036.310749
 30
0.0
 40
4.0
100
AcDbArc
 50
90.0
 51
168.817978
  0
LINE
  5
74C
100
AcDbEntity
  8
便座
  6
CONTINUOUS
 62
     6
100
AcDbLine
 10
1083.372199
 20
1013.309704
 30
0.0
 11
1098.551008
 21
1018.309544
 31
0.0
  0
ARC
  5
74D
100
AcDbEntity
  8
便座
  6
CONTINUOUS
 62
     6
100
AcDbCircle
 10
1087.901318
 20
1016.105569
 30
0.0
 40
10.0
100
AcDbArc
 50
40.349757
 51
78.934073
  0
LINE
  5
74E
100
AcDbEntity
  8
便座
  6
CONTINUOUS
 62
     6
100
AcDbLine
 10
999.229726
 20
984.499592
 30
0.0
 11
1109.888906
 21
987.349348
 31
0.0
  0
ARC
  5
74F
100
AcDbEntity
  8
便座
  6
CONTINUOUS
 62
     6
100
AcDbCircle
 10
851.189506
 20
-1459.689251
 30
0.0
 40
2500.0
100
AcDbArc
 50
85.909561
 51
90.0
  0
LINE
  5
750
100
AcDbEntity
  8
便座
  6
CONTINUOUS
 62
     6
100
AcDbLine
 10
879.88415
 20
1025.311848
 30
0.0
 11
1088.407914
 21
1025.309651
 31
0.0
  0
LINE
  5
751
100
AcDbEntity
  8
便座
  6
CONTINUOUS
 62
     6
100
AcDbLine
 10
831.549062
 20
980.181812
 30
0.0
 11
969.276113
 21
983.728413
 31
0.0
  0
LINE
  5
752
100
AcDbEntity
  8
便座
  6
CONTINUOUS
 62
     6
100
AcDbLine
 10
879.884023
 20
1013.311848
 30
0.0
 11
1083.372199
 21
1013.309704
 31
0.0
  0
ARC
  5
753
100
AcDbEntity
  8
便座
  6
CONTINUOUS
 62
     6
100
AcDbCircle
 10
808.355703
 20
977.310719
 30
0.0
 40
3.000488
100
AcDbArc
 50
180.000023
 51
270.0
  0
LINE
  5
754
100
AcDbEntity
  8
便座
  6
CONTINUOUS
 62
     6
100
AcDbLine
 10
805.355215
 20
979.310688
 30
0.0
 11
831.549062
 21
979.310688
 31
0.0
  0
LINE
  5
755
100
AcDbEntity
  8
便座
  6
CONTINUOUS
 62
     6
100
AcDbLine
 10
805.355215
 20
977.310719
 30
0.0
 11
805.355215
 21
979.310688
 31
0.0
  0
LINE
  5
756
100
AcDbEntity
  8
便座
  6
CONTINUOUS
 62
     6
100
AcDbLine
 10
805.355215
 20
979.310688
 30
0.0
 11
805.355215
 21
987.310719
 31
0.0
  0
ARC
  5
757
100
AcDbEntity
  8
便座
  6
CONTINUOUS
 62
     6
100
AcDbCircle
 10
828.548574
 20
977.310719
 30
0.0
 40
3.000031
100
AcDbArc
 50
270.0
 51
0.0
  0
LINE
  5
758
100
AcDbEntity
  8
便座
  6
CONTINUOUS
 62
     6
100
AcDbLine
 10
831.549062
 20
977.310719
 30
0.0
 11
831.549062
 21
987.310719
 31
0.0
  0
LINE
  5
759
100
AcDbEntity
  8
便座
  6
CONTINUOUS
 62
     6
100
AcDbLine
 10
969.276113
 20
979.310688
 30
0.0
 11
999.229726
 21
979.310688
 31
0.0
  0
ARC
  5
75A
100
AcDbEntity
  8
便座
  6
CONTINUOUS
 62
     6
100
AcDbCircle
 10
972.276601
 20
977.310719
 30
0.0
 40
3.000488
100
AcDbArc
 50
180.000023
 51
270.0
  0
LINE
  5
75B
100
AcDbEntity
  8
便座
  6
CONTINUOUS
 62
     6
100
AcDbLine
 10
969.276113
 20
979.310688
 30
0.0
 11
969.276113
 21
977.310719
 31
0.0
  0
LINE
  5
75C
100
AcDbEntity
  8
便座
  6
CONTINUOUS
 62
     6
100
AcDbLine
 10
969.276113
 20
979.310688
 30
0.0
 11
969.276113
 21
987.310719
 31
0.0
  0
ARC
  5
75D
100
AcDbEntity
  8
便座
  6
CONTINUOUS
 62
     6
100
AcDbCircle
 10
996.229238
 20
977.310719
 30
0.0
 40
3.000031
100
AcDbArc
 50
270.0
 51
0.0
  0
ARC
  5
75E
100
AcDbEntity
  8
便座
  6
CONTINUOUS
 62
     6
100
AcDbCircle
 10
986.888418
 20
1014.810719
 30
0.0
 40
9.000402
100
AcDbArc
 50
189.594227
 51
226.247088
  0
ARC
  5
75F
100
AcDbEntity
  8
便座
  6
CONTINUOUS
 62
     6
100
AcDbCircle
 10
986.888418
 20
1014.810719
 30
0.0
 40
9.000506
100
AcDbArc
 50
313.764264
 51
350.405815
  0
LINE
  5
760
100
AcDbEntity
  8
便座
  6
CONTINUOUS
 62
     6
100
AcDbLine
 10
999.229726
 20
977.310719
 30
0.0
 11
999.229726
 21
987.310719
 31
0.0
  0
ARC
  5
761
100
AcDbEntity
  8
便座
  6
CONTINUOUS
 62
     6
100
AcDbCircle
 10
993.851516
 20
535.216148
 30
0.0
 40
500.0
100
AcDbArc
 50
78.934073
 51
85.909561
  0
ARC
  5
762
100
AcDbEntity
  8
便座
  6
CONTINUOUS
 62
     6
100
AcDbCircle
 10
1072.659191
 20
1003.156532
 30
0.0
 40
30.0
100
AcDbArc
 50
30.338019
 51
40.349757
  0
ARC
  5
763
100
AcDbEntity
  8
便座
  6
CONTINUOUS
 62
     6
100
AcDbCircle
 10
1099.137622
 20
1001.310627
 30
0.0
 40
7.0
100
AcDbArc
 50
30.000068
 51
90.0
  0
ARC
  5
764
100
AcDbEntity
  8
便座
  6
CONTINUOUS
 62
     6
100
AcDbCircle
 10
1074.888928
 20
987.310599
 30
0.0
 40
35.0
100
AcDbArc
 50
0.063434
 51
30.000068
  0
LINE
  5
765
100
AcDbEntity
  8
便座
  6
CONTINUOUS
 62
     6
100
AcDbLine
 10
1487.403005
 20
987.311176
 30
0.0
 11
1854.403005
 21
987.311176
 31
0.0
  0
LINE
  5
766
100
AcDbEntity
  8
便座
  6
CONTINUOUS
 62
     6
100
AcDbLine
 10
1495.403005
 20
1013.310627
 30
0.0
 11
1607.855404
 21
1013.310627
 31
0.0
  0
LINE
  5
767
100
AcDbEntity
  8
便座
  6
CONTINUOUS
 62
     6
100
AcDbLine
 10
1508.403005
 20
1025.310627
 30
0.0
 11
1833.403005
 21
1025.310627
 31
0.0
  0
ARC
  5
768
100
AcDbEntity
  8
便座
  6
CONTINUOUS
 62
     6
100
AcDbCircle
 10
1670.903005
 20
-259.689373
 30
0.0
 40
1300.0
100
AcDbArc
 50
85.070152
 51
94.929848
  0
LINE
  5
769
100
AcDbEntity
  8
便座
  6
CONTINUOUS
 62
     6
100
AcDbLine
 10
1507.54363
 20
979.310688
 30
0.0
 11
1571.67449
 21
979.310688
 31
0.0
  0
LINE
  5
76A
100
AcDbEntity
  8
便座
  6
CONTINUOUS
 62
     6
100
AcDbLine
 10
1843.651717
 20
1008.309712
 30
0.0
 11
1498.154294
 21
1008.309712
 31
0.0
  0
ARC
  5
76B
100
AcDbEntity
  8
便座
  6
CONTINUOUS
 62
     6
100
AcDbCircle
 10
1545.773611
 20
1016.810688
 30
0.0
 40
9.001232
100
AcDbArc
 50
202.882491
 51
250.808182
  0
ARC
  5
76C
100
AcDbEntity
  8
便座
  6
CONTINUOUS
 62
     6
100
AcDbCircle
 10
1545.773611
 20
1016.810688
 30
0.0
 40
9.000224
100
AcDbArc
 50
289.191879
 51
337.1148
  0
ARC
  5
76D
100
AcDbEntity
  8
便座
  6
CONTINUOUS
 62
     6
100
AcDbCircle
 10
1498.154294
 20
1001.309712
 30
0.0
 40
7.0
100
AcDbArc
 50
90.0
 51
150.0
  0
ARC
  5
76E
100
AcDbEntity
  8
便座
  6
CONTINUOUS
 62
     6
100
AcDbCircle
 10
1522.403005
 20
987.309712
 30
0.0
 40
35.0
100
AcDbArc
 50
150.0
 51
179.997602
  0
LINE
  5
76F
100
AcDbEntity
  8
便座
  6
CONTINUOUS
 62
     6
100
AcDbLine
 10
1507.54363
 20
979.310688
 30
0.0
 11
1507.54363
 21
977.311176
 31
0.0
  0
ARC
  5
770
100
AcDbEntity
  8
便座
  6
CONTINUOUS
 62
     6
100
AcDbCircle
 10
1510.541677
 20
977.311176
 30
0.0
 40
3.000488
100
AcDbArc
 50
180.0
 51
270.0
  0
LINE
  5
771
100
AcDbEntity
  8
便座
  6
CONTINUOUS
 62
     6
100
AcDbLine
 10
1507.54363
 20
979.310688
 30
0.0
 11
1507.54363
 21
987.311176
 31
0.0
  0
ARC
  5
772
100
AcDbEntity
  8
便座
  6
CONTINUOUS
 62
     6
100
AcDbCircle
 10
1526.806326
 20
977.311176
 30
0.0
 40
3.000488
100
AcDbArc
 50
180.0
 51
269.999969
  0
LINE
  5
773
100
AcDbEntity
  8
便座
  6
CONTINUOUS
 62
     6
100
AcDbLine
 10
1524.069509
 20
979.310688
 30
0.0
 11
1524.069509
 21
977.311176
 31
0.0
  0
LINE
  5
774
100
AcDbEntity
  8
便座
  6
CONTINUOUS
 62
     6
100
AcDbLine
 10
1524.069509
 20
979.310688
 30
0.0
 11
1524.069509
 21
987.311176
 31
0.0
  0
ARC
  5
775
100
AcDbEntity
  8
便座
  6
CONTINUOUS
 62
     6
100
AcDbCircle
 10
1584.967046
 20
736.61129
 30
0.0
 40
300.0
100
AcDbArc
 50
94.929848
 51
105.261743
  0
ARC
  5
776
100
AcDbEntity
  8
便座
  6
CONTINUOUS
 62
     6
100
AcDbCircle
 10
1523.632676
 20
1003.157514
 30
0.0
 40
30.0
100
AcDbArc
 50
138.599147
 51
160.218317
  0
ARC
  5
777
100
AcDbEntity
  8
便座
  6
CONTINUOUS
 62
     6
100
AcDbCircle
 10
1508.630651
 20
1016.383974
 30
0.0
 40
10.0
100
AcDbArc
 50
105.261743
 51
138.599147
  0
ARC
  5
778
100
AcDbEntity
  8
便座
  6
CONTINUOUS
 62
     6
100
AcDbCircle
 10
1733.950606
 20
1113.310627
 30
0.0
 40
100.0
100
AcDbArc
 50
260.931278
 51
270.0
  0
ARC
  5
779
100
AcDbEntity
  8
便座
  6
CONTINUOUS
 62
     6
100
AcDbCircle
 10
1671.034841
 20
3088.194813
 30
0.0
 40
2110.88562
100
AcDbArc
 50
267.302094
 51
272.697845
  0
ARC
  5
77A
100
AcDbEntity
  8
便座
  6
CONTINUOUS
 62
     6
100
AcDbCircle
 10
1670.903005
 20
718.310627
 30
0.0
 40
300.0
100
AcDbArc
 50
80.931278
 51
99.068722
  0
LINE
  5
77B
100
AcDbEntity
  8
便座
  6
CONTINUOUS
 62
     6
100
AcDbLine
 10
1640.153005
 20
1008.309712
 30
0.0
 11
1640.153005
 21
1016.730528
 31
0.0
  0
ARC
  5
77C
100
AcDbEntity
  8
便座
  6
CONTINUOUS
 62
     6
100
AcDbCircle
 10
1568.676443
 20
977.311176
 30
0.0
 40
3.000488
100
AcDbArc
 50
270.000031
 51
0.0
  0
LINE
  5
77D
100
AcDbEntity
  8
便座
  6
CONTINUOUS
 62
     6
100
AcDbLine
 10
1571.67449
 20
977.311176
 30
0.0
 11
1571.67449
 21
987.311176
 31
0.0
  0
LINE
  5
77E
100
AcDbEntity
  8
便座
  6
CONTINUOUS
 62
     6
100
AcDbLine
 10
1589.032888
 20
974.310688
 30
0.0
 11
1589.032888
 21
978.905415
 31
0.0
  0
LINE
  5
77F
100
AcDbEntity
  8
便座
  6
CONTINUOUS
 62
     6
100
AcDbLine
 10
1619.032888
 20
974.310688
 30
0.0
 11
1619.032888
 21
977.950825
 31
0.0
  0
ARC
  5
780
100
AcDbEntity
  8
便座
  6
CONTINUOUS
 62
     6
100
AcDbCircle
 10
1607.855404
 20
1113.310627
 30
0.0
 40
100.0
100
AcDbArc
 50
270.0
 51
279.068722
  0
LINE
  5
781
100
AcDbEntity
  8
便座
  6
CONTINUOUS
 62
     6
100
AcDbLine
 10
1701.653005
 20
1008.309712
 30
0.0
 11
1701.653005
 21
1016.730528
 31
0.0
  0
LINE
  5
782
100
AcDbEntity
  8
便座
  6
CONTINUOUS
 62
     6
100
AcDbLine
 10
1723.031912
 20
974.310688
 30
0.0
 11
1723.031912
 21
977.950825
 31
0.0
  0
LINE
  5
783
100
AcDbEntity
  8
便座
  6
CONTINUOUS
 62
     6
100
AcDbLine
 10
1733.950606
 20
1013.310627
 30
0.0
 11
1846.403005
 21
1013.310627
 31
0.0
  0
ARC
  5
784
100
AcDbEntity
  8
便座
  6
CONTINUOUS
 62
     6
100
AcDbCircle
 10
1756.838964
 20
736.61129
 30
0.0
 40
300.0
100
AcDbArc
 50
74.738257
 51
85.070152
  0
LINE
  5
785
100
AcDbEntity
  8
便座
  6
CONTINUOUS
 62
     6
100
AcDbLine
 10
1834.526052
 20
979.310688
 30
0.0
 11
1770.39031
 21
979.310688
 31
0.0
  0
ARC
  5
786
100
AcDbEntity
  8
便座
  6
CONTINUOUS
 62
     6
100
AcDbCircle
 10
1796.0324
 20
1016.810688
 30
0.0
 40
9.001232
100
AcDbArc
 50
289.191818
 51
337.117509
  0
ARC
  5
787
100
AcDbEntity
  8
便座
  6
CONTINUOUS
 62
     6
100
AcDbCircle
 10
1796.0324
 20
1016.810688
 30
0.0
 40
9.000224
100
AcDbArc
 50
202.8852
 51
250.808121
  0
LINE
  5
788
100
AcDbEntity
  8
便座
  6
CONTINUOUS
 62
     6
100
AcDbLine
 10
1753.031912
 20
974.310688
 30
0.0
 11
1753.031912
 21
978.905415
 31
0.0
  0
LINE
  5
789
100
AcDbEntity
  8
便座
  6
CONTINUOUS
 62
     6
100
AcDbLine
 10
1770.39031
 20
979.650044
 30
0.0
 11
1770.39031
 21
977.311176
 31
0.0
  0
ARC
  5
78A
100
AcDbEntity
  8
便座
  6
CONTINUOUS
 62
     6
100
AcDbCircle
 10
1773.388357
 20
977.311176
 30
0.0
 40
3.000488
100
AcDbArc
 50
180.0
 51
270.0
  0
LINE
  5
78B
100
AcDbEntity
  8
便座
  6
CONTINUOUS
 62
     6
100
AcDbLine
 10
1770.39031
 20
979.650044
 30
0.0
 11
1770.39031
 21
987.311176
 31
0.0
  0
ARC
  5
78C
100
AcDbEntity
  8
便座
  6
CONTINUOUS
 62
     6
100
AcDbCircle
 10
1843.651717
 20
1001.309712
 30
0.0
 40
7.0
100
AcDbArc
 50
30.0
 51
90.0
  0
ARC
  5
78D
100
AcDbEntity
  8
便座
  6
CONTINUOUS
 62
     6
100
AcDbCircle
 10
1814.999685
 20
977.311176
 30
0.0
 40
3.000488
100
AcDbArc
 50
270.000031
 51
0.0
  0
LINE
  5
78E
100
AcDbEntity
  8
便座
  6
CONTINUOUS
 62
     6
100
AcDbLine
 10
1818.000173
 20
977.311176
 30
0.0
 11
1818.000173
 21
987.311176
 31
0.0
  0
ARC
  5
78F
100
AcDbEntity
  8
便座
  6
CONTINUOUS
 62
     6
100
AcDbCircle
 10
1831.525564
 20
977.311176
 30
0.0
 40
3.000488
100
AcDbArc
 50
270.000031
 51
0.0
  0
LINE
  5
790
100
AcDbEntity
  8
便座
  6
CONTINUOUS
 62
     6
100
AcDbLine
 10
1834.526052
 20
977.311176
 30
0.0
 11
1834.526052
 21
987.311176
 31
0.0
  0
ARC
  5
791
100
AcDbEntity
  8
便座
  6
CONTINUOUS
 62
     6
100
AcDbCircle
 10
1819.403005
 20
987.309712
 30
0.0
 40
35.0
100
AcDbArc
 50
0.002398
 51
30.0
  0
ARC
  5
792
100
AcDbEntity
  8
便座
  6
CONTINUOUS
 62
     6
100
AcDbCircle
 10
1833.17536
 20
1016.383974
 30
0.0
 40
10.0
100
AcDbArc
 50
41.400853
 51
74.738257
  0
ARC
  5
793
100
AcDbEntity
  8
便座
  6
CONTINUOUS
 62
     6
100
AcDbCircle
 10
1818.173335
 20
1003.157514
 30
0.0
 40
30.0
100
AcDbArc
 50
19.781683
 51
41.400853
  0
LINE
  5
794
100
AcDbEntity
  8
便座
  6
CONTINUOUS
 62
     6
100
AcDbLine
 10
659.888906
 20
879.310688
 30
0.0
 11
669.888906
 21
879.310688
 31
0.0
  0
LINE
  5
795
100
AcDbEntity
  8
便座
  6
CONTINUOUS
 62
     6
100
AcDbLine
 10
659.888906
 20
880.310688
 30
0.0
 11
669.888906
 21
880.310688
 31
0.0
  0
LINE
  5
796
100
AcDbEntity
  8
便座
  6
CONTINUOUS
 62
     6
100
AcDbLine
 10
670.888906
 20
880.888038
 30
0.0
 11
658.888906
 21
880.888038
 31
0.0
  0
LINE
  5
797
100
AcDbEntity
  8
便座
  6
CONTINUOUS
 62
     6
100
AcDbLine
 10
659.888906
 20
880.310688
 30
0.0
 11
658.888906
 21
880.888038
 31
0.0
  0
LINE
  5
798
100
AcDbEntity
  8
便座
  6
CONTINUOUS
 62
     6
100
AcDbLine
 10
669.888906
 20
880.310688
 30
0.0
 11
670.888906
 21
880.888038
 31
0.0
  0
ARC
  5
799
100
AcDbEntity
  8
便座
  6
CONTINUOUS
 62
     6
100
AcDbCircle
 10
664.888906
 20
905.889782
 30
0.0
 40
12.5
100
AcDbArc
 50
118.685402
 51
180.0
  0
LINE
  5
79A
100
AcDbEntity
  8
便座
  6
CONTINUOUS
 62
     6
100
AcDbLine
 10
652.388906
 20
905.889782
 30
0.0
 11
677.388906
 21
905.889782
 31
0.0
  0
LINE
  5
79B
100
AcDbEntity
  8
便座
  6
CONTINUOUS
 62
     6
100
AcDbLine
 10
652.388906
 20
905.389782
 30
0.0
 11
677.388906
 21
905.389782
 31
0.0
  0
LINE
  5
79C
100
AcDbEntity
  8
便座
  6
CONTINUOUS
 62
     6
100
AcDbLine
 10
652.388906
 20
903.389782
 30
0.0
 11
677.388906
 21
903.389782
 31
0.0
  0
LINE
  5
79D
100
AcDbEntity
  8
便座
  6
CONTINUOUS
 62
     6
100
AcDbLine
 10
655.661294
 20
895.889782
 30
0.0
 11
656.388906
 21
893.389782
 31
0.0
  0
LINE
  5
79E
100
AcDbEntity
  8
便座
  6
CONTINUOUS
 62
     6
100
AcDbLine
 10
674.116518
 20
895.889782
 30
0.0
 11
673.388906
 21
893.389782
 31
0.0
  0
LINE
  5
79F
100
AcDbEntity
  8
便座
  6
CONTINUOUS
 62
     6
100
AcDbLine
 10
656.388906
 20
893.389782
 30
0.0
 11
673.388906
 21
893.389782
 31
0.0
  0
ARC
  5
7A0
100
AcDbEntity
  8
便座
  6
CONTINUOUS
 62
     6
100
AcDbCircle
 10
664.888906
 20
901.810018
 30
0.0
 40
8.420236
100
AcDbArc
 50
224.675943
 51
315.324057
  0
LINE
  5
7A1
100
AcDbEntity
  8
便座
  6
CONTINUOUS
 62
     6
100
AcDbLine
 10
655.661294
 20
895.889782
 30
0.0
 11
658.901321
 21
895.889782
 31
0.0
  0
LINE
  5
7A2
100
AcDbEntity
  8
便座
  6
CONTINUOUS
 62
     6
100
AcDbLine
 10
670.876491
 20
895.889782
 30
0.0
 11
674.116518
 21
895.889782
 31
0.0
  0
LINE
  5
7A3
100
AcDbEntity
  8
便座
  6
CONTINUOUS
 62
     6
100
AcDbLine
 10
655.661294
 20
895.889782
 30
0.0
 11
655.661294
 21
903.389782
 31
0.0
  0
LINE
  5
7A4
100
AcDbEntity
  8
便座
  6
CONTINUOUS
 62
     6
100
AcDbLine
 10
658.901321
 20
895.889782
 30
0.0
 11
658.901321
 21
903.389782
 31
0.0
  0
LINE
  5
7A5
100
AcDbEntity
  8
便座
  6
CONTINUOUS
 62
     6
100
AcDbLine
 10
670.876491
 20
895.889782
 30
0.0
 11
670.876491
 21
903.389782
 31
0.0
  0
LINE
  5
7A6
100
AcDbEntity
  8
便座
  6
CONTINUOUS
 62
     6
100
AcDbLine
 10
674.116518
 20
895.889782
 30
0.0
 11
674.116518
 21
903.389782
 31
0.0
  0
LINE
  5
7A7
100
AcDbEntity
  8
便座
  6
CONTINUOUS
 62
     6
100
AcDbLine
 10
652.388906
 20
903.389782
 30
0.0
 11
652.388906
 21
905.889782
 31
0.0
  0
LINE
  5
7A8
100
AcDbEntity
  8
便座
  6
CONTINUOUS
 62
     6
100
AcDbLine
 10
677.388906
 20
903.389782
 30
0.0
 11
677.388906
 21
905.889782
 31
0.0
  0
LINE
  5
7A9
100
AcDbEntity
  8
便座
  6
CONTINUOUS
 62
     6
100
AcDbLine
 10
658.888906
 20
916.889782
 30
0.0
 11
664.888906
 21
916.889782
 31
0.0
  0
ARC
  5
7AA
100
AcDbEntity
  8
便座
  6
CONTINUOUS
 62
     6
100
AcDbCircle
 10
664.888906
 20
905.889782
 30
0.0
 40
12.5
100
AcDbArc
 50
0.0
 51
59.317495
  0
LINE
  5
7AB
100
AcDbEntity
  8
便座
  6
CONTINUOUS
 62
     6
100
AcDbLine
 10
658.888906
 20
880.888038
 30
0.0
 11
658.888906
 21
893.389782
 31
0.0
  0
LINE
  5
7AC
100
AcDbEntity
  8
便座
  6
CONTINUOUS
 62
     6
100
AcDbLine
 10
659.888906
 20
879.310688
 30
0.0
 11
659.888906
 21
893.389782
 31
0.0
  0
LINE
  5
7AD
100
AcDbEntity
  8
便座
  6
CONTINUOUS
 62
     6
100
AcDbLine
 10
669.888906
 20
893.389782
 30
0.0
 11
669.888906
 21
879.310688
 31
0.0
  0
LINE
  5
7AE
100
AcDbEntity
  8
便座
  6
CONTINUOUS
 62
     6
100
AcDbLine
 10
670.888906
 20
893.389782
 30
0.0
 11
670.888906
 21
880.888038
 31
0.0
  0
ARC
  5
7AF
100
AcDbEntity
  8
便座
  6
CONTINUOUS
 62
     6
100
AcDbCircle
 10
879.888906
 20
2597.810688
 30
0.0
 40
350.0
100
AcDbArc
 50
242.310387
 51
274.748198
  0
ARC
  5
7B0
100
AcDbEntity
  8
便座
  6
CONTINUOUS
 62
     6
100
AcDbCircle
 10
879.888906
 20
2264.810688
 30
0.0
 40
350.0
100
AcDbArc
 50
85.251802
 51
117.689613
  0
ARC
  5
7B1
100
AcDbEntity
  8
便座
  6
CONTINUOUS
 62
     6
100
AcDbCircle
 10
879.888906
 20
2590.810688
 30
0.0
 40
327.0
100
AcDbArc
 50
236.428296
 51
274.684626
  0
ARC
  5
7B2
100
AcDbEntity
  8
便座
  6
CONTINUOUS
 62
     6
100
AcDbCircle
 10
879.888906
 20
2590.810688
 30
0.0
 40
335.0
100
AcDbArc
 50
237.442386
 51
274.684626
  0
ARC
  5
7B3
100
AcDbEntity
  8
便座
  6
CONTINUOUS
 62
     6
100
AcDbCircle
 10
879.888906
 20
2271.810688
 30
0.0
 40
327.0
100
AcDbArc
 50
85.315374
 51
123.571704
  0
ARC
  5
7B4
100
AcDbEntity
  8
便座
  6
CONTINUOUS
 62
     6
100
AcDbCircle
 10
879.888906
 20
2271.810688
 30
0.0
 40
335.0
100
AcDbArc
 50
85.315374
 51
122.557614
  0
LINE
  5
7B5
100
AcDbEntity
  8
便座
  6
CONTINUOUS
 62
     6
100
AcDbLine
 10
679.388906
 20
2368.810688
 30
0.0
 11
679.388906
 21
2493.810688
 31
0.0
  0
LINE
  5
7B6
100
AcDbEntity
  8
便座
  6
CONTINUOUS
 62
     6
100
AcDbLine
 10
687.888906
 20
2523.435409
 30
0.0
 11
687.888906
 21
2339.185968
 31
0.0
  0
ARC
  5
7B7
100
AcDbEntity
  8
便座
  6
CONTINUOUS
 62
     6
100
AcDbCircle
 10
715.753946
 20
2333.741214
 30
0.0
 40
30.0
100
AcDbArc
 50
180.0
 51
237.442386
  0
LINE
  5
7B8
100
AcDbEntity
  8
便座
  6
CONTINUOUS
 62
     6
100
AcDbLine
 10
679.388906
 20
2400.560688
 30
0.0
 11
685.753946
 21
2400.560688
 31
0.0
  0
LINE
  5
7B9
100
AcDbEntity
  8
便座
  6
CONTINUOUS
 62
     6
100
AcDbLine
 10
640.889883
 20
2349.310719
 30
0.0
 11
684.388418
 21
2349.310719
 31
0.0
  0
LINE
  5
7BA
100
AcDbEntity
  8
便座
  6
CONTINUOUS
 62
     6
100
AcDbLine
 10
640.889883
 20
2379.310719
 30
0.0
 11
679.388418
 21
2379.310719
 31
0.0
  0
LINE
  5
7BB
100
AcDbEntity
  8
便座
  6
CONTINUOUS
 62
     6
100
AcDbLine
 10
640.889883
 20
2379.310719
 30
0.0
 11
640.889883
 21
2349.310719
 31
0.0
  0
CIRCLE
  5
7BC
100
AcDbEntity
  8
便座
  6
EXLTYPE2
 62
     6
100
AcDbCircle
 10
664.888906
 20
2361.310688
 30
0.0
 40
6.000977
  0
LINE
  5
7BD
100
AcDbEntity
  8
便座
  6
CONTINUOUS
 62
     6
100
AcDbLine
 10
684.388418
 20
2368.810688
 30
0.0
 11
670.889883
 21
2368.810688
 31
0.0
  0
ARC
  5
7BE
100
AcDbEntity
  8
便座
  6
CONTINUOUS
 62
     6
100
AcDbCircle
 10
728.867409
 20
2310.030377
 30
0.0
 40
25.0
100
AcDbArc
 50
190.370502
 51
242.310387
  0
LINE
  5
7BF
100
AcDbEntity
  8
便座
  6
CONTINUOUS
 62
     6
100
AcDbLine
 10
685.753946
 20
2333.741214
 30
0.0
 11
685.753946
 21
2400.560688
 31
0.0
  0
ARC
  5
7C0
100
AcDbEntity
  8
便座
  6
CONTINUOUS
 62
     6
100
AcDbCircle
 10
712.888906
 20
2339.185968
 30
0.0
 40
25.0
100
AcDbArc
 50
180.0
 51
236.428296
  0
ARC
  5
7C1
100
AcDbEntity
  8
便座
  6
CONTINUOUS
 62
     6
100
AcDbCircle
 10
715.753946
 20
2528.880163
 30
0.0
 40
30.0
100
AcDbArc
 50
122.557614
 51
180.0
  0
LINE
  5
7C2
100
AcDbEntity
  8
便座
  6
CONTINUOUS
 62
     6
100
AcDbLine
 10
679.388906
 20
2462.060688
 30
0.0
 11
685.753946
 21
2462.060688
 31
0.0
  0
LINE
  5
7C3
100
AcDbEntity
  8
便座
  6
CONTINUOUS
 62
     6
100
AcDbLine
 10
684.388418
 20
2513.310658
 30
0.0
 11
640.889883
 21
2513.310658
 31
0.0
  0
LINE
  5
7C4
100
AcDbEntity
  8
便座
  6
CONTINUOUS
 62
     6
100
AcDbLine
 10
640.889883
 20
2483.310658
 30
0.0
 11
679.388418
 21
2483.310658
 31
0.0
  0
LINE
  5
7C5
100
AcDbEntity
  8
便座
  6
CONTINUOUS
 62
     6
100
AcDbLine
 10
640.889883
 20
2483.310658
 30
0.0
 11
640.889883
 21
2513.310658
 31
0.0
  0
CIRCLE
  5
7C6
100
AcDbEntity
  8
便座
  6
EXLTYPE2
 62
     6
100
AcDbCircle
 10
664.888906
 20
2501.310688
 30
0.0
 40
6.000977
  0
LINE
  5
7C7
100
AcDbEntity
  8
便座
  6
CONTINUOUS
 62
     6
100
AcDbLine
 10
684.388418
 20
2493.810688
 30
0.0
 11
670.889883
 21
2493.810688
 31
0.0
  0
ARC
  5
7C8
100
AcDbEntity
  8
便座
  6
CONTINUOUS
 62
     6
100
AcDbCircle
 10
712.888906
 20
2523.435409
 30
0.0
 40
25.0
100
AcDbArc
 50
123.571704
 51
180.0
  0
LINE
  5
7C9
100
AcDbEntity
  8
便座
  6
CONTINUOUS
 62
     6
100
AcDbLine
 10
685.753946
 20
2462.060688
 30
0.0
 11
685.753946
 21
2528.880163
 31
0.0
  0
ARC
  5
7CA
100
AcDbEntity
  8
便座
  6
CONTINUOUS
 62
     6
100
AcDbCircle
 10
728.867409
 20
2552.590999
 30
0.0
 40
25.0
100
AcDbArc
 50
117.689613
 51
169.629498
  0
ARC
  5
7CB
100
AcDbEntity
  8
便座
  6
CONTINUOUS
 62
     6
100
AcDbCircle
 10
954.821227
 20
2431.310688
 30
0.0
 40
143.729781
100
AcDbArc
 50
334.0031
 51
25.9969
  0
ARC
  5
7CC
100
AcDbEntity
  8
便座
  6
CONTINUOUS
 62
     6
100
AcDbCircle
 10
974.888906
 20
2431.310688
 30
0.0
 40
135.0
100
AcDbArc
 50
328.738377
 51
31.261623
  0
ARC
  5
7CD
100
AcDbEntity
  8
便座
  6
CONTINUOUS
 62
     6
100
AcDbCircle
 10
974.888906
 20
2431.310688
 30
0.0
 40
118.0
100
AcDbArc
 50
329.426629
 51
30.573371
  0
ARC
  5
7CE
100
AcDbEntity
  8
便座
  6
CONTINUOUS
 62
     6
100
AcDbCircle
 10
889.408245
 20
2483.205356
 30
0.0
 40
235.0
100
AcDbArc
 50
274.748198
 51
328.738377
  0
ARC
  5
7CF
100
AcDbEntity
  8
便座
  6
CONTINUOUS
 62
     6
100
AcDbCircle
 10
888.791055
 20
2482.17482
 30
0.0
 40
226.0
100
AcDbArc
 50
274.684626
 51
329.426629
  0
ARC
  5
7D0
100
AcDbEntity
  8
便座
  6
CONTINUOUS
 62
     6
100
AcDbCircle
 10
888.791055
 20
2482.17482
 30
0.0
 40
218.0
100
AcDbArc
 50
274.684626
 51
329.426629
  0
ARC
  5
7D1
100
AcDbEntity
  8
便座
  6
CONTINUOUS
 62
     6
100
AcDbCircle
 10
889.408245
 20
2379.41602
 30
0.0
 40
235.0
100
AcDbArc
 50
31.261623
 51
85.251802
  0
ARC
  5
7D2
100
AcDbEntity
  8
便座
  6
CONTINUOUS
 62
     6
100
AcDbCircle
 10
888.791055
 20
2380.446556
 30
0.0
 40
226.0
100
AcDbArc
 50
30.573371
 51
85.315374
  0
ARC
  5
7D3
100
AcDbEntity
  8
便座
  6
CONTINUOUS
 62
     6
100
AcDbCircle
 10
888.791055
 20
2380.446556
 30
0.0
 40
218.0
100
AcDbArc
 50
30.573371
 51
85.315374
  0
LINE
  5
7D4
100
AcDbEntity
  8
紙巻器
  6
CONTINUOUS
 62
     6
100
AcDbLine
 10
1059.061461
 20
1334.310688
 30
0.0
 11
1148.888906
 21
1334.310688
 31
0.0
  0
LINE
  5
7D5
100
AcDbEntity
  8
紙巻器
  6
CONTINUOUS
 62
     6
100
AcDbLine
 10
1164.888906
 20
1350.310688
 30
0.0
 11
1164.888906
 21
1396.810688
 31
0.0
  0
LINE
  5
7D6
100
AcDbEntity
  8
紙巻器
  6
CONTINUOUS
 62
     6
100
AcDbLine
 10
1102.388906
 20
1352.31069
 30
0.0
 11
1227.388906
 21
1352.31069
 31
0.0
  0
LINE
  5
7D7
100
AcDbEntity
  8
紙巻器
  6
CONTINUOUS
 62
     6
100
AcDbLine
 10
1187.888906
 20
1262.547506
 30
0.0
 11
1222.388906
 21
1262.547506
 31
0.0
  0
LINE
  5
7D8
100
AcDbEntity
  8
紙巻器
  6
CONTINUOUS
 62
     6
100
AcDbLine
 10
1096.47203
 20
1376.810688
 30
0.0
 11
1233.305782
 21
1376.810688
 31
0.0
  0
LINE
  5
7D9
100
AcDbEntity
  8
紙巻器
  6
CONTINUOUS
 62
     6
100
AcDbLine
 10
1107.388906
 20
1262.547506
 30
0.0
 11
1107.388906
 21
1299.929098
 31
0.0
  0
ARC
  5
7DA
100
AcDbEntity
  8
紙巻器
  6
CONTINUOUS
 62
     6
100
AcDbCircle
 10
1096.47203
 20
1309.810688
 30
0.0
 40
18.0
100
AcDbArc
 50
202.88538
 51
270.0
  0
LINE
  5
7DB
100
AcDbEntity
  8
紙巻器
  6
CONTINUOUS
 62
     6
100
AcDbLine
 10
1099.888906
 20
1291.810688
 30
0.0
 11
1099.888906
 21
1376.810688
 31
0.0
  0
LINE
  5
7DC
100
AcDbEntity
  8
紙巻器
  6
CONTINUOUS
 62
     6
100
AcDbLine
 10
1107.388906
 20
1262.547506
 30
0.0
 11
1141.888906
 21
1262.547506
 31
0.0
  0
LINE
  5
7DD
100
AcDbEntity
  8
紙巻器
  6
CONTINUOUS
 62
     6
100
AcDbLine
 10
1096.47203
 20
1291.810688
 30
0.0
 11
1107.388906
 21
1291.810688
 31
0.0
  0
LINE
  5
7DE
100
AcDbEntity
  8
紙巻器
  6
CONTINUOUS
 62
     6
100
AcDbLine
 10
1151.888906
 20
1262.547506
 30
0.0
 11
1159.888906
 21
1262.547506
 31
0.0
  0
LINE
  5
7DF
100
AcDbEntity
  8
紙巻器
  6
CONTINUOUS
 62
     6
100
AcDbLine
 10
1169.888906
 20
1262.547506
 30
0.0
 11
1177.888906
 21
1262.547506
 31
0.0
  0
LINE
  5
7E0
100
AcDbEntity
  8
紙巻器
  6
CONTINUOUS
 62
     6
100
AcDbLine
 10
1102.388906
 20
1352.31069
 30
0.0
 11
1102.388906
 21
1376.810688
 31
0.0
  0
ARC
  5
7E1
100
AcDbEntity
  8
紙巻器
  6
CONTINUOUS
 62
     6
100
AcDbCircle
 10
1679.061461
 20
1334.310688
 30
0.0
 40
600.0
100
AcDbArc
 50
176.990588
 51
183.009412
  0
LINE
  5
7E2
100
AcDbEntity
  8
紙巻器
  6
CONTINUOUS
 62
     6
100
AcDbLine
 10
1107.388906
 20
1329.810688
 30
0.0
 11
1099.888906
 21
1329.810688
 31
0.0
  0
ARC
  5
7E3
100
AcDbEntity
  8
紙巻器
  6
CONTINUOUS
 62
     6
100
AcDbCircle
 10
1101.304674
 20
1324.310688
 30
0.0
 40
10.0
100
AcDbArc
 50
270.0
 51
288.004193
  0
LINE
  5
7E4
100
AcDbEntity
  8
紙巻器
  6
CONTINUOUS
 62
     6
100
AcDbLine
 10
1104.395494
 20
1314.800438
 30
0.0
 11
1107.388906
 21
1315.77309
 31
0.0
  0
LINE
  5
7E5
100
AcDbEntity
  8
紙巻器
  6
CONTINUOUS
 62
     6
100
AcDbLine
 10
1107.388906
 20
1345.929098
 30
0.0
 11
1107.388906
 21
1352.31069
 31
0.0
  0
LINE
  5
7E6
100
AcDbEntity
  8
紙巻器
  6
CONTINUOUS
 62
     6
100
AcDbLine
 10
1107.388906
 20
1327.929098
 30
0.0
 11
1107.388906
 21
1335.929098
 31
0.0
  0
LINE
  5
7E7
100
AcDbEntity
  8
紙巻器
  6
CONTINUOUS
 62
     6
100
AcDbLine
 10
1107.388906
 20
1309.929098
 30
0.0
 11
1107.388906
 21
1317.929098
 31
0.0
  0
ARC
  5
7E8
100
AcDbEntity
  8
紙巻器
  6
CONTINUOUS
 62
     6
100
AcDbCircle
 10
1096.47203
 20
1358.810688
 30
0.0
 40
18.0
100
AcDbArc
 50
90.0
 51
157.11462
  0
LINE
  5
7E9
100
AcDbEntity
  8
紙巻器
  6
CONTINUOUS
 62
     6
100
AcDbLine
 10
1164.888906
 20
1330.310688
 30
0.0
 11
1164.888906
 21
1338.310688
 31
0.0
  0
LINE
  5
7EA
100
AcDbEntity
  8
紙巻器
  6
CONTINUOUS
 62
     6
100
AcDbLine
 10
1160.888906
 20
1334.310688
 30
0.0
 11
1168.888906
 21
1334.310688
 31
0.0
  0
LINE
  5
7EB
100
AcDbEntity
  8
紙巻器
  6
CONTINUOUS
 62
     6
100
AcDbLine
 10
1222.388906
 20
1262.547506
 30
0.0
 11
1222.388906
 21
1299.929098
 31
0.0
  0
ARC
  5
7EC
100
AcDbEntity
  8
紙巻器
  6
CONTINUOUS
 62
     6
100
AcDbCircle
 10
1233.305782
 20
1309.810688
 30
0.0
 40
18.0
100
AcDbArc
 50
270.0
 51
337.11462
  0
LINE
  5
7ED
100
AcDbEntity
  8
紙巻器
  6
CONTINUOUS
 62
     6
100
AcDbLine
 10
1229.888906
 20
1291.810688
 30
0.0
 11
1229.888906
 21
1376.810688
 31
0.0
  0
LINE
  5
7EE
100
AcDbEntity
  8
紙巻器
  6
CONTINUOUS
 62
     6
100
AcDbLine
 10
1222.388906
 20
1291.810688
 30
0.0
 11
1233.305782
 21
1291.810688
 31
0.0
  0
ARC
  5
7EF
100
AcDbEntity
  8
紙巻器
  6
CONTINUOUS
 62
     6
100
AcDbCircle
 10
1233.305782
 20
1358.810688
 30
0.0
 40
18.0
100
AcDbArc
 50
22.88538
 51
90.0
  0
LINE
  5
7F0
100
AcDbEntity
  8
紙巻器
  6
CONTINUOUS
 62
     6
100
AcDbLine
 10
1227.388906
 20
1352.31069
 30
0.0
 11
1227.388906
 21
1376.810688
 31
0.0
  0
LINE
  5
7F1
100
AcDbEntity
  8
紙巻器
  6
CONTINUOUS
 62
     6
100
AcDbLine
 10
1222.388906
 20
1329.810688
 30
0.0
 11
1229.888906
 21
1329.810688
 31
0.0
  0
LINE
  5
7F2
100
AcDbEntity
  8
紙巻器
  6
CONTINUOUS
 62
     6
100
AcDbLine
 10
1222.388906
 20
1315.77309
 30
0.0
 11
1225.382318
 21
1314.800438
 31
0.0
  0
ARC
  5
7F3
100
AcDbEntity
  8
紙巻器
  6
CONTINUOUS
 62
     6
100
AcDbCircle
 10
1228.473138
 20
1324.310688
 30
0.0
 40
9.999998
100
AcDbArc
 50
251.995963
 51
270.0
  0
LINE
  5
7F4
100
AcDbEntity
  8
紙巻器
  6
CONTINUOUS
 62
     6
100
AcDbLine
 10
1228.473138
 20
1314.310688
 30
0.0
 11
1229.888906
 21
1314.310688
 31
0.0
  0
LINE
  5
7F5
100
AcDbEntity
  8
紙巻器
  6
CONTINUOUS
 62
     6
100
AcDbLine
 10
1222.388906
 20
1345.929098
 30
0.0
 11
1222.388906
 21
1352.31069
 31
0.0
  0
LINE
  5
7F6
100
AcDbEntity
  8
紙巻器
  6
CONTINUOUS
 62
     6
100
AcDbLine
 10
1222.388906
 20
1327.929098
 30
0.0
 11
1222.388906
 21
1335.929098
 31
0.0
  0
LINE
  5
7F7
100
AcDbEntity
  8
紙巻器
  6
CONTINUOUS
 62
     6
100
AcDbLine
 10
1222.388906
 20
1309.929098
 30
0.0
 11
1222.388906
 21
1317.929098
 31
0.0
  0
ARC
  5
7F8
100
AcDbEntity
  8
紙巻器
  6
CONTINUOUS
 62
     6
100
AcDbCircle
 10
650.716352
 20
1334.310688
 30
0.0
 40
600.0
100
AcDbArc
 50
356.990588
 51
3.009412
  0
LINE
  5
7F9
100
AcDbEntity
  8
紙巻器
  6
CONTINUOUS
 62
     6
100
AcDbLine
 10
1164.888906
 20
1205.0
 30
0.0
 11
1164.888906
 21
1318.310688
 31
0.0
  0
LINE
  5
7FA
100
AcDbEntity
  8
紙巻器
  6
CONTINUOUS
 62
     6
100
AcDbLine
 10
1293.0
 20
1334.310688
 30
0.0
 11
1180.888906
 21
1334.310688
 31
0.0
  0
LINE
  5
7FB
100
AcDbEntity
  8
紙巻器
  6
CONTINUOUS
 62
     6
100
AcDbLine
 10
1102.389818
 20
2720.8102
 30
0.0
 11
1227.389818
 21
2720.8102
 31
0.0
  0
LINE
  5
7FC
100
AcDbEntity
  8
紙巻器
  6
CONTINUOUS
 62
     6
100
AcDbLine
 10
1227.389818
 20
2819.311176
 30
0.0
 11
1102.389818
 21
2819.311176
 31
0.0
  0
LINE
  5
7FD
100
AcDbEntity
  8
紙巻器
  6
CONTINUOUS
 62
     6
100
AcDbLine
 10
1100.388906
 20
2822.310688
 30
0.0
 11
1229.388906
 21
2822.310688
 31
0.0
  0
LINE
  5
7FE
100
AcDbEntity
  8
紙巻器
  6
CONTINUOUS
 62
     6
100
AcDbLine
 10
1102.389818
 20
2819.311176
 30
0.0
 11
1102.389818
 21
2720.8102
 31
0.0
  0
ARC
  5
7FF
100
AcDbEntity
  8
紙巻器
  6
CONTINUOUS
 62
     6
100
AcDbCircle
 10
1096.47203
 20
2735.310688
 30
0.0
 40
18.0
100
AcDbArc
 50
202.88538
 51
270.0
  0
LINE
  5
800
100
AcDbEntity
  8
紙巻器
  6
CONTINUOUS
 62
     6
100
AcDbLine
 10
1099.888906
 20
2717.310688
 30
0.0
 11
1100.388906
 21
2822.310688
 31
0.0
  0
LINE
  5
801
100
AcDbEntity
  8
紙巻器
  6
CONTINUOUS
 62
     6
100
AcDbLine
 10
1096.47203
 20
2717.310688
 30
0.0
 11
1099.888906
 21
2717.310688
 31
0.0
  0
ARC
  5
802
100
AcDbEntity
  8
紙巻器
  6
CONTINUOUS
 62
     6
100
AcDbCircle
 10
1125.890794
 20
2847.018696
 30
0.0
 40
8.001702
100
AcDbArc
 50
138.587129
 51
180.0
  0
LINE
  5
803
100
AcDbEntity
  8
紙巻器
  6
CONTINUOUS
 62
     6
100
AcDbLine
 10
1117.890306
 20
2847.018696
 30
0.0
 11
1117.890306
 21
2831.310688
 31
0.0
  0
LINE
  5
804
100
AcDbEntity
  8
紙巻器
  6
CONTINUOUS
 62
     6
100
AcDbLine
 10
1079.061461
 20
2831.310688
 30
0.0
 11
1079.061461
 21
2759.810688
 31
0.0
  0
ARC
  5
805
100
AcDbEntity
  8
紙巻器
  6
CONTINUOUS
 62
     6
100
AcDbCircle
 10
1679.061461
 20
2759.810688
 30
0.0
 40
600.0
100
AcDbArc
 50
180.0
 51
183.009412
  0
LINE
  5
806
100
AcDbEntity
  8
紙巻器
  6
CONTINUOUS
 62
     6
100
AcDbLine
 10
1166.889329
 20
2831.310688
 30
0.0
 11
1166.889329
 21
2847.018696
 31
0.0
  0
LINE
  5
807
100
AcDbEntity
  8
紙巻器
  6
CONTINUOUS
 62
     6
100
AcDbLine
 10
1162.890306
 20
2847.018696
 30
0.0
 11
1162.890306
 21
2831.310688
 31
0.0
  0
LINE
  5
808
100
AcDbEntity
  8
紙巻器
  6
CONTINUOUS
 62
     6
100
AcDbLine
 10
1121.889329
 20
2831.310688
 30
0.0
 11
1121.889329
 21
2847.018696
 31
0.0
  0
ARC
  5
809
100
AcDbEntity
  8
紙巻器
  6
CONTINUOUS
 62
     6
100
AcDbCircle
 10
1113.888841
 20
2847.018696
 30
0.0
 40
8.000488
100
AcDbArc
 50
0.0
 51
41.412905
  0
ARC
  5
80A
100
AcDbEntity
  8
紙巻器
  6
CONTINUOUS
 62
     6
100
AcDbCircle
 10
1158.888841
 20
2847.018696
 30
0.0
 40
8.000488
100
AcDbArc
 50
0.0
 51
41.412882
  0
ARC
  5
80B
100
AcDbEntity
  8
紙巻器
  6
CONTINUOUS
 62
     6
100
AcDbCircle
 10
1170.890794
 20
2847.018696
 30
0.0
 40
8.001704
100
AcDbArc
 50
138.587144
 51
180.0
  0
LINE
  5
80C
100
AcDbEntity
  8
紙巻器
  6
CONTINUOUS
 62
     6
100
AcDbLine
 10
1227.389818
 20
2720.8102
 30
0.0
 11
1227.389818
 21
2819.311176
 31
0.0
  0
ARC
  5
80D
100
AcDbEntity
  8
紙巻器
  6
CONTINUOUS
 62
     6
100
AcDbCircle
 10
1233.305782
 20
2735.310688
 30
0.0
 40
18.0
100
AcDbArc
 50
270.0
 51
337.11462
  0
LINE
  5
80E
100
AcDbEntity
  8
紙巻器
  6
CONTINUOUS
 62
     6
100
AcDbLine
 10
1229.388906
 20
2822.310688
 30
0.0
 11
1229.888906
 21
2717.310688
 31
0.0
  0
LINE
  5
80F
100
AcDbEntity
  8
紙巻器
  6
CONTINUOUS
 62
     6
100
AcDbLine
 10
1229.888906
 20
2717.310688
 30
0.0
 11
1233.305782
 21
2717.310688
 31
0.0
  0
LINE
  5
810
100
AcDbEntity
  8
紙巻器
  6
CONTINUOUS
 62
     6
100
AcDbLine
 10
1211.889329
 20
2831.310688
 30
0.0
 11
1211.889329
 21
2847.018696
 31
0.0
  0
LINE
  5
811
100
AcDbEntity
  8
紙巻器
  6
CONTINUOUS
 62
     6
100
AcDbLine
 10
1207.890306
 20
2847.018696
 30
0.0
 11
1207.890306
 21
2831.310688
 31
0.0
  0
LINE
  5
812
100
AcDbEntity
  8
紙巻器
  6
CONTINUOUS
 62
     6
100
AcDbLine
 10
1250.716352
 20
2759.810688
 30
0.0
 11
1250.716352
 21
2831.310688
 31
0.0
  0
ARC
  5
813
100
AcDbEntity
  8
紙巻器
  6
CONTINUOUS
 62
     6
100
AcDbCircle
 10
650.716352
 20
2759.810688
 30
0.0
 40
600.0
100
AcDbArc
 50
356.990588
 51
0.0
  0
ARC
  5
814
100
AcDbEntity
  8
紙巻器
  6
CONTINUOUS
 62
     6
100
AcDbCircle
 10
1203.888841
 20
2847.018696
 30
0.0
 40
8.000488
100
AcDbArc
 50
0.0
 51
41.412905
  0
ARC
  5
815
100
AcDbEntity
  8
紙巻器
  6
CONTINUOUS
 62
     6
100
AcDbCircle
 10
1215.890794
 20
2847.018696
 30
0.0
 40
8.001702
100
AcDbArc
 50
138.587129
 51
180.0
  0
LINE
  5
816
100
AcDbEntity
  8
給水管
  6
CONTINUOUS
 62
     6
100
AcDbLine
 10
448.388906
 20
757.442907
 30
0.0
 11
448.388906
 21
699.670957
 31
0.0
  0
LINE
  5
817
100
AcDbEntity
  8
給水管
  6
CONTINUOUS
 62
     6
100
AcDbLine
 10
461.388906
 20
758.086275
 30
0.0
 11
461.388906
 21
699.670957
 31
0.0
  0
TEXT
  5
818
100
AcDbEntity
  8
ﾃｷｽﾄ
  6
CONTINUOUS
 62
     2
100
AcDbText
 10
1930.279297
 20
238.348846
 30
0.0
 40
30.0
  1
１０
 41
0.826
  7
EXCADSTD
 72
     5
 11
1984.358698
 21
238.348846
 31
0.0
100
AcDbText
  0
TEXT
  5
819
100
AcDbEntity
  8
ﾃｷｽﾄ
  6
CONTINUOUS
 62
     2
100
AcDbText
 10
1896.0
 20
316.5
 30
0.0
 40
35.0
  1
１
 41
0.785714
  7
EXCADVERT
 72
     3
 11
1896.0
 21
281.5
 31
0.0
100
AcDbText
  0
TEXT
  5
81A
100
AcDbEntity
  8
ﾃｷｽﾄ
  6
CONTINUOUS
 62
     2
100
AcDbText
 10
1442.795166
 20
270.931549
 30
0.0
 40
57.5
  1
ＳＣ７３Ｐ－ＡＴ
 41
0.602609
  7
EXCADSTD
 72
     5
 11
1772.795166
 21
270.931549
 31
0.0
100
AcDbText
  0
INSERT
  5
81B
100
AcDbEntity
  8
ﾃｷｽﾄ
  6
CONTINUOUS
 62
     0
100
AcDbBlockReference
  2
_OPEN30
 10
752.788686
 20
613.253366
 30
0.0
 41
30.0
 42
30.0
 50
156.519321
  0
TEXT
  5
81C
100
AcDbEntity
  8
ﾃｷｽﾄ
  6
CONTINUOUS
 62
     2
100
AcDbText
 10
400.22634
 20
1696.943855
 30
0.0
 40
40.0
  1
Ｗ．Ｌ
 50
90.0
 41
0.833
  7
EXCADSTD
 72
     5
 11
400.22634
 21
1815.943855
 31
0.0
100
AcDbText
  0
TEXT
  5
81D
100
AcDbEntity
  8
ﾃｷｽﾄ
  6
CONTINUOUS
 62
     2
100
AcDbText
 10
679.502329
 20
2785.761029
 30
0.0
 40
40.0
  1
Ｗ．Ｌ
 41
0.833
  7
EXCADSTD
 72
     5
 11
798.502329
 21
2785.761029
 31
0.0
100
AcDbText
  0
TEXT
  5
81E
100
AcDbEntity
  8
ﾃｷｽﾄ
  6
CONTINUOUS
 62
     2
100
AcDbText
 10
805.610718
 20
272.931519
 30
0.0
 40
55.0
  1
洋風タンク密結床上排水洗落し便器セット
 41
0.46622
  7
EXCADSTD
 72
     5
 11
1385.610718
 21
272.931519
 31
0.0
100
AcDbText
  0
TEXT
  5
81F
100
AcDbEntity
  8
ﾃｷｽﾄ
  6
CONTINUOUS
 62
     2
100
AcDbText
 10
807.61084
 20
218.271332
 30
0.0
 40
55.0
  1
防露型密結ロータンクセット
 41
0.46993
  7
EXCADSTD
 72
     5
 11
1207.61084
 21
218.271332
 31
0.0
100
AcDbText
  0
TEXT
  5
820
100
AcDbEntity
  8
ﾃｷｽﾄ
  6
CONTINUOUS
 62
     2
100
AcDbText
 10
1443.085693
 20
219.916992
 30
0.0
 40
50.0
  1
ＳＴ７８ＦＵ－０ＡＥ０Ａ
 41
0.518
  7
EXCADSTD
 72
     5
 11
1813.085693
 21
219.916992
 31
0.0
100
AcDbText
  0
LINE
  5
821
100
AcDbEntity
  8
寸法
  6
CONTINUOUS
 62
     3
100
AcDbLine
 10
369.887962
 20
2423.310688
 30
0.0
 11
369.887962
 21
2046.648834
 31
0.0
  0
LINE
  5
822
100
AcDbEntity
  8
寸法
  6
CONTINUOUS
 62
     3
100
AcDbLine
 10
346.888906
 20
624.310688
 30
0.0
 11
226.0
 21
624.310688
 31
0.0
  0
LINE
  5
823
100
AcDbEntity
  8
寸法
  6
CONTINUOUS
 62
     3
100
AcDbLine
 10
354.888906
 20
616.310688
 30
0.0
 11
354.888906
 21
464.124826
 31
0.0
  0
LINE
  5
824
100
AcDbEntity
  8
寸法
  6
CONTINUOUS
 62
     3
100
AcDbLine
 10
749.888995
 20
583.44306
 30
0.0
 11
749.888995
 21
464.124826
 31
0.0
  0
LINE
  5
825
100
AcDbEntity
  8
寸法
  6
CONTINUOUS
 62
     3
100
AcDbLine
 10
559.957929
 20
786.310688
 30
0.0
 11
559.957929
 21
530.595997
 31
0.0
  0
LINE
  5
826
100
AcDbEntity
  8
寸法
  6
CONTINUOUS
 62
     3
100
AcDbLine
 10
354.888906
 20
2431.310688
 30
0.0
 11
294.0
 21
2431.310688
 31
0.0
  0
LINE
  5
827
100
AcDbEntity
  8
寸法
  6
CONTINUOUS
 62
     3
100
AcDbLine
 10
496.0
 20
2131.310688
 30
0.0
 11
294.0
 21
2131.310688
 31
0.0
  0
DIMENSION
  5
831
100
AcDbEntity
  8
寸法
  6
CONTINUOUS
 62
     3
100
AcDbDimension
  2
*D19
 10
1195.0
 20
2253.810688
 30
0.0
 11
1171.5
 21
2431.31023
 31
0.0
 70
   160
  1
355
  3
STANDARD
100
AcDbAlignedDimension
 13
1204.88985
 23
2608.809773
 33
0.0
 14
1204.88985
 24
2253.810688
 34
0.0
 50
90.0
100
AcDbRotatedDimension
1001
ACAD
1000
DSTYLE
1002
{
1070
     6
1000
_EX_NORM
1070
     7
1000
_EX_NORM
1070
    41
1040
35.0
1070
    42
1040
0.0
1070
    44
1040
0.0
1070
    73
1070
     0
1070
    74
1070
     0
1070
    75
1070
     1
1070
    76
1070
     1
1070
    77
1070
     1
1070
    78
1070
     0
1070
   140
1040
40.0
1070
   147
1040
3.5
1070
   173
1070
     1
1070
   176
1070
     3
1070
   177
1070
     3
1070
   178
1070
     2
1070
   271
1070
     0
1070
   279
1070
     2
1070
   280
1070
     0
1070
   287
1070
     5
1070
   340
1005
16C
1002
}
  0
DIMENSION
  5
83B
100
AcDbEntity
  8
寸法
  6
CONTINUOUS
 62
     3
100
AcDbDimension
  2
*D20
 10
307.0
 20
2131.310688
 30
0.0
 11
283.5
 21
2281.310688
 31
0.0
 70
   160
  1
300
  3
STANDARD
100
AcDbAlignedDimension
 13
294.0
 23
2431.310688
 33
0.0
 14
294.0
 24
2131.310688
 34
0.0
 50
90.0
100
AcDbRotatedDimension
1001
ACAD
1000
DSTYLE
1002
{
1070
     6
1000
_EX_NORM
1070
     7
1000
_EX_NORM
1070
    41
1040
30.0
1070
    42
1040
0.0
1070
    44
1040
0.0
1070
    73
1070
     0
1070
    74
1070
     0
1070
    75
1070
     1
1070
    76
1070
     1
1070
    77
1070
     1
1070
    78
1070
     0
1070
   140
1040
40.0
1070
   147
1040
3.5
1070
   173
1070
     1
1070
   176
1070
     3
1070
   177
1070
     3
1070
   178
1070
     2
1070
   271
1070
     0
1070
   279
1070
     2
1070
   280
1070
     0
1070
   287
1070
     5
1070
   340
1005
16C
1002
}
  0
DIMENSION
  5
845
100
AcDbEntity
  8
寸法
  6
CONTINUOUS
 62
     3
100
AcDbDimension
  2
*D21
 10
1104.888906
 20
2125.0
 30
0.0
 11
884.888906
 21
2148.5
 31
0.0
 70
   160
  1
440
  3
STANDARD
100
AcDbAlignedDimension
 13
664.888906
 23
2109.326459
 33
0.0
 14
1104.888906
 24
1980.118544
 34
0.0
100
AcDbRotatedDimension
1001
ACAD
1000
DSTYLE
1002
{
1070
     6
1000
_EX_NORM
1070
     7
1000
_EX_NORM
1070
    41
1040
35.0
1070
    42
1040
0.0
1070
    44
1040
0.0
1070
    73
1070
     0
1070
    74
1070
     0
1070
    75
1070
     1
1070
    76
1070
     1
1070
    77
1070
     1
1070
    78
1070
     0
1070
   140
1040
40.0
1070
   147
1040
3.5
1070
   173
1070
     1
1070
   176
1070
     3
1070
   177
1070
     3
1070
   178
1070
     2
1070
   271
1070
     0
1070
   279
1070
     2
1070
   280
1070
     0
1070
   287
1070
     5
1070
   340
1005
16C
1002
}
  0
DIMENSION
  5
84F
100
AcDbEntity
  8
寸法
  6
CONTINUOUS
 62
     3
100
AcDbDimension
  2
*D22
 10
1104.888906
 20
2061.0
 30
0.0
 11
737.388434
 21
2084.5
 31
0.0
 70
   160
  1
735
  3
STANDARD
100
AcDbAlignedDimension
 13
369.887962
 23
2046.648834
 33
0.0
 14
1104.888906
 24
1980.118544
 34
0.0
100
AcDbRotatedDimension
1001
ACAD
1000
DSTYLE
1002
{
1070
     6
1000
_EX_NORM
1070
     7
1000
_EX_NORM
1070
    41
1040
30.0
1070
    42
1040
0.0
1070
    44
1040
0.0
1070
    73
1070
     0
1070
    74
1070
     0
1070
    75
1070
     1
1070
    76
1070
     1
1070
    77
1070
     1
1070
    78
1070
     0
1070
   140
1040
40.0
1070
   147
1040
3.5
1070
   173
1070
     1
1070
   176
1070
     3
1070
   177
1070
     3
1070
   178
1070
     2
1070
   271
1070
     0
1070
   279
1070
     2
1070
   280
1070
     0
1070
   287
1070
     5
1070
   340
1005
16C
1002
}
  0
DIMENSION
  5
859
100
AcDbEntity
  8
寸法
  6
CONTINUOUS
 62
     3
100
AcDbDimension
  2
*D23
 10
1104.888906
 20
1996.0
 30
0.0
 11
729.888906
 21
2019.5
 31
0.0
 70
   160
  1
750
  3
STANDARD
100
AcDbAlignedDimension
 13
354.888906
 23
1980.118544
 33
0.0
 14
1104.888906
 24
1980.118544
 34
0.0
100
AcDbRotatedDimension
1001
ACAD
1000
DSTYLE
1002
{
1070
     6
1000
_EX_NORM
1070
     7
1000
_EX_NORM
1070
    41
1040
30.0
1070
    42
1040
0.0
1070
    44
1040
0.0
1070
    73
1070
     0
1070
    74
1070
     0
1070
    75
1070
     1
1070
    76
1070
     1
1070
    77
1070
     1
1070
    78
1070
     0
1070
   140
1040
40.0
1070
   147
1040
3.5
1070
   173
1070
     1
1070
   176
1070
     3
1070
   177
1070
     3
1070
   178
1070
     2
1070
   271
1070
     0
1070
   279
1070
     2
1070
   280
1070
     0
1070
   287
1070
     5
1070
   340
1005
16C
1002
}
  0
LINE
  5
85A
100
AcDbEntity
  8
寸法
  6
CONTINUOUS
 62
     3
100
AcDbLine
 10
478.935347
 20
828.764611
 30
0.0
 11
495.605542
 21
734.223237
 31
0.0
  0
LINE
  5
85B
100
AcDbEntity
  8
寸法
  6
CONTINUOUS
 62
     3
100
AcDbLine
 10
489.068831
 20
800.088619
 30
0.0
 11
478.935347
 21
828.764611
 31
0.0
  0
LINE
  5
85C
100
AcDbEntity
  8
寸法
  6
CONTINUOUS
 62
     3
100
AcDbLine
 10
478.935347
 20
828.764611
 30
0.0
 11
479.220754
 21
798.352137
 31
0.0
  0
LINE
  5
85D
100
AcDbEntity
  8
寸法
  6
CONTINUOUS
 62
     3
100
AcDbLine
 10
485.472058
 20
762.899228
 30
0.0
 11
495.605542
 21
734.223237
 31
0.0
  0
LINE
  5
85E
100
AcDbEntity
  8
寸法
  6
CONTINUOUS
 62
     3
100
AcDbLine
 10
495.605542
 20
734.223237
 30
0.0
 11
495.320135
 21
764.63571
 31
0.0
  0
ARC
  5
85F
100
AcDbEntity
  8
寸法
  6
CONTINUOUS
 62
     3
100
AcDbCircle
 10
559.95344
 20
794.310224
 30
0.0
 40
253.245317
100
AcDbArc
 50
353.212722
 51
18.591408
  0
LINE
  5
860
100
AcDbEntity
  8
寸法
  6
CONTINUOUS
 62
     3
100
AcDbLine
 10
818.198844
 20
764.310688
 30
0.0
 11
813.198844
 21
794.310688
 31
0.0
  0
LINE
  5
861
100
AcDbEntity
  8
寸法
  6
CONTINUOUS
 62
     3
100
AcDbLine
 10
813.198844
 20
794.310688
 30
0.0
 11
808.198844
 21
764.310688
 31
0.0
  0
LINE
  5
862
100
AcDbEntity
  8
寸法
  6
CONTINUOUS
 62
     3
100
AcDbLine
 10
799.218126
 20
866.961291
 30
0.0
 11
809.351584
 21
838.28529
 31
0.0
  0
LINE
  5
863
100
AcDbEntity
  8
寸法
  6
CONTINUOUS
 62
     3
100
AcDbLine
 10
809.351584
 20
838.28529
 30
0.0
 11
809.066205
 21
868.697764
 31
0.0
  0
DIMENSION
  5
86D
100
AcDbEntity
  8
寸法
  6
CONTINUOUS
 62
     3
100
AcDbDimension
  2
*D24
 10
684.0
 20
624.310688
 30
0.0
 11
660.5
 21
709.310688
 31
0.0
 70
   160
  1
170
  3
STANDARD
100
AcDbAlignedDimension
 13
823.366443
 23
794.310688
 33
0.0
 14
354.888906
 24
624.310688
 34
0.0
 50
90.0
100
AcDbRotatedDimension
1001
ACAD
1000
DSTYLE
1002
{
1070
     6
1000
_EX_NORM
1070
     7
1000
_EX_NORM
1070
    41
1040
30.0
1070
    42
1040
0.0
1070
    44
1040
0.0
1070
    73
1070
     0
1070
    74
1070
     0
1070
    75
1070
     1
1070
    76
1070
     1
1070
    77
1070
     1
1070
    78
1070
     0
1070
   140
1040
40.0
1070
   147
1040
3.5
1070
   173
1070
     1
1070
   176
1070
     3
1070
   177
1070
     3
1070
   178
1070
     2
1070
   271
1070
     0
1070
   279
1070
     2
1070
   280
1070
     0
1070
   287
1070
     5
1070
   340
1005
16C
1002
}
  0
TEXT
  5
86E
100
AcDbEntity
  8
寸法
  6
CONTINUOUS
 62
     2
100
AcDbText
 10
874.1
 20
777.310688
 30
0.0
 40
40.0
  1
１０°
 50
90.0
 41
0.7
  7
EXCADSTD
 72
     5
 11
874.1
 21
877.310688
 31
0.0
100
AcDbText
  0
DIMENSION
  5
878
100
AcDbEntity
  8
寸法
  6
CONTINUOUS
 62
     3
100
AcDbDimension
  2
*D25
 10
559.957929
 20
541.0
 30
0.0
 11
457.423417
 21
564.5
 31
0.0
 70
   160
  1
205
  3
STANDARD
100
AcDbAlignedDimension
 13
354.888906
 23
464.124826
 33
0.0
 14
559.957929
 24
530.595997
 34
0.0
100
AcDbRotatedDimension
1001
ACAD
1000
DSTYLE
1002
{
1070
     6
1000
_EX_NORM
1070
     7
1000
_EX_NORM
1070
    41
1040
30.0
1070
    42
1040
0.0
1070
    44
1040
0.0
1070
    73
1070
     0
1070
    74
1070
     0
1070
    75
1070
     1
1070
    76
1070
     1
1070
    77
1070
     1
1070
    78
1070
     0
1070
   140
1040
40.0
1070
   147
1040
3.5
1070
   173
1070
     1
1070
   176
1070
     3
1070
   177
1070
     3
1070
   178
1070
     2
1070
   271
1070
     0
1070
   279
1070
     2
1070
   280
1070
     0
1070
   287
1070
     5
1070
   340
1005
16C
1002
}
  0
DIMENSION
  5
882
100
AcDbEntity
  8
寸法
  6
CONTINUOUS
 62
     3
100
AcDbDimension
  2
*D26
 10
749.888995
 20
478.0
 30
0.0
 11
552.388951
 21
501.5
 31
0.0
 70
   160
  1
395
  3
STANDARD
100
AcDbAlignedDimension
 13
354.888906
 23
464.124826
 33
0.0
 14
749.888995
 24
464.124826
 34
0.0
100
AcDbRotatedDimension
1001
ACAD
1000
DSTYLE
1002
{
1070
     6
1000
_EX_NORM
1070
     7
1000
_EX_NORM
1070
    41
1040
30.0
1070
    42
1040
0.0
1070
    44
1040
0.0
1070
    73
1070
     0
1070
    74
1070
     0
1070
    75
1070
     1
1070
    76
1070
     1
1070
    77
1070
     1
1070
    78
1070
     0
1070
   140
1040
40.0
1070
   147
1040
3.5
1070
   173
1070
     1
1070
   176
1070
     3
1070
   177
1070
     3
1070
   178
1070
     2
1070
   271
1070
     0
1070
   279
1070
     2
1070
   280
1070
     0
1070
   287
1070
     5
1070
   340
1005
16C
1002
}
  0
DIMENSION
  5
88C
100
AcDbEntity
  8
寸法
  6
CONTINUOUS
 62
     3
100
AcDbDimension
  2
*D27
 10
246.0
 20
624.310688
 30
0.0
 11
222.5
 21
806.810688
 31
0.0
 70
   160
  1
365
  3
STANDARD
100
AcDbAlignedDimension
 13
232.188916
 23
989.310688
 33
0.0
 14
232.60624
 24
624.310688
 34
0.0
 50
90.0
100
AcDbRotatedDimension
1001
ACAD
1000
DSTYLE
1002
{
1070
     6
1000
_EX_NORM
1070
     7
1000
_EX_NORM
1070
    41
1040
30.0
1070
    42
1040
0.0
1070
    44
1040
0.0
1070
    73
1070
     0
1070
    74
1070
     0
1070
    75
1070
     1
1070
    76
1070
     1
1070
    77
1070
     1
1070
    78
1070
     0
1070
   140
1040
40.0
1070
   147
1040
3.5
1070
   173
1070
     1
1070
   176
1070
     3
1070
   177
1070
     3
1070
   178
1070
     2
1070
   271
1070
     0
1070
   279
1070
     2
1070
   280
1070
     0
1070
   287
1070
     5
1070
   340
1005
16C
1002
}
  0
DIMENSION
  5
896
100
AcDbEntity
  8
寸法
  6
CONTINUOUS
 62
     3
100
AcDbDimension
  2
*D28
 10
1194.0
 20
624.310688
 30
0.0
 11
1170.5
 21
799.310688
 31
0.0
 70
   160
  1
350
  3
STANDARD
100
AcDbAlignedDimension
 13
1211.0
 23
974.310688
 33
0.0
 14
1283.0
 24
624.310688
 34
0.0
 50
90.0
100
AcDbRotatedDimension
1001
ACAD
1000
DSTYLE
1002
{
1070
     6
1000
_EX_NORM
1070
     7
1000
_EX_NORM
1070
    41
1040
30.0
1070
    42
1040
0.0
1070
    44
1040
0.0
1070
    73
1070
     0
1070
    74
1070
     0
1070
    75
1070
     1
1070
    76
1070
     1
1070
    77
1070
     1
1070
    78
1070
     0
1070
   140
1040
40.0
1070
   147
1040
3.5
1070
   173
1070
     1
1070
   176
1070
     3
1070
   177
1070
     3
1070
   178
1070
     2
1070
   271
1070
     0
1070
   279
1070
     2
1070
   280
1070
     0
1070
   287
1070
     5
1070
   340
1005
16C
1002
}
  0
DIMENSION
  5
8A0
100
AcDbEntity
  8
寸法
  6
CONTINUOUS
 62
     3
100
AcDbDimension
  2
*D29
 10
1273.0
 20
624.310688
 30
0.0
 11
1249.5
 21
979.310688
 31
0.0
 70
   160
  1
（710）
  3
STANDARD
100
AcDbAlignedDimension
 13
1280.716352
 23
1334.310688
 33
0.0
 14
1293.0
 24
624.310688
 34
0.0
 50
90.0
100
AcDbRotatedDimension
1001
ACAD
1000
DSTYLE
1002
{
1070
     6
1000
_EX_NORM
1070
     7
1000
_EX_NORM
1070
    41
1040
30.0
1070
    42
1040
0.0
1070
    44
1040
0.0
1070
    73
1070
     0
1070
    74
1070
     0
1070
    75
1070
     1
1070
    76
1070
     1
1070
    77
1070
     1
1070
    78
1070
     0
1070
   140
1040
40.0
1070
   147
1040
3.5
1070
   173
1070
     1
1070
   176
1070
     3
1070
   177
1070
     3
1070
   178
1070
     2
1070
   271
1070
     0
1070
   279
1070
     2
1070
   280
1070
     0
1070
   287
1070
     5
1070
   340
1005
16C
1002
}
  0
DIMENSION
  5
8AB
100
AcDbEntity
  8
寸法
  6
CONTINUOUS
 62
     3
100
AcDbDimension
  2
*D30
 10
454.888906
 20
679.0
 30
0.0
 11
404.888906
 21
702.5
 31
0.0
 70
   160
  1
100
  3
STANDARD
100
AcDbAlignedDimension
 13
354.888906
 23
541.310688
 33
0.0
 14
454.888906
 24
689.2
 34
0.0
100
AcDbRotatedDimension
1001
ACAD
1000
DSTYLE
1002
{
1070
     6
1000
_EX_NORM
1070
     7
1000
_EX_NORM
1070
    41
1040
30.0
1070
    42
1040
0.0
1070
    44
1040
0.0
1070
    73
1070
     0
1070
    74
1070
     0
1070
    75
1070
     1
1070
    76
1070
     1
1070
    77
1070
     1
1070
    78
1070
     0
1070
   140
1040
40.0
1070
   147
1040
3.5
1070
   173
1070
     1
1070
   176
1070
     3
1070
   177
1070
     3
1070
   178
1070
     2
1070
   271
1070
     0
1070
   279
1070
     2
1070
   280
1070
     0
1070
   287
1070
     5
1070
   340
1005
8AA
1002
}
  0
DIMENSION
  5
8B5
100
AcDbEntity
  8
寸法
  6
CONTINUOUS
 62
     3
100
AcDbDimension
  2
*D31
 10
354.888906
 20
1225.0
 30
0.0
 11
759.888906
 21
1248.5
 31
0.0
 70
   160
  1
（810）
  3
STANDARD
100
AcDbAlignedDimension
 13
1164.888906
 23
1213.310688
 33
0.0
 14
354.888906
 24
624.310688
 34
0.0
100
AcDbRotatedDimension
1001
ACAD
1000
DSTYLE
1002
{
1070
     6
1000
_EX_NORM
1070
     7
1000
_EX_NORM
1070
    41
1040
35.0
1070
    42
1040
0.0
1070
    44
1040
0.0
1070
    73
1070
     0
1070
    74
1070
     0
1070
    75
1070
     1
1070
    76
1070
     1
1070
    77
1070
     1
1070
    78
1070
     0
1070
   140
1040
40.0
1070
   147
1040
3.5
1070
   173
1070
     1
1070
   176
1070
     3
1070
   177
1070
     3
1070
   178
1070
     2
1070
   271
1070
     0
1070
   279
1070
     2
1070
   280
1070
     0
1070
   287
1070
     5
1070
   340
1005
16C
1002
}
  0
DIMENSION
  5
8C0
100
AcDbEntity
  8
寸法
  6
CONTINUOUS
 62
     3
100
AcDbDimension
  2
*D32
 10
310.0
 20
924.260688
 30
0.0
 11
287.0
 21
774.285688
 31
0.0
 70
   160
  1
300（壁給水）
  3
STANDARD
100
AcDbAlignedDimension
 13
354.888906
 23
624.310688
 33
0.0
 14
346.728906
 24
924.260688
 34
0.0
 50
90.0
100
AcDbRotatedDimension
1001
ACAD
1000
DSTYLE
1002
{
1070
     6
1000
_EX_NORM
1070
     7
1000
_EX_NORM
1070
    41
1040
30.0
1070
    42
1040
5.628906
1070
    44
1040
20.0
1070
    73
1070
     0
1070
    74
1070
     0
1070
    75
1070
     1
1070
    76
1070
     0
1070
    77
1070
     1
1070
    78
1070
     8
1070
   140
1040
40.0
1070
   147
1040
3.0
1070
   173
1070
     1
1070
   176
1070
     3
1070
   177
1070
     3
1070
   178
1070
     2
1070
   271
1070
     2
1070
   279
1070
     2
1070
   280
1070
     0
1070
   287
1070
     5
1070
   340
1005
8AA
1002
}
  0
LINE
  5
8C1
100
AcDbEntity
  8
寸法
  6
CONTINUOUS
 62
     3
100
AcDbLine
 10
394.7
 20
989.310688
 30
0.0
 11
226.0
 21
989.310688
 31
0.0
  0
LINE
  5
8C2
100
AcDbEntity
  8
寸法
  6
CONTINUOUS
 62
     3
100
AcDbLine
 10
467.553085
 20
826.757611
 30
0.0
 11
546.698834
 21
840.713142
 31
0.0
  0
LINE
  5
8C3
100
AcDbEntity
  8
寸法
  6
CONTINUOUS
 62
     3
100
AcDbLine
 10
563.368945
 20
746.171753
 30
0.0
 11
484.22328
 21
732.216237
 31
0.0
  0
LINE
  5
8C4
100
AcDbEntity
  8
寸法
  6
CONTINUOUS
 62
     3
100
AcDbLine
 10
1112.888973
 20
974.310688
 30
0.0
 11
1211.0
 21
974.310688
 31
0.0
  0
TEXT
  5
8C5
100
AcDbEntity
  8
寸法
  6
CONTINUOUS
 62
     2
100
AcDbText
 10
486.720628
 20
831.710347
 30
0.0
 40
40.0
  1
φ９６
 50
280.0
 41
0.7
  7
EXCADSTD
 72
     5
 11
504.085445
 21
733.229572
 31
0.0
100
AcDbText
  0
LINE
  5
8C6
100
AcDbEntity
  8
寸法
  6
CONTINUOUS
 62
     3
100
AcDbLine
 10
833.198844
 20
794.310688
 30
0.0
 11
559.957929
 21
794.310688
 31
0.0
  0
LINE
  5
8C7
100
AcDbEntity
  8
寸法
  6
CONTINUOUS
 62
     3
100
AcDbLine
 10
543.974873
 20
791.492459
 30
0.0
 11
829.047742
 21
841.758236
 31
0.0
  0
LINE
  5
8C8
100
AcDbEntity
  8
寸法
  6
CONTINUOUS
 62
     3
100
AcDbLine
 10
1204.888906
 20
2253.810688
 30
0.0
 11
909.210472
 21
2253.810688
 31
0.0
  0
LINE
  5
8C9
100
AcDbEntity
  8
寸法
  6
CONTINUOUS
 62
     3
100
AcDbLine
 10
1204.888906
 20
2608.809773
 30
0.0
 11
909.210624
 21
2608.809773
 31
0.0
  0
LINE
  5
8CA
100
AcDbEntity
  8
寸法
  6
CONTINUOUS
 62
     3
100
AcDbLine
 10
1204.88985
 20
2608.809773
 30
0.0
 11
909.211569
 21
2608.809773
 31
0.0
  0
LINE
  5
8CB
100
AcDbEntity
  8
寸法
  6
CONTINUOUS
 62
     3
100
AcDbLine
 10
1204.88985
 20
2253.810688
 30
0.0
 11
909.211416
 21
2253.810688
 31
0.0
  0
LINE
  5
8CC
100
AcDbEntity
  8
寸法
  6
CONTINUOUS
 62
     3
100
AcDbLine
 10
664.888906
 20
2387.311665
 30
0.0
 11
664.888906
 21
2109.326459
 31
0.0
  0
LINE
  5
8CD
100
AcDbEntity
  8
寸法
  6
CONTINUOUS
 62
     3
100
AcDbLine
 10
1104.888906
 20
2704.810688
 30
0.0
 11
1104.888906
 21
1980.118544
 31
0.0
  0
LINE
  5
8CE
100
AcDbEntity
  8
器具明細表
  6
CONTINUOUS
 62
     6
100
AcDbLine
 10
1275.328295
 20
2807.584653
 30
0.0
 11
1975.328295
 21
2807.584653
 31
0.0
  0
LINE
  5
8CF
100
AcDbEntity
  8
器具明細表
  6
CONTINUOUS
 62
     6
100
AcDbLine
 10
1275.328295
 20
2742.584653
 30
0.0
 11
1975.328295
 21
2742.584653
 31
0.0
  0
LINE
  5
8D0
100
AcDbEntity
  8
器具明細表
  6
CONTINUOUS
 62
     6
100
AcDbLine
 10
1275.328295
 20
2677.584653
 30
0.0
 11
1975.328295
 21
2677.584653
 31
0.0
  0
TEXT
  5
8D1
100
AcDbEntity
  8
器具明細表
  6
CONTINUOUS
 62
     2
100
AcDbText
 10
1295.328295
 20
2817.584653
 30
0.0
 40
60.0
  1
器具明細
 41
1.54
  7
EXCADSTD
 72
     5
 11
1735.328295
 21
2817.584653
 31
0.0
100
AcDbText
  0
TEXT
  5
8D2
100
AcDbEntity
  8
器具明細表
  6
CONTINUOUS
 62
     2
100
AcDbText
 10
1340.328295
 20
2747.584653
 30
0.0
 40
55.0
  1
品番
 41
1.527273
  7
EXCADSTD
 72
     5
 11
1523.648295
 21
2747.584653
 31
0.0
100
AcDbText
  0
TEXT
  5
8D3
100
AcDbEntity
  8
器具明細表
  6
CONTINUOUS
 62
     2
100
AcDbText
 10
1655.328295
 20
2747.584653
 30
0.0
 40
55.0
  1
品名
 41
1.374545
  7
EXCADSTD
 72
     5
 11
1820.316295
 21
2747.584653
 31
0.0
100
AcDbText
  0
TEXT
  5
8D4
100
AcDbEntity
  8
器具明細表
  6
CONTINUOUS
 62
     2
100
AcDbText
 10
1886.828295
 20
2747.584653
 30
0.0
 40
55.0
  1
個数
 41
0.664364
  7
EXCADSTD
 72
     5
 11
1966.572495
 21
2747.584653
 31
0.0
100
AcDbText
  0
TEXT
  5
8D5
100
AcDbEntity
  8
器具明細表
  6
CONTINUOUS
 62
     2
100
AcDbText
 10
1907.828295
 20
2687.584653
 30
0.0
 40
45.0
  1
１
 41
0.84
  7
EXCADSTD
 72
     5
 11
1943.828295
 21
2687.584653
 31
0.0
100
AcDbText
  0
TEXT
  5
8D6
100
AcDbEntity
  8
器具明細表
  6
CONTINUOUS
 62
     2
100
AcDbText
 10
1907.828295
 20
2622.584653
 30
0.0
 40
45.0
  1
１
 41
0.84
  7
EXCADSTD
 72
     5
 11
1943.828295
 21
2622.584653
 31
0.0
100
AcDbText
  0
LINE
  5
8D7
100
AcDbEntity
  8
器具明細表
  6
CONTINUOUS
 62
     6
100
AcDbLine
 10
1275.328295
 20
2612.584653
 30
0.0
 11
1975.328295
 21
2612.584653
 31
0.0
  0
TEXT
  5
8D8
100
AcDbEntity
  8
器具明細表
  6
CONTINUOUS
 62
     2
100
AcDbText
 10
1907.828295
 20
2492.584653
 30
0.0
 40
45.0
  1
１
 41
0.84
  7
EXCADSTD
 72
     5
 11
1943.828295
 21
2492.584653
 31
0.0
100
AcDbText
  0
LINE
  5
8D9
100
AcDbEntity
  8
器具明細表
  6
CONTINUOUS
 62
     6
100
AcDbLine
 10
1275.328295
 20
2547.584653
 30
0.0
 11
1975.328295
 21
2547.584653
 31
0.0
  0
TEXT
  5
8DA
100
AcDbEntity
  8
器具明細表
  6
CONTINUOUS
 62
     2
100
AcDbText
 10
1608.328295
 20
2555.084653
 30
0.0
 40
50.0
  1
ワンタッチ式紙巻器
 41
0.522667
  7
EXCADSTD
 72
     5
 11
1888.328295
 21
2555.084653
 31
0.0
100
AcDbText
  0
TEXT
  5
8DB
100
AcDbEntity
  8
器具明細表
  6
CONTINUOUS
 62
     2
100
AcDbText
 10
1907.828295
 20
2557.584653
 30
0.0
 40
45.0
  1
１
 41
0.84
  7
EXCADSTD
 72
     5
 11
1943.828295
 21
2557.584653
 31
0.0
100
AcDbText
  0
TEXT
  5
8DC
100
AcDbEntity
  8
器具明細表
  6
CONTINUOUS
 62
     2
100
AcDbText
 10
1608.328295
 20
2620.084653
 30
0.0
 40
50.0
  1
タンクセット
 41
0.644
  7
EXCADSTD
 72
     5
 11
1838.328294
 21
2620.084653
 31
0.0
100
AcDbText
  0
LINE
  5
8DD
100
AcDbEntity
  8
器具明細表
  6
CONTINUOUS
 62
     6
100
AcDbLine
 10
1275.328295
 20
2482.584653
 30
0.0
 11
1975.328295
 21
2482.584653
 31
0.0
  0
TEXT
  5
8DE
100
AcDbEntity
  8
器具明細表
  6
CONTINUOUS
 62
     2
100
AcDbText
 10
1608.328295
 20
2685.084653
 30
0.0
 40
50.0
  1
便器セット
 41
0.64848
  7
EXCADSTD
 72
     5
 11
1801.328294
 21
2685.084653
 31
0.0
100
AcDbText
  0
LINE
  5
8DF
100
AcDbEntity
  8
器具明細表
  6
CONTINUOUS
 62
     6
100
AcDbLine
 10
1275.328295
 20
2807.584653
 30
0.0
 11
1275.328295
 21
2482.584653
 31
0.0
  0
LINE
  5
8E0
100
AcDbEntity
  8
器具明細表
  6
CONTINUOUS
 62
     6
100
AcDbLine
 10
1605.328295
 20
2482.584653
 30
0.0
 11
1605.328295
 21
2807.584653
 31
0.0
  0
LINE
  5
8E1
100
AcDbEntity
  8
器具明細表
  6
CONTINUOUS
 62
     6
100
AcDbLine
 10
1885.328295
 20
2807.584653
 30
0.0
 11
1885.328295
 21
2482.584653
 31
0.0
  0
LINE
  5
8E2
100
AcDbEntity
  8
器具明細表
  6
CONTINUOUS
 62
     6
100
AcDbLine
 10
1975.328295
 20
2482.584653
 30
0.0
 11
1975.328295
 21
2807.584653
 31
0.0
  0
TEXT
  5
8E3
100
AcDbEntity
  8
器具明細表
  6
CONTINUOUS
 62
     2
100
AcDbText
 10
1608.328295
 20
2490.084653
 30
0.0
 40
50.0
  1
前丸便座
 41
0.6552
  7
EXCADSTD
 72
     5
 11
1764.328294
 21
2490.084653
 31
0.0
100
AcDbText
  0
TEXT
  5
8E4
100
AcDbEntity
  8
器具明細表
  6
CONTINUOUS
 62
     2
100
AcDbText
 10
1275.328295
 20
2490.084653
 30
0.0
 40
50.0
  1
ＮＣ８０１Ｗ１
 41
0.6408
  7
EXCADSTD
 72
     5
 11
1542.328294
 21
2490.084653
 31
0.0
100
AcDbText
  0
TEXT
  5
8E5
100
AcDbEntity
  8
器具明細表
  6
CONTINUOUS
 62
     2
100
AcDbText
 10
1275.328295
 20
2685.084653
 30
0.0
 40
50.0
  1
ＳＣ７３Ｐ－ＡＴ
 41
0.6384
  7
EXCADSTD
 72
     5
 11
1579.328294
 21
2685.084653
 31
0.0
100
AcDbText
  0
TEXT
  5
8E6
100
AcDbEntity
  8
器具明細表
  6
CONTINUOUS
 62
     2
100
AcDbText
 10
1275.328295
 20
2555.084653
 30
0.0
 40
50.0
  1
ＮＣ７１ＶＪ
 41
0.644
  7
EXCADSTD
 72
     5
 11
1505.328294
 21
2555.084653
 31
0.0
100
AcDbText
  0
TEXT
  5
8E7
100
AcDbEntity
  8
器具明細表
  6
CONTINUOUS
 62
     2
100
AcDbText
 10
1275.328295
 20
2620.084653
 30
0.0
 40
50.0
  1
ＳＴ７８ＦＵ－０ＡＥ０Ａ
 41
0.4536
  7
EXCADSTD
 72
     5
 11
1599.328284
 21
2620.084653
 31
0.0
100
AcDbText
  0
TEXT
  5
8E8
100
AcDbEntity
  8
器具明細表
  6
CONTINUOUS
 62
     2
100
AcDbText
 10
1270.328305
 20
2417.061776
 30
0.0
 40
43.0
  1
・排水接続管・接続パッキン（ＮＣ７３Ｇ）は
 41
0.632558
  7
EXCADSTD
 72
     5
 11
1950.328302
 21
2417.061776
 31
0.0
100
AcDbText
  0
TEXT
  5
8E9
100
AcDbEntity
  8
器具明細表
  6
CONTINUOUS
 62
     2
100
AcDbText
 10
1270.328305
 20
2364.061776
 30
0.0
 40
43.0
  1
　別手配となります。
 41
0.640744
  7
EXCADSTD
 72
     5
 11
1598.328304
 21
2364.061776
 31
0.0
100
AcDbText
  0
ENDSEC
  0
SECTION
  2
OBJECTS
  0
DICTIONARY
  5
19
100
AcDbDictionary
  3
ACAD_GROUP
350
1A
  3
ACAD_MLINESTYLE
350
1B
  0
DICTIONARY
  5
1A
102
{ACAD_REACTORS
330
19
102
}
100
AcDbDictionary
  0
DICTIONARY
  5
1B
102
{ACAD_REACTORS
330
19
102
}
100
AcDbDictionary
  3
STANDARD
350
1C
  0
MLINESTYLE
  5
1C
102
{ACAD_REACTORS
330
1B
102
}
100
AcDbMlineStyle
  2
Standard
 70
     0
  3

 62
     0
 51
90.0
 52
90.0
 71
     2
 49
0.5
 62
   256
  6
ByLayer
 49
-0.5
 62
   256
  6
ByLayer
  0
ENDSEC
  0
EOF
