  0
SECTION
  2
HEADER
  9
$ACADVER
  1
AC1014
  9
$ACADMAINTVER
 70
     0
  9
$DWGCODEPAGE
  3
ANSI_932
  9
$INSBASE
 10
0.0
 20
0.0
 30
0.0
  9
$EXTMIN
 10
-7.1
 20
11.5
 30
0.0
  9
$EXTMAX
 10
199.9
 20
291.5
 30
0.0
  9
$LIMMIN
 10
0.0
 20
0.0
  9
$LIMMAX
 10
210.0
 20
297.0
  9
$ORTHOMODE
 70
     0
  9
$REGENMODE
 70
     1
  9
$FILLMODE
 70
     1
  9
$QTEXTMODE
 70
     0
  9
$MIRRTEXT
 70
     1
  9
$DRAGMODE
 70
     2
  9
$LTSCALE
 40
1.0
  9
$OSMODE
 70
     0
  9
$ATTMODE
 70
     1
  9
$TEXTSIZE
 40
0.2
  9
$TRACEWID
 40
0.05
  9
$TEXTSTYLE
  7
STANDARD
  9
$CLAYER
  8
便器
  9
$CELTYPE
  6
CONTINUOUS
  9
$CECOLOR
 62
   256
  9
$CELTSCALE
 40
1.0
  9
$DELOBJ
 70
     1
  9
$DISPSILH
 70
     0
  9
$DIMSCALE
 40
1.0
  9
$DIMASZ
 40
0.18
  9
$DIMEXO
 40
0.0625
  9
$DIMDLI
 40
0.38
  9
$DIMRND
 40
0.0
  9
$DIMDLE
 40
0.0
  9
$DIMEXE
 40
0.18
  9
$DIMTP
 40
0.0
  9
$DIMTM
 40
0.0
  9
$DIMTXT
 40
0.18
  9
$DIMCEN
 40
0.09
  9
$DIMTSZ
 40
0.0
  9
$DIMTOL
 70
     0
  9
$DIMLIM
 70
     0
  9
$DIMTIH
 70
     1
  9
$DIMTOH
 70
     1
  9
$DIMSE1
 70
     0
  9
$DIMSE2
 70
     0
  9
$DIMTAD
 70
     0
  9
$DIMZIN
 70
     0
  9
$DIMBLK
  1

  9
$DIMASO
 70
     1
  9
$DIMSHO
 70
     1
  9
$DIMPOST
  1

  9
$DIMAPOST
  1

  9
$DIMALT
 70
     0
  9
$DIMALTD
 70
     2
  9
$DIMALTF
 40
25.4
  9
$DIMLFAC
 40
1.0
  9
$DIMTOFL
 70
     0
  9
$DIMTVP
 40
0.0
  9
$DIMTIX
 70
     0
  9
$DIMSOXD
 70
     0
  9
$DIMSAH
 70
     0
  9
$DIMBLK1
  1

  9
$DIMBLK2
  1

  9
$DIMSTYLE
  2
STANDARD
  9
$DIMCLRD
 70
     0
  9
$DIMCLRE
 70
     0
  9
$DIMCLRT
 70
     0
  9
$DIMTFAC
 40
1.0
  9
$DIMGAP
 40
0.09
  9
$DIMJUST
 70
     0
  9
$DIMSD1
 70
     0
  9
$DIMSD2
 70
     0
  9
$DIMTOLJ
 70
     1
  9
$DIMTZIN
 70
     0
  9
$DIMALTZ
 70
     0
  9
$DIMALTTZ
 70
     0
  9
$DIMFIT
 70
     3
  9
$DIMUPT
 70
     0
  9
$DIMUNIT
 70
     2
  9
$DIMDEC
 70
     4
  9
$DIMTDEC
 70
     4
  9
$DIMALTU
 70
     2
  9
$DIMALTTD
 70
     2
  9
$DIMTXSTY
  7
STANDARD
  9
$DIMAUNIT
 70
     0
  9
$LUNITS
 70
     2
  9
$LUPREC
 70
     4
  9
$SKETCHINC
 40
0.1
  9
$FILLETRAD
 40
0.0
  9
$AUNITS
 70
     0
  9
$AUPREC
 70
     0
  9
$MENU
  1
acad
  9
$ELEVATION
 40
0.0
  9
$PELEVATION
 40
0.0
  9
$THICKNESS
 40
0.0
  9
$LIMCHECK
 70
     0
  9
$BLIPMODE
 70
     1
  9
$CHAMFERA
 40
0.0
  9
$CHAMFERB
 40
0.0
  9
$CHAMFERC
 40
0.0
  9
$CHAMFERD
 40
0.0
  9
$SKPOLY
 70
     0
  9
$TDCREATE
 40
2454991.981284884
  9
$TDUPDATE
 40
2454991.981284884
  9
$TDINDWG
 40
0.0000000000
  9
$TDUSRTIMER
 40
0.0000000000
  9
$USRTIMER
 70
     1
  9
$ANGBASE
 50
0.0
  9
$ANGDIR
 70
     0
  9
$PDMODE
 70
     0
  9
$PDSIZE
 40
0.0
  9
$PLINEWID
 40
0.0
  9
$COORDS
 70
     1
  9
$SPLFRAME
 70
     0
  9
$SPLINETYPE
 70
     6
  9
$SPLINESEGS
 70
     8
  9
$ATTDIA
 70
     0
  9
$ATTREQ
 70
     1
  9
$HANDLING
 70
     1
  9
$HANDSEED
  5
93F
  9
$SURFTAB1
 70
     6
  9
$SURFTAB2
 70
     6
  9
$SURFTYPE
 70
     6
  9
$SURFU
 70
     6
  9
$SURFV
 70
     6
  9
$UCSNAME
  2

  9
$UCSORG
 10
0.0
 20
0.0
 30
0.0
  9
$UCSXDIR
 10
1.0
 20
0.0
 30
0.0
  9
$UCSYDIR
 10
0.0
 20
1.0
 30
0.0
  9
$PUCSNAME
  2

  9
$PUCSORG
 10
0.0
 20
0.0
 30
0.0
  9
$PUCSXDIR
 10
1.0
 20
0.0
 30
0.0
  9
$PUCSYDIR
 10
0.0
 20
1.0
 30
0.0
  9
$USERI1
 70
     0
  9
$USERI2
 70
     0
  9
$USERI3
 70
     0
  9
$USERI4
 70
     0
  9
$USERI5
 70
     0
  9
$USERR1
 40
0.0
  9
$USERR2
 40
0.0
  9
$USERR3
 40
0.0
  9
$USERR4
 40
0.0
  9
$USERR5
 40
0.0
  9
$WORLDVIEW
 70
     1
  9
$SHADEDGE
 70
     3
  9
$SHADEDIF
 70
    70
  9
$TILEMODE
 70
     1
  9
$MAXACTVP
 70
    16
  9
$PINSBASE
 10
0.0
 20
0.0
 30
0.0
  9
$PLIMCHECK
 70
     0
  9
$PEXTMIN
 10
1.000000E+20
 20
1.000000E+20
 30
1.000000E+20
  9
$PEXTMAX
 10
-1.000000E+20
 20
-1.000000E+20
 30
-1.000000E+20
  9
$PLIMMIN
 10
0.0
 20
0.0
  9
$PLIMMAX
 10
12.0
 20
9.0
  9
$UNITMODE
 70
     0
  9
$VISRETAIN
 70
     0
  9
$PLINEGEN
 70
     1
  9
$PSLTSCALE
 70
     0
  9
$TREEDEPTH
 70
  3020
  9
$PICKSTYLE
 70
     1
  9
$CMLSTYLE
  2
Standard
  9
$CMLJUST
 70
     0
  9
$CMLSCALE
 40
1.0
  9
$PROXYGRAPHICS
 70
     0
  9
$MEASUREMENT
 70
     0
  0
ENDSEC
  0
SECTION
  2
CLASSES
  0
CLASS
  1
LWPOLYLINE
  2
AcDbPolyline
  3
"AutoCAD"
 90
        0
280
     0
281
     1
  0
CLASS
  1
IMAGE
  2
AcDbRasterImage
  3
ISM
 90
      127
280
     0
281
     1
  0
CLASS
  1
OLE2FRAME
  2
AcDbOle2Frame
  3
""
 90
        0
280
     0
281
     1
  0
CLASS
  1
HATCH
  2
AcDbHatch
  3
"ACAD_SEDONA"
 90
        0
280
     0
281
     1
  0
CLASS
  1
DICTIONARYVAR
  2
AcDbDictionaryVar
  3
"AutoCAD"
 90
        0
280
     0
281
     0
  0
CLASS
  1
RASTERVARIABLES
  2
AcDbRasterVariables
  3
ISM
 90
        0
280
     0
281
     0
  0
CLASS
  1
IMAGEDEF
  2
AcDbRasterImageDef
  3
ISM
 90
        0
280
     0
281
     0
  0
CLASS
  1
IMAGEDEF_REACTOR
  2
AcDbRasterImageDefReactor
  3
ISM
 90
        1
280
     0
281
     0
  0
CLASS
  1
IDBUFFER
  2
AcDbIdBuffer
  3
"Acad"
 90
        0
280
     0
281
     0
  0
CLASS
  1
SPATIAL_FILTER
  2
AcDbSpatialFilter
  3
"Acad"
 90
        0
280
     0
281
     0
  0
CLASS
  1
XRECORD
  2
AcDbXrecord
  3
"<Built In>"
 90
        0
280
     0
281
     0
  0
CLASS
  1
SORTENTSTABLE
  2
AcDbSortentsTable
  3
"AutoCAD"
 90
        0
280
     0
281
     0
  0
CLASS
  1
LAYER_INDEX
  2
AcDbLayerIndex
  3
"Acad"
 90
        0
280
     0
281
     0
  0
CLASS
  1
SPATIAL_INDEX
  2
AcDbSpatialIndex
  3
"Acad"
 90
        0
280
     0
281
     0
  0
CLASS
  1
OBJECT_PTR
  2
CAseDLPNTableRecord
  3
"ASE-LPNTableRecord"
 90
        1
280
     0
281
     0
  0
CLASS
  1
LAYOUT
  2
AcDbLayout
  3
"AutoCAD 2000"
 90
        1
280
     0
281
     0
  0
CLASS
  1
PLOTSETTINGS
  2
AcDbPlotSettings
  3
"AutoCAD 2000"
 90
        1
280
     0
281
     0
  0
CLASS
  1
ACDBDICTIONARYWDFLT
  2
AcDbDictionaryWithDefault
  3
"AutoCAD 2000"
 90
        1
280
     0
281
     0
  0
CLASS
  1
ACDBPLACEHOLDER
  2
AcDbPlaceHolder
  3
"AutoCAD 2000"
 90
        1
280
     0
281
     0
  0
CLASS
  1
VBA_PROJECT
  2
AcDbVbaProject
  3
"acadvba"
 90
        1
280
     0
281
     0
  0
CLASS
  1
WIPEOUT
  2
AcDbWipeout
  3
WipeOut|AutoCAD Express Tool|expresstools@autodesk.com
 90
      127
280
     0
281
     1
  0
CLASS
  1
WIPEOUTVARIABLES
  2
AcDbWipeoutVariables
  3
WipeOut|AutoCAD Express Tool|expresstools@autodesk.com
 90
        0
280
     0
281
     0
  0
CLASS
  1
RTEXT
  2
RText
  3
RText|AutoCAD Express Tool|expresstools@autodesk.com
 90
        0
280
     0
281
     1
  0
CLASS
  1
ARCALIGNEDTEXT
  2
AcDbArcAlignedText
  3
ATEXT|AutoCAD Express Tool|expresstools@autodesk.com
 90
        0
280
     0
281
     1
  0
ENDSEC
  0
SECTION
  2
TABLES
  0
TABLE
  2
VPORT
  5
7
100
AcDbSymbolTable
 70
     1
  0
VPORT
  5
15
100
AcDbSymbolTableRecord
100
AcDbViewportTableRecord
  2
*ACTIVE
 70
     0
 10
0.0
 20
0.0
 11
1.0
 21
1.0
 12
964.0
 22
1515.0
 13
0.0
 23
0.0
 14
1.0
 24
1.0
 15
0.0
 25
0.0
 16
0.0
 26
0.0
 36
1.0
 17
0.0
 27
0.0
 37
0.0
 40
2800.0
 41
1.722533
 42
50.0
 43
0.0
 44
0.0
 50
0.0
 51
0.0
 71
     0
 72
   100
 73
     1
 74
     1
 75
     0
 76
     0
 77
     0
 78
     0
  0
ENDTAB
  0
TABLE
  2
LTYPE
  5
4
100
AcDbSymbolTable
 70
     9
  0
LTYPE
  5
11
100
AcDbSymbolTableRecord
100
AcDbLinetypeTableRecord
  2
BYBLOCK
 70
    64
  3

 72
    65
 73
     0
 40
0.0
  0
LTYPE
  5
12
100
AcDbSymbolTableRecord
100
AcDbLinetypeTableRecord
  2
BYLAYER
 70
    64
  3

 72
    65
 73
     0
 40
0.0
  0
LTYPE
  5
13
100
AcDbSymbolTableRecord
100
AcDbLinetypeTableRecord
  2
CONTINUOUS
 70
    64
  3
実線
 72
    65
 73
     0
 40
0.0
  0
LTYPE
  5
1D
100
AcDbSymbolTableRecord
100
AcDbLinetypeTableRecord
  2
EXLTYPE1
 70
    64
  3
破線
 72
    65
 73
     2
 40
3.0
 49
2.0
 74
     0
 49
-1.0
 74
     0
  0
LTYPE
  5
1E
100
AcDbSymbolTableRecord
100
AcDbLinetypeTableRecord
  2
EXLTYPE2
 70
    64
  3
点線
 72
    65
 73
     2
 40
2.0
 49
1.0
 74
     0
 49
-1.0
 74
     0
  0
LTYPE
  5
1F
100
AcDbSymbolTableRecord
100
AcDbLinetypeTableRecord
  2
EXLTYPE3
 70
    64
  3
一点鎖線
 72
    65
 73
     4
 40
10.0
 49
7.0
 74
     0
 49
-1.0
 74
     0
 49
1.0
 74
     0
 49
-1.0
 74
     0
  0
LTYPE
  5
20
100
AcDbSymbolTableRecord
100
AcDbLinetypeTableRecord
  2
EXLTYPE4
 70
    64
  3
二点鎖線
 72
    65
 73
     6
 40
12.0
 49
7.0
 74
     0
 49
-1.0
 74
     0
 49
1.0
 74
     0
 49
-1.0
 74
     0
 49
1.0
 74
     0
 49
-1.0
 74
     0
  0
LTYPE
  5
21
100
AcDbSymbolTableRecord
100
AcDbLinetypeTableRecord
  2
EXLTYPE5
 70
    64
  3
三点鎖線
 72
    65
 73
     8
 40
37.0
 49
30.0
 74
     0
 49
-1.0
 74
     0
 49
1.0
 74
     0
 49
-1.0
 74
     0
 49
1.0
 74
     0
 49
-1.0
 74
     0
 49
1.0
 74
     0
 49
-1.0
 74
     0
  0
LTYPE
  5
22
100
AcDbSymbolTableRecord
100
AcDbLinetypeTableRecord
  2
EXLTYPE6
 70
    64
  3
四点鎖線
 72
    65
 73
    10
 40
39.0
 49
30.0
 74
     0
 49
-1.0
 74
     0
 49
1.0
 74
     0
 49
-1.0
 74
     0
 49
1.0
 74
     0
 49
-1.0
 74
     0
 49
1.0
 74
     0
 49
-1.0
 74
     0
 49
1.0
 74
     0
 49
-1.0
 74
     0
  0
ENDTAB
  0
TABLE
  2
LAYER
  5
2
100
AcDbSymbolTable
 70
    11
  0
LAYER
  5
14
100
AcDbSymbolTableRecord
100
AcDbLayerTableRecord
  2
0
 70
     0
 62
     7
  6
CONTINUOUS
  0
LAYER
  5
25
100
AcDbSymbolTableRecord
100
AcDbLayerTableRecord
  2
枠
 70
    64
 62
     7
  6
CONTINUOUS
  0
LAYER
  5
26
100
AcDbSymbolTableRecord
100
AcDbLayerTableRecord
  2
便器
 70
    64
 62
     7
  6
CONTINUOUS
  0
LAYER
  5
27
100
AcDbSymbolTableRecord
100
AcDbLayerTableRecord
  2
タンク
 70
    64
 62
     7
  6
CONTINUOUS
  0
LAYER
  5
28
100
AcDbSymbolTableRecord
100
AcDbLayerTableRecord
  2
止水栓
 70
    64
 62
     7
  6
CONTINUOUS
  0
LAYER
  5
29
100
AcDbSymbolTableRecord
100
AcDbLayerTableRecord
  2
便座
 70
    64
 62
     7
  6
CONTINUOUS
  0
LAYER
  5
2A
100
AcDbSymbolTableRecord
100
AcDbLayerTableRecord
  2
紙巻器
 70
    64
 62
     7
  6
CONTINUOUS
  0
LAYER
  5
2B
100
AcDbSymbolTableRecord
100
AcDbLayerTableRecord
  2
給水管
 70
    64
 62
     7
  6
CONTINUOUS
  0
LAYER
  5
2C
100
AcDbSymbolTableRecord
100
AcDbLayerTableRecord
  2
ﾃｷｽﾄ
 70
    64
 62
     7
  6
CONTINUOUS
  0
LAYER
  5
2D
100
AcDbSymbolTableRecord
100
AcDbLayerTableRecord
  2
寸法
 70
    64
 62
     7
  6
CONTINUOUS
  0
LAYER
  5
2E
100
AcDbSymbolTableRecord
100
AcDbLayerTableRecord
  2
器具明細表
 70
    64
 62
     7
  6
CONTINUOUS
  0
ENDTAB
  0
TABLE
  2
STYLE
  5
3
100
AcDbSymbolTable
 70
     7
  0
STYLE
  5
17
100
AcDbSymbolTableRecord
100
AcDbTextStyleTableRecord
  2
STANDARD
 70
     0
 40
0.0
 41
1.0
 50
0.0
 71
     0
 42
0.0
  3
monotxt
  4
extfont
  0
STYLE
  5
23
100
AcDbSymbolTableRecord
100
AcDbTextStyleTableRecord
  2
EXCADSTD
 70
    64
 40
0.0
 41
1.0
 50
0.0
 71
     0
 42
0.2
  3
monotxt
  4
extfont
  0
STYLE
  5
24
100
AcDbSymbolTableRecord
100
AcDbTextStyleTableRecord
  2
EXCADVERT
 70
    68
 40
0.0
 41
1.0
 50
0.0
 71
     0
 42
0.286885
  3
monotxt
  4
extfont
  0
STYLE
  5
AD
100
AcDbSymbolTableRecord
100
AcDbTextStyleTableRecord
  2
EXCADTTF1
 70
    64
 40
0.0
 41
1.0
 50
0.0
 71
     0
 42
0.2
  3
MS Gothic.ttf
  4

1001
ACAD
1000
MS Gothic
1071
    32817
  0
STYLE
  5
182
100
AcDbSymbolTableRecord
100
AcDbTextStyleTableRecord
  2
EXCADDIM1
 70
    64
 40
0.0
 41
0.95
 50
0.0
 71
     0
 42
0.2
  3
monotxt
  4
extfont
  0
STYLE
  5
866
100
AcDbSymbolTableRecord
100
AcDbTextStyleTableRecord
  2
EXCADDIM2
 70
    64
 40
0.0
 41
0.84
 50
0.0
 71
     0
 42
0.2
  3
monotxt
  4
extfont
  0
STYLE
  5
8A6
100
AcDbSymbolTableRecord
100
AcDbTextStyleTableRecord
  2
EXCADDIM3
 70
    64
 40
0.0
 41
0.9
 50
0.0
 71
     0
 42
0.2
  3
monotxt
  4
extfont
  0
ENDTAB
  0
TABLE
  2
VIEW
  5
5
100
AcDbSymbolTable
 70
     0
  0
ENDTAB
  0
TABLE
  2
UCS
  5
6
100
AcDbSymbolTable
 70
     0
  0
ENDTAB
  0
TABLE
  2
APPID
  5
8
100
AcDbSymbolTable
 70
     1
  0
APPID
  5
16
100
AcDbSymbolTableRecord
100
AcDbRegAppTableRecord
  2
ACAD
 70
     0
  0
ENDTAB
  0
TABLE
  2
DIMSTYLE
  5
9
100
AcDbSymbolTable
 70
     1
  0
DIMSTYLE
105
18
100
AcDbSymbolTableRecord
100
AcDbDimStyleTableRecord
  2
STANDARD
 70
     0
  3

  4

  5

  6

  7

 40
1.0
 41
0.18
 42
0.0625
 43
0.38
 44
0.18
 45
0.0
 46
0.0
 47
0.0
 48
0.0
 71
     0
 72
     0
 73
     1
 74
     1
 75
     0
 76
     0
 77
     0
 78
     0
140
0.18
141
0.09
142
0.0
143
25.4
144
1.0
145
0.0
146
1.0
147
0.09
170
     0
171
     2
172
     1
173
     0
174
     0
175
     0
176
     0
177
     0
178
     0
270
     2
271
     4
272
     4
273
     2
274
     2
275
     0
280
     0
281
     0
282
     0
283
     1
284
     0
285
     0
286
     0
287
     0
288
     0
340
17
  0
ENDTAB
  0
TABLE
  2
BLOCK_RECORD
  5
1
100
AcDbSymbolTable
 70
    31
  0
BLOCK_RECORD
  5
A
100
AcDbSymbolTableRecord
100
AcDbBlockTableRecord
  2
*MODEL_SPACE
  0
BLOCK_RECORD
  5
B
100
AcDbSymbolTableRecord
100
AcDbBlockTableRecord
  2
*PAPER_SPACE
  0
BLOCK_RECORD
  5
2F
100
AcDbSymbolTableRecord
100
AcDbBlockTableRecord
  2
_EX_NORM
  0
BLOCK_RECORD
  5
30
100
AcDbSymbolTableRecord
100
AcDbBlockTableRecord
  2
_EX_BNORM
  0
BLOCK_RECORD
  5
31
100
AcDbSymbolTableRecord
100
AcDbBlockTableRecord
  2
_EX_BCIR
  0
BLOCK_RECORD
  5
32
100
AcDbSymbolTableRecord
100
AcDbBlockTableRecord
  2
_EX_RCIVIL
  0
BLOCK_RECORD
  5
33
100
AcDbSymbolTableRecord
100
AcDbBlockTableRecord
  2
_EX_SLANT
  0
BLOCK_RECORD
  5
34
100
AcDbSymbolTableRecord
100
AcDbBlockTableRecord
  2
_EX_NONE
  0
BLOCK_RECORD
  5
35
100
AcDbSymbolTableRecord
100
AcDbBlockTableRecord
  2
_EX_CIVIL
  0
BLOCK_RECORD
  5
36
100
AcDbSymbolTableRecord
100
AcDbBlockTableRecord
  2
_EX_WCIR
  0
BLOCK_RECORD
  5
37
100
AcDbSymbolTableRecord
100
AcDbBlockTableRecord
  2
_EX_WCIR2
  0
BLOCK_RECORD
  5
38
100
AcDbSymbolTableRecord
100
AcDbBlockTableRecord
  2
_EX_WNORM
  0
BLOCK_RECORD
  5
39
100
AcDbSymbolTableRecord
100
AcDbBlockTableRecord
  2
_EX_NNORM
  0
BLOCK_RECORD
  5
3A
100
AcDbSymbolTableRecord
100
AcDbBlockTableRecord
  2
_EX_BBOX
  0
BLOCK_RECORD
  5
3B
100
AcDbSymbolTableRecord
100
AcDbBlockTableRecord
  2
_EX_WBOX
  0
BLOCK_RECORD
  5
3C
100
AcDbSymbolTableRecord
100
AcDbBlockTableRecord
  2
_EX_INTEGRAL
  0
BLOCK_RECORD
  5
178
100
AcDbSymbolTableRecord
100
AcDbBlockTableRecord
  2
*D14
  0
BLOCK_RECORD
  5
184
100
AcDbSymbolTableRecord
100
AcDbBlockTableRecord
  2
*D15
  0
BLOCK_RECORD
  5
815
100
AcDbSymbolTableRecord
100
AcDbBlockTableRecord
  2
*D16
  0
BLOCK_RECORD
  5
821
100
AcDbSymbolTableRecord
100
AcDbBlockTableRecord
  2
*D17
  0
BLOCK_RECORD
  5
82B
100
AcDbSymbolTableRecord
100
AcDbBlockTableRecord
  2
*D18
  0
BLOCK_RECORD
  5
835
100
AcDbSymbolTableRecord
100
AcDbBlockTableRecord
  2
*D19
  0
BLOCK_RECORD
  5
83F
100
AcDbSymbolTableRecord
100
AcDbBlockTableRecord
  2
*D20
  0
BLOCK_RECORD
  5
849
100
AcDbSymbolTableRecord
100
AcDbBlockTableRecord
  2
*D21
  0
BLOCK_RECORD
  5
853
100
AcDbSymbolTableRecord
100
AcDbBlockTableRecord
  2
*D22
  0
BLOCK_RECORD
  5
85D
100
AcDbSymbolTableRecord
100
AcDbBlockTableRecord
  2
*D23
  0
BLOCK_RECORD
  5
868
100
AcDbSymbolTableRecord
100
AcDbBlockTableRecord
  2
*D24
  0
BLOCK_RECORD
  5
874
100
AcDbSymbolTableRecord
100
AcDbBlockTableRecord
  2
*D25
  0
BLOCK_RECORD
  5
87E
100
AcDbSymbolTableRecord
100
AcDbBlockTableRecord
  2
*D26
  0
BLOCK_RECORD
  5
888
100
AcDbSymbolTableRecord
100
AcDbBlockTableRecord
  2
*D27
  0
BLOCK_RECORD
  5
89C
100
AcDbSymbolTableRecord
100
AcDbBlockTableRecord
  2
*D28
  0
BLOCK_RECORD
  5
8A8
100
AcDbSymbolTableRecord
100
AcDbBlockTableRecord
  2
*D29
  0
BLOCK_RECORD
  5
8B4
100
AcDbSymbolTableRecord
100
AcDbBlockTableRecord
  2
*D30
  0
ENDTAB
  0
ENDSEC
  0
SECTION
  2
BLOCKS
  0
BLOCK
  5
D
100
AcDbEntity
  8
0
100
AcDbBlockBegin
  2
*MODEL_SPACE
 70
     0
 10
0.0
 20
0.0
 30
0.0
  3
*MODEL_SPACE
  1

  0
ENDBLK
  5
E
100
AcDbEntity
  8
0
100
AcDbBlockEnd
  0
BLOCK
  5
F
100
AcDbEntity
 67
     1
  8
0
100
AcDbBlockBegin
  2
*PAPER_SPACE
 70
     0
 10
0.0
 20
0.0
 30
0.0
  3
*PAPER_SPACE
  1

  0
ENDBLK
  5
10
100
AcDbEntity
 67
     1
  8
0
100
AcDbBlockEnd
  0
BLOCK
  5
3D
100
AcDbEntity
  8
0
100
AcDbBlockBegin
  2
_EX_NORM
 70
     0
 10
0.0
 20
0.0
 30
0.0
  3
_EX_NORM
  1

  0
LINE
  5
3E
100
AcDbEntity
  8
0
  6
CONTINUOUS
 62
     0
100
AcDbLine
 10
0.0
 20
0.0
 30
0.0
 11
-1.0
 21
0.0
 31
0.0
  0
LINE
  5
3F
100
AcDbEntity
  8
0
  6
CONTINUOUS
 62
     0
100
AcDbLine
 10
0.0
 20
0.0
 30
0.0
 11
-1.0
 21
0.166667
 31
0.0
  0
LINE
  5
40
100
AcDbEntity
  8
0
  6
CONTINUOUS
 62
     0
100
AcDbLine
 10
0.0
 20
0.0
 30
0.0
 11
-1.0
 21
-0.166667
 31
0.0
  0
ENDBLK
  5
41
100
AcDbEntity
  8
0
100
AcDbBlockEnd
  0
BLOCK
  5
42
100
AcDbEntity
  8
0
100
AcDbBlockBegin
  2
_EX_BNORM
 70
     0
 10
0.0
 20
0.0
 30
0.0
  3
_EX_BNORM
  1

  0
LINE
  5
43
100
AcDbEntity
  8
0
  6
CONTINUOUS
 62
     0
100
AcDbLine
 10
0.0
 20
0.0
 30
0.0
 11
-1.0
 21
0.0
 31
0.0
  0
LINE
  5
44
100
AcDbEntity
  8
0
  6
CONTINUOUS
 62
     0
100
AcDbLine
 10
0.0
 20
0.0
 30
0.0
 11
-1.0
 21
0.166667
 31
0.0
  0
LINE
  5
45
100
AcDbEntity
  8
0
  6
CONTINUOUS
 62
     0
100
AcDbLine
 10
0.0
 20
0.0
 30
0.0
 11
-1.0
 21
-0.166667
 31
0.0
  0
LINE
  5
46
100
AcDbEntity
  8
0
  6
CONTINUOUS
 62
     0
100
AcDbLine
 10
0.0
 20
0.0
 30
0.0
 11
-1.0
 21
0.083333
 31
0.0
  0
LINE
  5
47
100
AcDbEntity
  8
0
  6
CONTINUOUS
 62
     0
100
AcDbLine
 10
0.0
 20
0.0
 30
0.0
 11
-1.0
 21
-0.083333
 31
0.0
  0
LINE
  5
48
100
AcDbEntity
  8
0
  6
CONTINUOUS
 62
     0
100
AcDbLine
 10
-1.0
 20
0.166667
 30
0.0
 11
-1.0
 21
-0.166667
 31
0.0
  0
ENDBLK
  5
49
100
AcDbEntity
  8
0
100
AcDbBlockEnd
  0
BLOCK
  5
4A
100
AcDbEntity
  8
0
100
AcDbBlockBegin
  2
_EX_BCIR
 70
     0
 10
0.0
 20
0.0
 30
0.0
  3
_EX_BCIR
  1

  0
LINE
  5
4B
100
AcDbEntity
  8
0
  6
CONTINUOUS
 62
     0
100
AcDbLine
 10
0.0
 20
0.0
 30
0.0
 11
-1.0
 21
0.0
 31
0.0
  0
CIRCLE
  5
4C
100
AcDbEntity
  8
0
  6
CONTINUOUS
 62
     0
100
AcDbCircle
 10
0.0
 20
0.0
 30
0.0
 40
0.5
  0
CIRCLE
  5
4D
100
AcDbEntity
  8
0
  6
CONTINUOUS
 62
     0
100
AcDbCircle
 10
0.0
 20
0.0
 30
0.0
 40
0.25
  0
ENDBLK
  5
4E
100
AcDbEntity
  8
0
100
AcDbBlockEnd
  0
BLOCK
  5
4F
100
AcDbEntity
  8
0
100
AcDbBlockBegin
  2
_EX_RCIVIL
 70
     0
 10
0.0
 20
0.0
 30
0.0
  3
_EX_RCIVIL
  1

  0
LINE
  5
50
100
AcDbEntity
  8
0
  6
CONTINUOUS
 62
     0
100
AcDbLine
 10
0.0
 20
0.0
 30
0.0
 11
-1.0
 21
0.0
 31
0.0
  0
LINE
  5
51
100
AcDbEntity
  8
0
  6
CONTINUOUS
 62
     0
100
AcDbLine
 10
-1.0
 20
-0.25
 30
0.0
 11
0.0
 21
-0.25
 31
0.0
  0
LINE
  5
52
100
AcDbEntity
  8
0
  6
CONTINUOUS
 62
     0
100
AcDbLine
 10
-1.0
 20
-0.125
 30
0.0
 11
0.0
 21
-0.125
 31
0.0
  0
ENDBLK
  5
53
100
AcDbEntity
  8
0
100
AcDbBlockEnd
  0
BLOCK
  5
54
100
AcDbEntity
  8
0
100
AcDbBlockBegin
  2
_EX_SLANT
 70
     0
 10
0.0
 20
0.0
 30
0.0
  3
_EX_SLANT
  1

  0
LINE
  5
55
100
AcDbEntity
  8
0
  6
CONTINUOUS
 62
     0
100
AcDbLine
 10
0.0
 20
0.0
 30
0.0
 11
-1.0
 21
0.0
 31
0.0
  0
LINE
  5
56
100
AcDbEntity
  8
0
  6
CONTINUOUS
 62
     0
100
AcDbLine
 10
0.707107
 20
0.707107
 30
0.0
 11
-0.707107
 21
-0.707107
 31
0.0
  0
ENDBLK
  5
57
100
AcDbEntity
  8
0
100
AcDbBlockEnd
  0
BLOCK
  5
58
100
AcDbEntity
  8
0
100
AcDbBlockBegin
  2
_EX_NONE
 70
     0
 10
0.0
 20
0.0
 30
0.0
  3
_EX_NONE
  1

  0
LINE
  5
59
100
AcDbEntity
  8
0
  6
CONTINUOUS
 62
     0
100
AcDbLine
 10
0.0
 20
0.0
 30
0.0
 11
-1.0
 21
0.0
 31
0.0
  0
ENDBLK
  5
5A
100
AcDbEntity
  8
0
100
AcDbBlockEnd
  0
BLOCK
  5
5B
100
AcDbEntity
  8
0
100
AcDbBlockBegin
  2
_EX_CIVIL
 70
     0
 10
0.0
 20
0.0
 30
0.0
  3
_EX_CIVIL
  1

  0
LINE
  5
5C
100
AcDbEntity
  8
0
  6
CONTINUOUS
 62
     0
100
AcDbLine
 10
0.0
 20
0.0
 30
0.0
 11
-1.0
 21
0.0
 31
0.0
  0
LINE
  5
5D
100
AcDbEntity
  8
0
  6
CONTINUOUS
 62
     0
100
AcDbLine
 10
-1.0
 20
0.25
 30
0.0
 11
0.0
 21
0.25
 31
0.0
  0
LINE
  5
5E
100
AcDbEntity
  8
0
  6
CONTINUOUS
 62
     0
100
AcDbLine
 10
-1.0
 20
0.125
 30
0.0
 11
0.0
 21
0.125
 31
0.0
  0
ENDBLK
  5
5F
100
AcDbEntity
  8
0
100
AcDbBlockEnd
  0
BLOCK
  5
60
100
AcDbEntity
  8
0
100
AcDbBlockBegin
  2
_EX_WCIR
 70
     0
 10
0.0
 20
0.0
 30
0.0
  3
_EX_WCIR
  1

  0
LINE
  5
61
100
AcDbEntity
  8
0
  6
CONTINUOUS
 62
     0
100
AcDbLine
 10
0.0
 20
0.0
 30
0.0
 11
-1.0
 21
0.0
 31
0.0
  0
CIRCLE
  5
62
100
AcDbEntity
  8
0
  6
CONTINUOUS
 62
     0
100
AcDbCircle
 10
0.0
 20
0.0
 30
0.0
 40
0.5
  0
ENDBLK
  5
63
100
AcDbEntity
  8
0
100
AcDbBlockEnd
  0
BLOCK
  5
64
100
AcDbEntity
  8
0
100
AcDbBlockBegin
  2
_EX_WCIR2
 70
     0
 10
0.0
 20
0.0
 30
0.0
  3
_EX_WCIR2
  1

  0
LINE
  5
65
100
AcDbEntity
  8
0
  6
CONTINUOUS
 62
     0
100
AcDbLine
 10
-0.5
 20
0.0
 30
0.0
 11
-1.0
 21
0.0
 31
0.0
  0
CIRCLE
  5
66
100
AcDbEntity
  8
0
  6
CONTINUOUS
 62
     0
100
AcDbCircle
 10
0.0
 20
0.0
 30
0.0
 40
0.5
  0
ENDBLK
  5
67
100
AcDbEntity
  8
0
100
AcDbBlockEnd
  0
BLOCK
  5
68
100
AcDbEntity
  8
0
100
AcDbBlockBegin
  2
_EX_WNORM
 70
     0
 10
0.0
 20
0.0
 30
0.0
  3
_EX_WNORM
  1

  0
LINE
  5
69
100
AcDbEntity
  8
0
  6
CONTINUOUS
 62
     0
100
AcDbLine
 10
-1.0
 20
0.0
 30
0.0
 11
-1.0
 21
0.0
 31
0.0
  0
LINE
  5
6A
100
AcDbEntity
  8
0
  6
CONTINUOUS
 62
     0
100
AcDbLine
 10
0.0
 20
0.0
 30
0.0
 11
-1.0
 21
0.166667
 31
0.0
  0
LINE
  5
6B
100
AcDbEntity
  8
0
  6
CONTINUOUS
 62
     0
100
AcDbLine
 10
0.0
 20
0.0
 30
0.0
 11
-1.0
 21
-0.166667
 31
0.0
  0
LINE
  5
6C
100
AcDbEntity
  8
0
  6
CONTINUOUS
 62
     0
100
AcDbLine
 10
-1.0
 20
0.166667
 30
0.0
 11
-1.0
 21
-0.166667
 31
0.0
  0
ENDBLK
  5
6D
100
AcDbEntity
  8
0
100
AcDbBlockEnd
  0
BLOCK
  5
6E
100
AcDbEntity
  8
0
100
AcDbBlockBegin
  2
_EX_NNORM
 70
     0
 10
0.0
 20
0.0
 30
0.0
  3
_EX_NNORM
  1

  0
LINE
  5
6F
100
AcDbEntity
  8
0
  6
CONTINUOUS
 62
     0
100
AcDbLine
 10
0.0
 20
0.0
 30
0.0
 11
-1.0
 21
0.0
 31
0.0
  0
LINE
  5
70
100
AcDbEntity
  8
0
  6
CONTINUOUS
 62
     0
100
AcDbLine
 10
0.0
 20
0.0
 30
0.0
 11
-1.0
 21
0.166667
 31
0.0
  0
LINE
  5
71
100
AcDbEntity
  8
0
  6
CONTINUOUS
 62
     0
100
AcDbLine
 10
0.0
 20
0.0
 30
0.0
 11
-1.0
 21
-0.166667
 31
0.0
  0
LINE
  5
72
100
AcDbEntity
  8
0
  6
CONTINUOUS
 62
     0
100
AcDbLine
 10
-1.0
 20
0.166667
 30
0.0
 11
-1.0
 21
-0.166667
 31
0.0
  0
ENDBLK
  5
73
100
AcDbEntity
  8
0
100
AcDbBlockEnd
  0
BLOCK
  5
74
100
AcDbEntity
  8
0
100
AcDbBlockBegin
  2
_EX_BBOX
 70
     0
 10
0.0
 20
0.0
 30
0.0
  3
_EX_BBOX
  1

  0
LINE
  5
75
100
AcDbEntity
  8
0
  6
CONTINUOUS
 62
     0
100
AcDbLine
 10
0.0
 20
0.0
 30
0.0
 11
-1.0
 21
0.0
 31
0.0
  0
LINE
  5
76
100
AcDbEntity
  8
0
  6
CONTINUOUS
 62
     0
100
AcDbLine
 10
-0.5
 20
0.5
 30
0.0
 11
0.5
 21
0.5
 31
0.0
  0
LINE
  5
77
100
AcDbEntity
  8
0
  6
CONTINUOUS
 62
     0
100
AcDbLine
 10
0.5
 20
0.5
 30
0.0
 11
0.5
 21
-0.5
 31
0.0
  0
LINE
  5
78
100
AcDbEntity
  8
0
  6
CONTINUOUS
 62
     0
100
AcDbLine
 10
0.5
 20
-0.5
 30
0.0
 11
-0.5
 21
-0.5
 31
0.0
  0
LINE
  5
79
100
AcDbEntity
  8
0
  6
CONTINUOUS
 62
     0
100
AcDbLine
 10
-0.5
 20
-0.5
 30
0.0
 11
-0.5
 21
0.5
 31
0.0
  0
LINE
  5
7A
100
AcDbEntity
  8
0
  6
CONTINUOUS
 62
     0
100
AcDbLine
 10
-0.25
 20
0.25
 30
0.0
 11
0.25
 21
0.25
 31
0.0
  0
LINE
  5
7B
100
AcDbEntity
  8
0
  6
CONTINUOUS
 62
     0
100
AcDbLine
 10
0.25
 20
0.25
 30
0.0
 11
0.25
 21
-0.25
 31
0.0
  0
LINE
  5
7C
100
AcDbEntity
  8
0
  6
CONTINUOUS
 62
     0
100
AcDbLine
 10
0.25
 20
-0.25
 30
0.0
 11
-0.25
 21
-0.25
 31
0.0
  0
LINE
  5
7D
100
AcDbEntity
  8
0
  6
CONTINUOUS
 62
     0
100
AcDbLine
 10
-0.25
 20
-0.25
 30
0.0
 11
-0.25
 21
0.25
 31
0.0
  0
ENDBLK
  5
7E
100
AcDbEntity
  8
0
100
AcDbBlockEnd
  0
BLOCK
  5
7F
100
AcDbEntity
  8
0
100
AcDbBlockBegin
  2
_EX_WBOX
 70
     0
 10
0.0
 20
0.0
 30
0.0
  3
_EX_WBOX
  1

  0
LINE
  5
80
100
AcDbEntity
  8
0
  6
CONTINUOUS
 62
     0
100
AcDbLine
 10
-0.5
 20
0.0
 30
0.0
 11
-1.0
 21
0.0
 31
0.0
  0
LINE
  5
81
100
AcDbEntity
  8
0
  6
CONTINUOUS
 62
     0
100
AcDbLine
 10
-0.5
 20
0.5
 30
0.0
 11
0.5
 21
0.5
 31
0.0
  0
LINE
  5
82
100
AcDbEntity
  8
0
  6
CONTINUOUS
 62
     0
100
AcDbLine
 10
0.5
 20
0.5
 30
0.0
 11
0.5
 21
-0.5
 31
0.0
  0
LINE
  5
83
100
AcDbEntity
  8
0
  6
CONTINUOUS
 62
     0
100
AcDbLine
 10
0.5
 20
-0.5
 30
0.0
 11
-0.5
 21
-0.5
 31
0.0
  0
LINE
  5
84
100
AcDbEntity
  8
0
  6
CONTINUOUS
 62
     0
100
AcDbLine
 10
-0.5
 20
-0.5
 30
0.0
 11
-0.5
 21
0.5
 31
0.0
  0
ENDBLK
  5
85
100
AcDbEntity
  8
0
100
AcDbBlockEnd
  0
BLOCK
  5
86
100
AcDbEntity
  8
0
100
AcDbBlockBegin
  2
_EX_INTEGRAL
 70
     0
 10
0.0
 20
0.0
 30
0.0
  3
_EX_INTEGRAL
  1

  0
LINE
  5
87
100
AcDbEntity
  8
0
  6
CONTINUOUS
 62
     0
100
AcDbLine
 10
0.0
 20
0.0
 30
0.0
 11
-1.0
 21
0.0
 31
0.0
  0
ARC
  5
88
100
AcDbEntity
  8
0
  6
CONTINUOUS
 62
     0
100
AcDbCircle
 10
0.542115
 20
0.164992
 30
0.0
 40
0.56667
100
AcDbArc
 50
73.07249
 51
196.927513
  0
ARC
  5
89
100
AcDbEntity
  8
0
  6
CONTINUOUS
 62
     0
100
AcDbCircle
 10
-0.542115
 20
-0.164992
 30
0.0
 40
0.56667
100
AcDbArc
 50
253.072487
 51
16.927513
  0
ENDBLK
  5
8A
100
AcDbEntity
  8
0
100
AcDbBlockEnd
  0
BLOCK
  5
179
100
AcDbEntity
  8
0
100
AcDbBlockBegin
  2
*D14
 70
    65
 10
0.0
 20
0.0
 30
0.0
  3
*D14
  1

  0
LINE
  5
17A
100
AcDbEntity
  8
タンク
  6
CONTINUOUS
 62
     3
100
AcDbLine
 10
370.019141
 20
1479.145488
 30
0.0
 11
370.019141
 21
1579.310688
 31
0.0
  0
TEXT
  5
17B
100
AcDbEntity
  8
タンク
  6
CONTINUOUS
 62
     2
100
AcDbText
 10
432.473945
 20
1562.810688
 30
0.0
 40
40.0
  1
225
 41
0.945
  7
EXCADSTD
 72
     1
 11
482.453945
 21
1562.810688
 31
0.0
100
AcDbText
  0
LINE
  5
17C
100
AcDbEntity
  8
タンク
  6
CONTINUOUS
 62
     3
100
AcDbLine
 10
370.019141
 20
1559.310688
 30
0.0
 11
594.888748
 21
1559.310688
 31
0.0
  0
LINE
  5
17D
100
AcDbEntity
  8
タンク
  6
CONTINUOUS
 62
     3
100
AcDbLine
 10
405.019141
 20
1565.144022
 30
0.0
 11
370.019141
 21
1559.310688
 31
0.0
  0
LINE
  5
17E
100
AcDbEntity
  8
タンク
  6
CONTINUOUS
 62
     3
100
AcDbLine
 10
370.019141
 20
1559.310688
 30
0.0
 11
405.019141
 21
1553.477355
 31
0.0
  0
LINE
  5
17F
100
AcDbEntity
  8
タンク
  6
CONTINUOUS
 62
     3
100
AcDbLine
 10
559.888748
 20
1553.477355
 30
0.0
 11
594.888748
 21
1559.310688
 31
0.0
  0
LINE
  5
180
100
AcDbEntity
  8
タンク
  6
CONTINUOUS
 62
     3
100
AcDbLine
 10
594.888748
 20
1559.310688
 30
0.0
 11
559.888748
 21
1565.144022
 31
0.0
  0
ENDBLK
  5
181
100
AcDbEntity
  8
0
100
AcDbBlockEnd
  0
BLOCK
  5
185
100
AcDbEntity
  8
0
100
AcDbBlockBegin
  2
*D15
 70
    65
 10
0.0
 20
0.0
 30
0.0
  3
*D15
  1

  0
LINE
  5
186
100
AcDbEntity
  8
タンク
  6
CONTINUOUS
 62
     3
100
AcDbLine
 10
1466.403005
 20
1426.310688
 30
0.0
 11
1466.403005
 21
1579.310688
 31
0.0
  0
LINE
  5
187
100
AcDbEntity
  8
タンク
  6
CONTINUOUS
 62
     3
100
AcDbLine
 10
1901.403005
 20
1426.310688
 30
0.0
 11
1901.403005
 21
1579.310688
 31
0.0
  0
TEXT
  5
188
100
AcDbEntity
  8
タンク
  6
CONTINUOUS
 62
     2
100
AcDbText
 10
1633.923006
 20
1562.810688
 30
0.0
 40
40.0
  1
435
 41
0.945
  7
EXCADSTD
 72
     1
 11
1683.903005
 21
1562.810688
 31
0.0
100
AcDbText
  0
LINE
  5
189
100
AcDbEntity
  8
タンク
  6
CONTINUOUS
 62
     3
100
AcDbLine
 10
1466.403005
 20
1559.310688
 30
0.0
 11
1901.403005
 21
1559.310688
 31
0.0
  0
LINE
  5
18A
100
AcDbEntity
  8
タンク
  6
CONTINUOUS
 62
     3
100
AcDbLine
 10
1501.403005
 20
1565.144022
 30
0.0
 11
1466.403005
 21
1559.310688
 31
0.0
  0
LINE
  5
18B
100
AcDbEntity
  8
タンク
  6
CONTINUOUS
 62
     3
100
AcDbLine
 10
1466.403005
 20
1559.310688
 30
0.0
 11
1501.403005
 21
1553.477355
 31
0.0
  0
LINE
  5
18C
100
AcDbEntity
  8
タンク
  6
CONTINUOUS
 62
     3
100
AcDbLine
 10
1866.403005
 20
1553.477355
 30
0.0
 11
1901.403005
 21
1559.310688
 31
0.0
  0
LINE
  5
18D
100
AcDbEntity
  8
タンク
  6
CONTINUOUS
 62
     3
100
AcDbLine
 10
1901.403005
 20
1559.310688
 30
0.0
 11
1866.403005
 21
1565.144022
 31
0.0
  0
ENDBLK
  5
18E
100
AcDbEntity
  8
0
100
AcDbBlockEnd
  0
BLOCK
  5
816
100
AcDbEntity
  8
0
100
AcDbBlockBegin
  2
*D16
 70
    65
 10
0.0
 20
0.0
 30
0.0
  3
*D16
  1

  0
TEXT
  5
817
100
AcDbEntity
  8
寸法
  6
CONTINUOUS
 62
     2
100
AcDbText
 10
1182.5
 20
779.330688
 30
0.0
 40
40.0
  1
350
 50
90.0
 41
0.945
  7
EXCADSTD
 72
     1
 11
1182.5
 21
829.310688
 31
0.0
100
AcDbText
  0
LINE
  5
818
100
AcDbEntity
  8
寸法
  6
CONTINUOUS
 62
     3
100
AcDbLine
 10
1188.0
 20
1004.310688
 30
0.0
 11
1188.0
 21
654.310688
 31
0.0
  0
LINE
  5
819
100
AcDbEntity
  8
寸法
  6
CONTINUOUS
 62
     3
100
AcDbLine
 10
1193.0
 20
974.310688
 30
0.0
 11
1188.0
 21
1004.310688
 31
0.0
  0
LINE
  5
81A
100
AcDbEntity
  8
寸法
  6
CONTINUOUS
 62
     3
100
AcDbLine
 10
1188.0
 20
1004.310688
 30
0.0
 11
1183.0
 21
974.310688
 31
0.0
  0
LINE
  5
81B
100
AcDbEntity
  8
寸法
  6
CONTINUOUS
 62
     3
100
AcDbLine
 10
1183.0
 20
684.310688
 30
0.0
 11
1188.0
 21
654.310688
 31
0.0
  0
LINE
  5
81C
100
AcDbEntity
  8
寸法
  6
CONTINUOUS
 62
     3
100
AcDbLine
 10
1188.0
 20
654.310688
 30
0.0
 11
1193.0
 21
684.310688
 31
0.0
  0
ENDBLK
  5
81D
100
AcDbEntity
  8
0
100
AcDbBlockEnd
  0
BLOCK
  5
822
100
AcDbEntity
  8
0
100
AcDbBlockBegin
  2
*D17
 70
    65
 10
0.0
 20
0.0
 30
0.0
  3
*D17
  1

  0
TEXT
  5
823
100
AcDbEntity
  8
寸法
  6
CONTINUOUS
 62
     2
100
AcDbText
 10
1190.5
 20
2378.330231
 30
0.0
 40
40.0
  1
355
 50
90.0
 41
0.945
  7
EXCADSTD
 72
     1
 11
1190.5
 21
2428.31023
 31
0.0
100
AcDbText
  0
LINE
  5
824
100
AcDbEntity
  8
寸法
  6
CONTINUOUS
 62
     3
100
AcDbLine
 10
1194.0
 20
2605.809773
 30
0.0
 11
1194.0
 21
2250.810688
 31
0.0
  0
LINE
  5
825
100
AcDbEntity
  8
寸法
  6
CONTINUOUS
 62
     3
100
AcDbLine
 10
1199.833333
 20
2570.809773
 30
0.0
 11
1194.0
 21
2605.809773
 31
0.0
  0
LINE
  5
826
100
AcDbEntity
  8
寸法
  6
CONTINUOUS
 62
     3
100
AcDbLine
 10
1194.0
 20
2605.809773
 30
0.0
 11
1188.166667
 21
2570.809773
 31
0.0
  0
LINE
  5
827
100
AcDbEntity
  8
寸法
  6
CONTINUOUS
 62
     3
100
AcDbLine
 10
1188.166667
 20
2285.810688
 30
0.0
 11
1194.0
 21
2250.810688
 31
0.0
  0
LINE
  5
828
100
AcDbEntity
  8
寸法
  6
CONTINUOUS
 62
     3
100
AcDbLine
 10
1194.0
 20
2250.810688
 30
0.0
 11
1199.833333
 21
2285.810688
 31
0.0
  0
ENDBLK
  5
829
100
AcDbEntity
  8
0
100
AcDbBlockEnd
  0
BLOCK
  5
82C
100
AcDbEntity
  8
0
100
AcDbBlockBegin
  2
*D18
 70
    65
 10
0.0
 20
0.0
 30
0.0
  3
*D18
  1

  0
TEXT
  5
82D
100
AcDbEntity
  8
寸法
  6
CONTINUOUS
 62
     2
100
AcDbText
 10
834.908906
 20
2155.5
 30
0.0
 40
40.0
  1
440
 41
0.945
  7
EXCADSTD
 72
     1
 11
884.888906
 21
2155.5
 31
0.0
100
AcDbText
  0
LINE
  5
82E
100
AcDbEntity
  8
寸法
  6
CONTINUOUS
 62
     3
100
AcDbLine
 10
664.888906
 20
2152.0
 30
0.0
 11
1104.888906
 21
2152.0
 31
0.0
  0
LINE
  5
82F
100
AcDbEntity
  8
寸法
  6
CONTINUOUS
 62
     3
100
AcDbLine
 10
699.888906
 20
2157.833333
 30
0.0
 11
664.888906
 21
2152.0
 31
0.0
  0
LINE
  5
830
100
AcDbEntity
  8
寸法
  6
CONTINUOUS
 62
     3
100
AcDbLine
 10
664.888906
 20
2152.0
 30
0.0
 11
699.888906
 21
2146.166667
 31
0.0
  0
LINE
  5
831
100
AcDbEntity
  8
寸法
  6
CONTINUOUS
 62
     3
100
AcDbLine
 10
1069.888906
 20
2146.166667
 30
0.0
 11
1104.888906
 21
2152.0
 31
0.0
  0
LINE
  5
832
100
AcDbEntity
  8
寸法
  6
CONTINUOUS
 62
     3
100
AcDbLine
 10
1104.888906
 20
2152.0
 30
0.0
 11
1069.888906
 21
2157.833333
 31
0.0
  0
ENDBLK
  5
833
100
AcDbEntity
  8
0
100
AcDbBlockEnd
  0
BLOCK
  5
836
100
AcDbEntity
  8
0
100
AcDbBlockBegin
  2
*D19
 70
    65
 10
0.0
 20
0.0
 30
0.0
  3
*D19
  1

  0
TEXT
  5
837
100
AcDbEntity
  8
寸法
  6
CONTINUOUS
 62
     2
100
AcDbText
 10
687.408434
 20
2092.5
 30
0.0
 40
40.0
  1
735
 41
0.945
  7
EXCADSTD
 72
     1
 11
737.388434
 21
2092.5
 31
0.0
100
AcDbText
  0
LINE
  5
838
100
AcDbEntity
  8
寸法
  6
CONTINUOUS
 62
     3
100
AcDbLine
 10
369.887962
 20
2089.0
 30
0.0
 11
1104.888906
 21
2089.0
 31
0.0
  0
LINE
  5
839
100
AcDbEntity
  8
寸法
  6
CONTINUOUS
 62
     3
100
AcDbLine
 10
404.887962
 20
2094.833333
 30
0.0
 11
369.887962
 21
2089.0
 31
0.0
  0
LINE
  5
83A
100
AcDbEntity
  8
寸法
  6
CONTINUOUS
 62
     3
100
AcDbLine
 10
369.887962
 20
2089.0
 30
0.0
 11
404.887962
 21
2083.166667
 31
0.0
  0
LINE
  5
83B
100
AcDbEntity
  8
寸法
  6
CONTINUOUS
 62
     3
100
AcDbLine
 10
1069.888906
 20
2083.166667
 30
0.0
 11
1104.888906
 21
2089.0
 31
0.0
  0
LINE
  5
83C
100
AcDbEntity
  8
寸法
  6
CONTINUOUS
 62
     3
100
AcDbLine
 10
1104.888906
 20
2089.0
 30
0.0
 11
1069.888906
 21
2094.833333
 31
0.0
  0
ENDBLK
  5
83D
100
AcDbEntity
  8
0
100
AcDbBlockEnd
  0
BLOCK
  5
840
100
AcDbEntity
  8
0
100
AcDbBlockBegin
  2
*D20
 70
    65
 10
0.0
 20
0.0
 30
0.0
  3
*D20
  1

  0
TEXT
  5
841
100
AcDbEntity
  8
寸法
  6
CONTINUOUS
 62
     2
100
AcDbText
 10
679.908906
 20
2030.5
 30
0.0
 40
40.0
  1
750
 41
0.945
  7
EXCADSTD
 72
     1
 11
729.888906
 21
2030.5
 31
0.0
100
AcDbText
  0
LINE
  5
842
100
AcDbEntity
  8
寸法
  6
CONTINUOUS
 62
     3
100
AcDbLine
 10
354.888906
 20
2027.0
 30
0.0
 11
1104.888906
 21
2027.0
 31
0.0
  0
LINE
  5
843
100
AcDbEntity
  8
寸法
  6
CONTINUOUS
 62
     3
100
AcDbLine
 10
389.888906
 20
2032.833333
 30
0.0
 11
354.888906
 21
2027.0
 31
0.0
  0
LINE
  5
844
100
AcDbEntity
  8
寸法
  6
CONTINUOUS
 62
     3
100
AcDbLine
 10
354.888906
 20
2027.0
 30
0.0
 11
389.888906
 21
2021.166667
 31
0.0
  0
LINE
  5
845
100
AcDbEntity
  8
寸法
  6
CONTINUOUS
 62
     3
100
AcDbLine
 10
1069.888906
 20
2021.166667
 30
0.0
 11
1104.888906
 21
2027.0
 31
0.0
  0
LINE
  5
846
100
AcDbEntity
  8
寸法
  6
CONTINUOUS
 62
     3
100
AcDbLine
 10
1104.888906
 20
2027.0
 30
0.0
 11
1069.888906
 21
2032.833333
 31
0.0
  0
ENDBLK
  5
847
100
AcDbEntity
  8
0
100
AcDbBlockEnd
  0
BLOCK
  5
84A
100
AcDbEntity
  8
0
100
AcDbBlockBegin
  2
*D21
 70
    65
 10
0.0
 20
0.0
 30
0.0
  3
*D21
  1

  0
TEXT
  5
84B
100
AcDbEntity
  8
寸法
  6
CONTINUOUS
 62
     2
100
AcDbText
 10
678.828906
 20
1257.5
 30
0.0
 40
40.0
  1
（810）
 41
0.945
  7
EXCADSTD
 72
     1
 11
759.888906
 21
1257.5
 31
0.0
100
AcDbText
  0
LINE
  5
84C
100
AcDbEntity
  8
寸法
  6
CONTINUOUS
 62
     3
100
AcDbLine
 10
354.888906
 20
1254.0
 30
0.0
 11
1164.888906
 21
1254.0
 31
0.0
  0
LINE
  5
84D
100
AcDbEntity
  8
寸法
  6
CONTINUOUS
 62
     3
100
AcDbLine
 10
389.888906
 20
1259.833333
 30
0.0
 11
354.888906
 21
1254.0
 31
0.0
  0
LINE
  5
84E
100
AcDbEntity
  8
寸法
  6
CONTINUOUS
 62
     3
100
AcDbLine
 10
354.888906
 20
1254.0
 30
0.0
 11
389.888906
 21
1248.166667
 31
0.0
  0
LINE
  5
84F
100
AcDbEntity
  8
寸法
  6
CONTINUOUS
 62
     3
100
AcDbLine
 10
1129.888906
 20
1248.166667
 30
0.0
 11
1164.888906
 21
1254.0
 31
0.0
  0
LINE
  5
850
100
AcDbEntity
  8
寸法
  6
CONTINUOUS
 62
     3
100
AcDbLine
 10
1164.888906
 20
1254.0
 30
0.0
 11
1129.888906
 21
1259.833333
 31
0.0
  0
ENDBLK
  5
851
100
AcDbEntity
  8
0
100
AcDbBlockEnd
  0
BLOCK
  5
854
100
AcDbEntity
  8
0
100
AcDbBlockBegin
  2
*D22
 70
    65
 10
0.0
 20
0.0
 30
0.0
  3
*D22
  1

  0
TEXT
  5
855
100
AcDbEntity
  8
寸法
  6
CONTINUOUS
 62
     2
100
AcDbText
 10
404.908906
 20
577.5
 30
0.0
 40
40.0
  1
200
 41
0.945
  7
EXCADSTD
 72
     1
 11
454.888906
 21
577.5
 31
0.0
100
AcDbText
  0
LINE
  5
856
100
AcDbEntity
  8
寸法
  6
CONTINUOUS
 62
     3
100
AcDbLine
 10
354.888906
 20
574.0
 30
0.0
 11
554.888906
 21
574.0
 31
0.0
  0
LINE
  5
857
100
AcDbEntity
  8
寸法
  6
CONTINUOUS
 62
     3
100
AcDbLine
 10
389.888906
 20
579.833333
 30
0.0
 11
354.888906
 21
574.0
 31
0.0
  0
LINE
  5
858
100
AcDbEntity
  8
寸法
  6
CONTINUOUS
 62
     3
100
AcDbLine
 10
354.888906
 20
574.0
 30
0.0
 11
389.888906
 21
568.166667
 31
0.0
  0
LINE
  5
859
100
AcDbEntity
  8
寸法
  6
CONTINUOUS
 62
     3
100
AcDbLine
 10
519.888906
 20
568.166667
 30
0.0
 11
554.888906
 21
574.0
 31
0.0
  0
LINE
  5
85A
100
AcDbEntity
  8
寸法
  6
CONTINUOUS
 62
     3
100
AcDbLine
 10
554.888906
 20
574.0
 30
0.0
 11
519.888906
 21
579.833333
 31
0.0
  0
ENDBLK
  5
85B
100
AcDbEntity
  8
0
100
AcDbBlockEnd
  0
BLOCK
  5
85E
100
AcDbEntity
  8
0
100
AcDbBlockBegin
  2
*D23
 70
    65
 10
0.0
 20
0.0
 30
0.0
  3
*D23
  1

  0
TEXT
  5
85F
100
AcDbEntity
  8
寸法
  6
CONTINUOUS
 62
     2
100
AcDbText
 10
598.888983
 20
578.5
 30
0.0
 40
40.0
  1
140
 41
0.84
  7
EXCADSTD
 72
     1
 11
640.888983
 21
578.5
 31
0.0
100
AcDbText
  0
LINE
  5
860
100
AcDbEntity
  8
寸法
  6
CONTINUOUS
 62
     3
100
AcDbLine
 10
554.888906
 20
574.0
 30
0.0
 11
694.889059
 21
574.0
 31
0.0
  0
LINE
  5
861
100
AcDbEntity
  8
寸法
  6
CONTINUOUS
 62
     3
100
AcDbLine
 10
584.888906
 20
579.0
 30
0.0
 11
554.888906
 21
574.0
 31
0.0
  0
LINE
  5
862
100
AcDbEntity
  8
寸法
  6
CONTINUOUS
 62
     3
100
AcDbLine
 10
554.888906
 20
574.0
 30
0.0
 11
584.888906
 21
569.0
 31
0.0
  0
LINE
  5
863
100
AcDbEntity
  8
寸法
  6
CONTINUOUS
 62
     3
100
AcDbLine
 10
664.889059
 20
569.0
 30
0.0
 11
694.889059
 21
574.0
 31
0.0
  0
LINE
  5
864
100
AcDbEntity
  8
寸法
  6
CONTINUOUS
 62
     3
100
AcDbLine
 10
694.889059
 20
574.0
 30
0.0
 11
664.889059
 21
579.0
 31
0.0
  0
ENDBLK
  5
865
100
AcDbEntity
  8
0
100
AcDbBlockEnd
  0
BLOCK
  5
869
100
AcDbEntity
  8
0
100
AcDbBlockBegin
  2
*D24
 70
    65
 10
0.0
 20
0.0
 30
0.0
  3
*D24
  1

  0
TEXT
  5
86A
100
AcDbEntity
  8
寸法
  6
CONTINUOUS
 62
     2
100
AcDbText
 10
1263.5
 20
928.250688
 30
0.0
 40
40.0
  1
（710）
 50
90.0
 41
0.945
  7
EXCADSTD
 72
     1
 11
1263.5
 21
1009.310688
 31
0.0
100
AcDbText
  0
LINE
  5
86B
100
AcDbEntity
  8
寸法
  6
CONTINUOUS
 62
     3
100
AcDbLine
 10
1267.0
 20
1364.310688
 30
0.0
 11
1267.0
 21
654.310688
 31
0.0
  0
LINE
  5
86C
100
AcDbEntity
  8
寸法
  6
CONTINUOUS
 62
     3
100
AcDbLine
 10
1272.0
 20
1334.310688
 30
0.0
 11
1267.0
 21
1364.310688
 31
0.0
  0
LINE
  5
86D
100
AcDbEntity
  8
寸法
  6
CONTINUOUS
 62
     3
100
AcDbLine
 10
1267.0
 20
1364.310688
 30
0.0
 11
1262.0
 21
1334.310688
 31
0.0
  0
LINE
  5
86E
100
AcDbEntity
  8
寸法
  6
CONTINUOUS
 62
     3
100
AcDbLine
 10
1262.0
 20
684.310688
 30
0.0
 11
1267.0
 21
654.310688
 31
0.0
  0
LINE
  5
86F
100
AcDbEntity
  8
寸法
  6
CONTINUOUS
 62
     3
100
AcDbLine
 10
1267.0
 20
654.310688
 30
0.0
 11
1272.0
 21
684.310688
 31
0.0
  0
ENDBLK
  5
870
100
AcDbEntity
  8
0
100
AcDbBlockEnd
  0
BLOCK
  5
875
100
AcDbEntity
  8
0
100
AcDbBlockBegin
  2
*D25
 70
    65
 10
0.0
 20
0.0
 30
0.0
  3
*D25
  1

  0
TEXT
  5
876
100
AcDbEntity
  8
寸法
  6
CONTINUOUS
 62
     2
100
AcDbText
 10
304.5
 20
2228.129922
 30
0.0
 40
40.0
  1
300
 50
90.0
 41
0.945
  7
EXCADSTD
 72
     1
 11
304.5
 21
2278.109922
 31
0.0
100
AcDbText
  0
LINE
  5
877
100
AcDbEntity
  8
寸法
  6
CONTINUOUS
 62
     3
100
AcDbLine
 10
308.0
 20
2428.310688
 30
0.0
 11
308.0
 21
2127.909156
 31
0.0
  0
LINE
  5
878
100
AcDbEntity
  8
寸法
  6
CONTINUOUS
 62
     3
100
AcDbLine
 10
313.833333
 20
2393.310688
 30
0.0
 11
308.0
 21
2428.310688
 31
0.0
  0
LINE
  5
879
100
AcDbEntity
  8
寸法
  6
CONTINUOUS
 62
     3
100
AcDbLine
 10
308.0
 20
2428.310688
 30
0.0
 11
302.166667
 21
2393.310688
 31
0.0
  0
LINE
  5
87A
100
AcDbEntity
  8
寸法
  6
CONTINUOUS
 62
     3
100
AcDbLine
 10
302.166667
 20
2162.909156
 30
0.0
 11
308.0
 21
2127.909156
 31
0.0
  0
LINE
  5
87B
100
AcDbEntity
  8
寸法
  6
CONTINUOUS
 62
     3
100
AcDbLine
 10
308.0
 20
2127.909156
 30
0.0
 11
313.833333
 21
2162.909156
 31
0.0
  0
ENDBLK
  5
87C
100
AcDbEntity
  8
0
100
AcDbBlockEnd
  0
BLOCK
  5
87F
100
AcDbEntity
  8
0
100
AcDbBlockBegin
  2
*D26
 70
    65
 10
0.0
 20
0.0
 30
0.0
  3
*D26
  1

  0
TEXT
  5
880
100
AcDbEntity
  8
寸法
  6
CONTINUOUS
 62
     2
100
AcDbText
 10
362.888906
 20
715.0
 30
0.0
 40
40.0
  1
100
 41
0.84
  7
EXCADSTD
 72
     1
 11
404.888906
 21
715.0
 31
0.0
100
AcDbText
  0
LINE
  5
881
100
AcDbEntity
  8
寸法
  6
CONTINUOUS
 62
     3
100
AcDbLine
 10
454.888906
 20
712.0
 30
0.0
 11
354.888906
 21
712.0
 31
0.0
  0
LINE
  5
882
100
AcDbEntity
  8
寸法
  6
CONTINUOUS
 62
     3
100
AcDbLine
 10
424.888906
 20
707.0
 30
0.0
 11
454.888906
 21
712.0
 31
0.0
  0
LINE
  5
883
100
AcDbEntity
  8
寸法
  6
CONTINUOUS
 62
     3
100
AcDbLine
 10
454.888906
 20
712.0
 30
0.0
 11
424.888906
 21
717.0
 31
0.0
  0
LINE
  5
884
100
AcDbEntity
  8
寸法
  6
CONTINUOUS
 62
     3
100
AcDbLine
 10
384.888906
 20
717.0
 30
0.0
 11
354.888906
 21
712.0
 31
0.0
  0
LINE
  5
885
100
AcDbEntity
  8
寸法
  6
CONTINUOUS
 62
     3
100
AcDbLine
 10
354.888906
 20
712.0
 30
0.0
 11
384.888906
 21
707.0
 31
0.0
  0
ENDBLK
  5
886
100
AcDbEntity
  8
0
100
AcDbBlockEnd
  0
BLOCK
  5
889
100
AcDbEntity
  8
0
100
AcDbBlockBegin
  2
*D27
 70
    65
 10
0.0
 20
0.0
 30
0.0
  3
*D27
  1

  0
LINE
  5
88A
100
AcDbEntity
  8
寸法
  6
CONTINUOUS
 62
     3
100
AcDbLine
 10
1613.903033
 20
609.963623
 30
0.0
 11
1613.903033
 21
468.0
 31
0.0
  0
LINE
  5
88B
100
AcDbEntity
  8
寸法
  6
CONTINUOUS
 62
     3
100
AcDbLine
 10
1753.902977
 20
609.963623
 30
0.0
 11
1753.902977
 21
468.0
 31
0.0
  0
TEXT
  5
88C
100
AcDbEntity
  8
寸法
  6
CONTINUOUS
 62
     2
100
AcDbText
 10
1633.923006
 20
491.5
 30
0.0
 40
40.0
  1
140
 41
0.945
  7
EXCADSTD
 72
     1
 11
1683.903005
 21
491.5
 31
0.0
100
AcDbText
  0
LINE
  5
88D
100
AcDbEntity
  8
寸法
  6
CONTINUOUS
 62
     3
100
AcDbLine
 10
1613.903033
 20
488.0
 30
0.0
 11
1753.902977
 21
488.0
 31
0.0
  0
LINE
  5
88E
100
AcDbEntity
  8
寸法
  6
CONTINUOUS
 62
     3
100
AcDbLine
 10
1648.903033
 20
493.833333
 30
0.0
 11
1613.903033
 21
488.0
 31
0.0
  0
LINE
  5
88F
100
AcDbEntity
  8
寸法
  6
CONTINUOUS
 62
     3
100
AcDbLine
 10
1613.903033
 20
488.0
 30
0.0
 11
1648.903033
 21
482.166667
 31
0.0
  0
LINE
  5
890
100
AcDbEntity
  8
寸法
  6
CONTINUOUS
 62
     3
100
AcDbLine
 10
1718.902977
 20
482.166667
 30
0.0
 11
1753.902977
 21
488.0
 31
0.0
  0
LINE
  5
891
100
AcDbEntity
  8
寸法
  6
CONTINUOUS
 62
     3
100
AcDbLine
 10
1753.902977
 20
488.0
 30
0.0
 11
1718.902977
 21
493.833333
 31
0.0
  0
ENDBLK
  5
892
100
AcDbEntity
  8
0
100
AcDbBlockEnd
  0
BLOCK
  5
89D
100
AcDbEntity
  8
0
100
AcDbBlockBegin
  2
*D28
 70
    65
 10
0.0
 20
0.0
 30
0.0
  3
*D28
  1

  0
LINE
  5
89E
100
AcDbEntity
  8
寸法
  6
CONTINUOUS
 62
     3
100
AcDbLine
 10
346.728909
 20
954.260688
 30
0.0
 11
288.0
 21
954.260688
 31
0.0
  0
TEXT
  5
89F
100
AcDbEntity
  8
寸法
  6
CONTINUOUS
 62
     2
100
AcDbText
 10
306.5
 20
689.205682
 30
0.0
 40
40.0
  1
300（壁給水）
 50
90.0
 41
0.903
  7
EXCADSTD
 72
     1
 11
306.5
 21
804.285688
 31
0.0
100
AcDbText
  0
LINE
  5
8A0
100
AcDbEntity
  8
寸法
  6
CONTINUOUS
 62
     3
100
AcDbLine
 10
308.0
 20
954.260688
 30
0.0
 11
308.0
 21
654.310688
 31
0.0
  0
LINE
  5
8A1
100
AcDbEntity
  8
寸法
  6
CONTINUOUS
 62
     3
100
AcDbLine
 10
313.833333
 20
919.260688
 30
0.0
 11
308.0
 21
954.260688
 31
0.0
  0
LINE
  5
8A2
100
AcDbEntity
  8
寸法
  6
CONTINUOUS
 62
     3
100
AcDbLine
 10
308.0
 20
954.260688
 30
0.0
 11
302.166667
 21
919.260688
 31
0.0
  0
LINE
  5
8A3
100
AcDbEntity
  8
寸法
  6
CONTINUOUS
 62
     3
100
AcDbLine
 10
302.166667
 20
689.310688
 30
0.0
 11
308.0
 21
654.310688
 31
0.0
  0
LINE
  5
8A4
100
AcDbEntity
  8
寸法
  6
CONTINUOUS
 62
     3
100
AcDbLine
 10
308.0
 20
654.310688
 30
0.0
 11
313.833333
 21
689.310688
 31
0.0
  0
ENDBLK
  5
8A5
100
AcDbEntity
  8
0
100
AcDbBlockEnd
  0
BLOCK
  5
8A9
100
AcDbEntity
  8
0
100
AcDbBlockBegin
  2
*D29
 70
    65
 10
0.0
 20
0.0
 30
0.0
  3
*D29
  1

  0
TEXT
  5
8AA
100
AcDbEntity
  8
寸法
  6
CONTINUOUS
 62
     2
100
AcDbText
 10
239.5
 20
786.830688
 30
0.0
 40
40.0
  1
365
 50
90.0
 41
0.945
  7
EXCADSTD
 72
     1
 11
239.5
 21
836.810688
 31
0.0
100
AcDbText
  0
LINE
  5
8AB
100
AcDbEntity
  8
寸法
  6
CONTINUOUS
 62
     3
100
AcDbLine
 10
243.0
 20
1019.310688
 30
0.0
 11
243.0
 21
654.310688
 31
0.0
  0
LINE
  5
8AC
100
AcDbEntity
  8
寸法
  6
CONTINUOUS
 62
     3
100
AcDbLine
 10
248.833333
 20
984.310688
 30
0.0
 11
243.0
 21
1019.310688
 31
0.0
  0
LINE
  5
8AD
100
AcDbEntity
  8
寸法
  6
CONTINUOUS
 62
     3
100
AcDbLine
 10
243.0
 20
1019.310688
 30
0.0
 11
237.166667
 21
984.310688
 31
0.0
  0
LINE
  5
8AE
100
AcDbEntity
  8
寸法
  6
CONTINUOUS
 62
     3
100
AcDbLine
 10
237.166667
 20
689.310688
 30
0.0
 11
243.0
 21
654.310688
 31
0.0
  0
LINE
  5
8AF
100
AcDbEntity
  8
寸法
  6
CONTINUOUS
 62
     3
100
AcDbLine
 10
243.0
 20
654.310688
 30
0.0
 11
248.833333
 21
689.310688
 31
0.0
  0
ENDBLK
  5
8B0
100
AcDbEntity
  8
0
100
AcDbBlockEnd
  0
BLOCK
  5
8B5
100
AcDbEntity
  8
0
100
AcDbBlockBegin
  2
*D30
 70
    65
 10
0.0
 20
0.0
 30
0.0
  3
*D30
  1

  0
TEXT
  5
8B6
100
AcDbEntity
  8
寸法
  6
CONTINUOUS
 62
     2
100
AcDbText
 10
239.5
 20
1199.330688
 30
0.0
 40
40.0
  1
460
 50
90.0
 41
0.945
  7
EXCADSTD
 72
     1
 11
239.5
 21
1249.310688
 31
0.0
100
AcDbText
  0
LINE
  5
8B7
100
AcDbEntity
  8
寸法
  6
CONTINUOUS
 62
     3
100
AcDbLine
 10
243.0
 20
1479.310688
 30
0.0
 11
243.0
 21
1019.310688
 31
0.0
  0
LINE
  5
8B8
100
AcDbEntity
  8
寸法
  6
CONTINUOUS
 62
     3
100
AcDbLine
 10
248.833333
 20
1444.310688
 30
0.0
 11
243.0
 21
1479.310688
 31
0.0
  0
LINE
  5
8B9
100
AcDbEntity
  8
寸法
  6
CONTINUOUS
 62
     3
100
AcDbLine
 10
243.0
 20
1479.310688
 30
0.0
 11
237.166667
 21
1444.310688
 31
0.0
  0
LINE
  5
8BA
100
AcDbEntity
  8
寸法
  6
CONTINUOUS
 62
     3
100
AcDbLine
 10
237.166667
 20
1054.310688
 30
0.0
 11
243.0
 21
1019.310688
 31
0.0
  0
LINE
  5
8BB
100
AcDbEntity
  8
寸法
  6
CONTINUOUS
 62
     3
100
AcDbLine
 10
243.0
 20
1019.310688
 30
0.0
 11
248.833333
 21
1054.310688
 31
0.0
  0
ENDBLK
  5
8BC
100
AcDbEntity
  8
0
100
AcDbBlockEnd
  0
ENDSEC
  0
SECTION
  2
ENTITIES
  0
TEXT
  5
8B
100
AcDbEntity
  8
枠
  6
CONTINUOUS
 62
     2
100
AcDbText
 10
201.5
 20
287.5
 30
0.0
 40
45.0
  1
製図
 41
1.026667
  7
EXCADSTD
 72
     5
 11
302.326
 21
287.5
 31
0.0
100
AcDbText
  0
TEXT
  5
8C
100
AcDbEntity
  8
枠
  6
CONTINUOUS
 62
     2
100
AcDbText
 10
356.5
 20
287.5
 30
0.0
 40
45.0
  1
写図
 41
1.026667
  7
EXCADSTD
 72
     5
 11
457.326
 21
287.5
 31
0.0
100
AcDbText
  0
TEXT
  5
8D
100
AcDbEntity
  8
枠
  6
CONTINUOUS
 62
     2
100
AcDbText
 10
504.0
 20
287.5
 30
0.0
 40
45.0
  1
検図
 41
0.933333
  7
EXCADSTD
 72
     5
 11
595.66
 21
287.5
 31
0.0
100
AcDbText
  0
TEXT
  5
8E
100
AcDbEntity
  8
枠
  6
CONTINUOUS
 62
     2
100
AcDbText
 10
634.0
 20
287.5
 30
0.0
 40
45.0
  1
承認
 41
0.933333
  7
EXCADSTD
 72
     5
 11
725.66
 21
287.5
 31
0.0
100
AcDbText
  0
TEXT
  5
8F
100
AcDbEntity
  8
枠
  6
CONTINUOUS
 62
     2
100
AcDbText
 10
774.0
 20
325.0
 30
0.0
 40
45.0
  1
品名
  7
EXCADVERT
 72
     3
 11
774.0
 21
225.0
 31
0.0
100
AcDbText
  0
TEXT
  5
90
100
AcDbEntity
  8
枠
  6
CONTINUOUS
 62
     2
100
AcDbText
 10
1414.0
 20
325.0
 30
0.0
 40
45.0
  1
品番
  7
EXCADVERT
 72
     3
 11
1414.0
 21
225.0
 31
0.0
100
AcDbText
  0
TEXT
  5
91
100
AcDbEntity
  8
枠
  6
CONTINUOUS
 62
     2
100
AcDbText
 10
1834.0
 20
325.0
 30
0.0
 40
45.0
  1
尺度
  7
EXCADVERT
 72
     3
 11
1834.0
 21
225.0
 31
0.0
100
AcDbText
  0
TEXT
  5
92
100
AcDbEntity
  8
枠
  6
CONTINUOUS
 62
     2
100
AcDbText
 10
1414.0
 20
210.0
 30
0.0
 40
45.0
  1
図番
  7
EXCADVERT
 72
     3
 11
1414.0
 21
120.0
 31
0.0
100
AcDbText
  0
LINE
  5
93
100
AcDbEntity
  8
枠
  6
CONTINUOUS
 62
     7
100
AcDbLine
 10
1999.0
 20
115.0
 30
0.0
 11
1999.0
 21
2915.0
 31
0.0
  0
LINE
  5
94
100
AcDbEntity
  8
枠
  6
CONTINUOUS
 62
     7
100
AcDbLine
 10
179.0
 20
115.0
 30
0.0
 11
179.0
 21
2915.0
 31
0.0
  0
LINE
  5
95
100
AcDbEntity
  8
枠
  6
CONTINUOUS
 62
     7
100
AcDbLine
 10
179.0
 20
2915.0
 30
0.0
 11
1999.0
 21
2915.0
 31
0.0
  0
LINE
  5
96
100
AcDbEntity
  8
枠
  6
CONTINUOUS
 62
     6
100
AcDbLine
 10
1999.0
 20
215.0
 30
0.0
 11
749.0
 21
215.0
 31
0.0
  0
LINE
  5
97
100
AcDbEntity
  8
枠
  6
CONTINUOUS
 62
     6
100
AcDbLine
 10
1859.0
 20
335.0
 30
0.0
 11
1859.0
 21
215.0
 31
0.0
  0
LINE
  5
98
100
AcDbEntity
  8
枠
  6
CONTINUOUS
 62
     6
100
AcDbLine
 10
1809.0
 20
335.0
 30
0.0
 11
1809.0
 21
215.0
 31
0.0
  0
LINE
  5
99
100
AcDbEntity
  8
枠
  6
CONTINUOUS
 62
     6
100
AcDbLine
 10
1439.0
 20
335.0
 30
0.0
 11
1439.0
 21
115.0
 31
0.0
  0
LINE
  5
9A
100
AcDbEntity
  8
枠
  6
CONTINUOUS
 62
     6
100
AcDbLine
 10
1389.0
 20
335.0
 30
0.0
 11
1389.0
 21
115.0
 31
0.0
  0
LINE
  5
9B
100
AcDbEntity
  8
枠
  6
CONTINUOUS
 62
     6
100
AcDbLine
 10
799.0
 20
335.0
 30
0.0
 11
799.0
 21
215.0
 31
0.0
  0
LINE
  5
9C
100
AcDbEntity
  8
枠
  6
CONTINUOUS
 62
     6
100
AcDbLine
 10
749.0
 20
335.0
 30
0.0
 11
749.0
 21
115.0
 31
0.0
  0
LINE
  5
9D
100
AcDbEntity
  8
枠
  6
CONTINUOUS
 62
     6
100
AcDbLine
 10
619.0
 20
335.0
 30
0.0
 11
619.0
 21
115.0
 31
0.0
  0
LINE
  5
9E
100
AcDbEntity
  8
枠
  6
CONTINUOUS
 62
     6
100
AcDbLine
 10
489.0
 20
335.0
 30
0.0
 11
489.0
 21
115.0
 31
0.0
  0
LINE
  5
9F
100
AcDbEntity
  8
枠
  6
CONTINUOUS
 62
     6
100
AcDbLine
 10
334.0
 20
335.0
 30
0.0
 11
334.0
 21
115.0
 31
0.0
  0
LINE
  5
A0
100
AcDbEntity
  8
枠
  6
CONTINUOUS
 62
     6
100
AcDbLine
 10
179.0
 20
285.0
 30
0.0
 11
749.0
 21
285.0
 31
0.0
  0
LINE
  5
A1
100
AcDbEntity
  8
枠
  6
CONTINUOUS
 62
     6
100
AcDbLine
 10
1891.654114
 20
238.00293
 30
0.0
 11
1968.993896
 21
316.699829
 31
0.0
  0
LINE
  5
A2
100
AcDbEntity
  8
枠
  6
CONTINUOUS
 62
     7
100
AcDbLine
 10
179.0
 20
115.0
 30
0.0
 11
1999.0
 21
115.0
 31
0.0
  0
LINE
  5
A3
100
AcDbEntity
  8
枠
  6
CONTINUOUS
 62
     7
100
AcDbLine
 10
179.0
 20
335.0
 30
0.0
 11
1999.0
 21
335.0
 31
0.0
  0
LINE
  5
A4
100
AcDbEntity
  8
枠
  6
EXLTYPE2
 62
     6
100
AcDbLine
 10
179.0
 20
165.0
 30
0.0
 11
489.0
 21
165.0
 31
0.0
  0
CIRCLE
  5
A5
100
AcDbEntity
  8
枠
  6
CONTINUOUS
 62
     6
100
AcDbCircle
 10
229.0
 20
140.0
 30
0.0
 40
1.0
  0
CIRCLE
  5
A6
100
AcDbEntity
  8
枠
  6
CONTINUOUS
 62
     6
100
AcDbCircle
 10
279.0
 20
140.0
 30
0.0
 40
1.0
  0
CIRCLE
  5
A7
100
AcDbEntity
  8
枠
  6
CONTINUOUS
 62
     6
100
AcDbCircle
 10
384.0
 20
140.0
 30
0.0
 40
1.0
  0
CIRCLE
  5
A8
100
AcDbEntity
  8
枠
  6
CONTINUOUS
 62
     6
100
AcDbCircle
 10
434.0
 20
140.0
 30
0.0
 40
1.0
  0
TEXT
  5
A9
100
AcDbEntity
  8
枠
  6
CONTINUOUS
 62
     6
100
AcDbText
 10
181.044116
 20
126.950073
 30
0.0
 40
25.0
  1
２０
 41
0.75768
  7
EXCADSTD
 72
     5
 11
222.382775
 21
126.950073
 31
0.0
100
AcDbText
  0
TEXT
  5
AA
100
AcDbEntity
  8
枠
  6
CONTINUOUS
 62
     6
100
AcDbText
 10
634.5
 20
200.0
 30
0.0
 40
50.0
  1
古林
 41
0.8568
  7
EXCADSTD
 72
     5
 11
727.9932
 21
200.0
 31
0.0
100
AcDbText
  0
LINE
  5
AB
100
AcDbEntity
  8
枠
  6
EXLTYPE2
 62
     6
100
AcDbLine
 10
-71.0
 20
1515.0
 30
0.0
 11
179.0
 21
1515.0
 31
0.0
  0
TEXT
  5
AC
100
AcDbEntity
  8
枠
  6
CONTINUOUS
 62
     6
100
AcDbText
 10
206.5
 20
200.0
 30
0.0
 40
50.0
  1
間瀬
 41
0.8736
  7
EXCADSTD
 72
     5
 11
301.8264
 21
200.0
 31
0.0
100
AcDbText
  0
TEXT
  5
AE
100
AcDbEntity
  8
枠
  6
CONTINUOUS
 62
     2
100
AcDbText
 10
769.0
 20
135.0
 30
0.0
 40
45.0
  1
ジャニス工業株式会社
  7
EXCADTTF1
 72
     5
 11
1369.0
 21
135.0
 31
0.0
100
AcDbText
  0
TEXT
  5
AF
100
AcDbEntity
  8
枠
  6
CONTINUOUS
 62
     6
100
AcDbText
 10
243.544116
 20
126.950073
 30
0.0
 40
25.0
  1
９
 41
0.89208
  7
EXCADSTD
 72
     5
 11
264.784116
 21
126.950073
 31
0.0
100
AcDbText
  0
TEXT
  5
B0
100
AcDbEntity
  8
枠
  6
CONTINUOUS
 62
     6
100
AcDbText
 10
285.844116
 20
126.950073
 30
0.0
 40
25.0
  1
１６
 41
0.75768
  7
EXCADSTD
 72
     5
 11
327.182775
 21
126.950073
 31
0.0
100
AcDbText
  0
TEXT
  5
B1
100
AcDbEntity
  8
枠
  6
CONTINUOUS
 62
     7
100
AcDbText
 10
1453.25
 20
130.75
 30
0.0
 40
70.0
  1
Ｃ４６４Ｗ０３９
 41
0.795
  7
EXCADSTD
 72
     5
 11
1983.25
 21
130.75
 31
0.0
100
AcDbText
  0
TEXT
  5
B2
100
AcDbEntity
  8
便器
  6
CONTINUOUS
 62
     2
100
AcDbText
 10
711.389378
 20
2689.463093
 30
0.0
 40
40.0
  1
６６８
 41
0.833
  7
EXCADSTD
 72
     5
 11
830.389378
 21
2689.463093
 31
0.0
100
AcDbText
  0
LINE
  5
B3
100
AcDbEntity
  8
便器
  6
CONTINUOUS
 62
     3
100
AcDbLine
 10
436.888906
 20
2685.963093
 30
0.0
 11
1104.88985
 21
2685.963093
 31
0.0
  0
LINE
  5
B4
100
AcDbEntity
  8
便器
  6
CONTINUOUS
 62
     3
100
AcDbLine
 10
471.888906
 20
2691.796426
 30
0.0
 11
436.888906
 21
2685.963093
 31
0.0
  0
LINE
  5
B5
100
AcDbEntity
  8
便器
  6
CONTINUOUS
 62
     3
100
AcDbLine
 10
436.888906
 20
2685.963093
 30
0.0
 11
471.888906
 21
2680.129759
 31
0.0
  0
LINE
  5
B6
100
AcDbEntity
  8
便器
  6
CONTINUOUS
 62
     3
100
AcDbLine
 10
1069.88985
 20
2680.129759
 30
0.0
 11
1104.88985
 21
2685.963093
 31
0.0
  0
LINE
  5
B7
100
AcDbEntity
  8
便器
  6
CONTINUOUS
 62
     3
100
AcDbLine
 10
1104.88985
 20
2685.963093
 30
0.0
 11
1069.88985
 21
2691.796426
 31
0.0
  0
LINE
  5
B8
100
AcDbEntity
  8
便器
  6
CONTINUOUS
 62
     7
100
AcDbLine
 10
354.888906
 20
2828.310688
 30
0.0
 11
1267.888906
 21
2828.310688
 31
0.0
  0
LINE
  5
B9
100
AcDbEntity
  8
便器
  6
EXLTYPE2
 62
     2
100
AcDbLine
 10
539.976064
 20
2280.310688
 30
0.0
 11
496.095693
 21
2280.310688
 31
0.0
  0
ARC
  5
BA
100
AcDbEntity
  8
便器
  6
EXLTYPE2
 62
     2
100
AcDbCircle
 10
496.095693
 20
2300.310688
 30
0.0
 40
20.0
100
AcDbArc
 50
207.312555
 51
269.999512
  0
LINE
  5
BB
100
AcDbEntity
  8
便器
  6
EXLTYPE2
 62
     2
100
AcDbLine
 10
537.263296
 20
2576.310688
 30
0.0
 11
496.095693
 21
2576.310688
 31
0.0
  0
ARC
  5
BC
100
AcDbEntity
  8
便器
  6
EXLTYPE2
 62
     2
100
AcDbCircle
 10
496.095693
 20
2556.310688
 30
0.0
 40
20.0
100
AcDbArc
 50
90.000519
 51
160.315491
  0
ARC
  5
BD
100
AcDbEntity
  8
便器
  6
EXLTYPE2
 62
     2
100
AcDbCircle
 10
537.263296
 20
2976.310688
 30
0.0
 40
400.0
100
AcDbArc
 50
270.0
 51
276.517327
  0
LINE
  5
BE
100
AcDbEntity
  8
便器
  6
CONTINUOUS
 62
     6
100
AcDbLine
 10
664.888906
 20
2518.310688
 30
0.0
 11
664.888906
 21
2478.310688
 31
0.0
  0
ARC
  5
BF
100
AcDbEntity
  8
便器
  6
EXLTYPE2
 62
     2
100
AcDbCircle
 10
537.263296
 20
1880.310688
 30
0.0
 40
400.0
100
AcDbArc
 50
83.537355
 51
90.0
  0
ARC
  5
C0
100
AcDbEntity
  8
便器
  6
EXLTYPE2
 62
     2
100
AcDbCircle
 10
890.67568
 20
2504.970112
 30
0.0
 40
250.0
100
AcDbArc
 50
279.551941
 51
309.950989
  0
ARC
  5
C1
100
AcDbEntity
  8
便器
  6
EXLTYPE2
 62
     2
100
AcDbCircle
 10
954.888906
 20
2428.310688
 30
0.0
 40
150.0
100
AcDbArc
 50
309.950989
 51
50.04895
  0
ARC
  5
C2
100
AcDbEntity
  8
便器
  6
EXLTYPE2
 62
     2
100
AcDbCircle
 10
890.67568
 20
2351.651264
 30
0.0
 40
250.0
100
AcDbArc
 50
50.049011
 51
80.448059
  0
LINE
  5
C3
100
AcDbEntity
  8
便器
  6
EXLTYPE3
 62
     6
100
AcDbLine
 10
1124.88985
 20
2428.310688
 30
0.0
 11
354.888906
 21
2428.310688
 31
0.0
  0
LINE
  5
C4
100
AcDbEntity
  8
便器
  6
CONTINUOUS
 62
     7
100
AcDbLine
 10
354.888906
 20
2001.0
 30
0.0
 11
354.888906
 21
2828.310688
 31
0.0
  0
ARC
  5
C5
100
AcDbEntity
  8
便器
  6
CONTINUOUS
 62
     7
100
AcDbCircle
 10
537.263296
 20
2976.310688
 30
0.0
 40
400.0
100
AcDbArc
 50
277.184197
 51
278.97938
  0
ARC
  5
C6
100
AcDbEntity
  8
便器
  6
CONTINUOUS
 62
     7
100
AcDbCircle
 10
537.263296
 20
1880.310688
 30
0.0
 40
400.0
100
AcDbArc
 50
81.02062
 51
82.782443
  0
ARC
  5
C7
100
AcDbEntity
  8
便器
  6
EXLTYPE2
 62
     2
100
AcDbCircle
 10
840.893239
 20
2055.810688
 30
0.0
 40
550.0
100
AcDbArc
 50
80.448059
 51
93.091702
  0
ARC
  5
C8
100
AcDbEntity
  8
便器
  6
CONTINUOUS
 62
     7
100
AcDbCircle
 10
974.284475
 20
210.625874
 30
0.0
 40
2400.0
100
AcDbArc
 50
93.882827
 51
98.97938
  0
ARC
  5
C9
100
AcDbEntity
  8
便器
  6
EXLTYPE2
 62
     2
100
AcDbCircle
 10
840.893239
 20
2800.810688
 30
0.0
 40
550.0
100
AcDbArc
 50
266.908298
 51
279.551941
  0
ARC
  5
CA
100
AcDbEntity
  8
便器
  6
CONTINUOUS
 62
     7
100
AcDbCircle
 10
974.284475
 20
4645.995502
 30
0.0
 40
2400.0
100
AcDbArc
 50
261.02062
 51
266.117173
  0
ARC
  5
CB
100
AcDbEntity
  8
便器
  6
EXLTYPE2
 62
     2
100
AcDbCircle
 10
508.190298
 20
2475.095234
 30
0.0
 40
30.0
100
AcDbArc
 50
99.236023
 51
155.499268
  0
ARC
  5
CC
100
AcDbEntity
  8
便器
  6
EXLTYPE2
 62
     2
100
AcDbCircle
 10
508.190298
 20
2381.526142
 30
0.0
 40
30.0
100
AcDbArc
 50
204.500732
 51
260.763977
  0
CIRCLE
  5
CD
100
AcDbEntity
  8
便器
  6
EXLTYPE2
 62
     2
100
AcDbCircle
 10
554.888906
 20
2428.310688
 30
0.0
 40
40.0
  0
ARC
  5
CE
100
AcDbEntity
  8
便器
  6
EXLTYPE2
 62
     2
100
AcDbCircle
 10
888.57784
 20
4720.800678
 30
0.0
 40
2400.0
100
AcDbArc
 50
260.764038
 51
267.358992
  0
ARC
  5
CF
100
AcDbEntity
  8
便器
  6
EXLTYPE2
 62
     2
100
AcDbCircle
 10
888.57784
 20
135.820698
 30
0.0
 40
2400.0
100
AcDbArc
 50
92.737075
 51
99.235462
  0
ARC
  5
D0
100
AcDbEntity
  8
便器
  6
EXLTYPE2
 62
     2
100
AcDbCircle
 10
816.962026
 20
2381.596104
 30
0.0
 40
150.0
100
AcDbArc
 50
31.268616
 51
78.798218
  0
ARC
  5
D1
100
AcDbEntity
  8
便器
  6
EXLTYPE2
 62
     2
100
AcDbCircle
 10
799.47817
 20
2293.310688
 30
0.0
 40
240.0
100
AcDbArc
 50
78.798218
 51
90.0
  0
LINE
  5
D2
100
AcDbEntity
  8
便器
  6
EXLTYPE2
 62
     2
100
AcDbLine
 10
778.842942
 20
2533.310688
 30
0.0
 11
799.47817
 21
2533.310688
 31
0.0
  0
ARC
  5
D3
100
AcDbEntity
  8
便器
  6
EXLTYPE2
 62
     2
100
AcDbCircle
 10
893.888906
 20
2428.310688
 30
0.0
 40
60.0
100
AcDbArc
 50
328.731384
 51
29.434662
  0
ARC
  5
D4
100
AcDbEntity
  8
便器
  6
EXLTYPE2
 62
     2
100
AcDbCircle
 10
816.962026
 20
2475.025288
 30
0.0
 40
150.0
100
AcDbArc
 50
281.201782
 51
328.731384
  0
ARC
  5
D5
100
AcDbEntity
  8
便器
  6
EXLTYPE2
 62
     2
100
AcDbCircle
 10
799.47817
 20
2563.310688
 30
0.0
 40
240.0
100
AcDbArc
 50
265.427051
 51
281.201782
  0
CIRCLE
  5
D6
100
AcDbEntity
  8
便器
  6
EXLTYPE2
 62
     2
100
AcDbCircle
 10
694.888906
 20
2358.310688
 30
0.0
 40
5.5
  0
CIRCLE
  5
D7
100
AcDbEntity
  8
便器
  6
EXLTYPE2
 62
     2
100
AcDbCircle
 10
694.888906
 20
2498.310688
 30
0.0
 40
5.5
  0
LINE
  5
D8
100
AcDbEntity
  8
便器
  6
CONTINUOUS
 62
     3
100
AcDbLine
 10
436.888906
 20
2457.963093
 30
0.0
 11
436.888906
 21
2705.963093
 31
0.0
  0
LINE
  5
D9
100
AcDbEntity
  8
便器
  6
CONTINUOUS
 62
     7
100
AcDbLine
 10
354.888906
 20
654.310688
 30
0.0
 11
354.888906
 21
1843.310688
 31
0.0
  0
LINE
  5
DA
100
AcDbEntity
  8
便器
  6
CONTINUOUS
 62
     7
100
AcDbLine
 10
354.888906
 20
654.310688
 30
0.0
 11
1283.0
 21
654.310688
 31
0.0
  0
ARC
  5
DB
100
AcDbEntity
  8
便器
  6
CONTINUOUS
 62
     7
100
AcDbCircle
 10
874.816595
 20
1062.804302
 30
0.0
 40
240.0
100
AcDbArc
 50
312.553345
 51
343.177979
  0
ARC
  5
DC
100
AcDbEntity
  8
便器
  6
CONTINUOUS
 62
     7
100
AcDbCircle
 10
377.431139
 20
841.284964
 30
0.0
 40
120.0
100
AcDbArc
 50
346.17797
 51
20.01573
  0
ARC
  5
DD
100
AcDbEntity
  8
便器
  6
CONTINUOUS
 62
     7
100
AcDbCircle
 10
870.201772
 20
1012.567729
 30
0.0
 40
200.0
100
AcDbArc
 50
210.074978
 51
244.043823
  0
ARC
  5
DE
100
AcDbEntity
  8
便器
  6
CONTINUOUS
 62
     7
100
AcDbCircle
 10
496.10198
 20
1475.327259
 30
0.0
 40
800.0
100
AcDbArc
 50
302.847412
 51
312.553345
  0
LINE
  5
DF
100
AcDbEntity
  8
便器
  6
CONTINUOUS
 62
     7
100
AcDbLine
 10
701.251485
 20
845.643711
 30
0.0
 11
736.413137
 21
773.722507
 31
0.0
  0
ARC
  5
E0
100
AcDbEntity
  8
便器
  6
CONTINUOUS
 62
     7
100
AcDbCircle
 10
760.499875
 20
774.310688
 30
0.0
 40
65.0
100
AcDbArc
 50
263.950035
 51
307.578505
  0
ARC
  5
E1
100
AcDbEntity
  8
便器
  6
CONTINUOUS
 62
     7
100
AcDbCircle
 10
778.288229
 20
823.750614
 30
0.0
 40
10.0
100
AcDbArc
 50
1.14212
 51
64.043793
  0
ARC
  5
E2
100
AcDbEntity
  8
便器
  6
CONTINUOUS
 62
     7
100
AcDbCircle
 10
723.299154
 20
822.654316
 30
0.0
 40
65.0
100
AcDbArc
 50
302.126831
 51
1.14212
  0
LINE
  5
E3
100
AcDbEntity
  8
便器
  6
CONTINUOUS
 62
     6
100
AcDbLine
 10
599.388906
 20
607.160188
 30
0.0
 11
599.388906
 21
614.160188
 31
0.0
  0
LINE
  5
E4
100
AcDbEntity
  8
便器
  6
CONTINUOUS
 62
     6
100
AcDbLine
 10
510.388906
 20
607.160188
 30
0.0
 11
510.388906
 21
614.160188
 31
0.0
  0
LINE
  5
E5
100
AcDbEntity
  8
便器
  6
CONTINUOUS
 62
     6
100
AcDbLine
 10
510.388906
 20
590.160188
 30
0.0
 11
510.388906
 21
597.160188
 31
0.0
  0
LINE
  5
E6
100
AcDbEntity
  8
便器
  6
CONTINUOUS
 62
     6
100
AcDbLine
 10
510.388906
 20
555.860188
 30
0.0
 11
510.388906
 21
580.160188
 31
0.0
  0
LINE
  5
E7
100
AcDbEntity
  8
便器
  6
CONTINUOUS
 62
     6
100
AcDbLine
 10
599.388906
 20
590.160188
 30
0.0
 11
599.388906
 21
597.160188
 31
0.0
  0
LINE
  5
E8
100
AcDbEntity
  8
便器
  6
CONTINUOUS
 62
     6
100
AcDbLine
 10
599.388906
 20
555.860188
 30
0.0
 11
599.388906
 21
580.160188
 31
0.0
  0
LINE
  5
E9
100
AcDbEntity
  8
便器
  6
EXLTYPE2
 62
     6
100
AcDbLine
 10
493.238881
 20
678.810703
 30
0.0
 11
616.538931
 21
678.810703
 31
0.0
  0
LINE
  5
EA
100
AcDbEntity
  8
便器
  6
EXLTYPE2
 62
     6
100
AcDbLine
 10
491.238881
 20
699.310703
 30
0.0
 11
618.538931
 21
699.310703
 31
0.0
  0
LINE
  5
EB
100
AcDbEntity
  8
便器
  6
CONTINUOUS
 62
     6
100
AcDbLine
 10
592.638906
 20
616.310688
 30
0.0
 11
517.138906
 21
616.310688
 31
0.0
  0
LINE
  5
EC
100
AcDbEntity
  8
便器
  6
EXLTYPE2
 62
     6
100
AcDbLine
 10
494.588887
 20
654.310688
 30
0.0
 11
494.588887
 21
678.810703
 31
0.0
  0
ARC
  5
ED
100
AcDbEntity
  8
便器
  6
EXLTYPE2
 62
     6
100
AcDbCircle
 10
493.238881
 20
680.810703
 30
0.0
 40
2.0
100
AcDbArc
 50
180.0
 51
270.0
  0
LINE
  5
EE
100
AcDbEntity
  8
便器
  6
EXLTYPE2
 62
     6
100
AcDbLine
 10
491.238881
 20
699.310703
 30
0.0
 11
491.238881
 21
680.810703
 31
0.0
  0
LINE
  5
EF
100
AcDbEntity
  8
便器
  6
CONTINUOUS
 62
     6
100
AcDbLine
 10
517.138906
 20
616.310688
 30
0.0
 11
516.388912
 21
654.310688
 31
0.0
  0
LINE
  5
F0
100
AcDbEntity
  8
便器
  6
CONTINUOUS
 62
     6
100
AcDbLine
 10
510.388906
 20
624.160188
 30
0.0
 11
510.388906
 21
654.310688
 31
0.0
  0
LINE
  5
F1
100
AcDbEntity
  8
便器
  6
CONTINUOUS
 62
     6
100
AcDbLine
 10
554.888906
 20
612.310688
 30
0.0
 11
554.888906
 21
620.310688
 31
0.0
  0
LINE
  5
F2
100
AcDbEntity
  8
便器
  6
EXLTYPE2
 62
     6
100
AcDbLine
 10
615.188925
 20
654.310688
 30
0.0
 11
615.188925
 21
678.810703
 31
0.0
  0
LINE
  5
F3
100
AcDbEntity
  8
便器
  6
CONTINUOUS
 62
     6
100
AcDbLine
 10
592.638906
 20
616.310688
 30
0.0
 11
593.3889
 21
654.310688
 31
0.0
  0
LINE
  5
F4
100
AcDbEntity
  8
便器
  6
CONTINUOUS
 62
     6
100
AcDbLine
 10
599.388906
 20
624.160188
 30
0.0
 11
599.388906
 21
654.310688
 31
0.0
  0
ARC
  5
F5
100
AcDbEntity
  8
便器
  6
EXLTYPE2
 62
     6
100
AcDbCircle
 10
616.538931
 20
680.810703
 30
0.0
 40
2.0
100
AcDbArc
 50
270.0
 51
0.0
  0
LINE
  5
F6
100
AcDbEntity
  8
便器
  6
EXLTYPE2
 62
     6
100
AcDbLine
 10
618.538931
 20
699.310703
 30
0.0
 11
618.538931
 21
680.810703
 31
0.0
  0
LINE
  5
F7
100
AcDbEntity
  8
便器
  6
CONTINUOUS
 62
     6
100
AcDbLine
 10
697.788751
 20
632.196043
 30
0.0
 11
697.788751
 21
654.310688
 31
0.0
  0
LINE
  5
F8
100
AcDbEntity
  8
便器
  6
CONTINUOUS
 62
     6
100
AcDbLine
 10
691.988885
 20
632.196043
 30
0.0
 11
691.988885
 21
654.310688
 31
0.0
  0
ARC
  5
F9
100
AcDbEntity
  8
便器
  6
CONTINUOUS
 62
     6
100
AcDbCircle
 10
711.985528
 20
631.82144
 30
0.0
 40
20.0
100
AcDbArc
 50
178.926758
 51
211.259766
  0
ARC
  5
FA
100
AcDbEntity
  8
便器
  6
CONTINUOUS
 62
     6
100
AcDbCircle
 10
677.792413
 20
631.82144
 30
0.0
 40
20.0
100
AcDbArc
 50
328.740234
 51
1.073222
  0
LINE
  5
FB
100
AcDbEntity
  8
便器
  6
CONTINUOUS
 62
     7
100
AcDbLine
 10
709.888906
 20
714.310688
 30
0.0
 11
753.649155
 21
709.672715
 31
0.0
  0
ARC
  5
FC
100
AcDbEntity
  8
便器
  6
CONTINUOUS
 62
     7
100
AcDbCircle
 10
680.722166
 20
673.699098
 30
0.0
 40
50.0
100
AcDbArc
 50
16.533118
 51
54.314562
  0
ARC
  5
FD
100
AcDbEntity
  8
便器
  6
CONTINUOUS
 62
     7
100
AcDbCircle
 10
724.820315
 20
686.789295
 30
0.0
 40
4.0
100
AcDbArc
 50
270.0
 51
16.533118
  0
ARC
  5
FE
100
AcDbEntity
  8
便器
  6
CONTINUOUS
 62
     7
100
AcDbCircle
 10
749.888906
 20
780.310688
 30
0.0
 40
15.0
100
AcDbArc
 50
206.053589
 51
302.126831
  0
ARC
  5
FF
100
AcDbEntity
  8
便器
  6
CONTINUOUS
 62
     7
100
AcDbCircle
 10
-233.985117
 20
484.146809
 30
0.0
 40
1200.0
100
AcDbArc
 50
8.152191
 51
14.878143
  0
ARC
  5
100
100
AcDbEntity
  8
便器
  6
CONTINUOUS
 62
     7
100
AcDbCircle
 10
484.692251
 20
907.123035
 30
0.0
 40
400.0
100
AcDbArc
 50
329.200317
 51
344.363647
  0
ARC
  5
101
100
AcDbEntity
  8
便器
  6
CONTINUOUS
 62
     7
100
AcDbCircle
 10
723.299154
 20
822.654316
 30
0.0
 40
126.0
100
AcDbArc
 50
307.578505
 51
328.610046
  0
ARC
  5
102
100
AcDbEntity
  8
便器
  6
CONTINUOUS
 62
     7
100
AcDbCircle
 10
793.918813
 20
722.789295
 30
0.0
 40
40.0
100
AcDbArc
 50
270.000122
 51
329.200317
  0
ARC
  5
103
100
AcDbEntity
  8
便器
  6
CONTINUOUS
 62
     7
100
AcDbCircle
 10
933.295125
 20
694.522785
 30
0.0
 40
120.0
100
AcDbArc
 50
127.56958
 51
148.610046
  0
ARC
  5
104
100
AcDbEntity
  8
便器
  6
CONTINUOUS
 62
     7
100
AcDbCircle
 10
935.448537
 20
794.83147
 30
0.0
 40
10.0
100
AcDbArc
 50
122.847412
 51
194.878113
  0
LINE
  5
105
100
AcDbEntity
  8
便器
  6
CONTINUOUS
 62
     7
100
AcDbLine
 10
555.813955
 20
893.310688
 30
0.0
 11
624.888906
 21
893.310688
 31
0.0
  0
LINE
  5
106
100
AcDbEntity
  8
便器
  6
CONTINUOUS
 62
     7
100
AcDbLine
 10
466.888906
 20
991.310841
 30
0.0
 11
549.888906
 21
986.310841
 31
0.0
  0
ARC
  5
107
100
AcDbEntity
  8
便器
  6
CONTINUOUS
 62
     7
100
AcDbCircle
 10
537.572648
 20
938.076703
 30
0.0
 40
9.0
100
AcDbArc
 50
78.855407
 51
200.776334
  0
ARC
  5
108
100
AcDbEntity
  8
便器
  6
CONTINUOUS
 62
     7
100
AcDbCircle
 10
1651.124624
 20
1360.549183
 30
0.0
 40
1200.0
100
AcDbArc
 50
200.776334
 51
204.106186
  0
ARC
  5
109
100
AcDbEntity
  8
便器
  6
CONTINUOUS
 62
     7
100
AcDbCircle
 10
445.52178
 20
952.930447
 30
0.0
 40
20.0
100
AcDbArc
 50
16.938522
 51
38.507935
  0
ARC
  5
10A
100
AcDbEntity
  8
便器
  6
CONTINUOUS
 62
     7
100
AcDbCircle
 10
1899.581014
 20
1395.775504
 30
0.0
 40
1500.0
100
AcDbArc
 50
196.938522
 51
200.01573
  0
ARC
  5
10B
100
AcDbEntity
  8
便器
  6
CONTINUOUS
 62
     7
100
AcDbCircle
 10
555.813955
 20
908.310688
 30
0.0
 40
15.0
100
AcDbArc
 50
202.435059
 51
270.0
  0
ARC
  5
10C
100
AcDbEntity
  8
便器
  6
CONTINUOUS
 62
     7
100
AcDbCircle
 10
579.888906
 20
1019.310688
 30
0.0
 40
15.0
100
AcDbArc
 50
180.0
 51
270.0
  0
ARC
  5
10D
100
AcDbEntity
  8
便器
  6
CONTINUOUS
 62
     7
100
AcDbCircle
 10
564.888906
 20
1019.310535
 30
0.0
 40
15.0
100
AcDbArc
 50
180.0
 51
270.0
  0
ARC
  5
10E
100
AcDbEntity
  8
便器
  6
CONTINUOUS
 62
     7
100
AcDbCircle
 10
624.888906
 20
808.310688
 30
0.0
 40
85.0
100
AcDbArc
 50
26.053619
 51
39.997803
  0
ARC
  5
10F
100
AcDbEntity
  8
便器
  6
CONTINUOUS
 62
     7
100
AcDbCircle
 10
686.063833
 20
899.701519
 30
0.0
 40
18.0
100
AcDbArc
 50
72.466075
 51
210.28949
  0
ARC
  5
110
100
AcDbEntity
  8
便器
  6
CONTINUOUS
 62
     7
100
AcDbCircle
 10
843.218648
 20
991.496737
 30
0.0
 40
200.0
100
AcDbArc
 50
210.28949
 51
219.997803
  0
ARC
  5
111
100
AcDbEntity
  8
便器
  6
CONTINUOUS
 62
     7
100
AcDbCircle
 10
688.473997
 20
907.329829
 30
0.0
 40
10.0
100
AcDbArc
 50
30.074978
 51
72.466075
  0
ARC
  5
112
100
AcDbEntity
  8
便器
  6
CONTINUOUS
 62
     7
100
AcDbCircle
 10
1096.888906
 20
995.663529
 30
0.0
 40
8.0
100
AcDbArc
 50
343.177979
 51
2.318085
  0
ARC
  5
113
100
AcDbEntity
  8
便器
  6
CONTINUOUS
 62
     7
100
AcDbCircle
 10
1096.888906
 20
996.310688
 30
0.0
 40
8.0
100
AcDbArc
 50
0.0
 51
90.0
  0
ARC
  5
114
100
AcDbEntity
  8
便器
  6
CONTINUOUS
 62
     6
100
AcDbCircle
 10
683.907525
 20
682.152088
 30
0.0
 40
21.998959
100
AcDbArc
 50
1.658232
 51
46.657364
  0
ARC
  5
115
100
AcDbEntity
  8
便器
  6
CONTINUOUS
 62
     6
100
AcDbCircle
 10
705.870416
 20
682.152088
 30
0.0
 40
22.000227
100
AcDbArc
 50
133.342773
 51
178.341858
  0
ARC
  5
116
100
AcDbEntity
  8
便器
  6
CONTINUOUS
 62
     6
100
AcDbCircle
 10
694.88897
 20
693.790272
 30
0.0
 40
6.000327
100
AcDbArc
 50
46.653809
 51
133.346207
  0
ARC
  5
117
100
AcDbEntity
  8
便器
  6
CONTINUOUS
 62
     7
100
AcDbCircle
 10
694.888906
 20
433.523457
 30
0.0
 40
252.304199
100
AcDbArc
 50
92.895471
 51
98.900879
  0
ARC
  5
118
100
AcDbEntity
  8
便器
  6
CONTINUOUS
 62
     7
100
AcDbCircle
 10
694.888906
 20
536.20229
 30
0.0
 40
149.625366
100
AcDbArc
 50
78.433746
 51
85.10622
  0
LINE
  5
119
100
AcDbEntity
  8
便器
  6
CONTINUOUS
 62
     7
100
AcDbLine
 10
793.918813
 20
682.789295
 30
0.0
 11
653.2
 21
682.789295
 31
0.0
  0
LINE
  5
11A
100
AcDbEntity
  8
便器
  6
CONTINUOUS
 62
     6
100
AcDbLine
 10
554.888906
 20
632.310688
 30
0.0
 11
554.888906
 21
710.0
 31
0.0
  0
ARC
  5
11B
100
AcDbEntity
  8
便器
  6
CONTINUOUS
 62
     7
100
AcDbCircle
 10
624.888906
 20
808.310688
 30
0.0
 40
85.0
100
AcDbArc
 50
39.997803
 51
90.0
  0
LINE
  5
11C
100
AcDbEntity
  8
便器
  6
CONTINUOUS
 62
     7
100
AcDbLine
 10
564.888906
 20
1004.310688
 30
0.0
 11
1096.888906
 21
1004.310688
 31
0.0
  0
ARC
  5
11D
100
AcDbEntity
  8
便器
  6
CONTINUOUS
 62
     7
100
AcDbCircle
 10
797.427969
 20
4243.373188
 30
0.0
 40
3304.108637
100
AcDbArc
 50
266.83302
 51
274.469101
  0
LINE
  5
11E
100
AcDbEntity
  8
便器
  6
CONTINUOUS
 62
     7
100
AcDbLine
 10
653.699009
 20
924.372721
 30
0.0
 11
539.312219
 21
946.906985
 31
0.0
  0
LINE
  5
11F
100
AcDbEntity
  8
便器
  6
CONTINUOUS
 62
     7
100
AcDbLine
 10
691.498707
 20
916.926159
 30
0.0
 11
675.920952
 21
919.994985
 31
0.0
  0
ARC
  5
120
100
AcDbEntity
  8
便器
  6
CONTINUOUS
 62
     7
100
AcDbCircle
 10
555.074819
 20
1040.097702
 30
0.0
 40
120.0
100
AcDbArc
 50
209.705459
 51
218.513982
  0
LINE
  5
121
100
AcDbEntity
  8
便器
  6
CONTINUOUS
 62
     6
100
AcDbLine
 10
500.938906
 20
984.721838
 30
0.0
 11
500.938906
 21
978.821838
 31
0.0
  0
LINE
  5
122
100
AcDbEntity
  8
便器
  6
CONTINUOUS
 62
     6
100
AcDbLine
 10
497.538906
 20
984.721838
 30
0.0
 11
497.538906
 21
978.821838
 31
0.0
  0
ARC
  5
123
100
AcDbEntity
  8
便器
  6
CONTINUOUS
 62
     6
100
AcDbCircle
 10
499.238906
 20
981.461838
 30
0.0
 40
3.14
100
AcDbArc
 50
237.220919
 51
302.779081
  0
LINE
  5
124
100
AcDbEntity
  8
便器
  6
CONTINUOUS
 62
     6
100
AcDbLine
 10
497.538906
 20
984.721838
 30
0.0
 11
504.888906
 21
984.721838
 31
0.0
  0
LINE
  5
125
100
AcDbEntity
  8
便器
  6
CONTINUOUS
 62
     6
100
AcDbLine
 10
493.888906
 20
985.721838
 30
0.0
 11
493.888906
 21
984.721838
 31
0.0
  0
LINE
  5
126
100
AcDbEntity
  8
便器
  6
CONTINUOUS
 62
     6
100
AcDbLine
 10
512.238906
 20
984.721838
 30
0.0
 11
512.238906
 21
978.821838
 31
0.0
  0
LINE
  5
127
100
AcDbEntity
  8
便器
  6
CONTINUOUS
 62
     6
100
AcDbLine
 10
515.888906
 20
985.721838
 30
0.0
 11
515.888906
 21
984.721838
 31
0.0
  0
LINE
  5
128
100
AcDbEntity
  8
便器
  6
CONTINUOUS
 62
     6
100
AcDbLine
 10
491.388906
 20
989.721838
 30
0.0
 11
491.388906
 21
985.721838
 31
0.0
  0
LINE
  5
129
100
AcDbEntity
  8
便器
  6
CONTINUOUS
 62
     6
100
AcDbLine
 10
491.388906
 20
985.721838
 30
0.0
 11
518.388906
 21
985.721838
 31
0.0
  0
LINE
  5
12A
100
AcDbEntity
  8
便器
  6
CONTINUOUS
 62
     6
100
AcDbLine
 10
493.888906
 20
984.721838
 30
0.0
 11
515.888906
 21
984.721838
 31
0.0
  0
LINE
  5
12B
100
AcDbEntity
  8
便器
  6
CONTINUOUS
 62
     6
100
AcDbLine
 10
508.838906
 20
984.721838
 30
0.0
 11
508.838906
 21
978.821838
 31
0.0
  0
ARC
  5
12C
100
AcDbEntity
  8
便器
  6
CONTINUOUS
 62
     6
100
AcDbCircle
 10
504.888906
 20
994.174338
 30
0.0
 40
15.8525
100
AcDbArc
 50
255.571476
 51
284.428524
  0
ARC
  5
12D
100
AcDbEntity
  8
便器
  6
CONTINUOUS
 62
     6
100
AcDbCircle
 10
510.538906
 20
981.461838
 30
0.0
 40
3.14
100
AcDbArc
 50
237.220919
 51
302.779081
  0
LINE
  5
12E
100
AcDbEntity
  8
便器
  6
CONTINUOUS
 62
     6
100
AcDbLine
 10
499.238906
 20
978.321838
 30
0.0
 11
510.538906
 21
978.321838
 31
0.0
  0
LINE
  5
12F
100
AcDbEntity
  8
便器
  6
CONTINUOUS
 62
     6
100
AcDbLine
 10
518.388906
 20
988.208585
 30
0.0
 11
518.388906
 21
985.721838
 31
0.0
  0
LINE
  5
130
100
AcDbEntity
  8
便器
  6
CONTINUOUS
 62
     6
100
AcDbLine
 10
502.388906
 20
967.22959
 30
0.0
 11
507.388906
 21
967.22959
 31
0.0
  0
LINE
  5
131
100
AcDbEntity
  8
便器
  6
CONTINUOUS
 62
     6
100
AcDbLine
 10
500.938906
 20
971.22959
 30
0.0
 11
508.838906
 21
971.22959
 31
0.0
  0
LINE
  5
132
100
AcDbEntity
  8
便器
  6
CONTINUOUS
 62
     6
100
AcDbLine
 10
501.838906
 20
971.22959
 30
0.0
 11
502.388906
 21
967.22959
 31
0.0
  0
LINE
  5
133
100
AcDbEntity
  8
便器
  6
CONTINUOUS
 62
     6
100
AcDbLine
 10
507.938906
 20
971.22959
 30
0.0
 11
507.388906
 21
967.22959
 31
0.0
  0
LINE
  5
134
100
AcDbEntity
  8
便器
  6
CONTINUOUS
 62
     6
100
AcDbLine
 10
501.838906
 20
978.321838
 30
0.0
 11
501.838906
 21
971.22959
 31
0.0
  0
LINE
  5
135
100
AcDbEntity
  8
便器
  6
CONTINUOUS
 62
     6
100
AcDbLine
 10
500.938906
 20
978.321838
 30
0.0
 11
500.938906
 21
971.22959
 31
0.0
  0
LINE
  5
136
100
AcDbEntity
  8
便器
  6
CONTINUOUS
 62
     6
100
AcDbLine
 10
507.938906
 20
978.321838
 30
0.0
 11
507.938906
 21
971.22959
 31
0.0
  0
LINE
  5
137
100
AcDbEntity
  8
便器
  6
CONTINUOUS
 62
     6
100
AcDbLine
 10
508.838906
 20
978.321838
 30
0.0
 11
508.838906
 21
971.22959
 31
0.0
  0
ARC
  5
138
100
AcDbEntity
  8
便器
  6
EXLTYPE2
 62
     6
100
AcDbCircle
 10
532.638906
 20
525.674305
 30
0.0
 40
37.5
100
AcDbArc
 50
53.60609
 51
126.39391
  0
ARC
  5
139
100
AcDbEntity
  8
便器
  6
EXLTYPE2
 62
     6
100
AcDbCircle
 10
532.638906
 20
586.04607
 30
0.0
 40
37.5
100
AcDbArc
 50
233.60609
 51
306.39391
  0
ARC
  5
13A
100
AcDbEntity
  8
便器
  6
EXLTYPE2
 62
     6
100
AcDbCircle
 10
577.138906
 20
586.04607
 30
0.0
 40
37.5
100
AcDbArc
 50
233.60609
 51
306.39391
  0
LINE
  5
13B
100
AcDbEntity
  8
便器
  6
CONTINUOUS
 62
     7
100
AcDbLine
 10
1303.0
 20
654.310688
 30
0.0
 11
1969.0
 21
654.310688
 31
0.0
  0
LINE
  5
13C
100
AcDbEntity
  8
便器
  6
EXLTYPE2
 62
     6
100
AcDbLine
 10
1622.25298
 20
678.810703
 30
0.0
 11
1745.55303
 21
678.810703
 31
0.0
  0
LINE
  5
13D
100
AcDbEntity
  8
便器
  6
EXLTYPE2
 62
     6
100
AcDbLine
 10
1620.25298
 20
699.310703
 30
0.0
 11
1747.55303
 21
699.310703
 31
0.0
  0
LINE
  5
13E
100
AcDbEntity
  8
便器
  6
CONTINUOUS
 62
     7
100
AcDbLine
 10
1853.403005
 20
1004.310688
 30
0.0
 11
1514.403005
 21
1004.310688
 31
0.0
  0
ARC
  5
13F
100
AcDbEntity
  8
便器
  6
CONTINUOUS
 62
     7
100
AcDbCircle
 10
1639.405402
 20
944.871498
 30
0.0
 40
100.0
100
AcDbArc
 50
184.271591
 51
242.450486
  0
LINE
  5
140
100
AcDbEntity
  8
便器
  6
CONTINUOUS
 62
     7
100
AcDbLine
 10
1523.203176
 20
943.830677
 30
0.0
 11
1535.438833
 21
941.995319
 31
0.0
  0
ARC
  5
141
100
AcDbEntity
  8
便器
  6
CONTINUOUS
 62
     7
100
AcDbCircle
 10
1744.553457
 20
1024.899616
 30
0.0
 40
240.0
100
AcDbArc
 50
187.08092
 51
198.380981
  0
ARC
  5
142
100
AcDbEntity
  8
便器
  6
CONTINUOUS
 62
     7
100
AcDbCircle
 10
1524.389882
 20
951.742146
 30
0.0
 40
8.0
100
AcDbArc
 50
198.38092
 51
261.46936
  0
ARC
  5
143
100
AcDbEntity
  8
便器
  6
CONTINUOUS
 62
     7
100
AcDbCircle
 10
1514.403005
 20
996.310688
 30
0.0
 40
8.0
100
AcDbArc
 50
90.0
 51
188.130009
  0
ARC
  5
144
100
AcDbEntity
  8
便器
  6
CONTINUOUS
 62
     7
100
AcDbCircle
 10
2007.889819
 20
581.816234
 30
0.0
 40
440.0
100
AcDbArc
 50
151.844447
 51
170.5167
  0
LINE
  5
145
100
AcDbEntity
  8
便器
  6
CONTINUOUS
 62
     6
100
AcDbLine
 10
1721.653005
 20
616.310688
 30
0.0
 11
1646.153005
 21
616.310688
 31
0.0
  0
LINE
  5
146
100
AcDbEntity
  8
便器
  6
EXLTYPE2
 62
     6
100
AcDbLine
 10
1623.602986
 20
654.310688
 30
0.0
 11
1623.602986
 21
678.810703
 31
0.0
  0
LINE
  5
147
100
AcDbEntity
  8
便器
  6
CONTINUOUS
 62
     6
100
AcDbLine
 10
1639.403005
 20
590.160188
 30
0.0
 11
1639.403005
 21
597.160188
 31
0.0
  0
LINE
  5
148
100
AcDbEntity
  8
便器
  6
CONTINUOUS
 62
     6
100
AcDbLine
 10
1616.802814
 20
627.716459
 30
0.0
 11
1616.802814
 21
653.363422
 31
0.0
  0
LINE
  5
149
100
AcDbEntity
  8
便器
  6
CONTINUOUS
 62
     6
100
AcDbLine
 10
1611.002948
 20
627.716459
 30
0.0
 11
1611.002948
 21
653.363422
 31
0.0
  0
ARC
  5
14A
100
AcDbEntity
  8
便器
  6
CONTINUOUS
 62
     6
100
AcDbCircle
 10
1630.999591
 20
627.341856
 30
0.0
 40
20.0
100
AcDbArc
 50
178.926758
 51
211.259766
  0
ARC
  5
14B
100
AcDbEntity
  8
便器
  6
CONTINUOUS
 62
     6
100
AcDbCircle
 10
1596.806476
 20
627.341856
 30
0.0
 40
20.0
100
AcDbArc
 50
328.740234
 51
1.073222
  0
LINE
  5
14C
100
AcDbEntity
  8
便器
  6
CONTINUOUS
 62
     6
100
AcDbLine
 10
1639.403005
 20
607.160188
 30
0.0
 11
1639.403005
 21
614.160188
 31
0.0
  0
LINE
  5
14D
100
AcDbEntity
  8
便器
  6
CONTINUOUS
 62
     6
100
AcDbLine
 10
1639.403005
 20
624.160188
 30
0.0
 11
1639.403005
 21
654.310688
 31
0.0
  0
LINE
  5
14E
100
AcDbEntity
  8
便器
  6
CONTINUOUS
 62
     6
100
AcDbLine
 10
1646.153005
 20
616.310688
 30
0.0
 11
1645.403011
 21
654.310688
 31
0.0
  0
ARC
  5
14F
100
AcDbEntity
  8
便器
  6
EXLTYPE2
 62
     6
100
AcDbCircle
 10
1622.25298
 20
680.810703
 30
0.0
 40
2.0
100
AcDbArc
 50
180.0
 51
270.0
  0
LINE
  5
150
100
AcDbEntity
  8
便器
  6
EXLTYPE2
 62
     6
100
AcDbLine
 10
1620.25298
 20
699.310703
 30
0.0
 11
1620.25298
 21
680.810703
 31
0.0
  0
LINE
  5
151
100
AcDbEntity
  8
便器
  6
CONTINUOUS
 62
     6
100
AcDbLine
 10
1728.403005
 20
590.160188
 30
0.0
 11
1728.403005
 21
597.160188
 31
0.0
  0
LINE
  5
152
100
AcDbEntity
  8
便器
  6
CONTINUOUS
 62
     6
100
AcDbLine
 10
1728.403005
 20
607.160188
 30
0.0
 11
1728.403005
 21
614.160188
 31
0.0
  0
LINE
  5
153
100
AcDbEntity
  8
便器
  6
CONTINUOUS
 62
     6
100
AcDbLine
 10
1728.403005
 20
624.160188
 30
0.0
 11
1728.403005
 21
654.310688
 31
0.0
  0
LINE
  5
154
100
AcDbEntity
  8
便器
  6
CONTINUOUS
 62
     6
100
AcDbLine
 10
1721.653005
 20
616.310688
 30
0.0
 11
1722.402999
 21
654.310688
 31
0.0
  0
ARC
  5
155
100
AcDbEntity
  8
便器
  6
CONTINUOUS
 62
     7
100
AcDbCircle
 10
1565.403005
 20
803.013664
 30
0.0
 40
60.0
100
AcDbArc
 50
15.363108
 51
62.450486
  0
ARC
  5
156
100
AcDbEntity
  8
便器
  6
CONTINUOUS
 62
     7
100
AcDbCircle
 10
1584.688329
 20
808.312369
 30
0.0
 40
40.0
100
AcDbArc
 50
331.844447
 51
15.363108
  0
ARC
  5
157
100
AcDbEntity
  8
便器
  6
CONTINUOUS
 62
     7
100
AcDbCircle
 10
1359.916192
 20
581.816234
 30
0.0
 40
440.0
100
AcDbArc
 50
9.4833
 51
28.155553
  0
LINE
  5
158
100
AcDbEntity
  8
便器
  6
EXLTYPE2
 62
     6
100
AcDbLine
 10
1744.203024
 20
654.310688
 30
0.0
 11
1744.203024
 21
678.810703
 31
0.0
  0
LINE
  5
159
100
AcDbEntity
  8
便器
  6
CONTINUOUS
 62
     6
100
AcDbLine
 10
1756.802758
 20
627.716459
 30
0.0
 11
1756.802758
 21
653.363422
 31
0.0
  0
LINE
  5
15A
100
AcDbEntity
  8
便器
  6
CONTINUOUS
 62
     6
100
AcDbLine
 10
1751.002892
 20
627.716459
 30
0.0
 11
1751.002892
 21
653.363422
 31
0.0
  0
ARC
  5
15B
100
AcDbEntity
  8
便器
  6
CONTINUOUS
 62
     6
100
AcDbCircle
 10
1770.999535
 20
627.341856
 30
0.0
 40
20.0
100
AcDbArc
 50
178.926758
 51
211.259766
  0
ARC
  5
15C
100
AcDbEntity
  8
便器
  6
CONTINUOUS
 62
     6
100
AcDbCircle
 10
1736.80642
 20
627.341856
 30
0.0
 40
20.0
100
AcDbArc
 50
328.740234
 51
1.073222
  0
ARC
  5
15D
100
AcDbEntity
  8
便器
  6
EXLTYPE2
 62
     6
100
AcDbCircle
 10
1745.55303
 20
680.810703
 30
0.0
 40
2.0
100
AcDbArc
 50
270.0
 51
0.0
  0
LINE
  5
15E
100
AcDbEntity
  8
便器
  6
EXLTYPE2
 62
     6
100
AcDbLine
 10
1747.55303
 20
699.310703
 30
0.0
 11
1747.55303
 21
680.810703
 31
0.0
  0
ARC
  5
15F
100
AcDbEntity
  8
便器
  6
CONTINUOUS
 62
     7
100
AcDbCircle
 10
1728.400609
 20
944.871498
 30
0.0
 40
100.0
100
AcDbArc
 50
297.549514
 51
355.728409
  0
ARC
  5
160
100
AcDbEntity
  8
便器
  6
CONTINUOUS
 62
     7
100
AcDbCircle
 10
1802.403005
 20
803.013664
 30
0.0
 40
60.0
100
AcDbArc
 50
117.549514
 51
164.636892
  0
ARC
  5
161
100
AcDbEntity
  8
便器
  6
CONTINUOUS
 62
     7
100
AcDbCircle
 10
1783.117682
 20
808.312369
 30
0.0
 40
40.0
100
AcDbArc
 50
164.636892
 51
208.155553
  0
ARC
  5
162
100
AcDbEntity
  8
便器
  6
CONTINUOUS
 62
     7
100
AcDbCircle
 10
1623.252553
 20
1024.899616
 30
0.0
 40
240.0
100
AcDbArc
 50
341.619019
 51
352.91908
  0
ARC
  5
163
100
AcDbEntity
  8
便器
  6
CONTINUOUS
 62
     7
100
AcDbCircle
 10
1843.416128
 20
951.742146
 30
0.0
 40
8.0
100
AcDbArc
 50
278.53064
 51
341.61908
  0
LINE
  5
164
100
AcDbEntity
  8
便器
  6
CONTINUOUS
 62
     7
100
AcDbLine
 10
1844.602834
 20
943.830677
 30
0.0
 11
1832.367177
 21
941.995319
 31
0.0
  0
ARC
  5
165
100
AcDbEntity
  8
便器
  6
CONTINUOUS
 62
     7
100
AcDbCircle
 10
1853.403005
 20
996.310688
 30
0.0
 40
8.0
100
AcDbArc
 50
351.869991
 51
90.0
  0
ARC
  5
166
100
AcDbEntity
  8
便器
  6
CONTINUOUS
 62
     2
100
AcDbCircle
 10
1506.267629
 20
1344.366535
 30
0.0
 40
400.0
100
AcDbArc
 50
272.512308
 51
282.802368
  0
ARC
  5
167
100
AcDbEntity
  8
便器
  6
CONTINUOUS
 62
     2
100
AcDbCircle
 10
1478.768911
 20
1337.080463
 30
0.0
 40
400.0
100
AcDbArc
 50
278.573914
 51
286.878052
  0
ARC
  5
168
100
AcDbEntity
  8
便器
  6
CONTINUOUS
 62
     2
100
AcDbCircle
 10
1889.037099
 20
1337.080463
 30
0.0
 40
400.0
100
AcDbArc
 50
253.121948
 51
261.426086
  0
ARC
  5
169
100
AcDbEntity
  8
便器
  6
CONTINUOUS
 62
     2
100
AcDbCircle
 10
1861.538381
 20
1344.366535
 30
0.0
 40
400.0
100
AcDbArc
 50
257.197632
 51
267.487692
  0
ARC
  5
16A
100
AcDbEntity
  8
便器
  6
CONTINUOUS
 62
     7
100
AcDbCircle
 10
1534.697072
 20
937.050648
 30
0.0
 40
5.0
100
AcDbArc
 50
4.271591
 51
81.469269
  0
ARC
  5
16B
100
AcDbEntity
  8
便器
  6
CONTINUOUS
 62
     7
100
AcDbCircle
 10
1833.108938
 20
937.050648
 30
0.0
 40
5.0
100
AcDbArc
 50
98.530731
 51
175.728409
  0
ARC
  5
16C
100
AcDbEntity
  8
便器
  6
EXLTYPE2
 62
     6
100
AcDbCircle
 10
1661.653005
 20
525.674305
 30
0.0
 40
37.5
100
AcDbArc
 50
53.60609
 51
126.39391
  0
ARC
  5
16D
100
AcDbEntity
  8
便器
  6
EXLTYPE2
 62
     6
100
AcDbCircle
 10
1661.653005
 20
586.04607
 30
0.0
 40
37.5
100
AcDbArc
 50
233.60609
 51
306.39391
  0
LINE
  5
16E
100
AcDbEntity
  8
便器
  6
EXLTYPE2
 62
     6
100
AcDbLine
 10
1639.403005
 20
555.860188
 30
0.0
 11
1639.403005
 21
580.160188
 31
0.0
  0
ARC
  5
16F
100
AcDbEntity
  8
便器
  6
EXLTYPE2
 62
     6
100
AcDbCircle
 10
1706.153005
 20
586.04607
 30
0.0
 40
37.5
100
AcDbArc
 50
233.60609
 51
306.39391
  0
LINE
  5
170
100
AcDbEntity
  8
便器
  6
EXLTYPE2
 62
     6
100
AcDbLine
 10
1728.403005
 20
555.860188
 30
0.0
 11
1728.403005
 21
580.160188
 31
0.0
  0
ARC
  5
171
100
AcDbEntity
  8
便器
  6
EXLTYPE2
 62
     2
100
AcDbCircle
 10
671.982412
 20
2456.172993
 30
0.0
 40
210.0
100
AcDbArc
 50
187.624351
 51
204.500732
  0
ARC
  5
172
100
AcDbEntity
  8
便器
  6
EXLTYPE2
 62
     2
100
AcDbCircle
 10
671.982412
 20
2400.448383
 30
0.0
 40
210.0
100
AcDbArc
 50
154.892395
 51
172.375649
  0
ARC
  5
173
100
AcDbEntity
  8
便器
  6
EXLTYPE2
 62
     2
100
AcDbCircle
 10
833.732015
 20
2474.671497
 30
0.0
 40
400.0
100
AcDbArc
 50
186.655655
 51
207.312555
  0
ARC
  5
174
100
AcDbEntity
  8
便器
  6
EXLTYPE2
 62
     2
100
AcDbCircle
 10
833.732015
 20
2381.949879
 30
0.0
 40
400.0
100
AcDbArc
 50
152.687439
 51
173.344345
  0
LINE
  5
175
100
AcDbEntity
  8
便器
  6
EXLTYPE3
 62
     6
100
AcDbLine
 10
1683.903005
 20
535.860188
 30
0.0
 11
1683.903005
 21
1497.0
 31
0.0
  0
ARC
  5
176
100
AcDbEntity
  8
便器
  6
CONTINUOUS
 62
     7
100
AcDbCircle
 10
1804.863606
 20
490.091921
 30
0.0
 40
1350.0
100
AcDbArc
 50
166.17797
 51
171.537458
  0
ARC
  5
177
100
AcDbEntity
  8
便器
  6
CONTINUOUS
 62
     7
100
AcDbCircle
 10
1804.863606
 20
490.091921
 30
0.0
 40
1350.0
100
AcDbArc
 50
171.903794
 51
172.328376
  0
DIMENSION
  5
183
100
AcDbEntity
  8
タンク
  6
CONTINUOUS
 62
     3
100
AcDbDimension
  2
*D14
 10
594.888748
 20
1559.310688
 30
0.0
 11
482.453945
 21
1582.810688
 31
0.0
 70
   160
  1
225
  3
STANDARD
100
AcDbAlignedDimension
 13
370.019141
 23
1472.145488
 33
0.0
 14
594.888748
 24
1559.310688
 34
0.0
100
AcDbRotatedDimension
1001
ACAD
1000
DSTYLE
1002
{
1070
     6
1000
_EX_NORM
1070
     7
1000
_EX_NORM
1070
    41
1040
35.0
1070
    42
1040
7.0
1070
    44
1040
20.0
1070
    73
1070
     0
1070
    74
1070
     0
1070
    75
1070
     0
1070
    76
1070
     1
1070
    77
1070
     1
1070
    78
1070
     0
1070
   140
1040
40.0
1070
   147
1040
3.5
1070
   173
1070
     1
1070
   176
1070
     3
1070
   177
1070
     3
1070
   178
1070
     2
1070
   271
1070
     0
1070
   279
1070
     2
1070
   280
1070
     0
1070
   287
1070
     5
1070
   340
1005
182
1002
}
  0
DIMENSION
  5
18F
100
AcDbEntity
  8
タンク
  6
CONTINUOUS
 62
     3
100
AcDbDimension
  2
*D15
 10
1901.403005
 20
1559.310688
 30
0.0
 11
1683.903005
 21
1582.810688
 31
0.0
 70
   160
  1
435
  3
STANDARD
100
AcDbAlignedDimension
 13
1466.403005
 23
1419.310688
 33
0.0
 14
1901.403005
 24
1419.310688
 34
0.0
100
AcDbRotatedDimension
1001
ACAD
1000
DSTYLE
1002
{
1070
     6
1000
_EX_NORM
1070
     7
1000
_EX_NORM
1070
    41
1040
35.0
1070
    42
1040
7.0
1070
    44
1040
20.0
1070
    73
1070
     0
1070
    74
1070
     0
1070
    75
1070
     0
1070
    76
1070
     0
1070
    77
1070
     1
1070
    78
1070
     0
1070
   140
1040
40.0
1070
   147
1040
3.5
1070
   173
1070
     1
1070
   176
1070
     3
1070
   177
1070
     3
1070
   178
1070
     2
1070
   271
1070
     0
1070
   279
1070
     2
1070
   280
1070
     0
1070
   287
1070
     5
1070
   340
1005
182
1002
}
  0
ARC
  5
190
100
AcDbEntity
  8
タンク
  6
CONTINUOUS
 62
     7
100
AcDbCircle
 10
-2007.112038
 20
2428.310688
 30
0.0
 40
2602.0
100
AcDbArc
 50
356.069023
 51
3.913289
  0
ARC
  5
191
100
AcDbEntity
  8
タンク
  6
CONTINUOUS
 62
     7
100
AcDbCircle
 10
1377.43113
 20
2428.310688
 30
0.0
 40
1007.543168
100
AcDbArc
 50
169.038434
 51
190.961566
  0
LINE
  5
192
100
AcDbEntity
  8
タンク
  6
CONTINUOUS
 62
     7
100
AcDbLine
 10
546.865204
 20
2210.810688
 30
0.0
 11
419.686789
 21
2210.810688
 31
0.0
  0
ARC
  5
193
100
AcDbEntity
  8
タンク
  6
CONTINUOUS
 62
     7
100
AcDbCircle
 10
419.686789
 20
2242.810688
 30
0.0
 40
32.0
100
AcDbArc
 50
190.961566
 51
270.0
  0
ARC
  5
194
100
AcDbEntity
  8
タンク
  6
CONTINUOUS
 62
     7
100
AcDbCircle
 10
546.865204
 20
2252.810688
 30
0.0
 40
42.0
100
AcDbArc
 50
270.0
 51
356.069023
  0
LINE
  5
195
100
AcDbEntity
  8
タンク
  6
CONTINUOUS
 62
     7
100
AcDbLine
 10
546.865204
 20
2645.810688
 30
0.0
 11
419.686789
 21
2645.810688
 31
0.0
  0
ARC
  5
196
100
AcDbEntity
  8
タンク
  6
CONTINUOUS
 62
     7
100
AcDbCircle
 10
419.686789
 20
2613.810688
 30
0.0
 40
32.0
100
AcDbArc
 50
90.0
 51
169.038434
  0
ARC
  5
197
100
AcDbEntity
  8
タンク
  6
CONTINUOUS
 62
     7
100
AcDbCircle
 10
546.865204
 20
2603.810688
 30
0.0
 40
42.0
100
AcDbArc
 50
3.930977
 51
90.0
  0
ARC
  5
198
100
AcDbEntity
  8
タンク
  6
CONTINUOUS
 62
     7
100
AcDbCircle
 10
-5417.109107
 20
1414.424374
 30
0.0
 40
6010.0
100
AcDbArc
 50
356.888701
 51
0.046583
  0
LINE
  5
199
100
AcDbEntity
  8
タンク
  6
CONTINUOUS
 62
     7
100
AcDbLine
 10
403.547625
 20
1019.310688
 30
0.0
 11
567.229202
 21
1019.310688
 31
0.0
  0
ARC
  5
19A
100
AcDbEntity
  8
タンク
  6
CONTINUOUS
 62
     7
100
AcDbCircle
 10
403.547625
 20
1031.310688
 30
0.0
 40
12.0
100
AcDbArc
 50
181.619491
 51
270.0
  0
ARC
  5
19B
100
AcDbEntity
  8
タンク
  6
CONTINUOUS
 62
     7
100
AcDbCircle
 10
-414.493918
 20
1142.502936
 30
0.0
 40
1000.0
100
AcDbArc
 50
353.538085
 51
356.888701
  0
ARC
  5
19C
100
AcDbEntity
  8
タンク
  6
CONTINUOUS
 62
     7
100
AcDbCircle
 10
567.229202
 20
1031.310688
 30
0.0
 40
12.0
100
AcDbArc
 50
270.0
 51
353.538085
  0
ARC
  5
19D
100
AcDbEntity
  8
タンク
  6
CONTINUOUS
 62
     7
100
AcDbCircle
 10
395.729897
 20
1381.187324
 30
0.0
 40
20.0
100
AcDbArc
 50
181.256498
 51
220.0
  0
LINE
  5
19E
100
AcDbEntity
  8
タンク
  6
CONTINUOUS
 62
     7
100
AcDbLine
 10
374.888906
 20
1419.310688
 30
0.0
 11
375.734706
 21
1380.748759
 31
0.0
  0
ARC
  5
19F
100
AcDbEntity
  8
タンク
  6
CONTINUOUS
 62
     7
100
AcDbCircle
 10
377.642874
 20
1356.070884
 30
0.0
 40
10.0
100
AcDbArc
 50
25.583939
 51
40.0
  0
LINE
  5
1A0
100
AcDbEntity
  8
タンク
  6
CONTINUOUS
 62
     7
100
AcDbLine
 10
380.409008
 20
1368.331572
 30
0.0
 11
385.303318
 21
1362.49876
 31
0.0
  0
ARC
  5
1A1
100
AcDbEntity
  8
タンク
  6
CONTINUOUS
 62
     7
100
AcDbCircle
 10
377.642874
 20
1356.070884
 30
0.0
 40
10.0
100
AcDbArc
 50
359.758695
 51
25.583939
  0
LINE
  5
1A2
100
AcDbEntity
  8
タンク
  6
CONTINUOUS
 62
     6
100
AcDbLine
 10
462.922239
 20
1015.810688
 30
0.0
 11
416.922239
 21
1015.810688
 31
0.0
  0
LINE
  5
1A3
100
AcDbEntity
  8
タンク
  6
CONTINUOUS
 62
     6
100
AcDbLine
 10
415.922239
 20
1016.810688
 30
0.0
 11
415.922239
 21
1019.310688
 31
0.0
  0
ARC
  5
1A4
100
AcDbEntity
  8
タンク
  6
CONTINUOUS
 62
     6
100
AcDbCircle
 10
416.922239
 20
1016.810688
 30
0.0
 40
1.0
100
AcDbArc
 50
180.0
 51
270.0
  0
LINE
  5
1A5
100
AcDbEntity
  8
タンク
  6
CONTINUOUS
 62
     6
100
AcDbLine
 10
463.922239
 20
1016.810688
 30
0.0
 11
463.922239
 21
1019.310688
 31
0.0
  0
ARC
  5
1A6
100
AcDbEntity
  8
タンク
  6
CONTINUOUS
 62
     6
100
AcDbCircle
 10
462.922239
 20
1016.810688
 30
0.0
 40
1.0
100
AcDbArc
 50
270.0
 51
0.0
  0
ARC
  5
1A7
100
AcDbEntity
  8
タンク
  6
CONTINUOUS
 62
     7
100
AcDbCircle
 10
10397.55401
 20
1313.871085
 30
0.0
 40
10010.0
100
AcDbArc
 50
179.758695
 51
181.619491
  0
LINE
  5
1A8
100
AcDbEntity
  8
タンク
  6
CONTINUOUS
 62
     7
100
AcDbLine
 10
594.975716
 20
1419.310688
 30
0.0
 11
374.888842
 21
1419.310688
 31
0.0
  0
ARC
  5
1A9
100
AcDbEntity
  8
タンク
  6
CONTINUOUS
 62
     7
100
AcDbCircle
 10
297.678168
 20
-523.837423
 30
0.0
 40
2000.0
100
AcDbArc
 50
81.724231
 51
87.714897
  0
ARC
  5
1AA
100
AcDbEntity
  8
タンク
  6
CONTINUOUS
 62
     7
100
AcDbCircle
 10
1169.796326
 20
1491.02547
 30
0.0
 40
800.0
100
AcDbArc
 50
181.352305
 51
185.011856
  0
ARC
  5
1AB
100
AcDbEntity
  8
タンク
  6
CONTINUOUS
 62
     7
100
AcDbCircle
 10
374.847366
 20
1421.310688
 30
0.0
 40
2.0
100
AcDbArc
 50
185.011856
 51
270.0
  0
ARC
  5
1AC
100
AcDbEntity
  8
タンク
  6
CONTINUOUS
 62
     7
100
AcDbCircle
 10
377.017191
 20
1472.310688
 30
0.0
 40
7.0
100
AcDbArc
 50
49.274085
 51
181.352305
  0
ARC
  5
1AD
100
AcDbEntity
  8
タンク
  6
CONTINUOUS
 62
     7
100
AcDbCircle
 10
377.143058
 20
1467.577735
 30
0.0
 40
7.0
100
AcDbArc
 50
87.714897
 51
181.694391
  0
ARC
  5
1AE
100
AcDbEntity
  8
タンク
  6
CONTINUOUS
 62
     7
100
AcDbCircle
 10
391.370899
 20
1488.983153
 30
0.0
 40
15.0
100
AcDbArc
 50
229.274085
 51
267.334921
  0
ARC
  5
1AF
100
AcDbEntity
  8
タンク
  6
CONTINUOUS
 62
     7
100
AcDbCircle
 10
584.258137
 20
1446.429798
 30
0.0
 40
9.0
100
AcDbArc
 50
5.284383
 51
81.724231
  0
ARC
  5
1B0
100
AcDbEntity
  8
タンク
  6
CONTINUOUS
 62
     7
100
AcDbCircle
 10
95.344966
 20
1401.209101
 30
0.0
 40
500.0
100
AcDbArc
 50
2.074743
 51
5.284383
  0
LINE
  5
1B1
100
AcDbEntity
  8
タンク
  6
CONTINUOUS
 62
     3
100
AcDbLine
 10
594.888748
 20
1428.000182
 30
0.0
 11
594.888748
 21
1579.310688
 31
0.0
  0
ARC
  5
1B2
100
AcDbEntity
  8
タンク
  6
CONTINUOUS
 62
     7
100
AcDbCircle
 10
11466.651936
 20
1606.442522
 30
0.0
 40
10000.0
100
AcDbArc
 50
181.072249
 51
181.63932
  0
ARC
  5
1B3
100
AcDbEntity
  8
タンク
  6
CONTINUOUS
 62
     7
100
AcDbCircle
 10
-8098.845925
 20
1606.442522
 30
0.0
 40
10000.0
100
AcDbArc
 50
358.36068
 51
358.927751
  0
LINE
  5
1B4
100
AcDbEntity
  8
タンク
  6
CONTINUOUS
 62
     7
100
AcDbLine
 10
1466.403005
 20
1419.310688
 30
0.0
 11
1901.738264
 21
1419.310688
 31
0.0
  0
LINE
  5
1B5
100
AcDbEntity
  8
タンク
  6
CONTINUOUS
 62
     7
100
AcDbLine
 10
1466.403005
 20
1419.310688
 30
0.0
 11
1901.403005
 21
1419.310688
 31
0.0
  0
ARC
  5
1B6
100
AcDbEntity
  8
タンク
  6
CONTINUOUS
 62
     7
100
AcDbCircle
 10
1683.903005
 20
-26.594308
 30
0.0
 40
1505.904996
100
AcDbArc
 50
82.077721
 51
90.0
  0
ARC
  5
1B7
100
AcDbEntity
  8
タンク
  6
CONTINUOUS
 62
     6
100
AcDbCircle
 10
1683.903005
 20
-831.201812
 30
0.0
 40
2305.5125
100
AcDbArc
 50
84.834815
 51
90.0
  0
LINE
  5
1B8
100
AcDbEntity
  8
タンク
  6
CONTINUOUS
 62
     7
100
AcDbLine
 10
1891.142635
 20
1454.310688
 30
0.0
 11
1476.663376
 21
1454.310688
 31
0.0
  0
ARC
  5
1B9
100
AcDbEntity
  8
タンク
  6
CONTINUOUS
 62
     7
100
AcDbCircle
 10
1683.903005
 20
-26.594308
 30
0.0
 40
1505.904996
100
AcDbArc
 50
90.0
 51
97.922279
  0
ARC
  5
1BA
100
AcDbEntity
  8
タンク
  6
CONTINUOUS
 62
     6
100
AcDbCircle
 10
1683.903005
 20
-831.201812
 30
0.0
 40
2305.5125
100
AcDbArc
 50
90.0
 51
95.165185
  0
ARC
  5
1BB
100
AcDbEntity
  8
タンク
  6
CONTINUOUS
 62
     7
100
AcDbCircle
 10
1476.663376
 20
1445.310688
 30
0.0
 40
9.0
100
AcDbArc
 50
90.0
 51
175.710402
  0
ARC
  5
1BC
100
AcDbEntity
  8
タンク
  6
CONTINUOUS
 62
     7
100
AcDbCircle
 10
1966.287952
 20
1408.585025
 30
0.0
 40
500.0
100
AcDbArc
 50
174.455585
 51
178.770835
  0
ARC
  5
1BD
100
AcDbEntity
  8
タンク
  6
CONTINUOUS
 62
     7
100
AcDbCircle
 10
1477.585046
 20
1456.024142
 30
0.0
 40
9.0
100
AcDbArc
 50
95.154384
 51
174.455585
  0
ARC
  5
1BE
100
AcDbEntity
  8
タンク
  6
CONTINUOUS
 62
     7
100
AcDbCircle
 10
1891.142635
 20
1445.310688
 30
0.0
 40
9.0
100
AcDbArc
 50
4.289598
 51
90.0
  0
ARC
  5
1BF
100
AcDbEntity
  8
タンク
  6
CONTINUOUS
 62
     7
100
AcDbCircle
 10
1401.518058
 20
1408.585025
 30
0.0
 40
500.0
100
AcDbArc
 50
1.229165
 51
5.544415
  0
ARC
  5
1C0
100
AcDbEntity
  8
タンク
  6
CONTINUOUS
 62
     7
100
AcDbCircle
 10
1890.220964
 20
1456.024142
 30
0.0
 40
9.0
100
AcDbArc
 50
5.544415
 51
84.845616
  0
ARC
  5
1C1
100
AcDbEntity
  8
タンク
  6
CONTINUOUS
 62
     7
100
AcDbCircle
 10
3170.048975
 20
1368.999246
 30
0.0
 40
1700.0
100
AcDbArc
 50
181.63932
 51
191.425991
  0
ARC
  5
1C2
100
AcDbEntity
  8
タンク
  6
CONTINUOUS
 62
     7
100
AcDbCircle
 10
197.757036
 20
1368.999246
 30
0.0
 40
1700.0
100
AcDbArc
 50
348.574009
 51
358.36068
  0
LINE
  5
1C3
100
AcDbEntity
  8
タンク
  6
CONTINUOUS
 62
     6
100
AcDbLine
 10
543.130299
 20
2645.810843
 30
0.0
 11
543.130299
 21
2661.354793
 31
0.0
  0
ARC
  5
1C4
100
AcDbEntity
  8
タンク
  6
CONTINUOUS
 62
     6
100
AcDbCircle
 10
524.885499
 20
2664.623673
 30
0.0
 40
9.1224
100
AcDbArc
 50
90.0
 51
99.33316
  0
ARC
  5
1C5
100
AcDbEntity
  8
タンク
  6
CONTINUOUS
 62
     6
100
AcDbCircle
 10
526.364949
 20
2655.621879
 30
0.0
 40
18.244958
100
AcDbArc
 50
99.33316
 51
122.19651
  0
ARC
  5
1C6
100
AcDbEntity
  8
タンク
  6
CONTINUOUS
 62
     6
100
AcDbCircle
 10
502.568449
 20
2683.670573
 30
0.0
 40
19.2584
100
AcDbArc
 50
293.546326
 51
305.556152
  0
ARC
  5
1C7
100
AcDbEntity
  8
タンク
  6
CONTINUOUS
 62
     6
100
AcDbCircle
 10
510.695099
 20
2661.354783
 30
0.0
 40
4.0544
100
AcDbArc
 50
164.010132
 51
180.0
  0
ARC
  5
1C8
100
AcDbEntity
  8
タンク
  6
CONTINUOUS
 62
     6
100
AcDbCircle
 10
511.669509
 20
2661.075583
 30
0.0
 40
5.068
100
AcDbArc
 50
117.411407
 51
164.010132
  0
ARC
  5
1C9
100
AcDbEntity
  8
タンク
  6
CONTINUOUS
 62
     6
100
AcDbCircle
 10
498.113979
 20
2689.908943
 30
0.0
 40
26.92688
100
AcDbArc
 50
305.556152
 51
308.724487
  0
ARC
  5
1CA
100
AcDbEntity
  8
タンク
  6
CONTINUOUS
 62
     6
100
AcDbCircle
 10
518.803869
 20
2667.630293
 30
0.0
 40
4.0544
100
AcDbArc
 50
122.196686
 51
161.721527
  0
ARC
  5
1CB
100
AcDbEntity
  8
タンク
  6
CONTINUOUS
 62
     6
100
AcDbCircle
 10
539.075899
 20
2661.354793
 30
0.0
 40
4.0544
100
AcDbArc
 50
0.0
 51
15.989868
  0
ARC
  5
1CC
100
AcDbEntity
  8
タンク
  6
CONTINUOUS
 62
     6
100
AcDbCircle
 10
533.435119
 20
2652.077603
 30
0.0
 40
15.204
100
AcDbArc
 50
62.588623
 51
66.453674
  0
ARC
  5
1CD
100
AcDbEntity
  8
タンク
  6
CONTINUOUS
 62
     6
100
AcDbCircle
 10
538.101519
 20
2661.075573
 30
0.0
 40
5.068
100
AcDbArc
 50
15.989868
 51
62.588623
  0
ARC
  5
1CE
100
AcDbEntity
  8
タンク
  6
CONTINUOUS
 62
     6
100
AcDbCircle
 10
538.101519
 20
2661.075573
 30
0.0
 40
5.068
100
AcDbArc
 50
15.989868
 51
62.588623
  0
ARC
  5
1CF
100
AcDbEntity
  8
タンク
  6
CONTINUOUS
 62
     6
100
AcDbCircle
 10
530.966609
 20
2667.630613
 30
0.0
 40
4.0544
100
AcDbArc
 50
18.280151
 51
57.805664
  0
ARC
  5
1D0
100
AcDbEntity
  8
タンク
  6
CONTINUOUS
 62
     6
100
AcDbCircle
 10
524.885499
 20
2664.623673
 30
0.0
 40
9.1224
100
AcDbArc
 50
80.66687
 51
90.0
  0
ARC
  5
1D1
100
AcDbEntity
  8
タンク
  6
CONTINUOUS
 62
     6
100
AcDbCircle
 10
523.406089
 20
2655.622043
 30
0.0
 40
18.2448
100
AcDbArc
 50
57.805664
 51
80.66687
  0
ARC
  5
1D2
100
AcDbEntity
  8
タンク
  6
CONTINUOUS
 62
     6
100
AcDbCircle
 10
551.661759
 20
2689.909243
 30
0.0
 40
26.92688
100
AcDbArc
 50
231.274048
 51
234.443848
  0
ARC
  5
1D3
100
AcDbEntity
  8
タンク
  6
CONTINUOUS
 62
     6
100
AcDbCircle
 10
547.202549
 20
2683.670573
 30
0.0
 40
19.2584
100
AcDbArc
 50
234.443848
 51
246.453674
  0
ARC
  5
1D4
100
AcDbEntity
  8
タンク
  6
CONTINUOUS
 62
     6
100
AcDbCircle
 10
516.335879
 20
2652.077603
 30
0.0
 40
15.204
100
AcDbArc
 50
113.546326
 51
117.411407
  0
LINE
  5
1D5
100
AcDbEntity
  8
タンク
  6
CONTINUOUS
 62
     6
100
AcDbLine
 10
506.645439
 20
2645.810533
 30
0.0
 11
506.645439
 21
2661.354483
 31
0.0
  0
ARC
  5
1D6
100
AcDbEntity
  8
タンク
  6
CONTINUOUS
 62
     6
100
AcDbCircle
 10
1902.459477
 20
1349.442225
 30
0.0
 40
25.0
100
AcDbArc
 50
0.0
 51
26.603699
  0
ARC
  5
1D7
100
AcDbEntity
  8
タンク
  6
CONTINUOUS
 62
     6
100
AcDbCircle
 10
2002.290807
 20
1387.328105
 30
0.0
 40
77.0
100
AcDbArc
 50
188.557007
 51
192.856995
  0
ARC
  5
1D8
100
AcDbEntity
  8
タンク
  6
CONTINUOUS
 62
     6
100
AcDbCircle
 10
1572.154707
 20
1313.828345
 30
0.0
 40
360.0
100
AcDbArc
 50
8.72937
 51
10.635132
  0
ARC
  5
1D9
100
AcDbEntity
  8
タンク
  6
CONTINUOUS
 62
     6
100
AcDbCircle
 10
1932.095957
 20
1371.306765
 30
0.0
 40
5.0
100
AcDbArc
 50
192.857056
 51
214.698669
  0
ARC
  5
1DA
100
AcDbEntity
  8
タンク
  6
CONTINUOUS
 62
     6
100
AcDbCircle
 10
1930.845807
 20
1379.156755
 30
0.0
 40
5.0
100
AcDbArc
 50
167.391174
 51
182.519958
  0
ARC
  5
1DB
100
AcDbEntity
  8
タンク
  6
CONTINUOUS
 62
     6
100
AcDbCircle
 10
1955.069727
 20
1380.222835
 30
0.0
 40
29.24737
100
AcDbArc
 50
182.519958
 51
188.557007
  0
ARC
  5
1DC
100
AcDbEntity
  8
タンク
  6
CONTINUOUS
 62
     6
100
AcDbCircle
 10
1913.459477
 20
1335.624165
 30
0.0
 40
18.0
100
AcDbArc
 50
328.506104
 51
3.653961
  0
ARC
  5
1DD
100
AcDbEntity
  8
タンク
  6
CONTINUOUS
 62
     6
100
AcDbCircle
 10
1925.397217
 20
1328.310455
 30
0.0
 40
4.0
100
AcDbArc
 50
270.0
 51
328.506104
  0
ARC
  5
1DE
100
AcDbEntity
  8
タンク
  6
CONTINUOUS
 62
     6
100
AcDbCircle
 10
1572.154707
 20
1313.828345
 30
0.0
 40
360.0
100
AcDbArc
 50
3.653961
 51
8.72937
  0
LINE
  5
1DF
100
AcDbEntity
  8
タンク
  6
CONTINUOUS
 62
     6
100
AcDbLine
 10
1927.459477
 20
1349.442225
 30
0.0
 11
1927.459477
 21
1324.883055
 31
0.0
  0
LINE
  5
1E0
100
AcDbEntity
  8
タンク
  6
CONTINUOUS
 62
     6
100
AcDbLine
 10
1921.636367
 20
1391.509015
 30
0.0
 11
1921.636367
 21
1374.072155
 31
0.0
  0
ARC
  5
1E1
100
AcDbEntity
  8
タンク
  6
CONTINUOUS
 62
     6
100
AcDbCircle
 10
1919.234447
 20
1388.310455
 30
0.0
 40
4.0
100
AcDbArc
 50
25.944489
 51
90.0
  0
LINE
  5
1E2
100
AcDbEntity
  8
タンク
  6
CONTINUOUS
 62
     6
100
AcDbLine
 10
1900.459457
 20
1376.810455
 30
0.0
 11
1900.459457
 21
1371.810455
 31
0.0
  0
LINE
  5
1E3
100
AcDbEntity
  8
タンク
  6
CONTINUOUS
 62
     6
100
AcDbLine
 10
1900.459457
 20
1390.560455
 30
0.0
 11
1898.459447
 21
1390.560455
 31
0.0
  0
LINE
  5
1E4
100
AcDbEntity
  8
タンク
  6
CONTINUOUS
 62
     6
100
AcDbLine
 10
1900.459457
 20
1358.060455
 30
0.0
 11
1898.459457
 21
1358.060455
 31
0.0
  0
LINE
  5
1E5
100
AcDbEntity
  8
タンク
  6
CONTINUOUS
 62
     6
100
AcDbLine
 10
1900.459457
 20
1356.310455
 30
0.0
 11
1901.562507
 21
1356.310455
 31
0.0
  0
LINE
  5
1E6
100
AcDbEntity
  8
タンク
  6
CONTINUOUS
 62
     6
100
AcDbLine
 10
1900.459457
 20
1392.310455
 30
0.0
 11
1900.459457
 21
1356.310455
 31
0.0
  0
ARC
  5
1E7
100
AcDbEntity
  8
タンク
  6
CONTINUOUS
 62
     6
100
AcDbCircle
 10
1881.459477
 20
1343.200615
 30
0.0
 40
24.0
100
AcDbArc
 50
0.0
 51
35.659302
  0
ARC
  5
1E8
100
AcDbEntity
  8
タンク
  6
CONTINUOUS
 62
     6
100
AcDbCircle
 10
1881.959427
 20
1347.575475
 30
0.0
 40
24.0
100
AcDbArc
 50
0.0
 51
37.658508
  0
LINE
  5
1E9
100
AcDbEntity
  8
タンク
  6
CONTINUOUS
 62
     6
100
AcDbLine
 10
1919.234447
 20
1392.310455
 30
0.0
 11
1900.459457
 21
1392.310455
 31
0.0
  0
LINE
  5
1EA
100
AcDbEntity
  8
タンク
  6
CONTINUOUS
 62
     6
100
AcDbLine
 10
1905.459477
 20
1344.426635
 30
0.0
 11
1905.459477
 21
1324.310455
 31
0.0
  0
LINE
  5
1EB
100
AcDbEntity
  8
タンク
  6
CONTINUOUS
 62
     6
100
AcDbLine
 10
1905.959477
 20
1347.575475
 30
0.0
 11
1905.959477
 21
1324.310455
 31
0.0
  0
LINE
  5
1EC
100
AcDbEntity
  8
タンク
  6
CONTINUOUS
 62
     6
100
AcDbLine
 10
1925.397217
 20
1324.310455
 30
0.0
 11
1905.459477
 21
1324.310455
 31
0.0
  0
ARC
  5
1ED
100
AcDbEntity
  8
タンク
  6
CONTINUOUS
 62
     6
100
AcDbCircle
 10
1890.459457
 20
1374.310455
 30
0.0
 40
36.0
100
AcDbArc
 50
9.493713
 51
25.944489
  0
ARC
  5
1EE
100
AcDbEntity
  8
タンク
  6
CONTINUOUS
 62
     6
100
AcDbCircle
 10
1951.636367
 20
1374.072155
 30
0.0
 40
30.0
100
AcDbArc
 50
180.0
 51
206.603699
  0
LEADER
  5
1EF
100
AcDbEntity
  8
止水栓
  6
CONTINUOUS
 62
     6
100
AcDbLeader
  3
STANDARD
 73
     3
 74
     1
 75
     0
 40
0.0
 76
     2
 10
444.588906
 20
650.642677
 30
0.0
 10
325.0
 20
586.0
 30
0.0
 77
     6
1001
ACAD
1000
DSTYLE
1002
{
1070
    41
1040
35.0
1070
     5
1000
_EX_NORM
1070
     6
1000
_EX_NORM
1070
     7
1000
_EX_NORM
1070
   341
1005
2F
1002
}
  0
LEADER
  5
1F0
100
AcDbEntity
  8
止水栓
  6
CONTINUOUS
 62
     6
100
AcDbLeader
  3
STANDARD
 73
     3
 74
     1
 75
     0
 40
0.0
 76
     2
 10
599.388913
 20
555.860056
 30
0.0
 10
662.944496
 20
436.623034
 30
0.0
 77
     6
1001
ACAD
1000
DSTYLE
1002
{
1070
    41
1040
35.0
1070
     5
1000
_EX_NORM
1070
     6
1000
_EX_NORM
1070
     7
1000
_EX_NORM
1070
   341
1005
2F
1002
}
  0
LINE
  5
1F1
100
AcDbEntity
  8
止水栓
  6
CONTINUOUS
 62
     6
100
AcDbLine
 10
325.0
 20
586.0
 30
0.0
 11
234.357836
 21
586.0
 31
0.0
  0
TEXT
  5
1F2
100
AcDbEntity
  8
止水栓
  6
CONTINUOUS
 62
     2
100
AcDbText
 10
300.957836
 20
589.4
 30
0.0
 40
25.0
  1
２
 41
0.84
  7
EXCADSTD
 72
     5
 11
320.957836
 21
589.4
 31
0.0
100
AcDbText
  0
TEXT
  5
1F3
100
AcDbEntity
  8
止水栓
  6
CONTINUOUS
 62
     6
100
AcDbText
 10
280.357836
 20
589.5
 30
0.0
 40
40.0
  1
／ 
 41
0.945
  7
EXCADSTD
 72
     5
 11
316.357836
 21
589.5
 31
0.0
100
AcDbText
  0
TEXT
  5
1F4
100
AcDbEntity
  8
止水栓
  6
CONTINUOUS
 62
     2
100
AcDbText
 10
233.857836
 20
589.5
 30
0.0
 40
40.0
  1
Ｒ
 41
0.945
  7
EXCADSTD
 72
     5
 11
269.857836
 21
589.5
 31
0.0
100
AcDbText
  0
TEXT
  5
1F5
100
AcDbEntity
  8
止水栓
  6
CONTINUOUS
 62
     2
100
AcDbText
 10
270.357836
 20
604.7
 30
0.0
 40
25.0
  1
１
 41
0.84
  7
EXCADSTD
 72
     5
 11
290.357836
 21
604.7
 31
0.0
100
AcDbText
  0
LINE
  5
1F6
100
AcDbEntity
  8
止水栓
  6
EXLTYPE3
 62
     6
100
AcDbLine
 10
454.888906
 20
746.0
 30
0.0
 11
454.888906
 21
633.0
 31
0.0
  0
LINE
  5
1F7
100
AcDbEntity
  8
止水栓
  6
CONTINUOUS
 62
     6
100
AcDbLine
 10
448.388906
 20
787.442907
 30
0.0
 11
434.847566
 21
1015.810688
 31
0.0
  0
LINE
  5
1F8
100
AcDbEntity
  8
止水栓
  6
CONTINUOUS
 62
     6
100
AcDbLine
 10
461.401051
 20
787.881454
 30
0.0
 11
447.885715
 21
1015.810688
 31
0.0
  0
TEXT
  5
1F9
100
AcDbEntity
  8
止水栓
  6
CONTINUOUS
 62
     2
100
AcDbText
 10
634.528558
 20
493.434351
 30
0.0
 40
40.0
  1
ＶＵ 、ＶＰ７５
 41
0.584531
  7
EXCADSTD
 72
     5
 11
852.028573
 21
493.434351
 31
0.0
100
AcDbText
  0
TEXT
  5
1FA
100
AcDbEntity
  8
止水栓
  6
CONTINUOUS
 62
     2
100
AcDbText
 10
662.944496
 20
440.123034
 30
0.0
 40
40.0
  1
ＶＵ 、ＶＰ１００
 41
0.584957
  7
EXCADSTD
 72
     5
 11
908.444512
 21
440.123034
 31
0.0
100
AcDbText
  0
LINE
  5
1FB
100
AcDbEntity
  8
止水栓
  6
CONTINUOUS
 62
     6
100
AcDbLine
 10
634.528558
 20
489.934351
 30
0.0
 11
849.888902
 21
489.934351
 31
0.0
  0
LINE
  5
1FC
100
AcDbEntity
  8
止水栓
  6
CONTINUOUS
 62
     6
100
AcDbLine
 10
662.944496
 20
436.623034
 30
0.0
 11
905.888902
 21
436.623034
 31
0.0
  0
LINE
  5
1FD
100
AcDbEntity
  8
止水栓
  6
EXLTYPE3
 62
     6
100
AcDbLine
 10
454.888906
 20
746.0
 30
0.0
 11
454.888906
 21
633.0
 31
0.0
  0
LINE
  5
1FE
100
AcDbEntity
  8
止水栓
  6
CONTINUOUS
 62
     6
100
AcDbLine
 10
1403.922928
 20
717.459733
 30
0.0
 11
1406.403005
 21
717.459733
 31
0.0
  0
LINE
  5
1FF
100
AcDbEntity
  8
止水栓
  6
CONTINUOUS
 62
     6
100
AcDbLine
 10
1399.920581
 20
718.459733
 30
0.0
 11
1406.403005
 21
718.459733
 31
0.0
  0
LINE
  5
200
100
AcDbEntity
  8
止水栓
  6
CONTINUOUS
 62
     6
100
AcDbLine
 10
1403.922928
 20
698.509733
 30
0.0
 11
1406.403005
 21
698.509733
 31
0.0
  0
LINE
  5
201
100
AcDbEntity
  8
止水栓
  6
CONTINUOUS
 62
     6
100
AcDbLine
 10
1400.922928
 20
697.509733
 30
0.0
 11
1406.403005
 21
697.509733
 31
0.0
  0
LINE
  5
202
100
AcDbEntity
  8
止水栓
  6
CONTINUOUS
 62
     6
100
AcDbLine
 10
1444.402517
 20
714.73397
 30
0.0
 11
1452.402517
 21
714.73397
 31
0.0
  0
LINE
  5
203
100
AcDbEntity
  8
止水栓
  6
CONTINUOUS
 62
     6
100
AcDbLine
 10
1444.402517
 20
701.23397
 30
0.0
 11
1452.402517
 21
701.23397
 31
0.0
  0
ARC
  5
204
100
AcDbEntity
  8
止水栓
  6
CONTINUOUS
 62
     6
100
AcDbCircle
 10
1430.902517
 20
712.73397
 30
0.0
 40
2.5
100
AcDbArc
 50
90.0
 51
180.0
  0
ARC
  5
205
100
AcDbEntity
  8
止水栓
  6
CONTINUOUS
 62
     6
100
AcDbCircle
 10
1430.902517
 20
712.73397
 30
0.0
 40
2.5
100
AcDbArc
 50
0.0
 51
90.0
  0
LINE
  5
206
100
AcDbEntity
  8
止水栓
  6
CONTINUOUS
 62
     6
100
AcDbLine
 10
1441.402517
 20
713.73397
 30
0.0
 11
1444.402517
 21
713.73397
 31
0.0
  0
ARC
  5
207
100
AcDbEntity
  8
止水栓
  6
CONTINUOUS
 62
     6
100
AcDbCircle
 10
1438.902517
 20
712.73397
 30
0.0
 40
2.5
100
AcDbArc
 50
90.0
 51
180.0
  0
ARC
  5
208
100
AcDbEntity
  8
止水栓
  6
CONTINUOUS
 62
     6
100
AcDbCircle
 10
1438.902517
 20
712.73397
 30
0.0
 40
2.5
100
AcDbArc
 50
0.0
 51
90.0
  0
LINE
  5
209
100
AcDbEntity
  8
止水栓
  6
CONTINUOUS
 62
     6
100
AcDbLine
 10
1433.402517
 20
713.73397
 30
0.0
 11
1436.402517
 21
713.73397
 31
0.0
  0
ARC
  5
20A
100
AcDbEntity
  8
止水栓
  6
CONTINUOUS
 62
     6
100
AcDbCircle
 10
1430.902517
 20
703.23397
 30
0.0
 40
2.5
100
AcDbArc
 50
180.0
 51
270.0
  0
LINE
  5
20B
100
AcDbEntity
  8
止水栓
  6
CONTINUOUS
 62
     6
100
AcDbLine
 10
1441.402517
 20
702.23397
 30
0.0
 11
1444.402517
 21
702.23397
 31
0.0
  0
LINE
  5
20C
100
AcDbEntity
  8
止水栓
  6
CONTINUOUS
 62
     6
100
AcDbLine
 10
1433.402517
 20
702.23397
 30
0.0
 11
1436.402517
 21
702.23397
 31
0.0
  0
ARC
  5
20D
100
AcDbEntity
  8
止水栓
  6
CONTINUOUS
 62
     6
100
AcDbCircle
 10
1430.902517
 20
703.23397
 30
0.0
 40
2.5
100
AcDbArc
 50
270.0
 51
0.0
  0
ARC
  5
20E
100
AcDbEntity
  8
止水栓
  6
CONTINUOUS
 62
     6
100
AcDbCircle
 10
1438.902517
 20
703.23397
 30
0.0
 40
2.5
100
AcDbArc
 50
180.0
 51
270.0
  0
ARC
  5
20F
100
AcDbEntity
  8
止水栓
  6
CONTINUOUS
 62
     6
100
AcDbCircle
 10
1438.902517
 20
703.23397
 30
0.0
 40
2.5
100
AcDbArc
 50
270.0
 51
0.0
  0
LINE
  5
210
100
AcDbEntity
  8
止水栓
  6
CONTINUOUS
 62
     6
100
AcDbLine
 10
1444.402517
 20
701.23397
 30
0.0
 11
1444.402517
 21
714.73397
 31
0.0
  0
LINE
  5
211
100
AcDbEntity
  8
止水栓
  6
CONTINUOUS
 62
     6
100
AcDbLine
 10
1433.402517
 20
703.23397
 30
0.0
 11
1433.402517
 21
712.73397
 31
0.0
  0
LINE
  5
212
100
AcDbEntity
  8
止水栓
  6
CONTINUOUS
 62
     6
100
AcDbLine
 10
1441.402517
 20
703.23397
 30
0.0
 11
1441.402517
 21
712.73397
 31
0.0
  0
LINE
  5
213
100
AcDbEntity
  8
止水栓
  6
CONTINUOUS
 62
     6
100
AcDbLine
 10
1436.402517
 20
703.23397
 30
0.0
 11
1436.402517
 21
712.73397
 31
0.0
  0
LINE
  5
214
100
AcDbEntity
  8
止水栓
  6
CONTINUOUS
 62
     6
100
AcDbLine
 10
1452.402517
 20
701.23397
 30
0.0
 11
1452.402517
 21
714.73397
 31
0.0
  0
ARC
  5
215
100
AcDbEntity
  8
止水栓
  6
CONTINUOUS
 62
     6
100
AcDbCircle
 10
1412.401541
 20
709.734458
 30
0.0
 40
10.99987
100
AcDbArc
 50
56.937744
 51
123.054687
  0
POLYLINE
  5
216
100
AcDbEntity
  8
止水栓
  6
CONTINUOUS
 62
     6
100
AcDb2dPolyline
 66
     1
 10
0.0
 20
0.0
 30
0.0
 70
   128
  0
VERTEX
  5
217
100
AcDbEntity
  8
止水栓
  6
CONTINUOUS
 62
     6
100
AcDbVertex
100
AcDb2dVertex
 10
1412.66033
 20
715.586509
 30
0.0
  0
VERTEX
  5
218
100
AcDbEntity
  8
止水栓
  6
CONTINUOUS
 62
     6
100
AcDbVertex
100
AcDb2dVertex
 10
1413.063162
 20
715.596274
 30
0.0
  0
VERTEX
  5
219
100
AcDbEntity
  8
止水栓
  6
CONTINUOUS
 62
     6
100
AcDbVertex
100
AcDb2dVertex
 10
1413.463552
 20
715.625571
 30
0.0
  0
VERTEX
  5
21A
100
AcDbEntity
  8
止水栓
  6
CONTINUOUS
 62
     6
100
AcDbVertex
100
AcDb2dVertex
 10
1413.85906
 20
715.671958
 30
0.0
  0
VERTEX
  5
21B
100
AcDbEntity
  8
止水栓
  6
CONTINUOUS
 62
     6
100
AcDbVertex
100
AcDb2dVertex
 10
1414.242361
 20
715.735435
 30
0.0
  0
VERTEX
  5
21C
100
AcDbEntity
  8
止水栓
  6
CONTINUOUS
 62
     6
100
AcDbVertex
100
AcDb2dVertex
 10
1414.615896
 20
715.816001
 30
0.0
  0
VERTEX
  5
21D
100
AcDbEntity
  8
止水栓
  6
CONTINUOUS
 62
     6
100
AcDbVertex
100
AcDb2dVertex
 10
1414.974783
 20
715.916099
 30
0.0
  0
VERTEX
  5
21E
100
AcDbEntity
  8
止水栓
  6
CONTINUOUS
 62
     6
100
AcDbVertex
100
AcDb2dVertex
 10
1415.314138
 20
716.030845
 30
0.0
  0
VERTEX
  5
21F
100
AcDbEntity
  8
止水栓
  6
CONTINUOUS
 62
     6
100
AcDbVertex
100
AcDb2dVertex
 10
1415.636404
 20
716.160239
 30
0.0
  0
VERTEX
  5
220
100
AcDbEntity
  8
止水栓
  6
CONTINUOUS
 62
     6
100
AcDbVertex
100
AcDb2dVertex
 10
1415.934255
 20
716.304282
 30
0.0
  0
VERTEX
  5
221
100
AcDbEntity
  8
止水栓
  6
CONTINUOUS
 62
     6
100
AcDbVertex
100
AcDb2dVertex
 10
1416.205251
 20
716.462974
 30
0.0
  0
VERTEX
  5
222
100
AcDbEntity
  8
止水栓
  6
CONTINUOUS
 62
     6
100
AcDbVertex
100
AcDb2dVertex
 10
1416.451834
 20
716.631431
 30
0.0
  0
VERTEX
  5
223
100
AcDbEntity
  8
止水栓
  6
CONTINUOUS
 62
     6
100
AcDbVertex
100
AcDb2dVertex
 10
1416.669119
 20
716.812095
 30
0.0
  0
VERTEX
  5
224
100
AcDbEntity
  8
止水栓
  6
CONTINUOUS
 62
     6
100
AcDbVertex
100
AcDb2dVertex
 10
1416.857107
 20
717.002524
 30
0.0
  0
VERTEX
  5
225
100
AcDbEntity
  8
止水栓
  6
CONTINUOUS
 62
     6
100
AcDbVertex
100
AcDb2dVertex
 10
1417.010916
 20
717.200278
 30
0.0
  0
VERTEX
  5
226
100
AcDbEntity
  8
止水栓
  6
CONTINUOUS
 62
     6
100
AcDbVertex
100
AcDb2dVertex
 10
1417.130544
 20
717.402915
 30
0.0
  0
VERTEX
  5
227
100
AcDbEntity
  8
止水栓
  6
CONTINUOUS
 62
     6
100
AcDbVertex
100
AcDb2dVertex
 10
1417.218435
 20
717.612876
 30
0.0
  0
VERTEX
  5
228
100
AcDbEntity
  8
止水栓
  6
CONTINUOUS
 62
     6
100
AcDbVertex
100
AcDb2dVertex
 10
1417.272146
 20
717.822837
 30
0.0
  0
VERTEX
  5
229
100
AcDbEntity
  8
止水栓
  6
CONTINUOUS
 62
     6
100
AcDbVertex
100
AcDb2dVertex
 10
1417.289236
 20
718.037681
 30
0.0
  0
VERTEX
  5
22A
100
AcDbEntity
  8
止水栓
  6
CONTINUOUS
 62
     6
100
AcDbVertex
100
AcDb2dVertex
 10
1417.272146
 20
718.250083
 30
0.0
  0
VERTEX
  5
22B
100
AcDbEntity
  8
止水栓
  6
CONTINUOUS
 62
     6
100
AcDbVertex
100
AcDb2dVertex
 10
1417.218435
 20
718.462485
 30
0.0
  0
VERTEX
  5
22C
100
AcDbEntity
  8
止水栓
  6
CONTINUOUS
 62
     6
100
AcDbVertex
100
AcDb2dVertex
 10
1417.130544
 20
718.672446
 30
0.0
  0
VERTEX
  5
22D
100
AcDbEntity
  8
止水栓
  6
CONTINUOUS
 62
     6
100
AcDbVertex
100
AcDb2dVertex
 10
1417.010916
 20
718.875083
 30
0.0
  0
VERTEX
  5
22E
100
AcDbEntity
  8
止水栓
  6
CONTINUOUS
 62
     6
100
AcDbVertex
100
AcDb2dVertex
 10
1416.854666
 20
719.072837
 30
0.0
  0
VERTEX
  5
22F
100
AcDbEntity
  8
止水栓
  6
CONTINUOUS
 62
     6
100
AcDbVertex
100
AcDb2dVertex
 10
1416.669119
 20
719.260825
 30
0.0
  0
VERTEX
  5
230
100
AcDbEntity
  8
止水栓
  6
CONTINUOUS
 62
     6
100
AcDbVertex
100
AcDb2dVertex
 10
1416.451834
 20
719.441489
 30
0.0
  0
VERTEX
  5
231
100
AcDbEntity
  8
止水栓
  6
CONTINUOUS
 62
     6
100
AcDbVertex
100
AcDb2dVertex
 10
1416.207693
 20
719.612388
 30
0.0
  0
VERTEX
  5
232
100
AcDbEntity
  8
止水栓
  6
CONTINUOUS
 62
     6
100
AcDbVertex
100
AcDb2dVertex
 10
1415.934255
 20
719.768638
 30
0.0
  0
VERTEX
  5
233
100
AcDbEntity
  8
止水栓
  6
CONTINUOUS
 62
     6
100
AcDbVertex
100
AcDb2dVertex
 10
1415.636404
 20
719.912681
 30
0.0
  0
VERTEX
  5
234
100
AcDbEntity
  8
止水栓
  6
CONTINUOUS
 62
     6
100
AcDbVertex
100
AcDb2dVertex
 10
1415.314138
 20
720.044517
 30
0.0
  0
VERTEX
  5
235
100
AcDbEntity
  8
止水栓
  6
CONTINUOUS
 62
     6
100
AcDbVertex
100
AcDb2dVertex
 10
1414.974783
 20
720.159263
 30
0.0
  0
VERTEX
  5
236
100
AcDbEntity
  8
止水栓
  6
CONTINUOUS
 62
     6
100
AcDbVertex
100
AcDb2dVertex
 10
1414.615896
 20
720.256919
 30
0.0
  0
VERTEX
  5
237
100
AcDbEntity
  8
止水栓
  6
CONTINUOUS
 62
     6
100
AcDbVertex
100
AcDb2dVertex
 10
1414.244802
 20
720.337485
 30
0.0
  0
VERTEX
  5
238
100
AcDbEntity
  8
止水栓
  6
CONTINUOUS
 62
     6
100
AcDbVertex
100
AcDb2dVertex
 10
1413.85906
 20
720.403403
 30
0.0
  0
VERTEX
  5
239
100
AcDbEntity
  8
止水栓
  6
CONTINUOUS
 62
     6
100
AcDbVertex
100
AcDb2dVertex
 10
1413.463552
 20
720.44979
 30
0.0
  0
VERTEX
  5
23A
100
AcDbEntity
  8
止水栓
  6
CONTINUOUS
 62
     6
100
AcDbVertex
100
AcDb2dVertex
 10
1413.063162
 20
720.476645
 30
0.0
  0
VERTEX
  5
23B
100
AcDbEntity
  8
止水栓
  6
CONTINUOUS
 62
     6
100
AcDbVertex
100
AcDb2dVertex
 10
1412.66033
 20
720.486411
 30
0.0
  0
VERTEX
  5
23C
100
AcDbEntity
  8
止水栓
  6
CONTINUOUS
 62
     6
100
AcDbVertex
100
AcDb2dVertex
 10
1412.257498
 20
720.476645
 30
0.0
  0
VERTEX
  5
23D
100
AcDbEntity
  8
止水栓
  6
CONTINUOUS
 62
     6
100
AcDbVertex
100
AcDb2dVertex
 10
1411.857107
 20
720.44979
 30
0.0
  0
VERTEX
  5
23E
100
AcDbEntity
  8
止水栓
  6
CONTINUOUS
 62
     6
100
AcDbVertex
100
AcDb2dVertex
 10
1411.461599
 20
720.403403
 30
0.0
  0
VERTEX
  5
23F
100
AcDbEntity
  8
止水栓
  6
CONTINUOUS
 62
     6
100
AcDbVertex
100
AcDb2dVertex
 10
1411.075857
 20
720.339927
 30
0.0
  0
VERTEX
  5
240
100
AcDbEntity
  8
止水栓
  6
CONTINUOUS
 62
     6
100
AcDbVertex
100
AcDb2dVertex
 10
1410.702322
 20
720.256919
 30
0.0
  0
VERTEX
  5
241
100
AcDbEntity
  8
止水栓
  6
CONTINUOUS
 62
     6
100
AcDbVertex
100
AcDb2dVertex
 10
1410.343435
 20
720.159263
 30
0.0
  0
VERTEX
  5
242
100
AcDbEntity
  8
止水栓
  6
CONTINUOUS
 62
     6
100
AcDbVertex
100
AcDb2dVertex
 10
1410.00408
 20
720.044517
 30
0.0
  0
VERTEX
  5
243
100
AcDbEntity
  8
止水栓
  6
CONTINUOUS
 62
     6
100
AcDbVertex
100
AcDb2dVertex
 10
1409.681814
 20
719.912681
 30
0.0
  0
VERTEX
  5
244
100
AcDbEntity
  8
止水栓
  6
CONTINUOUS
 62
     6
100
AcDbVertex
100
AcDb2dVertex
 10
1409.386404
 20
719.768638
 30
0.0
  0
VERTEX
  5
245
100
AcDbEntity
  8
止水栓
  6
CONTINUOUS
 62
     6
100
AcDbVertex
100
AcDb2dVertex
 10
1409.112966
 20
719.612388
 30
0.0
  0
VERTEX
  5
246
100
AcDbEntity
  8
止水栓
  6
CONTINUOUS
 62
     6
100
AcDbVertex
100
AcDb2dVertex
 10
1408.866384
 20
719.441489
 30
0.0
  0
VERTEX
  5
247
100
AcDbEntity
  8
止水栓
  6
CONTINUOUS
 62
     6
100
AcDbVertex
100
AcDb2dVertex
 10
1408.649099
 20
719.263267
 30
0.0
  0
VERTEX
  5
248
100
AcDbEntity
  8
止水栓
  6
CONTINUOUS
 62
     6
100
AcDbVertex
100
AcDb2dVertex
 10
1408.463552
 20
719.072837
 30
0.0
  0
VERTEX
  5
249
100
AcDbEntity
  8
止水栓
  6
CONTINUOUS
 62
     6
100
AcDbVertex
100
AcDb2dVertex
 10
1408.309744
 20
718.875083
 30
0.0
  0
VERTEX
  5
24A
100
AcDbEntity
  8
止水栓
  6
CONTINUOUS
 62
     6
100
AcDbVertex
100
AcDb2dVertex
 10
1408.187673
 20
718.672446
 30
0.0
  0
VERTEX
  5
24B
100
AcDbEntity
  8
止水栓
  6
CONTINUOUS
 62
     6
100
AcDbVertex
100
AcDb2dVertex
 10
1408.099783
 20
718.462485
 30
0.0
  0
VERTEX
  5
24C
100
AcDbEntity
  8
止水栓
  6
CONTINUOUS
 62
     6
100
AcDbVertex
100
AcDb2dVertex
 10
1408.046072
 20
718.250083
 30
0.0
  0
VERTEX
  5
24D
100
AcDbEntity
  8
止水栓
  6
CONTINUOUS
 62
     6
100
AcDbVertex
100
AcDb2dVertex
 10
1408.028982
 20
718.037681
 30
0.0
  0
VERTEX
  5
24E
100
AcDbEntity
  8
止水栓
  6
CONTINUOUS
 62
     6
100
AcDbVertex
100
AcDb2dVertex
 10
1408.048513
 20
717.822837
 30
0.0
  0
VERTEX
  5
24F
100
AcDbEntity
  8
止水栓
  6
CONTINUOUS
 62
     6
100
AcDbVertex
100
AcDb2dVertex
 10
1408.099783
 20
717.612876
 30
0.0
  0
VERTEX
  5
250
100
AcDbEntity
  8
止水栓
  6
CONTINUOUS
 62
     6
100
AcDbVertex
100
AcDb2dVertex
 10
1408.187673
 20
717.402915
 30
0.0
  0
VERTEX
  5
251
100
AcDbEntity
  8
止水栓
  6
CONTINUOUS
 62
     6
100
AcDbVertex
100
AcDb2dVertex
 10
1408.309744
 20
717.200278
 30
0.0
  0
VERTEX
  5
252
100
AcDbEntity
  8
止水栓
  6
CONTINUOUS
 62
     6
100
AcDbVertex
100
AcDb2dVertex
 10
1408.463552
 20
717.002524
 30
0.0
  0
SEQEND
  5
253
100
AcDbEntity
  8
止水栓
  6
CONTINUOUS
 62
     6
  0
LINE
  5
254
100
AcDbEntity
  8
止水栓
  6
CONTINUOUS
 62
     6
100
AcDbLine
 10
1423.402517
 20
711.98397
 30
0.0
 11
1425.402517
 21
711.98397
 31
0.0
  0
LINE
  5
255
100
AcDbEntity
  8
止水栓
  6
CONTINUOUS
 62
     6
100
AcDbLine
 10
1425.402517
 20
713.73397
 30
0.0
 11
1428.402517
 21
713.73397
 31
0.0
  0
LINE
  5
256
100
AcDbEntity
  8
止水栓
  6
CONTINUOUS
 62
     6
100
AcDbLine
 10
1418.402517
 20
718.48397
 30
0.0
 11
1423.402517
 21
718.48397
 31
0.0
  0
POLYLINE
  5
257
100
AcDbEntity
  8
止水栓
  6
CONTINUOUS
 62
     6
100
AcDb2dPolyline
 66
     1
 10
0.0
 20
0.0
 30
0.0
 70
   128
  0
VERTEX
  5
258
100
AcDbEntity
  8
止水栓
  6
CONTINUOUS
 62
     6
100
AcDbVertex
100
AcDb2dVertex
 10
1412.653005
 20
695.488853
 30
0.0
  0
VERTEX
  5
259
100
AcDbEntity
  8
止水栓
  6
CONTINUOUS
 62
     6
100
AcDbVertex
100
AcDb2dVertex
 10
1413.090017
 20
695.498618
 30
0.0
  0
VERTEX
  5
25A
100
AcDbEntity
  8
止水栓
  6
CONTINUOUS
 62
     6
100
AcDbVertex
100
AcDb2dVertex
 10
1413.522146
 20
695.525474
 30
0.0
  0
VERTEX
  5
25B
100
AcDbEntity
  8
止水栓
  6
CONTINUOUS
 62
     6
100
AcDbVertex
100
AcDb2dVertex
 10
1413.946951
 20
695.57186
 30
0.0
  0
VERTEX
  5
25C
100
AcDbEntity
  8
止水栓
  6
CONTINUOUS
 62
     6
100
AcDbVertex
100
AcDb2dVertex
 10
1414.36199
 20
695.637778
 30
0.0
  0
VERTEX
  5
25D
100
AcDbEntity
  8
止水栓
  6
CONTINUOUS
 62
     6
100
AcDbVertex
100
AcDb2dVertex
 10
1414.76238
 20
695.718345
 30
0.0
  0
VERTEX
  5
25E
100
AcDbEntity
  8
止水栓
  6
CONTINUOUS
 62
     6
100
AcDbVertex
100
AcDb2dVertex
 10
1415.148123
 20
695.816001
 30
0.0
  0
VERTEX
  5
25F
100
AcDbEntity
  8
止水栓
  6
CONTINUOUS
 62
     6
100
AcDbVertex
100
AcDb2dVertex
 10
1415.516775
 20
695.933188
 30
0.0
  0
VERTEX
  5
260
100
AcDbEntity
  8
止水栓
  6
CONTINUOUS
 62
     6
100
AcDbVertex
100
AcDb2dVertex
 10
1415.861013
 20
696.062583
 30
0.0
  0
VERTEX
  5
261
100
AcDbEntity
  8
止水栓
  6
CONTINUOUS
 62
     6
100
AcDbVertex
100
AcDb2dVertex
 10
1416.183279
 20
696.206626
 30
0.0
  0
VERTEX
  5
262
100
AcDbEntity
  8
止水栓
  6
CONTINUOUS
 62
     6
100
AcDbVertex
100
AcDb2dVertex
 10
1416.476248
 20
696.365317
 30
0.0
  0
VERTEX
  5
263
100
AcDbEntity
  8
止水栓
  6
CONTINUOUS
 62
     6
100
AcDbVertex
100
AcDb2dVertex
 10
1416.742361
 20
696.533774
 30
0.0
  0
VERTEX
  5
264
100
AcDbEntity
  8
止水栓
  6
CONTINUOUS
 62
     6
100
AcDbVertex
100
AcDb2dVertex
 10
1416.974294
 20
696.714438
 30
0.0
  0
VERTEX
  5
265
100
AcDbEntity
  8
止水栓
  6
CONTINUOUS
 62
     6
100
AcDbVertex
100
AcDb2dVertex
 10
1417.176931
 20
696.902427
 30
0.0
  0
VERTEX
  5
266
100
AcDbEntity
  8
止水栓
  6
CONTINUOUS
 62
     6
100
AcDbVertex
100
AcDb2dVertex
 10
1417.342947
 20
697.100181
 30
0.0
  0
VERTEX
  5
267
100
AcDbEntity
  8
止水栓
  6
CONTINUOUS
 62
     6
100
AcDbVertex
100
AcDb2dVertex
 10
1417.474783
 20
697.305259
 30
0.0
  0
VERTEX
  5
268
100
AcDbEntity
  8
止水栓
  6
CONTINUOUS
 62
     6
100
AcDbVertex
100
AcDb2dVertex
 10
1417.567556
 20
697.512778
 30
0.0
  0
VERTEX
  5
269
100
AcDbEntity
  8
止水栓
  6
CONTINUOUS
 62
     6
100
AcDbVertex
100
AcDb2dVertex
 10
1417.62615
 20
697.725181
 30
0.0
  0
VERTEX
  5
26A
100
AcDbEntity
  8
止水栓
  6
CONTINUOUS
 62
     6
100
AcDbVertex
100
AcDb2dVertex
 10
1417.64324
 20
697.937583
 30
0.0
  0
VERTEX
  5
26B
100
AcDbEntity
  8
止水栓
  6
CONTINUOUS
 62
     6
100
AcDbVertex
100
AcDb2dVertex
 10
1417.623709
 20
698.152427
 30
0.0
  0
VERTEX
  5
26C
100
AcDbEntity
  8
止水栓
  6
CONTINUOUS
 62
     6
100
AcDbVertex
100
AcDb2dVertex
 10
1417.567556
 20
698.364829
 30
0.0
  0
VERTEX
  5
26D
100
AcDbEntity
  8
止水栓
  6
CONTINUOUS
 62
     6
100
AcDbVertex
100
AcDb2dVertex
 10
1417.474783
 20
698.572349
 30
0.0
  0
VERTEX
  5
26E
100
AcDbEntity
  8
止水栓
  6
CONTINUOUS
 62
     6
100
AcDbVertex
100
AcDb2dVertex
 10
1417.342947
 20
698.777427
 30
0.0
  0
VERTEX
  5
26F
100
AcDbEntity
  8
止水栓
  6
CONTINUOUS
 62
     6
100
AcDbVertex
100
AcDb2dVertex
 10
1417.176931
 20
698.975181
 30
0.0
  0
VERTEX
  5
270
100
AcDbEntity
  8
止水栓
  6
CONTINUOUS
 62
     6
100
AcDbVertex
100
AcDb2dVertex
 10
1416.974294
 20
699.163169
 30
0.0
  0
VERTEX
  5
271
100
AcDbEntity
  8
止水栓
  6
CONTINUOUS
 62
     6
100
AcDbVertex
100
AcDb2dVertex
 10
1416.739919
 20
699.343833
 30
0.0
  0
VERTEX
  5
272
100
AcDbEntity
  8
止水栓
  6
CONTINUOUS
 62
     6
100
AcDbVertex
100
AcDb2dVertex
 10
1416.476248
 20
699.51229
 30
0.0
  0
VERTEX
  5
273
100
AcDbEntity
  8
止水栓
  6
CONTINUOUS
 62
     6
100
AcDbVertex
100
AcDb2dVertex
 10
1416.183279
 20
699.670981
 30
0.0
  0
VERTEX
  5
274
100
AcDbEntity
  8
止水栓
  6
CONTINUOUS
 62
     6
100
AcDbVertex
100
AcDb2dVertex
 10
1415.861013
 20
699.815024
 30
0.0
  0
VERTEX
  5
275
100
AcDbEntity
  8
止水栓
  6
CONTINUOUS
 62
     6
100
AcDbVertex
100
AcDb2dVertex
 10
1415.516775
 20
699.944419
 30
0.0
  0
VERTEX
  5
276
100
AcDbEntity
  8
止水栓
  6
CONTINUOUS
 62
     6
100
AcDbVertex
100
AcDb2dVertex
 10
1415.148123
 20
700.059165
 30
0.0
  0
VERTEX
  5
277
100
AcDbEntity
  8
止水栓
  6
CONTINUOUS
 62
     6
100
AcDbVertex
100
AcDb2dVertex
 10
1414.76238
 20
700.159263
 30
0.0
  0
VERTEX
  5
278
100
AcDbEntity
  8
止水栓
  6
CONTINUOUS
 62
     6
100
AcDbVertex
100
AcDb2dVertex
 10
1414.359548
 20
700.239829
 30
0.0
  0
VERTEX
  5
279
100
AcDbEntity
  8
止水栓
  6
CONTINUOUS
 62
     6
100
AcDbVertex
100
AcDb2dVertex
 10
1413.944509
 20
700.305747
 30
0.0
  0
VERTEX
  5
27A
100
AcDbEntity
  8
止水栓
  6
CONTINUOUS
 62
     6
100
AcDbVertex
100
AcDb2dVertex
 10
1413.519705
 20
700.352134
 30
0.0
  0
VERTEX
  5
27B
100
AcDbEntity
  8
止水栓
  6
CONTINUOUS
 62
     6
100
AcDbVertex
100
AcDb2dVertex
 10
1413.087576
 20
700.378989
 30
0.0
  0
VERTEX
  5
27C
100
AcDbEntity
  8
止水栓
  6
CONTINUOUS
 62
     6
100
AcDbVertex
100
AcDb2dVertex
 10
1412.653005
 20
700.388755
 30
0.0
  0
VERTEX
  5
27D
100
AcDbEntity
  8
止水栓
  6
CONTINUOUS
 62
     6
100
AcDbVertex
100
AcDb2dVertex
 10
1412.218435
 20
700.378989
 30
0.0
  0
VERTEX
  5
27E
100
AcDbEntity
  8
止水栓
  6
CONTINUOUS
 62
     6
100
AcDbVertex
100
AcDb2dVertex
 10
1411.786306
 20
700.349692
 30
0.0
  0
VERTEX
  5
27F
100
AcDbEntity
  8
止水栓
  6
CONTINUOUS
 62
     6
100
AcDbVertex
100
AcDb2dVertex
 10
1411.361501
 20
700.303306
 30
0.0
  0
VERTEX
  5
280
100
AcDbEntity
  8
止水栓
  6
CONTINUOUS
 62
     6
100
AcDbVertex
100
AcDb2dVertex
 10
1410.946462
 20
700.239829
 30
0.0
  0
VERTEX
  5
281
100
AcDbEntity
  8
止水栓
  6
CONTINUOUS
 62
     6
100
AcDbVertex
100
AcDb2dVertex
 10
1410.54363
 20
700.159263
 30
0.0
  0
VERTEX
  5
282
100
AcDbEntity
  8
止水栓
  6
CONTINUOUS
 62
     6
100
AcDbVertex
100
AcDb2dVertex
 10
1410.157888
 20
700.059165
 30
0.0
  0
VERTEX
  5
283
100
AcDbEntity
  8
止水栓
  6
CONTINUOUS
 62
     6
100
AcDbVertex
100
AcDb2dVertex
 10
1409.791677
 20
699.944419
 30
0.0
  0
VERTEX
  5
284
100
AcDbEntity
  8
止水栓
  6
CONTINUOUS
 62
     6
100
AcDbVertex
100
AcDb2dVertex
 10
1409.444998
 20
699.815024
 30
0.0
  0
VERTEX
  5
285
100
AcDbEntity
  8
止水栓
  6
CONTINUOUS
 62
     6
100
AcDbVertex
100
AcDb2dVertex
 10
1409.125173
 20
699.670981
 30
0.0
  0
VERTEX
  5
286
100
AcDbEntity
  8
止水栓
  6
CONTINUOUS
 62
     6
100
AcDbVertex
100
AcDb2dVertex
 10
1408.829763
 20
699.51229
 30
0.0
  0
VERTEX
  5
287
100
AcDbEntity
  8
止水栓
  6
CONTINUOUS
 62
     6
100
AcDbVertex
100
AcDb2dVertex
 10
1408.566091
 20
699.343833
 30
0.0
  0
VERTEX
  5
288
100
AcDbEntity
  8
止水栓
  6
CONTINUOUS
 62
     6
100
AcDbVertex
100
AcDb2dVertex
 10
1408.331716
 20
699.163169
 30
0.0
  0
VERTEX
  5
289
100
AcDbEntity
  8
止水栓
  6
CONTINUOUS
 62
     6
100
AcDbVertex
100
AcDb2dVertex
 10
1408.131521
 20
698.975181
 30
0.0
  0
VERTEX
  5
28A
100
AcDbEntity
  8
止水栓
  6
CONTINUOUS
 62
     6
100
AcDbVertex
100
AcDb2dVertex
 10
1407.963064
 20
698.777427
 30
0.0
  0
VERTEX
  5
28B
100
AcDbEntity
  8
止水栓
  6
CONTINUOUS
 62
     6
100
AcDbVertex
100
AcDb2dVertex
 10
1407.833669
 20
698.572349
 30
0.0
  0
VERTEX
  5
28C
100
AcDbEntity
  8
止水栓
  6
CONTINUOUS
 62
     6
100
AcDbVertex
100
AcDb2dVertex
 10
1407.738455
 20
698.364829
 30
0.0
  0
VERTEX
  5
28D
100
AcDbEntity
  8
止水栓
  6
CONTINUOUS
 62
     6
100
AcDbVertex
100
AcDb2dVertex
 10
1407.682302
 20
698.152427
 30
0.0
  0
VERTEX
  5
28E
100
AcDbEntity
  8
止水栓
  6
CONTINUOUS
 62
     6
100
AcDbVertex
100
AcDb2dVertex
 10
1407.662771
 20
697.937583
 30
0.0
  0
VERTEX
  5
28F
100
AcDbEntity
  8
止水栓
  6
CONTINUOUS
 62
     6
100
AcDbVertex
100
AcDb2dVertex
 10
1407.682302
 20
697.725181
 30
0.0
  0
VERTEX
  5
290
100
AcDbEntity
  8
止水栓
  6
CONTINUOUS
 62
     6
100
AcDbVertex
100
AcDb2dVertex
 10
1407.738455
 20
697.512778
 30
0.0
  0
VERTEX
  5
291
100
AcDbEntity
  8
止水栓
  6
CONTINUOUS
 62
     6
100
AcDbVertex
100
AcDb2dVertex
 10
1407.833669
 20
697.305259
 30
0.0
  0
VERTEX
  5
292
100
AcDbEntity
  8
止水栓
  6
CONTINUOUS
 62
     6
100
AcDbVertex
100
AcDb2dVertex
 10
1407.963064
 20
697.100181
 30
0.0
  0
VERTEX
  5
293
100
AcDbEntity
  8
止水栓
  6
CONTINUOUS
 62
     6
100
AcDbVertex
100
AcDb2dVertex
 10
1408.131521
 20
696.902427
 30
0.0
  0
SEQEND
  5
294
100
AcDbEntity
  8
止水栓
  6
CONTINUOUS
 62
     6
  0
ARC
  5
295
100
AcDbEntity
  8
止水栓
  6
CONTINUOUS
 62
     6
100
AcDbCircle
 10
1412.401541
 20
706.233481
 30
0.0
 40
10.998535
100
AcDbArc
 50
236.94841
 51
303.059082
  0
LINE
  5
296
100
AcDbEntity
  8
止水栓
  6
CONTINUOUS
 62
     6
100
AcDbLine
 10
1423.402517
 20
703.98397
 30
0.0
 11
1425.402517
 21
703.98397
 31
0.0
  0
LINE
  5
297
100
AcDbEntity
  8
止水栓
  6
CONTINUOUS
 62
     6
100
AcDbLine
 10
1425.402517
 20
702.23397
 30
0.0
 11
1428.402517
 21
702.23397
 31
0.0
  0
LINE
  5
298
100
AcDbEntity
  8
止水栓
  6
CONTINUOUS
 62
     6
100
AcDbLine
 10
1418.402517
 20
697.48397
 30
0.0
 11
1423.402517
 21
697.48397
 31
0.0
  0
LINE
  5
299
100
AcDbEntity
  8
止水栓
  6
CONTINUOUS
 62
     6
100
AcDbLine
 10
1418.402517
 20
697.014731
 30
0.0
 11
1418.402517
 21
718.953208
 31
0.0
  0
LINE
  5
29A
100
AcDbEntity
  8
止水栓
  6
CONTINUOUS
 62
     6
100
AcDbLine
 10
1423.402517
 20
697.48397
 30
0.0
 11
1423.402517
 21
718.48397
 31
0.0
  0
POLYLINE
  5
29B
100
AcDbEntity
  8
止水栓
  6
CONTINUOUS
 62
     6
100
AcDb2dPolyline
 66
     1
 10
0.0
 20
0.0
 30
0.0
 70
   128
  0
VERTEX
  5
29C
100
AcDbEntity
  8
止水栓
  6
CONTINUOUS
 62
     6
100
AcDbVertex
100
AcDb2dVertex
 10
1418.187673
 20
707.98397
 30
0.0
  0
VERTEX
  5
29D
100
AcDbEntity
  8
止水栓
  6
CONTINUOUS
 62
     6
100
AcDbVertex
100
AcDb2dVertex
 10
1418.165701
 20
708.482017
 30
0.0
  0
VERTEX
  5
29E
100
AcDbEntity
  8
止水栓
  6
CONTINUOUS
 62
     6
100
AcDbVertex
100
AcDb2dVertex
 10
1418.099783
 20
708.977622
 30
0.0
  0
VERTEX
  5
29F
100
AcDbEntity
  8
止水栓
  6
CONTINUOUS
 62
     6
100
AcDbVertex
100
AcDb2dVertex
 10
1417.997244
 20
709.465903
 30
0.0
  0
VERTEX
  5
2A0
100
AcDbEntity
  8
止水栓
  6
CONTINUOUS
 62
     6
100
AcDbVertex
100
AcDb2dVertex
 10
1417.850759
 20
709.951743
 30
0.0
  0
VERTEX
  5
2A1
100
AcDbEntity
  8
止水栓
  6
CONTINUOUS
 62
     6
100
AcDbVertex
100
AcDb2dVertex
 10
1417.665212
 20
710.420493
 30
0.0
  0
VERTEX
  5
2A2
100
AcDbEntity
  8
止水栓
  6
CONTINUOUS
 62
     6
100
AcDbVertex
100
AcDb2dVertex
 10
1417.443044
 20
710.872153
 30
0.0
  0
VERTEX
  5
2A3
100
AcDbEntity
  8
止水栓
  6
CONTINUOUS
 62
     6
100
AcDbVertex
100
AcDb2dVertex
 10
1417.181814
 20
711.301841
 30
0.0
  0
VERTEX
  5
2A4
100
AcDbEntity
  8
止水栓
  6
CONTINUOUS
 62
     6
100
AcDbVertex
100
AcDb2dVertex
 10
1416.886404
 20
711.704673
 30
0.0
  0
VERTEX
  5
2A5
100
AcDbEntity
  8
止水栓
  6
CONTINUOUS
 62
     6
100
AcDbVertex
100
AcDb2dVertex
 10
1416.559255
 20
712.080649
 30
0.0
  0
VERTEX
  5
2A6
100
AcDbEntity
  8
止水栓
  6
CONTINUOUS
 62
     6
100
AcDbVertex
100
AcDb2dVertex
 10
1416.200369
 20
712.422446
 30
0.0
  0
VERTEX
  5
2A7
100
AcDbEntity
  8
止水栓
  6
CONTINUOUS
 62
     6
100
AcDbVertex
100
AcDb2dVertex
 10
1415.814626
 20
712.732505
 30
0.0
  0
VERTEX
  5
2A8
100
AcDbEntity
  8
止水栓
  6
CONTINUOUS
 62
     6
100
AcDbVertex
100
AcDb2dVertex
 10
1415.406912
 20
713.005942
 30
0.0
  0
VERTEX
  5
2A9
100
AcDbEntity
  8
止水栓
  6
CONTINUOUS
 62
     6
100
AcDbVertex
100
AcDb2dVertex
 10
1414.977224
 20
713.242759
 30
0.0
  0
VERTEX
  5
2AA
100
AcDbEntity
  8
止水栓
  6
CONTINUOUS
 62
     6
100
AcDbVertex
100
AcDb2dVertex
 10
1414.528005
 20
713.43563
 30
0.0
  0
VERTEX
  5
2AB
100
AcDbEntity
  8
止水栓
  6
CONTINUOUS
 62
     6
100
AcDbVertex
100
AcDb2dVertex
 10
1414.064138
 20
713.589438
 30
0.0
  0
VERTEX
  5
2AC
100
AcDbEntity
  8
止水栓
  6
CONTINUOUS
 62
     6
100
AcDbVertex
100
AcDb2dVertex
 10
1413.590505
 20
713.699302
 30
0.0
  0
VERTEX
  5
2AD
100
AcDbEntity
  8
止水栓
  6
CONTINUOUS
 62
     6
100
AcDbVertex
100
AcDb2dVertex
 10
1413.109548
 20
713.76522
 30
0.0
  0
VERTEX
  5
2AE
100
AcDbEntity
  8
止水栓
  6
CONTINUOUS
 62
     6
100
AcDbVertex
100
AcDb2dVertex
 10
1412.62615
 20
713.789634
 30
0.0
  0
VERTEX
  5
2AF
100
AcDbEntity
  8
止水栓
  6
CONTINUOUS
 62
     6
100
AcDbVertex
100
AcDb2dVertex
 10
1412.14031
 20
713.76522
 30
0.0
  0
VERTEX
  5
2B0
100
AcDbEntity
  8
止水栓
  6
CONTINUOUS
 62
     6
100
AcDbVertex
100
AcDb2dVertex
 10
1411.659353
 20
713.699302
 30
0.0
  0
VERTEX
  5
2B1
100
AcDbEntity
  8
止水栓
  6
CONTINUOUS
 62
     6
100
AcDbVertex
100
AcDb2dVertex
 10
1411.18572
 20
713.589438
 30
0.0
  0
VERTEX
  5
2B2
100
AcDbEntity
  8
止水栓
  6
CONTINUOUS
 62
     6
100
AcDbVertex
100
AcDb2dVertex
 10
1410.724294
 20
713.43563
 30
0.0
  0
VERTEX
  5
2B3
100
AcDbEntity
  8
止水栓
  6
CONTINUOUS
 62
     6
100
AcDbVertex
100
AcDb2dVertex
 10
1410.275076
 20
713.242759
 30
0.0
  0
VERTEX
  5
2B4
100
AcDbEntity
  8
止水栓
  6
CONTINUOUS
 62
     6
100
AcDbVertex
100
AcDb2dVertex
 10
1409.845388
 20
713.005942
 30
0.0
  0
VERTEX
  5
2B5
100
AcDbEntity
  8
止水栓
  6
CONTINUOUS
 62
     6
100
AcDbVertex
100
AcDb2dVertex
 10
1409.435232
 20
712.732505
 30
0.0
  0
VERTEX
  5
2B6
100
AcDbEntity
  8
止水栓
  6
CONTINUOUS
 62
     6
100
AcDbVertex
100
AcDb2dVertex
 10
1409.051931
 20
712.422446
 30
0.0
  0
VERTEX
  5
2B7
100
AcDbEntity
  8
止水栓
  6
CONTINUOUS
 62
     6
100
AcDbVertex
100
AcDb2dVertex
 10
1408.693044
 20
712.080649
 30
0.0
  0
VERTEX
  5
2B8
100
AcDbEntity
  8
止水栓
  6
CONTINUOUS
 62
     6
100
AcDbVertex
100
AcDb2dVertex
 10
1408.365896
 20
711.704673
 30
0.0
  0
VERTEX
  5
2B9
100
AcDbEntity
  8
止水栓
  6
CONTINUOUS
 62
     6
100
AcDbVertex
100
AcDb2dVertex
 10
1408.070486
 20
711.301841
 30
0.0
  0
VERTEX
  5
2BA
100
AcDbEntity
  8
止水栓
  6
CONTINUOUS
 62
     6
100
AcDbVertex
100
AcDb2dVertex
 10
1407.809255
 20
710.872153
 30
0.0
  0
VERTEX
  5
2BB
100
AcDbEntity
  8
止水栓
  6
CONTINUOUS
 62
     6
100
AcDbVertex
100
AcDb2dVertex
 10
1407.584646
 20
710.420493
 30
0.0
  0
VERTEX
  5
2BC
100
AcDbEntity
  8
止水栓
  6
CONTINUOUS
 62
     6
100
AcDbVertex
100
AcDb2dVertex
 10
1407.399099
 20
709.951743
 30
0.0
  0
VERTEX
  5
2BD
100
AcDbEntity
  8
止水栓
  6
CONTINUOUS
 62
     6
100
AcDbVertex
100
AcDb2dVertex
 10
1407.255056
 20
709.465903
 30
0.0
  0
VERTEX
  5
2BE
100
AcDbEntity
  8
止水栓
  6
CONTINUOUS
 62
     6
100
AcDbVertex
100
AcDb2dVertex
 10
1407.150076
 20
708.970298
 30
0.0
  0
VERTEX
  5
2BF
100
AcDbEntity
  8
止水栓
  6
CONTINUOUS
 62
     6
100
AcDbVertex
100
AcDb2dVertex
 10
1407.086599
 20
708.464927
 30
0.0
  0
VERTEX
  5
2C0
100
AcDbEntity
  8
止水栓
  6
CONTINUOUS
 62
     6
100
AcDbVertex
100
AcDb2dVertex
 10
1407.064626
 20
707.957114
 30
0.0
  0
VERTEX
  5
2C1
100
AcDbEntity
  8
止水栓
  6
CONTINUOUS
 62
     6
100
AcDbVertex
100
AcDb2dVertex
 10
1407.086599
 20
707.449302
 30
0.0
  0
VERTEX
  5
2C2
100
AcDbEntity
  8
止水栓
  6
CONTINUOUS
 62
     6
100
AcDbVertex
100
AcDb2dVertex
 10
1407.150076
 20
706.943931
 30
0.0
  0
VERTEX
  5
2C3
100
AcDbEntity
  8
止水栓
  6
CONTINUOUS
 62
     6
100
AcDbVertex
100
AcDb2dVertex
 10
1407.255056
 20
706.448325
 30
0.0
  0
VERTEX
  5
2C4
100
AcDbEntity
  8
止水栓
  6
CONTINUOUS
 62
     6
100
AcDbVertex
100
AcDb2dVertex
 10
1407.399099
 20
705.962485
 30
0.0
  0
VERTEX
  5
2C5
100
AcDbEntity
  8
止水栓
  6
CONTINUOUS
 62
     6
100
AcDbVertex
100
AcDb2dVertex
 10
1407.584646
 20
705.493735
 30
0.0
  0
VERTEX
  5
2C6
100
AcDbEntity
  8
止水栓
  6
CONTINUOUS
 62
     6
100
AcDbVertex
100
AcDb2dVertex
 10
1407.809255
 20
705.042075
 30
0.0
  0
VERTEX
  5
2C7
100
AcDbEntity
  8
止水栓
  6
CONTINUOUS
 62
     6
100
AcDbVertex
100
AcDb2dVertex
 10
1408.070486
 20
704.612388
 30
0.0
  0
VERTEX
  5
2C8
100
AcDbEntity
  8
止水栓
  6
CONTINUOUS
 62
     6
100
AcDbVertex
100
AcDb2dVertex
 10
1408.365896
 20
704.209556
 30
0.0
  0
VERTEX
  5
2C9
100
AcDbEntity
  8
止水栓
  6
CONTINUOUS
 62
     6
100
AcDbVertex
100
AcDb2dVertex
 10
1408.693044
 20
703.833579
 30
0.0
  0
VERTEX
  5
2CA
100
AcDbEntity
  8
止水栓
  6
CONTINUOUS
 62
     6
100
AcDbVertex
100
AcDb2dVertex
 10
1409.051931
 20
703.491782
 30
0.0
  0
VERTEX
  5
2CB
100
AcDbEntity
  8
止水栓
  6
CONTINUOUS
 62
     6
100
AcDbVertex
100
AcDb2dVertex
 10
1409.435232
 20
703.181724
 30
0.0
  0
VERTEX
  5
2CC
100
AcDbEntity
  8
止水栓
  6
CONTINUOUS
 62
     6
100
AcDbVertex
100
AcDb2dVertex
 10
1409.845388
 20
702.908286
 30
0.0
  0
VERTEX
  5
2CD
100
AcDbEntity
  8
止水栓
  6
CONTINUOUS
 62
     6
100
AcDbVertex
100
AcDb2dVertex
 10
1410.275076
 20
702.67147
 30
0.0
  0
VERTEX
  5
2CE
100
AcDbEntity
  8
止水栓
  6
CONTINUOUS
 62
     6
100
AcDbVertex
100
AcDb2dVertex
 10
1410.724294
 20
702.478599
 30
0.0
  0
VERTEX
  5
2CF
100
AcDbEntity
  8
止水栓
  6
CONTINUOUS
 62
     6
100
AcDbVertex
100
AcDb2dVertex
 10
1411.18572
 20
702.32479
 30
0.0
  0
VERTEX
  5
2D0
100
AcDbEntity
  8
止水栓
  6
CONTINUOUS
 62
     6
100
AcDbVertex
100
AcDb2dVertex
 10
1411.659353
 20
702.214927
 30
0.0
  0
VERTEX
  5
2D1
100
AcDbEntity
  8
止水栓
  6
CONTINUOUS
 62
     6
100
AcDbVertex
100
AcDb2dVertex
 10
1412.14031
 20
702.149009
 30
0.0
  0
VERTEX
  5
2D2
100
AcDbEntity
  8
止水栓
  6
CONTINUOUS
 62
     6
100
AcDbVertex
100
AcDb2dVertex
 10
1412.623709
 20
702.127036
 30
0.0
  0
SEQEND
  5
2D3
100
AcDbEntity
  8
止水栓
  6
CONTINUOUS
 62
     6
  0
LINE
  5
2D4
100
AcDbEntity
  8
止水栓
  6
CONTINUOUS
 62
     6
100
AcDbLine
 10
1425.402517
 20
702.23397
 30
0.0
 11
1425.402517
 21
713.73397
 31
0.0
  0
LINE
  5
2D5
100
AcDbEntity
  8
止水栓
  6
CONTINUOUS
 62
     6
100
AcDbLine
 10
1428.402517
 20
703.23397
 30
0.0
 11
1428.402517
 21
712.73397
 31
0.0
  0
POLYLINE
  5
2D6
100
AcDbEntity
  8
止水栓
  6
CONTINUOUS
 62
     6
100
AcDb2dPolyline
 66
     1
 10
0.0
 20
0.0
 30
0.0
 70
   128
  0
VERTEX
  5
2D7
100
AcDbEntity
  8
止水栓
  6
CONTINUOUS
 62
     6
100
AcDbVertex
100
AcDb2dVertex
 10
1412.62615
 20
702.127036
 30
0.0
  0
VERTEX
  5
2D8
100
AcDbEntity
  8
止水栓
  6
CONTINUOUS
 62
     6
100
AcDbVertex
100
AcDb2dVertex
 10
1413.109548
 20
702.149009
 30
0.0
  0
VERTEX
  5
2D9
100
AcDbEntity
  8
止水栓
  6
CONTINUOUS
 62
     6
100
AcDbVertex
100
AcDb2dVertex
 10
1413.590505
 20
702.214927
 30
0.0
  0
VERTEX
  5
2DA
100
AcDbEntity
  8
止水栓
  6
CONTINUOUS
 62
     6
100
AcDbVertex
100
AcDb2dVertex
 10
1414.064138
 20
702.32479
 30
0.0
  0
VERTEX
  5
2DB
100
AcDbEntity
  8
止水栓
  6
CONTINUOUS
 62
     6
100
AcDbVertex
100
AcDb2dVertex
 10
1414.528005
 20
702.478599
 30
0.0
  0
VERTEX
  5
2DC
100
AcDbEntity
  8
止水栓
  6
CONTINUOUS
 62
     6
100
AcDbVertex
100
AcDb2dVertex
 10
1414.974783
 20
702.67147
 30
0.0
  0
VERTEX
  5
2DD
100
AcDbEntity
  8
止水栓
  6
CONTINUOUS
 62
     6
100
AcDbVertex
100
AcDb2dVertex
 10
1415.406912
 20
702.908286
 30
0.0
  0
VERTEX
  5
2DE
100
AcDbEntity
  8
止水栓
  6
CONTINUOUS
 62
     6
100
AcDbVertex
100
AcDb2dVertex
 10
1415.814626
 20
703.181724
 30
0.0
  0
VERTEX
  5
2DF
100
AcDbEntity
  8
止水栓
  6
CONTINUOUS
 62
     6
100
AcDbVertex
100
AcDb2dVertex
 10
1416.200369
 20
703.491782
 30
0.0
  0
VERTEX
  5
2E0
100
AcDbEntity
  8
止水栓
  6
CONTINUOUS
 62
     6
100
AcDbVertex
100
AcDb2dVertex
 10
1416.556814
 20
703.833579
 30
0.0
  0
VERTEX
  5
2E1
100
AcDbEntity
  8
止水栓
  6
CONTINUOUS
 62
     6
100
AcDbVertex
100
AcDb2dVertex
 10
1416.886404
 20
704.209556
 30
0.0
  0
VERTEX
  5
2E2
100
AcDbEntity
  8
止水栓
  6
CONTINUOUS
 62
     6
100
AcDbVertex
100
AcDb2dVertex
 10
1417.179373
 20
704.612388
 30
0.0
  0
VERTEX
  5
2E3
100
AcDbEntity
  8
止水栓
  6
CONTINUOUS
 62
     6
100
AcDbVertex
100
AcDb2dVertex
 10
1417.443044
 20
705.042075
 30
0.0
  0
VERTEX
  5
2E4
100
AcDbEntity
  8
止水栓
  6
CONTINUOUS
 62
     6
100
AcDbVertex
100
AcDb2dVertex
 10
1417.667654
 20
705.493735
 30
0.0
  0
VERTEX
  5
2E5
100
AcDbEntity
  8
止水栓
  6
CONTINUOUS
 62
     6
100
AcDbVertex
100
AcDb2dVertex
 10
1417.853201
 20
705.962485
 30
0.0
  0
VERTEX
  5
2E6
100
AcDbEntity
  8
止水栓
  6
CONTINUOUS
 62
     6
100
AcDbVertex
100
AcDb2dVertex
 10
1417.997244
 20
706.448325
 30
0.0
  0
VERTEX
  5
2E7
100
AcDbEntity
  8
止水栓
  6
CONTINUOUS
 62
     6
100
AcDbVertex
100
AcDb2dVertex
 10
1418.102224
 20
706.943931
 30
0.0
  0
VERTEX
  5
2E8
100
AcDbEntity
  8
止水栓
  6
CONTINUOUS
 62
     6
100
AcDbVertex
100
AcDb2dVertex
 10
1418.165701
 20
707.449302
 30
0.0
  0
VERTEX
  5
2E9
100
AcDbEntity
  8
止水栓
  6
CONTINUOUS
 62
     6
100
AcDbVertex
100
AcDb2dVertex
 10
1418.187673
 20
707.957114
 30
0.0
  0
VERTEX
  5
2EA
100
AcDbEntity
  8
止水栓
  6
CONTINUOUS
 62
     6
100
AcDbVertex
100
AcDb2dVertex
 10
1418.187673
 20
707.96688
 30
0.0
  0
VERTEX
  5
2EB
100
AcDbEntity
  8
止水栓
  6
CONTINUOUS
 62
     6
100
AcDbVertex
100
AcDb2dVertex
 10
1418.187673
 20
707.974204
 30
0.0
  0
VERTEX
  5
2EC
100
AcDbEntity
  8
止水栓
  6
CONTINUOUS
 62
     6
100
AcDbVertex
100
AcDb2dVertex
 10
1418.187673
 20
707.98397
 30
0.0
  0
SEQEND
  5
2ED
100
AcDbEntity
  8
止水栓
  6
CONTINUOUS
 62
     6
  0
POLYLINE
  5
2EE
100
AcDbEntity
  8
止水栓
  6
CONTINUOUS
 62
     6
100
AcDb2dPolyline
 66
     1
 10
0.0
 20
0.0
 30
0.0
 70
   128
  0
VERTEX
  5
2EF
100
AcDbEntity
  8
止水栓
  6
CONTINUOUS
 62
     6
100
AcDbVertex
100
AcDb2dVertex
 10
1411.461599
 20
715.671958
 30
0.0
  0
VERTEX
  5
2F0
100
AcDbEntity
  8
止水栓
  6
CONTINUOUS
 62
     6
100
AcDbVertex
100
AcDb2dVertex
 10
1411.854666
 20
715.625571
 30
0.0
  0
VERTEX
  5
2F1
100
AcDbEntity
  8
止水栓
  6
CONTINUOUS
 62
     6
100
AcDbVertex
100
AcDb2dVertex
 10
1412.255056
 20
715.596274
 30
0.0
  0
VERTEX
  5
2F2
100
AcDbEntity
  8
止水栓
  6
CONTINUOUS
 62
     6
100
AcDbVertex
100
AcDb2dVertex
 10
1412.657888
 20
715.586509
 30
0.0
  0
SEQEND
  5
2F3
100
AcDbEntity
  8
止水栓
  6
CONTINUOUS
 62
     6
  0
POLYLINE
  5
2F4
100
AcDbEntity
  8
止水栓
  6
CONTINUOUS
 62
     6
100
AcDb2dPolyline
 66
     1
 10
0.0
 20
0.0
 30
0.0
 70
   128
  0
VERTEX
  5
2F5
100
AcDbEntity
  8
止水栓
  6
CONTINUOUS
 62
     6
100
AcDbVertex
100
AcDb2dVertex
 10
1411.361501
 20
695.57186
 30
0.0
  0
VERTEX
  5
2F6
100
AcDbEntity
  8
止水栓
  6
CONTINUOUS
 62
     6
100
AcDbVertex
100
AcDb2dVertex
 10
1411.786306
 20
695.525474
 30
0.0
  0
VERTEX
  5
2F7
100
AcDbEntity
  8
止水栓
  6
CONTINUOUS
 62
     6
100
AcDbVertex
100
AcDb2dVertex
 10
1412.218435
 20
695.498618
 30
0.0
  0
VERTEX
  5
2F8
100
AcDbEntity
  8
止水栓
  6
CONTINUOUS
 62
     6
100
AcDbVertex
100
AcDb2dVertex
 10
1412.653005
 20
695.488853
 30
0.0
  0
SEQEND
  5
2F9
100
AcDbEntity
  8
止水栓
  6
CONTINUOUS
 62
     6
  0
POLYLINE
  5
2FA
100
AcDbEntity
  8
止水栓
  6
CONTINUOUS
 62
     6
100
AcDb2dPolyline
 66
     1
 10
0.0
 20
0.0
 30
0.0
 70
   128
  0
VERTEX
  5
2FB
100
AcDbEntity
  8
止水栓
  6
CONTINUOUS
 62
     6
100
AcDbVertex
100
AcDb2dVertex
 10
1408.463552
 20
717.002524
 30
0.0
  0
VERTEX
  5
2FC
100
AcDbEntity
  8
止水栓
  6
CONTINUOUS
 62
     6
100
AcDbVertex
100
AcDb2dVertex
 10
1408.649099
 20
716.812095
 30
0.0
  0
VERTEX
  5
2FD
100
AcDbEntity
  8
止水栓
  6
CONTINUOUS
 62
     6
100
AcDbVertex
100
AcDb2dVertex
 10
1408.866384
 20
716.631431
 30
0.0
  0
VERTEX
  5
2FE
100
AcDbEntity
  8
止水栓
  6
CONTINUOUS
 62
     6
100
AcDbVertex
100
AcDb2dVertex
 10
1409.112966
 20
716.462974
 30
0.0
  0
VERTEX
  5
2FF
100
AcDbEntity
  8
止水栓
  6
CONTINUOUS
 62
     6
100
AcDbVertex
100
AcDb2dVertex
 10
1409.386404
 20
716.304282
 30
0.0
  0
VERTEX
  5
300
100
AcDbEntity
  8
止水栓
  6
CONTINUOUS
 62
     6
100
AcDbVertex
100
AcDb2dVertex
 10
1409.684255
 20
716.160239
 30
0.0
  0
VERTEX
  5
301
100
AcDbEntity
  8
止水栓
  6
CONTINUOUS
 62
     6
100
AcDbVertex
100
AcDb2dVertex
 10
1410.00408
 20
716.030845
 30
0.0
  0
VERTEX
  5
302
100
AcDbEntity
  8
止水栓
  6
CONTINUOUS
 62
     6
100
AcDbVertex
100
AcDb2dVertex
 10
1410.343435
 20
715.916099
 30
0.0
  0
VERTEX
  5
303
100
AcDbEntity
  8
止水栓
  6
CONTINUOUS
 62
     6
100
AcDbVertex
100
AcDb2dVertex
 10
1410.702322
 20
715.816001
 30
0.0
  0
VERTEX
  5
304
100
AcDbEntity
  8
止水栓
  6
CONTINUOUS
 62
     6
100
AcDbVertex
100
AcDb2dVertex
 10
1411.075857
 20
715.735435
 30
0.0
  0
VERTEX
  5
305
100
AcDbEntity
  8
止水栓
  6
CONTINUOUS
 62
     6
100
AcDbVertex
100
AcDb2dVertex
 10
1411.461599
 20
715.671958
 30
0.0
  0
SEQEND
  5
306
100
AcDbEntity
  8
止水栓
  6
CONTINUOUS
 62
     6
  0
POLYLINE
  5
307
100
AcDbEntity
  8
止水栓
  6
CONTINUOUS
 62
     6
100
AcDb2dPolyline
 66
     1
 10
0.0
 20
0.0
 30
0.0
 70
   128
  0
VERTEX
  5
308
100
AcDbEntity
  8
止水栓
  6
CONTINUOUS
 62
     6
100
AcDbVertex
100
AcDb2dVertex
 10
1408.131521
 20
696.902427
 30
0.0
  0
VERTEX
  5
309
100
AcDbEntity
  8
止水栓
  6
CONTINUOUS
 62
     6
100
AcDbVertex
100
AcDb2dVertex
 10
1408.331716
 20
696.714438
 30
0.0
  0
VERTEX
  5
30A
100
AcDbEntity
  8
止水栓
  6
CONTINUOUS
 62
     6
100
AcDbVertex
100
AcDb2dVertex
 10
1408.566091
 20
696.533774
 30
0.0
  0
VERTEX
  5
30B
100
AcDbEntity
  8
止水栓
  6
CONTINUOUS
 62
     6
100
AcDbVertex
100
AcDb2dVertex
 10
1408.829763
 20
696.362876
 30
0.0
  0
VERTEX
  5
30C
100
AcDbEntity
  8
止水栓
  6
CONTINUOUS
 62
     6
100
AcDbVertex
100
AcDb2dVertex
 10
1409.125173
 20
696.206626
 30
0.0
  0
VERTEX
  5
30D
100
AcDbEntity
  8
止水栓
  6
CONTINUOUS
 62
     6
100
AcDbVertex
100
AcDb2dVertex
 10
1409.444998
 20
696.062583
 30
0.0
  0
VERTEX
  5
30E
100
AcDbEntity
  8
止水栓
  6
CONTINUOUS
 62
     6
100
AcDbVertex
100
AcDb2dVertex
 10
1409.791677
 20
695.930747
 30
0.0
  0
VERTEX
  5
30F
100
AcDbEntity
  8
止水栓
  6
CONTINUOUS
 62
     6
100
AcDbVertex
100
AcDb2dVertex
 10
1410.157888
 20
695.816001
 30
0.0
  0
VERTEX
  5
310
100
AcDbEntity
  8
止水栓
  6
CONTINUOUS
 62
     6
100
AcDbVertex
100
AcDb2dVertex
 10
1410.54363
 20
695.718345
 30
0.0
  0
VERTEX
  5
311
100
AcDbEntity
  8
止水栓
  6
CONTINUOUS
 62
     6
100
AcDbVertex
100
AcDb2dVertex
 10
1410.946462
 20
695.637778
 30
0.0
  0
VERTEX
  5
312
100
AcDbEntity
  8
止水栓
  6
CONTINUOUS
 62
     6
100
AcDbVertex
100
AcDb2dVertex
 10
1411.361501
 20
695.57186
 30
0.0
  0
SEQEND
  5
313
100
AcDbEntity
  8
止水栓
  6
CONTINUOUS
 62
     6
  0
LINE
  5
314
100
AcDbEntity
  8
止水栓
  6
CONTINUOUS
 62
     6
100
AcDbLine
 10
1406.403005
 20
697.014731
 30
0.0
 11
1406.403005
 21
718.954734
 31
0.0
  0
LINE
  5
315
100
AcDbEntity
  8
止水栓
  6
CONTINUOUS
 62
     6
100
AcDbLine
 10
1452.402517
 20
714.48397
 30
0.0
 11
1462.103005
 21
714.48397
 31
0.0
  0
LINE
  5
316
100
AcDbEntity
  8
止水栓
  6
CONTINUOUS
 62
     6
100
AcDbLine
 10
1452.402517
 20
701.48397
 30
0.0
 11
1462.103005
 21
701.48397
 31
0.0
  0
ARC
  5
317
100
AcDbEntity
  8
止水栓
  6
CONTINUOUS
 62
     6
100
AcDbCircle
 10
1462.103005
 20
799.783971
 30
0.0
 40
98.300002
100
AcDbArc
 50
270.0
 51
0.0
  0
ARC
  5
318
100
AcDbEntity
  8
止水栓
  6
CONTINUOUS
 62
     6
100
AcDbCircle
 10
1462.103005
 20
799.783971
 30
0.0
 40
85.300002
100
AcDbArc
 50
270.0
 51
0.0
  0
LINE
  5
319
100
AcDbEntity
  8
止水栓
  6
CONTINUOUS
 62
     6
100
AcDbLine
 10
1547.403007
 20
906.147873
 30
0.0
 11
1547.403007
 21
799.783971
 31
0.0
  0
LINE
  5
31A
100
AcDbEntity
  8
止水栓
  6
CONTINUOUS
 62
     6
100
AcDbLine
 10
1560.403007
 20
882.216653
 30
0.0
 11
1560.403007
 21
799.783971
 31
0.0
  0
LINE
  5
31B
100
AcDbEntity
  8
止水栓
  6
EXLTYPE3
 62
     1
100
AcDbLine
 10
337.887964
 20
2127.909156
 30
0.0
 11
498.0
 21
2127.909156
 31
0.0
  0
LINE
  5
31C
100
AcDbEntity
  8
止水栓
  6
CONTINUOUS
 62
     6
100
AcDbLine
 10
468.388906
 20
670.310688
 30
0.0
 11
441.388906
 21
670.310688
 31
0.0
  0
LINE
  5
31D
100
AcDbEntity
  8
止水栓
  6
CONTINUOUS
 62
     6
100
AcDbLine
 10
444.618984
 20
676.973888
 30
0.0
 11
444.618984
 21
670.310688
 31
0.0
  0
LINE
  5
31E
100
AcDbEntity
  8
止水栓
  6
CONTINUOUS
 62
     6
100
AcDbLine
 10
465.118984
 20
676.973888
 30
0.0
 11
465.118984
 21
670.310688
 31
0.0
  0
ARC
  5
31F
100
AcDbEntity
  8
止水栓
  6
CONTINUOUS
 62
     6
100
AcDbCircle
 10
441.388906
 20
656.310688
 30
0.0
 40
14.0
100
AcDbArc
 50
90.0
 51
180.0
  0
LINE
  5
320
100
AcDbEntity
  8
止水栓
  6
CONTINUOUS
 62
     6
100
AcDbLine
 10
465.188906
 20
654.310688
 30
0.0
 11
465.188906
 21
648.630688
 31
0.0
  0
LINE
  5
321
100
AcDbEntity
  8
止水栓
  6
CONTINUOUS
 62
     6
100
AcDbLine
 10
463.959422
 20
646.471204
 30
0.0
 11
464.204406
 21
654.310688
 31
0.0
  0
LINE
  5
322
100
AcDbEntity
  8
止水栓
  6
CONTINUOUS
 62
     6
100
AcDbLine
 10
465.158281
 20
647.650688
 30
0.0
 11
444.619531
 21
647.650688
 31
0.0
  0
LINE
  5
323
100
AcDbEntity
  8
止水栓
  6
CONTINUOUS
 62
     6
100
AcDbLine
 10
465.188906
 20
648.630688
 30
0.0
 11
465.158281
 21
647.650688
 31
0.0
  0
LINE
  5
324
100
AcDbEntity
  8
止水栓
  6
CONTINUOUS
 62
     6
100
AcDbLine
 10
465.157281
 20
647.649688
 30
0.0
 11
463.658281
 21
646.150688
 31
0.0
  0
LINE
  5
325
100
AcDbEntity
  8
止水栓
  6
CONTINUOUS
 62
     6
100
AcDbLine
 10
463.658281
 20
646.150688
 30
0.0
 11
446.119531
 21
646.150688
 31
0.0
  0
LINE
  5
326
100
AcDbEntity
  8
止水栓
  6
CONTINUOUS
 62
     6
100
AcDbLine
 10
445.81839
 20
646.471204
 30
0.0
 11
445.573406
 21
654.310688
 31
0.0
  0
LINE
  5
327
100
AcDbEntity
  8
止水栓
  6
CONTINUOUS
 62
     6
100
AcDbLine
 10
444.620531
 20
647.649688
 30
0.0
 11
446.119531
 21
646.150688
 31
0.0
  0
LINE
  5
328
100
AcDbEntity
  8
止水栓
  6
CONTINUOUS
 62
     6
100
AcDbLine
 10
444.588906
 20
654.310688
 30
0.0
 11
444.588906
 21
648.630688
 31
0.0
  0
LINE
  5
329
100
AcDbEntity
  8
止水栓
  6
CONTINUOUS
 62
     6
100
AcDbLine
 10
444.588906
 20
648.630688
 30
0.0
 11
444.619531
 21
647.650688
 31
0.0
  0
LINE
  5
32A
100
AcDbEntity
  8
止水栓
  6
CONTINUOUS
 62
     6
100
AcDbLine
 10
427.388906
 20
654.310688
 30
0.0
 11
427.388906
 21
656.310688
 31
0.0
  0
LINE
  5
32B
100
AcDbEntity
  8
止水栓
  6
CONTINUOUS
 62
     6
100
AcDbLine
 10
482.388906
 20
654.310688
 30
0.0
 11
482.388906
 21
656.310688
 31
0.0
  0
ARC
  5
32C
100
AcDbEntity
  8
止水栓
  6
CONTINUOUS
 62
     6
100
AcDbCircle
 10
468.388906
 20
656.310688
 30
0.0
 40
14.0
100
AcDbArc
 50
0.0
 51
90.0
  0
ARC
  5
32D
100
AcDbEntity
  8
止水栓
  6
CONTINUOUS
 62
     6
100
AcDbCircle
 10
483.863646
 20
682.985171
 30
0.0
 40
25.0
100
AcDbArc
 50
141.057556
 51
141.057605
  0
LINE
  5
32E
100
AcDbEntity
  8
止水栓
  6
CONTINUOUS
 62
     6
100
AcDbLine
 10
455.788891
 20
729.670957
 30
0.0
 11
463.888891
 21
729.670957
 31
0.0
  0
LINE
  5
32F
100
AcDbEntity
  8
止水栓
  6
CONTINUOUS
 62
     6
100
AcDbLine
 10
453.988891
 20
729.670957
 30
0.0
 11
445.888891
 21
729.670957
 31
0.0
  0
LINE
  5
330
100
AcDbEntity
  8
止水栓
  6
CONTINUOUS
 62
     6
100
AcDbLine
 10
453.988891
 20
729.670957
 30
0.0
 11
453.988891
 21
728.970957
 31
0.0
  0
LINE
  5
331
100
AcDbEntity
  8
止水栓
  6
CONTINUOUS
 62
     6
100
AcDbLine
 10
455.788891
 20
729.670957
 30
0.0
 11
455.788891
 21
728.970957
 31
0.0
  0
LINE
  5
332
100
AcDbEntity
  8
止水栓
  6
CONTINUOUS
 62
     6
100
AcDbLine
 10
445.888891
 20
729.670957
 30
0.0
 11
445.888891
 21
728.970957
 31
0.0
  0
LINE
  5
333
100
AcDbEntity
  8
止水栓
  6
CONTINUOUS
 62
     6
100
AcDbLine
 10
463.888891
 20
729.670957
 30
0.0
 11
463.888891
 21
728.970957
 31
0.0
  0
LINE
  5
334
100
AcDbEntity
  8
止水栓
  6
CONTINUOUS
 62
     6
100
AcDbLine
 10
442.888891
 20
728.970957
 30
0.0
 11
466.888891
 21
728.970957
 31
0.0
  0
LINE
  5
335
100
AcDbEntity
  8
止水栓
  6
CONTINUOUS
 62
     6
100
AcDbLine
 10
442.888891
 20
728.970957
 30
0.0
 11
442.888891
 21
692.496721
 31
0.0
  0
LINE
  5
336
100
AcDbEntity
  8
止水栓
  6
CONTINUOUS
 62
     6
100
AcDbLine
 10
466.888891
 20
728.970957
 30
0.0
 11
466.888891
 21
691.459726
 31
0.0
  0
LINE
  5
337
100
AcDbEntity
  8
止水栓
  6
CONTINUOUS
 62
     6
100
AcDbLine
 10
444.712539
 20
678.764999
 30
0.0
 11
465.105087
 21
678.764999
 31
0.0
  0
LINE
  5
338
100
AcDbEntity
  8
止水栓
  6
CONTINUOUS
 62
     6
100
AcDbLine
 10
467.888891
 20
679.971721
 30
0.0
 11
441.888891
 21
679.971721
 31
0.0
  0
ARC
  5
339
100
AcDbEntity
  8
止水栓
  6
CONTINUOUS
 62
     6
100
AcDbCircle
 10
454.888891
 20
663.896156
 30
0.0
 40
25.78689
100
AcDbArc
 50
73.078523
 51
106.828962
  0
LINE
  5
33A
100
AcDbEntity
  8
止水栓
  6
CONTINUOUS
 62
     6
100
AcDbLine
 10
447.423182
 20
681.088176
 30
0.0
 11
447.423182
 21
688.566591
 31
0.0
  0
ARC
  5
33B
100
AcDbEntity
  8
止水栓
  6
CONTINUOUS
 62
     6
100
AcDbCircle
 10
454.888891
 20
705.758611
 30
0.0
 40
25.78689
100
AcDbArc
 50
253.141624
 51
286.921477
  0
LINE
  5
33C
100
AcDbEntity
  8
止水栓
  6
CONTINUOUS
 62
     6
100
AcDbLine
 10
444.748412
 20
679.971721
 30
0.0
 11
444.658813
 21
676.957676
 31
0.0
  0
LINE
  5
33D
100
AcDbEntity
  8
止水栓
  6
CONTINUOUS
 62
     6
100
AcDbLine
 10
445.748853
 20
679.971721
 30
0.0
 11
445.712981
 21
678.764999
 31
0.0
  0
LINE
  5
33E
100
AcDbEntity
  8
止水栓
  6
CONTINUOUS
 62
     6
100
AcDbLine
 10
444.658813
 20
676.957676
 30
0.0
 11
445.712981
 21
678.764999
 31
0.0
  0
ARC
  5
33F
100
AcDbEntity
  8
止水栓
  6
CONTINUOUS
 62
     6
100
AcDbCircle
 10
443.670431
 20
686.836959
 30
0.0
 40
6.865249
100
AcDbArc
 50
246.844796
 51
303.136123
  0
ARC
  5
340
100
AcDbEntity
  8
止水栓
  6
CONTINUOUS
 62
     6
100
AcDbCircle
 10
443.670431
 20
682.817808
 30
0.0
 40
6.865249
100
AcDbArc
 50
56.863877
 51
123.136123
  0
LINE
  5
341
100
AcDbEntity
  8
止水栓
  6
CONTINUOUS
 62
     6
100
AcDbLine
 10
462.394444
 20
681.088176
 30
0.0
 11
462.394444
 21
688.566591
 31
0.0
  0
ARC
  5
342
100
AcDbEntity
  8
止水栓
  6
CONTINUOUS
 62
     6
100
AcDbCircle
 10
466.147196
 20
686.836959
 30
0.0
 40
6.865249
100
AcDbArc
 50
236.863877
 51
293.155204
  0
LINE
  5
343
100
AcDbEntity
  8
止水栓
  6
CONTINUOUS
 62
     6
100
AcDbLine
 10
465.069215
 20
679.971721
 30
0.0
 11
465.158813
 21
676.957676
 31
0.0
  0
LINE
  5
344
100
AcDbEntity
  8
止水栓
  6
CONTINUOUS
 62
     6
100
AcDbLine
 10
439.877834
 20
681.132805
 30
0.0
 11
441.888891
 21
679.971721
 31
0.0
  0
ARC
  5
345
100
AcDbEntity
  8
止水栓
  6
CONTINUOUS
 62
     6
100
AcDbCircle
 10
468.888891
 20
691.459726
 30
0.0
 40
2.0
100
AcDbArc
 50
180.0
 51
240.0
  0
ARC
  5
346
100
AcDbEntity
  8
止水栓
  6
CONTINUOUS
 62
     6
100
AcDbCircle
 10
440.888891
 20
691.459726
 30
0.0
 40
2.0
100
AcDbArc
 50
300.0
 51
0.0
  0
LINE
  5
347
100
AcDbEntity
  8
止水栓
  6
CONTINUOUS
 62
     6
100
AcDbLine
 10
442.888891
 20
692.496721
 30
0.0
 11
442.888891
 21
691.459726
 31
0.0
  0
LINE
  5
348
100
AcDbEntity
  8
止水栓
  6
CONTINUOUS
 62
     6
100
AcDbLine
 10
439.877834
 20
688.566591
 30
0.0
 11
441.888891
 21
689.727675
 31
0.0
  0
LINE
  5
349
100
AcDbEntity
  8
止水栓
  6
CONTINUOUS
 62
     6
100
AcDbLine
 10
439.877834
 20
681.132805
 30
0.0
 11
439.877834
 21
688.566591
 31
0.0
  0
LINE
  5
34A
100
AcDbEntity
  8
止水栓
  6
CONTINUOUS
 62
     6
100
AcDbLine
 10
464.068773
 20
679.971721
 30
0.0
 11
464.104645
 21
678.764999
 31
0.0
  0
LINE
  5
34B
100
AcDbEntity
  8
止水栓
  6
CONTINUOUS
 62
     6
100
AcDbLine
 10
465.158813
 20
676.957676
 30
0.0
 11
464.104645
 21
678.764999
 31
0.0
  0
ARC
  5
34C
100
AcDbEntity
  8
止水栓
  6
CONTINUOUS
 62
     6
100
AcDbCircle
 10
466.147196
 20
682.817808
 30
0.0
 40
6.865249
100
AcDbArc
 50
56.863877
 51
123.136123
  0
LINE
  5
34D
100
AcDbEntity
  8
止水栓
  6
CONTINUOUS
 62
     6
100
AcDbLine
 10
469.899948
 20
688.566591
 30
0.0
 11
467.888891
 21
689.727675
 31
0.0
  0
LINE
  5
34E
100
AcDbEntity
  8
止水栓
  6
CONTINUOUS
 62
     6
100
AcDbLine
 10
469.899948
 20
681.132805
 30
0.0
 11
467.888891
 21
679.971721
 31
0.0
  0
LINE
  5
34F
100
AcDbEntity
  8
止水栓
  6
CONTINUOUS
 62
     6
100
AcDbLine
 10
469.899948
 20
681.132805
 30
0.0
 11
469.899948
 21
688.566591
 31
0.0
  0
LINE
  5
350
100
AcDbEntity
  8
止水栓
  6
CONTINUOUS
 62
     6
100
AcDbLine
 10
1373.653005
 20
676.970688
 30
0.0
 11
1373.653005
 21
670.307488
 31
0.0
  0
LINE
  5
351
100
AcDbEntity
  8
止水栓
  6
CONTINUOUS
 62
     6
100
AcDbLine
 10
1394.153005
 20
676.970688
 30
0.0
 11
1394.153005
 21
670.307488
 31
0.0
  0
LINE
  5
352
100
AcDbEntity
  8
止水栓
  6
CONTINUOUS
 62
     6
100
AcDbLine
 10
1394.522928
 20
670.307488
 30
0.0
 11
1373.322928
 21
670.307488
 31
0.0
  0
ARC
  5
353
100
AcDbEntity
  8
止水栓
  6
CONTINUOUS
 62
     6
100
AcDbCircle
 10
1394.122928
 20
645.310688
 30
0.0
 40
25.0
100
AcDbArc
 50
63.322579
 51
89.083228
  0
ARC
  5
354
100
AcDbEntity
  8
止水栓
  6
CONTINUOUS
 62
     6
100
AcDbCircle
 10
1373.722928
 20
645.310688
 30
0.0
 40
25.0
100
AcDbArc
 50
90.916772
 51
116.677421
  0
LINE
  5
355
100
AcDbEntity
  8
止水栓
  6
CONTINUOUS
 62
     6
100
AcDbLine
 10
1375.021028
 20
644.605456
 30
0.0
 11
1374.732521
 21
654.310688
 31
0.0
  0
LINE
  5
356
100
AcDbEntity
  8
止水栓
  6
CONTINUOUS
 62
     6
100
AcDbLine
 10
1392.784982
 20
644.605456
 30
0.0
 11
1393.07349
 21
654.310688
 31
0.0
  0
LINE
  5
357
100
AcDbEntity
  8
止水栓
  6
CONTINUOUS
 62
     6
100
AcDbLine
 10
1374.003005
 20
645.196882
 30
0.0
 11
1373.732079
 21
654.310688
 31
0.0
  0
LINE
  5
358
100
AcDbEntity
  8
止水栓
  6
CONTINUOUS
 62
     6
100
AcDbLine
 10
1393.803005
 20
645.196882
 30
0.0
 11
1394.073932
 21
654.310688
 31
0.0
  0
LINE
  5
359
100
AcDbEntity
  8
止水栓
  6
CONTINUOUS
 62
     6
100
AcDbLine
 10
1392.553005
 20
644.470688
 30
0.0
 11
1393.803005
 21
645.196882
 31
0.0
  0
LINE
  5
35A
100
AcDbEntity
  8
止水栓
  6
CONTINUOUS
 62
     6
100
AcDbLine
 10
1392.553005
 20
644.470688
 30
0.0
 11
1375.253005
 21
644.470688
 31
0.0
  0
LINE
  5
35B
100
AcDbEntity
  8
止水栓
  6
CONTINUOUS
 62
     6
100
AcDbLine
 10
1375.253005
 20
644.470688
 30
0.0
 11
1374.003005
 21
645.196882
 31
0.0
  0
LINE
  5
35C
100
AcDbEntity
  8
止水栓
  6
CONTINUOUS
 62
     6
100
AcDbLine
 10
1393.803005
 20
645.196882
 30
0.0
 11
1374.003005
 21
645.196882
 31
0.0
  0
ARC
  5
35D
100
AcDbEntity
  8
止水栓
  6
CONTINUOUS
 62
     6
100
AcDbCircle
 10
1369.122928
 20
656.813793
 30
0.0
 40
12.7
100
AcDbArc
 50
121.438859
 51
180.0
  0
LINE
  5
35E
100
AcDbEntity
  8
止水栓
  6
CONTINUOUS
 62
     6
100
AcDbLine
 10
1356.422928
 20
656.813793
 30
0.0
 11
1356.422928
 21
654.310688
 31
0.0
  0
LINE
  5
35F
100
AcDbEntity
  8
止水栓
  6
CONTINUOUS
 62
     6
100
AcDbLine
 10
1383.022928
 20
729.683956
 30
0.0
 11
1374.922928
 21
729.683956
 31
0.0
  0
LINE
  5
360
100
AcDbEntity
  8
止水栓
  6
CONTINUOUS
 62
     6
100
AcDbLine
 10
1384.822928
 20
729.683956
 30
0.0
 11
1392.922928
 21
729.683956
 31
0.0
  0
LINE
  5
361
100
AcDbEntity
  8
止水栓
  6
CONTINUOUS
 62
     6
100
AcDbLine
 10
1384.822928
 20
729.683956
 30
0.0
 11
1384.822928
 21
728.983956
 31
0.0
  0
LINE
  5
362
100
AcDbEntity
  8
止水栓
  6
CONTINUOUS
 62
     6
100
AcDbLine
 10
1383.022928
 20
729.683956
 30
0.0
 11
1383.022928
 21
728.983956
 31
0.0
  0
LINE
  5
363
100
AcDbEntity
  8
止水栓
  6
CONTINUOUS
 62
     6
100
AcDbLine
 10
1392.922928
 20
729.683956
 30
0.0
 11
1392.922928
 21
728.983956
 31
0.0
  0
LINE
  5
364
100
AcDbEntity
  8
止水栓
  6
CONTINUOUS
 62
     6
100
AcDbLine
 10
1374.922928
 20
729.683956
 30
0.0
 11
1374.922928
 21
728.983956
 31
0.0
  0
LINE
  5
365
100
AcDbEntity
  8
止水栓
  6
CONTINUOUS
 62
     6
100
AcDbLine
 10
1395.922928
 20
728.983956
 30
0.0
 11
1371.922928
 21
728.983956
 31
0.0
  0
LINE
  5
366
100
AcDbEntity
  8
止水栓
  6
CONTINUOUS
 62
     6
100
AcDbLine
 10
1395.922928
 20
728.983956
 30
0.0
 11
1395.922928
 21
721.237453
 31
0.0
  0
ARC
  5
367
100
AcDbEntity
  8
止水栓
  6
CONTINUOUS
 62
     6
100
AcDbCircle
 10
1400.421755
 20
723.419323
 30
0.0
 40
5.0
100
AcDbArc
 50
205.872755
 51
262.555023
  0
LINE
  5
368
100
AcDbEntity
  8
止水栓
  6
CONTINUOUS
 62
     6
100
AcDbLine
 10
1401.796839
 20
718.461471
 30
0.0
 11
1403.922968
 21
717.233947
 31
0.0
  0
LINE
  5
369
100
AcDbEntity
  8
止水栓
  6
CONTINUOUS
 62
     6
100
AcDbLine
 10
1371.922928
 20
692.373921
 30
0.0
 11
1371.922928
 21
728.983956
 31
0.0
  0
ARC
  5
36A
100
AcDbEntity
  8
止水栓
  6
CONTINUOUS
 62
     6
100
AcDbCircle
 10
1400.922928
 20
692.506465
 30
0.0
 40
5.0
100
AcDbArc
 50
90.0
 51
180.0
  0
LINE
  5
36B
100
AcDbEntity
  8
止水栓
  6
CONTINUOUS
 62
     6
100
AcDbLine
 10
1395.922928
 20
692.494504
 30
0.0
 11
1395.922928
 21
692.373921
 31
0.0
  0
LINE
  5
36C
100
AcDbEntity
  8
止水栓
  6
CONTINUOUS
 62
     6
100
AcDbLine
 10
1373.653005
 20
676.970688
 30
0.0
 11
1374.707173
 21
678.778011
 31
0.0
  0
LINE
  5
36D
100
AcDbEntity
  8
止水栓
  6
CONTINUOUS
 62
     6
100
AcDbLine
 10
1374.743046
 20
679.984733
 30
0.0
 11
1374.707173
 21
678.778011
 31
0.0
  0
LINE
  5
36E
100
AcDbEntity
  8
止水栓
  6
CONTINUOUS
 62
     6
100
AcDbLine
 10
1373.742604
 20
679.984733
 30
0.0
 11
1373.653005
 21
676.970688
 31
0.0
  0
LINE
  5
36F
100
AcDbEntity
  8
止水栓
  6
CONTINUOUS
 62
     6
100
AcDbLine
 10
1394.153005
 20
676.970688
 30
0.0
 11
1393.098837
 21
678.778011
 31
0.0
  0
LINE
  5
370
100
AcDbEntity
  8
止水栓
  6
CONTINUOUS
 62
     6
100
AcDbLine
 10
1393.062965
 20
679.984733
 30
0.0
 11
1393.098837
 21
678.778011
 31
0.0
  0
LINE
  5
371
100
AcDbEntity
  8
止水栓
  6
CONTINUOUS
 62
     6
100
AcDbLine
 10
1394.063407
 20
679.984733
 30
0.0
 11
1394.153005
 21
676.970688
 31
0.0
  0
LINE
  5
372
100
AcDbEntity
  8
止水栓
  6
CONTINUOUS
 62
     6
100
AcDbLine
 10
1394.099279
 20
678.778011
 30
0.0
 11
1373.706732
 21
678.778011
 31
0.0
  0
LINE
  5
373
100
AcDbEntity
  8
止水栓
  6
CONTINUOUS
 62
     6
100
AcDbLine
 10
1371.672928
 20
679.981532
 30
0.0
 11
1396.172928
 21
679.981532
 31
0.0
  0
LINE
  5
374
100
AcDbEntity
  8
止水栓
  6
CONTINUOUS
 62
     6
100
AcDbLine
 10
1371.172928
 20
689.342832
 30
0.0
 11
1371.172928
 21
680.270208
 31
0.0
  0
LINE
  5
375
100
AcDbEntity
  8
止水栓
  6
CONTINUOUS
 62
     6
100
AcDbLine
 10
1396.672928
 20
689.342832
 30
0.0
 11
1396.672928
 21
680.270208
 31
0.0
  0
LINE
  5
376
100
AcDbEntity
  8
止水栓
  6
CONTINUOUS
 62
     6
100
AcDbLine
 10
1396.172928
 20
679.981532
 30
0.0
 11
1396.672928
 21
680.270208
 31
0.0
  0
LINE
  5
377
100
AcDbEntity
  8
止水栓
  6
CONTINUOUS
 62
     6
100
AcDbLine
 10
1371.672928
 20
679.981532
 30
0.0
 11
1371.172928
 21
680.270208
 31
0.0
  0
ARC
  5
378
100
AcDbEntity
  8
止水栓
  6
CONTINUOUS
 62
     6
100
AcDbCircle
 10
1377.547928
 20
679.159878
 30
0.0
 40
10.182953
100
AcDbArc
 50
51.240977
 51
128.759023
  0
ARC
  5
379
100
AcDbEntity
  8
止水栓
  6
CONTINUOUS
 62
     6
100
AcDbCircle
 10
1390.297928
 20
679.159878
 30
0.0
 40
10.182953
100
AcDbArc
 50
51.240977
 51
128.759023
  0
ARC
  5
37A
100
AcDbEntity
  8
止水栓
  6
CONTINUOUS
 62
     6
100
AcDbCircle
 10
1377.547928
 20
698.882259
 30
0.0
 40
18.612052
100
AcDbArc
 50
249.969519
 51
290.030481
  0
ARC
  5
37B
100
AcDbEntity
  8
止水栓
  6
CONTINUOUS
 62
     6
100
AcDbCircle
 10
1390.297928
 20
698.882259
 30
0.0
 40
18.612052
100
AcDbArc
 50
249.969519
 51
290.030481
  0
ARC
  5
37C
100
AcDbEntity
  8
止水栓
  6
CONTINUOUS
 62
     6
100
AcDbCircle
 10
1402.422928
 20
692.373921
 30
0.0
 40
6.5
100
AcDbArc
 50
180.0
 51
207.795772
  0
ARC
  5
37D
100
AcDbEntity
  8
止水栓
  6
CONTINUOUS
 62
     6
100
AcDbCircle
 10
1365.422928
 20
692.373921
 30
0.0
 40
6.5
100
AcDbArc
 50
332.204228
 51
0.0
  0
LINE
  5
37E
100
AcDbEntity
  8
止水栓
  6
CONTINUOUS
 62
     6
100
AcDbLine
 10
1401.796837
 20
697.506466
 30
0.0
 11
1403.922966
 21
698.73399
 31
0.0
  0
LINE
  5
37F
100
AcDbEntity
  8
止水栓
  6
CONTINUOUS
 62
     6
100
AcDbLine
 10
1403.922968
 20
718.461455
 30
0.0
 11
1403.922968
 21
697.506465
 31
0.0
  0
ARC
  5
380
100
AcDbEntity
  8
止水栓
  6
CONTINUOUS
 62
     6
100
AcDbCircle
 10
1398.722928
 20
656.813793
 30
0.0
 40
12.7
100
AcDbArc
 50
0.0
 51
58.561141
  0
POLYLINE
  5
381
100
AcDbEntity
  8
止水栓
  6
CONTINUOUS
 62
     6
100
AcDb2dPolyline
 66
     1
 10
0.0
 20
0.0
 30
0.0
 70
   128
  0
VERTEX
  5
382
100
AcDbEntity
  8
止水栓
  6
CONTINUOUS
 62
     6
100
AcDbVertex
100
AcDb2dVertex
 10
1411.422928
 20
656.813793
 30
0.0
  0
VERTEX
  5
383
100
AcDbEntity
  8
止水栓
  6
CONTINUOUS
 62
     6
100
AcDbVertex
100
AcDb2dVertex
 10
1411.422928
 20
654.310688
 30
0.0
  0
SEQEND
  5
384
100
AcDbEntity
  8
止水栓
  6
CONTINUOUS
 62
     6
  0
LINE
  5
385
100
AcDbEntity
  8
止水栓
  6
CONTINUOUS
 62
     6
100
AcDbLine
 10
464.204406
 20
2147.909156
 30
0.0
 11
465.418104
 21
2145.80694
 31
0.0
  0
LINE
  5
386
100
AcDbEntity
  8
止水栓
  6
CONTINUOUS
 62
     6
100
AcDbLine
 10
465.366406
 20
2147.909156
 30
0.0
 11
444.411406
 21
2147.909156
 31
0.0
  0
LINE
  5
387
100
AcDbEntity
  8
止水栓
  6
CONTINUOUS
 62
     6
100
AcDbLine
 10
445.573406
 20
2147.909156
 30
0.0
 11
444.359708
 21
2145.80694
 31
0.0
  0
LINE
  5
388
100
AcDbEntity
  8
止水栓
  6
CONTINUOUS
 62
     6
100
AcDbLine
 10
444.411406
 20
2141.053337
 30
0.0
 11
444.411406
 21
2151.909156
 31
0.0
  0
LINE
  5
389
100
AcDbEntity
  8
止水栓
  6
CONTINUOUS
 62
     6
100
AcDbLine
 10
445.573406
 20
2151.909156
 30
0.0
 11
445.573406
 21
2147.909156
 31
0.0
  0
LINE
  5
38A
100
AcDbEntity
  8
止水栓
  6
CONTINUOUS
 62
     6
100
AcDbLine
 10
464.204406
 20
2151.909156
 30
0.0
 11
464.204406
 21
2147.909156
 31
0.0
  0
LINE
  5
38B
100
AcDbEntity
  8
止水栓
  6
CONTINUOUS
 62
     6
100
AcDbLine
 10
465.366406
 20
2141.053337
 30
0.0
 11
465.366406
 21
2151.683326
 31
0.0
  0
POLYLINE
  5
38C
100
AcDbEntity
  8
止水栓
  6
CONTINUOUS
 62
     6
100
AcDb2dPolyline
 66
     1
 10
0.0
 20
0.0
 30
0.0
 70
   128
  0
VERTEX
  5
38D
100
AcDbEntity
  8
止水栓
  6
CONTINUOUS
 62
     6
100
AcDbVertex
100
AcDb2dVertex
 10
460.746603
 20
2158.132301
 30
0.0
  0
VERTEX
  5
38E
100
AcDbEntity
  8
止水栓
  6
CONTINUOUS
 62
     6
100
AcDbVertex
100
AcDb2dVertex
 10
460.72463
 20
2158.615699
 30
0.0
  0
VERTEX
  5
38F
100
AcDbEntity
  8
止水栓
  6
CONTINUOUS
 62
     6
100
AcDbVertex
100
AcDb2dVertex
 10
460.658712
 20
2159.096656
 30
0.0
  0
VERTEX
  5
390
100
AcDbEntity
  8
止水栓
  6
CONTINUOUS
 62
     6
100
AcDbVertex
100
AcDb2dVertex
 10
460.548849
 20
2159.570289
 30
0.0
  0
VERTEX
  5
391
100
AcDbEntity
  8
止水栓
  6
CONTINUOUS
 62
     6
100
AcDbVertex
100
AcDb2dVertex
 10
460.39504
 20
2160.034156
 30
0.0
  0
VERTEX
  5
392
100
AcDbEntity
  8
止水栓
  6
CONTINUOUS
 62
     6
100
AcDbVertex
100
AcDb2dVertex
 10
460.202169
 20
2160.480934
 30
0.0
  0
VERTEX
  5
393
100
AcDbEntity
  8
止水栓
  6
CONTINUOUS
 62
     6
100
AcDbVertex
100
AcDb2dVertex
 10
459.965353
 20
2160.913063
 30
0.0
  0
VERTEX
  5
394
100
AcDbEntity
  8
止水栓
  6
CONTINUOUS
 62
     6
100
AcDbVertex
100
AcDb2dVertex
 10
459.691915
 20
2161.320777
 30
0.0
  0
VERTEX
  5
395
100
AcDbEntity
  8
止水栓
  6
CONTINUOUS
 62
     6
100
AcDbVertex
100
AcDb2dVertex
 10
459.381857
 20
2161.70652
 30
0.0
  0
VERTEX
  5
396
100
AcDbEntity
  8
止水栓
  6
CONTINUOUS
 62
     6
100
AcDbVertex
100
AcDb2dVertex
 10
459.04006
 20
2162.062965
 30
0.0
  0
VERTEX
  5
397
100
AcDbEntity
  8
止水栓
  6
CONTINUOUS
 62
     6
100
AcDbVertex
100
AcDb2dVertex
 10
458.664083
 20
2162.392555
 30
0.0
  0
VERTEX
  5
398
100
AcDbEntity
  8
止水栓
  6
CONTINUOUS
 62
     6
100
AcDbVertex
100
AcDb2dVertex
 10
458.261251
 20
2162.685524
 30
0.0
  0
VERTEX
  5
399
100
AcDbEntity
  8
止水栓
  6
CONTINUOUS
 62
     6
100
AcDbVertex
100
AcDb2dVertex
 10
457.831564
 20
2162.949195
 30
0.0
  0
VERTEX
  5
39A
100
AcDbEntity
  8
止水栓
  6
CONTINUOUS
 62
     6
100
AcDbVertex
100
AcDb2dVertex
 10
457.379903
 20
2163.173805
 30
0.0
  0
VERTEX
  5
39B
100
AcDbEntity
  8
止水栓
  6
CONTINUOUS
 62
     6
100
AcDbVertex
100
AcDb2dVertex
 10
456.911153
 20
2163.359352
 30
0.0
  0
VERTEX
  5
39C
100
AcDbEntity
  8
止水栓
  6
CONTINUOUS
 62
     6
100
AcDbVertex
100
AcDb2dVertex
 10
456.425314
 20
2163.503395
 30
0.0
  0
VERTEX
  5
39D
100
AcDbEntity
  8
止水栓
  6
CONTINUOUS
 62
     6
100
AcDbVertex
100
AcDb2dVertex
 10
455.929708
 20
2163.608375
 30
0.0
  0
VERTEX
  5
39E
100
AcDbEntity
  8
止水栓
  6
CONTINUOUS
 62
     6
100
AcDbVertex
100
AcDb2dVertex
 10
455.424337
 20
2163.671852
 30
0.0
  0
VERTEX
  5
39F
100
AcDbEntity
  8
止水栓
  6
CONTINUOUS
 62
     6
100
AcDbVertex
100
AcDb2dVertex
 10
454.916525
 20
2163.693824
 30
0.0
  0
VERTEX
  5
3A0
100
AcDbEntity
  8
止水栓
  6
CONTINUOUS
 62
     6
100
AcDbVertex
100
AcDb2dVertex
 10
454.906759
 20
2163.693824
 30
0.0
  0
VERTEX
  5
3A1
100
AcDbEntity
  8
止水栓
  6
CONTINUOUS
 62
     6
100
AcDbVertex
100
AcDb2dVertex
 10
454.899435
 20
2163.693824
 30
0.0
  0
VERTEX
  5
3A2
100
AcDbEntity
  8
止水栓
  6
CONTINUOUS
 62
     6
100
AcDbVertex
100
AcDb2dVertex
 10
454.889669
 20
2163.693824
 30
0.0
  0
SEQEND
  5
3A3
100
AcDbEntity
  8
止水栓
  6
CONTINUOUS
 62
     6
  0
LINE
  5
3A4
100
AcDbEntity
  8
止水栓
  6
CONTINUOUS
 62
     6
100
AcDbLine
 10
461.639669
 20
2197.908668
 30
0.0
 11
448.139669
 21
2197.908668
 31
0.0
  0
LINE
  5
3A5
100
AcDbEntity
  8
止水栓
  6
CONTINUOUS
 62
     6
100
AcDbLine
 10
459.639669
 20
2173.908668
 30
0.0
 11
450.139669
 21
2173.908668
 31
0.0
  0
LINE
  5
3A6
100
AcDbEntity
  8
止水栓
  6
CONTINUOUS
 62
     6
100
AcDbLine
 10
460.639669
 20
2170.908668
 30
0.0
 11
449.139669
 21
2170.908668
 31
0.0
  0
LINE
  5
3A7
100
AcDbEntity
  8
止水栓
  6
CONTINUOUS
 62
     6
100
AcDbLine
 10
459.639669
 20
2181.908668
 30
0.0
 11
450.139669
 21
2181.908668
 31
0.0
  0
LINE
  5
3A8
100
AcDbEntity
  8
止水栓
  6
CONTINUOUS
 62
     6
100
AcDbLine
 10
459.639669
 20
2186.908668
 30
0.0
 11
450.139669
 21
2186.908668
 31
0.0
  0
LINE
  5
3A9
100
AcDbEntity
  8
止水栓
  6
CONTINUOUS
 62
     6
100
AcDbLine
 10
459.639669
 20
2178.908668
 30
0.0
 11
450.139669
 21
2178.908668
 31
0.0
  0
LINE
  5
3AA
100
AcDbEntity
  8
止水栓
  6
CONTINUOUS
 62
     6
100
AcDbLine
 10
461.639669
 20
2189.908668
 30
0.0
 11
448.139669
 21
2189.908668
 31
0.0
  0
POLYLINE
  5
3AB
100
AcDbEntity
  8
止水栓
  6
CONTINUOUS
 62
     6
100
AcDb2dPolyline
 66
     1
 10
0.0
 20
0.0
 30
0.0
 70
   128
  0
VERTEX
  5
3AC
100
AcDbEntity
  8
止水栓
  6
CONTINUOUS
 62
     6
100
AcDbVertex
100
AcDb2dVertex
 10
454.889669
 20
2163.693824
 30
0.0
  0
VERTEX
  5
3AD
100
AcDbEntity
  8
止水栓
  6
CONTINUOUS
 62
     6
100
AcDbVertex
100
AcDb2dVertex
 10
454.391622
 20
2163.671852
 30
0.0
  0
VERTEX
  5
3AE
100
AcDbEntity
  8
止水栓
  6
CONTINUOUS
 62
     6
100
AcDbVertex
100
AcDb2dVertex
 10
453.896017
 20
2163.605934
 30
0.0
  0
VERTEX
  5
3AF
100
AcDbEntity
  8
止水栓
  6
CONTINUOUS
 62
     6
100
AcDbVertex
100
AcDb2dVertex
 10
453.407736
 20
2163.503395
 30
0.0
  0
VERTEX
  5
3B0
100
AcDbEntity
  8
止水栓
  6
CONTINUOUS
 62
     6
100
AcDbVertex
100
AcDb2dVertex
 10
452.921896
 20
2163.35691
 30
0.0
  0
VERTEX
  5
3B1
100
AcDbEntity
  8
止水栓
  6
CONTINUOUS
 62
     6
100
AcDbVertex
100
AcDb2dVertex
 10
452.453146
 20
2163.171363
 30
0.0
  0
VERTEX
  5
3B2
100
AcDbEntity
  8
止水栓
  6
CONTINUOUS
 62
     6
100
AcDbVertex
100
AcDb2dVertex
 10
452.001486
 20
2162.949195
 30
0.0
  0
VERTEX
  5
3B3
100
AcDbEntity
  8
止水栓
  6
CONTINUOUS
 62
     6
100
AcDbVertex
100
AcDb2dVertex
 10
451.571798
 20
2162.687965
 30
0.0
  0
VERTEX
  5
3B4
100
AcDbEntity
  8
止水栓
  6
CONTINUOUS
 62
     6
100
AcDbVertex
100
AcDb2dVertex
 10
451.168966
 20
2162.392555
 30
0.0
  0
VERTEX
  5
3B5
100
AcDbEntity
  8
止水栓
  6
CONTINUOUS
 62
     6
100
AcDbVertex
100
AcDb2dVertex
 10
450.792989
 20
2162.065406
 30
0.0
  0
VERTEX
  5
3B6
100
AcDbEntity
  8
止水栓
  6
CONTINUOUS
 62
     6
100
AcDbVertex
100
AcDb2dVertex
 10
450.451193
 20
2161.70652
 30
0.0
  0
VERTEX
  5
3B7
100
AcDbEntity
  8
止水栓
  6
CONTINUOUS
 62
     6
100
AcDbVertex
100
AcDb2dVertex
 10
450.141134
 20
2161.320777
 30
0.0
  0
VERTEX
  5
3B8
100
AcDbEntity
  8
止水栓
  6
CONTINUOUS
 62
     6
100
AcDbVertex
100
AcDb2dVertex
 10
449.867696
 20
2160.913063
 30
0.0
  0
VERTEX
  5
3B9
100
AcDbEntity
  8
止水栓
  6
CONTINUOUS
 62
     6
100
AcDbVertex
100
AcDb2dVertex
 10
449.63088
 20
2160.483375
 30
0.0
  0
VERTEX
  5
3BA
100
AcDbEntity
  8
止水栓
  6
CONTINUOUS
 62
     6
100
AcDbVertex
100
AcDb2dVertex
 10
449.438009
 20
2160.034156
 30
0.0
  0
VERTEX
  5
3BB
100
AcDbEntity
  8
止水栓
  6
CONTINUOUS
 62
     6
100
AcDbVertex
100
AcDb2dVertex
 10
449.2842
 20
2159.570289
 30
0.0
  0
VERTEX
  5
3BC
100
AcDbEntity
  8
止水栓
  6
CONTINUOUS
 62
     6
100
AcDbVertex
100
AcDb2dVertex
 10
449.174337
 20
2159.096656
 30
0.0
  0
VERTEX
  5
3BD
100
AcDbEntity
  8
止水栓
  6
CONTINUOUS
 62
     6
100
AcDbVertex
100
AcDb2dVertex
 10
449.108419
 20
2158.615699
 30
0.0
  0
VERTEX
  5
3BE
100
AcDbEntity
  8
止水栓
  6
CONTINUOUS
 62
     6
100
AcDbVertex
100
AcDb2dVertex
 10
449.084005
 20
2158.132301
 30
0.0
  0
VERTEX
  5
3BF
100
AcDbEntity
  8
止水栓
  6
CONTINUOUS
 62
     6
100
AcDbVertex
100
AcDb2dVertex
 10
449.108419
 20
2157.646461
 30
0.0
  0
VERTEX
  5
3C0
100
AcDbEntity
  8
止水栓
  6
CONTINUOUS
 62
     6
100
AcDbVertex
100
AcDb2dVertex
 10
449.174337
 20
2157.165504
 30
0.0
  0
VERTEX
  5
3C1
100
AcDbEntity
  8
止水栓
  6
CONTINUOUS
 62
     6
100
AcDbVertex
100
AcDb2dVertex
 10
449.2842
 20
2156.691871
 30
0.0
  0
VERTEX
  5
3C2
100
AcDbEntity
  8
止水栓
  6
CONTINUOUS
 62
     6
100
AcDbVertex
100
AcDb2dVertex
 10
449.438009
 20
2156.230445
 30
0.0
  0
VERTEX
  5
3C3
100
AcDbEntity
  8
止水栓
  6
CONTINUOUS
 62
     6
100
AcDbVertex
100
AcDb2dVertex
 10
449.63088
 20
2155.781227
 30
0.0
  0
VERTEX
  5
3C4
100
AcDbEntity
  8
止水栓
  6
CONTINUOUS
 62
     6
100
AcDbVertex
100
AcDb2dVertex
 10
449.867696
 20
2155.351539
 30
0.0
  0
VERTEX
  5
3C5
100
AcDbEntity
  8
止水栓
  6
CONTINUOUS
 62
     6
100
AcDbVertex
100
AcDb2dVertex
 10
450.141134
 20
2154.941383
 30
0.0
  0
VERTEX
  5
3C6
100
AcDbEntity
  8
止水栓
  6
CONTINUOUS
 62
     6
100
AcDbVertex
100
AcDb2dVertex
 10
450.451193
 20
2154.558082
 30
0.0
  0
VERTEX
  5
3C7
100
AcDbEntity
  8
止水栓
  6
CONTINUOUS
 62
     6
100
AcDbVertex
100
AcDb2dVertex
 10
450.792989
 20
2154.199195
 30
0.0
  0
VERTEX
  5
3C8
100
AcDbEntity
  8
止水栓
  6
CONTINUOUS
 62
     6
100
AcDbVertex
100
AcDb2dVertex
 10
451.168966
 20
2153.872047
 30
0.0
  0
VERTEX
  5
3C9
100
AcDbEntity
  8
止水栓
  6
CONTINUOUS
 62
     6
100
AcDbVertex
100
AcDb2dVertex
 10
451.571798
 20
2153.576637
 30
0.0
  0
VERTEX
  5
3CA
100
AcDbEntity
  8
止水栓
  6
CONTINUOUS
 62
     6
100
AcDbVertex
100
AcDb2dVertex
 10
452.001486
 20
2153.315406
 30
0.0
  0
VERTEX
  5
3CB
100
AcDbEntity
  8
止水栓
  6
CONTINUOUS
 62
     6
100
AcDbVertex
100
AcDb2dVertex
 10
452.453146
 20
2153.090797
 30
0.0
  0
VERTEX
  5
3CC
100
AcDbEntity
  8
止水栓
  6
CONTINUOUS
 62
     6
100
AcDbVertex
100
AcDb2dVertex
 10
452.921896
 20
2152.90525
 30
0.0
  0
VERTEX
  5
3CD
100
AcDbEntity
  8
止水栓
  6
CONTINUOUS
 62
     6
100
AcDbVertex
100
AcDb2dVertex
 10
453.407736
 20
2152.761207
 30
0.0
  0
VERTEX
  5
3CE
100
AcDbEntity
  8
止水栓
  6
CONTINUOUS
 62
     6
100
AcDbVertex
100
AcDb2dVertex
 10
453.903341
 20
2152.656227
 30
0.0
  0
VERTEX
  5
3CF
100
AcDbEntity
  8
止水栓
  6
CONTINUOUS
 62
     6
100
AcDbVertex
100
AcDb2dVertex
 10
454.408712
 20
2152.59275
 30
0.0
  0
VERTEX
  5
3D0
100
AcDbEntity
  8
止水栓
  6
CONTINUOUS
 62
     6
100
AcDbVertex
100
AcDb2dVertex
 10
454.916525
 20
2152.570777
 30
0.0
  0
VERTEX
  5
3D1
100
AcDbEntity
  8
止水栓
  6
CONTINUOUS
 62
     6
100
AcDbVertex
100
AcDb2dVertex
 10
455.424337
 20
2152.59275
 30
0.0
  0
VERTEX
  5
3D2
100
AcDbEntity
  8
止水栓
  6
CONTINUOUS
 62
     6
100
AcDbVertex
100
AcDb2dVertex
 10
455.929708
 20
2152.656227
 30
0.0
  0
VERTEX
  5
3D3
100
AcDbEntity
  8
止水栓
  6
CONTINUOUS
 62
     6
100
AcDbVertex
100
AcDb2dVertex
 10
456.425314
 20
2152.761207
 30
0.0
  0
VERTEX
  5
3D4
100
AcDbEntity
  8
止水栓
  6
CONTINUOUS
 62
     6
100
AcDbVertex
100
AcDb2dVertex
 10
456.911153
 20
2152.90525
 30
0.0
  0
VERTEX
  5
3D5
100
AcDbEntity
  8
止水栓
  6
CONTINUOUS
 62
     6
100
AcDbVertex
100
AcDb2dVertex
 10
457.379903
 20
2153.090797
 30
0.0
  0
VERTEX
  5
3D6
100
AcDbEntity
  8
止水栓
  6
CONTINUOUS
 62
     6
100
AcDbVertex
100
AcDb2dVertex
 10
457.831564
 20
2153.315406
 30
0.0
  0
VERTEX
  5
3D7
100
AcDbEntity
  8
止水栓
  6
CONTINUOUS
 62
     6
100
AcDbVertex
100
AcDb2dVertex
 10
458.261251
 20
2153.576637
 30
0.0
  0
VERTEX
  5
3D8
100
AcDbEntity
  8
止水栓
  6
CONTINUOUS
 62
     6
100
AcDbVertex
100
AcDb2dVertex
 10
458.664083
 20
2153.872047
 30
0.0
  0
VERTEX
  5
3D9
100
AcDbEntity
  8
止水栓
  6
CONTINUOUS
 62
     6
100
AcDbVertex
100
AcDb2dVertex
 10
459.04006
 20
2154.199195
 30
0.0
  0
VERTEX
  5
3DA
100
AcDbEntity
  8
止水栓
  6
CONTINUOUS
 62
     6
100
AcDbVertex
100
AcDb2dVertex
 10
459.381857
 20
2154.558082
 30
0.0
  0
VERTEX
  5
3DB
100
AcDbEntity
  8
止水栓
  6
CONTINUOUS
 62
     6
100
AcDbVertex
100
AcDb2dVertex
 10
459.691915
 20
2154.941383
 30
0.0
  0
VERTEX
  5
3DC
100
AcDbEntity
  8
止水栓
  6
CONTINUOUS
 62
     6
100
AcDbVertex
100
AcDb2dVertex
 10
459.965353
 20
2155.351539
 30
0.0
  0
VERTEX
  5
3DD
100
AcDbEntity
  8
止水栓
  6
CONTINUOUS
 62
     6
100
AcDbVertex
100
AcDb2dVertex
 10
460.202169
 20
2155.781227
 30
0.0
  0
VERTEX
  5
3DE
100
AcDbEntity
  8
止水栓
  6
CONTINUOUS
 62
     6
100
AcDbVertex
100
AcDb2dVertex
 10
460.39504
 20
2156.230445
 30
0.0
  0
VERTEX
  5
3DF
100
AcDbEntity
  8
止水栓
  6
CONTINUOUS
 62
     6
100
AcDbVertex
100
AcDb2dVertex
 10
460.548849
 20
2156.691871
 30
0.0
  0
VERTEX
  5
3E0
100
AcDbEntity
  8
止水栓
  6
CONTINUOUS
 62
     6
100
AcDbVertex
100
AcDb2dVertex
 10
460.658712
 20
2157.165504
 30
0.0
  0
VERTEX
  5
3E1
100
AcDbEntity
  8
止水栓
  6
CONTINUOUS
 62
     6
100
AcDbVertex
100
AcDb2dVertex
 10
460.72463
 20
2157.646461
 30
0.0
  0
VERTEX
  5
3E2
100
AcDbEntity
  8
止水栓
  6
CONTINUOUS
 62
     6
100
AcDbVertex
100
AcDb2dVertex
 10
460.746603
 20
2158.12986
 30
0.0
  0
SEQEND
  5
3E3
100
AcDbEntity
  8
止水栓
  6
CONTINUOUS
 62
     6
  0
LINE
  5
3E4
100
AcDbEntity
  8
止水栓
  6
CONTINUOUS
 62
     6
100
AcDbLine
 10
465.389669
 20
2168.908668
 30
0.0
 11
444.389669
 21
2168.908668
 31
0.0
  0
LINE
  5
3E5
100
AcDbEntity
  8
止水栓
  6
CONTINUOUS
 62
     6
100
AcDbLine
 10
465.858907
 20
2151.909156
 30
0.0
 11
443.918905
 21
2151.909156
 31
0.0
  0
LINE
  5
3E6
100
AcDbEntity
  8
止水栓
  6
CONTINUOUS
 62
     6
100
AcDbLine
 10
465.858907
 20
2163.908668
 30
0.0
 11
443.920431
 21
2163.908668
 31
0.0
  0
LINE
  5
3E7
100
AcDbEntity
  8
止水栓
  6
CONTINUOUS
 62
     6
100
AcDbLine
 10
465.389669
 20
2163.908668
 30
0.0
 11
465.389669
 21
2168.908668
 31
0.0
  0
LINE
  5
3E8
100
AcDbEntity
  8
止水栓
  6
CONTINUOUS
 62
     6
100
AcDbLine
 10
461.639669
 20
2189.908668
 30
0.0
 11
461.639669
 21
2197.908668
 31
0.0
  0
LINE
  5
3E9
100
AcDbEntity
  8
止水栓
  6
CONTINUOUS
 62
     6
100
AcDbLine
 10
460.639669
 20
2170.908668
 30
0.0
 11
460.639669
 21
2173.908668
 31
0.0
  0
LINE
  5
3EA
100
AcDbEntity
  8
止水栓
  6
CONTINUOUS
 62
     6
100
AcDbLine
 10
458.889669
 20
2168.908668
 30
0.0
 11
458.889669
 21
2170.908668
 31
0.0
  0
ARC
  5
3EB
100
AcDbEntity
  8
止水栓
  6
CONTINUOUS
 62
     6
100
AcDbCircle
 10
459.639669
 20
2184.408668
 30
0.0
 40
2.5
100
AcDbArc
 50
0.0
 51
90.0
  0
ARC
  5
3EC
100
AcDbEntity
  8
止水栓
  6
CONTINUOUS
 62
     6
100
AcDbCircle
 10
459.639669
 20
2184.408668
 30
0.0
 40
2.5
100
AcDbArc
 50
270.0
 51
0.0
  0
ARC
  5
3ED
100
AcDbEntity
  8
止水栓
  6
CONTINUOUS
 62
     6
100
AcDbCircle
 10
459.639669
 20
2176.408668
 30
0.0
 40
2.5
100
AcDbArc
 50
0.0
 51
90.0
  0
LINE
  5
3EE
100
AcDbEntity
  8
止水栓
  6
CONTINUOUS
 62
     6
100
AcDbLine
 10
460.639669
 20
2178.908668
 30
0.0
 11
460.639669
 21
2181.908668
 31
0.0
  0
LINE
  5
3EF
100
AcDbEntity
  8
止水栓
  6
CONTINUOUS
 62
     6
100
AcDbLine
 10
460.639669
 20
2186.908668
 30
0.0
 11
460.639669
 21
2189.908668
 31
0.0
  0
ARC
  5
3F0
100
AcDbEntity
  8
止水栓
  6
CONTINUOUS
 62
     6
100
AcDbCircle
 10
459.639669
 20
2176.408668
 30
0.0
 40
2.5
100
AcDbArc
 50
270.0
 51
0.0
  0
POLYLINE
  5
3F1
100
AcDbEntity
  8
止水栓
  6
CONTINUOUS
 62
     6
100
AcDb2dPolyline
 66
     1
 10
0.0
 20
0.0
 30
0.0
 70
   128
  0
VERTEX
  5
3F2
100
AcDbEntity
  8
止水栓
  6
CONTINUOUS
 62
     6
100
AcDbVertex
100
AcDb2dVertex
 10
467.301778
 20
2156.867652
 30
0.0
  0
VERTEX
  5
3F3
100
AcDbEntity
  8
止水栓
  6
CONTINUOUS
 62
     6
100
AcDbVertex
100
AcDb2dVertex
 10
467.348165
 20
2157.292457
 30
0.0
  0
VERTEX
  5
3F4
100
AcDbEntity
  8
止水栓
  6
CONTINUOUS
 62
     6
100
AcDbVertex
100
AcDb2dVertex
 10
467.375021
 20
2157.724586
 30
0.0
  0
VERTEX
  5
3F5
100
AcDbEntity
  8
止水栓
  6
CONTINUOUS
 62
     6
100
AcDbVertex
100
AcDb2dVertex
 10
467.384786
 20
2158.159156
 30
0.0
  0
SEQEND
  5
3F6
100
AcDbEntity
  8
止水栓
  6
CONTINUOUS
 62
     6
  0
POLYLINE
  5
3F7
100
AcDbEntity
  8
止水栓
  6
CONTINUOUS
 62
     6
100
AcDb2dPolyline
 66
     1
 10
0.0
 20
0.0
 30
0.0
 70
   128
  0
VERTEX
  5
3F8
100
AcDbEntity
  8
止水栓
  6
CONTINUOUS
 62
     6
100
AcDbVertex
100
AcDb2dVertex
 10
465.971212
 20
2153.637672
 30
0.0
  0
VERTEX
  5
3F9
100
AcDbEntity
  8
止水栓
  6
CONTINUOUS
 62
     6
100
AcDbVertex
100
AcDb2dVertex
 10
466.1592
 20
2153.837867
 30
0.0
  0
VERTEX
  5
3FA
100
AcDbEntity
  8
止水栓
  6
CONTINUOUS
 62
     6
100
AcDbVertex
100
AcDb2dVertex
 10
466.339864
 20
2154.072242
 30
0.0
  0
VERTEX
  5
3FB
100
AcDbEntity
  8
止水栓
  6
CONTINUOUS
 62
     6
100
AcDbVertex
100
AcDb2dVertex
 10
466.510763
 20
2154.335914
 30
0.0
  0
VERTEX
  5
3FC
100
AcDbEntity
  8
止水栓
  6
CONTINUOUS
 62
     6
100
AcDbVertex
100
AcDb2dVertex
 10
466.667013
 20
2154.631324
 30
0.0
  0
VERTEX
  5
3FD
100
AcDbEntity
  8
止水栓
  6
CONTINUOUS
 62
     6
100
AcDbVertex
100
AcDb2dVertex
 10
466.811056
 20
2154.951149
 30
0.0
  0
VERTEX
  5
3FE
100
AcDbEntity
  8
止水栓
  6
CONTINUOUS
 62
     6
100
AcDbVertex
100
AcDb2dVertex
 10
466.942892
 20
2155.297828
 30
0.0
  0
VERTEX
  5
3FF
100
AcDbEntity
  8
止水栓
  6
CONTINUOUS
 62
     6
100
AcDbVertex
100
AcDb2dVertex
 10
467.057638
 20
2155.664039
 30
0.0
  0
VERTEX
  5
400
100
AcDbEntity
  8
止水栓
  6
CONTINUOUS
 62
     6
100
AcDbVertex
100
AcDb2dVertex
 10
467.155294
 20
2156.049781
 30
0.0
  0
VERTEX
  5
401
100
AcDbEntity
  8
止水栓
  6
CONTINUOUS
 62
     6
100
AcDbVertex
100
AcDb2dVertex
 10
467.235861
 20
2156.452613
 30
0.0
  0
VERTEX
  5
402
100
AcDbEntity
  8
止水栓
  6
CONTINUOUS
 62
     6
100
AcDbVertex
100
AcDb2dVertex
 10
467.301778
 20
2156.867652
 30
0.0
  0
SEQEND
  5
403
100
AcDbEntity
  8
止水栓
  6
CONTINUOUS
 62
     6
  0
ARC
  5
404
100
AcDbEntity
  8
止水栓
  6
CONTINUOUS
 62
     6
100
AcDbCircle
 10
456.640157
 20
2157.907692
 30
0.0
 40
10.998535
100
AcDbArc
 50
326.94841
 51
33.059082
  0
POLYLINE
  5
405
100
AcDbEntity
  8
止水栓
  6
CONTINUOUS
 62
     6
100
AcDb2dPolyline
 66
     1
 10
0.0
 20
0.0
 30
0.0
 70
   128
  0
VERTEX
  5
406
100
AcDbEntity
  8
止水栓
  6
CONTINUOUS
 62
     6
100
AcDbVertex
100
AcDb2dVertex
 10
467.384786
 20
2158.159156
 30
0.0
  0
VERTEX
  5
407
100
AcDbEntity
  8
止水栓
  6
CONTINUOUS
 62
     6
100
AcDbVertex
100
AcDb2dVertex
 10
467.375021
 20
2158.596168
 30
0.0
  0
VERTEX
  5
408
100
AcDbEntity
  8
止水栓
  6
CONTINUOUS
 62
     6
100
AcDbVertex
100
AcDb2dVertex
 10
467.348165
 20
2159.028297
 30
0.0
  0
VERTEX
  5
409
100
AcDbEntity
  8
止水栓
  6
CONTINUOUS
 62
     6
100
AcDbVertex
100
AcDb2dVertex
 10
467.301778
 20
2159.453102
 30
0.0
  0
VERTEX
  5
40A
100
AcDbEntity
  8
止水栓
  6
CONTINUOUS
 62
     6
100
AcDbVertex
100
AcDb2dVertex
 10
467.235861
 20
2159.868141
 30
0.0
  0
VERTEX
  5
40B
100
AcDbEntity
  8
止水栓
  6
CONTINUOUS
 62
     6
100
AcDbVertex
100
AcDb2dVertex
 10
467.155294
 20
2160.268531
 30
0.0
  0
VERTEX
  5
40C
100
AcDbEntity
  8
止水栓
  6
CONTINUOUS
 62
     6
100
AcDbVertex
100
AcDb2dVertex
 10
467.057638
 20
2160.654274
 30
0.0
  0
VERTEX
  5
40D
100
AcDbEntity
  8
止水栓
  6
CONTINUOUS
 62
     6
100
AcDbVertex
100
AcDb2dVertex
 10
466.94045
 20
2161.022926
 30
0.0
  0
VERTEX
  5
40E
100
AcDbEntity
  8
止水栓
  6
CONTINUOUS
 62
     6
100
AcDbVertex
100
AcDb2dVertex
 10
466.811056
 20
2161.367164
 30
0.0
  0
VERTEX
  5
40F
100
AcDbEntity
  8
止水栓
  6
CONTINUOUS
 62
     6
100
AcDbVertex
100
AcDb2dVertex
 10
466.667013
 20
2161.68943
 30
0.0
  0
VERTEX
  5
410
100
AcDbEntity
  8
止水栓
  6
CONTINUOUS
 62
     6
100
AcDbVertex
100
AcDb2dVertex
 10
466.508321
 20
2161.982399
 30
0.0
  0
VERTEX
  5
411
100
AcDbEntity
  8
止水栓
  6
CONTINUOUS
 62
     6
100
AcDbVertex
100
AcDb2dVertex
 10
466.339864
 20
2162.248512
 30
0.0
  0
VERTEX
  5
412
100
AcDbEntity
  8
止水栓
  6
CONTINUOUS
 62
     6
100
AcDbVertex
100
AcDb2dVertex
 10
466.1592
 20
2162.480445
 30
0.0
  0
VERTEX
  5
413
100
AcDbEntity
  8
止水栓
  6
CONTINUOUS
 62
     6
100
AcDbVertex
100
AcDb2dVertex
 10
465.971212
 20
2162.683082
 30
0.0
  0
VERTEX
  5
414
100
AcDbEntity
  8
止水栓
  6
CONTINUOUS
 62
     6
100
AcDbVertex
100
AcDb2dVertex
 10
465.773458
 20
2162.849098
 30
0.0
  0
VERTEX
  5
415
100
AcDbEntity
  8
止水栓
  6
CONTINUOUS
 62
     6
100
AcDbVertex
100
AcDb2dVertex
 10
465.56838
 20
2162.980934
 30
0.0
  0
VERTEX
  5
416
100
AcDbEntity
  8
止水栓
  6
CONTINUOUS
 62
     6
100
AcDbVertex
100
AcDb2dVertex
 10
465.360861
 20
2163.073707
 30
0.0
  0
VERTEX
  5
417
100
AcDbEntity
  8
止水栓
  6
CONTINUOUS
 62
     6
100
AcDbVertex
100
AcDb2dVertex
 10
465.148458
 20
2163.132301
 30
0.0
  0
VERTEX
  5
418
100
AcDbEntity
  8
止水栓
  6
CONTINUOUS
 62
     6
100
AcDbVertex
100
AcDb2dVertex
 10
464.936056
 20
2163.149391
 30
0.0
  0
VERTEX
  5
419
100
AcDbEntity
  8
止水栓
  6
CONTINUOUS
 62
     6
100
AcDbVertex
100
AcDb2dVertex
 10
464.721212
 20
2163.12986
 30
0.0
  0
VERTEX
  5
41A
100
AcDbEntity
  8
止水栓
  6
CONTINUOUS
 62
     6
100
AcDbVertex
100
AcDb2dVertex
 10
464.50881
 20
2163.073707
 30
0.0
  0
VERTEX
  5
41B
100
AcDbEntity
  8
止水栓
  6
CONTINUOUS
 62
     6
100
AcDbVertex
100
AcDb2dVertex
 10
464.30129
 20
2162.980934
 30
0.0
  0
VERTEX
  5
41C
100
AcDbEntity
  8
止水栓
  6
CONTINUOUS
 62
     6
100
AcDbVertex
100
AcDb2dVertex
 10
464.096212
 20
2162.849098
 30
0.0
  0
VERTEX
  5
41D
100
AcDbEntity
  8
止水栓
  6
CONTINUOUS
 62
     6
100
AcDbVertex
100
AcDb2dVertex
 10
463.898458
 20
2162.683082
 30
0.0
  0
VERTEX
  5
41E
100
AcDbEntity
  8
止水栓
  6
CONTINUOUS
 62
     6
100
AcDbVertex
100
AcDb2dVertex
 10
463.71047
 20
2162.480445
 30
0.0
  0
VERTEX
  5
41F
100
AcDbEntity
  8
止水栓
  6
CONTINUOUS
 62
     6
100
AcDbVertex
100
AcDb2dVertex
 10
463.529806
 20
2162.24607
 30
0.0
  0
VERTEX
  5
420
100
AcDbEntity
  8
止水栓
  6
CONTINUOUS
 62
     6
100
AcDbVertex
100
AcDb2dVertex
 10
463.361349
 20
2161.982399
 30
0.0
  0
VERTEX
  5
421
100
AcDbEntity
  8
止水栓
  6
CONTINUOUS
 62
     6
100
AcDbVertex
100
AcDb2dVertex
 10
463.202657
 20
2161.68943
 30
0.0
  0
VERTEX
  5
422
100
AcDbEntity
  8
止水栓
  6
CONTINUOUS
 62
     6
100
AcDbVertex
100
AcDb2dVertex
 10
463.058614
 20
2161.367164
 30
0.0
  0
VERTEX
  5
423
100
AcDbEntity
  8
止水栓
  6
CONTINUOUS
 62
     6
100
AcDbVertex
100
AcDb2dVertex
 10
462.92922
 20
2161.022926
 30
0.0
  0
VERTEX
  5
424
100
AcDbEntity
  8
止水栓
  6
CONTINUOUS
 62
     6
100
AcDbVertex
100
AcDb2dVertex
 10
462.814474
 20
2160.654274
 30
0.0
  0
VERTEX
  5
425
100
AcDbEntity
  8
止水栓
  6
CONTINUOUS
 62
     6
100
AcDbVertex
100
AcDb2dVertex
 10
462.714376
 20
2160.268531
 30
0.0
  0
VERTEX
  5
426
100
AcDbEntity
  8
止水栓
  6
CONTINUOUS
 62
     6
100
AcDbVertex
100
AcDb2dVertex
 10
462.63381
 20
2159.865699
 30
0.0
  0
VERTEX
  5
427
100
AcDbEntity
  8
止水栓
  6
CONTINUOUS
 62
     6
100
AcDbVertex
100
AcDb2dVertex
 10
462.567892
 20
2159.45066
 30
0.0
  0
VERTEX
  5
428
100
AcDbEntity
  8
止水栓
  6
CONTINUOUS
 62
     6
100
AcDbVertex
100
AcDb2dVertex
 10
462.521505
 20
2159.025856
 30
0.0
  0
VERTEX
  5
429
100
AcDbEntity
  8
止水栓
  6
CONTINUOUS
 62
     6
100
AcDbVertex
100
AcDb2dVertex
 10
462.49465
 20
2158.593727
 30
0.0
  0
VERTEX
  5
42A
100
AcDbEntity
  8
止水栓
  6
CONTINUOUS
 62
     6
100
AcDbVertex
100
AcDb2dVertex
 10
462.484884
 20
2158.159156
 30
0.0
  0
VERTEX
  5
42B
100
AcDbEntity
  8
止水栓
  6
CONTINUOUS
 62
     6
100
AcDbVertex
100
AcDb2dVertex
 10
462.49465
 20
2157.724586
 30
0.0
  0
VERTEX
  5
42C
100
AcDbEntity
  8
止水栓
  6
CONTINUOUS
 62
     6
100
AcDbVertex
100
AcDb2dVertex
 10
462.523946
 20
2157.292457
 30
0.0
  0
VERTEX
  5
42D
100
AcDbEntity
  8
止水栓
  6
CONTINUOUS
 62
     6
100
AcDbVertex
100
AcDb2dVertex
 10
462.570333
 20
2156.867652
 30
0.0
  0
VERTEX
  5
42E
100
AcDbEntity
  8
止水栓
  6
CONTINUOUS
 62
     6
100
AcDbVertex
100
AcDb2dVertex
 10
462.63381
 20
2156.452613
 30
0.0
  0
VERTEX
  5
42F
100
AcDbEntity
  8
止水栓
  6
CONTINUOUS
 62
     6
100
AcDbVertex
100
AcDb2dVertex
 10
462.714376
 20
2156.049781
 30
0.0
  0
VERTEX
  5
430
100
AcDbEntity
  8
止水栓
  6
CONTINUOUS
 62
     6
100
AcDbVertex
100
AcDb2dVertex
 10
462.814474
 20
2155.664039
 30
0.0
  0
VERTEX
  5
431
100
AcDbEntity
  8
止水栓
  6
CONTINUOUS
 62
     6
100
AcDbVertex
100
AcDb2dVertex
 10
462.92922
 20
2155.297828
 30
0.0
  0
VERTEX
  5
432
100
AcDbEntity
  8
止水栓
  6
CONTINUOUS
 62
     6
100
AcDbVertex
100
AcDb2dVertex
 10
463.058614
 20
2154.951149
 30
0.0
  0
VERTEX
  5
433
100
AcDbEntity
  8
止水栓
  6
CONTINUOUS
 62
     6
100
AcDbVertex
100
AcDb2dVertex
 10
463.202657
 20
2154.631324
 30
0.0
  0
VERTEX
  5
434
100
AcDbEntity
  8
止水栓
  6
CONTINUOUS
 62
     6
100
AcDbVertex
100
AcDb2dVertex
 10
463.361349
 20
2154.335914
 30
0.0
  0
VERTEX
  5
435
100
AcDbEntity
  8
止水栓
  6
CONTINUOUS
 62
     6
100
AcDbVertex
100
AcDb2dVertex
 10
463.529806
 20
2154.072242
 30
0.0
  0
VERTEX
  5
436
100
AcDbEntity
  8
止水栓
  6
CONTINUOUS
 62
     6
100
AcDbVertex
100
AcDb2dVertex
 10
463.71047
 20
2153.837867
 30
0.0
  0
VERTEX
  5
437
100
AcDbEntity
  8
止水栓
  6
CONTINUOUS
 62
     6
100
AcDbVertex
100
AcDb2dVertex
 10
463.898458
 20
2153.637672
 30
0.0
  0
VERTEX
  5
438
100
AcDbEntity
  8
止水栓
  6
CONTINUOUS
 62
     6
100
AcDbVertex
100
AcDb2dVertex
 10
464.096212
 20
2153.469215
 30
0.0
  0
VERTEX
  5
439
100
AcDbEntity
  8
止水栓
  6
CONTINUOUS
 62
     6
100
AcDbVertex
100
AcDb2dVertex
 10
464.30129
 20
2153.33982
 30
0.0
  0
VERTEX
  5
43A
100
AcDbEntity
  8
止水栓
  6
CONTINUOUS
 62
     6
100
AcDbVertex
100
AcDb2dVertex
 10
464.50881
 20
2153.244606
 30
0.0
  0
VERTEX
  5
43B
100
AcDbEntity
  8
止水栓
  6
CONTINUOUS
 62
     6
100
AcDbVertex
100
AcDb2dVertex
 10
464.721212
 20
2153.188453
 30
0.0
  0
VERTEX
  5
43C
100
AcDbEntity
  8
止水栓
  6
CONTINUOUS
 62
     6
100
AcDbVertex
100
AcDb2dVertex
 10
464.936056
 20
2153.168922
 30
0.0
  0
VERTEX
  5
43D
100
AcDbEntity
  8
止水栓
  6
CONTINUOUS
 62
     6
100
AcDbVertex
100
AcDb2dVertex
 10
465.148458
 20
2153.188453
 30
0.0
  0
VERTEX
  5
43E
100
AcDbEntity
  8
止水栓
  6
CONTINUOUS
 62
     6
100
AcDbVertex
100
AcDb2dVertex
 10
465.360861
 20
2153.244606
 30
0.0
  0
VERTEX
  5
43F
100
AcDbEntity
  8
止水栓
  6
CONTINUOUS
 62
     6
100
AcDbVertex
100
AcDb2dVertex
 10
465.56838
 20
2153.33982
 30
0.0
  0
VERTEX
  5
440
100
AcDbEntity
  8
止水栓
  6
CONTINUOUS
 62
     6
100
AcDbVertex
100
AcDb2dVertex
 10
465.773458
 20
2153.469215
 30
0.0
  0
VERTEX
  5
441
100
AcDbEntity
  8
止水栓
  6
CONTINUOUS
 62
     6
100
AcDbVertex
100
AcDb2dVertex
 10
465.971212
 20
2153.637672
 30
0.0
  0
SEQEND
  5
442
100
AcDbEntity
  8
止水栓
  6
CONTINUOUS
 62
     6
  0
LINE
  5
443
100
AcDbEntity
  8
止水栓
  6
CONTINUOUS
 62
     6
100
AcDbLine
 10
444.389669
 20
2163.908668
 30
0.0
 11
444.389669
 21
2168.908668
 31
0.0
  0
LINE
  5
444
100
AcDbEntity
  8
止水栓
  6
CONTINUOUS
 62
     6
100
AcDbLine
 10
448.139669
 20
2189.908668
 30
0.0
 11
448.139669
 21
2197.908668
 31
0.0
  0
LINE
  5
445
100
AcDbEntity
  8
止水栓
  6
CONTINUOUS
 62
     6
100
AcDbLine
 10
449.139669
 20
2170.908668
 30
0.0
 11
449.139669
 21
2173.908668
 31
0.0
  0
LINE
  5
446
100
AcDbEntity
  8
止水栓
  6
CONTINUOUS
 62
     6
100
AcDbLine
 10
450.889669
 20
2168.908668
 30
0.0
 11
450.889669
 21
2170.908668
 31
0.0
  0
LINE
  5
447
100
AcDbEntity
  8
止水栓
  6
CONTINUOUS
 62
     6
100
AcDbLine
 10
449.139669
 20
2178.908668
 30
0.0
 11
449.139669
 21
2181.908668
 31
0.0
  0
ARC
  5
448
100
AcDbEntity
  8
止水栓
  6
CONTINUOUS
 62
     6
100
AcDbCircle
 10
450.139669
 20
2184.408668
 30
0.0
 40
2.5
100
AcDbArc
 50
90.0
 51
180.0
  0
ARC
  5
449
100
AcDbEntity
  8
止水栓
  6
CONTINUOUS
 62
     6
100
AcDbCircle
 10
450.139669
 20
2184.408668
 30
0.0
 40
2.5
100
AcDbArc
 50
180.0
 51
270.0
  0
LINE
  5
44A
100
AcDbEntity
  8
止水栓
  6
CONTINUOUS
 62
     6
100
AcDbLine
 10
449.139669
 20
2186.908668
 30
0.0
 11
449.139669
 21
2189.908668
 31
0.0
  0
ARC
  5
44B
100
AcDbEntity
  8
止水栓
  6
CONTINUOUS
 62
     6
100
AcDbCircle
 10
450.139669
 20
2176.408668
 30
0.0
 40
2.5
100
AcDbArc
 50
90.0
 51
180.0
  0
ARC
  5
44C
100
AcDbEntity
  8
止水栓
  6
CONTINUOUS
 62
     6
100
AcDbCircle
 10
450.139669
 20
2176.408668
 30
0.0
 40
2.5
100
AcDbArc
 50
180.0
 51
270.0
  0
POLYLINE
  5
44D
100
AcDbEntity
  8
止水栓
  6
CONTINUOUS
 62
     6
100
AcDb2dPolyline
 66
     1
 10
0.0
 20
0.0
 30
0.0
 70
   128
  0
VERTEX
  5
44E
100
AcDbEntity
  8
止水栓
  6
CONTINUOUS
 62
     6
100
AcDbVertex
100
AcDb2dVertex
 10
447.28713
 20
2158.166481
 30
0.0
  0
VERTEX
  5
44F
100
AcDbEntity
  8
止水栓
  6
CONTINUOUS
 62
     6
100
AcDbVertex
100
AcDb2dVertex
 10
447.277364
 20
2158.569313
 30
0.0
  0
VERTEX
  5
450
100
AcDbEntity
  8
止水栓
  6
CONTINUOUS
 62
     6
100
AcDbVertex
100
AcDb2dVertex
 10
447.248068
 20
2158.969703
 30
0.0
  0
VERTEX
  5
451
100
AcDbEntity
  8
止水栓
  6
CONTINUOUS
 62
     6
100
AcDbVertex
100
AcDb2dVertex
 10
447.201681
 20
2159.365211
 30
0.0
  0
VERTEX
  5
452
100
AcDbEntity
  8
止水栓
  6
CONTINUOUS
 62
     6
100
AcDbVertex
100
AcDb2dVertex
 10
447.138204
 20
2159.748512
 30
0.0
  0
VERTEX
  5
453
100
AcDbEntity
  8
止水栓
  6
CONTINUOUS
 62
     6
100
AcDbVertex
100
AcDb2dVertex
 10
447.057638
 20
2160.122047
 30
0.0
  0
VERTEX
  5
454
100
AcDbEntity
  8
止水栓
  6
CONTINUOUS
 62
     6
100
AcDbVertex
100
AcDb2dVertex
 10
446.95754
 20
2160.480934
 30
0.0
  0
VERTEX
  5
455
100
AcDbEntity
  8
止水栓
  6
CONTINUOUS
 62
     6
100
AcDbVertex
100
AcDb2dVertex
 10
446.842794
 20
2160.820289
 30
0.0
  0
VERTEX
  5
456
100
AcDbEntity
  8
止水栓
  6
CONTINUOUS
 62
     6
100
AcDbVertex
100
AcDb2dVertex
 10
446.7134
 20
2161.142555
 30
0.0
  0
VERTEX
  5
457
100
AcDbEntity
  8
止水栓
  6
CONTINUOUS
 62
     6
100
AcDbVertex
100
AcDb2dVertex
 10
446.569357
 20
2161.440406
 30
0.0
  0
VERTEX
  5
458
100
AcDbEntity
  8
止水栓
  6
CONTINUOUS
 62
     6
100
AcDbVertex
100
AcDb2dVertex
 10
446.410665
 20
2161.711402
 30
0.0
  0
VERTEX
  5
459
100
AcDbEntity
  8
止水栓
  6
CONTINUOUS
 62
     6
100
AcDbVertex
100
AcDb2dVertex
 10
446.242208
 20
2161.957985
 30
0.0
  0
VERTEX
  5
45A
100
AcDbEntity
  8
止水栓
  6
CONTINUOUS
 62
     6
100
AcDbVertex
100
AcDb2dVertex
 10
446.061544
 20
2162.17527
 30
0.0
  0
VERTEX
  5
45B
100
AcDbEntity
  8
止水栓
  6
CONTINUOUS
 62
     6
100
AcDbVertex
100
AcDb2dVertex
 10
445.871114
 20
2162.363258
 30
0.0
  0
VERTEX
  5
45C
100
AcDbEntity
  8
止水栓
  6
CONTINUOUS
 62
     6
100
AcDbVertex
100
AcDb2dVertex
 10
445.673361
 20
2162.517067
 30
0.0
  0
VERTEX
  5
45D
100
AcDbEntity
  8
止水栓
  6
CONTINUOUS
 62
     6
100
AcDbVertex
100
AcDb2dVertex
 10
445.470724
 20
2162.636695
 30
0.0
  0
VERTEX
  5
45E
100
AcDbEntity
  8
止水栓
  6
CONTINUOUS
 62
     6
100
AcDbVertex
100
AcDb2dVertex
 10
445.260763
 20
2162.724586
 30
0.0
  0
VERTEX
  5
45F
100
AcDbEntity
  8
止水栓
  6
CONTINUOUS
 62
     6
100
AcDbVertex
100
AcDb2dVertex
 10
445.050802
 20
2162.778297
 30
0.0
  0
VERTEX
  5
460
100
AcDbEntity
  8
止水栓
  6
CONTINUOUS
 62
     6
100
AcDbVertex
100
AcDb2dVertex
 10
444.835958
 20
2162.795387
 30
0.0
  0
VERTEX
  5
461
100
AcDbEntity
  8
止水栓
  6
CONTINUOUS
 62
     6
100
AcDbVertex
100
AcDb2dVertex
 10
444.623556
 20
2162.778297
 30
0.0
  0
VERTEX
  5
462
100
AcDbEntity
  8
止水栓
  6
CONTINUOUS
 62
     6
100
AcDbVertex
100
AcDb2dVertex
 10
444.411153
 20
2162.724586
 30
0.0
  0
VERTEX
  5
463
100
AcDbEntity
  8
止水栓
  6
CONTINUOUS
 62
     6
100
AcDbVertex
100
AcDb2dVertex
 10
444.201193
 20
2162.636695
 30
0.0
  0
VERTEX
  5
464
100
AcDbEntity
  8
止水栓
  6
CONTINUOUS
 62
     6
100
AcDbVertex
100
AcDb2dVertex
 10
443.998556
 20
2162.517067
 30
0.0
  0
VERTEX
  5
465
100
AcDbEntity
  8
止水栓
  6
CONTINUOUS
 62
     6
100
AcDbVertex
100
AcDb2dVertex
 10
443.800802
 20
2162.360817
 30
0.0
  0
VERTEX
  5
466
100
AcDbEntity
  8
止水栓
  6
CONTINUOUS
 62
     6
100
AcDbVertex
100
AcDb2dVertex
 10
443.612814
 20
2162.17527
 30
0.0
  0
VERTEX
  5
467
100
AcDbEntity
  8
止水栓
  6
CONTINUOUS
 62
     6
100
AcDbVertex
100
AcDb2dVertex
 10
443.43215
 20
2161.957985
 30
0.0
  0
VERTEX
  5
468
100
AcDbEntity
  8
止水栓
  6
CONTINUOUS
 62
     6
100
AcDbVertex
100
AcDb2dVertex
 10
443.261251
 20
2161.713844
 30
0.0
  0
VERTEX
  5
469
100
AcDbEntity
  8
止水栓
  6
CONTINUOUS
 62
     6
100
AcDbVertex
100
AcDb2dVertex
 10
443.105001
 20
2161.440406
 30
0.0
  0
VERTEX
  5
46A
100
AcDbEntity
  8
止水栓
  6
CONTINUOUS
 62
     6
100
AcDbVertex
100
AcDb2dVertex
 10
442.960958
 20
2161.142555
 30
0.0
  0
VERTEX
  5
46B
100
AcDbEntity
  8
止水栓
  6
CONTINUOUS
 62
     6
100
AcDbVertex
100
AcDb2dVertex
 10
442.829122
 20
2160.820289
 30
0.0
  0
VERTEX
  5
46C
100
AcDbEntity
  8
止水栓
  6
CONTINUOUS
 62
     6
100
AcDbVertex
100
AcDb2dVertex
 10
442.714376
 20
2160.480934
 30
0.0
  0
VERTEX
  5
46D
100
AcDbEntity
  8
止水栓
  6
CONTINUOUS
 62
     6
100
AcDbVertex
100
AcDb2dVertex
 10
442.61672
 20
2160.122047
 30
0.0
  0
VERTEX
  5
46E
100
AcDbEntity
  8
止水栓
  6
CONTINUOUS
 62
     6
100
AcDbVertex
100
AcDb2dVertex
 10
442.536153
 20
2159.750953
 30
0.0
  0
VERTEX
  5
46F
100
AcDbEntity
  8
止水栓
  6
CONTINUOUS
 62
     6
100
AcDbVertex
100
AcDb2dVertex
 10
442.470236
 20
2159.365211
 30
0.0
  0
VERTEX
  5
470
100
AcDbEntity
  8
止水栓
  6
CONTINUOUS
 62
     6
100
AcDbVertex
100
AcDb2dVertex
 10
442.423849
 20
2158.969703
 30
0.0
  0
VERTEX
  5
471
100
AcDbEntity
  8
止水栓
  6
CONTINUOUS
 62
     6
100
AcDbVertex
100
AcDb2dVertex
 10
442.396993
 20
2158.569313
 30
0.0
  0
VERTEX
  5
472
100
AcDbEntity
  8
止水栓
  6
CONTINUOUS
 62
     6
100
AcDbVertex
100
AcDb2dVertex
 10
442.387228
 20
2158.166481
 30
0.0
  0
VERTEX
  5
473
100
AcDbEntity
  8
止水栓
  6
CONTINUOUS
 62
     6
100
AcDbVertex
100
AcDb2dVertex
 10
442.396993
 20
2157.763649
 30
0.0
  0
VERTEX
  5
474
100
AcDbEntity
  8
止水栓
  6
CONTINUOUS
 62
     6
100
AcDbVertex
100
AcDb2dVertex
 10
442.423849
 20
2157.363258
 30
0.0
  0
VERTEX
  5
475
100
AcDbEntity
  8
止水栓
  6
CONTINUOUS
 62
     6
100
AcDbVertex
100
AcDb2dVertex
 10
442.470236
 20
2156.96775
 30
0.0
  0
VERTEX
  5
476
100
AcDbEntity
  8
止水栓
  6
CONTINUOUS
 62
     6
100
AcDbVertex
100
AcDb2dVertex
 10
442.533712
 20
2156.582008
 30
0.0
  0
VERTEX
  5
477
100
AcDbEntity
  8
止水栓
  6
CONTINUOUS
 62
     6
100
AcDbVertex
100
AcDb2dVertex
 10
442.61672
 20
2156.208473
 30
0.0
  0
VERTEX
  5
478
100
AcDbEntity
  8
止水栓
  6
CONTINUOUS
 62
     6
100
AcDbVertex
100
AcDb2dVertex
 10
442.714376
 20
2155.849586
 30
0.0
  0
VERTEX
  5
479
100
AcDbEntity
  8
止水栓
  6
CONTINUOUS
 62
     6
100
AcDbVertex
100
AcDb2dVertex
 10
442.829122
 20
2155.510231
 30
0.0
  0
VERTEX
  5
47A
100
AcDbEntity
  8
止水栓
  6
CONTINUOUS
 62
     6
100
AcDbVertex
100
AcDb2dVertex
 10
442.960958
 20
2155.187965
 30
0.0
  0
VERTEX
  5
47B
100
AcDbEntity
  8
止水栓
  6
CONTINUOUS
 62
     6
100
AcDbVertex
100
AcDb2dVertex
 10
443.105001
 20
2154.892555
 30
0.0
  0
VERTEX
  5
47C
100
AcDbEntity
  8
止水栓
  6
CONTINUOUS
 62
     6
100
AcDbVertex
100
AcDb2dVertex
 10
443.261251
 20
2154.619117
 30
0.0
  0
VERTEX
  5
47D
100
AcDbEntity
  8
止水栓
  6
CONTINUOUS
 62
     6
100
AcDbVertex
100
AcDb2dVertex
 10
443.43215
 20
2154.372535
 30
0.0
  0
VERTEX
  5
47E
100
AcDbEntity
  8
止水栓
  6
CONTINUOUS
 62
     6
100
AcDbVertex
100
AcDb2dVertex
 10
443.610372
 20
2154.15525
 30
0.0
  0
VERTEX
  5
47F
100
AcDbEntity
  8
止水栓
  6
CONTINUOUS
 62
     6
100
AcDbVertex
100
AcDb2dVertex
 10
443.800802
 20
2153.969703
 30
0.0
  0
VERTEX
  5
480
100
AcDbEntity
  8
止水栓
  6
CONTINUOUS
 62
     6
100
AcDbVertex
100
AcDb2dVertex
 10
443.998556
 20
2153.815895
 30
0.0
  0
VERTEX
  5
481
100
AcDbEntity
  8
止水栓
  6
CONTINUOUS
 62
     6
100
AcDbVertex
100
AcDb2dVertex
 10
444.201193
 20
2153.693824
 30
0.0
  0
VERTEX
  5
482
100
AcDbEntity
  8
止水栓
  6
CONTINUOUS
 62
     6
100
AcDbVertex
100
AcDb2dVertex
 10
444.411153
 20
2153.605934
 30
0.0
  0
VERTEX
  5
483
100
AcDbEntity
  8
止水栓
  6
CONTINUOUS
 62
     6
100
AcDbVertex
100
AcDb2dVertex
 10
444.623556
 20
2153.552223
 30
0.0
  0
VERTEX
  5
484
100
AcDbEntity
  8
止水栓
  6
CONTINUOUS
 62
     6
100
AcDbVertex
100
AcDb2dVertex
 10
444.835958
 20
2153.535133
 30
0.0
  0
VERTEX
  5
485
100
AcDbEntity
  8
止水栓
  6
CONTINUOUS
 62
     6
100
AcDbVertex
100
AcDb2dVertex
 10
445.050802
 20
2153.554664
 30
0.0
  0
VERTEX
  5
486
100
AcDbEntity
  8
止水栓
  6
CONTINUOUS
 62
     6
100
AcDbVertex
100
AcDb2dVertex
 10
445.260763
 20
2153.605934
 30
0.0
  0
VERTEX
  5
487
100
AcDbEntity
  8
止水栓
  6
CONTINUOUS
 62
     6
100
AcDbVertex
100
AcDb2dVertex
 10
445.470724
 20
2153.693824
 30
0.0
  0
VERTEX
  5
488
100
AcDbEntity
  8
止水栓
  6
CONTINUOUS
 62
     6
100
AcDbVertex
100
AcDb2dVertex
 10
445.673361
 20
2153.815895
 30
0.0
  0
VERTEX
  5
489
100
AcDbEntity
  8
止水栓
  6
CONTINUOUS
 62
     6
100
AcDbVertex
100
AcDb2dVertex
 10
445.871114
 20
2153.969703
 30
0.0
  0
SEQEND
  5
48A
100
AcDbEntity
  8
止水栓
  6
CONTINUOUS
 62
     6
  0
POLYLINE
  5
48B
100
AcDbEntity
  8
止水栓
  6
CONTINUOUS
 62
     6
100
AcDb2dPolyline
 66
     1
 10
0.0
 20
0.0
 30
0.0
 70
   128
  0
VERTEX
  5
48C
100
AcDbEntity
  8
止水栓
  6
CONTINUOUS
 62
     6
100
AcDbVertex
100
AcDb2dVertex
 10
447.201681
 20
2156.96775
 30
0.0
  0
VERTEX
  5
48D
100
AcDbEntity
  8
止水栓
  6
CONTINUOUS
 62
     6
100
AcDbVertex
100
AcDb2dVertex
 10
447.248068
 20
2157.360817
 30
0.0
  0
VERTEX
  5
48E
100
AcDbEntity
  8
止水栓
  6
CONTINUOUS
 62
     6
100
AcDbVertex
100
AcDb2dVertex
 10
447.277364
 20
2157.761207
 30
0.0
  0
VERTEX
  5
48F
100
AcDbEntity
  8
止水栓
  6
CONTINUOUS
 62
     6
100
AcDbVertex
100
AcDb2dVertex
 10
447.28713
 20
2158.164039
 30
0.0
  0
SEQEND
  5
490
100
AcDbEntity
  8
止水栓
  6
CONTINUOUS
 62
     6
  0
POLYLINE
  5
491
100
AcDbEntity
  8
止水栓
  6
CONTINUOUS
 62
     6
100
AcDb2dPolyline
 66
     1
 10
0.0
 20
0.0
 30
0.0
 70
   128
  0
VERTEX
  5
492
100
AcDbEntity
  8
止水栓
  6
CONTINUOUS
 62
     6
100
AcDbVertex
100
AcDb2dVertex
 10
445.871114
 20
2153.969703
 30
0.0
  0
VERTEX
  5
493
100
AcDbEntity
  8
止水栓
  6
CONTINUOUS
 62
     6
100
AcDbVertex
100
AcDb2dVertex
 10
446.061544
 20
2154.15525
 30
0.0
  0
VERTEX
  5
494
100
AcDbEntity
  8
止水栓
  6
CONTINUOUS
 62
     6
100
AcDbVertex
100
AcDb2dVertex
 10
446.242208
 20
2154.372535
 30
0.0
  0
VERTEX
  5
495
100
AcDbEntity
  8
止水栓
  6
CONTINUOUS
 62
     6
100
AcDbVertex
100
AcDb2dVertex
 10
446.410665
 20
2154.619117
 30
0.0
  0
VERTEX
  5
496
100
AcDbEntity
  8
止水栓
  6
CONTINUOUS
 62
     6
100
AcDbVertex
100
AcDb2dVertex
 10
446.569357
 20
2154.892555
 30
0.0
  0
VERTEX
  5
497
100
AcDbEntity
  8
止水栓
  6
CONTINUOUS
 62
     6
100
AcDbVertex
100
AcDb2dVertex
 10
446.7134
 20
2155.190406
 30
0.0
  0
VERTEX
  5
498
100
AcDbEntity
  8
止水栓
  6
CONTINUOUS
 62
     6
100
AcDbVertex
100
AcDb2dVertex
 10
446.842794
 20
2155.510231
 30
0.0
  0
VERTEX
  5
499
100
AcDbEntity
  8
止水栓
  6
CONTINUOUS
 62
     6
100
AcDbVertex
100
AcDb2dVertex
 10
446.95754
 20
2155.849586
 30
0.0
  0
VERTEX
  5
49A
100
AcDbEntity
  8
止水栓
  6
CONTINUOUS
 62
     6
100
AcDbVertex
100
AcDb2dVertex
 10
447.057638
 20
2156.208473
 30
0.0
  0
VERTEX
  5
49B
100
AcDbEntity
  8
止水栓
  6
CONTINUOUS
 62
     6
100
AcDbVertex
100
AcDb2dVertex
 10
447.138204
 20
2156.582008
 30
0.0
  0
VERTEX
  5
49C
100
AcDbEntity
  8
止水栓
  6
CONTINUOUS
 62
     6
100
AcDbVertex
100
AcDb2dVertex
 10
447.201681
 20
2156.96775
 30
0.0
  0
SEQEND
  5
49D
100
AcDbEntity
  8
止水栓
  6
CONTINUOUS
 62
     6
  0
ARC
  5
49E
100
AcDbEntity
  8
止水栓
  6
CONTINUOUS
 62
     6
100
AcDbCircle
 10
453.139181
 20
2157.907692
 30
0.0
 40
10.99987
100
AcDbArc
 50
146.937744
 51
213.054688
  0
LINE
  5
49F
100
AcDbEntity
  8
止水栓
  6
CONTINUOUS
 62
     6
100
AcDbLine
 10
448.388906
 20
2197.682838
 30
0.0
 11
448.388906
 21
2210.409156
 31
0.0
  0
LINE
  5
4A0
100
AcDbEntity
  8
止水栓
  6
CONTINUOUS
 62
     6
100
AcDbLine
 10
461.388906
 20
2197.682838
 30
0.0
 11
461.388906
 21
2210.409156
 31
0.0
  0
LINE
  5
4A1
100
AcDbEntity
  8
止水栓
  6
EXLTYPE2
 62
     6
100
AcDbLine
 10
354.888906
 20
2117.609156
 30
0.0
 11
349.208906
 21
2117.609156
 31
0.0
  0
LINE
  5
4A2
100
AcDbEntity
  8
止水栓
  6
EXLTYPE2
 62
     6
100
AcDbLine
 10
347.049422
 20
2118.83864
 30
0.0
 11
354.888906
 21
2118.593656
 31
0.0
  0
LINE
  5
4A3
100
AcDbEntity
  8
止水栓
  6
EXLTYPE2
 62
     6
100
AcDbLine
 10
349.208906
 20
2117.609156
 30
0.0
 11
348.228906
 21
2117.639781
 31
0.0
  0
LINE
  5
4A4
100
AcDbEntity
  8
止水栓
  6
EXLTYPE2
 62
     6
100
AcDbLine
 10
348.227906
 20
2117.640781
 30
0.0
 11
346.728906
 21
2119.139781
 31
0.0
  0
LINE
  5
4A5
100
AcDbEntity
  8
止水栓
  6
EXLTYPE2
 62
     6
100
AcDbLine
 10
346.728906
 20
2119.139781
 30
0.0
 11
346.728906
 21
2136.678531
 31
0.0
  0
LINE
  5
4A6
100
AcDbEntity
  8
止水栓
  6
EXLTYPE2
 62
     6
100
AcDbLine
 10
347.049422
 20
2136.979673
 30
0.0
 11
354.888906
 21
2137.224656
 31
0.0
  0
LINE
  5
4A7
100
AcDbEntity
  8
止水栓
  6
EXLTYPE2
 62
     6
100
AcDbLine
 10
348.227906
 20
2138.177531
 30
0.0
 11
346.728906
 21
2136.678531
 31
0.0
  0
LINE
  5
4A8
100
AcDbEntity
  8
止水栓
  6
EXLTYPE2
 62
     6
100
AcDbLine
 10
354.888906
 20
2138.209156
 30
0.0
 11
349.208906
 21
2138.209156
 31
0.0
  0
LINE
  5
4A9
100
AcDbEntity
  8
止水栓
  6
EXLTYPE2
 62
     6
100
AcDbLine
 10
349.208906
 20
2138.209156
 30
0.0
 11
348.228906
 21
2138.178531
 31
0.0
  0
LINE
  5
4AA
100
AcDbEntity
  8
止水栓
  6
EXLTYPE2
 62
     6
100
AcDbLine
 10
370.888906
 20
2141.409156
 30
0.0
 11
370.888906
 21
2114.409156
 31
0.0
  0
ARC
  5
4AB
100
AcDbEntity
  8
止水栓
  6
EXLTYPE2
 62
     6
100
AcDbCircle
 10
356.888906
 20
2141.409156
 30
0.0
 40
14.0
100
AcDbArc
 50
0.0
 51
90.0
  0
LINE
  5
4AC
100
AcDbEntity
  8
止水栓
  6
EXLTYPE2
 62
     6
100
AcDbLine
 10
354.888906
 20
2155.409156
 30
0.0
 11
356.888906
 21
2155.409156
 31
0.0
  0
LINE
  5
4AD
100
AcDbEntity
  8
止水栓
  6
EXLTYPE2
 62
     6
100
AcDbLine
 10
379.356229
 20
2118.442406
 30
0.0
 11
377.912997
 21
2117.609156
 31
0.0
  0
LINE
  5
4AE
100
AcDbEntity
  8
止水栓
  6
EXLTYPE2
 62
     6
100
AcDbLine
 10
379.356229
 20
2117.609156
 30
0.0
 11
379.356229
 21
2138.209156
 31
0.0
  0
LINE
  5
4AF
100
AcDbEntity
  8
止水栓
  6
EXLTYPE2
 62
     6
100
AcDbLine
 10
379.356229
 20
2137.375906
 30
0.0
 11
377.912997
 21
2138.209156
 31
0.0
  0
LINE
  5
4B0
100
AcDbEntity
  8
止水栓
  6
EXLTYPE2
 62
     6
100
AcDbLine
 10
348.228906
 20
2117.639781
 30
0.0
 11
348.228906
 21
2127.907936
 31
0.0
  0
LINE
  5
4B1
100
AcDbEntity
  8
止水栓
  6
EXLTYPE2
 62
     6
100
AcDbLine
 10
430.250158
 20
2128.809172
 30
0.0
 11
429.550158
 21
2128.809172
 31
0.0
  0
LINE
  5
4B2
100
AcDbEntity
  8
止水栓
  6
EXLTYPE2
 62
     6
100
AcDbLine
 10
430.250158
 20
2127.009172
 30
0.0
 11
429.550158
 21
2127.009172
 31
0.0
  0
LINE
  5
4B3
100
AcDbEntity
  8
止水栓
  6
EXLTYPE2
 62
     6
100
AcDbLine
 10
430.250158
 20
2136.909172
 30
0.0
 11
429.550158
 21
2136.909172
 31
0.0
  0
LINE
  5
4B4
100
AcDbEntity
  8
止水栓
  6
EXLTYPE2
 62
     6
100
AcDbLine
 10
430.250158
 20
2118.909172
 30
0.0
 11
429.550158
 21
2118.909172
 31
0.0
  0
LINE
  5
4B5
100
AcDbEntity
  8
止水栓
  6
EXLTYPE2
 62
     6
100
AcDbLine
 10
429.550158
 20
2139.909172
 30
0.0
 11
429.550158
 21
2115.909172
 31
0.0
  0
LINE
  5
4B6
100
AcDbEntity
  8
止水栓
  6
EXLTYPE2
 62
     6
100
AcDbLine
 10
429.550158
 20
2139.909172
 30
0.0
 11
393.075922
 21
2139.909172
 31
0.0
  0
LINE
  5
4B7
100
AcDbEntity
  8
止水栓
  6
EXLTYPE2
 62
     6
100
AcDbLine
 10
429.550158
 20
2115.909172
 30
0.0
 11
392.038927
 21
2115.909172
 31
0.0
  0
LINE
  5
4B8
100
AcDbEntity
  8
止水栓
  6
EXLTYPE2
 62
     6
100
AcDbLine
 10
380.550922
 20
2114.909172
 30
0.0
 11
380.550922
 21
2140.909172
 31
0.0
  0
ARC
  5
4B9
100
AcDbEntity
  8
止水栓
  6
EXLTYPE2
 62
     6
100
AcDbCircle
 10
364.475357
 20
2127.909172
 30
0.0
 40
25.78689
100
AcDbArc
 50
343.078523
 51
16.828962
  0
LINE
  5
4BA
100
AcDbEntity
  8
止水栓
  6
EXLTYPE2
 62
     6
100
AcDbLine
 10
381.667377
 20
2135.374881
 30
0.0
 11
389.145792
 21
2135.374881
 31
0.0
  0
ARC
  5
4BB
100
AcDbEntity
  8
止水栓
  6
EXLTYPE2
 62
     6
100
AcDbCircle
 10
406.337812
 20
2127.909172
 30
0.0
 40
25.78689
100
AcDbArc
 50
163.141624
 51
196.921477
  0
ARC
  5
4BC
100
AcDbEntity
  8
止水栓
  6
EXLTYPE2
 62
     6
100
AcDbCircle
 10
387.41616
 20
2139.127632
 30
0.0
 40
6.865249
100
AcDbArc
 50
156.844796
 51
213.136123
  0
ARC
  5
4BD
100
AcDbEntity
  8
止水栓
  6
EXLTYPE2
 62
     6
100
AcDbCircle
 10
383.397009
 20
2139.127632
 30
0.0
 40
6.865249
100
AcDbArc
 50
326.863877
 51
33.136123
  0
ARC
  5
4BE
100
AcDbEntity
  8
止水栓
  6
EXLTYPE2
 62
     6
100
AcDbCircle
 10
383.397009
 20
2116.650867
 30
0.0
 40
6.865249
100
AcDbArc
 50
326.863877
 51
33.136123
  0
LINE
  5
4BF
100
AcDbEntity
  8
止水栓
  6
EXLTYPE2
 62
     6
100
AcDbLine
 10
381.667377
 20
2120.403618
 30
0.0
 11
389.145792
 21
2120.403618
 31
0.0
  0
ARC
  5
4C0
100
AcDbEntity
  8
止水栓
  6
EXLTYPE2
 62
     6
100
AcDbCircle
 10
387.41616
 20
2116.650867
 30
0.0
 40
6.865249
100
AcDbArc
 50
146.863877
 51
203.155204
  0
LINE
  5
4C1
100
AcDbEntity
  8
止水栓
  6
EXLTYPE2
 62
     6
100
AcDbLine
 10
381.667377
 20
2112.975415
 30
0.0
 11
380.550922
 21
2114.909172
 31
0.0
  0
LINE
  5
4C2
100
AcDbEntity
  8
止水栓
  6
EXLTYPE2
 62
     6
100
AcDbLine
 10
381.712006
 20
2142.920228
 30
0.0
 11
380.550922
 21
2140.909172
 31
0.0
  0
LINE
  5
4C3
100
AcDbEntity
  8
止水栓
  6
EXLTYPE2
 62
     6
100
AcDbLine
 10
389.145792
 20
2112.898115
 30
0.0
 11
390.306876
 21
2114.909172
 31
0.0
  0
LINE
  5
4C4
100
AcDbEntity
  8
止水栓
  6
EXLTYPE2
 62
     6
100
AcDbLine
 10
381.667377
 20
2112.898115
 30
0.0
 11
389.145792
 21
2112.898115
 31
0.0
  0
ARC
  5
4C5
100
AcDbEntity
  8
止水栓
  6
EXLTYPE2
 62
     6
100
AcDbCircle
 10
392.038927
 20
2113.909172
 30
0.0
 40
2.0
100
AcDbArc
 50
90.0
 51
150.0
  0
ARC
  5
4C6
100
AcDbEntity
  8
止水栓
  6
EXLTYPE2
 62
     6
100
AcDbCircle
 10
392.038927
 20
2141.909172
 30
0.0
 40
2.0
100
AcDbArc
 50
210.0
 51
270.0
  0
LINE
  5
4C7
100
AcDbEntity
  8
止水栓
  6
EXLTYPE2
 62
     6
100
AcDbLine
 10
393.075922
 20
2139.909172
 30
0.0
 11
392.038927
 21
2139.909172
 31
0.0
  0
LINE
  5
4C8
100
AcDbEntity
  8
止水栓
  6
EXLTYPE2
 62
     6
100
AcDbLine
 10
389.145792
 20
2142.920228
 30
0.0
 11
390.306876
 21
2140.909172
 31
0.0
  0
LINE
  5
4C9
100
AcDbEntity
  8
止水栓
  6
EXLTYPE2
 62
     6
100
AcDbLine
 10
381.712006
 20
2142.920228
 30
0.0
 11
389.145792
 21
2142.920228
 31
0.0
  0
LINE
  5
4CA
100
AcDbEntity
  8
止水栓
  6
EXLTYPE2
 62
     6
100
AcDbLine
 10
380.550922
 20
2138.209156
 30
0.0
 11
370.888906
 21
2138.209156
 31
0.0
  0
LINE
  5
4CB
100
AcDbEntity
  8
止水栓
  6
EXLTYPE2
 62
     6
100
AcDbLine
 10
380.550922
 20
2117.609156
 30
0.0
 11
370.888906
 21
2117.609156
 31
0.0
  0
LINE
  5
4CC
100
AcDbEntity
  8
止水栓
  6
EXLTYPE2
 62
     6
100
AcDbLine
 10
380.550922
 20
2137.338572
 30
0.0
 11
379.356229
 21
2137.375906
 31
0.0
  0
LINE
  5
4CD
100
AcDbEntity
  8
止水栓
  6
EXLTYPE2
 62
     6
100
AcDbLine
 10
380.550922
 20
2118.479741
 30
0.0
 11
379.356229
 21
2118.442406
 31
0.0
  0
ARC
  5
4CE
100
AcDbEntity
  8
止水栓
  6
EXLTYPE2
 62
     6
100
AcDbCircle
 10
356.888906
 20
2114.409156
 30
0.0
 40
14.0
100
AcDbArc
 50
270.0
 51
0.0
  0
LINE
  5
4CF
100
AcDbEntity
  8
止水栓
  6
EXLTYPE2
 62
     6
100
AcDbLine
 10
354.888906
 20
2100.409156
 30
0.0
 11
356.888906
 21
2100.409156
 31
0.0
  0
LINE
  5
4D0
100
AcDbEntity
  8
止水栓
  6
EXLTYPE2
 62
     6
100
AcDbLine
 10
430.250158
 20
2128.809172
 30
0.0
 11
430.250158
 21
2136.909172
 31
0.0
  0
LINE
  5
4D1
100
AcDbEntity
  8
止水栓
  6
EXLTYPE2
 62
     6
100
AcDbLine
 10
430.250158
 20
2127.009172
 30
0.0
 11
430.250158
 21
2118.909172
 31
0.0
  0
LINE
  5
4D2
100
AcDbEntity
  8
止水栓
  6
CONTINUOUS
 62
     6
100
AcDbLine
 10
464.108356
 20
2126.909401
 30
0.0
 11
445.669456
 21
2126.909401
 31
0.0
  0
LINE
  5
4D3
100
AcDbEntity
  8
止水栓
  6
CONTINUOUS
 62
     6
100
AcDbLine
 10
445.669721
 20
2128.908912
 30
0.0
 11
464.108091
 21
2128.908912
 31
0.0
  0
ARC
  5
4D4
100
AcDbEntity
  8
止水栓
  6
CONTINUOUS
 62
     6
100
AcDbCircle
 10
510.866406
 20
2141.052117
 30
0.0
 40
45.5
100
AcDbArc
 50
180.0
 51
193.214335
  0
ARC
  5
4D5
100
AcDbEntity
  8
止水栓
  6
CONTINUOUS
 62
     6
100
AcDbCircle
 10
398.911406
 20
2141.052117
 30
0.0
 40
45.5
100
AcDbArc
 50
346.785665
 51
0.0
  0
CIRCLE
  5
4D6
100
AcDbEntity
  8
止水栓
  6
CONTINUOUS
 62
     6
100
AcDbCircle
 10
454.888906
 20
2127.907936
 30
0.0
 40
9.273367
  0
CIRCLE
  5
4D7
100
AcDbEntity
  8
止水栓
  6
CONTINUOUS
 62
     6
100
AcDbCircle
 10
454.888906
 20
2127.907936
 30
0.0
 40
9.959438
  0
CIRCLE
  5
4D8
100
AcDbEntity
  8
止水栓
  6
CONTINUOUS
 62
     6
100
AcDbCircle
 10
454.888906
 20
2127.907936
 30
0.0
 40
12.0
  0
ARC
  5
4D9
100
AcDbEntity
  8
止水栓
  6
CONTINUOUS
 62
     6
100
AcDbCircle
 10
454.888906
 20
2127.909156
 30
0.0
 40
27.5
100
AcDbArc
 50
114.79044
 51
157.132946
  0
ARC
  5
4DA
100
AcDbEntity
  8
止水栓
  6
CONTINUOUS
 62
     6
100
AcDbCircle
 10
454.888906
 20
2127.909156
 30
0.0
 40
27.5
100
AcDbArc
 50
202.867054
 51
64.998019
  0
LINE
  5
4DB
100
AcDbEntity
  8
止水栓
  6
EXLTYPE2
 62
     6
100
AcDbLine
 10
419.037951
 20
938.313034
 30
0.0
 11
419.037951
 21
931.83061
 31
0.0
  0
LINE
  5
4DC
100
AcDbEntity
  8
止水栓
  6
EXLTYPE2
 62
     6
100
AcDbLine
 10
398.087951
 20
937.310688
 30
0.0
 11
398.087951
 21
931.83061
 31
0.0
  0
ARC
  5
4DD
100
AcDbEntity
  8
止水栓
  6
EXLTYPE2
 62
     6
100
AcDbCircle
 10
410.312676
 20
925.832075
 30
0.0
 40
10.99987
100
AcDbArc
 50
326.937744
 51
33.054687
  0
POLYLINE
  5
4DE
100
AcDbEntity
  8
止水栓
  6
EXLTYPE2
 62
     6
100
AcDb2dPolyline
 66
     1
 10
0.0
 20
0.0
 30
0.0
 70
   128
  0
VERTEX
  5
4DF
100
AcDbEntity
  8
止水栓
  6
EXLTYPE2
 62
     6
100
AcDbVertex
100
AcDb2dVertex
 10
416.164727
 20
925.573286
 30
0.0
  0
VERTEX
  5
4E0
100
AcDbEntity
  8
止水栓
  6
EXLTYPE2
 62
     6
100
AcDbVertex
100
AcDb2dVertex
 10
416.174492
 20
925.170454
 30
0.0
  0
VERTEX
  5
4E1
100
AcDbEntity
  8
止水栓
  6
EXLTYPE2
 62
     6
100
AcDbVertex
100
AcDb2dVertex
 10
416.203789
 20
924.770064
 30
0.0
  0
VERTEX
  5
4E2
100
AcDbEntity
  8
止水栓
  6
EXLTYPE2
 62
     6
100
AcDbVertex
100
AcDb2dVertex
 10
416.250176
 20
924.374556
 30
0.0
  0
VERTEX
  5
4E3
100
AcDbEntity
  8
止水栓
  6
EXLTYPE2
 62
     6
100
AcDbVertex
100
AcDb2dVertex
 10
416.313652
 20
923.991255
 30
0.0
  0
VERTEX
  5
4E4
100
AcDbEntity
  8
止水栓
  6
EXLTYPE2
 62
     6
100
AcDbVertex
100
AcDb2dVertex
 10
416.394219
 20
923.61772
 30
0.0
  0
VERTEX
  5
4E5
100
AcDbEntity
  8
止水栓
  6
EXLTYPE2
 62
     6
100
AcDbVertex
100
AcDb2dVertex
 10
416.494317
 20
923.258833
 30
0.0
  0
VERTEX
  5
4E6
100
AcDbEntity
  8
止水栓
  6
EXLTYPE2
 62
     6
100
AcDbVertex
100
AcDb2dVertex
 10
416.609063
 20
922.919478
 30
0.0
  0
VERTEX
  5
4E7
100
AcDbEntity
  8
止水栓
  6
EXLTYPE2
 62
     6
100
AcDbVertex
100
AcDb2dVertex
 10
416.738457
 20
922.597212
 30
0.0
  0
VERTEX
  5
4E8
100
AcDbEntity
  8
止水栓
  6
EXLTYPE2
 62
     6
100
AcDbVertex
100
AcDb2dVertex
 10
416.8825
 20
922.29936
 30
0.0
  0
VERTEX
  5
4E9
100
AcDbEntity
  8
止水栓
  6
EXLTYPE2
 62
     6
100
AcDbVertex
100
AcDb2dVertex
 10
417.041192
 20
922.028364
 30
0.0
  0
VERTEX
  5
4EA
100
AcDbEntity
  8
止水栓
  6
EXLTYPE2
 62
     6
100
AcDbVertex
100
AcDb2dVertex
 10
417.209649
 20
921.781782
 30
0.0
  0
VERTEX
  5
4EB
100
AcDbEntity
  8
止水栓
  6
EXLTYPE2
 62
     6
100
AcDbVertex
100
AcDb2dVertex
 10
417.390313
 20
921.564497
 30
0.0
  0
VERTEX
  5
4EC
100
AcDbEntity
  8
止水栓
  6
EXLTYPE2
 62
     6
100
AcDbVertex
100
AcDb2dVertex
 10
417.580742
 20
921.376509
 30
0.0
  0
VERTEX
  5
4ED
100
AcDbEntity
  8
止水栓
  6
EXLTYPE2
 62
     6
100
AcDbVertex
100
AcDb2dVertex
 10
417.778496
 20
921.2227
 30
0.0
  0
VERTEX
  5
4EE
100
AcDbEntity
  8
止水栓
  6
EXLTYPE2
 62
     6
100
AcDbVertex
100
AcDb2dVertex
 10
417.981133
 20
921.103071
 30
0.0
  0
VERTEX
  5
4EF
100
AcDbEntity
  8
止水栓
  6
EXLTYPE2
 62
     6
100
AcDbVertex
100
AcDb2dVertex
 10
418.191094
 20
921.015181
 30
0.0
  0
VERTEX
  5
4F0
100
AcDbEntity
  8
止水栓
  6
EXLTYPE2
 62
     6
100
AcDbVertex
100
AcDb2dVertex
 10
418.401055
 20
920.96147
 30
0.0
  0
VERTEX
  5
4F1
100
AcDbEntity
  8
止水栓
  6
EXLTYPE2
 62
     6
100
AcDbVertex
100
AcDb2dVertex
 10
418.615899
 20
920.94438
 30
0.0
  0
VERTEX
  5
4F2
100
AcDbEntity
  8
止水栓
  6
EXLTYPE2
 62
     6
100
AcDbVertex
100
AcDb2dVertex
 10
418.828301
 20
920.96147
 30
0.0
  0
VERTEX
  5
4F3
100
AcDbEntity
  8
止水栓
  6
EXLTYPE2
 62
     6
100
AcDbVertex
100
AcDb2dVertex
 10
419.040703
 20
921.015181
 30
0.0
  0
VERTEX
  5
4F4
100
AcDbEntity
  8
止水栓
  6
EXLTYPE2
 62
     6
100
AcDbVertex
100
AcDb2dVertex
 10
419.250664
 20
921.103071
 30
0.0
  0
VERTEX
  5
4F5
100
AcDbEntity
  8
止水栓
  6
EXLTYPE2
 62
     6
100
AcDbVertex
100
AcDb2dVertex
 10
419.453301
 20
921.2227
 30
0.0
  0
VERTEX
  5
4F6
100
AcDbEntity
  8
止水栓
  6
EXLTYPE2
 62
     6
100
AcDbVertex
100
AcDb2dVertex
 10
419.651055
 20
921.37895
 30
0.0
  0
VERTEX
  5
4F7
100
AcDbEntity
  8
止水栓
  6
EXLTYPE2
 62
     6
100
AcDbVertex
100
AcDb2dVertex
 10
419.839043
 20
921.564497
 30
0.0
  0
VERTEX
  5
4F8
100
AcDbEntity
  8
止水栓
  6
EXLTYPE2
 62
     6
100
AcDbVertex
100
AcDb2dVertex
 10
420.019707
 20
921.781782
 30
0.0
  0
VERTEX
  5
4F9
100
AcDbEntity
  8
止水栓
  6
EXLTYPE2
 62
     6
100
AcDbVertex
100
AcDb2dVertex
 10
420.190606
 20
922.025923
 30
0.0
  0
VERTEX
  5
4FA
100
AcDbEntity
  8
止水栓
  6
EXLTYPE2
 62
     6
100
AcDbVertex
100
AcDb2dVertex
 10
420.346856
 20
922.29936
 30
0.0
  0
VERTEX
  5
4FB
100
AcDbEntity
  8
止水栓
  6
EXLTYPE2
 62
     6
100
AcDbVertex
100
AcDb2dVertex
 10
420.490899
 20
922.597212
 30
0.0
  0
VERTEX
  5
4FC
100
AcDbEntity
  8
止水栓
  6
EXLTYPE2
 62
     6
100
AcDbVertex
100
AcDb2dVertex
 10
420.622734
 20
922.919478
 30
0.0
  0
VERTEX
  5
4FD
100
AcDbEntity
  8
止水栓
  6
EXLTYPE2
 62
     6
100
AcDbVertex
100
AcDb2dVertex
 10
420.737481
 20
923.258833
 30
0.0
  0
VERTEX
  5
4FE
100
AcDbEntity
  8
止水栓
  6
EXLTYPE2
 62
     6
100
AcDbVertex
100
AcDb2dVertex
 10
420.835137
 20
923.61772
 30
0.0
  0
VERTEX
  5
4FF
100
AcDbEntity
  8
止水栓
  6
EXLTYPE2
 62
     6
100
AcDbVertex
100
AcDb2dVertex
 10
420.915703
 20
923.988814
 30
0.0
  0
VERTEX
  5
500
100
AcDbEntity
  8
止水栓
  6
EXLTYPE2
 62
     6
100
AcDbVertex
100
AcDb2dVertex
 10
420.981621
 20
924.374556
 30
0.0
  0
VERTEX
  5
501
100
AcDbEntity
  8
止水栓
  6
EXLTYPE2
 62
     6
100
AcDbVertex
100
AcDb2dVertex
 10
421.028008
 20
924.770064
 30
0.0
  0
VERTEX
  5
502
100
AcDbEntity
  8
止水栓
  6
EXLTYPE2
 62
     6
100
AcDbVertex
100
AcDb2dVertex
 10
421.054863
 20
925.170454
 30
0.0
  0
VERTEX
  5
503
100
AcDbEntity
  8
止水栓
  6
EXLTYPE2
 62
     6
100
AcDbVertex
100
AcDb2dVertex
 10
421.064629
 20
925.573286
 30
0.0
  0
VERTEX
  5
504
100
AcDbEntity
  8
止水栓
  6
EXLTYPE2
 62
     6
100
AcDbVertex
100
AcDb2dVertex
 10
421.054863
 20
925.976118
 30
0.0
  0
VERTEX
  5
505
100
AcDbEntity
  8
止水栓
  6
EXLTYPE2
 62
     6
100
AcDbVertex
100
AcDb2dVertex
 10
421.028008
 20
926.376509
 30
0.0
  0
VERTEX
  5
506
100
AcDbEntity
  8
止水栓
  6
EXLTYPE2
 62
     6
100
AcDbVertex
100
AcDb2dVertex
 10
420.981621
 20
926.772017
 30
0.0
  0
VERTEX
  5
507
100
AcDbEntity
  8
止水栓
  6
EXLTYPE2
 62
     6
100
AcDbVertex
100
AcDb2dVertex
 10
420.918145
 20
927.157759
 30
0.0
  0
VERTEX
  5
508
100
AcDbEntity
  8
止水栓
  6
EXLTYPE2
 62
     6
100
AcDbVertex
100
AcDb2dVertex
 10
420.835137
 20
927.531294
 30
0.0
  0
VERTEX
  5
509
100
AcDbEntity
  8
止水栓
  6
EXLTYPE2
 62
     6
100
AcDbVertex
100
AcDb2dVertex
 10
420.737481
 20
927.890181
 30
0.0
  0
VERTEX
  5
50A
100
AcDbEntity
  8
止水栓
  6
EXLTYPE2
 62
     6
100
AcDbVertex
100
AcDb2dVertex
 10
420.622734
 20
928.229536
 30
0.0
  0
VERTEX
  5
50B
100
AcDbEntity
  8
止水栓
  6
EXLTYPE2
 62
     6
100
AcDbVertex
100
AcDb2dVertex
 10
420.490899
 20
928.551802
 30
0.0
  0
VERTEX
  5
50C
100
AcDbEntity
  8
止水栓
  6
EXLTYPE2
 62
     6
100
AcDbVertex
100
AcDb2dVertex
 10
420.346856
 20
928.847212
 30
0.0
  0
VERTEX
  5
50D
100
AcDbEntity
  8
止水栓
  6
EXLTYPE2
 62
     6
100
AcDbVertex
100
AcDb2dVertex
 10
420.190606
 20
929.12065
 30
0.0
  0
VERTEX
  5
50E
100
AcDbEntity
  8
止水栓
  6
EXLTYPE2
 62
     6
100
AcDbVertex
100
AcDb2dVertex
 10
420.019707
 20
929.367232
 30
0.0
  0
VERTEX
  5
50F
100
AcDbEntity
  8
止水栓
  6
EXLTYPE2
 62
     6
100
AcDbVertex
100
AcDb2dVertex
 10
419.841484
 20
929.584517
 30
0.0
  0
VERTEX
  5
510
100
AcDbEntity
  8
止水栓
  6
EXLTYPE2
 62
     6
100
AcDbVertex
100
AcDb2dVertex
 10
419.651055
 20
929.770064
 30
0.0
  0
VERTEX
  5
511
100
AcDbEntity
  8
止水栓
  6
EXLTYPE2
 62
     6
100
AcDbVertex
100
AcDb2dVertex
 10
419.453301
 20
929.923872
 30
0.0
  0
VERTEX
  5
512
100
AcDbEntity
  8
止水栓
  6
EXLTYPE2
 62
     6
100
AcDbVertex
100
AcDb2dVertex
 10
419.250664
 20
930.045943
 30
0.0
  0
VERTEX
  5
513
100
AcDbEntity
  8
止水栓
  6
EXLTYPE2
 62
     6
100
AcDbVertex
100
AcDb2dVertex
 10
419.040703
 20
930.133833
 30
0.0
  0
VERTEX
  5
514
100
AcDbEntity
  8
止水栓
  6
EXLTYPE2
 62
     6
100
AcDbVertex
100
AcDb2dVertex
 10
418.828301
 20
930.187544
 30
0.0
  0
VERTEX
  5
515
100
AcDbEntity
  8
止水栓
  6
EXLTYPE2
 62
     6
100
AcDbVertex
100
AcDb2dVertex
 10
418.615899
 20
930.204634
 30
0.0
  0
VERTEX
  5
516
100
AcDbEntity
  8
止水栓
  6
EXLTYPE2
 62
     6
100
AcDbVertex
100
AcDb2dVertex
 10
418.401055
 20
930.185103
 30
0.0
  0
VERTEX
  5
517
100
AcDbEntity
  8
止水栓
  6
EXLTYPE2
 62
     6
100
AcDbVertex
100
AcDb2dVertex
 10
418.191094
 20
930.133833
 30
0.0
  0
VERTEX
  5
518
100
AcDbEntity
  8
止水栓
  6
EXLTYPE2
 62
     6
100
AcDbVertex
100
AcDb2dVertex
 10
417.981133
 20
930.045943
 30
0.0
  0
VERTEX
  5
519
100
AcDbEntity
  8
止水栓
  6
EXLTYPE2
 62
     6
100
AcDbVertex
100
AcDb2dVertex
 10
417.778496
 20
929.923872
 30
0.0
  0
VERTEX
  5
51A
100
AcDbEntity
  8
止水栓
  6
EXLTYPE2
 62
     6
100
AcDbVertex
100
AcDb2dVertex
 10
417.580742
 20
929.770064
 30
0.0
  0
SEQEND
  5
51B
100
AcDbEntity
  8
止水栓
  6
EXLTYPE2
 62
     6
  0
LINE
  5
51C
100
AcDbEntity
  8
止水栓
  6
EXLTYPE2
 62
     6
100
AcDbLine
 10
419.062188
 20
919.831099
 30
0.0
 11
419.062188
 21
914.831099
 31
0.0
  0
POLYLINE
  5
51D
100
AcDbEntity
  8
止水栓
  6
EXLTYPE2
 62
     6
100
AcDb2dPolyline
 66
     1
 10
0.0
 20
0.0
 30
0.0
 70
   128
  0
VERTEX
  5
51E
100
AcDbEntity
  8
止水栓
  6
EXLTYPE2
 62
     6
100
AcDbVertex
100
AcDb2dVertex
 10
396.06707
 20
925.58061
 30
0.0
  0
VERTEX
  5
51F
100
AcDbEntity
  8
止水栓
  6
EXLTYPE2
 62
     6
100
AcDbVertex
100
AcDb2dVertex
 10
396.076836
 20
925.143599
 30
0.0
  0
VERTEX
  5
520
100
AcDbEntity
  8
止水栓
  6
EXLTYPE2
 62
     6
100
AcDbVertex
100
AcDb2dVertex
 10
396.103692
 20
924.71147
 30
0.0
  0
VERTEX
  5
521
100
AcDbEntity
  8
止水栓
  6
EXLTYPE2
 62
     6
100
AcDbVertex
100
AcDb2dVertex
 10
396.150078
 20
924.286665
 30
0.0
  0
VERTEX
  5
522
100
AcDbEntity
  8
止水栓
  6
EXLTYPE2
 62
     6
100
AcDbVertex
100
AcDb2dVertex
 10
396.215996
 20
923.871626
 30
0.0
  0
VERTEX
  5
523
100
AcDbEntity
  8
止水栓
  6
EXLTYPE2
 62
     6
100
AcDbVertex
100
AcDb2dVertex
 10
396.296563
 20
923.471235
 30
0.0
  0
VERTEX
  5
524
100
AcDbEntity
  8
止水栓
  6
EXLTYPE2
 62
     6
100
AcDbVertex
100
AcDb2dVertex
 10
396.394219
 20
923.085493
 30
0.0
  0
VERTEX
  5
525
100
AcDbEntity
  8
止水栓
  6
EXLTYPE2
 62
     6
100
AcDbVertex
100
AcDb2dVertex
 10
396.511406
 20
922.716841
 30
0.0
  0
VERTEX
  5
526
100
AcDbEntity
  8
止水栓
  6
EXLTYPE2
 62
     6
100
AcDbVertex
100
AcDb2dVertex
 10
396.640801
 20
922.372603
 30
0.0
  0
VERTEX
  5
527
100
AcDbEntity
  8
止水栓
  6
EXLTYPE2
 62
     6
100
AcDbVertex
100
AcDb2dVertex
 10
396.784844
 20
922.050337
 30
0.0
  0
VERTEX
  5
528
100
AcDbEntity
  8
止水栓
  6
EXLTYPE2
 62
     6
100
AcDbVertex
100
AcDb2dVertex
 10
396.943535
 20
921.757368
 30
0.0
  0
VERTEX
  5
529
100
AcDbEntity
  8
止水栓
  6
EXLTYPE2
 62
     6
100
AcDbVertex
100
AcDb2dVertex
 10
397.111992
 20
921.491255
 30
0.0
  0
VERTEX
  5
52A
100
AcDbEntity
  8
止水栓
  6
EXLTYPE2
 62
     6
100
AcDbVertex
100
AcDb2dVertex
 10
397.292656
 20
921.259321
 30
0.0
  0
VERTEX
  5
52B
100
AcDbEntity
  8
止水栓
  6
EXLTYPE2
 62
     6
100
AcDbVertex
100
AcDb2dVertex
 10
397.480645
 20
921.056685
 30
0.0
  0
VERTEX
  5
52C
100
AcDbEntity
  8
止水栓
  6
EXLTYPE2
 62
     6
100
AcDbVertex
100
AcDb2dVertex
 10
397.678399
 20
920.890669
 30
0.0
  0
VERTEX
  5
52D
100
AcDbEntity
  8
止水栓
  6
EXLTYPE2
 62
     6
100
AcDbVertex
100
AcDb2dVertex
 10
397.883477
 20
920.758833
 30
0.0
  0
VERTEX
  5
52E
100
AcDbEntity
  8
止水栓
  6
EXLTYPE2
 62
     6
100
AcDbVertex
100
AcDb2dVertex
 10
398.090996
 20
920.66606
 30
0.0
  0
VERTEX
  5
52F
100
AcDbEntity
  8
止水栓
  6
EXLTYPE2
 62
     6
100
AcDbVertex
100
AcDb2dVertex
 10
398.303399
 20
920.607466
 30
0.0
  0
VERTEX
  5
530
100
AcDbEntity
  8
止水栓
  6
EXLTYPE2
 62
     6
100
AcDbVertex
100
AcDb2dVertex
 10
398.515801
 20
920.590376
 30
0.0
  0
VERTEX
  5
531
100
AcDbEntity
  8
止水栓
  6
EXLTYPE2
 62
     6
100
AcDbVertex
100
AcDb2dVertex
 10
398.730645
 20
920.609907
 30
0.0
  0
VERTEX
  5
532
100
AcDbEntity
  8
止水栓
  6
EXLTYPE2
 62
     6
100
AcDbVertex
100
AcDb2dVertex
 10
398.943047
 20
920.66606
 30
0.0
  0
VERTEX
  5
533
100
AcDbEntity
  8
止水栓
  6
EXLTYPE2
 62
     6
100
AcDbVertex
100
AcDb2dVertex
 10
399.150567
 20
920.758833
 30
0.0
  0
VERTEX
  5
534
100
AcDbEntity
  8
止水栓
  6
EXLTYPE2
 62
     6
100
AcDbVertex
100
AcDb2dVertex
 10
399.355645
 20
920.890669
 30
0.0
  0
VERTEX
  5
535
100
AcDbEntity
  8
止水栓
  6
EXLTYPE2
 62
     6
100
AcDbVertex
100
AcDb2dVertex
 10
399.553399
 20
921.056685
 30
0.0
  0
VERTEX
  5
536
100
AcDbEntity
  8
止水栓
  6
EXLTYPE2
 62
     6
100
AcDbVertex
100
AcDb2dVertex
 10
399.741387
 20
921.259321
 30
0.0
  0
VERTEX
  5
537
100
AcDbEntity
  8
止水栓
  6
EXLTYPE2
 62
     6
100
AcDbVertex
100
AcDb2dVertex
 10
399.922051
 20
921.493696
 30
0.0
  0
VERTEX
  5
538
100
AcDbEntity
  8
止水栓
  6
EXLTYPE2
 62
     6
100
AcDbVertex
100
AcDb2dVertex
 10
400.090508
 20
921.757368
 30
0.0
  0
VERTEX
  5
539
100
AcDbEntity
  8
止水栓
  6
EXLTYPE2
 62
     6
100
AcDbVertex
100
AcDb2dVertex
 10
400.249199
 20
922.050337
 30
0.0
  0
VERTEX
  5
53A
100
AcDbEntity
  8
止水栓
  6
EXLTYPE2
 62
     6
100
AcDbVertex
100
AcDb2dVertex
 10
400.393242
 20
922.372603
 30
0.0
  0
VERTEX
  5
53B
100
AcDbEntity
  8
止水栓
  6
EXLTYPE2
 62
     6
100
AcDbVertex
100
AcDb2dVertex
 10
400.522637
 20
922.716841
 30
0.0
  0
VERTEX
  5
53C
100
AcDbEntity
  8
止水栓
  6
EXLTYPE2
 62
     6
100
AcDbVertex
100
AcDb2dVertex
 10
400.637383
 20
923.085493
 30
0.0
  0
VERTEX
  5
53D
100
AcDbEntity
  8
止水栓
  6
EXLTYPE2
 62
     6
100
AcDbVertex
100
AcDb2dVertex
 10
400.737481
 20
923.471235
 30
0.0
  0
VERTEX
  5
53E
100
AcDbEntity
  8
止水栓
  6
EXLTYPE2
 62
     6
100
AcDbVertex
100
AcDb2dVertex
 10
400.818047
 20
923.874068
 30
0.0
  0
VERTEX
  5
53F
100
AcDbEntity
  8
止水栓
  6
EXLTYPE2
 62
     6
100
AcDbVertex
100
AcDb2dVertex
 10
400.883965
 20
924.289107
 30
0.0
  0
VERTEX
  5
540
100
AcDbEntity
  8
止水栓
  6
EXLTYPE2
 62
     6
100
AcDbVertex
100
AcDb2dVertex
 10
400.930352
 20
924.713911
 30
0.0
  0
VERTEX
  5
541
100
AcDbEntity
  8
止水栓
  6
EXLTYPE2
 62
     6
100
AcDbVertex
100
AcDb2dVertex
 10
400.957207
 20
925.14604
 30
0.0
  0
VERTEX
  5
542
100
AcDbEntity
  8
止水栓
  6
EXLTYPE2
 62
     6
100
AcDbVertex
100
AcDb2dVertex
 10
400.966973
 20
925.58061
 30
0.0
  0
VERTEX
  5
543
100
AcDbEntity
  8
止水栓
  6
EXLTYPE2
 62
     6
100
AcDbVertex
100
AcDb2dVertex
 10
400.957207
 20
926.015181
 30
0.0
  0
VERTEX
  5
544
100
AcDbEntity
  8
止水栓
  6
EXLTYPE2
 62
     6
100
AcDbVertex
100
AcDb2dVertex
 10
400.92791
 20
926.44731
 30
0.0
  0
VERTEX
  5
545
100
AcDbEntity
  8
止水栓
  6
EXLTYPE2
 62
     6
100
AcDbVertex
100
AcDb2dVertex
 10
400.881524
 20
926.872114
 30
0.0
  0
VERTEX
  5
546
100
AcDbEntity
  8
止水栓
  6
EXLTYPE2
 62
     6
100
AcDbVertex
100
AcDb2dVertex
 10
400.818047
 20
927.287153
 30
0.0
  0
VERTEX
  5
547
100
AcDbEntity
  8
止水栓
  6
EXLTYPE2
 62
     6
100
AcDbVertex
100
AcDb2dVertex
 10
400.737481
 20
927.689985
 30
0.0
  0
VERTEX
  5
548
100
AcDbEntity
  8
止水栓
  6
EXLTYPE2
 62
     6
100
AcDbVertex
100
AcDb2dVertex
 10
400.637383
 20
928.075728
 30
0.0
  0
VERTEX
  5
549
100
AcDbEntity
  8
止水栓
  6
EXLTYPE2
 62
     6
100
AcDbVertex
100
AcDb2dVertex
 10
400.522637
 20
928.441939
 30
0.0
  0
VERTEX
  5
54A
100
AcDbEntity
  8
止水栓
  6
EXLTYPE2
 62
     6
100
AcDbVertex
100
AcDb2dVertex
 10
400.393242
 20
928.788618
 30
0.0
  0
VERTEX
  5
54B
100
AcDbEntity
  8
止水栓
  6
EXLTYPE2
 62
     6
100
AcDbVertex
100
AcDb2dVertex
 10
400.249199
 20
929.108443
 30
0.0
  0
VERTEX
  5
54C
100
AcDbEntity
  8
止水栓
  6
EXLTYPE2
 62
     6
100
AcDbVertex
100
AcDb2dVertex
 10
400.090508
 20
929.403853
 30
0.0
  0
VERTEX
  5
54D
100
AcDbEntity
  8
止水栓
  6
EXLTYPE2
 62
     6
100
AcDbVertex
100
AcDb2dVertex
 10
399.922051
 20
929.667525
 30
0.0
  0
VERTEX
  5
54E
100
AcDbEntity
  8
止水栓
  6
EXLTYPE2
 62
     6
100
AcDbVertex
100
AcDb2dVertex
 10
399.741387
 20
929.9019
 30
0.0
  0
VERTEX
  5
54F
100
AcDbEntity
  8
止水栓
  6
EXLTYPE2
 62
     6
100
AcDbVertex
100
AcDb2dVertex
 10
399.553399
 20
930.102095
 30
0.0
  0
VERTEX
  5
550
100
AcDbEntity
  8
止水栓
  6
EXLTYPE2
 62
     6
100
AcDbVertex
100
AcDb2dVertex
 10
399.355645
 20
930.270552
 30
0.0
  0
VERTEX
  5
551
100
AcDbEntity
  8
止水栓
  6
EXLTYPE2
 62
     6
100
AcDbVertex
100
AcDb2dVertex
 10
399.150567
 20
930.399946
 30
0.0
  0
VERTEX
  5
552
100
AcDbEntity
  8
止水栓
  6
EXLTYPE2
 62
     6
100
AcDbVertex
100
AcDb2dVertex
 10
398.943047
 20
930.495161
 30
0.0
  0
VERTEX
  5
553
100
AcDbEntity
  8
止水栓
  6
EXLTYPE2
 62
     6
100
AcDbVertex
100
AcDb2dVertex
 10
398.730645
 20
930.551314
 30
0.0
  0
VERTEX
  5
554
100
AcDbEntity
  8
止水栓
  6
EXLTYPE2
 62
     6
100
AcDbVertex
100
AcDb2dVertex
 10
398.515801
 20
930.570845
 30
0.0
  0
VERTEX
  5
555
100
AcDbEntity
  8
止水栓
  6
EXLTYPE2
 62
     6
100
AcDbVertex
100
AcDb2dVertex
 10
398.303399
 20
930.551314
 30
0.0
  0
VERTEX
  5
556
100
AcDbEntity
  8
止水栓
  6
EXLTYPE2
 62
     6
100
AcDbVertex
100
AcDb2dVertex
 10
398.090996
 20
930.495161
 30
0.0
  0
VERTEX
  5
557
100
AcDbEntity
  8
止水栓
  6
EXLTYPE2
 62
     6
100
AcDbVertex
100
AcDb2dVertex
 10
397.883477
 20
930.399946
 30
0.0
  0
VERTEX
  5
558
100
AcDbEntity
  8
止水栓
  6
EXLTYPE2
 62
     6
100
AcDbVertex
100
AcDb2dVertex
 10
397.678399
 20
930.270552
 30
0.0
  0
VERTEX
  5
559
100
AcDbEntity
  8
止水栓
  6
EXLTYPE2
 62
     6
100
AcDbVertex
100
AcDb2dVertex
 10
397.480645
 20
930.102095
 30
0.0
  0
SEQEND
  5
55A
100
AcDbEntity
  8
止水栓
  6
EXLTYPE2
 62
     6
  0
ARC
  5
55B
100
AcDbEntity
  8
止水栓
  6
EXLTYPE2
 62
     6
100
AcDbCircle
 10
406.811699
 20
925.832075
 30
0.0
 40
10.998535
100
AcDbArc
 50
146.94841
 51
213.059082
  0
LINE
  5
55C
100
AcDbEntity
  8
止水栓
  6
EXLTYPE2
 62
     6
100
AcDbLine
 10
398.062188
 20
919.831099
 30
0.0
 11
398.062188
 21
914.831099
 31
0.0
  0
LINE
  5
55D
100
AcDbEntity
  8
止水栓
  6
EXLTYPE2
 62
     6
100
AcDbLine
 10
397.592949
 20
919.831099
 30
0.0
 11
419.531426
 21
919.831099
 31
0.0
  0
LINE
  5
55E
100
AcDbEntity
  8
止水栓
  6
EXLTYPE2
 62
     6
100
AcDbLine
 10
398.062188
 20
914.831099
 30
0.0
 11
419.062188
 21
914.831099
 31
0.0
  0
POLYLINE
  5
55F
100
AcDbEntity
  8
止水栓
  6
EXLTYPE2
 62
     6
100
AcDb2dPolyline
 66
     1
 10
0.0
 20
0.0
 30
0.0
 70
   128
  0
VERTEX
  5
560
100
AcDbEntity
  8
止水栓
  6
EXLTYPE2
 62
     6
100
AcDbVertex
100
AcDb2dVertex
 10
408.562188
 20
920.045943
 30
0.0
  0
VERTEX
  5
561
100
AcDbEntity
  8
止水栓
  6
EXLTYPE2
 62
     6
100
AcDbVertex
100
AcDb2dVertex
 10
409.060234
 20
920.067915
 30
0.0
  0
VERTEX
  5
562
100
AcDbEntity
  8
止水栓
  6
EXLTYPE2
 62
     6
100
AcDbVertex
100
AcDb2dVertex
 10
409.55584
 20
920.133833
 30
0.0
  0
VERTEX
  5
563
100
AcDbEntity
  8
止水栓
  6
EXLTYPE2
 62
     6
100
AcDbVertex
100
AcDb2dVertex
 10
410.044121
 20
920.236372
 30
0.0
  0
VERTEX
  5
564
100
AcDbEntity
  8
止水栓
  6
EXLTYPE2
 62
     6
100
AcDbVertex
100
AcDb2dVertex
 10
410.529961
 20
920.382857
 30
0.0
  0
VERTEX
  5
565
100
AcDbEntity
  8
止水栓
  6
EXLTYPE2
 62
     6
100
AcDbVertex
100
AcDb2dVertex
 10
410.998711
 20
920.568403
 30
0.0
  0
VERTEX
  5
566
100
AcDbEntity
  8
止水栓
  6
EXLTYPE2
 62
     6
100
AcDbVertex
100
AcDb2dVertex
 10
411.450371
 20
920.790571
 30
0.0
  0
VERTEX
  5
567
100
AcDbEntity
  8
止水栓
  6
EXLTYPE2
 62
     6
100
AcDbVertex
100
AcDb2dVertex
 10
411.880059
 20
921.051802
 30
0.0
  0
VERTEX
  5
568
100
AcDbEntity
  8
止水栓
  6
EXLTYPE2
 62
     6
100
AcDbVertex
100
AcDb2dVertex
 10
412.282891
 20
921.347212
 30
0.0
  0
VERTEX
  5
569
100
AcDbEntity
  8
止水栓
  6
EXLTYPE2
 62
     6
100
AcDbVertex
100
AcDb2dVertex
 10
412.658867
 20
921.67436
 30
0.0
  0
VERTEX
  5
56A
100
AcDbEntity
  8
止水栓
  6
EXLTYPE2
 62
     6
100
AcDbVertex
100
AcDb2dVertex
 10
413.000664
 20
922.033247
 30
0.0
  0
VERTEX
  5
56B
100
AcDbEntity
  8
止水栓
  6
EXLTYPE2
 62
     6
100
AcDbVertex
100
AcDb2dVertex
 10
413.310723
 20
922.418989
 30
0.0
  0
VERTEX
  5
56C
100
AcDbEntity
  8
止水栓
  6
EXLTYPE2
 62
     6
100
AcDbVertex
100
AcDb2dVertex
 10
413.58416
 20
922.826704
 30
0.0
  0
VERTEX
  5
56D
100
AcDbEntity
  8
止水栓
  6
EXLTYPE2
 62
     6
100
AcDbVertex
100
AcDb2dVertex
 10
413.820977
 20
923.256392
 30
0.0
  0
VERTEX
  5
56E
100
AcDbEntity
  8
止水栓
  6
EXLTYPE2
 62
     6
100
AcDbVertex
100
AcDb2dVertex
 10
414.013848
 20
923.70561
 30
0.0
  0
VERTEX
  5
56F
100
AcDbEntity
  8
止水栓
  6
EXLTYPE2
 62
     6
100
AcDbVertex
100
AcDb2dVertex
 10
414.167656
 20
924.169478
 30
0.0
  0
VERTEX
  5
570
100
AcDbEntity
  8
止水栓
  6
EXLTYPE2
 62
     6
100
AcDbVertex
100
AcDb2dVertex
 10
414.27752
 20
924.64311
 30
0.0
  0
VERTEX
  5
571
100
AcDbEntity
  8
止水栓
  6
EXLTYPE2
 62
     6
100
AcDbVertex
100
AcDb2dVertex
 10
414.343438
 20
925.124068
 30
0.0
  0
VERTEX
  5
572
100
AcDbEntity
  8
止水栓
  6
EXLTYPE2
 62
     6
100
AcDbVertex
100
AcDb2dVertex
 10
414.367852
 20
925.607466
 30
0.0
  0
VERTEX
  5
573
100
AcDbEntity
  8
止水栓
  6
EXLTYPE2
 62
     6
100
AcDbVertex
100
AcDb2dVertex
 10
414.343438
 20
926.093306
 30
0.0
  0
VERTEX
  5
574
100
AcDbEntity
  8
止水栓
  6
EXLTYPE2
 62
     6
100
AcDbVertex
100
AcDb2dVertex
 10
414.27752
 20
926.574263
 30
0.0
  0
VERTEX
  5
575
100
AcDbEntity
  8
止水栓
  6
EXLTYPE2
 62
     6
100
AcDbVertex
100
AcDb2dVertex
 10
414.167656
 20
927.047896
 30
0.0
  0
VERTEX
  5
576
100
AcDbEntity
  8
止水栓
  6
EXLTYPE2
 62
     6
100
AcDbVertex
100
AcDb2dVertex
 10
414.013848
 20
927.509321
 30
0.0
  0
VERTEX
  5
577
100
AcDbEntity
  8
止水栓
  6
EXLTYPE2
 62
     6
100
AcDbVertex
100
AcDb2dVertex
 10
413.820977
 20
927.95854
 30
0.0
  0
VERTEX
  5
578
100
AcDbEntity
  8
止水栓
  6
EXLTYPE2
 62
     6
100
AcDbVertex
100
AcDb2dVertex
 10
413.58416
 20
928.388228
 30
0.0
  0
VERTEX
  5
579
100
AcDbEntity
  8
止水栓
  6
EXLTYPE2
 62
     6
100
AcDbVertex
100
AcDb2dVertex
 10
413.310723
 20
928.798384
 30
0.0
  0
VERTEX
  5
57A
100
AcDbEntity
  8
止水栓
  6
EXLTYPE2
 62
     6
100
AcDbVertex
100
AcDb2dVertex
 10
413.000664
 20
929.181685
 30
0.0
  0
VERTEX
  5
57B
100
AcDbEntity
  8
止水栓
  6
EXLTYPE2
 62
     6
100
AcDbVertex
100
AcDb2dVertex
 10
412.658867
 20
929.540571
 30
0.0
  0
VERTEX
  5
57C
100
AcDbEntity
  8
止水栓
  6
EXLTYPE2
 62
     6
100
AcDbVertex
100
AcDb2dVertex
 10
412.282891
 20
929.86772
 30
0.0
  0
VERTEX
  5
57D
100
AcDbEntity
  8
止水栓
  6
EXLTYPE2
 62
     6
100
AcDbVertex
100
AcDb2dVertex
 10
411.880059
 20
930.16313
 30
0.0
  0
VERTEX
  5
57E
100
AcDbEntity
  8
止水栓
  6
EXLTYPE2
 62
     6
100
AcDbVertex
100
AcDb2dVertex
 10
411.450371
 20
930.42436
 30
0.0
  0
VERTEX
  5
57F
100
AcDbEntity
  8
止水栓
  6
EXLTYPE2
 62
     6
100
AcDbVertex
100
AcDb2dVertex
 10
410.998711
 20
930.64897
 30
0.0
  0
VERTEX
  5
580
100
AcDbEntity
  8
止水栓
  6
EXLTYPE2
 62
     6
100
AcDbVertex
100
AcDb2dVertex
 10
410.529961
 20
930.834517
 30
0.0
  0
VERTEX
  5
581
100
AcDbEntity
  8
止水栓
  6
EXLTYPE2
 62
     6
100
AcDbVertex
100
AcDb2dVertex
 10
410.044121
 20
930.97856
 30
0.0
  0
VERTEX
  5
582
100
AcDbEntity
  8
止水栓
  6
EXLTYPE2
 62
     6
100
AcDbVertex
100
AcDb2dVertex
 10
409.548516
 20
931.08354
 30
0.0
  0
VERTEX
  5
583
100
AcDbEntity
  8
止水栓
  6
EXLTYPE2
 62
     6
100
AcDbVertex
100
AcDb2dVertex
 10
409.043145
 20
931.147017
 30
0.0
  0
VERTEX
  5
584
100
AcDbEntity
  8
止水栓
  6
EXLTYPE2
 62
     6
100
AcDbVertex
100
AcDb2dVertex
 10
408.535332
 20
931.168989
 30
0.0
  0
VERTEX
  5
585
100
AcDbEntity
  8
止水栓
  6
EXLTYPE2
 62
     6
100
AcDbVertex
100
AcDb2dVertex
 10
408.02752
 20
931.147017
 30
0.0
  0
VERTEX
  5
586
100
AcDbEntity
  8
止水栓
  6
EXLTYPE2
 62
     6
100
AcDbVertex
100
AcDb2dVertex
 10
407.522149
 20
931.08354
 30
0.0
  0
VERTEX
  5
587
100
AcDbEntity
  8
止水栓
  6
EXLTYPE2
 62
     6
100
AcDbVertex
100
AcDb2dVertex
 10
407.026543
 20
930.97856
 30
0.0
  0
VERTEX
  5
588
100
AcDbEntity
  8
止水栓
  6
EXLTYPE2
 62
     6
100
AcDbVertex
100
AcDb2dVertex
 10
406.540703
 20
930.834517
 30
0.0
  0
VERTEX
  5
589
100
AcDbEntity
  8
止水栓
  6
EXLTYPE2
 62
     6
100
AcDbVertex
100
AcDb2dVertex
 10
406.071953
 20
930.64897
 30
0.0
  0
VERTEX
  5
58A
100
AcDbEntity
  8
止水栓
  6
EXLTYPE2
 62
     6
100
AcDbVertex
100
AcDb2dVertex
 10
405.620293
 20
930.42436
 30
0.0
  0
VERTEX
  5
58B
100
AcDbEntity
  8
止水栓
  6
EXLTYPE2
 62
     6
100
AcDbVertex
100
AcDb2dVertex
 10
405.190606
 20
930.16313
 30
0.0
  0
VERTEX
  5
58C
100
AcDbEntity
  8
止水栓
  6
EXLTYPE2
 62
     6
100
AcDbVertex
100
AcDb2dVertex
 10
404.787774
 20
929.86772
 30
0.0
  0
VERTEX
  5
58D
100
AcDbEntity
  8
止水栓
  6
EXLTYPE2
 62
     6
100
AcDbVertex
100
AcDb2dVertex
 10
404.411797
 20
929.540571
 30
0.0
  0
VERTEX
  5
58E
100
AcDbEntity
  8
止水栓
  6
EXLTYPE2
 62
     6
100
AcDbVertex
100
AcDb2dVertex
 10
404.07
 20
929.181685
 30
0.0
  0
VERTEX
  5
58F
100
AcDbEntity
  8
止水栓
  6
EXLTYPE2
 62
     6
100
AcDbVertex
100
AcDb2dVertex
 10
403.759942
 20
928.798384
 30
0.0
  0
VERTEX
  5
590
100
AcDbEntity
  8
止水栓
  6
EXLTYPE2
 62
     6
100
AcDbVertex
100
AcDb2dVertex
 10
403.486504
 20
928.388228
 30
0.0
  0
VERTEX
  5
591
100
AcDbEntity
  8
止水栓
  6
EXLTYPE2
 62
     6
100
AcDbVertex
100
AcDb2dVertex
 10
403.249688
 20
927.95854
 30
0.0
  0
VERTEX
  5
592
100
AcDbEntity
  8
止水栓
  6
EXLTYPE2
 62
     6
100
AcDbVertex
100
AcDb2dVertex
 10
403.056817
 20
927.509321
 30
0.0
  0
VERTEX
  5
593
100
AcDbEntity
  8
止水栓
  6
EXLTYPE2
 62
     6
100
AcDbVertex
100
AcDb2dVertex
 10
402.903008
 20
927.047896
 30
0.0
  0
VERTEX
  5
594
100
AcDbEntity
  8
止水栓
  6
EXLTYPE2
 62
     6
100
AcDbVertex
100
AcDb2dVertex
 10
402.793145
 20
926.574263
 30
0.0
  0
VERTEX
  5
595
100
AcDbEntity
  8
止水栓
  6
EXLTYPE2
 62
     6
100
AcDbVertex
100
AcDb2dVertex
 10
402.727227
 20
926.093306
 30
0.0
  0
VERTEX
  5
596
100
AcDbEntity
  8
止水栓
  6
EXLTYPE2
 62
     6
100
AcDbVertex
100
AcDb2dVertex
 10
402.705254
 20
925.609907
 30
0.0
  0
SEQEND
  5
597
100
AcDbEntity
  8
止水栓
  6
EXLTYPE2
 62
     6
  0
POLYLINE
  5
598
100
AcDbEntity
  8
止水栓
  6
EXLTYPE2
 62
     6
100
AcDb2dPolyline
 66
     1
 10
0.0
 20
0.0
 30
0.0
 70
   128
  0
VERTEX
  5
599
100
AcDbEntity
  8
止水栓
  6
EXLTYPE2
 62
     6
100
AcDbVertex
100
AcDb2dVertex
 10
402.705254
 20
925.607466
 30
0.0
  0
VERTEX
  5
59A
100
AcDbEntity
  8
止水栓
  6
EXLTYPE2
 62
     6
100
AcDbVertex
100
AcDb2dVertex
 10
402.727227
 20
925.124068
 30
0.0
  0
VERTEX
  5
59B
100
AcDbEntity
  8
止水栓
  6
EXLTYPE2
 62
     6
100
AcDbVertex
100
AcDb2dVertex
 10
402.793145
 20
924.64311
 30
0.0
  0
VERTEX
  5
59C
100
AcDbEntity
  8
止水栓
  6
EXLTYPE2
 62
     6
100
AcDbVertex
100
AcDb2dVertex
 10
402.903008
 20
924.169478
 30
0.0
  0
VERTEX
  5
59D
100
AcDbEntity
  8
止水栓
  6
EXLTYPE2
 62
     6
100
AcDbVertex
100
AcDb2dVertex
 10
403.056817
 20
923.70561
 30
0.0
  0
VERTEX
  5
59E
100
AcDbEntity
  8
止水栓
  6
EXLTYPE2
 62
     6
100
AcDbVertex
100
AcDb2dVertex
 10
403.249688
 20
923.258833
 30
0.0
  0
VERTEX
  5
59F
100
AcDbEntity
  8
止水栓
  6
EXLTYPE2
 62
     6
100
AcDbVertex
100
AcDb2dVertex
 10
403.486504
 20
922.826704
 30
0.0
  0
VERTEX
  5
5A0
100
AcDbEntity
  8
止水栓
  6
EXLTYPE2
 62
     6
100
AcDbVertex
100
AcDb2dVertex
 10
403.759942
 20
922.418989
 30
0.0
  0
VERTEX
  5
5A1
100
AcDbEntity
  8
止水栓
  6
EXLTYPE2
 62
     6
100
AcDbVertex
100
AcDb2dVertex
 10
404.07
 20
922.033247
 30
0.0
  0
VERTEX
  5
5A2
100
AcDbEntity
  8
止水栓
  6
EXLTYPE2
 62
     6
100
AcDbVertex
100
AcDb2dVertex
 10
404.411797
 20
921.676802
 30
0.0
  0
VERTEX
  5
5A3
100
AcDbEntity
  8
止水栓
  6
EXLTYPE2
 62
     6
100
AcDbVertex
100
AcDb2dVertex
 10
404.787774
 20
921.347212
 30
0.0
  0
VERTEX
  5
5A4
100
AcDbEntity
  8
止水栓
  6
EXLTYPE2
 62
     6
100
AcDbVertex
100
AcDb2dVertex
 10
405.190606
 20
921.054243
 30
0.0
  0
VERTEX
  5
5A5
100
AcDbEntity
  8
止水栓
  6
EXLTYPE2
 62
     6
100
AcDbVertex
100
AcDb2dVertex
 10
405.620293
 20
920.790571
 30
0.0
  0
VERTEX
  5
5A6
100
AcDbEntity
  8
止水栓
  6
EXLTYPE2
 62
     6
100
AcDbVertex
100
AcDb2dVertex
 10
406.071953
 20
920.565962
 30
0.0
  0
VERTEX
  5
5A7
100
AcDbEntity
  8
止水栓
  6
EXLTYPE2
 62
     6
100
AcDbVertex
100
AcDb2dVertex
 10
406.540703
 20
920.380415
 30
0.0
  0
VERTEX
  5
5A8
100
AcDbEntity
  8
止水栓
  6
EXLTYPE2
 62
     6
100
AcDbVertex
100
AcDb2dVertex
 10
407.026543
 20
920.236372
 30
0.0
  0
VERTEX
  5
5A9
100
AcDbEntity
  8
止水栓
  6
EXLTYPE2
 62
     6
100
AcDbVertex
100
AcDb2dVertex
 10
407.522149
 20
920.131392
 30
0.0
  0
VERTEX
  5
5AA
100
AcDbEntity
  8
止水栓
  6
EXLTYPE2
 62
     6
100
AcDbVertex
100
AcDb2dVertex
 10
408.02752
 20
920.067915
 30
0.0
  0
VERTEX
  5
5AB
100
AcDbEntity
  8
止水栓
  6
EXLTYPE2
 62
     6
100
AcDbVertex
100
AcDb2dVertex
 10
408.535332
 20
920.045943
 30
0.0
  0
VERTEX
  5
5AC
100
AcDbEntity
  8
止水栓
  6
EXLTYPE2
 62
     6
100
AcDbVertex
100
AcDb2dVertex
 10
408.545098
 20
920.045943
 30
0.0
  0
VERTEX
  5
5AD
100
AcDbEntity
  8
止水栓
  6
EXLTYPE2
 62
     6
100
AcDbVertex
100
AcDb2dVertex
 10
408.552422
 20
920.045943
 30
0.0
  0
VERTEX
  5
5AE
100
AcDbEntity
  8
止水栓
  6
EXLTYPE2
 62
     6
100
AcDbVertex
100
AcDb2dVertex
 10
408.562188
 20
920.045943
 30
0.0
  0
SEQEND
  5
5AF
100
AcDbEntity
  8
止水栓
  6
EXLTYPE2
 62
     6
  0
POLYLINE
  5
5B0
100
AcDbEntity
  8
止水栓
  6
EXLTYPE2
 62
     6
100
AcDb2dPolyline
 66
     1
 10
0.0
 20
0.0
 30
0.0
 70
   128
  0
VERTEX
  5
5B1
100
AcDbEntity
  8
止水栓
  6
EXLTYPE2
 62
     6
100
AcDbVertex
100
AcDb2dVertex
 10
416.250176
 20
926.772017
 30
0.0
  0
VERTEX
  5
5B2
100
AcDbEntity
  8
止水栓
  6
EXLTYPE2
 62
     6
100
AcDbVertex
100
AcDb2dVertex
 10
416.203789
 20
926.37895
 30
0.0
  0
VERTEX
  5
5B3
100
AcDbEntity
  8
止水栓
  6
EXLTYPE2
 62
     6
100
AcDbVertex
100
AcDb2dVertex
 10
416.174492
 20
925.97856
 30
0.0
  0
VERTEX
  5
5B4
100
AcDbEntity
  8
止水栓
  6
EXLTYPE2
 62
     6
100
AcDbVertex
100
AcDb2dVertex
 10
416.164727
 20
925.575728
 30
0.0
  0
SEQEND
  5
5B5
100
AcDbEntity
  8
止水栓
  6
EXLTYPE2
 62
     6
  0
POLYLINE
  5
5B6
100
AcDbEntity
  8
止水栓
  6
EXLTYPE2
 62
     6
100
AcDb2dPolyline
 66
     1
 10
0.0
 20
0.0
 30
0.0
 70
   128
  0
VERTEX
  5
5B7
100
AcDbEntity
  8
止水栓
  6
EXLTYPE2
 62
     6
100
AcDbVertex
100
AcDb2dVertex
 10
396.150078
 20
926.872114
 30
0.0
  0
VERTEX
  5
5B8
100
AcDbEntity
  8
止水栓
  6
EXLTYPE2
 62
     6
100
AcDbVertex
100
AcDb2dVertex
 10
396.103692
 20
926.44731
 30
0.0
  0
VERTEX
  5
5B9
100
AcDbEntity
  8
止水栓
  6
EXLTYPE2
 62
     6
100
AcDbVertex
100
AcDb2dVertex
 10
396.076836
 20
926.015181
 30
0.0
  0
VERTEX
  5
5BA
100
AcDbEntity
  8
止水栓
  6
EXLTYPE2
 62
     6
100
AcDbVertex
100
AcDb2dVertex
 10
396.06707
 20
925.58061
 30
0.0
  0
SEQEND
  5
5BB
100
AcDbEntity
  8
止水栓
  6
EXLTYPE2
 62
     6
  0
POLYLINE
  5
5BC
100
AcDbEntity
  8
止水栓
  6
EXLTYPE2
 62
     6
100
AcDb2dPolyline
 66
     1
 10
0.0
 20
0.0
 30
0.0
 70
   128
  0
VERTEX
  5
5BD
100
AcDbEntity
  8
止水栓
  6
EXLTYPE2
 62
     6
100
AcDbVertex
100
AcDb2dVertex
 10
417.580742
 20
929.770064
 30
0.0
  0
VERTEX
  5
5BE
100
AcDbEntity
  8
止水栓
  6
EXLTYPE2
 62
     6
100
AcDbVertex
100
AcDb2dVertex
 10
417.390313
 20
929.584517
 30
0.0
  0
VERTEX
  5
5BF
100
AcDbEntity
  8
止水栓
  6
EXLTYPE2
 62
     6
100
AcDbVertex
100
AcDb2dVertex
 10
417.209649
 20
929.367232
 30
0.0
  0
VERTEX
  5
5C0
100
AcDbEntity
  8
止水栓
  6
EXLTYPE2
 62
     6
100
AcDbVertex
100
AcDb2dVertex
 10
417.041192
 20
929.12065
 30
0.0
  0
VERTEX
  5
5C1
100
AcDbEntity
  8
止水栓
  6
EXLTYPE2
 62
     6
100
AcDbVertex
100
AcDb2dVertex
 10
416.8825
 20
928.847212
 30
0.0
  0
VERTEX
  5
5C2
100
AcDbEntity
  8
止水栓
  6
EXLTYPE2
 62
     6
100
AcDbVertex
100
AcDb2dVertex
 10
416.738457
 20
928.54936
 30
0.0
  0
VERTEX
  5
5C3
100
AcDbEntity
  8
止水栓
  6
EXLTYPE2
 62
     6
100
AcDbVertex
100
AcDb2dVertex
 10
416.609063
 20
928.229536
 30
0.0
  0
VERTEX
  5
5C4
100
AcDbEntity
  8
止水栓
  6
EXLTYPE2
 62
     6
100
AcDbVertex
100
AcDb2dVertex
 10
416.494317
 20
927.890181
 30
0.0
  0
VERTEX
  5
5C5
100
AcDbEntity
  8
止水栓
  6
EXLTYPE2
 62
     6
100
AcDbVertex
100
AcDb2dVertex
 10
416.394219
 20
927.531294
 30
0.0
  0
VERTEX
  5
5C6
100
AcDbEntity
  8
止水栓
  6
EXLTYPE2
 62
     6
100
AcDbVertex
100
AcDb2dVertex
 10
416.313652
 20
927.157759
 30
0.0
  0
VERTEX
  5
5C7
100
AcDbEntity
  8
止水栓
  6
EXLTYPE2
 62
     6
100
AcDbVertex
100
AcDb2dVertex
 10
416.250176
 20
926.772017
 30
0.0
  0
SEQEND
  5
5C8
100
AcDbEntity
  8
止水栓
  6
EXLTYPE2
 62
     6
  0
POLYLINE
  5
5C9
100
AcDbEntity
  8
止水栓
  6
EXLTYPE2
 62
     6
100
AcDb2dPolyline
 66
     1
 10
0.0
 20
0.0
 30
0.0
 70
   128
  0
VERTEX
  5
5CA
100
AcDbEntity
  8
止水栓
  6
EXLTYPE2
 62
     6
100
AcDbVertex
100
AcDb2dVertex
 10
397.480645
 20
930.102095
 30
0.0
  0
VERTEX
  5
5CB
100
AcDbEntity
  8
止水栓
  6
EXLTYPE2
 62
     6
100
AcDbVertex
100
AcDb2dVertex
 10
397.292656
 20
929.9019
 30
0.0
  0
VERTEX
  5
5CC
100
AcDbEntity
  8
止水栓
  6
EXLTYPE2
 62
     6
100
AcDbVertex
100
AcDb2dVertex
 10
397.111992
 20
929.667525
 30
0.0
  0
VERTEX
  5
5CD
100
AcDbEntity
  8
止水栓
  6
EXLTYPE2
 62
     6
100
AcDbVertex
100
AcDb2dVertex
 10
396.941094
 20
929.403853
 30
0.0
  0
VERTEX
  5
5CE
100
AcDbEntity
  8
止水栓
  6
EXLTYPE2
 62
     6
100
AcDbVertex
100
AcDb2dVertex
 10
396.784844
 20
929.108443
 30
0.0
  0
VERTEX
  5
5CF
100
AcDbEntity
  8
止水栓
  6
EXLTYPE2
 62
     6
100
AcDbVertex
100
AcDb2dVertex
 10
396.640801
 20
928.788618
 30
0.0
  0
VERTEX
  5
5D0
100
AcDbEntity
  8
止水栓
  6
EXLTYPE2
 62
     6
100
AcDbVertex
100
AcDb2dVertex
 10
396.508965
 20
928.441939
 30
0.0
  0
VERTEX
  5
5D1
100
AcDbEntity
  8
止水栓
  6
EXLTYPE2
 62
     6
100
AcDbVertex
100
AcDb2dVertex
 10
396.394219
 20
928.075728
 30
0.0
  0
VERTEX
  5
5D2
100
AcDbEntity
  8
止水栓
  6
EXLTYPE2
 62
     6
100
AcDbVertex
100
AcDb2dVertex
 10
396.296563
 20
927.689985
 30
0.0
  0
VERTEX
  5
5D3
100
AcDbEntity
  8
止水栓
  6
EXLTYPE2
 62
     6
100
AcDbVertex
100
AcDb2dVertex
 10
396.215996
 20
927.287153
 30
0.0
  0
VERTEX
  5
5D4
100
AcDbEntity
  8
止水栓
  6
EXLTYPE2
 62
     6
100
AcDbVertex
100
AcDb2dVertex
 10
396.150078
 20
926.872114
 30
0.0
  0
SEQEND
  5
5D5
100
AcDbEntity
  8
止水栓
  6
EXLTYPE2
 62
     6
  0
LINE
  5
5D6
100
AcDbEntity
  8
止水栓
  6
EXLTYPE2
 62
     6
100
AcDbLine
 10
397.592949
 20
931.83061
 30
0.0
 11
419.532952
 21
931.83061
 31
0.0
  0
LINE
  5
5D7
100
AcDbEntity
  8
止水栓
  6
EXLTYPE2
 62
     6
100
AcDbLine
 10
419.040436
 20
933.311821
 30
0.0
 11
398.085446
 21
933.311821
 31
0.0
  0
LINE
  5
5D8
100
AcDbEntity
  8
止水栓
  6
EXLTYPE2
 62
     6
100
AcDbLine
 10
345.183674
 20
963.212587
 30
0.0
 11
354.888906
 21
963.501095
 31
0.0
  0
LINE
  5
5D9
100
AcDbEntity
  8
止水栓
  6
EXLTYPE2
 62
     6
100
AcDbLine
 10
345.183674
 20
945.448634
 30
0.0
 11
354.888906
 21
945.160126
 31
0.0
  0
ARC
  5
5DA
100
AcDbEntity
  8
止水栓
  6
EXLTYPE2
 62
     6
100
AcDbCircle
 10
393.087951
 20
937.310688
 30
0.0
 40
5.0
100
AcDbArc
 50
0.0
 51
90.0
  0
LINE
  5
5DB
100
AcDbEntity
  8
止水栓
  6
EXLTYPE2
 62
     6
100
AcDbLine
 10
345.7751
 20
964.23061
 30
0.0
 11
354.888906
 21
964.501537
 31
0.0
  0
LINE
  5
5DC
100
AcDbEntity
  8
止水栓
  6
EXLTYPE2
 62
     6
100
AcDbLine
 10
345.7751
 20
944.43061
 30
0.0
 11
354.888906
 21
944.159684
 31
0.0
  0
LINE
  5
5DD
100
AcDbEntity
  8
止水栓
  6
EXLTYPE2
 62
     6
100
AcDbLine
 10
345.048906
 20
945.68061
 30
0.0
 11
345.7751
 21
944.43061
 31
0.0
  0
LINE
  5
5DE
100
AcDbEntity
  8
止水栓
  6
EXLTYPE2
 62
     6
100
AcDbLine
 10
345.048906
 20
945.68061
 30
0.0
 11
345.048906
 21
962.98061
 31
0.0
  0
LINE
  5
5DF
100
AcDbEntity
  8
止水栓
  6
EXLTYPE2
 62
     6
100
AcDbLine
 10
345.048906
 20
962.98061
 30
0.0
 11
345.7751
 21
964.23061
 31
0.0
  0
LINE
  5
5E0
100
AcDbEntity
  8
止水栓
  6
EXLTYPE2
 62
     6
100
AcDbLine
 10
345.7751
 20
944.43061
 30
0.0
 11
345.7751
 21
964.23061
 31
0.0
  0
LINE
  5
5E1
100
AcDbEntity
  8
止水栓
  6
EXLTYPE2
 62
     6
100
AcDbLine
 10
377.548906
 20
964.58061
 30
0.0
 11
370.885706
 21
964.58061
 31
0.0
  0
LINE
  5
5E2
100
AcDbEntity
  8
止水栓
  6
EXLTYPE2
 62
     6
100
AcDbLine
 10
377.548906
 20
944.08061
 30
0.0
 11
370.885706
 21
944.08061
 31
0.0
  0
LINE
  5
5E3
100
AcDbEntity
  8
止水栓
  6
EXLTYPE2
 62
     6
100
AcDbLine
 10
370.885706
 20
943.710688
 30
0.0
 11
370.885706
 21
964.910688
 31
0.0
  0
ARC
  5
5E4
100
AcDbEntity
  8
止水栓
  6
EXLTYPE2
 62
     6
100
AcDbCircle
 10
357.392011
 20
969.110688
 30
0.0
 40
12.7
100
AcDbArc
 50
31.438859
 51
90.0
  0
LINE
  5
5E5
100
AcDbEntity
  8
止水栓
  6
EXLTYPE2
 62
     6
100
AcDbLine
 10
357.392011
 20
981.810688
 30
0.0
 11
354.888906
 21
981.810688
 31
0.0
  0
ARC
  5
5E6
100
AcDbEntity
  8
止水栓
  6
EXLTYPE2
 62
     6
100
AcDbCircle
 10
345.888906
 20
964.510688
 30
0.0
 40
25.0
100
AcDbArc
 50
0.916772
 51
26.677421
  0
ARC
  5
5E7
100
AcDbEntity
  8
止水栓
  6
EXLTYPE2
 62
     6
100
AcDbCircle
 10
345.888906
 20
944.110688
 30
0.0
 40
25.0
100
AcDbArc
 50
333.322579
 51
359.083228
  0
LINE
  5
5E8
100
AcDbEntity
  8
止水栓
  6
EXLTYPE2
 62
     6
100
AcDbLine
 10
419.040436
 20
933.311821
 30
0.0
 11
398.085446
 21
933.311821
 31
0.0
  0
LINE
  5
5E9
100
AcDbEntity
  8
止水栓
  6
EXLTYPE2
 62
     6
100
AcDbLine
 10
430.250158
 20
955.210688
 30
0.0
 11
430.250158
 21
963.310688
 31
0.0
  0
LINE
  5
5EA
100
AcDbEntity
  8
止水栓
  6
EXLTYPE2
 62
     6
100
AcDbLine
 10
430.250158
 20
953.410688
 30
0.0
 11
430.250158
 21
945.310688
 31
0.0
  0
LINE
  5
5EB
100
AcDbEntity
  8
止水栓
  6
EXLTYPE2
 62
     6
100
AcDbLine
 10
430.250158
 20
953.410688
 30
0.0
 11
429.550158
 21
953.410688
 31
0.0
  0
LINE
  5
5EC
100
AcDbEntity
  8
止水栓
  6
EXLTYPE2
 62
     6
100
AcDbLine
 10
430.250158
 20
955.210688
 30
0.0
 11
429.550158
 21
955.210688
 31
0.0
  0
LINE
  5
5ED
100
AcDbEntity
  8
止水栓
  6
EXLTYPE2
 62
     6
100
AcDbLine
 10
430.250158
 20
945.310688
 30
0.0
 11
429.550158
 21
945.310688
 31
0.0
  0
LINE
  5
5EE
100
AcDbEntity
  8
止水栓
  6
EXLTYPE2
 62
     6
100
AcDbLine
 10
430.250158
 20
963.310688
 30
0.0
 11
429.550158
 21
963.310688
 31
0.0
  0
LINE
  5
5EF
100
AcDbEntity
  8
止水栓
  6
EXLTYPE2
 62
     6
100
AcDbLine
 10
429.550158
 20
942.310688
 30
0.0
 11
429.550158
 21
966.310688
 31
0.0
  0
LINE
  5
5F0
100
AcDbEntity
  8
止水栓
  6
EXLTYPE2
 62
     6
100
AcDbLine
 10
429.550158
 20
942.310688
 30
0.0
 11
421.803655
 21
942.310688
 31
0.0
  0
LINE
  5
5F1
100
AcDbEntity
  8
止水栓
  6
EXLTYPE2
 62
     6
100
AcDbLine
 10
392.940123
 20
966.310688
 30
0.0
 11
429.550158
 21
966.310688
 31
0.0
  0
LINE
  5
5F2
100
AcDbEntity
  8
止水栓
  6
EXLTYPE2
 62
     6
100
AcDbLine
 10
393.060706
 20
942.310688
 30
0.0
 11
392.940123
 21
942.310688
 31
0.0
  0
LINE
  5
5F3
100
AcDbEntity
  8
止水栓
  6
EXLTYPE2
 62
     6
100
AcDbLine
 10
377.536891
 20
964.58061
 30
0.0
 11
379.344213
 21
963.526442
 31
0.0
  0
LINE
  5
5F4
100
AcDbEntity
  8
止水栓
  6
EXLTYPE2
 62
     6
100
AcDbLine
 10
380.550935
 20
963.49057
 30
0.0
 11
379.344213
 21
963.526442
 31
0.0
  0
LINE
  5
5F5
100
AcDbEntity
  8
止水栓
  6
EXLTYPE2
 62
     6
100
AcDbLine
 10
380.550935
 20
964.491012
 30
0.0
 11
377.536891
 21
964.58061
 31
0.0
  0
LINE
  5
5F6
100
AcDbEntity
  8
止水栓
  6
EXLTYPE2
 62
     6
100
AcDbLine
 10
377.536891
 20
944.08061
 30
0.0
 11
379.344213
 21
945.134779
 31
0.0
  0
LINE
  5
5F7
100
AcDbEntity
  8
止水栓
  6
EXLTYPE2
 62
     6
100
AcDbLine
 10
380.550935
 20
945.170651
 30
0.0
 11
379.344213
 21
945.134779
 31
0.0
  0
LINE
  5
5F8
100
AcDbEntity
  8
止水栓
  6
EXLTYPE2
 62
     6
100
AcDbLine
 10
380.550935
 20
944.170209
 30
0.0
 11
377.536891
 21
944.08061
 31
0.0
  0
LINE
  5
5F9
100
AcDbEntity
  8
止水栓
  6
EXLTYPE2
 62
     6
100
AcDbLine
 10
379.344213
 20
944.134337
 30
0.0
 11
379.344213
 21
964.526884
 31
0.0
  0
LINE
  5
5FA
100
AcDbEntity
  8
止水栓
  6
EXLTYPE2
 62
     6
100
AcDbLine
 10
380.547735
 20
966.560688
 30
0.0
 11
380.547735
 21
942.060688
 31
0.0
  0
LINE
  5
5FB
100
AcDbEntity
  8
止水栓
  6
EXLTYPE2
 62
     6
100
AcDbLine
 10
389.909034
 20
967.060688
 30
0.0
 11
380.83641
 21
967.060688
 31
0.0
  0
LINE
  5
5FC
100
AcDbEntity
  8
止水栓
  6
EXLTYPE2
 62
     6
100
AcDbLine
 10
389.909034
 20
941.560688
 30
0.0
 11
380.83641
 21
941.560688
 31
0.0
  0
LINE
  5
5FD
100
AcDbEntity
  8
止水栓
  6
EXLTYPE2
 62
     6
100
AcDbLine
 10
380.547735
 20
942.060688
 30
0.0
 11
380.83641
 21
941.560688
 31
0.0
  0
LINE
  5
5FE
100
AcDbEntity
  8
止水栓
  6
EXLTYPE2
 62
     6
100
AcDbLine
 10
380.547735
 20
966.560688
 30
0.0
 11
380.83641
 21
967.060688
 31
0.0
  0
ARC
  5
5FF
100
AcDbEntity
  8
止水栓
  6
EXLTYPE2
 62
     6
100
AcDbCircle
 10
379.726081
 20
960.685688
 30
0.0
 40
10.182953
100
AcDbArc
 50
321.240977
 51
38.759023
  0
ARC
  5
600
100
AcDbEntity
  8
止水栓
  6
EXLTYPE2
 62
     6
100
AcDbCircle
 10
379.726081
 20
947.935688
 30
0.0
 40
10.182953
100
AcDbArc
 50
321.240977
 51
38.759023
  0
ARC
  5
601
100
AcDbEntity
  8
止水栓
  6
EXLTYPE2
 62
     6
100
AcDbCircle
 10
399.448462
 20
960.685688
 30
0.0
 40
18.612052
100
AcDbArc
 50
159.969519
 51
200.030481
  0
ARC
  5
602
100
AcDbEntity
  8
止水栓
  6
EXLTYPE2
 62
     6
100
AcDbCircle
 10
399.448462
 20
947.935688
 30
0.0
 40
18.612052
100
AcDbArc
 50
159.969519
 51
200.030481
  0
ARC
  5
603
100
AcDbEntity
  8
止水栓
  6
EXLTYPE2
 62
     6
100
AcDbCircle
 10
392.940123
 20
935.810688
 30
0.0
 40
6.5
100
AcDbArc
 50
90.0
 51
117.795772
  0
ARC
  5
604
100
AcDbEntity
  8
止水栓
  6
EXLTYPE2
 62
     6
100
AcDbCircle
 10
392.940123
 20
972.810688
 30
0.0
 40
6.5
100
AcDbArc
 50
242.204228
 51
270.0
  0
ARC
  5
605
100
AcDbEntity
  8
止水栓
  6
EXLTYPE2
 62
     6
100
AcDbCircle
 10
423.985525
 20
937.811861
 30
0.0
 40
5.0
100
AcDbArc
 50
115.872755
 51
171.499305
  0
ARC
  5
606
100
AcDbEntity
  8
止水栓
  6
EXLTYPE2
 62
     6
100
AcDbCircle
 10
393.074537
 20
937.299768
 30
0.0
 40
5.010921
100
AcDbArc
 50
0.124869
 51
90.021374
  0
ARC
  5
607
100
AcDbEntity
  8
止水栓
  6
EXLTYPE2
 62
     6
100
AcDbCircle
 10
357.392011
 20
939.510688
 30
0.0
 40
12.7
100
AcDbArc
 50
270.0
 51
328.561141
  0
POLYLINE
  5
608
100
AcDbEntity
  8
止水栓
  6
EXLTYPE2
 62
     6
100
AcDb2dPolyline
 66
     1
 10
0.0
 20
0.0
 30
0.0
 70
   128
  0
VERTEX
  5
609
100
AcDbEntity
  8
止水栓
  6
EXLTYPE2
 62
     6
100
AcDbVertex
100
AcDb2dVertex
 10
357.392011
 20
926.810688
 30
0.0
  0
VERTEX
  5
60A
100
AcDbEntity
  8
止水栓
  6
EXLTYPE2
 62
     6
100
AcDbVertex
100
AcDb2dVertex
 10
354.888906
 20
926.810688
 30
0.0
  0
SEQEND
  5
60B
100
AcDbEntity
  8
止水栓
  6
EXLTYPE2
 62
     6
  0
LINE
  5
60C
100
AcDbEntity
  8
止水栓
  6
EXLTYPE2
 62
     6
100
AcDbLine
 10
399.087951
 20
933.311821
 30
0.0
 11
399.087951
 21
931.83061
 31
0.0
  0
LINE
  5
60D
100
AcDbEntity
  8
止水栓
  6
EXLTYPE2
 62
     6
100
AcDbLine
 10
418.037951
 20
933.311821
 30
0.0
 11
418.037951
 21
931.83061
 31
0.0
  0
LINE
  5
60E
100
AcDbEntity
  8
止水栓
  6
EXLTYPE2
 62
     6
100
AcDbLine
 10
419.040452
 20
935.43795
 30
0.0
 11
418.037951
 21
933.311821
 31
0.0
  0
LINE
  5
60F
100
AcDbEntity
  8
止水栓
  6
EXLTYPE2
 62
     6
100
AcDbLine
 10
398.085447
 20
935.437952
 30
0.0
 11
399.087951
 21
933.311821
 31
0.0
  0
LINE
  5
610
100
AcDbEntity
  8
止水栓
  6
EXLTYPE3
 62
     6
100
AcDbLine
 10
346.728906
 20
954.310688
 30
0.0
 11
433.4
 21
954.310688
 31
0.0
  0
LINE
  5
611
100
AcDbEntity
  8
止水栓
  6
EXLTYPE3
 62
     6
100
AcDbLine
 10
409.888902
 20
913.311176
 30
0.0
 11
409.888902
 21
784.191669
 31
0.0
  0
ARC
  5
612
100
AcDbEntity
  8
止水栓
  6
EXLTYPE3
 62
     6
100
AcDbCircle
 10
425.030571
 20
784.191669
 30
0.0
 40
15.141669
100
AcDbArc
 50
180.0
 51
0.0
  0
LINE
  5
613
100
AcDbEntity
  8
止水栓
  6
EXLTYPE3
 62
     6
100
AcDbLine
 10
440.172239
 20
1015.810688
 30
0.0
 11
440.172239
 21
784.191669
 31
0.0
  0
LINE
  5
614
100
AcDbEntity
  8
止水栓
  6
EXLTYPE3
 62
     6
100
AcDbLine
 10
1383.903005
 20
911.542907
 30
0.0
 11
1383.903005
 21
854.000231
 31
0.0
  0
ARC
  5
615
100
AcDbEntity
  8
止水栓
  6
EXLTYPE4
 62
     6
100
AcDbCircle
 10
1383.903005
 20
954.310918
 30
0.0
 40
27.5
100
AcDbArc
 50
294.79044
 51
245.209515
  0
LINE
  5
616
100
AcDbEntity
  8
止水栓
  6
EXLTYPE2
 62
     6
100
AcDbLine
 10
1374.587505
 20
934.310918
 30
0.0
 11
1373.373807
 21
936.413135
 31
0.0
  0
LINE
  5
617
100
AcDbEntity
  8
止水栓
  6
EXLTYPE2
 62
     6
100
AcDbLine
 10
1373.425505
 20
934.310918
 30
0.0
 11
1394.380505
 21
934.310918
 31
0.0
  0
LINE
  5
618
100
AcDbEntity
  8
止水栓
  6
EXLTYPE2
 62
     6
100
AcDbLine
 10
1393.218505
 20
934.310918
 30
0.0
 11
1394.432204
 21
936.413135
 31
0.0
  0
POLYLINE
  5
619
100
AcDbEntity
  8
止水栓
  6
EXLTYPE2
 62
     6
100
AcDb2dPolyline
 66
     1
 10
0.0
 20
0.0
 30
0.0
 70
   128
  0
VERTEX
  5
61A
100
AcDbEntity
  8
止水栓
  6
EXLTYPE2
 62
     6
100
AcDbVertex
100
AcDb2dVertex
 10
1371.407888
 20
925.530614
 30
0.0
  0
VERTEX
  5
61B
100
AcDbEntity
  8
止水栓
  6
EXLTYPE2
 62
     6
100
AcDbVertex
100
AcDb2dVertex
 10
1371.417654
 20
925.093602
 30
0.0
  0
VERTEX
  5
61C
100
AcDbEntity
  8
止水栓
  6
EXLTYPE2
 62
     6
100
AcDbVertex
100
AcDb2dVertex
 10
1371.444509
 20
924.661474
 30
0.0
  0
VERTEX
  5
61D
100
AcDbEntity
  8
止水栓
  6
EXLTYPE2
 62
     6
100
AcDbVertex
100
AcDb2dVertex
 10
1371.490896
 20
924.236669
 30
0.0
  0
VERTEX
  5
61E
100
AcDbEntity
  8
止水栓
  6
EXLTYPE2
 62
     6
100
AcDbVertex
100
AcDb2dVertex
 10
1371.556814
 20
923.82163
 30
0.0
  0
VERTEX
  5
61F
100
AcDbEntity
  8
止水栓
  6
EXLTYPE2
 62
     6
100
AcDbVertex
100
AcDb2dVertex
 10
1371.63738
 20
923.421239
 30
0.0
  0
VERTEX
  5
620
100
AcDbEntity
  8
止水栓
  6
EXLTYPE2
 62
     6
100
AcDbVertex
100
AcDb2dVertex
 10
1371.735037
 20
923.035497
 30
0.0
  0
VERTEX
  5
621
100
AcDbEntity
  8
止水栓
  6
EXLTYPE2
 62
     6
100
AcDbVertex
100
AcDb2dVertex
 10
1371.852224
 20
922.666845
 30
0.0
  0
VERTEX
  5
622
100
AcDbEntity
  8
止水栓
  6
EXLTYPE2
 62
     6
100
AcDbVertex
100
AcDb2dVertex
 10
1371.981619
 20
922.322606
 30
0.0
  0
VERTEX
  5
623
100
AcDbEntity
  8
止水栓
  6
EXLTYPE2
 62
     6
100
AcDbVertex
100
AcDb2dVertex
 10
1372.125662
 20
922.000341
 30
0.0
  0
VERTEX
  5
624
100
AcDbEntity
  8
止水栓
  6
EXLTYPE2
 62
     6
100
AcDbVertex
100
AcDb2dVertex
 10
1372.284353
 20
921.707372
 30
0.0
  0
VERTEX
  5
625
100
AcDbEntity
  8
止水栓
  6
EXLTYPE2
 62
     6
100
AcDbVertex
100
AcDb2dVertex
 10
1372.45281
 20
921.441259
 30
0.0
  0
VERTEX
  5
626
100
AcDbEntity
  8
止水栓
  6
EXLTYPE2
 62
     6
100
AcDbVertex
100
AcDb2dVertex
 10
1372.633474
 20
921.209325
 30
0.0
  0
VERTEX
  5
627
100
AcDbEntity
  8
止水栓
  6
EXLTYPE2
 62
     6
100
AcDbVertex
100
AcDb2dVertex
 10
1372.821462
 20
921.006688
 30
0.0
  0
VERTEX
  5
628
100
AcDbEntity
  8
止水栓
  6
EXLTYPE2
 62
     6
100
AcDbVertex
100
AcDb2dVertex
 10
1373.019216
 20
920.840673
 30
0.0
  0
VERTEX
  5
629
100
AcDbEntity
  8
止水栓
  6
EXLTYPE2
 62
     6
100
AcDbVertex
100
AcDb2dVertex
 10
1373.224294
 20
920.708837
 30
0.0
  0
VERTEX
  5
62A
100
AcDbEntity
  8
止水栓
  6
EXLTYPE2
 62
     6
100
AcDbVertex
100
AcDb2dVertex
 10
1373.431814
 20
920.616063
 30
0.0
  0
VERTEX
  5
62B
100
AcDbEntity
  8
止水栓
  6
EXLTYPE2
 62
     6
100
AcDbVertex
100
AcDb2dVertex
 10
1373.644216
 20
920.55747
 30
0.0
  0
VERTEX
  5
62C
100
AcDbEntity
  8
止水栓
  6
EXLTYPE2
 62
     6
100
AcDbVertex
100
AcDb2dVertex
 10
1373.856619
 20
920.54038
 30
0.0
  0
VERTEX
  5
62D
100
AcDbEntity
  8
止水栓
  6
EXLTYPE2
 62
     6
100
AcDbVertex
100
AcDb2dVertex
 10
1374.071462
 20
920.559911
 30
0.0
  0
VERTEX
  5
62E
100
AcDbEntity
  8
止水栓
  6
EXLTYPE2
 62
     6
100
AcDbVertex
100
AcDb2dVertex
 10
1374.283865
 20
920.616063
 30
0.0
  0
VERTEX
  5
62F
100
AcDbEntity
  8
止水栓
  6
EXLTYPE2
 62
     6
100
AcDbVertex
100
AcDb2dVertex
 10
1374.491384
 20
920.708837
 30
0.0
  0
VERTEX
  5
630
100
AcDbEntity
  8
止水栓
  6
EXLTYPE2
 62
     6
100
AcDbVertex
100
AcDb2dVertex
 10
1374.696462
 20
920.840673
 30
0.0
  0
VERTEX
  5
631
100
AcDbEntity
  8
止水栓
  6
EXLTYPE2
 62
     6
100
AcDbVertex
100
AcDb2dVertex
 10
1374.894216
 20
921.006688
 30
0.0
  0
VERTEX
  5
632
100
AcDbEntity
  8
止水栓
  6
EXLTYPE2
 62
     6
100
AcDbVertex
100
AcDb2dVertex
 10
1375.082205
 20
921.209325
 30
0.0
  0
VERTEX
  5
633
100
AcDbEntity
  8
止水栓
  6
EXLTYPE2
 62
     6
100
AcDbVertex
100
AcDb2dVertex
 10
1375.262869
 20
921.4437
 30
0.0
  0
VERTEX
  5
634
100
AcDbEntity
  8
止水栓
  6
EXLTYPE2
 62
     6
100
AcDbVertex
100
AcDb2dVertex
 10
1375.431326
 20
921.707372
 30
0.0
  0
VERTEX
  5
635
100
AcDbEntity
  8
止水栓
  6
EXLTYPE2
 62
     6
100
AcDbVertex
100
AcDb2dVertex
 10
1375.590017
 20
922.000341
 30
0.0
  0
VERTEX
  5
636
100
AcDbEntity
  8
止水栓
  6
EXLTYPE2
 62
     6
100
AcDbVertex
100
AcDb2dVertex
 10
1375.73406
 20
922.322606
 30
0.0
  0
VERTEX
  5
637
100
AcDbEntity
  8
止水栓
  6
EXLTYPE2
 62
     6
100
AcDbVertex
100
AcDb2dVertex
 10
1375.863455
 20
922.666845
 30
0.0
  0
VERTEX
  5
638
100
AcDbEntity
  8
止水栓
  6
EXLTYPE2
 62
     6
100
AcDbVertex
100
AcDb2dVertex
 10
1375.978201
 20
923.035497
 30
0.0
  0
VERTEX
  5
639
100
AcDbEntity
  8
止水栓
  6
EXLTYPE2
 62
     6
100
AcDbVertex
100
AcDb2dVertex
 10
1376.078298
 20
923.421239
 30
0.0
  0
VERTEX
  5
63A
100
AcDbEntity
  8
止水栓
  6
EXLTYPE2
 62
     6
100
AcDbVertex
100
AcDb2dVertex
 10
1376.158865
 20
923.824071
 30
0.0
  0
VERTEX
  5
63B
100
AcDbEntity
  8
止水栓
  6
EXLTYPE2
 62
     6
100
AcDbVertex
100
AcDb2dVertex
 10
1376.224783
 20
924.23911
 30
0.0
  0
VERTEX
  5
63C
100
AcDbEntity
  8
止水栓
  6
EXLTYPE2
 62
     6
100
AcDbVertex
100
AcDb2dVertex
 10
1376.271169
 20
924.663915
 30
0.0
  0
VERTEX
  5
63D
100
AcDbEntity
  8
止水栓
  6
EXLTYPE2
 62
     6
100
AcDbVertex
100
AcDb2dVertex
 10
1376.298025
 20
925.096044
 30
0.0
  0
VERTEX
  5
63E
100
AcDbEntity
  8
止水栓
  6
EXLTYPE2
 62
     6
100
AcDbVertex
100
AcDb2dVertex
 10
1376.307791
 20
925.530614
 30
0.0
  0
VERTEX
  5
63F
100
AcDbEntity
  8
止水栓
  6
EXLTYPE2
 62
     6
100
AcDbVertex
100
AcDb2dVertex
 10
1376.298025
 20
925.965185
 30
0.0
  0
VERTEX
  5
640
100
AcDbEntity
  8
止水栓
  6
EXLTYPE2
 62
     6
100
AcDbVertex
100
AcDb2dVertex
 10
1376.268728
 20
926.397313
 30
0.0
  0
VERTEX
  5
641
100
AcDbEntity
  8
止水栓
  6
EXLTYPE2
 62
     6
100
AcDbVertex
100
AcDb2dVertex
 10
1376.222341
 20
926.822118
 30
0.0
  0
VERTEX
  5
642
100
AcDbEntity
  8
止水栓
  6
EXLTYPE2
 62
     6
100
AcDbVertex
100
AcDb2dVertex
 10
1376.158865
 20
927.237157
 30
0.0
  0
VERTEX
  5
643
100
AcDbEntity
  8
止水栓
  6
EXLTYPE2
 62
     6
100
AcDbVertex
100
AcDb2dVertex
 10
1376.078298
 20
927.639989
 30
0.0
  0
VERTEX
  5
644
100
AcDbEntity
  8
止水栓
  6
EXLTYPE2
 62
     6
100
AcDbVertex
100
AcDb2dVertex
 10
1375.978201
 20
928.025731
 30
0.0
  0
VERTEX
  5
645
100
AcDbEntity
  8
止水栓
  6
EXLTYPE2
 62
     6
100
AcDbVertex
100
AcDb2dVertex
 10
1375.863455
 20
928.391942
 30
0.0
  0
VERTEX
  5
646
100
AcDbEntity
  8
止水栓
  6
EXLTYPE2
 62
     6
100
AcDbVertex
100
AcDb2dVertex
 10
1375.73406
 20
928.738622
 30
0.0
  0
VERTEX
  5
647
100
AcDbEntity
  8
止水栓
  6
EXLTYPE2
 62
     6
100
AcDbVertex
100
AcDb2dVertex
 10
1375.590017
 20
929.058446
 30
0.0
  0
VERTEX
  5
648
100
AcDbEntity
  8
止水栓
  6
EXLTYPE2
 62
     6
100
AcDbVertex
100
AcDb2dVertex
 10
1375.431326
 20
929.353856
 30
0.0
  0
VERTEX
  5
649
100
AcDbEntity
  8
止水栓
  6
EXLTYPE2
 62
     6
100
AcDbVertex
100
AcDb2dVertex
 10
1375.262869
 20
929.617528
 30
0.0
  0
VERTEX
  5
64A
100
AcDbEntity
  8
止水栓
  6
EXLTYPE2
 62
     6
100
AcDbVertex
100
AcDb2dVertex
 10
1375.082205
 20
929.851903
 30
0.0
  0
VERTEX
  5
64B
100
AcDbEntity
  8
止水栓
  6
EXLTYPE2
 62
     6
100
AcDbVertex
100
AcDb2dVertex
 10
1374.894216
 20
930.052099
 30
0.0
  0
VERTEX
  5
64C
100
AcDbEntity
  8
止水栓
  6
EXLTYPE2
 62
     6
100
AcDbVertex
100
AcDb2dVertex
 10
1374.696462
 20
930.220556
 30
0.0
  0
VERTEX
  5
64D
100
AcDbEntity
  8
止水栓
  6
EXLTYPE2
 62
     6
100
AcDbVertex
100
AcDb2dVertex
 10
1374.491384
 20
930.34995
 30
0.0
  0
VERTEX
  5
64E
100
AcDbEntity
  8
止水栓
  6
EXLTYPE2
 62
     6
100
AcDbVertex
100
AcDb2dVertex
 10
1374.283865
 20
930.445165
 30
0.0
  0
VERTEX
  5
64F
100
AcDbEntity
  8
止水栓
  6
EXLTYPE2
 62
     6
100
AcDbVertex
100
AcDb2dVertex
 10
1374.071462
 20
930.501317
 30
0.0
  0
VERTEX
  5
650
100
AcDbEntity
  8
止水栓
  6
EXLTYPE2
 62
     6
100
AcDbVertex
100
AcDb2dVertex
 10
1373.856619
 20
930.520849
 30
0.0
  0
VERTEX
  5
651
100
AcDbEntity
  8
止水栓
  6
EXLTYPE2
 62
     6
100
AcDbVertex
100
AcDb2dVertex
 10
1373.644216
 20
930.501317
 30
0.0
  0
VERTEX
  5
652
100
AcDbEntity
  8
止水栓
  6
EXLTYPE2
 62
     6
100
AcDbVertex
100
AcDb2dVertex
 10
1373.431814
 20
930.445165
 30
0.0
  0
VERTEX
  5
653
100
AcDbEntity
  8
止水栓
  6
EXLTYPE2
 62
     6
100
AcDbVertex
100
AcDb2dVertex
 10
1373.224294
 20
930.34995
 30
0.0
  0
VERTEX
  5
654
100
AcDbEntity
  8
止水栓
  6
EXLTYPE2
 62
     6
100
AcDbVertex
100
AcDb2dVertex
 10
1373.019216
 20
930.220556
 30
0.0
  0
VERTEX
  5
655
100
AcDbEntity
  8
止水栓
  6
EXLTYPE2
 62
     6
100
AcDbVertex
100
AcDb2dVertex
 10
1372.821462
 20
930.052099
 30
0.0
  0
SEQEND
  5
656
100
AcDbEntity
  8
止水栓
  6
EXLTYPE2
 62
     6
  0
LINE
  5
657
100
AcDbEntity
  8
止水栓
  6
EXLTYPE2
 62
     6
100
AcDbLine
 10
1372.933767
 20
919.781102
 30
0.0
 11
1394.872244
 21
919.781102
 31
0.0
  0
LINE
  5
658
100
AcDbEntity
  8
止水栓
  6
EXLTYPE2
 62
     6
100
AcDbLine
 10
1373.403005
 20
914.781102
 30
0.0
 11
1394.403005
 21
914.781102
 31
0.0
  0
ARC
  5
659
100
AcDbEntity
  8
止水栓
  6
EXLTYPE2
 62
     6
100
AcDbCircle
 10
1382.152517
 20
925.782079
 30
0.0
 40
10.998535
100
AcDbArc
 50
146.94841
 51
213.059082
  0
POLYLINE
  5
65A
100
AcDbEntity
  8
止水栓
  6
EXLTYPE2
 62
     6
100
AcDb2dPolyline
 66
     1
 10
0.0
 20
0.0
 30
0.0
 70
   128
  0
VERTEX
  5
65B
100
AcDbEntity
  8
止水栓
  6
EXLTYPE2
 62
     6
100
AcDbVertex
100
AcDb2dVertex
 10
1372.821462
 20
930.052099
 30
0.0
  0
VERTEX
  5
65C
100
AcDbEntity
  8
止水栓
  6
EXLTYPE2
 62
     6
100
AcDbVertex
100
AcDb2dVertex
 10
1372.633474
 20
929.851903
 30
0.0
  0
VERTEX
  5
65D
100
AcDbEntity
  8
止水栓
  6
EXLTYPE2
 62
     6
100
AcDbVertex
100
AcDb2dVertex
 10
1372.45281
 20
929.617528
 30
0.0
  0
VERTEX
  5
65E
100
AcDbEntity
  8
止水栓
  6
EXLTYPE2
 62
     6
100
AcDbVertex
100
AcDb2dVertex
 10
1372.281912
 20
929.353856
 30
0.0
  0
VERTEX
  5
65F
100
AcDbEntity
  8
止水栓
  6
EXLTYPE2
 62
     6
100
AcDbVertex
100
AcDb2dVertex
 10
1372.125662
 20
929.058446
 30
0.0
  0
VERTEX
  5
660
100
AcDbEntity
  8
止水栓
  6
EXLTYPE2
 62
     6
100
AcDbVertex
100
AcDb2dVertex
 10
1371.981619
 20
928.738622
 30
0.0
  0
VERTEX
  5
661
100
AcDbEntity
  8
止水栓
  6
EXLTYPE2
 62
     6
100
AcDbVertex
100
AcDb2dVertex
 10
1371.849783
 20
928.391942
 30
0.0
  0
VERTEX
  5
662
100
AcDbEntity
  8
止水栓
  6
EXLTYPE2
 62
     6
100
AcDbVertex
100
AcDb2dVertex
 10
1371.735037
 20
928.025731
 30
0.0
  0
VERTEX
  5
663
100
AcDbEntity
  8
止水栓
  6
EXLTYPE2
 62
     6
100
AcDbVertex
100
AcDb2dVertex
 10
1371.63738
 20
927.639989
 30
0.0
  0
VERTEX
  5
664
100
AcDbEntity
  8
止水栓
  6
EXLTYPE2
 62
     6
100
AcDbVertex
100
AcDb2dVertex
 10
1371.556814
 20
927.237157
 30
0.0
  0
VERTEX
  5
665
100
AcDbEntity
  8
止水栓
  6
EXLTYPE2
 62
     6
100
AcDbVertex
100
AcDb2dVertex
 10
1371.490896
 20
926.822118
 30
0.0
  0
SEQEND
  5
666
100
AcDbEntity
  8
止水栓
  6
EXLTYPE2
 62
     6
  0
POLYLINE
  5
667
100
AcDbEntity
  8
止水栓
  6
EXLTYPE2
 62
     6
100
AcDb2dPolyline
 66
     1
 10
0.0
 20
0.0
 30
0.0
 70
   128
  0
VERTEX
  5
668
100
AcDbEntity
  8
止水栓
  6
EXLTYPE2
 62
     6
100
AcDbVertex
100
AcDb2dVertex
 10
1371.490896
 20
926.822118
 30
0.0
  0
VERTEX
  5
669
100
AcDbEntity
  8
止水栓
  6
EXLTYPE2
 62
     6
100
AcDbVertex
100
AcDb2dVertex
 10
1371.444509
 20
926.397313
 30
0.0
  0
VERTEX
  5
66A
100
AcDbEntity
  8
止水栓
  6
EXLTYPE2
 62
     6
100
AcDbVertex
100
AcDb2dVertex
 10
1371.417654
 20
925.965185
 30
0.0
  0
VERTEX
  5
66B
100
AcDbEntity
  8
止水栓
  6
EXLTYPE2
 62
     6
100
AcDbVertex
100
AcDb2dVertex
 10
1371.407888
 20
925.530614
 30
0.0
  0
SEQEND
  5
66C
100
AcDbEntity
  8
止水栓
  6
EXLTYPE2
 62
     6
  0
LINE
  5
66D
100
AcDbEntity
  8
止水栓
  6
EXLTYPE2
 62
     6
100
AcDbLine
 10
1373.403005
 20
919.781102
 30
0.0
 11
1373.403005
 21
914.781102
 31
0.0
  0
POLYLINE
  5
66E
100
AcDbEntity
  8
止水栓
  6
EXLTYPE2
 62
     6
100
AcDb2dPolyline
 66
     1
 10
0.0
 20
0.0
 30
0.0
 70
   128
  0
VERTEX
  5
66F
100
AcDbEntity
  8
止水栓
  6
EXLTYPE2
 62
     6
100
AcDbVertex
100
AcDb2dVertex
 10
1392.92156
 20
929.720067
 30
0.0
  0
VERTEX
  5
670
100
AcDbEntity
  8
止水栓
  6
EXLTYPE2
 62
     6
100
AcDbVertex
100
AcDb2dVertex
 10
1392.73113
 20
929.53452
 30
0.0
  0
VERTEX
  5
671
100
AcDbEntity
  8
止水栓
  6
EXLTYPE2
 62
     6
100
AcDbVertex
100
AcDb2dVertex
 10
1392.550466
 20
929.317235
 30
0.0
  0
VERTEX
  5
672
100
AcDbEntity
  8
止水栓
  6
EXLTYPE2
 62
     6
100
AcDbVertex
100
AcDb2dVertex
 10
1392.382009
 20
929.070653
 30
0.0
  0
VERTEX
  5
673
100
AcDbEntity
  8
止水栓
  6
EXLTYPE2
 62
     6
100
AcDbVertex
100
AcDb2dVertex
 10
1392.223318
 20
928.797216
 30
0.0
  0
VERTEX
  5
674
100
AcDbEntity
  8
止水栓
  6
EXLTYPE2
 62
     6
100
AcDbVertex
100
AcDb2dVertex
 10
1392.079275
 20
928.499364
 30
0.0
  0
VERTEX
  5
675
100
AcDbEntity
  8
止水栓
  6
EXLTYPE2
 62
     6
100
AcDbVertex
100
AcDb2dVertex
 10
1391.94988
 20
928.17954
 30
0.0
  0
VERTEX
  5
676
100
AcDbEntity
  8
止水栓
  6
EXLTYPE2
 62
     6
100
AcDbVertex
100
AcDb2dVertex
 10
1391.835134
 20
927.840185
 30
0.0
  0
VERTEX
  5
677
100
AcDbEntity
  8
止水栓
  6
EXLTYPE2
 62
     6
100
AcDbVertex
100
AcDb2dVertex
 10
1391.735037
 20
927.481298
 30
0.0
  0
VERTEX
  5
678
100
AcDbEntity
  8
止水栓
  6
EXLTYPE2
 62
     6
100
AcDbVertex
100
AcDb2dVertex
 10
1391.65447
 20
927.107763
 30
0.0
  0
VERTEX
  5
679
100
AcDbEntity
  8
止水栓
  6
EXLTYPE2
 62
     6
100
AcDbVertex
100
AcDb2dVertex
 10
1391.590994
 20
926.72202
 30
0.0
  0
SEQEND
  5
67A
100
AcDbEntity
  8
止水栓
  6
EXLTYPE2
 62
     6
  0
POLYLINE
  5
67B
100
AcDbEntity
  8
止水栓
  6
EXLTYPE2
 62
     6
100
AcDb2dPolyline
 66
     1
 10
0.0
 20
0.0
 30
0.0
 70
   128
  0
VERTEX
  5
67C
100
AcDbEntity
  8
止水栓
  6
EXLTYPE2
 62
     6
100
AcDbVertex
100
AcDb2dVertex
 10
1391.590994
 20
926.72202
 30
0.0
  0
VERTEX
  5
67D
100
AcDbEntity
  8
止水栓
  6
EXLTYPE2
 62
     6
100
AcDbVertex
100
AcDb2dVertex
 10
1391.544607
 20
926.328954
 30
0.0
  0
VERTEX
  5
67E
100
AcDbEntity
  8
止水栓
  6
EXLTYPE2
 62
     6
100
AcDbVertex
100
AcDb2dVertex
 10
1391.51531
 20
925.928563
 30
0.0
  0
VERTEX
  5
67F
100
AcDbEntity
  8
止水栓
  6
EXLTYPE2
 62
     6
100
AcDbVertex
100
AcDb2dVertex
 10
1391.505544
 20
925.525731
 30
0.0
  0
SEQEND
  5
680
100
AcDbEntity
  8
止水栓
  6
EXLTYPE2
 62
     6
  0
POLYLINE
  5
681
100
AcDbEntity
  8
止水栓
  6
EXLTYPE2
 62
     6
100
AcDb2dPolyline
 66
     1
 10
0.0
 20
0.0
 30
0.0
 70
   128
  0
VERTEX
  5
682
100
AcDbEntity
  8
止水栓
  6
EXLTYPE2
 62
     6
100
AcDbVertex
100
AcDb2dVertex
 10
1391.505544
 20
925.52329
 30
0.0
  0
VERTEX
  5
683
100
AcDbEntity
  8
止水栓
  6
EXLTYPE2
 62
     6
100
AcDbVertex
100
AcDb2dVertex
 10
1391.51531
 20
925.120458
 30
0.0
  0
VERTEX
  5
684
100
AcDbEntity
  8
止水栓
  6
EXLTYPE2
 62
     6
100
AcDbVertex
100
AcDb2dVertex
 10
1391.544607
 20
924.720067
 30
0.0
  0
VERTEX
  5
685
100
AcDbEntity
  8
止水栓
  6
EXLTYPE2
 62
     6
100
AcDbVertex
100
AcDb2dVertex
 10
1391.590994
 20
924.32456
 30
0.0
  0
VERTEX
  5
686
100
AcDbEntity
  8
止水栓
  6
EXLTYPE2
 62
     6
100
AcDbVertex
100
AcDb2dVertex
 10
1391.65447
 20
923.941259
 30
0.0
  0
VERTEX
  5
687
100
AcDbEntity
  8
止水栓
  6
EXLTYPE2
 62
     6
100
AcDbVertex
100
AcDb2dVertex
 10
1391.735037
 20
923.567724
 30
0.0
  0
VERTEX
  5
688
100
AcDbEntity
  8
止水栓
  6
EXLTYPE2
 62
     6
100
AcDbVertex
100
AcDb2dVertex
 10
1391.835134
 20
923.208837
 30
0.0
  0
VERTEX
  5
689
100
AcDbEntity
  8
止水栓
  6
EXLTYPE2
 62
     6
100
AcDbVertex
100
AcDb2dVertex
 10
1391.94988
 20
922.869481
 30
0.0
  0
VERTEX
  5
68A
100
AcDbEntity
  8
止水栓
  6
EXLTYPE2
 62
     6
100
AcDbVertex
100
AcDb2dVertex
 10
1392.079275
 20
922.547216
 30
0.0
  0
VERTEX
  5
68B
100
AcDbEntity
  8
止水栓
  6
EXLTYPE2
 62
     6
100
AcDbVertex
100
AcDb2dVertex
 10
1392.223318
 20
922.249364
 30
0.0
  0
VERTEX
  5
68C
100
AcDbEntity
  8
止水栓
  6
EXLTYPE2
 62
     6
100
AcDbVertex
100
AcDb2dVertex
 10
1392.382009
 20
921.978368
 30
0.0
  0
VERTEX
  5
68D
100
AcDbEntity
  8
止水栓
  6
EXLTYPE2
 62
     6
100
AcDbVertex
100
AcDb2dVertex
 10
1392.550466
 20
921.731786
 30
0.0
  0
VERTEX
  5
68E
100
AcDbEntity
  8
止水栓
  6
EXLTYPE2
 62
     6
100
AcDbVertex
100
AcDb2dVertex
 10
1392.73113
 20
921.514501
 30
0.0
  0
VERTEX
  5
68F
100
AcDbEntity
  8
止水栓
  6
EXLTYPE2
 62
     6
100
AcDbVertex
100
AcDb2dVertex
 10
1392.92156
 20
921.326513
 30
0.0
  0
VERTEX
  5
690
100
AcDbEntity
  8
止水栓
  6
EXLTYPE2
 62
     6
100
AcDbVertex
100
AcDb2dVertex
 10
1393.119314
 20
921.172704
 30
0.0
  0
VERTEX
  5
691
100
AcDbEntity
  8
止水栓
  6
EXLTYPE2
 62
     6
100
AcDbVertex
100
AcDb2dVertex
 10
1393.321951
 20
921.053075
 30
0.0
  0
VERTEX
  5
692
100
AcDbEntity
  8
止水栓
  6
EXLTYPE2
 62
     6
100
AcDbVertex
100
AcDb2dVertex
 10
1393.531912
 20
920.965185
 30
0.0
  0
VERTEX
  5
693
100
AcDbEntity
  8
止水栓
  6
EXLTYPE2
 62
     6
100
AcDbVertex
100
AcDb2dVertex
 10
1393.741873
 20
920.911474
 30
0.0
  0
VERTEX
  5
694
100
AcDbEntity
  8
止水栓
  6
EXLTYPE2
 62
     6
100
AcDbVertex
100
AcDb2dVertex
 10
1393.956716
 20
920.894384
 30
0.0
  0
VERTEX
  5
695
100
AcDbEntity
  8
止水栓
  6
EXLTYPE2
 62
     6
100
AcDbVertex
100
AcDb2dVertex
 10
1394.169119
 20
920.911474
 30
0.0
  0
VERTEX
  5
696
100
AcDbEntity
  8
止水栓
  6
EXLTYPE2
 62
     6
100
AcDbVertex
100
AcDb2dVertex
 10
1394.381521
 20
920.965185
 30
0.0
  0
VERTEX
  5
697
100
AcDbEntity
  8
止水栓
  6
EXLTYPE2
 62
     6
100
AcDbVertex
100
AcDb2dVertex
 10
1394.591482
 20
921.053075
 30
0.0
  0
VERTEX
  5
698
100
AcDbEntity
  8
止水栓
  6
EXLTYPE2
 62
     6
100
AcDbVertex
100
AcDb2dVertex
 10
1394.794119
 20
921.172704
 30
0.0
  0
VERTEX
  5
699
100
AcDbEntity
  8
止水栓
  6
EXLTYPE2
 62
     6
100
AcDbVertex
100
AcDb2dVertex
 10
1394.991873
 20
921.328954
 30
0.0
  0
VERTEX
  5
69A
100
AcDbEntity
  8
止水栓
  6
EXLTYPE2
 62
     6
100
AcDbVertex
100
AcDb2dVertex
 10
1395.179861
 20
921.514501
 30
0.0
  0
VERTEX
  5
69B
100
AcDbEntity
  8
止水栓
  6
EXLTYPE2
 62
     6
100
AcDbVertex
100
AcDb2dVertex
 10
1395.360525
 20
921.731786
 30
0.0
  0
VERTEX
  5
69C
100
AcDbEntity
  8
止水栓
  6
EXLTYPE2
 62
     6
100
AcDbVertex
100
AcDb2dVertex
 10
1395.531423
 20
921.975927
 30
0.0
  0
VERTEX
  5
69D
100
AcDbEntity
  8
止水栓
  6
EXLTYPE2
 62
     6
100
AcDbVertex
100
AcDb2dVertex
 10
1395.687673
 20
922.249364
 30
0.0
  0
VERTEX
  5
69E
100
AcDbEntity
  8
止水栓
  6
EXLTYPE2
 62
     6
100
AcDbVertex
100
AcDb2dVertex
 10
1395.831716
 20
922.547216
 30
0.0
  0
VERTEX
  5
69F
100
AcDbEntity
  8
止水栓
  6
EXLTYPE2
 62
     6
100
AcDbVertex
100
AcDb2dVertex
 10
1395.963552
 20
922.869481
 30
0.0
  0
VERTEX
  5
6A0
100
AcDbEntity
  8
止水栓
  6
EXLTYPE2
 62
     6
100
AcDbVertex
100
AcDb2dVertex
 10
1396.078298
 20
923.208837
 30
0.0
  0
VERTEX
  5
6A1
100
AcDbEntity
  8
止水栓
  6
EXLTYPE2
 62
     6
100
AcDbVertex
100
AcDb2dVertex
 10
1396.175955
 20
923.567724
 30
0.0
  0
VERTEX
  5
6A2
100
AcDbEntity
  8
止水栓
  6
EXLTYPE2
 62
     6
100
AcDbVertex
100
AcDb2dVertex
 10
1396.256521
 20
923.938817
 30
0.0
  0
VERTEX
  5
6A3
100
AcDbEntity
  8
止水栓
  6
EXLTYPE2
 62
     6
100
AcDbVertex
100
AcDb2dVertex
 10
1396.322439
 20
924.32456
 30
0.0
  0
VERTEX
  5
6A4
100
AcDbEntity
  8
止水栓
  6
EXLTYPE2
 62
     6
100
AcDbVertex
100
AcDb2dVertex
 10
1396.368826
 20
924.720067
 30
0.0
  0
VERTEX
  5
6A5
100
AcDbEntity
  8
止水栓
  6
EXLTYPE2
 62
     6
100
AcDbVertex
100
AcDb2dVertex
 10
1396.395681
 20
925.120458
 30
0.0
  0
VERTEX
  5
6A6
100
AcDbEntity
  8
止水栓
  6
EXLTYPE2
 62
     6
100
AcDbVertex
100
AcDb2dVertex
 10
1396.405447
 20
925.52329
 30
0.0
  0
VERTEX
  5
6A7
100
AcDbEntity
  8
止水栓
  6
EXLTYPE2
 62
     6
100
AcDbVertex
100
AcDb2dVertex
 10
1396.395681
 20
925.926122
 30
0.0
  0
VERTEX
  5
6A8
100
AcDbEntity
  8
止水栓
  6
EXLTYPE2
 62
     6
100
AcDbVertex
100
AcDb2dVertex
 10
1396.368826
 20
926.326513
 30
0.0
  0
VERTEX
  5
6A9
100
AcDbEntity
  8
止水栓
  6
EXLTYPE2
 62
     6
100
AcDbVertex
100
AcDb2dVertex
 10
1396.322439
 20
926.72202
 30
0.0
  0
VERTEX
  5
6AA
100
AcDbEntity
  8
止水栓
  6
EXLTYPE2
 62
     6
100
AcDbVertex
100
AcDb2dVertex
 10
1396.258962
 20
927.107763
 30
0.0
  0
VERTEX
  5
6AB
100
AcDbEntity
  8
止水栓
  6
EXLTYPE2
 62
     6
100
AcDbVertex
100
AcDb2dVertex
 10
1396.175955
 20
927.481298
 30
0.0
  0
VERTEX
  5
6AC
100
AcDbEntity
  8
止水栓
  6
EXLTYPE2
 62
     6
100
AcDbVertex
100
AcDb2dVertex
 10
1396.078298
 20
927.840185
 30
0.0
  0
VERTEX
  5
6AD
100
AcDbEntity
  8
止水栓
  6
EXLTYPE2
 62
     6
100
AcDbVertex
100
AcDb2dVertex
 10
1395.963552
 20
928.17954
 30
0.0
  0
VERTEX
  5
6AE
100
AcDbEntity
  8
止水栓
  6
EXLTYPE2
 62
     6
100
AcDbVertex
100
AcDb2dVertex
 10
1395.831716
 20
928.501806
 30
0.0
  0
VERTEX
  5
6AF
100
AcDbEntity
  8
止水栓
  6
EXLTYPE2
 62
     6
100
AcDbVertex
100
AcDb2dVertex
 10
1395.687673
 20
928.797216
 30
0.0
  0
VERTEX
  5
6B0
100
AcDbEntity
  8
止水栓
  6
EXLTYPE2
 62
     6
100
AcDbVertex
100
AcDb2dVertex
 10
1395.531423
 20
929.070653
 30
0.0
  0
VERTEX
  5
6B1
100
AcDbEntity
  8
止水栓
  6
EXLTYPE2
 62
     6
100
AcDbVertex
100
AcDb2dVertex
 10
1395.360525
 20
929.317235
 30
0.0
  0
VERTEX
  5
6B2
100
AcDbEntity
  8
止水栓
  6
EXLTYPE2
 62
     6
100
AcDbVertex
100
AcDb2dVertex
 10
1395.182302
 20
929.53452
 30
0.0
  0
VERTEX
  5
6B3
100
AcDbEntity
  8
止水栓
  6
EXLTYPE2
 62
     6
100
AcDbVertex
100
AcDb2dVertex
 10
1394.991873
 20
929.720067
 30
0.0
  0
VERTEX
  5
6B4
100
AcDbEntity
  8
止水栓
  6
EXLTYPE2
 62
     6
100
AcDbVertex
100
AcDb2dVertex
 10
1394.794119
 20
929.873876
 30
0.0
  0
VERTEX
  5
6B5
100
AcDbEntity
  8
止水栓
  6
EXLTYPE2
 62
     6
100
AcDbVertex
100
AcDb2dVertex
 10
1394.591482
 20
929.995946
 30
0.0
  0
VERTEX
  5
6B6
100
AcDbEntity
  8
止水栓
  6
EXLTYPE2
 62
     6
100
AcDbVertex
100
AcDb2dVertex
 10
1394.381521
 20
930.083837
 30
0.0
  0
VERTEX
  5
6B7
100
AcDbEntity
  8
止水栓
  6
EXLTYPE2
 62
     6
100
AcDbVertex
100
AcDb2dVertex
 10
1394.169119
 20
930.137548
 30
0.0
  0
VERTEX
  5
6B8
100
AcDbEntity
  8
止水栓
  6
EXLTYPE2
 62
     6
100
AcDbVertex
100
AcDb2dVertex
 10
1393.956716
 20
930.154638
 30
0.0
  0
VERTEX
  5
6B9
100
AcDbEntity
  8
止水栓
  6
EXLTYPE2
 62
     6
100
AcDbVertex
100
AcDb2dVertex
 10
1393.741873
 20
930.135106
 30
0.0
  0
VERTEX
  5
6BA
100
AcDbEntity
  8
止水栓
  6
EXLTYPE2
 62
     6
100
AcDbVertex
100
AcDb2dVertex
 10
1393.531912
 20
930.083837
 30
0.0
  0
VERTEX
  5
6BB
100
AcDbEntity
  8
止水栓
  6
EXLTYPE2
 62
     6
100
AcDbVertex
100
AcDb2dVertex
 10
1393.321951
 20
929.995946
 30
0.0
  0
VERTEX
  5
6BC
100
AcDbEntity
  8
止水栓
  6
EXLTYPE2
 62
     6
100
AcDbVertex
100
AcDb2dVertex
 10
1393.119314
 20
929.873876
 30
0.0
  0
VERTEX
  5
6BD
100
AcDbEntity
  8
止水栓
  6
EXLTYPE2
 62
     6
100
AcDbVertex
100
AcDb2dVertex
 10
1392.92156
 20
929.720067
 30
0.0
  0
SEQEND
  5
6BE
100
AcDbEntity
  8
止水栓
  6
EXLTYPE2
 62
     6
  0
LINE
  5
6BF
100
AcDbEntity
  8
止水栓
  6
EXLTYPE2
 62
     6
100
AcDbLine
 10
1394.403005
 20
919.781102
 30
0.0
 11
1394.403005
 21
914.781102
 31
0.0
  0
POLYLINE
  5
6C0
100
AcDbEntity
  8
止水栓
  6
EXLTYPE2
 62
     6
100
AcDb2dPolyline
 66
     1
 10
0.0
 20
0.0
 30
0.0
 70
   128
  0
VERTEX
  5
6C1
100
AcDbEntity
  8
止水栓
  6
EXLTYPE2
 62
     6
100
AcDbVertex
100
AcDb2dVertex
 10
1383.903005
 20
919.995946
 30
0.0
  0
VERTEX
  5
6C2
100
AcDbEntity
  8
止水栓
  6
EXLTYPE2
 62
     6
100
AcDbVertex
100
AcDb2dVertex
 10
1384.401052
 20
920.017919
 30
0.0
  0
VERTEX
  5
6C3
100
AcDbEntity
  8
止水栓
  6
EXLTYPE2
 62
     6
100
AcDbVertex
100
AcDb2dVertex
 10
1384.896658
 20
920.083837
 30
0.0
  0
VERTEX
  5
6C4
100
AcDbEntity
  8
止水栓
  6
EXLTYPE2
 62
     6
100
AcDbVertex
100
AcDb2dVertex
 10
1385.384939
 20
920.186376
 30
0.0
  0
VERTEX
  5
6C5
100
AcDbEntity
  8
止水栓
  6
EXLTYPE2
 62
     6
100
AcDbVertex
100
AcDb2dVertex
 10
1385.870779
 20
920.33286
 30
0.0
  0
VERTEX
  5
6C6
100
AcDbEntity
  8
止水栓
  6
EXLTYPE2
 62
     6
100
AcDbVertex
100
AcDb2dVertex
 10
1386.339529
 20
920.518407
 30
0.0
  0
VERTEX
  5
6C7
100
AcDbEntity
  8
止水栓
  6
EXLTYPE2
 62
     6
100
AcDbVertex
100
AcDb2dVertex
 10
1386.791189
 20
920.740575
 30
0.0
  0
VERTEX
  5
6C8
100
AcDbEntity
  8
止水栓
  6
EXLTYPE2
 62
     6
100
AcDbVertex
100
AcDb2dVertex
 10
1387.220876
 20
921.001806
 30
0.0
  0
VERTEX
  5
6C9
100
AcDbEntity
  8
止水栓
  6
EXLTYPE2
 62
     6
100
AcDbVertex
100
AcDb2dVertex
 10
1387.623709
 20
921.297216
 30
0.0
  0
VERTEX
  5
6CA
100
AcDbEntity
  8
止水栓
  6
EXLTYPE2
 62
     6
100
AcDbVertex
100
AcDb2dVertex
 10
1387.999685
 20
921.624364
 30
0.0
  0
VERTEX
  5
6CB
100
AcDbEntity
  8
止水栓
  6
EXLTYPE2
 62
     6
100
AcDbVertex
100
AcDb2dVertex
 10
1388.341482
 20
921.983251
 30
0.0
  0
VERTEX
  5
6CC
100
AcDbEntity
  8
止水栓
  6
EXLTYPE2
 62
     6
100
AcDbVertex
100
AcDb2dVertex
 10
1388.651541
 20
922.368993
 30
0.0
  0
VERTEX
  5
6CD
100
AcDbEntity
  8
止水栓
  6
EXLTYPE2
 62
     6
100
AcDbVertex
100
AcDb2dVertex
 10
1388.924978
 20
922.776708
 30
0.0
  0
VERTEX
  5
6CE
100
AcDbEntity
  8
止水栓
  6
EXLTYPE2
 62
     6
100
AcDbVertex
100
AcDb2dVertex
 10
1389.161794
 20
923.206395
 30
0.0
  0
VERTEX
  5
6CF
100
AcDbEntity
  8
止水栓
  6
EXLTYPE2
 62
     6
100
AcDbVertex
100
AcDb2dVertex
 10
1389.354666
 20
923.655614
 30
0.0
  0
VERTEX
  5
6D0
100
AcDbEntity
  8
止水栓
  6
EXLTYPE2
 62
     6
100
AcDbVertex
100
AcDb2dVertex
 10
1389.508474
 20
924.119481
 30
0.0
  0
VERTEX
  5
6D1
100
AcDbEntity
  8
止水栓
  6
EXLTYPE2
 62
     6
100
AcDbVertex
100
AcDb2dVertex
 10
1389.618337
 20
924.593114
 30
0.0
  0
VERTEX
  5
6D2
100
AcDbEntity
  8
止水栓
  6
EXLTYPE2
 62
     6
100
AcDbVertex
100
AcDb2dVertex
 10
1389.684255
 20
925.074071
 30
0.0
  0
VERTEX
  5
6D3
100
AcDbEntity
  8
止水栓
  6
EXLTYPE2
 62
     6
100
AcDbVertex
100
AcDb2dVertex
 10
1389.708669
 20
925.55747
 30
0.0
  0
VERTEX
  5
6D4
100
AcDbEntity
  8
止水栓
  6
EXLTYPE2
 62
     6
100
AcDbVertex
100
AcDb2dVertex
 10
1389.684255
 20
926.04331
 30
0.0
  0
VERTEX
  5
6D5
100
AcDbEntity
  8
止水栓
  6
EXLTYPE2
 62
     6
100
AcDbVertex
100
AcDb2dVertex
 10
1389.618337
 20
926.524267
 30
0.0
  0
VERTEX
  5
6D6
100
AcDbEntity
  8
止水栓
  6
EXLTYPE2
 62
     6
100
AcDbVertex
100
AcDb2dVertex
 10
1389.508474
 20
926.997899
 30
0.0
  0
VERTEX
  5
6D7
100
AcDbEntity
  8
止水栓
  6
EXLTYPE2
 62
     6
100
AcDbVertex
100
AcDb2dVertex
 10
1389.354666
 20
927.459325
 30
0.0
  0
VERTEX
  5
6D8
100
AcDbEntity
  8
止水栓
  6
EXLTYPE2
 62
     6
100
AcDbVertex
100
AcDb2dVertex
 10
1389.161794
 20
927.908544
 30
0.0
  0
VERTEX
  5
6D9
100
AcDbEntity
  8
止水栓
  6
EXLTYPE2
 62
     6
100
AcDbVertex
100
AcDb2dVertex
 10
1388.924978
 20
928.338231
 30
0.0
  0
VERTEX
  5
6DA
100
AcDbEntity
  8
止水栓
  6
EXLTYPE2
 62
     6
100
AcDbVertex
100
AcDb2dVertex
 10
1388.651541
 20
928.748388
 30
0.0
  0
VERTEX
  5
6DB
100
AcDbEntity
  8
止水栓
  6
EXLTYPE2
 62
     6
100
AcDbVertex
100
AcDb2dVertex
 10
1388.341482
 20
929.131688
 30
0.0
  0
VERTEX
  5
6DC
100
AcDbEntity
  8
止水栓
  6
EXLTYPE2
 62
     6
100
AcDbVertex
100
AcDb2dVertex
 10
1387.999685
 20
929.490575
 30
0.0
  0
VERTEX
  5
6DD
100
AcDbEntity
  8
止水栓
  6
EXLTYPE2
 62
     6
100
AcDbVertex
100
AcDb2dVertex
 10
1387.623709
 20
929.817724
 30
0.0
  0
VERTEX
  5
6DE
100
AcDbEntity
  8
止水栓
  6
EXLTYPE2
 62
     6
100
AcDbVertex
100
AcDb2dVertex
 10
1387.220876
 20
930.113134
 30
0.0
  0
VERTEX
  5
6DF
100
AcDbEntity
  8
止水栓
  6
EXLTYPE2
 62
     6
100
AcDbVertex
100
AcDb2dVertex
 10
1386.791189
 20
930.374364
 30
0.0
  0
VERTEX
  5
6E0
100
AcDbEntity
  8
止水栓
  6
EXLTYPE2
 62
     6
100
AcDbVertex
100
AcDb2dVertex
 10
1386.339529
 20
930.598974
 30
0.0
  0
VERTEX
  5
6E1
100
AcDbEntity
  8
止水栓
  6
EXLTYPE2
 62
     6
100
AcDbVertex
100
AcDb2dVertex
 10
1385.870779
 20
930.78452
 30
0.0
  0
VERTEX
  5
6E2
100
AcDbEntity
  8
止水栓
  6
EXLTYPE2
 62
     6
100
AcDbVertex
100
AcDb2dVertex
 10
1385.384939
 20
930.928563
 30
0.0
  0
VERTEX
  5
6E3
100
AcDbEntity
  8
止水栓
  6
EXLTYPE2
 62
     6
100
AcDbVertex
100
AcDb2dVertex
 10
1384.889334
 20
931.033544
 30
0.0
  0
VERTEX
  5
6E4
100
AcDbEntity
  8
止水栓
  6
EXLTYPE2
 62
     6
100
AcDbVertex
100
AcDb2dVertex
 10
1384.383962
 20
931.09702
 30
0.0
  0
VERTEX
  5
6E5
100
AcDbEntity
  8
止水栓
  6
EXLTYPE2
 62
     6
100
AcDbVertex
100
AcDb2dVertex
 10
1383.87615
 20
931.118993
 30
0.0
  0
VERTEX
  5
6E6
100
AcDbEntity
  8
止水栓
  6
EXLTYPE2
 62
     6
100
AcDbVertex
100
AcDb2dVertex
 10
1383.368337
 20
931.09702
 30
0.0
  0
VERTEX
  5
6E7
100
AcDbEntity
  8
止水栓
  6
EXLTYPE2
 62
     6
100
AcDbVertex
100
AcDb2dVertex
 10
1382.862966
 20
931.033544
 30
0.0
  0
VERTEX
  5
6E8
100
AcDbEntity
  8
止水栓
  6
EXLTYPE2
 62
     6
100
AcDbVertex
100
AcDb2dVertex
 10
1382.367361
 20
930.928563
 30
0.0
  0
VERTEX
  5
6E9
100
AcDbEntity
  8
止水栓
  6
EXLTYPE2
 62
     6
100
AcDbVertex
100
AcDb2dVertex
 10
1381.881521
 20
930.78452
 30
0.0
  0
VERTEX
  5
6EA
100
AcDbEntity
  8
止水栓
  6
EXLTYPE2
 62
     6
100
AcDbVertex
100
AcDb2dVertex
 10
1381.412771
 20
930.598974
 30
0.0
  0
VERTEX
  5
6EB
100
AcDbEntity
  8
止水栓
  6
EXLTYPE2
 62
     6
100
AcDbVertex
100
AcDb2dVertex
 10
1380.961111
 20
930.374364
 30
0.0
  0
VERTEX
  5
6EC
100
AcDbEntity
  8
止水栓
  6
EXLTYPE2
 62
     6
100
AcDbVertex
100
AcDb2dVertex
 10
1380.531423
 20
930.113134
 30
0.0
  0
VERTEX
  5
6ED
100
AcDbEntity
  8
止水栓
  6
EXLTYPE2
 62
     6
100
AcDbVertex
100
AcDb2dVertex
 10
1380.128591
 20
929.817724
 30
0.0
  0
VERTEX
  5
6EE
100
AcDbEntity
  8
止水栓
  6
EXLTYPE2
 62
     6
100
AcDbVertex
100
AcDb2dVertex
 10
1379.752615
 20
929.490575
 30
0.0
  0
VERTEX
  5
6EF
100
AcDbEntity
  8
止水栓
  6
EXLTYPE2
 62
     6
100
AcDbVertex
100
AcDb2dVertex
 10
1379.410818
 20
929.131688
 30
0.0
  0
VERTEX
  5
6F0
100
AcDbEntity
  8
止水栓
  6
EXLTYPE2
 62
     6
100
AcDbVertex
100
AcDb2dVertex
 10
1379.100759
 20
928.748388
 30
0.0
  0
VERTEX
  5
6F1
100
AcDbEntity
  8
止水栓
  6
EXLTYPE2
 62
     6
100
AcDbVertex
100
AcDb2dVertex
 10
1378.827322
 20
928.338231
 30
0.0
  0
VERTEX
  5
6F2
100
AcDbEntity
  8
止水栓
  6
EXLTYPE2
 62
     6
100
AcDbVertex
100
AcDb2dVertex
 10
1378.590505
 20
927.908544
 30
0.0
  0
VERTEX
  5
6F3
100
AcDbEntity
  8
止水栓
  6
EXLTYPE2
 62
     6
100
AcDbVertex
100
AcDb2dVertex
 10
1378.397634
 20
927.459325
 30
0.0
  0
VERTEX
  5
6F4
100
AcDbEntity
  8
止水栓
  6
EXLTYPE2
 62
     6
100
AcDbVertex
100
AcDb2dVertex
 10
1378.243826
 20
926.997899
 30
0.0
  0
VERTEX
  5
6F5
100
AcDbEntity
  8
止水栓
  6
EXLTYPE2
 62
     6
100
AcDbVertex
100
AcDb2dVertex
 10
1378.133962
 20
926.524267
 30
0.0
  0
VERTEX
  5
6F6
100
AcDbEntity
  8
止水栓
  6
EXLTYPE2
 62
     6
100
AcDbVertex
100
AcDb2dVertex
 10
1378.068044
 20
926.04331
 30
0.0
  0
VERTEX
  5
6F7
100
AcDbEntity
  8
止水栓
  6
EXLTYPE2
 62
     6
100
AcDbVertex
100
AcDb2dVertex
 10
1378.046072
 20
925.559911
 30
0.0
  0
SEQEND
  5
6F8
100
AcDbEntity
  8
止水栓
  6
EXLTYPE2
 62
     6
  0
POLYLINE
  5
6F9
100
AcDbEntity
  8
止水栓
  6
EXLTYPE2
 62
     6
100
AcDb2dPolyline
 66
     1
 10
0.0
 20
0.0
 30
0.0
 70
   128
  0
VERTEX
  5
6FA
100
AcDbEntity
  8
止水栓
  6
EXLTYPE2
 62
     6
100
AcDbVertex
100
AcDb2dVertex
 10
1378.046072
 20
925.55747
 30
0.0
  0
VERTEX
  5
6FB
100
AcDbEntity
  8
止水栓
  6
EXLTYPE2
 62
     6
100
AcDbVertex
100
AcDb2dVertex
 10
1378.068044
 20
925.074071
 30
0.0
  0
VERTEX
  5
6FC
100
AcDbEntity
  8
止水栓
  6
EXLTYPE2
 62
     6
100
AcDbVertex
100
AcDb2dVertex
 10
1378.133962
 20
924.593114
 30
0.0
  0
VERTEX
  5
6FD
100
AcDbEntity
  8
止水栓
  6
EXLTYPE2
 62
     6
100
AcDbVertex
100
AcDb2dVertex
 10
1378.243826
 20
924.119481
 30
0.0
  0
VERTEX
  5
6FE
100
AcDbEntity
  8
止水栓
  6
EXLTYPE2
 62
     6
100
AcDbVertex
100
AcDb2dVertex
 10
1378.397634
 20
923.655614
 30
0.0
  0
VERTEX
  5
6FF
100
AcDbEntity
  8
止水栓
  6
EXLTYPE2
 62
     6
100
AcDbVertex
100
AcDb2dVertex
 10
1378.590505
 20
923.208837
 30
0.0
  0
VERTEX
  5
700
100
AcDbEntity
  8
止水栓
  6
EXLTYPE2
 62
     6
100
AcDbVertex
100
AcDb2dVertex
 10
1378.827322
 20
922.776708
 30
0.0
  0
VERTEX
  5
701
100
AcDbEntity
  8
止水栓
  6
EXLTYPE2
 62
     6
100
AcDbVertex
100
AcDb2dVertex
 10
1379.100759
 20
922.368993
 30
0.0
  0
VERTEX
  5
702
100
AcDbEntity
  8
止水栓
  6
EXLTYPE2
 62
     6
100
AcDbVertex
100
AcDb2dVertex
 10
1379.410818
 20
921.983251
 30
0.0
  0
VERTEX
  5
703
100
AcDbEntity
  8
止水栓
  6
EXLTYPE2
 62
     6
100
AcDbVertex
100
AcDb2dVertex
 10
1379.752615
 20
921.626806
 30
0.0
  0
VERTEX
  5
704
100
AcDbEntity
  8
止水栓
  6
EXLTYPE2
 62
     6
100
AcDbVertex
100
AcDb2dVertex
 10
1380.128591
 20
921.297216
 30
0.0
  0
VERTEX
  5
705
100
AcDbEntity
  8
止水栓
  6
EXLTYPE2
 62
     6
100
AcDbVertex
100
AcDb2dVertex
 10
1380.531423
 20
921.004247
 30
0.0
  0
VERTEX
  5
706
100
AcDbEntity
  8
止水栓
  6
EXLTYPE2
 62
     6
100
AcDbVertex
100
AcDb2dVertex
 10
1380.961111
 20
920.740575
 30
0.0
  0
VERTEX
  5
707
100
AcDbEntity
  8
止水栓
  6
EXLTYPE2
 62
     6
100
AcDbVertex
100
AcDb2dVertex
 10
1381.412771
 20
920.515966
 30
0.0
  0
VERTEX
  5
708
100
AcDbEntity
  8
止水栓
  6
EXLTYPE2
 62
     6
100
AcDbVertex
100
AcDb2dVertex
 10
1381.881521
 20
920.330419
 30
0.0
  0
VERTEX
  5
709
100
AcDbEntity
  8
止水栓
  6
EXLTYPE2
 62
     6
100
AcDbVertex
100
AcDb2dVertex
 10
1382.367361
 20
920.186376
 30
0.0
  0
VERTEX
  5
70A
100
AcDbEntity
  8
止水栓
  6
EXLTYPE2
 62
     6
100
AcDbVertex
100
AcDb2dVertex
 10
1382.862966
 20
920.081395
 30
0.0
  0
VERTEX
  5
70B
100
AcDbEntity
  8
止水栓
  6
EXLTYPE2
 62
     6
100
AcDbVertex
100
AcDb2dVertex
 10
1383.368337
 20
920.017919
 30
0.0
  0
VERTEX
  5
70C
100
AcDbEntity
  8
止水栓
  6
EXLTYPE2
 62
     6
100
AcDbVertex
100
AcDb2dVertex
 10
1383.87615
 20
919.995946
 30
0.0
  0
VERTEX
  5
70D
100
AcDbEntity
  8
止水栓
  6
EXLTYPE2
 62
     6
100
AcDbVertex
100
AcDb2dVertex
 10
1383.885916
 20
919.995946
 30
0.0
  0
VERTEX
  5
70E
100
AcDbEntity
  8
止水栓
  6
EXLTYPE2
 62
     6
100
AcDbVertex
100
AcDb2dVertex
 10
1383.89324
 20
919.995946
 30
0.0
  0
VERTEX
  5
70F
100
AcDbEntity
  8
止水栓
  6
EXLTYPE2
 62
     6
100
AcDbVertex
100
AcDb2dVertex
 10
1383.903005
 20
919.995946
 30
0.0
  0
SEQEND
  5
710
100
AcDbEntity
  8
止水栓
  6
EXLTYPE2
 62
     6
  0
LINE
  5
711
100
AcDbEntity
  8
止水栓
  6
EXLTYPE2
 62
     6
100
AcDbLine
 10
1373.425505
 20
941.166737
 30
0.0
 11
1373.425505
 21
931.780614
 31
0.0
  0
LINE
  5
712
100
AcDbEntity
  8
止水栓
  6
EXLTYPE2
 62
     6
100
AcDbLine
 10
1374.587505
 20
931.780614
 30
0.0
 11
1374.587505
 21
934.310918
 31
0.0
  0
LINE
  5
713
100
AcDbEntity
  8
止水栓
  6
EXLTYPE2
 62
     6
100
AcDbLine
 10
1393.218505
 20
931.780614
 30
0.0
 11
1393.218505
 21
934.310918
 31
0.0
  0
LINE
  5
714
100
AcDbEntity
  8
止水栓
  6
EXLTYPE2
 62
     6
100
AcDbLine
 10
1394.380505
 20
941.166737
 30
0.0
 11
1394.380505
 21
931.780614
 31
0.0
  0
LINE
  5
715
100
AcDbEntity
  8
止水栓
  6
EXLTYPE2
 62
     6
100
AcDbLine
 10
1372.933767
 20
931.780614
 30
0.0
 11
1394.873837
 21
931.780614
 31
0.0
  0
ARC
  5
716
100
AcDbEntity
  8
止水栓
  6
EXLTYPE2
 62
     6
100
AcDbCircle
 10
1385.653494
 20
925.782079
 30
0.0
 40
10.99987
100
AcDbArc
 50
326.937744
 51
33.047067
  0
LINE
  5
717
100
AcDbEntity
  8
止水栓
  6
CONTINUOUS
 62
     6
100
AcDbLine
 10
1374.683555
 20
955.309453
 30
0.0
 11
1393.122455
 21
955.309453
 31
0.0
  0
LINE
  5
718
100
AcDbEntity
  8
止水栓
  6
CONTINUOUS
 62
     6
100
AcDbLine
 10
1393.122191
 20
953.309942
 30
0.0
 11
1374.68382
 21
953.309942
 31
0.0
  0
ARC
  5
719
100
AcDbEntity
  8
止水栓
  6
CONTINUOUS
 62
     6
100
AcDbCircle
 10
1327.925505
 20
941.166737
 30
0.0
 40
45.5
100
AcDbArc
 50
0.0
 51
13.214335
  0
ARC
  5
71A
100
AcDbEntity
  8
止水栓
  6
CONTINUOUS
 62
     6
100
AcDbCircle
 10
1439.880505
 20
941.166737
 30
0.0
 40
45.5
100
AcDbArc
 50
166.785665
 51
180.0
  0
CIRCLE
  5
71B
100
AcDbEntity
  8
止水栓
  6
CONTINUOUS
 62
     6
100
AcDbCircle
 10
1383.903005
 20
954.310918
 30
0.0
 40
9.273367
  0
CIRCLE
  5
71C
100
AcDbEntity
  8
止水栓
  6
CONTINUOUS
 62
     6
100
AcDbCircle
 10
1383.903005
 20
954.310918
 30
0.0
 40
9.959438
  0
CIRCLE
  5
71D
100
AcDbEntity
  8
止水栓
  6
CONTINUOUS
 62
     6
100
AcDbCircle
 10
1383.903005
 20
954.310918
 30
0.0
 40
12.0
  0
ARC
  5
71E
100
AcDbEntity
  8
止水栓
  6
EXLTYPE3
 62
     6
100
AcDbCircle
 10
1468.903006
 20
854.000231
 30
0.0
 40
85.000001
100
AcDbArc
 50
180.0
 51
0.0
  0
LINE
  5
71F
100
AcDbEntity
  8
止水栓
  6
EXLTYPE3
 62
     6
100
AcDbLine
 10
1553.903007
 20
892.893684
 30
0.0
 11
1553.903007
 21
854.000231
 31
0.0
  0
CIRCLE
  5
720
100
AcDbEntity
  8
便座
  6
EXLTYPE2
 62
     6
100
AcDbCircle
 10
664.888906
 20
2358.310688
 30
0.0
 40
6.000977
  0
CIRCLE
  5
721
100
AcDbEntity
  8
便座
  6
EXLTYPE2
 62
     6
100
AcDbCircle
 10
664.888906
 20
2498.310688
 30
0.0
 40
6.000977
  0
LINE
  5
722
100
AcDbEntity
  8
便座
  6
CONTINUOUS
 62
     6
100
AcDbLine
 10
640.889883
 20
2480.310658
 30
0.0
 11
640.889883
 21
2510.310658
 31
0.0
  0
LINE
  5
723
100
AcDbEntity
  8
便座
  6
CONTINUOUS
 62
     6
100
AcDbLine
 10
640.889883
 20
2480.310658
 30
0.0
 11
679.388418
 21
2480.310658
 31
0.0
  0
LINE
  5
724
100
AcDbEntity
  8
便座
  6
CONTINUOUS
 62
     6
100
AcDbLine
 10
640.889883
 20
2376.310719
 30
0.0
 11
679.388418
 21
2376.310719
 31
0.0
  0
LINE
  5
725
100
AcDbEntity
  8
便座
  6
CONTINUOUS
 62
     6
100
AcDbLine
 10
640.889883
 20
2376.310719
 30
0.0
 11
640.889883
 21
2346.310719
 31
0.0
  0
LINE
  5
726
100
AcDbEntity
  8
便座
  6
CONTINUOUS
 62
     6
100
AcDbLine
 10
640.889883
 20
2346.310719
 30
0.0
 11
684.388418
 21
2346.310719
 31
0.0
  0
LINE
  5
727
100
AcDbEntity
  8
便座
  6
CONTINUOUS
 62
     6
100
AcDbLine
 10
684.388418
 20
2365.810688
 30
0.0
 11
670.889883
 21
2365.810688
 31
0.0
  0
LINE
  5
728
100
AcDbEntity
  8
便座
  6
CONTINUOUS
 62
     6
100
AcDbLine
 10
684.388418
 20
2490.810688
 30
0.0
 11
670.889883
 21
2490.810688
 31
0.0
  0
LINE
  5
729
100
AcDbEntity
  8
便座
  6
CONTINUOUS
 62
     6
100
AcDbLine
 10
684.388418
 20
2510.310658
 30
0.0
 11
640.889883
 21
2510.310658
 31
0.0
  0
ARC
  5
72A
100
AcDbEntity
  8
便座
  6
CONTINUOUS
 62
     6
100
AcDbCircle
 10
879.888906
 20
2268.810688
 30
0.0
 40
335.0
100
AcDbArc
 50
85.315374
 51
122.557614
  0
ARC
  5
72B
100
AcDbEntity
  8
便座
  6
CONTINUOUS
 62
     6
100
AcDbCircle
 10
879.888906
 20
2268.810688
 30
0.0
 40
327.0
100
AcDbArc
 50
85.315374
 51
123.571704
  0
ARC
  5
72C
100
AcDbEntity
  8
便座
  6
CONTINUOUS
 62
     6
100
AcDbCircle
 10
974.888906
 20
2428.310688
 30
0.0
 40
118.0
100
AcDbArc
 50
329.426629
 51
30.573371
  0
ARC
  5
72D
100
AcDbEntity
  8
便座
  6
CONTINUOUS
 62
     6
100
AcDbCircle
 10
974.888906
 20
2428.310688
 30
0.0
 40
135.0
100
AcDbArc
 50
328.738377
 51
31.261623
  0
LINE
  5
72E
100
AcDbEntity
  8
便座
  6
CONTINUOUS
 62
     6
100
AcDbLine
 10
687.888906
 20
2520.435409
 30
0.0
 11
687.888906
 21
2336.185968
 31
0.0
  0
LINE
  5
72F
100
AcDbEntity
  8
便座
  6
CONTINUOUS
 62
     6
100
AcDbLine
 10
679.388906
 20
2365.810688
 30
0.0
 11
679.388906
 21
2490.810688
 31
0.0
  0
LINE
  5
730
100
AcDbEntity
  8
便座
  6
CONTINUOUS
 62
     6
100
AcDbLine
 10
685.753946
 20
2330.741214
 30
0.0
 11
685.753946
 21
2397.560688
 31
0.0
  0
LINE
  5
731
100
AcDbEntity
  8
便座
  6
CONTINUOUS
 62
     6
100
AcDbLine
 10
685.753946
 20
2459.060688
 30
0.0
 11
685.753946
 21
2525.880163
 31
0.0
  0
LINE
  5
732
100
AcDbEntity
  8
便座
  6
CONTINUOUS
 62
     6
100
AcDbLine
 10
679.388906
 20
2459.060688
 30
0.0
 11
685.753946
 21
2459.060688
 31
0.0
  0
LINE
  5
733
100
AcDbEntity
  8
便座
  6
CONTINUOUS
 62
     6
100
AcDbLine
 10
679.388906
 20
2397.560688
 30
0.0
 11
685.753946
 21
2397.560688
 31
0.0
  0
ARC
  5
734
100
AcDbEntity
  8
便座
  6
CONTINUOUS
 62
     6
100
AcDbCircle
 10
879.888906
 20
2587.810688
 30
0.0
 40
335.0
100
AcDbArc
 50
237.442386
 51
274.684626
  0
ARC
  5
735
100
AcDbEntity
  8
便座
  6
CONTINUOUS
 62
     6
100
AcDbCircle
 10
879.888906
 20
2587.810688
 30
0.0
 40
327.0
100
AcDbArc
 50
236.428296
 51
274.684626
  0
ARC
  5
736
100
AcDbEntity
  8
便座
  6
CONTINUOUS
 62
     6
100
AcDbCircle
 10
888.791055
 20
2479.17482
 30
0.0
 40
226.0
100
AcDbArc
 50
274.684626
 51
329.426629
  0
ARC
  5
737
100
AcDbEntity
  8
便座
  6
CONTINUOUS
 62
     6
100
AcDbCircle
 10
888.791055
 20
2479.17482
 30
0.0
 40
218.0
100
AcDbArc
 50
274.684626
 51
329.426629
  0
ARC
  5
738
100
AcDbEntity
  8
便座
  6
CONTINUOUS
 62
     6
100
AcDbCircle
 10
888.791055
 20
2377.446556
 30
0.0
 40
226.0
100
AcDbArc
 50
30.573371
 51
85.315374
  0
ARC
  5
739
100
AcDbEntity
  8
便座
  6
CONTINUOUS
 62
     6
100
AcDbCircle
 10
888.791055
 20
2377.446556
 30
0.0
 40
218.0
100
AcDbArc
 50
30.573371
 51
85.315374
  0
ARC
  5
73A
100
AcDbEntity
  8
便座
  6
CONTINUOUS
 62
     6
100
AcDbCircle
 10
712.888906
 20
2520.435409
 30
0.0
 40
25.0
100
AcDbArc
 50
123.571704
 51
180.0
  0
ARC
  5
73B
100
AcDbEntity
  8
便座
  6
CONTINUOUS
 62
     6
100
AcDbCircle
 10
712.888906
 20
2336.185968
 30
0.0
 40
25.0
100
AcDbArc
 50
180.0
 51
236.428296
  0
ARC
  5
73C
100
AcDbEntity
  8
便座
  6
CONTINUOUS
 62
     6
100
AcDbCircle
 10
715.753946
 20
2525.880163
 30
0.0
 40
30.0
100
AcDbArc
 50
122.557614
 51
180.0
  0
ARC
  5
73D
100
AcDbEntity
  8
便座
  6
CONTINUOUS
 62
     6
100
AcDbCircle
 10
715.753946
 20
2330.741214
 30
0.0
 40
30.0
100
AcDbArc
 50
180.0
 51
237.442386
  0
ARC
  5
73E
100
AcDbEntity
  8
便座
  6
CONTINUOUS
 62
     6
100
AcDbCircle
 10
879.888906
 20
2261.810688
 30
0.0
 40
350.0
100
AcDbArc
 50
85.251802
 51
117.689613
  0
ARC
  5
73F
100
AcDbEntity
  8
便座
  6
CONTINUOUS
 62
     6
100
AcDbCircle
 10
879.888906
 20
2594.810688
 30
0.0
 40
350.0
100
AcDbArc
 50
242.310387
 51
274.748198
  0
ARC
  5
740
100
AcDbEntity
  8
便座
  6
CONTINUOUS
 62
     6
100
AcDbCircle
 10
889.408245
 20
2480.205356
 30
0.0
 40
235.0
100
AcDbArc
 50
274.748198
 51
328.738377
  0
ARC
  5
741
100
AcDbEntity
  8
便座
  6
CONTINUOUS
 62
     6
100
AcDbCircle
 10
889.408245
 20
2376.41602
 30
0.0
 40
235.0
100
AcDbArc
 50
31.261623
 51
85.251802
  0
ARC
  5
742
100
AcDbEntity
  8
便座
  6
CONTINUOUS
 62
     6
100
AcDbCircle
 10
728.867409
 20
2549.590999
 30
0.0
 40
25.0
100
AcDbArc
 50
117.689613
 51
169.629498
  0
ARC
  5
743
100
AcDbEntity
  8
便座
  6
CONTINUOUS
 62
     6
100
AcDbCircle
 10
728.867409
 20
2307.030377
 30
0.0
 40
25.0
100
AcDbArc
 50
190.370502
 51
242.310387
  0
ARC
  5
744
100
AcDbEntity
  8
便座
  6
CONTINUOUS
 62
     6
100
AcDbCircle
 10
954.821227
 20
2428.310688
 30
0.0
 40
143.729781
100
AcDbArc
 50
334.0031
 51
25.9969
  0
LINE
  5
745
100
AcDbEntity
  8
便座
  6
CONTINUOUS
 62
     6
100
AcDbLine
 10
638.88793
 20
2498.310688
 30
0.0
 11
690.889883
 21
2498.310688
 31
0.0
  0
LINE
  5
746
100
AcDbEntity
  8
便座
  6
CONTINUOUS
 62
     6
100
AcDbLine
 10
638.88793
 20
2358.310688
 30
0.0
 11
690.889883
 21
2358.310688
 31
0.0
  0
LINE
  5
747
100
AcDbEntity
  8
便座
  6
CONTINUOUS
 62
     6
100
AcDbLine
 10
640.888967
 20
1012.310719
 30
0.0
 11
640.888967
 21
1004.310688
 31
0.0
  0
LINE
  5
748
100
AcDbEntity
  8
便座
  6
CONTINUOUS
 62
     6
100
AcDbLine
 10
697.071523
 20
1018.310627
 30
0.0
 11
693.88793
 21
1004.310688
 31
0.0
  0
ARC
  5
749
100
AcDbEntity
  8
便座
  6
CONTINUOUS
 62
     6
100
AcDbCircle
 10
690.340566
 20
1029.310688
 30
0.0
 40
9.000652
100
AcDbArc
 50
347.196423
 51
90.0
  0
LINE
  5
74A
100
AcDbEntity
  8
便座
  6
CONTINUOUS
 62
     6
100
AcDbLine
 10
681.38793
 20
1038.310627
 30
0.0
 11
690.340566
 21
1038.310627
 31
0.0
  0
LINE
  5
74B
100
AcDbEntity
  8
便座
  6
CONTINUOUS
 62
     6
100
AcDbLine
 10
677.222891
 20
1019.983296
 30
0.0
 11
681.38793
 21
1038.310627
 31
0.0
  0
ARC
  5
74C
100
AcDbEntity
  8
便座
  6
CONTINUOUS
 62
     6
100
AcDbCircle
 10
671.373281
 20
1021.313099
 30
0.0
 40
5.999851
100
AcDbArc
 50
275.862109
 51
347.192521
  0
LINE
  5
74D
100
AcDbEntity
  8
便座
  6
CONTINUOUS
 62
     6
100
AcDbLine
 10
640.888967
 20
1012.310719
 30
0.0
 11
671.986074
 21
1015.344624
 31
0.0
  0
LINE
  5
74E
100
AcDbEntity
  8
便座
  6
CONTINUOUS
 62
     6
100
AcDbLine
 10
684.080801
 20
1051.043171
 30
0.0
 11
681.563711
 21
1038.310627
 31
0.0
  0
LINE
  5
74F
100
AcDbEntity
  8
便座
  6
CONTINUOUS
 62
     6
100
AcDbLine
 10
687.252226
 20
1067.086455
 30
0.0
 11
684.080801
 21
1051.043171
 31
0.0
  0
ARC
  5
750
100
AcDbEntity
  8
便座
  6
CONTINUOUS
 62
     6
100
AcDbCircle
 10
660.946035
 20
51.310658
 30
0.0
 40
999.999741
100
AcDbArc
 50
85.814773
 51
88.674324
  0
LINE
  5
751
100
AcDbEntity
  8
便座
  6
CONTINUOUS
 62
     6
100
AcDbLine
 10
699.468984
 20
1038.310627
 30
0.0
 11
700.111067
 21
1050.543154
 31
0.0
  0
LINE
  5
752
100
AcDbEntity
  8
便座
  6
CONTINUOUS
 62
     6
100
AcDbLine
 10
690.340566
 20
1038.310627
 30
0.0
 11
710.789785
 21
1038.310627
 31
0.0
  0
ARC
  5
753
100
AcDbEntity
  8
便座
  6
CONTINUOUS
 62
     6
100
AcDbCircle
 10
710.789785
 20
1031.310658
 30
0.0
 40
6.99997
100
AcDbArc
 50
90.0
 51
162.582827
  0
ARC
  5
754
100
AcDbEntity
  8
便座
  6
CONTINUOUS
 62
     6
100
AcDbCircle
 10
761.419668
 20
1015.644001
 30
0.0
 40
59.999009
100
AcDbArc
 50
162.780069
 51
177.452688
  0
LINE
  5
755
100
AcDbEntity
  8
便座
  6
CONTINUOUS
 62
     6
100
AcDbLine
 10
697.071523
 20
1018.310627
 30
0.0
 11
701.480703
 21
1018.310627
 31
0.0
  0
ARC
  5
756
100
AcDbEntity
  8
便座
  6
CONTINUOUS
 62
     6
100
AcDbCircle
 10
703.006582
 20
1018.810658
 30
0.0
 40
1.499357
100
AcDbArc
 50
199.474967
 51
270.0
  0
LINE
  5
757
100
AcDbEntity
  8
便座
  6
CONTINUOUS
 62
     6
100
AcDbLine
 10
702.388906
 20
1017.310719
 30
0.0
 11
1107.95043
 21
1017.310719
 31
0.0
  0
LINE
  5
758
100
AcDbEntity
  8
便座
  6
CONTINUOUS
 62
     6
100
AcDbLine
 10
1099.137622
 20
1038.310627
 30
0.0
 11
710.789785
 21
1038.310627
 31
0.0
  0
ARC
  5
759
100
AcDbEntity
  8
便座
  6
CONTINUOUS
 62
     6
100
AcDbCircle
 10
986.888418
 20
1044.810719
 30
0.0
 40
9.000402
100
AcDbArc
 50
189.594227
 51
226.247088
  0
ARC
  5
75A
100
AcDbEntity
  8
便座
  6
CONTINUOUS
 62
     6
100
AcDbCircle
 10
879.888906
 20
3043.312153
 30
0.0
 40
2000.000274
100
AcDbArc
 50
265.814642
 51
270.000017
  0
LINE
  5
75B
100
AcDbEntity
  8
便座
  6
CONTINUOUS
 62
     6
100
AcDbLine
 10
879.884023
 20
1043.311848
 30
0.0
 11
1083.372199
 21
1043.309704
 31
0.0
  0
LINE
  5
75C
100
AcDbEntity
  8
便座
  6
CONTINUOUS
 62
     6
100
AcDbLine
 10
851.189506
 20
1070.310749
 30
0.0
 11
691.17629
 21
1070.310749
 31
0.0
  0
LINE
  5
75D
100
AcDbEntity
  8
便座
  6
CONTINUOUS
 62
     6
100
AcDbLine
 10
831.549062
 20
1010.181812
 30
0.0
 11
969.276113
 21
1013.728413
 31
0.0
  0
LINE
  5
75E
100
AcDbEntity
  8
便座
  6
CONTINUOUS
 62
     6
100
AcDbLine
 10
805.355215
 20
1009.310688
 30
0.0
 11
831.549062
 21
1009.310688
 31
0.0
  0
LINE
  5
75F
100
AcDbEntity
  8
便座
  6
CONTINUOUS
 62
     6
100
AcDbLine
 10
758.88793
 20
1008.310627
 30
0.0
 11
805.355215
 21
1009.507221
 31
0.0
  0
LINE
  5
760
100
AcDbEntity
  8
便座
  6
CONTINUOUS
 62
     6
100
AcDbLine
 10
758.88793
 20
1008.310627
 30
0.0
 11
757.503652
 21
1017.310719
 31
0.0
  0
LINE
  5
761
100
AcDbEntity
  8
便座
  6
CONTINUOUS
 62
     6
100
AcDbLine
 10
805.355215
 20
1009.310688
 30
0.0
 11
805.355215
 21
1017.310719
 31
0.0
  0
ARC
  5
762
100
AcDbEntity
  8
便座
  6
CONTINUOUS
 62
     6
100
AcDbCircle
 10
808.355703
 20
1007.310719
 30
0.0
 40
3.000488
100
AcDbArc
 50
180.000023
 51
270.0
  0
ARC
  5
763
100
AcDbEntity
  8
便座
  6
CONTINUOUS
 62
     6
100
AcDbCircle
 10
828.548574
 20
1007.310719
 30
0.0
 40
3.000031
100
AcDbArc
 50
270.0
 51
0.0
  0
LINE
  5
764
100
AcDbEntity
  8
便座
  6
CONTINUOUS
 62
     6
100
AcDbLine
 10
831.549062
 20
1007.310719
 30
0.0
 11
831.549062
 21
1017.310719
 31
0.0
  0
LINE
  5
765
100
AcDbEntity
  8
便座
  6
CONTINUOUS
 62
     6
100
AcDbLine
 10
969.276113
 20
1009.310688
 30
0.0
 11
969.276113
 21
1017.310719
 31
0.0
  0
ARC
  5
766
100
AcDbEntity
  8
便座
  6
CONTINUOUS
 62
     6
100
AcDbCircle
 10
972.276601
 20
1007.310719
 30
0.0
 40
3.000488
100
AcDbArc
 50
180.000023
 51
270.0
  0
LINE
  5
767
100
AcDbEntity
  8
便座
  6
CONTINUOUS
 62
     6
100
AcDbLine
 10
969.276113
 20
1009.310688
 30
0.0
 11
999.229726
 21
1009.310688
 31
0.0
  0
LINE
  5
768
100
AcDbEntity
  8
便座
  6
CONTINUOUS
 62
     6
100
AcDbLine
 10
999.229726
 20
1007.310719
 30
0.0
 11
999.229726
 21
1017.310719
 31
0.0
  0
LINE
  5
769
100
AcDbEntity
  8
便座
  6
CONTINUOUS
 62
     6
100
AcDbLine
 10
999.229726
 20
1014.499592
 30
0.0
 11
1109.888906
 21
1017.349348
 31
0.0
  0
LINE
  5
76A
100
AcDbEntity
  8
便座
  6
CONTINUOUS
 62
     6
100
AcDbLine
 10
699.117422
 20
1027.316059
 30
0.0
 11
697.071523
 21
1018.310627
 31
0.0
  0
LINE
  5
76B
100
AcDbEntity
  8
便座
  6
CONTINUOUS
 62
     6
100
AcDbLine
 10
969.276113
 20
1009.310688
 30
0.0
 11
969.276113
 21
1007.310719
 31
0.0
  0
ARC
  5
76C
100
AcDbEntity
  8
便座
  6
CONTINUOUS
 62
     6
100
AcDbCircle
 10
996.229238
 20
1007.310719
 30
0.0
 40
3.000031
100
AcDbArc
 50
270.0
 51
0.0
  0
ARC
  5
76D
100
AcDbEntity
  8
便座
  6
CONTINUOUS
 62
     6
100
AcDbCircle
 10
986.888418
 20
1044.810719
 30
0.0
 40
9.000506
100
AcDbArc
 50
313.764264
 51
350.405815
  0
LINE
  5
76E
100
AcDbEntity
  8
便座
  6
CONTINUOUS
 62
     6
100
AcDbLine
 10
805.355215
 20
1007.310719
 30
0.0
 11
805.355215
 21
1009.310688
 31
0.0
  0
ARC
  5
76F
100
AcDbEntity
  8
便座
  6
CONTINUOUS
 62
     6
100
AcDbCircle
 10
691.17629
 20
1066.310749
 30
0.0
 40
4.0
100
AcDbArc
 50
90.0
 51
168.817978
  0
ARC
  5
770
100
AcDbEntity
  8
便座
  6
CONTINUOUS
 62
     6
100
AcDbCircle
 10
1074.888928
 20
1017.310599
 30
0.0
 40
35.0
100
AcDbArc
 50
0.063434
 51
30.000068
  0
ARC
  5
771
100
AcDbEntity
  8
便座
  6
CONTINUOUS
 62
     6
100
AcDbCircle
 10
1099.137622
 20
1031.310627
 30
0.0
 40
7.0
100
AcDbArc
 50
30.000068
 51
90.0
  0
LINE
  5
772
100
AcDbEntity
  8
便座
  6
CONTINUOUS
 62
     6
100
AcDbLine
 10
879.88415
 20
1055.311848
 30
0.0
 11
1088.407914
 21
1055.309651
 31
0.0
  0
ARC
  5
773
100
AcDbEntity
  8
便座
  6
CONTINUOUS
 62
     6
100
AcDbCircle
 10
851.189506
 20
-1429.689251
 30
0.0
 40
2500.0
100
AcDbArc
 50
85.909561
 51
90.0
  0
ARC
  5
774
100
AcDbEntity
  8
便座
  6
CONTINUOUS
 62
     6
100
AcDbCircle
 10
993.851516
 20
565.216148
 30
0.0
 40
500.0
100
AcDbArc
 50
78.934073
 51
85.909561
  0
ARC
  5
775
100
AcDbEntity
  8
便座
  6
CONTINUOUS
 62
     6
100
AcDbCircle
 10
1072.659191
 20
1033.156532
 30
0.0
 40
30.0
100
AcDbArc
 50
30.338019
 51
40.349757
  0
ARC
  5
776
100
AcDbEntity
  8
便座
  6
CONTINUOUS
 62
     6
100
AcDbCircle
 10
1087.901318
 20
1046.105569
 30
0.0
 40
10.0
100
AcDbArc
 50
40.349757
 51
78.934073
  0
ARC
  5
777
100
AcDbEntity
  8
便座
  6
CONTINUOUS
 62
     6
100
AcDbCircle
 10
879.88932
 20
3043.311848
 30
0.0
 40
1988.0
100
AcDbArc
 50
265.81463
 51
269.999851
  0
ARC
  5
778
100
AcDbEntity
  8
便座
  6
CONTINUOUS
 62
     6
100
AcDbCircle
 10
660.967208
 20
51.310326
 30
0.0
 40
1012.0
100
AcDbArc
 50
85.816249
 51
88.381474
  0
LINE
  5
779
100
AcDbEntity
  8
便座
  6
CONTINUOUS
 62
     6
100
AcDbLine
 10
1083.372199
 20
1043.309704
 30
0.0
 11
1098.551008
 21
1048.309544
 31
0.0
  0
ARC
  5
77A
100
AcDbEntity
  8
便座
  6
CONTINUOUS
 62
     6
100
AcDbCircle
 10
664.888906
 20
930.923918
 30
0.0
 40
12.5
100
AcDbArc
 50
118.685402
 51
180.0
  0
LINE
  5
77B
100
AcDbEntity
  8
便座
  6
CONTINUOUS
 62
     6
100
AcDbLine
 10
652.388906
 20
930.923918
 30
0.0
 11
677.388906
 21
930.923918
 31
0.0
  0
LINE
  5
77C
100
AcDbEntity
  8
便座
  6
CONTINUOUS
 62
     6
100
AcDbLine
 10
652.388906
 20
930.423918
 30
0.0
 11
677.388906
 21
930.423918
 31
0.0
  0
LINE
  5
77D
100
AcDbEntity
  8
便座
  6
CONTINUOUS
 62
     6
100
AcDbLine
 10
652.388906
 20
928.423918
 30
0.0
 11
677.388906
 21
928.423918
 31
0.0
  0
LINE
  5
77E
100
AcDbEntity
  8
便座
  6
CONTINUOUS
 62
     6
100
AcDbLine
 10
655.661294
 20
920.923918
 30
0.0
 11
656.388906
 21
918.423918
 31
0.0
  0
LINE
  5
77F
100
AcDbEntity
  8
便座
  6
CONTINUOUS
 62
     6
100
AcDbLine
 10
674.116518
 20
920.923918
 30
0.0
 11
673.388906
 21
918.423918
 31
0.0
  0
LINE
  5
780
100
AcDbEntity
  8
便座
  6
CONTINUOUS
 62
     6
100
AcDbLine
 10
656.388906
 20
918.423918
 30
0.0
 11
673.388906
 21
918.423918
 31
0.0
  0
ARC
  5
781
100
AcDbEntity
  8
便座
  6
CONTINUOUS
 62
     6
100
AcDbCircle
 10
664.888906
 20
926.844153
 30
0.0
 40
8.420236
100
AcDbArc
 50
224.675943
 51
315.324057
  0
LINE
  5
782
100
AcDbEntity
  8
便座
  6
CONTINUOUS
 62
     6
100
AcDbLine
 10
655.661294
 20
920.923918
 30
0.0
 11
658.901321
 21
920.923918
 31
0.0
  0
LINE
  5
783
100
AcDbEntity
  8
便座
  6
CONTINUOUS
 62
     6
100
AcDbLine
 10
670.876491
 20
920.923918
 30
0.0
 11
674.116518
 21
920.923918
 31
0.0
  0
LINE
  5
784
100
AcDbEntity
  8
便座
  6
CONTINUOUS
 62
     6
100
AcDbLine
 10
655.661294
 20
920.923918
 30
0.0
 11
655.661294
 21
928.423918
 31
0.0
  0
LINE
  5
785
100
AcDbEntity
  8
便座
  6
CONTINUOUS
 62
     6
100
AcDbLine
 10
658.901321
 20
920.923918
 30
0.0
 11
658.901321
 21
928.423918
 31
0.0
  0
LINE
  5
786
100
AcDbEntity
  8
便座
  6
CONTINUOUS
 62
     6
100
AcDbLine
 10
670.876491
 20
920.923918
 30
0.0
 11
670.876491
 21
928.423918
 31
0.0
  0
LINE
  5
787
100
AcDbEntity
  8
便座
  6
CONTINUOUS
 62
     6
100
AcDbLine
 10
674.116518
 20
920.923918
 30
0.0
 11
674.116518
 21
928.423918
 31
0.0
  0
LINE
  5
788
100
AcDbEntity
  8
便座
  6
CONTINUOUS
 62
     6
100
AcDbLine
 10
652.388906
 20
928.423918
 30
0.0
 11
652.388906
 21
930.923918
 31
0.0
  0
LINE
  5
789
100
AcDbEntity
  8
便座
  6
CONTINUOUS
 62
     6
100
AcDbLine
 10
677.388906
 20
928.423918
 30
0.0
 11
677.388906
 21
930.923918
 31
0.0
  0
LINE
  5
78A
100
AcDbEntity
  8
便座
  6
CONTINUOUS
 62
     6
100
AcDbLine
 10
659.888906
 20
909.310688
 30
0.0
 11
669.888906
 21
909.310688
 31
0.0
  0
LINE
  5
78B
100
AcDbEntity
  8
便座
  6
CONTINUOUS
 62
     6
100
AcDbLine
 10
659.888906
 20
910.310688
 30
0.0
 11
669.888906
 21
910.310688
 31
0.0
  0
LINE
  5
78C
100
AcDbEntity
  8
便座
  6
CONTINUOUS
 62
     6
100
AcDbLine
 10
670.888906
 20
910.888038
 30
0.0
 11
658.888906
 21
910.888038
 31
0.0
  0
LINE
  5
78D
100
AcDbEntity
  8
便座
  6
CONTINUOUS
 62
     6
100
AcDbLine
 10
659.888906
 20
910.310688
 30
0.0
 11
658.888906
 21
910.888038
 31
0.0
  0
LINE
  5
78E
100
AcDbEntity
  8
便座
  6
CONTINUOUS
 62
     6
100
AcDbLine
 10
669.888906
 20
910.310688
 30
0.0
 11
670.888906
 21
910.888038
 31
0.0
  0
LINE
  5
78F
100
AcDbEntity
  8
便座
  6
CONTINUOUS
 62
     6
100
AcDbLine
 10
658.888906
 20
910.888038
 30
0.0
 11
658.888906
 21
918.423918
 31
0.0
  0
LINE
  5
790
100
AcDbEntity
  8
便座
  6
CONTINUOUS
 62
     6
100
AcDbLine
 10
659.888906
 20
909.310688
 30
0.0
 11
659.888906
 21
918.423918
 31
0.0
  0
LINE
  5
791
100
AcDbEntity
  8
便座
  6
CONTINUOUS
 62
     6
100
AcDbLine
 10
669.888906
 20
918.423918
 30
0.0
 11
669.888906
 21
909.310688
 31
0.0
  0
LINE
  5
792
100
AcDbEntity
  8
便座
  6
CONTINUOUS
 62
     6
100
AcDbLine
 10
670.888906
 20
918.423918
 30
0.0
 11
670.888906
 21
910.888038
 31
0.0
  0
LINE
  5
793
100
AcDbEntity
  8
便座
  6
CONTINUOUS
 62
     6
100
AcDbLine
 10
658.888906
 20
941.923918
 30
0.0
 11
664.888906
 21
941.923918
 31
0.0
  0
ARC
  5
794
100
AcDbEntity
  8
便座
  6
CONTINUOUS
 62
     6
100
AcDbCircle
 10
664.888906
 20
930.923918
 30
0.0
 40
12.5
100
AcDbArc
 50
0.0
 51
59.317495
  0
ARC
  5
795
100
AcDbEntity
  8
便座
  6
CONTINUOUS
 62
     6
100
AcDbCircle
 10
1809.0324
 20
1046.810688
 30
0.0
 40
9.000224
100
AcDbArc
 50
202.8852
 51
250.808121
  0
ARC
  5
796
100
AcDbEntity
  8
便座
  6
CONTINUOUS
 62
     6
100
AcDbCircle
 10
1809.0324
 20
1046.810688
 30
0.0
 40
9.001232
100
AcDbArc
 50
289.191818
 51
337.117509
  0
LINE
  5
797
100
AcDbEntity
  8
便座
  6
CONTINUOUS
 62
     6
100
AcDbLine
 10
1847.526052
 20
1007.311176
 30
0.0
 11
1847.526052
 21
1017.311176
 31
0.0
  0
LINE
  5
798
100
AcDbEntity
  8
便座
  6
CONTINUOUS
 62
     6
100
AcDbLine
 10
1831.000173
 20
1007.311176
 30
0.0
 11
1831.000173
 21
1017.311176
 31
0.0
  0
ARC
  5
799
100
AcDbEntity
  8
便座
  6
CONTINUOUS
 62
     6
100
AcDbCircle
 10
1827.999685
 20
1007.311176
 30
0.0
 40
3.000488
100
AcDbArc
 50
270.000031
 51
0.0
  0
ARC
  5
79A
100
AcDbEntity
  8
便座
  6
CONTINUOUS
 62
     6
100
AcDbCircle
 10
1844.525564
 20
1007.311176
 30
0.0
 40
3.000488
100
AcDbArc
 50
270.000031
 51
0.0
  0
ARC
  5
79B
100
AcDbEntity
  8
便座
  6
CONTINUOUS
 62
     6
100
AcDbCircle
 10
1684.034841
 20
3118.194813
 30
0.0
 40
2110.88562
100
AcDbArc
 50
267.302094
 51
272.697845
  0
LINE
  5
79C
100
AcDbEntity
  8
便座
  6
CONTINUOUS
 62
     6
100
AcDbLine
 10
1783.39031
 20
1009.650044
 30
0.0
 11
1783.39031
 21
1017.311176
 31
0.0
  0
LINE
  5
79D
100
AcDbEntity
  8
便座
  6
CONTINUOUS
 62
     6
100
AcDbLine
 10
1766.031912
 20
1004.310688
 30
0.0
 11
1766.031912
 21
1008.905415
 31
0.0
  0
LINE
  5
79E
100
AcDbEntity
  8
便座
  6
CONTINUOUS
 62
     6
100
AcDbLine
 10
1736.031912
 20
1004.310688
 30
0.0
 11
1736.031912
 21
1007.950825
 31
0.0
  0
LINE
  5
79F
100
AcDbEntity
  8
便座
  6
CONTINUOUS
 62
     6
100
AcDbLine
 10
1632.032888
 20
1004.310688
 30
0.0
 11
1632.032888
 21
1007.950825
 31
0.0
  0
LINE
  5
7A0
100
AcDbEntity
  8
便座
  6
CONTINUOUS
 62
     6
100
AcDbLine
 10
1602.032888
 20
1004.310688
 30
0.0
 11
1602.032888
 21
1008.905415
 31
0.0
  0
LINE
  5
7A1
100
AcDbEntity
  8
便座
  6
CONTINUOUS
 62
     6
100
AcDbLine
 10
1584.67449
 20
1007.311176
 30
0.0
 11
1584.67449
 21
1017.311176
 31
0.0
  0
ARC
  5
7A2
100
AcDbEntity
  8
便座
  6
CONTINUOUS
 62
     6
100
AcDbCircle
 10
1581.676443
 20
1007.311176
 30
0.0
 40
3.000488
100
AcDbArc
 50
270.000031
 51
0.0
  0
LINE
  5
7A3
100
AcDbEntity
  8
便座
  6
CONTINUOUS
 62
     6
100
AcDbLine
 10
1537.069509
 20
1009.310688
 30
0.0
 11
1537.069509
 21
1017.311176
 31
0.0
  0
LINE
  5
7A4
100
AcDbEntity
  8
便座
  6
CONTINUOUS
 62
     6
100
AcDbLine
 10
1520.54363
 20
1009.310688
 30
0.0
 11
1520.54363
 21
1017.311176
 31
0.0
  0
ARC
  5
7A5
100
AcDbEntity
  8
便座
  6
CONTINUOUS
 62
     6
100
AcDbCircle
 10
1523.541677
 20
1007.311176
 30
0.0
 40
3.000488
100
AcDbArc
 50
180.0
 51
270.0
  0
LINE
  5
7A6
100
AcDbEntity
  8
便座
  6
CONTINUOUS
 62
     6
100
AcDbLine
 10
1537.069509
 20
1009.310688
 30
0.0
 11
1537.069509
 21
1007.311176
 31
0.0
  0
ARC
  5
7A7
100
AcDbEntity
  8
便座
  6
CONTINUOUS
 62
     6
100
AcDbCircle
 10
1786.388357
 20
1007.311176
 30
0.0
 40
3.000488
100
AcDbArc
 50
180.0
 51
270.0
  0
LINE
  5
7A8
100
AcDbEntity
  8
便座
  6
CONTINUOUS
 62
     6
100
AcDbLine
 10
1783.39031
 20
1009.650044
 30
0.0
 11
1783.39031
 21
1007.311176
 31
0.0
  0
LINE
  5
7A9
100
AcDbEntity
  8
便座
  6
CONTINUOUS
 62
     6
100
AcDbLine
 10
1520.54363
 20
1009.310688
 30
0.0
 11
1520.54363
 21
1007.311176
 31
0.0
  0
LINE
  5
7AA
100
AcDbEntity
  8
便座
  6
CONTINUOUS
 62
     6
100
AcDbLine
 10
1847.526052
 20
1009.310688
 30
0.0
 11
1783.39031
 21
1009.310688
 31
0.0
  0
LINE
  5
7AB
100
AcDbEntity
  8
便座
  6
CONTINUOUS
 62
     6
100
AcDbLine
 10
1856.651717
 20
1038.309712
 30
0.0
 11
1511.154294
 21
1038.309712
 31
0.0
  0
LINE
  5
7AC
100
AcDbEntity
  8
便座
  6
CONTINUOUS
 62
     6
100
AcDbLine
 10
1520.54363
 20
1009.310688
 30
0.0
 11
1584.67449
 21
1009.310688
 31
0.0
  0
ARC
  5
7AD
100
AcDbEntity
  8
便座
  6
CONTINUOUS
 62
     6
100
AcDbCircle
 10
1683.903005
 20
-229.689373
 30
0.0
 40
1300.0
100
AcDbArc
 50
85.070152
 51
94.929848
  0
ARC
  5
7AE
100
AcDbEntity
  8
便座
  6
CONTINUOUS
 62
     6
100
AcDbCircle
 10
1769.838964
 20
766.61129
 30
0.0
 40
300.0
100
AcDbArc
 50
74.738257
 51
85.070152
  0
ARC
  5
7AF
100
AcDbEntity
  8
便座
  6
CONTINUOUS
 62
     6
100
AcDbCircle
 10
1597.967046
 20
766.61129
 30
0.0
 40
300.0
100
AcDbArc
 50
94.929848
 51
105.261743
  0
ARC
  5
7B0
100
AcDbEntity
  8
便座
  6
CONTINUOUS
 62
     6
100
AcDbCircle
 10
1536.632676
 20
1033.157514
 30
0.0
 40
30.0
100
AcDbArc
 50
138.599147
 51
160.218317
  0
ARC
  5
7B1
100
AcDbEntity
  8
便座
  6
CONTINUOUS
 62
     6
100
AcDbCircle
 10
1831.173335
 20
1033.157514
 30
0.0
 40
30.0
100
AcDbArc
 50
19.781683
 51
41.400853
  0
LINE
  5
7B2
100
AcDbEntity
  8
便座
  6
CONTINUOUS
 62
     6
100
AcDbLine
 10
1521.403005
 20
1055.310627
 30
0.0
 11
1846.403005
 21
1055.310627
 31
0.0
  0
ARC
  5
7B3
100
AcDbEntity
  8
便座
  6
CONTINUOUS
 62
     6
100
AcDbCircle
 10
1521.630651
 20
1046.383974
 30
0.0
 40
10.0
100
AcDbArc
 50
105.261743
 51
138.599147
  0
ARC
  5
7B4
100
AcDbEntity
  8
便座
  6
CONTINUOUS
 62
     6
100
AcDbCircle
 10
1846.17536
 20
1046.383974
 30
0.0
 40
10.0
100
AcDbArc
 50
41.400853
 51
74.738257
  0
ARC
  5
7B5
100
AcDbEntity
  8
便座
  6
CONTINUOUS
 62
     6
100
AcDbCircle
 10
1683.903005
 20
748.310627
 30
0.0
 40
300.0
100
AcDbArc
 50
80.931278
 51
99.068722
  0
LINE
  5
7B6
100
AcDbEntity
  8
便座
  6
CONTINUOUS
 62
     6
100
AcDbLine
 10
1508.403005
 20
1043.310627
 30
0.0
 11
1620.855404
 21
1043.310627
 31
0.0
  0
LINE
  5
7B7
100
AcDbEntity
  8
便座
  6
CONTINUOUS
 62
     6
100
AcDbLine
 10
1746.950606
 20
1043.310627
 30
0.0
 11
1859.403005
 21
1043.310627
 31
0.0
  0
LINE
  5
7B8
100
AcDbEntity
  8
便座
  6
CONTINUOUS
 62
     6
100
AcDbLine
 10
1653.153005
 20
1038.309712
 30
0.0
 11
1653.153005
 21
1046.730528
 31
0.0
  0
LINE
  5
7B9
100
AcDbEntity
  8
便座
  6
CONTINUOUS
 62
     6
100
AcDbLine
 10
1714.653005
 20
1038.309712
 30
0.0
 11
1714.653005
 21
1046.730528
 31
0.0
  0
ARC
  5
7BA
100
AcDbEntity
  8
便座
  6
CONTINUOUS
 62
     6
100
AcDbCircle
 10
1620.855404
 20
1143.310627
 30
0.0
 40
100.0
100
AcDbArc
 50
270.0
 51
279.068722
  0
ARC
  5
7BB
100
AcDbEntity
  8
便座
  6
CONTINUOUS
 62
     6
100
AcDbCircle
 10
1746.950606
 20
1143.310627
 30
0.0
 40
100.0
100
AcDbArc
 50
260.931278
 51
270.0
  0
ARC
  5
7BC
100
AcDbEntity
  8
便座
  6
CONTINUOUS
 62
     6
100
AcDbCircle
 10
1558.773611
 20
1046.810688
 30
0.0
 40
9.000224
100
AcDbArc
 50
289.191879
 51
337.1148
  0
ARC
  5
7BD
100
AcDbEntity
  8
便座
  6
CONTINUOUS
 62
     6
100
AcDbCircle
 10
1558.773611
 20
1046.810688
 30
0.0
 40
9.001232
100
AcDbArc
 50
202.882491
 51
250.808182
  0
ARC
  5
7BE
100
AcDbEntity
  8
便座
  6
CONTINUOUS
 62
     6
100
AcDbCircle
 10
1539.806326
 20
1007.311176
 30
0.0
 40
3.000488
100
AcDbArc
 50
180.0
 51
269.999969
  0
ARC
  5
7BF
100
AcDbEntity
  8
便座
  6
CONTINUOUS
 62
     6
100
AcDbCircle
 10
1535.403005
 20
1017.309712
 30
0.0
 40
35.0
100
AcDbArc
 50
150.0
 51
179.997602
  0
ARC
  5
7C0
100
AcDbEntity
  8
便座
  6
CONTINUOUS
 62
     6
100
AcDbCircle
 10
1832.403005
 20
1017.309712
 30
0.0
 40
35.0
100
AcDbArc
 50
0.002398
 51
30.0
  0
LINE
  5
7C1
100
AcDbEntity
  8
便座
  6
CONTINUOUS
 62
     6
100
AcDbLine
 10
1500.403005
 20
1017.311176
 30
0.0
 11
1867.403005
 21
1017.311176
 31
0.0
  0
ARC
  5
7C2
100
AcDbEntity
  8
便座
  6
CONTINUOUS
 62
     6
100
AcDbCircle
 10
1856.651717
 20
1031.309712
 30
0.0
 40
7.0
100
AcDbArc
 50
30.0
 51
90.0
  0
ARC
  5
7C3
100
AcDbEntity
  8
便座
  6
CONTINUOUS
 62
     6
100
AcDbCircle
 10
1511.154294
 20
1031.309712
 30
0.0
 40
7.0
100
AcDbArc
 50
90.0
 51
150.0
  0
LINE
  5
7C4
100
AcDbEntity
  8
紙巻器
  6
CONTINUOUS
 62
     6
100
AcDbLine
 10
1102.389818
 20
2717.8102
 30
0.0
 11
1227.389818
 21
2717.8102
 31
0.0
  0
LINE
  5
7C5
100
AcDbEntity
  8
紙巻器
  6
CONTINUOUS
 62
     6
100
AcDbLine
 10
1227.389818
 20
2816.311176
 30
0.0
 11
1102.389818
 21
2816.311176
 31
0.0
  0
LINE
  5
7C6
100
AcDbEntity
  8
紙巻器
  6
CONTINUOUS
 62
     6
100
AcDbLine
 10
1100.388906
 20
2819.310688
 30
0.0
 11
1229.388906
 21
2819.310688
 31
0.0
  0
LINE
  5
7C7
100
AcDbEntity
  8
紙巻器
  6
CONTINUOUS
 62
     6
100
AcDbLine
 10
1102.389818
 20
2816.311176
 30
0.0
 11
1102.389818
 21
2717.8102
 31
0.0
  0
ARC
  5
7C8
100
AcDbEntity
  8
紙巻器
  6
CONTINUOUS
 62
     6
100
AcDbCircle
 10
1096.47203
 20
2732.310688
 30
0.0
 40
18.0
100
AcDbArc
 50
202.88538
 51
270.0
  0
LINE
  5
7C9
100
AcDbEntity
  8
紙巻器
  6
CONTINUOUS
 62
     6
100
AcDbLine
 10
1099.888906
 20
2714.310688
 30
0.0
 11
1100.388906
 21
2819.310688
 31
0.0
  0
LINE
  5
7CA
100
AcDbEntity
  8
紙巻器
  6
CONTINUOUS
 62
     6
100
AcDbLine
 10
1096.47203
 20
2714.310688
 30
0.0
 11
1099.888906
 21
2714.310688
 31
0.0
  0
ARC
  5
7CB
100
AcDbEntity
  8
紙巻器
  6
CONTINUOUS
 62
     6
100
AcDbCircle
 10
1125.890794
 20
2844.018696
 30
0.0
 40
8.001702
100
AcDbArc
 50
138.587129
 51
180.0
  0
LINE
  5
7CC
100
AcDbEntity
  8
紙巻器
  6
CONTINUOUS
 62
     6
100
AcDbLine
 10
1117.890306
 20
2844.018696
 30
0.0
 11
1117.890306
 21
2828.310688
 31
0.0
  0
LINE
  5
7CD
100
AcDbEntity
  8
紙巻器
  6
CONTINUOUS
 62
     6
100
AcDbLine
 10
1079.061461
 20
2828.310688
 30
0.0
 11
1079.061461
 21
2756.810688
 31
0.0
  0
ARC
  5
7CE
100
AcDbEntity
  8
紙巻器
  6
CONTINUOUS
 62
     6
100
AcDbCircle
 10
1679.061461
 20
2756.810688
 30
0.0
 40
600.0
100
AcDbArc
 50
180.0
 51
183.009412
  0
LINE
  5
7CF
100
AcDbEntity
  8
紙巻器
  6
CONTINUOUS
 62
     6
100
AcDbLine
 10
1166.889329
 20
2828.310688
 30
0.0
 11
1166.889329
 21
2844.018696
 31
0.0
  0
LINE
  5
7D0
100
AcDbEntity
  8
紙巻器
  6
CONTINUOUS
 62
     6
100
AcDbLine
 10
1162.890306
 20
2844.018696
 30
0.0
 11
1162.890306
 21
2828.310688
 31
0.0
  0
LINE
  5
7D1
100
AcDbEntity
  8
紙巻器
  6
CONTINUOUS
 62
     6
100
AcDbLine
 10
1121.889329
 20
2828.310688
 30
0.0
 11
1121.889329
 21
2844.018696
 31
0.0
  0
ARC
  5
7D2
100
AcDbEntity
  8
紙巻器
  6
CONTINUOUS
 62
     6
100
AcDbCircle
 10
1113.888841
 20
2844.018696
 30
0.0
 40
8.000488
100
AcDbArc
 50
0.0
 51
41.412905
  0
ARC
  5
7D3
100
AcDbEntity
  8
紙巻器
  6
CONTINUOUS
 62
     6
100
AcDbCircle
 10
1158.888841
 20
2844.018696
 30
0.0
 40
8.000488
100
AcDbArc
 50
0.0
 51
41.412882
  0
ARC
  5
7D4
100
AcDbEntity
  8
紙巻器
  6
CONTINUOUS
 62
     6
100
AcDbCircle
 10
1170.890794
 20
2844.018696
 30
0.0
 40
8.001704
100
AcDbArc
 50
138.587144
 51
180.0
  0
LINE
  5
7D5
100
AcDbEntity
  8
紙巻器
  6
CONTINUOUS
 62
     6
100
AcDbLine
 10
1227.389818
 20
2717.8102
 30
0.0
 11
1227.389818
 21
2816.311176
 31
0.0
  0
ARC
  5
7D6
100
AcDbEntity
  8
紙巻器
  6
CONTINUOUS
 62
     6
100
AcDbCircle
 10
1233.305782
 20
2732.310688
 30
0.0
 40
18.0
100
AcDbArc
 50
270.0
 51
337.11462
  0
LINE
  5
7D7
100
AcDbEntity
  8
紙巻器
  6
CONTINUOUS
 62
     6
100
AcDbLine
 10
1229.388906
 20
2819.310688
 30
0.0
 11
1229.888906
 21
2714.310688
 31
0.0
  0
LINE
  5
7D8
100
AcDbEntity
  8
紙巻器
  6
CONTINUOUS
 62
     6
100
AcDbLine
 10
1229.888906
 20
2714.310688
 30
0.0
 11
1233.305782
 21
2714.310688
 31
0.0
  0
LINE
  5
7D9
100
AcDbEntity
  8
紙巻器
  6
CONTINUOUS
 62
     6
100
AcDbLine
 10
1211.889329
 20
2828.310688
 30
0.0
 11
1211.889329
 21
2844.018696
 31
0.0
  0
LINE
  5
7DA
100
AcDbEntity
  8
紙巻器
  6
CONTINUOUS
 62
     6
100
AcDbLine
 10
1207.890306
 20
2844.018696
 30
0.0
 11
1207.890306
 21
2828.310688
 31
0.0
  0
LINE
  5
7DB
100
AcDbEntity
  8
紙巻器
  6
CONTINUOUS
 62
     6
100
AcDbLine
 10
1250.716352
 20
2756.810688
 30
0.0
 11
1250.716352
 21
2828.310688
 31
0.0
  0
ARC
  5
7DC
100
AcDbEntity
  8
紙巻器
  6
CONTINUOUS
 62
     6
100
AcDbCircle
 10
650.716352
 20
2756.810688
 30
0.0
 40
600.0
100
AcDbArc
 50
356.990588
 51
0.0
  0
ARC
  5
7DD
100
AcDbEntity
  8
紙巻器
  6
CONTINUOUS
 62
     6
100
AcDbCircle
 10
1203.888841
 20
2844.018696
 30
0.0
 40
8.000488
100
AcDbArc
 50
0.0
 51
41.412905
  0
ARC
  5
7DE
100
AcDbEntity
  8
紙巻器
  6
CONTINUOUS
 62
     6
100
AcDbCircle
 10
1215.890794
 20
2844.018696
 30
0.0
 40
8.001702
100
AcDbArc
 50
138.587129
 51
180.0
  0
LINE
  5
7DF
100
AcDbEntity
  8
紙巻器
  6
CONTINUOUS
 62
     6
100
AcDbLine
 10
1059.061461
 20
1364.310688
 30
0.0
 11
1148.888906
 21
1364.310688
 31
0.0
  0
LINE
  5
7E0
100
AcDbEntity
  8
紙巻器
  6
CONTINUOUS
 62
     6
100
AcDbLine
 10
1164.888906
 20
1380.310688
 30
0.0
 11
1164.888906
 21
1426.810688
 31
0.0
  0
LINE
  5
7E1
100
AcDbEntity
  8
紙巻器
  6
CONTINUOUS
 62
     6
100
AcDbLine
 10
1102.388906
 20
1382.31069
 30
0.0
 11
1227.388906
 21
1382.31069
 31
0.0
  0
LINE
  5
7E2
100
AcDbEntity
  8
紙巻器
  6
CONTINUOUS
 62
     6
100
AcDbLine
 10
1187.888906
 20
1292.547506
 30
0.0
 11
1222.388906
 21
1292.547506
 31
0.0
  0
LINE
  5
7E3
100
AcDbEntity
  8
紙巻器
  6
CONTINUOUS
 62
     6
100
AcDbLine
 10
1096.47203
 20
1406.810688
 30
0.0
 11
1233.305782
 21
1406.810688
 31
0.0
  0
LINE
  5
7E4
100
AcDbEntity
  8
紙巻器
  6
CONTINUOUS
 62
     6
100
AcDbLine
 10
1107.388906
 20
1292.547506
 30
0.0
 11
1107.388906
 21
1329.929098
 31
0.0
  0
ARC
  5
7E5
100
AcDbEntity
  8
紙巻器
  6
CONTINUOUS
 62
     6
100
AcDbCircle
 10
1096.47203
 20
1339.810688
 30
0.0
 40
18.0
100
AcDbArc
 50
202.88538
 51
270.0
  0
LINE
  5
7E6
100
AcDbEntity
  8
紙巻器
  6
CONTINUOUS
 62
     6
100
AcDbLine
 10
1099.888906
 20
1321.810688
 30
0.0
 11
1099.888906
 21
1406.810688
 31
0.0
  0
LINE
  5
7E7
100
AcDbEntity
  8
紙巻器
  6
CONTINUOUS
 62
     6
100
AcDbLine
 10
1107.388906
 20
1292.547506
 30
0.0
 11
1141.888906
 21
1292.547506
 31
0.0
  0
LINE
  5
7E8
100
AcDbEntity
  8
紙巻器
  6
CONTINUOUS
 62
     6
100
AcDbLine
 10
1096.47203
 20
1321.810688
 30
0.0
 11
1107.388906
 21
1321.810688
 31
0.0
  0
LINE
  5
7E9
100
AcDbEntity
  8
紙巻器
  6
CONTINUOUS
 62
     6
100
AcDbLine
 10
1151.888906
 20
1292.547506
 30
0.0
 11
1159.888906
 21
1292.547506
 31
0.0
  0
LINE
  5
7EA
100
AcDbEntity
  8
紙巻器
  6
CONTINUOUS
 62
     6
100
AcDbLine
 10
1169.888906
 20
1292.547506
 30
0.0
 11
1177.888906
 21
1292.547506
 31
0.0
  0
LINE
  5
7EB
100
AcDbEntity
  8
紙巻器
  6
CONTINUOUS
 62
     6
100
AcDbLine
 10
1102.388906
 20
1382.31069
 30
0.0
 11
1102.388906
 21
1406.810688
 31
0.0
  0
ARC
  5
7EC
100
AcDbEntity
  8
紙巻器
  6
CONTINUOUS
 62
     6
100
AcDbCircle
 10
1679.061461
 20
1364.310688
 30
0.0
 40
600.0
100
AcDbArc
 50
176.990588
 51
183.009412
  0
LINE
  5
7ED
100
AcDbEntity
  8
紙巻器
  6
CONTINUOUS
 62
     6
100
AcDbLine
 10
1107.388906
 20
1359.810688
 30
0.0
 11
1099.888906
 21
1359.810688
 31
0.0
  0
ARC
  5
7EE
100
AcDbEntity
  8
紙巻器
  6
CONTINUOUS
 62
     6
100
AcDbCircle
 10
1101.304674
 20
1354.310688
 30
0.0
 40
10.0
100
AcDbArc
 50
270.0
 51
288.004193
  0
LINE
  5
7EF
100
AcDbEntity
  8
紙巻器
  6
CONTINUOUS
 62
     6
100
AcDbLine
 10
1104.395494
 20
1344.800438
 30
0.0
 11
1107.388906
 21
1345.77309
 31
0.0
  0
LINE
  5
7F0
100
AcDbEntity
  8
紙巻器
  6
CONTINUOUS
 62
     6
100
AcDbLine
 10
1107.388906
 20
1375.929098
 30
0.0
 11
1107.388906
 21
1382.31069
 31
0.0
  0
LINE
  5
7F1
100
AcDbEntity
  8
紙巻器
  6
CONTINUOUS
 62
     6
100
AcDbLine
 10
1107.388906
 20
1357.929098
 30
0.0
 11
1107.388906
 21
1365.929098
 31
0.0
  0
LINE
  5
7F2
100
AcDbEntity
  8
紙巻器
  6
CONTINUOUS
 62
     6
100
AcDbLine
 10
1107.388906
 20
1339.929098
 30
0.0
 11
1107.388906
 21
1347.929098
 31
0.0
  0
ARC
  5
7F3
100
AcDbEntity
  8
紙巻器
  6
CONTINUOUS
 62
     6
100
AcDbCircle
 10
1096.47203
 20
1388.810688
 30
0.0
 40
18.0
100
AcDbArc
 50
90.0
 51
157.11462
  0
LINE
  5
7F4
100
AcDbEntity
  8
紙巻器
  6
CONTINUOUS
 62
     6
100
AcDbLine
 10
1164.888906
 20
1360.310688
 30
0.0
 11
1164.888906
 21
1368.310688
 31
0.0
  0
LINE
  5
7F5
100
AcDbEntity
  8
紙巻器
  6
CONTINUOUS
 62
     6
100
AcDbLine
 10
1160.888906
 20
1364.310688
 30
0.0
 11
1168.888906
 21
1364.310688
 31
0.0
  0
LINE
  5
7F6
100
AcDbEntity
  8
紙巻器
  6
CONTINUOUS
 62
     6
100
AcDbLine
 10
1222.388906
 20
1292.547506
 30
0.0
 11
1222.388906
 21
1329.929098
 31
0.0
  0
ARC
  5
7F7
100
AcDbEntity
  8
紙巻器
  6
CONTINUOUS
 62
     6
100
AcDbCircle
 10
1233.305782
 20
1339.810688
 30
0.0
 40
18.0
100
AcDbArc
 50
270.0
 51
337.11462
  0
LINE
  5
7F8
100
AcDbEntity
  8
紙巻器
  6
CONTINUOUS
 62
     6
100
AcDbLine
 10
1229.888906
 20
1321.810688
 30
0.0
 11
1229.888906
 21
1406.810688
 31
0.0
  0
LINE
  5
7F9
100
AcDbEntity
  8
紙巻器
  6
CONTINUOUS
 62
     6
100
AcDbLine
 10
1222.388906
 20
1321.810688
 30
0.0
 11
1233.305782
 21
1321.810688
 31
0.0
  0
ARC
  5
7FA
100
AcDbEntity
  8
紙巻器
  6
CONTINUOUS
 62
     6
100
AcDbCircle
 10
1233.305782
 20
1388.810688
 30
0.0
 40
18.0
100
AcDbArc
 50
22.88538
 51
90.0
  0
LINE
  5
7FB
100
AcDbEntity
  8
紙巻器
  6
CONTINUOUS
 62
     6
100
AcDbLine
 10
1227.388906
 20
1382.31069
 30
0.0
 11
1227.388906
 21
1406.810688
 31
0.0
  0
LINE
  5
7FC
100
AcDbEntity
  8
紙巻器
  6
CONTINUOUS
 62
     6
100
AcDbLine
 10
1222.388906
 20
1359.810688
 30
0.0
 11
1229.888906
 21
1359.810688
 31
0.0
  0
LINE
  5
7FD
100
AcDbEntity
  8
紙巻器
  6
CONTINUOUS
 62
     6
100
AcDbLine
 10
1222.388906
 20
1345.77309
 30
0.0
 11
1225.382318
 21
1344.800438
 31
0.0
  0
ARC
  5
7FE
100
AcDbEntity
  8
紙巻器
  6
CONTINUOUS
 62
     6
100
AcDbCircle
 10
1228.473138
 20
1354.310688
 30
0.0
 40
9.999998
100
AcDbArc
 50
251.995963
 51
270.0
  0
LINE
  5
7FF
100
AcDbEntity
  8
紙巻器
  6
CONTINUOUS
 62
     6
100
AcDbLine
 10
1228.473138
 20
1344.310688
 30
0.0
 11
1229.888906
 21
1344.310688
 31
0.0
  0
LINE
  5
800
100
AcDbEntity
  8
紙巻器
  6
CONTINUOUS
 62
     6
100
AcDbLine
 10
1222.388906
 20
1375.929098
 30
0.0
 11
1222.388906
 21
1382.31069
 31
0.0
  0
LINE
  5
801
100
AcDbEntity
  8
紙巻器
  6
CONTINUOUS
 62
     6
100
AcDbLine
 10
1222.388906
 20
1357.929098
 30
0.0
 11
1222.388906
 21
1365.929098
 31
0.0
  0
LINE
  5
802
100
AcDbEntity
  8
紙巻器
  6
CONTINUOUS
 62
     6
100
AcDbLine
 10
1222.388906
 20
1339.929098
 30
0.0
 11
1222.388906
 21
1347.929098
 31
0.0
  0
ARC
  5
803
100
AcDbEntity
  8
紙巻器
  6
CONTINUOUS
 62
     6
100
AcDbCircle
 10
650.716352
 20
1364.310688
 30
0.0
 40
600.0
100
AcDbArc
 50
356.990588
 51
3.009412
  0
LINE
  5
804
100
AcDbEntity
  8
紙巻器
  6
CONTINUOUS
 62
     6
100
AcDbLine
 10
1164.888906
 20
1234.0
 30
0.0
 11
1164.888906
 21
1348.310688
 31
0.0
  0
LINE
  5
805
100
AcDbEntity
  8
紙巻器
  6
CONTINUOUS
 62
     6
100
AcDbLine
 10
1287.0
 20
1364.310688
 30
0.0
 11
1180.888906
 21
1364.310688
 31
0.0
  0
CIRCLE
  5
806
100
AcDbEntity
  8
紙巻器
  6
EXLTYPE2
 62
     6
100
AcDbCircle
 10
1119.888906
 20
1388.810688
 30
0.0
 40
4.0
  0
CIRCLE
  5
807
100
AcDbEntity
  8
紙巻器
  6
EXLTYPE2
 62
     6
100
AcDbCircle
 10
1209.888906
 20
1388.810688
 30
0.0
 40
4.0
  0
CIRCLE
  5
808
100
AcDbEntity
  8
紙巻器
  6
EXLTYPE2
 62
     6
100
AcDbCircle
 10
1164.888906
 20
1338.810688
 30
0.0
 40
4.0
  0
LINE
  5
809
100
AcDbEntity
  8
給水管
  6
CONTINUOUS
 62
     6
100
AcDbLine
 10
448.388906
 20
787.442907
 30
0.0
 11
448.388906
 21
729.670957
 31
0.0
  0
LINE
  5
80A
100
AcDbEntity
  8
給水管
  6
CONTINUOUS
 62
     6
100
AcDbLine
 10
461.388906
 20
788.086275
 30
0.0
 11
461.388906
 21
729.670957
 31
0.0
  0
TEXT
  5
80B
100
AcDbEntity
  8
ﾃｷｽﾄ
  6
CONTINUOUS
 62
     2
100
AcDbText
 10
1930.279297
 20
238.348846
 30
0.0
 40
30.0
  1
１０
 41
0.826
  7
EXCADSTD
 72
     5
 11
1984.358698
 21
238.348846
 31
0.0
100
AcDbText
  0
TEXT
  5
80C
100
AcDbEntity
  8
ﾃｷｽﾄ
  6
CONTINUOUS
 62
     2
100
AcDbText
 10
1896.0
 20
316.5
 30
0.0
 40
35.0
  1
１
 41
0.785714
  7
EXCADVERT
 72
     3
 11
1896.0
 21
281.5
 31
0.0
100
AcDbText
  0
TEXT
  5
80D
100
AcDbEntity
  8
ﾃｷｽﾄ
  6
CONTINUOUS
 62
     2
100
AcDbText
 10
805.610718
 20
272.931519
 30
0.0
 40
55.0
  1
洋風タンク密結洗落し便器セット
 41
0.468364
  7
EXCADSTD
 72
     5
 11
1265.610718
 21
272.931519
 31
0.0
100
AcDbText
  0
TEXT
  5
80E
100
AcDbEntity
  8
ﾃｷｽﾄ
  6
CONTINUOUS
 62
     2
100
AcDbText
 10
1442.795166
 20
270.931549
 30
0.0
 40
57.5
  1
ＳＣ７３Ｓ－ＡＴ
 41
0.588
  7
EXCADSTD
 72
     5
 11
1764.795174
 21
270.931549
 31
0.0
100
AcDbText
  0
TEXT
  5
80F
100
AcDbEntity
  8
ﾃｷｽﾄ
  6
CONTINUOUS
 62
     2
100
AcDbText
 10
749.502329
 20
2782.761029
 30
0.0
 40
40.0
  1
Ｗ．Ｌ
 41
0.833
  7
EXCADSTD
 72
     5
 11
868.502329
 21
2782.761029
 31
0.0
100
AcDbText
  0
TEXT
  5
810
100
AcDbEntity
  8
ﾃｷｽﾄ
  6
CONTINUOUS
 62
     2
100
AcDbText
 10
1011.649044
 20
657.66358
 30
0.0
 40
40.0
  1
Ｆ．Ｌ
 41
0.833
  7
EXCADSTD
 72
     5
 11
1130.649044
 21
657.66358
 31
0.0
100
AcDbText
  0
TEXT
  5
811
100
AcDbEntity
  8
ﾃｷｽﾄ
  6
CONTINUOUS
 62
     2
100
AcDbText
 10
807.61084
 20
218.271332
 30
0.0
 40
55.0
  1
防露型密結ロータンクセット
 41
0.46993
  7
EXCADSTD
 72
     5
 11
1207.61084
 21
218.271332
 31
0.0
100
AcDbText
  0
TEXT
  5
812
100
AcDbEntity
  8
ﾃｷｽﾄ
  6
CONTINUOUS
 62
     2
100
AcDbText
 10
400.22634
 20
1721.943855
 30
0.0
 40
40.0
  1
Ｗ．Ｌ
 50
90.0
 41
0.833
  7
EXCADSTD
 72
     5
 11
400.22634
 21
1840.943855
 31
0.0
100
AcDbText
  0
TEXT
  5
813
100
AcDbEntity
  8
ﾃｷｽﾄ
  6
CONTINUOUS
 62
     2
100
AcDbText
 10
1443.085693
 20
219.916992
 30
0.0
 40
50.0
  1
ＳＴ７８ＦＵ－０ＡＥ０Ａ
 41
0.518
  7
EXCADSTD
 72
     5
 11
1813.085693
 21
219.916992
 31
0.0
100
AcDbText
  0
LINE
  5
814
100
AcDbEntity
  8
寸法
  6
CONTINUOUS
 62
     3
100
AcDbLine
 10
369.887962
 20
2370.5
 30
0.0
 11
369.887962
 21
2069.0
 31
0.0
  0
DIMENSION
  5
81E
100
AcDbEntity
  8
寸法
  6
CONTINUOUS
 62
     3
100
AcDbDimension
  2
*D16
 10
1188.0
 20
654.310688
 30
0.0
 11
1162.5
 21
829.310688
 31
0.0
 70
   160
  1
350
  3
STANDARD
100
AcDbAlignedDimension
 13
1212.44466
 23
1004.310688
 33
0.0
 14
1287.885181
 24
654.310688
 34
0.0
 50
90.0
100
AcDbRotatedDimension
1001
ACAD
1000
DSTYLE
1002
{
1070
     6
1000
_EX_NORM
1070
     7
1000
_EX_NORM
1070
    41
1040
30.0
1070
    42
1040
0.0
1070
    44
1040
0.0
1070
    73
1070
     0
1070
    74
1070
     0
1070
    75
1070
     1
1070
    76
1070
     1
1070
    77
1070
     1
1070
    78
1070
     0
1070
   140
1040
40.0
1070
   147
1040
8.0
1070
   173
1070
     1
1070
   176
1070
     3
1070
   177
1070
     3
1070
   178
1070
     2
1070
   271
1070
     0
1070
   279
1070
     2
1070
   280
1070
     0
1070
   287
1070
     5
1070
   340
1005
182
1002
}
  0
LINE
  5
81F
100
AcDbEntity
  8
寸法
  6
CONTINUOUS
 62
     3
100
AcDbLine
 10
554.888906
 20
599.27602
 30
0.0
 11
554.888906
 21
535.860188
 31
0.0
  0
LINE
  5
820
100
AcDbEntity
  8
寸法
  6
CONTINUOUS
 62
     3
100
AcDbLine
 10
354.888906
 20
647.310688
 30
0.0
 11
354.888906
 21
554.0
 31
0.0
  0
DIMENSION
  5
82A
100
AcDbEntity
  8
寸法
  6
CONTINUOUS
 62
     3
100
AcDbDimension
  2
*D17
 10
1194.0
 20
2250.810688
 30
0.0
 11
1170.5
 21
2428.31023
 31
0.0
 70
   160
  1
355
  3
STANDARD
100
AcDbAlignedDimension
 13
1204.88985
 23
2605.809773
 33
0.0
 14
1204.88985
 24
2250.810688
 34
0.0
 50
90.0
100
AcDbRotatedDimension
1001
ACAD
1000
DSTYLE
1002
{
1070
     6
1000
_EX_NORM
1070
     7
1000
_EX_NORM
1070
    41
1040
35.0
1070
    42
1040
0.0
1070
    44
1040
0.0
1070
    73
1070
     0
1070
    74
1070
     0
1070
    75
1070
     1
1070
    76
1070
     1
1070
    77
1070
     1
1070
    78
1070
     0
1070
   140
1040
40.0
1070
   147
1040
3.5
1070
   173
1070
     1
1070
   176
1070
     3
1070
   177
1070
     3
1070
   178
1070
     2
1070
   271
1070
     0
1070
   279
1070
     2
1070
   280
1070
     0
1070
   287
1070
     5
1070
   340
1005
182
1002
}
  0
DIMENSION
  5
834
100
AcDbEntity
  8
寸法
  6
CONTINUOUS
 62
     3
100
AcDbDimension
  2
*D18
 10
1104.888906
 20
2152.0
 30
0.0
 11
884.888906
 21
2175.5
 31
0.0
 70
   160
  1
440
  3
STANDARD
100
AcDbAlignedDimension
 13
664.888906
 23
2136.326459
 33
0.0
 14
1104.888906
 24
2007.118544
 34
0.0
100
AcDbRotatedDimension
1001
ACAD
1000
DSTYLE
1002
{
1070
     6
1000
_EX_NORM
1070
     7
1000
_EX_NORM
1070
    41
1040
35.0
1070
    42
1040
0.0
1070
    44
1040
0.0
1070
    73
1070
     0
1070
    74
1070
     0
1070
    75
1070
     1
1070
    76
1070
     1
1070
    77
1070
     1
1070
    78
1070
     0
1070
   140
1040
40.0
1070
   147
1040
3.5
1070
   173
1070
     1
1070
   176
1070
     3
1070
   177
1070
     3
1070
   178
1070
     2
1070
   271
1070
     0
1070
   279
1070
     2
1070
   280
1070
     0
1070
   287
1070
     5
1070
   340
1005
182
1002
}
  0
DIMENSION
  5
83E
100
AcDbEntity
  8
寸法
  6
CONTINUOUS
 62
     3
100
AcDbDimension
  2
*D19
 10
1104.888906
 20
2089.0
 30
0.0
 11
737.388434
 21
2112.5
 31
0.0
 70
   160
  1
735
  3
STANDARD
100
AcDbAlignedDimension
 13
369.887962
 23
2073.648834
 33
0.0
 14
1104.888906
 24
2007.118544
 34
0.0
100
AcDbRotatedDimension
1001
ACAD
1000
DSTYLE
1002
{
1070
     6
1000
_EX_NORM
1070
     7
1000
_EX_NORM
1070
    41
1040
35.0
1070
    42
1040
0.0
1070
    44
1040
0.0
1070
    73
1070
     0
1070
    74
1070
     0
1070
    75
1070
     1
1070
    76
1070
     1
1070
    77
1070
     1
1070
    78
1070
     0
1070
   140
1040
40.0
1070
   147
1040
3.5
1070
   173
1070
     1
1070
   176
1070
     3
1070
   177
1070
     3
1070
   178
1070
     2
1070
   271
1070
     0
1070
   279
1070
     2
1070
   280
1070
     0
1070
   287
1070
     5
1070
   340
1005
182
1002
}
  0
DIMENSION
  5
848
100
AcDbEntity
  8
寸法
  6
CONTINUOUS
 62
     3
100
AcDbDimension
  2
*D20
 10
1104.888906
 20
2027.0
 30
0.0
 11
729.888906
 21
2050.5
 31
0.0
 70
   160
  1
750
  3
STANDARD
100
AcDbAlignedDimension
 13
354.888906
 23
2007.118544
 33
0.0
 14
1104.888906
 24
2007.118544
 34
0.0
100
AcDbRotatedDimension
1001
ACAD
1000
DSTYLE
1002
{
1070
     6
1000
_EX_NORM
1070
     7
1000
_EX_NORM
1070
    41
1040
35.0
1070
    42
1040
0.0
1070
    44
1040
0.0
1070
    73
1070
     0
1070
    74
1070
     0
1070
    75
1070
     1
1070
    76
1070
     1
1070
    77
1070
     1
1070
    78
1070
     0
1070
   140
1040
40.0
1070
   147
1040
3.5
1070
   173
1070
     1
1070
   176
1070
     3
1070
   177
1070
     3
1070
   178
1070
     2
1070
   271
1070
     0
1070
   279
1070
     2
1070
   280
1070
     0
1070
   287
1070
     5
1070
   340
1005
182
1002
}
  0
DIMENSION
  5
852
100
AcDbEntity
  8
寸法
  6
CONTINUOUS
 62
     3
100
AcDbDimension
  2
*D21
 10
1164.888906
 20
1254.0
 30
0.0
 11
759.888906
 21
1277.5
 31
0.0
 70
   160
  1
（810）
  3
STANDARD
100
AcDbAlignedDimension
 13
354.888906
 23
654.310688
 33
0.0
 14
1164.888906
 24
1243.310688
 34
0.0
100
AcDbRotatedDimension
1001
ACAD
1000
DSTYLE
1002
{
1070
     6
1000
_EX_NORM
1070
     7
1000
_EX_NORM
1070
    41
1040
35.0
1070
    42
1040
0.0
1070
    44
1040
0.0
1070
    73
1070
     0
1070
    74
1070
     0
1070
    75
1070
     1
1070
    76
1070
     1
1070
    77
1070
     1
1070
    78
1070
     0
1070
   140
1040
40.0
1070
   147
1040
3.5
1070
   173
1070
     1
1070
   176
1070
     3
1070
   177
1070
     3
1070
   178
1070
     2
1070
   271
1070
     0
1070
   279
1070
     2
1070
   280
1070
     0
1070
   287
1070
     5
1070
   340
1005
182
1002
}
  0
DIMENSION
  5
85C
100
AcDbEntity
  8
寸法
  6
CONTINUOUS
 62
     3
100
AcDbDimension
  2
*D22
 10
554.888906
 20
574.0
 30
0.0
 11
454.888906
 21
597.5
 31
0.0
 70
   160
  1
200
  3
STANDARD
100
AcDbAlignedDimension
 13
354.888906
 23
566.306158
 33
0.0
 14
554.888906
 24
566.306158
 34
0.0
100
AcDbRotatedDimension
1001
ACAD
1000
DSTYLE
1002
{
1070
     6
1000
_EX_NORM
1070
     7
1000
_EX_NORM
1070
    41
1040
35.0
1070
    42
1040
0.0
1070
    44
1040
0.0
1070
    73
1070
     0
1070
    74
1070
     0
1070
    75
1070
     1
1070
    76
1070
     1
1070
    77
1070
     1
1070
    78
1070
     0
1070
   140
1040
40.0
1070
   147
1040
3.5
1070
   173
1070
     1
1070
   176
1070
     3
1070
   177
1070
     3
1070
   178
1070
     2
1070
   271
1070
     0
1070
   279
1070
     2
1070
   280
1070
     0
1070
   287
1070
     5
1070
   340
1005
182
1002
}
  0
DIMENSION
  5
867
100
AcDbEntity
  8
寸法
  6
CONTINUOUS
 62
     3
100
AcDbDimension
  2
*D23
 10
694.889059
 20
574.0
 30
0.0
 11
640.888983
 21
598.5
 31
0.0
 70
   160
  1
140
  3
STANDARD
100
AcDbAlignedDimension
 13
554.888906
 23
566.306158
 33
0.0
 14
694.889059
 24
566.306158
 34
0.0
100
AcDbRotatedDimension
1001
ACAD
1000
DSTYLE
1002
{
1070
     6
1000
_EX_NORM
1070
     7
1000
_EX_NORM
1070
    41
1040
30.0
1070
    42
1040
0.0
1070
    44
1040
0.0
1070
    73
1070
     0
1070
    74
1070
     0
1070
    75
1070
     1
1070
    76
1070
     1
1070
    77
1070
     1
1070
    78
1070
     0
1070
   140
1040
40.0
1070
   147
1040
3.5
1070
   173
1070
     1
1070
   176
1070
     3
1070
   177
1070
     3
1070
   178
1070
     2
1070
   271
1070
     0
1070
   279
1070
     2
1070
   280
1070
     0
1070
   287
1070
     5
1070
   340
1005
866
1002
}
  0
DIMENSION
  5
871
100
AcDbEntity
  8
寸法
  6
CONTINUOUS
 62
     3
100
AcDbDimension
  2
*D24
 10
1267.0
 20
654.310688
 30
0.0
 11
1243.5
 21
1009.310688
 31
0.0
 70
   160
  1
（710）
  3
STANDARD
100
AcDbAlignedDimension
 13
1270.716352
 23
1364.310688
 33
0.0
 14
1283.0
 24
654.310688
 34
0.0
 50
90.0
100
AcDbRotatedDimension
1001
ACAD
1000
DSTYLE
1002
{
1070
     6
1000
_EX_NORM
1070
     7
1000
_EX_NORM
1070
    41
1040
30.0
1070
    42
1040
0.0
1070
    44
1040
0.0
1070
    73
1070
     0
1070
    74
1070
     0
1070
    75
1070
     1
1070
    76
1070
     1
1070
    77
1070
     1
1070
    78
1070
     0
1070
   140
1040
40.0
1070
   147
1040
3.5
1070
   173
1070
     1
1070
   176
1070
     3
1070
   177
1070
     3
1070
   178
1070
     2
1070
   271
1070
     0
1070
   279
1070
     2
1070
   280
1070
     0
1070
   287
1070
     5
1070
   340
1005
182
1002
}
  0
LINE
  5
872
100
AcDbEntity
  8
寸法
  6
CONTINUOUS
 62
     3
100
AcDbLine
 10
354.888906
 20
2428.310688
 30
0.0
 11
288.0
 21
2428.310688
 31
0.0
  0
LINE
  5
873
100
AcDbEntity
  8
寸法
  6
CONTINUOUS
 62
     3
100
AcDbLine
 10
337.887964
 20
2127.909156
 30
0.0
 11
288.0
 21
2127.909156
 31
0.0
  0
DIMENSION
  5
87D
100
AcDbEntity
  8
寸法
  6
CONTINUOUS
 62
     3
100
AcDbDimension
  2
*D25
 10
308.0
 20
2127.909156
 30
0.0
 11
284.5
 21
2278.109922
 31
0.0
 70
   160
  1
300
  3
STANDARD
100
AcDbAlignedDimension
 13
298.222831
 23
2428.310688
 33
0.0
 14
298.222831
 24
2127.909156
 34
0.0
 50
90.0
100
AcDbRotatedDimension
1001
ACAD
1000
DSTYLE
1002
{
1070
     6
1000
_EX_NORM
1070
     7
1000
_EX_NORM
1070
    41
1040
35.0
1070
    42
1040
0.0
1070
    44
1040
0.0
1070
    73
1070
     0
1070
    74
1070
     0
1070
    75
1070
     1
1070
    76
1070
     1
1070
    77
1070
     1
1070
    78
1070
     0
1070
   140
1040
40.0
1070
   147
1040
3.5
1070
   173
1070
     1
1070
   176
1070
     3
1070
   177
1070
     3
1070
   178
1070
     2
1070
   271
1070
     0
1070
   279
1070
     2
1070
   280
1070
     0
1070
   287
1070
     5
1070
   340
1005
182
1002
}
  0
DIMENSION
  5
887
100
AcDbEntity
  8
寸法
  6
CONTINUOUS
 62
     3
100
AcDbDimension
  2
*D26
 10
354.888906
 20
712.0
 30
0.0
 11
404.888906
 21
735.0
 31
0.0
 70
   160
  1
100
  3
STANDARD
100
AcDbAlignedDimension
 13
454.888906
 23
729.810687
 33
0.0
 14
354.888906
 24
654.310688
 34
0.0
100
AcDbRotatedDimension
1001
ACAD
1000
DSTYLE
1002
{
1070
     6
1000
_EX_NORM
1070
     7
1000
_EX_NORM
1070
    41
1040
30.0
1070
    42
1040
0.0
1070
    44
1040
0.0
1070
    73
1070
     0
1070
    74
1070
     0
1070
    75
1070
     1
1070
    76
1070
     1
1070
    77
1070
     1
1070
    78
1070
     8
1070
   140
1040
40.0
1070
   147
1040
3.0
1070
   173
1070
     1
1070
   176
1070
     3
1070
   177
1070
     3
1070
   178
1070
     2
1070
   271
1070
     2
1070
   279
1070
     2
1070
   280
1070
     0
1070
   287
1070
     5
1070
   340
1005
866
1002
}
  0
DIMENSION
  5
893
100
AcDbEntity
  8
寸法
  6
CONTINUOUS
 62
     3
100
AcDbDimension
  2
*D27
 10
1753.902977
 20
488.0
 30
0.0
 11
1683.903005
 21
511.5
 31
0.0
 70
   160
  1
140
  3
STANDARD
100
AcDbAlignedDimension
 13
1613.903033
 23
616.963623
 33
0.0
 14
1753.902977
 24
616.963623
 34
0.0
100
AcDbRotatedDimension
1001
ACAD
1000
DSTYLE
1002
{
1070
     6
1000
_EX_NORM
1070
     7
1000
_EX_NORM
1070
    41
1040
35.0
1070
    42
1040
7.0
1070
    44
1040
20.0
1070
    73
1070
     0
1070
    74
1070
     0
1070
    75
1070
     0
1070
    76
1070
     0
1070
    77
1070
     1
1070
    78
1070
     0
1070
   140
1040
40.0
1070
   147
1040
3.5
1070
   173
1070
     1
1070
   176
1070
     3
1070
   177
1070
     3
1070
   178
1070
     2
1070
   271
1070
     0
1070
   279
1070
     2
1070
   280
1070
     0
1070
   287
1070
     5
1070
   340
1005
182
1002
}
  0
LINE
  5
894
100
AcDbEntity
  8
寸法
  6
CONTINUOUS
 62
     3
100
AcDbLine
 10
1211.888906
 20
2250.810688
 30
0.0
 11
909.210472
 21
2250.810688
 31
0.0
  0
LINE
  5
895
100
AcDbEntity
  8
寸法
  6
CONTINUOUS
 62
     3
100
AcDbLine
 10
1211.888906
 20
2605.809773
 30
0.0
 11
909.210624
 21
2605.809773
 31
0.0
  0
LINE
  5
896
100
AcDbEntity
  8
寸法
  6
CONTINUOUS
 62
     3
100
AcDbLine
 10
1211.88985
 20
2605.809773
 30
0.0
 11
909.211569
 21
2605.809773
 31
0.0
  0
LINE
  5
897
100
AcDbEntity
  8
寸法
  6
CONTINUOUS
 62
     3
100
AcDbLine
 10
1211.88985
 20
2250.810688
 30
0.0
 11
909.211416
 21
2250.810688
 31
0.0
  0
LINE
  5
898
100
AcDbEntity
  8
寸法
  6
CONTINUOUS
 62
     3
100
AcDbLine
 10
664.888906
 20
2378.310688
 30
0.0
 11
664.888906
 21
2132.0
 31
0.0
  0
LINE
  5
899
100
AcDbEntity
  8
寸法
  6
CONTINUOUS
 62
     3
100
AcDbLine
 10
1104.888906
 20
2705.963093
 30
0.0
 11
1104.888906
 21
2007.0
 31
0.0
  0
LINE
  5
89A
100
AcDbEntity
  8
寸法
  6
CONTINUOUS
 62
     3
100
AcDbLine
 10
694.889059
 20
613.44306
 30
0.0
 11
694.889059
 21
554.0
 31
0.0
  0
LINE
  5
89B
100
AcDbEntity
  8
寸法
  6
CONTINUOUS
 62
     3
100
AcDbLine
 10
1112.888973
 20
1004.310688
 30
0.0
 11
1205.48653
 21
1004.310688
 31
0.0
  0
DIMENSION
  5
8A7
100
AcDbEntity
  8
寸法
  6
CONTINUOUS
 62
     3
100
AcDbDimension
  2
*D28
 10
308.0
 20
654.310688
 30
0.0
 11
286.5
 21
804.285688
 31
0.0
 70
   160
  1
300（壁給水）
  3
STANDARD
100
AcDbAlignedDimension
 13
344.922239
 23
954.260688
 33
0.0
 14
352.888906
 24
654.310688
 34
0.0
 50
90.0
100
AcDbRotatedDimension
1001
ACAD
1000
DSTYLE
1002
{
1070
     6
1000
_EX_NORM
1070
     7
1000
_EX_NORM
1070
    41
1040
35.0
1070
    42
1040
0.0
1070
    44
1040
0.0
1070
    73
1070
     0
1070
    74
1070
     0
1070
    75
1070
     0
1070
    76
1070
     1
1070
    77
1070
     1
1070
    78
1070
     0
1070
   140
1040
40.0
1070
   147
1040
3.5
1070
   173
1070
     1
1070
   176
1070
     3
1070
   177
1070
     3
1070
   178
1070
     2
1070
   271
1070
     0
1070
   279
1070
     2
1070
   280
1070
     0
1070
   287
1070
     5
1070
   340
1005
8A6
1002
}
  0
DIMENSION
  5
8B1
100
AcDbEntity
  8
寸法
  6
CONTINUOUS
 62
     3
100
AcDbDimension
  2
*D29
 10
243.0
 20
654.310688
 30
0.0
 11
219.5
 21
836.810688
 31
0.0
 70
   160
  1
365
  3
STANDARD
100
AcDbAlignedDimension
 13
232.188916
 23
1019.310688
 33
0.0
 14
232.60624
 24
654.310688
 34
0.0
 50
90.0
100
AcDbRotatedDimension
1001
ACAD
1000
DSTYLE
1002
{
1070
     6
1000
_EX_NORM
1070
     7
1000
_EX_NORM
1070
    41
1040
35.0
1070
    42
1040
0.0
1070
    44
1040
0.0
1070
    73
1070
     0
1070
    74
1070
     0
1070
    75
1070
     1
1070
    76
1070
     1
1070
    77
1070
     1
1070
    78
1070
     0
1070
   140
1040
40.0
1070
   147
1040
3.5
1070
   173
1070
     1
1070
   176
1070
     3
1070
   177
1070
     3
1070
   178
1070
     2
1070
   271
1070
     0
1070
   279
1070
     2
1070
   280
1070
     0
1070
   287
1070
     5
1070
   340
1005
182
1002
}
  0
LINE
  5
8B2
100
AcDbEntity
  8
寸法
  6
CONTINUOUS
 62
     3
100
AcDbLine
 10
346.888906
 20
654.310688
 30
0.0
 11
223.0
 21
654.310688
 31
0.0
  0
LINE
  5
8B3
100
AcDbEntity
  8
寸法
  6
CONTINUOUS
 62
     3
100
AcDbLine
 10
397.1
 20
1019.310688
 30
0.0
 11
223.0
 21
1019.310688
 31
0.0
  0
DIMENSION
  5
8BD
100
AcDbEntity
  8
寸法
  6
CONTINUOUS
 62
     3
100
AcDbDimension
  2
*D30
 10
243.0
 20
1019.310688
 30
0.0
 11
219.5
 21
1249.310688
 31
0.0
 70
   160
  1
460
  3
STANDARD
100
AcDbAlignedDimension
 13
243.0
 23
1479.310688
 33
0.0
 14
243.0
 24
1019.310688
 34
0.0
 50
90.0
100
AcDbRotatedDimension
1001
ACAD
1000
DSTYLE
1002
{
1070
     6
1000
_EX_NORM
1070
     7
1000
_EX_NORM
1070
    41
1040
35.0
1070
    42
1040
0.0
1070
    44
1040
0.0
1070
    73
1070
     0
1070
    74
1070
     0
1070
    75
1070
     1
1070
    76
1070
     1
1070
    77
1070
     1
1070
    78
1070
     0
1070
   140
1040
40.0
1070
   147
1040
3.5
1070
   173
1070
     1
1070
   176
1070
     3
1070
   177
1070
     3
1070
   178
1070
     2
1070
   271
1070
     0
1070
   279
1070
     2
1070
   280
1070
     0
1070
   287
1070
     5
1070
   340
1005
182
1002
}
  0
LINE
  5
8BE
100
AcDbEntity
  8
寸法
  6
CONTINUOUS
 62
     3
100
AcDbLine
 10
370.017191
 20
1479.310688
 30
0.0
 11
223.0
 21
1479.310688
 31
0.0
  0
LINE
  5
8BF
100
AcDbEntity
  8
器具明細表
  6
CONTINUOUS
 62
     3
100
AcDbLine
 10
1703.228295
 20
2096.584653
 30
0.0
 11
1621.328295
 21
2096.584653
 31
0.0
  0
LINE
  5
8C0
100
AcDbEntity
  8
器具明細表
  6
CONTINUOUS
 62
     3
100
AcDbLine
 10
1641.328295
 20
2011.584653
 30
0.0
 11
1641.328295
 21
2192.765397
 31
0.0
  0
LINE
  5
8C1
100
AcDbEntity
  8
器具明細表
  6
CONTINUOUS
 62
     3
100
AcDbLine
 10
1647.161628
 20
2021.584653
 30
0.0
 11
1641.328295
 21
2056.584653
 31
0.0
  0
LINE
  5
8C2
100
AcDbEntity
  8
器具明細表
  6
CONTINUOUS
 62
     3
100
AcDbLine
 10
1641.328295
 20
2056.584653
 30
0.0
 11
1635.494961
 21
2021.584653
 31
0.0
  0
LINE
  5
8C3
100
AcDbEntity
  8
器具明細表
  6
CONTINUOUS
 62
     3
100
AcDbLine
 10
1635.494961
 20
2131.584653
 30
0.0
 11
1641.328295
 21
2096.584653
 31
0.0
  0
LINE
  5
8C4
100
AcDbEntity
  8
器具明細表
  6
CONTINUOUS
 62
     3
100
AcDbLine
 10
1641.328295
 20
2096.584653
 30
0.0
 11
1647.161628
 21
2131.584653
 31
0.0
  0
TEXT
  5
8C5
100
AcDbEntity
  8
器具明細表
  6
CONTINUOUS
 62
     2
100
AcDbText
 10
1640.128295
 20
2125.484653
 30
0.0
 40
40.0
  1
４０
 50
90.0
 41
0.861
  7
EXCADSTD
 72
     5
 11
1640.128295
 21
2200.645853
 31
0.0
100
AcDbText
  0
LINE
  5
8C6
100
AcDbEntity
  8
器具明細表
  6
CONTINUOUS
 62
     6
100
AcDbLine
 10
1275.328295
 20
2807.584653
 30
0.0
 11
1975.328295
 21
2807.584653
 31
0.0
  0
LINE
  5
8C7
100
AcDbEntity
  8
器具明細表
  6
CONTINUOUS
 62
     6
100
AcDbLine
 10
1275.328295
 20
2742.584653
 30
0.0
 11
1975.328295
 21
2742.584653
 31
0.0
  0
LINE
  5
8C8
100
AcDbEntity
  8
器具明細表
  6
CONTINUOUS
 62
     6
100
AcDbLine
 10
1275.328295
 20
2677.584653
 30
0.0
 11
1975.328295
 21
2677.584653
 31
0.0
  0
TEXT
  5
8C9
100
AcDbEntity
  8
器具明細表
  6
CONTINUOUS
 62
     2
100
AcDbText
 10
1295.328295
 20
2817.584653
 30
0.0
 40
60.0
  1
器具明細
 41
1.54
  7
EXCADSTD
 72
     5
 11
1735.328295
 21
2817.584653
 31
0.0
100
AcDbText
  0
TEXT
  5
8CA
100
AcDbEntity
  8
器具明細表
  6
CONTINUOUS
 62
     2
100
AcDbText
 10
1340.328295
 20
2747.584653
 30
0.0
 40
55.0
  1
品番
 41
1.527273
  7
EXCADSTD
 72
     5
 11
1523.648295
 21
2747.584653
 31
0.0
100
AcDbText
  0
TEXT
  5
8CB
100
AcDbEntity
  8
器具明細表
  6
CONTINUOUS
 62
     2
100
AcDbText
 10
1655.328295
 20
2747.584653
 30
0.0
 40
55.0
  1
品名
 41
1.374545
  7
EXCADSTD
 72
     5
 11
1820.316295
 21
2747.584653
 31
0.0
100
AcDbText
  0
TEXT
  5
8CC
100
AcDbEntity
  8
器具明細表
  6
CONTINUOUS
 62
     2
100
AcDbText
 10
1886.828295
 20
2747.584653
 30
0.0
 40
55.0
  1
個数
 41
0.664364
  7
EXCADSTD
 72
     5
 11
1966.572495
 21
2747.584653
 31
0.0
100
AcDbText
  0
TEXT
  5
8CD
100
AcDbEntity
  8
器具明細表
  6
CONTINUOUS
 62
     2
100
AcDbText
 10
1907.828295
 20
2687.584653
 30
0.0
 40
45.0
  1
１
 41
0.84
  7
EXCADSTD
 72
     5
 11
1943.828295
 21
2687.584653
 31
0.0
100
AcDbText
  0
TEXT
  5
8CE
100
AcDbEntity
  8
器具明細表
  6
CONTINUOUS
 62
     2
100
AcDbText
 10
1907.828295
 20
2622.584653
 30
0.0
 40
45.0
  1
１
 41
0.84
  7
EXCADSTD
 72
     5
 11
1943.828295
 21
2622.584653
 31
0.0
100
AcDbText
  0
TEXT
  5
8CF
100
AcDbEntity
  8
器具明細表
  6
CONTINUOUS
 62
     2
100
AcDbText
 10
1907.828295
 20
2492.584653
 30
0.0
 40
45.0
  1
１
 41
0.84
  7
EXCADSTD
 72
     5
 11
1943.828295
 21
2492.584653
 31
0.0
100
AcDbText
  0
LINE
  5
8D0
100
AcDbEntity
  8
器具明細表
  6
CONTINUOUS
 62
     6
100
AcDbLine
 10
1275.328295
 20
2547.584653
 30
0.0
 11
1975.328295
 21
2547.584653
 31
0.0
  0
TEXT
  5
8D1
100
AcDbEntity
  8
器具明細表
  6
CONTINUOUS
 62
     2
100
AcDbText
 10
1608.328295
 20
2555.084653
 30
0.0
 40
50.0
  1
ワンタッチ式紙巻器
 41
0.522667
  7
EXCADSTD
 72
     5
 11
1888.328295
 21
2555.084653
 31
0.0
100
AcDbText
  0
TEXT
  5
8D2
100
AcDbEntity
  8
器具明細表
  6
CONTINUOUS
 62
     2
100
AcDbText
 10
1907.828295
 20
2557.584653
 30
0.0
 40
45.0
  1
１
 41
0.84
  7
EXCADSTD
 72
     5
 11
1943.828295
 21
2557.584653
 31
0.0
100
AcDbText
  0
TEXT
  5
8D3
100
AcDbEntity
  8
器具明細表
  6
CONTINUOUS
 62
     2
100
AcDbText
 10
1608.328295
 20
2620.084653
 30
0.0
 40
50.0
  1
タンクセット
 41
0.644
  7
EXCADSTD
 72
     5
 11
1838.328294
 21
2620.084653
 31
0.0
100
AcDbText
  0
LINE
  5
8D4
100
AcDbEntity
  8
器具明細表
  6
CONTINUOUS
 62
     6
100
AcDbLine
 10
1275.328295
 20
2482.584653
 30
0.0
 11
1975.328295
 21
2482.584653
 31
0.0
  0
TEXT
  5
8D5
100
AcDbEntity
  8
器具明細表
  6
CONTINUOUS
 62
     2
100
AcDbText
 10
1608.328295
 20
2685.084653
 30
0.0
 40
50.0
  1
便器セット
 41
0.64848
  7
EXCADSTD
 72
     5
 11
1801.328294
 21
2685.084653
 31
0.0
100
AcDbText
  0
LINE
  5
8D6
100
AcDbEntity
  8
器具明細表
  6
CONTINUOUS
 62
     6
100
AcDbLine
 10
1275.328295
 20
2807.584653
 30
0.0
 11
1275.328295
 21
2482.584653
 31
0.0
  0
LINE
  5
8D7
100
AcDbEntity
  8
器具明細表
  6
CONTINUOUS
 62
     6
100
AcDbLine
 10
1605.328295
 20
2482.584653
 30
0.0
 11
1605.328295
 21
2807.584653
 31
0.0
  0
LINE
  5
8D8
100
AcDbEntity
  8
器具明細表
  6
CONTINUOUS
 62
     6
100
AcDbLine
 10
1885.328295
 20
2807.584653
 30
0.0
 11
1885.328295
 21
2482.584653
 31
0.0
  0
LINE
  5
8D9
100
AcDbEntity
  8
器具明細表
  6
CONTINUOUS
 62
     6
100
AcDbLine
 10
1975.328295
 20
2482.584653
 30
0.0
 11
1975.328295
 21
2807.584653
 31
0.0
  0
TEXT
  5
8DA
100
AcDbEntity
  8
器具明細表
  6
CONTINUOUS
 62
     2
100
AcDbText
 10
1275.328295
 20
2685.084653
 30
0.0
 40
50.0
  1
ＳＣ７３Ｓ－ＡＴ
 41
0.6384
  7
EXCADSTD
 72
     5
 11
1579.328294
 21
2685.084653
 31
0.0
100
AcDbText
  0
TEXT
  5
8DB
100
AcDbEntity
  8
器具明細表
  6
CONTINUOUS
 62
     2
100
AcDbText
 10
1608.328295
 20
2490.084653
 30
0.0
 40
50.0
  1
前丸便座
 41
0.6552
  7
EXCADSTD
 72
     5
 11
1764.328294
 21
2490.084653
 31
0.0
100
AcDbText
  0
TEXT
  5
8DC
100
AcDbEntity
  8
器具明細表
  6
CONTINUOUS
 62
     2
100
AcDbText
 10
1275.328295
 20
2490.084653
 30
0.0
 40
50.0
  1
ＮＣ８０１Ｗ１
 41
0.6408
  7
EXCADSTD
 72
     5
 11
1542.328294
 21
2490.084653
 31
0.0
100
AcDbText
  0
LINE
  5
8DD
100
AcDbEntity
  8
器具明細表
  6
CONTINUOUS
 62
     7
100
AcDbLine
 10
1435.328295
 20
2056.584653
 30
0.0
 11
1761.828295
 21
2056.584653
 31
0.0
  0
TEXT
  5
8DE
100
AcDbEntity
  8
器具明細表
  6
CONTINUOUS
 62
     2
100
AcDbText
 10
1502.328295
 20
2060.084653
 30
0.0
 40
40.0
  1
Ｆ．Ｌ
 41
0.833
  7
EXCADSTD
 72
     5
 11
1621.328295
 21
2060.084653
 31
0.0
100
AcDbText
  0
TEXT
  5
8DF
100
AcDbEntity
  8
器具明細表
  6
CONTINUOUS
 62
     2
100
AcDbText
 10
1238.71951
 20
1890.084653
 30
0.0
 40
40.0
  1
ＶＵ、ＶＰ７５の場合
 41
0.651
  7
EXCADSTD
 72
     5
 11
1548.71951
 21
1890.084653
 31
0.0
100
AcDbText
  0
LINE
  5
8E0
100
AcDbEntity
  8
器具明細表
  6
CONTINUOUS
 62
     6
100
AcDbLine
 10
1243.828295
 20
1884.584653
 30
0.0
 11
1548.828295
 21
1884.584653
 31
0.0
  0
TEXT
  5
8E1
100
AcDbEntity
  8
器具明細表
  6
CONTINUOUS
 62
     2
100
AcDbText
 10
1319.71951
 20
1841.084653
 30
0.0
 40
40.0
  1
床面カット
 41
0.672
  7
EXCADSTD
 72
     5
 11
1479.71951
 21
1841.084653
 31
0.0
100
AcDbText
  0
LINE
  5
8E2
100
AcDbEntity
  8
器具明細表
  6
EXLTYPE3
 62
     6
100
AcDbLine
 10
1392.828295
 20
2116.584653
 30
0.0
 11
1392.828295
 21
1976.839353
 31
0.0
  0
LINE
  5
8E3
100
AcDbEntity
  8
器具明細表
  6
CONTINUOUS
 62
     2
100
AcDbLine
 10
1433.828295
 20
2056.584653
 30
0.0
 11
1433.828295
 21
2011.584653
 31
0.0
  0
LINE
  5
8E4
100
AcDbEntity
  8
器具明細表
  6
CONTINUOUS
 62
     2
100
AcDbLine
 10
1451.828295
 20
2102.031115
 30
0.0
 11
1333.828295
 21
2102.031115
 31
0.0
  0
LINE
  5
8E5
100
AcDbEntity
  8
器具明細表
  6
CONTINUOUS
 62
     2
100
AcDbLine
 10
1393.828295
 20
2085.031115
 30
0.0
 11
1430.74135
 21
2085.031115
 31
0.0
  0
LINE
  5
8E6
100
AcDbEntity
  8
器具明細表
  6
CONTINUOUS
 62
     2
100
AcDbLine
 10
1425.328295
 20
2085.031115
 30
0.0
 11
1439.93592
 21
2101.052378
 31
0.0
  0
LINE
  5
8E7
100
AcDbEntity
  8
器具明細表
  6
CONTINUOUS
 62
     2
100
AcDbLine
 10
1430.741353
 20
2085.031112
 30
0.0
 11
1441.682528
 21
2097.031115
 31
0.0
  0
ARC
  5
8E8
100
AcDbEntity
  8
器具明細表
  6
CONTINUOUS
 62
     2
100
AcDbCircle
 10
1333.828295
 20
2099.031115
 30
0.0
 40
3.0
100
AcDbArc
 50
90.0
 51
180.0
  0
ARC
  5
8E9
100
AcDbEntity
  8
器具明細表
  6
CONTINUOUS
 62
     2
100
AcDbCircle
 10
1451.828295
 20
2099.031115
 30
0.0
 40
3.0
100
AcDbArc
 50
0.0
 51
90.0
  0
ARC
  5
8EA
100
AcDbEntity
  8
器具明細表
  6
CONTINUOUS
 62
     2
100
AcDbCircle
 10
1442.152788
 20
2099.031115
 30
0.0
 40
3.0
100
AcDbArc
 50
90.0
 51
137.642517
  0
LINE
  5
8EB
100
AcDbEntity
  8
器具明細表
  6
CONTINUOUS
 62
     2
100
AcDbLine
 10
1441.682528
 20
2097.031115
 30
0.0
 11
1446.500429
 21
2097.031115
 31
0.0
  0
LINE
  5
8EC
100
AcDbEntity
  8
器具明細表
  6
CONTINUOUS
 62
     2
100
AcDbLine
 10
1446.500429
 20
2097.031115
 30
0.0
 11
1449.788473
 21
2097.031115
 31
0.0
  0
LINE
  5
8ED
100
AcDbEntity
  8
器具明細表
  6
EXLTYPE2
 62
     2
100
AcDbLine
 10
1335.828295
 20
2096.531115
 30
0.0
 11
1392.828295
 21
2096.531115
 31
0.0
  0
LINE
  5
8EE
100
AcDbEntity
  8
器具明細表
  6
CONTINUOUS
 62
     2
100
AcDbLine
 10
1449.788473
 20
2096.531115
 30
0.0
 11
1449.788473
 21
2056.584653
 31
0.0
  0
LINE
  5
8EF
100
AcDbEntity
  8
器具明細表
  6
CONTINUOUS
 62
     6
100
AcDbLine
 10
1433.828295
 20
2011.584653
 30
0.0
 11
1433.828295
 21
1994.603739
 31
0.0
  0
LINE
  5
8F0
100
AcDbEntity
  8
器具明細表
  6
CONTINUOUS
 62
     2
100
AcDbLine
 10
1430.328295
 20
2060.584653
 30
0.0
 11
1430.328295
 21
2011.584653
 31
0.0
  0
LINE
  5
8F1
100
AcDbEntity
  8
器具明細表
  6
CONTINUOUS
 62
     2
100
AcDbLine
 10
1446.788473
 20
2096.531115
 30
0.0
 11
1446.788473
 21
2060.584653
 31
0.0
  0
LINE
  5
8F2
100
AcDbEntity
  8
器具明細表
  6
CONTINUOUS
 62
     2
100
AcDbLine
 10
1393.828295
 20
2060.584653
 30
0.0
 11
1446.788473
 21
2060.584653
 31
0.0
  0
LINE
  5
8F3
100
AcDbEntity
  8
器具明細表
  6
CONTINUOUS
 62
     6
100
AcDbLine
 10
1437.328295
 20
2056.584653
 30
0.0
 11
1437.328295
 21
1996.839353
 31
0.0
  0
LINE
  5
8F4
100
AcDbEntity
  8
器具明細表
  6
CONTINUOUS
 62
     6
100
AcDbLine
 10
1348.328295
 20
2056.584653
 30
0.0
 11
1348.328295
 21
1996.839353
 31
0.0
  0
ARC
  5
8F5
100
AcDbEntity
  8
器具明細表
  6
CONTINUOUS
 62
     6
100
AcDbCircle
 10
1370.578295
 20
1965.863062
 30
0.0
 40
38.139128
100
AcDbArc
 50
54.310642
 51
125.689358
  0
ARC
  5
8F6
100
AcDbEntity
  8
器具明細表
  6
CONTINUOUS
 62
     6
100
AcDbCircle
 10
1370.578295
 20
2027.815643
 30
0.0
 40
38.139128
100
AcDbArc
 50
234.310642
 51
305.689358
  0
ARC
  5
8F7
100
AcDbEntity
  8
器具明細表
  6
CONTINUOUS
 62
     6
100
AcDbCircle
 10
1415.078295
 20
2027.815643
 30
0.0
 40
38.139128
100
AcDbArc
 50
234.310642
 51
305.689358
  0
LINE
  5
8F8
100
AcDbEntity
  8
器具明細表
  6
CONTINUOUS
 62
     2
100
AcDbLine
 10
1392.828295
 20
2011.584653
 30
0.0
 11
1433.828295
 21
2011.584653
 31
0.0
  0
LINE
  5
8F9
100
AcDbEntity
  8
器具明細表
  6
EXLTYPE2
 62
     2
100
AcDbLine
 10
1351.828295
 20
2056.584653
 30
0.0
 11
1351.828295
 21
2011.584653
 31
0.0
  0
LINE
  5
8FA
100
AcDbEntity
  8
器具明細表
  6
EXLTYPE2
 62
     2
100
AcDbLine
 10
1351.828295
 20
2011.584653
 30
0.0
 11
1392.828295
 21
2011.584653
 31
0.0
  0
TEXT
  5
8FB
100
AcDbEntity
  8
器具明細表
  6
CONTINUOUS
 62
     2
100
AcDbText
 10
1592.21951
 20
1888.084653
 30
0.0
 40
40.0
  1
ＶＵ、ＶＰ１００の場合
 41
0.649091
  7
EXCADSTD
 72
     5
 11
1932.21951
 21
1888.084653
 31
0.0
100
AcDbText
  0
TEXT
  5
8FC
100
AcDbEntity
  8
器具明細表
  6
CONTINUOUS
 62
     2
100
AcDbText
 10
1641.21951
 20
1841.084653
 30
0.0
 40
40.0
  1
床上４０mmカット
 41
0.583704
  7
EXCADSTD
 72
     5
 11
1881.21951
 21
1841.084653
 31
0.0
100
AcDbText
  0
LINE
  5
8FD
100
AcDbEntity
  8
器具明細表
  6
CONTINUOUS
 62
     6
100
AcDbLine
 10
1593.328295
 20
1884.584653
 30
0.0
 11
1936.328295
 21
1884.584653
 31
0.0
  0
ARC
  5
8FE
100
AcDbEntity
  8
器具明細表
  6
CONTINUOUS
 62
     6
100
AcDbCircle
 10
1734.828295
 20
2037.921587
 30
0.0
 40
50.0
100
AcDbArc
 50
235.249774
 51
304.750226
  0
ARC
  5
8FF
100
AcDbEntity
  8
器具明細表
  6
CONTINUOUS
 62
     6
100
AcDbCircle
 10
1734.828295
 20
1955.757118
 30
0.0
 40
50.0
100
AcDbArc
 50
55.249774
 51
124.750226
  0
ARC
  5
900
100
AcDbEntity
  8
器具明細表
  6
CONTINUOUS
 62
     6
100
AcDbCircle
 10
1791.828295
 20
2037.921587
 30
0.0
 40
50.0
100
AcDbArc
 50
235.249774
 51
304.750226
  0
LINE
  5
901
100
AcDbEntity
  8
器具明細表
  6
CONTINUOUS
 62
     6
100
AcDbLine
 10
1820.328295
 20
2096.584653
 30
0.0
 11
1820.328295
 21
1996.839353
 31
0.0
  0
LINE
  5
902
100
AcDbEntity
  8
器具明細表
  6
EXLTYPE3
 62
     6
100
AcDbLine
 10
1763.328295
 20
1976.839353
 30
0.0
 11
1763.328295
 21
2116.584653
 31
0.0
  0
LINE
  5
903
100
AcDbEntity
  8
器具明細表
  6
CONTINUOUS
 62
     2
100
AcDbLine
 10
1822.328295
 20
2102.031115
 30
0.0
 11
1704.328295
 21
2102.031115
 31
0.0
  0
LINE
  5
904
100
AcDbEntity
  8
器具明細表
  6
CONTINUOUS
 62
     2
100
AcDbLine
 10
1764.328295
 20
2085.031115
 30
0.0
 11
1801.24135
 21
2085.031115
 31
0.0
  0
LINE
  5
905
100
AcDbEntity
  8
器具明細表
  6
CONTINUOUS
 62
     2
100
AcDbLine
 10
1795.828295
 20
2085.031115
 30
0.0
 11
1810.43592
 21
2101.052378
 31
0.0
  0
LINE
  5
906
100
AcDbEntity
  8
器具明細表
  6
CONTINUOUS
 62
     2
100
AcDbLine
 10
1801.241353
 20
2085.031112
 30
0.0
 11
1812.182528
 21
2097.031115
 31
0.0
  0
ARC
  5
907
100
AcDbEntity
  8
器具明細表
  6
CONTINUOUS
 62
     2
100
AcDbCircle
 10
1704.328295
 20
2099.031115
 30
0.0
 40
3.0
100
AcDbArc
 50
90.0
 51
180.0
  0
ARC
  5
908
100
AcDbEntity
  8
器具明細表
  6
CONTINUOUS
 62
     2
100
AcDbCircle
 10
1822.328295
 20
2099.031115
 30
0.0
 40
3.0
100
AcDbArc
 50
0.0
 51
90.0
  0
ARC
  5
909
100
AcDbEntity
  8
器具明細表
  6
CONTINUOUS
 62
     2
100
AcDbCircle
 10
1812.652788
 20
2099.031115
 30
0.0
 40
3.0
100
AcDbArc
 50
90.0
 51
137.642517
  0
ARC
  5
90A
100
AcDbEntity
  8
器具明細表
  6
CONTINUOUS
 62
     2
100
AcDbCircle
 10
1820.288473
 20
2096.531115
 30
0.0
 40
0.5
100
AcDbArc
 50
5.0
 51
90.0
  0
LINE
  5
90B
100
AcDbEntity
  8
器具明細表
  6
CONTINUOUS
 62
     2
100
AcDbLine
 10
1812.182528
 20
2097.031115
 30
0.0
 11
1817.000429
 21
2097.031115
 31
0.0
  0
LINE
  5
90C
100
AcDbEntity
  8
器具明細表
  6
CONTINUOUS
 62
     2
100
AcDbLine
 10
1817.000429
 20
2097.031115
 30
0.0
 11
1820.288473
 21
2097.031115
 31
0.0
  0
LINE
  5
90D
100
AcDbEntity
  8
器具明細表
  6
CONTINUOUS
 62
     6
100
AcDbLine
 10
1811.726646
 20
2096.531115
 30
0.0
 11
1820.328295
 21
2096.531115
 31
0.0
  0
LINE
  5
90E
100
AcDbEntity
  8
器具明細表
  6
CONTINUOUS
 62
     6
100
AcDbLine
 10
1817.328295
 20
2096.584653
 30
0.0
 11
1817.328295
 21
1994.912867
 31
0.0
  0
LINE
  5
90F
100
AcDbEntity
  8
器具明細表
  6
CONTINUOUS
 62
     7
100
AcDbLine
 10
1232.328295
 20
2056.584653
 30
0.0
 11
1391.328295
 21
2056.584653
 31
0.0
  0
LINE
  5
910
100
AcDbEntity
  8
器具明細表
  6
CONTINUOUS
 62
     7
100
AcDbLine
 10
1822.328295
 20
2056.584653
 30
0.0
 11
1941.328295
 21
2056.584653
 31
0.0
  0
LINE
  5
911
100
AcDbEntity
  8
器具明細表
  6
CONTINUOUS
 62
     2
100
AcDbLine
 10
1330.828295
 20
2066.584653
 30
0.0
 11
1335.828295
 21
2066.584653
 31
0.0
  0
LINE
  5
912
100
AcDbEntity
  8
器具明細表
  6
CONTINUOUS
 62
     2
100
AcDbLine
 10
1330.828295
 20
2066.584653
 30
0.0
 11
1330.828295
 21
2099.031115
 31
0.0
  0
LINE
  5
913
100
AcDbEntity
  8
器具明細表
  6
CONTINUOUS
 62
     2
100
AcDbLine
 10
1452.555246
 20
2071.162296
 30
0.0
 11
1452.293778
 21
2074.15088
 31
0.0
  0
LINE
  5
914
100
AcDbEntity
  8
器具明細表
  6
CONTINUOUS
 62
     2
100
AcDbLine
 10
1451.858
 20
2079.131853
 30
0.0
 11
1451.24791
 21
2086.105216
 31
0.0
  0
ARC
  5
915
100
AcDbEntity
  8
器具明細表
  6
CONTINUOUS
 62
     2
100
AcDbCircle
 10
1451.658851
 20
2087.144989
 30
0.0
 40
0.5
100
AcDbArc
 50
275.0
 51
5.0
  0
ARC
  5
916
100
AcDbEntity
  8
器具明細表
  6
CONTINUOUS
 62
     2
100
AcDbCircle
 10
1451.746007
 20
2086.148794
 30
0.0
 40
0.5
100
AcDbArc
 50
95.0
 51
185.0
  0
ARC
  5
917
100
AcDbEntity
  8
器具明細表
  6
CONTINUOUS
 62
     2
100
AcDbCircle
 10
1451.359902
 20
2079.088275
 30
0.0
 40
0.5
100
AcDbArc
 50
275.0
 51
5.0
  0
ARC
  5
918
100
AcDbEntity
  8
器具明細表
  6
CONTINUOUS
 62
     2
100
AcDbCircle
 10
1451.795681
 20
2074.107302
 30
0.0
 40
0.5
100
AcDbArc
 50
5.0
 51
95.0
  0
ARC
  5
919
100
AcDbEntity
  8
器具明細表
  6
CONTINUOUS
 62
     2
100
AcDbCircle
 10
1452.057148
 20
2071.118718
 30
0.0
 40
0.5
100
AcDbArc
 50
275.0
 51
5.0
  0
LINE
  5
91A
100
AcDbEntity
  8
器具明細表
  6
CONTINUOUS
 62
     2
100
AcDbLine
 10
1451.602629
 20
2070.577043
 30
0.0
 11
1452.100726
 21
2070.62062
 31
0.0
  0
LINE
  5
91B
100
AcDbEntity
  8
器具明細表
  6
CONTINUOUS
 62
     2
100
AcDbLine
 10
1450.278863
 20
2096.628677
 30
0.0
 11
1452.156949
 21
2087.188567
 31
0.0
  0
LINE
  5
91C
100
AcDbEntity
  8
器具明細表
  6
CONTINUOUS
 62
     2
100
AcDbLine
 10
1451.951252
 20
2066.592264
 30
0.0
 11
1457.821716
 21
2067.105863
 31
0.0
  0
LINE
  5
91D
100
AcDbEntity
  8
器具明細表
  6
CONTINUOUS
 62
     2
100
AcDbLine
 10
1454.828295
 20
2099.031115
 30
0.0
 11
1457.821716
 21
2067.105863
 31
0.0
  0
ARC
  5
91E
100
AcDbEntity
  8
器具明細表
  6
CONTINUOUS
 62
     2
100
AcDbCircle
 10
1449.788473
 20
2096.531115
 30
0.0
 40
0.5
100
AcDbArc
 50
11.251933
 51
90.0
  0
LINE
  5
91F
100
AcDbEntity
  8
器具明細表
  6
CONTINUOUS
 62
     2
100
AcDbLine
 10
1441.226646
 20
2096.531115
 30
0.0
 11
1449.788473
 21
2096.531115
 31
0.0
  0
ARC
  5
920
100
AcDbEntity
  8
器具明細表
  6
CONTINUOUS
 62
     2
100
AcDbCircle
 10
1451.577792
 20
2076.597789
 30
0.0
 40
2.0
100
AcDbArc
 50
206.535311
 51
275.0
  0
ARC
  5
921
100
AcDbEntity
  8
器具明細表
  6
CONTINUOUS
 62
     2
100
AcDbCircle
 10
1451.577792
 20
2076.597789
 30
0.0
 40
2.0
100
AcDbArc
 50
95.0
 51
153.464689
  0
ARC
  5
922
100
AcDbEntity
  8
器具明細表
  6
CONTINUOUS
 62
     2
100
AcDbCircle
 10
1451.77694
 20
2068.584653
 30
0.0
 40
2.0
100
AcDbArc
 50
95.0
 51
173.843941
  0
ARC
  5
923
100
AcDbEntity
  8
器具明細表
  6
CONTINUOUS
 62
     2
100
AcDbCircle
 10
1451.77694
 20
2068.584653
 30
0.0
 40
2.0
100
AcDbArc
 50
186.156059
 51
275.0
  0
LINE
  5
924
100
AcDbEntity
  8
器具明細表
  6
CONTINUOUS
 62
     2
100
AcDbLine
 10
1701.328295
 20
2066.584653
 30
0.0
 11
1706.328295
 21
2066.584653
 31
0.0
  0
LINE
  5
925
100
AcDbEntity
  8
器具明細表
  6
CONTINUOUS
 62
     2
100
AcDbLine
 10
1701.328295
 20
2066.584653
 30
0.0
 11
1701.328295
 21
2099.031115
 31
0.0
  0
LINE
  5
926
100
AcDbEntity
  8
器具明細表
  6
EXLTYPE2
 62
     6
100
AcDbLine
 10
1706.328295
 20
2096.531115
 30
0.0
 11
1763.328295
 21
2096.531115
 31
0.0
  0
LINE
  5
927
100
AcDbEntity
  8
器具明細表
  6
EXLTYPE2
 62
     6
100
AcDbLine
 10
1706.328295
 20
2096.531115
 30
0.0
 11
1706.328295
 21
2056.584653
 31
0.0
  0
LINE
  5
928
100
AcDbEntity
  8
器具明細表
  6
CONTINUOUS
 62
     2
100
AcDbLine
 10
1822.880934
 20
2071.154685
 30
0.0
 11
1822.619467
 21
2074.143269
 31
0.0
  0
LINE
  5
929
100
AcDbEntity
  8
器具明細表
  6
CONTINUOUS
 62
     2
100
AcDbLine
 10
1822.183688
 20
2079.124243
 30
0.0
 11
1821.573598
 21
2086.097605
 31
0.0
  0
ARC
  5
92A
100
AcDbEntity
  8
器具明細表
  6
CONTINUOUS
 62
     2
100
AcDbCircle
 10
1821.98454
 20
2087.137378
 30
0.0
 40
0.5
100
AcDbArc
 50
275.0
 51
5.0
  0
ARC
  5
92B
100
AcDbEntity
  8
器具明細表
  6
CONTINUOUS
 62
     2
100
AcDbCircle
 10
1822.071695
 20
2086.141183
 30
0.0
 40
0.5
100
AcDbArc
 50
95.0
 51
185.0
  0
ARC
  5
92C
100
AcDbEntity
  8
器具明細表
  6
CONTINUOUS
 62
     2
100
AcDbCircle
 10
1821.685591
 20
2079.080665
 30
0.0
 40
0.5
100
AcDbArc
 50
275.0
 51
5.0
  0
ARC
  5
92D
100
AcDbEntity
  8
器具明細表
  6
CONTINUOUS
 62
     2
100
AcDbCircle
 10
1822.12137
 20
2074.099691
 30
0.0
 40
0.5
100
AcDbArc
 50
5.0
 51
95.0
  0
ARC
  5
92E
100
AcDbEntity
  8
器具明細表
  6
CONTINUOUS
 62
     2
100
AcDbCircle
 10
1822.382837
 20
2071.111107
 30
0.0
 40
0.5
100
AcDbArc
 50
275.0
 51
5.0
  0
ARC
  5
92F
100
AcDbEntity
  8
器具明細表
  6
CONTINUOUS
 62
     2
100
AcDbCircle
 10
1821.90348
 20
2076.590178
 30
0.0
 40
2.0
100
AcDbArc
 50
95.0
 51
141.961114
  0
ARC
  5
930
100
AcDbEntity
  8
器具明細表
  6
CONTINUOUS
 62
     2
100
AcDbCircle
 10
1821.90348
 20
2076.590178
 30
0.0
 40
2.0
100
AcDbArc
 50
218.038886
 51
275.0
  0
LINE
  5
931
100
AcDbEntity
  8
器具明細表
  6
CONTINUOUS
 62
     2
100
AcDbLine
 10
1821.928317
 20
2070.569432
 30
0.0
 11
1822.426415
 21
2070.61301
 31
0.0
  0
ARC
  5
932
100
AcDbEntity
  8
器具明細表
  6
CONTINUOUS
 62
     2
100
AcDbCircle
 10
1822.102629
 20
2068.577043
 30
0.0
 40
2.0
100
AcDbArc
 50
95.0
 51
152.519387
  0
ARC
  5
933
100
AcDbEntity
  8
器具明細表
  6
CONTINUOUS
 62
     2
100
AcDbCircle
 10
1822.102629
 20
2068.577043
 30
0.0
 40
2.0
100
AcDbArc
 50
207.480613
 51
275.0
  0
LINE
  5
934
100
AcDbEntity
  8
器具明細表
  6
CONTINUOUS
 62
     2
100
AcDbLine
 10
1822.476584
 20
2087.226218
 30
0.0
 11
1820.780518
 21
2096.619955
 31
0.0
  0
LINE
  5
935
100
AcDbEntity
  8
器具明細表
  6
CONTINUOUS
 62
     2
100
AcDbLine
 10
1822.27694
 20
2066.584653
 30
0.0
 11
1828.321006
 21
2067.11344
 31
0.0
  0
LINE
  5
936
100
AcDbEntity
  8
器具明細表
  6
CONTINUOUS
 62
     2
100
AcDbLine
 10
1825.328295
 20
2099.031115
 30
0.0
 11
1828.321006
 21
2067.11344
 31
0.0
  0
LINE
  5
937
100
AcDbEntity
  8
器具明細表
  6
EXLTYPE2
 62
     2
100
AcDbLine
 10
1335.828295
 20
2096.531115
 30
0.0
 11
1335.828295
 21
2066.584653
 31
0.0
  0
LINE
  5
938
100
AcDbEntity
  8
器具明細表
  6
CONTINUOUS
 62
     2
100
AcDbLine
 10
1335.828295
 20
2066.584653
 30
0.0
 11
1335.828295
 21
2056.584653
 31
0.0
  0
LINE
  5
939
100
AcDbEntity
  8
器具明細表
  6
CONTINUOUS
 62
     2
100
AcDbLine
 10
1335.828295
 20
2066.584653
 30
0.0
 11
1392.828295
 21
2066.584653
 31
0.0
  0
LINE
  5
93A
100
AcDbEntity
  8
器具明細表
  6
CONTINUOUS
 62
     2
100
AcDbLine
 10
1706.328295
 20
2066.584653
 30
0.0
 11
1763.328295
 21
2066.584653
 31
0.0
  0
LINE
  5
93B
100
AcDbEntity
  8
器具明細表
  6
CONTINUOUS
 62
     6
100
AcDbLine
 10
1706.328295
 20
2066.584653
 30
0.0
 11
1706.328295
 21
1996.839353
 31
0.0
  0
TEXT
  5
93C
100
AcDbEntity
  8
器具明細表
  6
CONTINUOUS
 62
     2
100
AcDbText
 10
1275.328295
 20
2555.084653
 30
0.0
 40
50.0
  1
ＮＣ７１ＶＪ
 41
0.644
  7
EXCADSTD
 72
     5
 11
1505.328294
 21
2555.084653
 31
0.0
100
AcDbText
  0
LINE
  5
93D
100
AcDbEntity
  8
器具明細表
  6
CONTINUOUS
 62
     6
100
AcDbLine
 10
1275.328295
 20
2612.584653
 30
0.0
 11
1975.328295
 21
2612.584653
 31
0.0
  0
TEXT
  5
93E
100
AcDbEntity
  8
器具明細表
  6
CONTINUOUS
 62
     2
100
AcDbText
 10
1275.328295
 20
2620.084653
 30
0.0
 40
50.0
  1
ＳＴ７８ＦＵ－０ＡＥ０Ａ
 41
0.4536
  7
EXCADSTD
 72
     5
 11
1599.328284
 21
2620.084653
 31
0.0
100
AcDbText
  0
ENDSEC
  0
SECTION
  2
OBJECTS
  0
DICTIONARY
  5
19
100
AcDbDictionary
  3
ACAD_GROUP
350
1A
  3
ACAD_MLINESTYLE
350
1B
  0
DICTIONARY
  5
1A
102
{ACAD_REACTORS
330
19
102
}
100
AcDbDictionary
  0
DICTIONARY
  5
1B
102
{ACAD_REACTORS
330
19
102
}
100
AcDbDictionary
  3
STANDARD
350
1C
  0
MLINESTYLE
  5
1C
102
{ACAD_REACTORS
330
1B
102
}
100
AcDbMlineStyle
  2
Standard
 70
     0
  3

 62
     0
 51
90.0
 52
90.0
 71
     2
 49
0.5
 62
   256
  6
ByLayer
 49
-0.5
 62
   256
  6
ByLayer
  0
ENDSEC
  0
EOF
