  0
SECTION
  2
HEADER
  9
$ACADVER
  1
AC1014
  9
$ACADMAINTVER
 70
     0
  9
$DWGCODEPAGE
  3
ANSI_932
  9
$INSBASE
 10
0.0
 20
0.0
 30
0.0
  9
$EXTMIN
 10
-7.1
 20
11.5
 30
0.0
  9
$EXTMAX
 10
199.9
 20
291.5
 30
0.0
  9
$LIMMIN
 10
0.0
 20
0.0
  9
$LIMMAX
 10
210.0
 20
297.0
  9
$ORTHOMODE
 70
     0
  9
$REGENMODE
 70
     1
  9
$FILLMODE
 70
     1
  9
$QTEXTMODE
 70
     0
  9
$MIRRTEXT
 70
     1
  9
$DRAGMODE
 70
     2
  9
$LTSCALE
 40
1.0
  9
$OSMODE
 70
     0
  9
$ATTMODE
 70
     1
  9
$TEXTSIZE
 40
0.2
  9
$TRACEWID
 40
0.05
  9
$TEXTSTYLE
  7
STANDARD
  9
$CLAYER
  8
便器
  9
$CELTYPE
  6
CONTINUOUS
  9
$CECOLOR
 62
   256
  9
$CELTSCALE
 40
1.0
  9
$DELOBJ
 70
     1
  9
$DISPSILH
 70
     0
  9
$DIMSCALE
 40
1.0
  9
$DIMASZ
 40
0.18
  9
$DIMEXO
 40
0.0625
  9
$DIMDLI
 40
0.38
  9
$DIMRND
 40
0.0
  9
$DIMDLE
 40
0.0
  9
$DIMEXE
 40
0.18
  9
$DIMTP
 40
0.0
  9
$DIMTM
 40
0.0
  9
$DIMTXT
 40
0.18
  9
$DIMCEN
 40
0.09
  9
$DIMTSZ
 40
0.0
  9
$DIMTOL
 70
     0
  9
$DIMLIM
 70
     0
  9
$DIMTIH
 70
     1
  9
$DIMTOH
 70
     1
  9
$DIMSE1
 70
     0
  9
$DIMSE2
 70
     0
  9
$DIMTAD
 70
     0
  9
$DIMZIN
 70
     0
  9
$DIMBLK
  1

  9
$DIMASO
 70
     1
  9
$DIMSHO
 70
     1
  9
$DIMPOST
  1

  9
$DIMAPOST
  1

  9
$DIMALT
 70
     0
  9
$DIMALTD
 70
     2
  9
$DIMALTF
 40
25.4
  9
$DIMLFAC
 40
1.0
  9
$DIMTOFL
 70
     0
  9
$DIMTVP
 40
0.0
  9
$DIMTIX
 70
     0
  9
$DIMSOXD
 70
     0
  9
$DIMSAH
 70
     0
  9
$DIMBLK1
  1

  9
$DIMBLK2
  1

  9
$DIMSTYLE
  2
STANDARD
  9
$DIMCLRD
 70
     0
  9
$DIMCLRE
 70
     0
  9
$DIMCLRT
 70
     0
  9
$DIMTFAC
 40
1.0
  9
$DIMGAP
 40
0.09
  9
$DIMJUST
 70
     0
  9
$DIMSD1
 70
     0
  9
$DIMSD2
 70
     0
  9
$DIMTOLJ
 70
     1
  9
$DIMTZIN
 70
     0
  9
$DIMALTZ
 70
     0
  9
$DIMALTTZ
 70
     0
  9
$DIMFIT
 70
     3
  9
$DIMUPT
 70
     0
  9
$DIMUNIT
 70
     2
  9
$DIMDEC
 70
     4
  9
$DIMTDEC
 70
     4
  9
$DIMALTU
 70
     2
  9
$DIMALTTD
 70
     2
  9
$DIMTXSTY
  7
STANDARD
  9
$DIMAUNIT
 70
     0
  9
$LUNITS
 70
     2
  9
$LUPREC
 70
     4
  9
$SKETCHINC
 40
0.1
  9
$FILLETRAD
 40
0.0
  9
$AUNITS
 70
     0
  9
$AUPREC
 70
     0
  9
$MENU
  1
acad
  9
$ELEVATION
 40
0.0
  9
$PELEVATION
 40
0.0
  9
$THICKNESS
 40
0.0
  9
$LIMCHECK
 70
     0
  9
$BLIPMODE
 70
     1
  9
$CHAMFERA
 40
0.0
  9
$CHAMFERB
 40
0.0
  9
$CHAMFERC
 40
0.0
  9
$CHAMFERD
 40
0.0
  9
$SKPOLY
 70
     0
  9
$TDCREATE
 40
2454684.525792222
  9
$TDUPDATE
 40
2454684.525792222
  9
$TDINDWG
 40
0.0000000000
  9
$TDUSRTIMER
 40
0.0000000000
  9
$USRTIMER
 70
     1
  9
$ANGBASE
 50
0.0
  9
$ANGDIR
 70
     0
  9
$PDMODE
 70
     0
  9
$PDSIZE
 40
0.0
  9
$PLINEWID
 40
0.0
  9
$COORDS
 70
     1
  9
$SPLFRAME
 70
     0
  9
$SPLINETYPE
 70
     6
  9
$SPLINESEGS
 70
     8
  9
$ATTDIA
 70
     0
  9
$ATTREQ
 70
     1
  9
$HANDLING
 70
     1
  9
$HANDSEED
  5
A0B
  9
$SURFTAB1
 70
     6
  9
$SURFTAB2
 70
     6
  9
$SURFTYPE
 70
     6
  9
$SURFU
 70
     6
  9
$SURFV
 70
     6
  9
$UCSNAME
  2

  9
$UCSORG
 10
0.0
 20
0.0
 30
0.0
  9
$UCSXDIR
 10
1.0
 20
0.0
 30
0.0
  9
$UCSYDIR
 10
0.0
 20
1.0
 30
0.0
  9
$PUCSNAME
  2

  9
$PUCSORG
 10
0.0
 20
0.0
 30
0.0
  9
$PUCSXDIR
 10
1.0
 20
0.0
 30
0.0
  9
$PUCSYDIR
 10
0.0
 20
1.0
 30
0.0
  9
$USERI1
 70
     0
  9
$USERI2
 70
     0
  9
$USERI3
 70
     0
  9
$USERI4
 70
     0
  9
$USERI5
 70
     0
  9
$USERR1
 40
0.0
  9
$USERR2
 40
0.0
  9
$USERR3
 40
0.0
  9
$USERR4
 40
0.0
  9
$USERR5
 40
0.0
  9
$WORLDVIEW
 70
     1
  9
$SHADEDGE
 70
     3
  9
$SHADEDIF
 70
    70
  9
$TILEMODE
 70
     1
  9
$MAXACTVP
 70
    16
  9
$PINSBASE
 10
0.0
 20
0.0
 30
0.0
  9
$PLIMCHECK
 70
     0
  9
$PEXTMIN
 10
1.000000E+20
 20
1.000000E+20
 30
1.000000E+20
  9
$PEXTMAX
 10
-1.000000E+20
 20
-1.000000E+20
 30
-1.000000E+20
  9
$PLIMMIN
 10
0.0
 20
0.0
  9
$PLIMMAX
 10
12.0
 20
9.0
  9
$UNITMODE
 70
     0
  9
$VISRETAIN
 70
     0
  9
$PLINEGEN
 70
     1
  9
$PSLTSCALE
 70
     0
  9
$TREEDEPTH
 70
  3020
  9
$PICKSTYLE
 70
     1
  9
$CMLSTYLE
  2
Standard
  9
$CMLJUST
 70
     0
  9
$CMLSCALE
 40
1.0
  9
$PROXYGRAPHICS
 70
     0
  9
$MEASUREMENT
 70
     0
  0
ENDSEC
  0
SECTION
  2
CLASSES
  0
CLASS
  1
LWPOLYLINE
  2
AcDbPolyline
  3
"AutoCAD"
 90
        0
280
     0
281
     1
  0
CLASS
  1
IMAGE
  2
AcDbRasterImage
  3
ISM
 90
      127
280
     0
281
     1
  0
CLASS
  1
OLE2FRAME
  2
AcDbOle2Frame
  3
""
 90
        0
280
     0
281
     1
  0
CLASS
  1
HATCH
  2
AcDbHatch
  3
"ACAD_SEDONA"
 90
        0
280
     0
281
     1
  0
CLASS
  1
DICTIONARYVAR
  2
AcDbDictionaryVar
  3
"AutoCAD"
 90
        0
280
     0
281
     0
  0
CLASS
  1
RASTERVARIABLES
  2
AcDbRasterVariables
  3
ISM
 90
        0
280
     0
281
     0
  0
CLASS
  1
IMAGEDEF
  2
AcDbRasterImageDef
  3
ISM
 90
        0
280
     0
281
     0
  0
CLASS
  1
IMAGEDEF_REACTOR
  2
AcDbRasterImageDefReactor
  3
ISM
 90
        1
280
     0
281
     0
  0
CLASS
  1
IDBUFFER
  2
AcDbIdBuffer
  3
"Acad"
 90
        0
280
     0
281
     0
  0
CLASS
  1
SPATIAL_FILTER
  2
AcDbSpatialFilter
  3
"Acad"
 90
        0
280
     0
281
     0
  0
CLASS
  1
XRECORD
  2
AcDbXrecord
  3
"<Built In>"
 90
        0
280
     0
281
     0
  0
CLASS
  1
SORTENTSTABLE
  2
AcDbSortentsTable
  3
"AutoCAD"
 90
        0
280
     0
281
     0
  0
CLASS
  1
LAYER_INDEX
  2
AcDbLayerIndex
  3
"Acad"
 90
        0
280
     0
281
     0
  0
CLASS
  1
SPATIAL_INDEX
  2
AcDbSpatialIndex
  3
"Acad"
 90
        0
280
     0
281
     0
  0
CLASS
  1
OBJECT_PTR
  2
CAseDLPNTableRecord
  3
"ASE-LPNTableRecord"
 90
        1
280
     0
281
     0
  0
CLASS
  1
LAYOUT
  2
AcDbLayout
  3
"AutoCAD 2000"
 90
        1
280
     0
281
     0
  0
CLASS
  1
PLOTSETTINGS
  2
AcDbPlotSettings
  3
"AutoCAD 2000"
 90
        1
280
     0
281
     0
  0
CLASS
  1
ACDBDICTIONARYWDFLT
  2
AcDbDictionaryWithDefault
  3
"AutoCAD 2000"
 90
        1
280
     0
281
     0
  0
CLASS
  1
ACDBPLACEHOLDER
  2
AcDbPlaceHolder
  3
"AutoCAD 2000"
 90
        1
280
     0
281
     0
  0
CLASS
  1
VBA_PROJECT
  2
AcDbVbaProject
  3
"acadvba"
 90
        1
280
     0
281
     0
  0
CLASS
  1
WIPEOUT
  2
AcDbWipeout
  3
WipeOut|AutoCAD Express Tool|expresstools@autodesk.com
 90
      127
280
     0
281
     1
  0
CLASS
  1
WIPEOUTVARIABLES
  2
AcDbWipeoutVariables
  3
WipeOut|AutoCAD Express Tool|expresstools@autodesk.com
 90
        0
280
     0
281
     0
  0
CLASS
  1
RTEXT
  2
RText
  3
RText|AutoCAD Express Tool|expresstools@autodesk.com
 90
        0
280
     0
281
     1
  0
CLASS
  1
ARCALIGNEDTEXT
  2
AcDbArcAlignedText
  3
ATEXT|AutoCAD Express Tool|expresstools@autodesk.com
 90
        0
280
     0
281
     1
  0
ENDSEC
  0
SECTION
  2
TABLES
  0
TABLE
  2
VPORT
  5
7
100
AcDbSymbolTable
 70
     1
  0
VPORT
  5
15
100
AcDbSymbolTableRecord
100
AcDbViewportTableRecord
  2
*ACTIVE
 70
     0
 10
0.0
 20
0.0
 11
1.0
 21
1.0
 12
964.0
 22
1515.0
 13
0.0
 23
0.0
 14
1.0
 24
1.0
 15
0.0
 25
0.0
 16
0.0
 26
0.0
 36
1.0
 17
0.0
 27
0.0
 37
0.0
 40
2800.0
 41
1.722533
 42
50.0
 43
0.0
 44
0.0
 50
0.0
 51
0.0
 71
     0
 72
   100
 73
     1
 74
     1
 75
     0
 76
     0
 77
     0
 78
     0
  0
ENDTAB
  0
TABLE
  2
LTYPE
  5
4
100
AcDbSymbolTable
 70
     9
  0
LTYPE
  5
11
100
AcDbSymbolTableRecord
100
AcDbLinetypeTableRecord
  2
BYBLOCK
 70
    64
  3

 72
    65
 73
     0
 40
0.0
  0
LTYPE
  5
12
100
AcDbSymbolTableRecord
100
AcDbLinetypeTableRecord
  2
BYLAYER
 70
    64
  3

 72
    65
 73
     0
 40
0.0
  0
LTYPE
  5
13
100
AcDbSymbolTableRecord
100
AcDbLinetypeTableRecord
  2
CONTINUOUS
 70
    64
  3
実線
 72
    65
 73
     0
 40
0.0
  0
LTYPE
  5
1D
100
AcDbSymbolTableRecord
100
AcDbLinetypeTableRecord
  2
EXLTYPE1
 70
    64
  3
破線
 72
    65
 73
     2
 40
3.0
 49
2.0
 74
     0
 49
-1.0
 74
     0
  0
LTYPE
  5
1E
100
AcDbSymbolTableRecord
100
AcDbLinetypeTableRecord
  2
EXLTYPE2
 70
    64
  3
点線
 72
    65
 73
     2
 40
2.0
 49
1.0
 74
     0
 49
-1.0
 74
     0
  0
LTYPE
  5
1F
100
AcDbSymbolTableRecord
100
AcDbLinetypeTableRecord
  2
EXLTYPE3
 70
    64
  3
一点鎖線
 72
    65
 73
     4
 40
10.0
 49
7.0
 74
     0
 49
-1.0
 74
     0
 49
1.0
 74
     0
 49
-1.0
 74
     0
  0
LTYPE
  5
20
100
AcDbSymbolTableRecord
100
AcDbLinetypeTableRecord
  2
EXLTYPE4
 70
    64
  3
二点鎖線
 72
    65
 73
     6
 40
12.0
 49
7.0
 74
     0
 49
-1.0
 74
     0
 49
1.0
 74
     0
 49
-1.0
 74
     0
 49
1.0
 74
     0
 49
-1.0
 74
     0
  0
LTYPE
  5
21
100
AcDbSymbolTableRecord
100
AcDbLinetypeTableRecord
  2
EXLTYPE5
 70
    64
  3
三点鎖線
 72
    65
 73
     8
 40
37.0
 49
30.0
 74
     0
 49
-1.0
 74
     0
 49
1.0
 74
     0
 49
-1.0
 74
     0
 49
1.0
 74
     0
 49
-1.0
 74
     0
 49
1.0
 74
     0
 49
-1.0
 74
     0
  0
LTYPE
  5
22
100
AcDbSymbolTableRecord
100
AcDbLinetypeTableRecord
  2
EXLTYPE6
 70
    64
  3
四点鎖線
 72
    65
 73
    10
 40
39.0
 49
30.0
 74
     0
 49
-1.0
 74
     0
 49
1.0
 74
     0
 49
-1.0
 74
     0
 49
1.0
 74
     0
 49
-1.0
 74
     0
 49
1.0
 74
     0
 49
-1.0
 74
     0
 49
1.0
 74
     0
 49
-1.0
 74
     0
  0
ENDTAB
  0
TABLE
  2
LAYER
  5
2
100
AcDbSymbolTable
 70
     9
  0
LAYER
  5
14
100
AcDbSymbolTableRecord
100
AcDbLayerTableRecord
  2
0
 70
     0
 62
     7
  6
CONTINUOUS
  0
LAYER
  5
25
100
AcDbSymbolTableRecord
100
AcDbLayerTableRecord
  2
枠
 70
    64
 62
     7
  6
CONTINUOUS
  0
LAYER
  5
26
100
AcDbSymbolTableRecord
100
AcDbLayerTableRecord
  2
便器
 70
    64
 62
     7
  6
CONTINUOUS
  0
LAYER
  5
27
100
AcDbSymbolTableRecord
100
AcDbLayerTableRecord
  2
タンク
 70
    64
 62
     7
  6
CONTINUOUS
  0
LAYER
  5
28
100
AcDbSymbolTableRecord
100
AcDbLayerTableRecord
  2
止水栓
 70
    64
 62
     7
  6
CONTINUOUS
  0
LAYER
  5
29
100
AcDbSymbolTableRecord
100
AcDbLayerTableRecord
  2
便座
 70
    64
 62
     7
  6
CONTINUOUS
  0
LAYER
  5
2A
100
AcDbSymbolTableRecord
100
AcDbLayerTableRecord
  2
紙巻器
 70
    64
 62
     7
  6
CONTINUOUS
  0
LAYER
  5
2B
100
AcDbSymbolTableRecord
100
AcDbLayerTableRecord
  2
寸法
 70
    64
 62
     7
  6
CONTINUOUS
  0
LAYER
  5
2C
100
AcDbSymbolTableRecord
100
AcDbLayerTableRecord
  2
器具明細表
 70
    64
 62
     7
  6
CONTINUOUS
  0
ENDTAB
  0
TABLE
  2
STYLE
  5
3
100
AcDbSymbolTable
 70
     6
  0
STYLE
  5
17
100
AcDbSymbolTableRecord
100
AcDbTextStyleTableRecord
  2
STANDARD
 70
     0
 40
0.0
 41
1.0
 50
0.0
 71
     0
 42
0.0
  3
monotxt
  4
extfont
  0
STYLE
  5
23
100
AcDbSymbolTableRecord
100
AcDbTextStyleTableRecord
  2
EXCADSTD
 70
    64
 40
0.0
 41
1.0
 50
0.0
 71
     0
 42
0.2
  3
monotxt
  4
extfont
  0
STYLE
  5
24
100
AcDbSymbolTableRecord
100
AcDbTextStyleTableRecord
  2
EXCADVERT
 70
    68
 40
0.0
 41
1.0
 50
0.0
 71
     0
 42
0.286885
  3
monotxt
  4
extfont
  0
STYLE
  5
B6
100
AcDbSymbolTableRecord
100
AcDbTextStyleTableRecord
  2
EXCADTTF1
 70
    64
 40
0.0
 41
1.0
 50
0.0
 71
     0
 42
0.2
  3
MS Gothic.ttf
  4

1001
ACAD
1000
MS Gothic
1071
    32817
  0
STYLE
  5
940
100
AcDbSymbolTableRecord
100
AcDbTextStyleTableRecord
  2
EXCADDIM1
 70
    64
 40
0.0
 41
0.95
 50
0.0
 71
     0
 42
0.2
  3
monotxt
  4
extfont
  0
STYLE
  5
962
100
AcDbSymbolTableRecord
100
AcDbTextStyleTableRecord
  2
EXCADDIM2
 70
    64
 40
0.0
 41
0.84
 50
0.0
 71
     0
 42
0.2
  3
monotxt
  4
extfont
  0
ENDTAB
  0
TABLE
  2
VIEW
  5
5
100
AcDbSymbolTable
 70
     0
  0
ENDTAB
  0
TABLE
  2
UCS
  5
6
100
AcDbSymbolTable
 70
     0
  0
ENDTAB
  0
TABLE
  2
APPID
  5
8
100
AcDbSymbolTable
 70
     1
  0
APPID
  5
16
100
AcDbSymbolTableRecord
100
AcDbRegAppTableRecord
  2
ACAD
 70
     0
  0
ENDTAB
  0
TABLE
  2
DIMSTYLE
  5
9
100
AcDbSymbolTable
 70
     1
  0
DIMSTYLE
105
18
100
AcDbSymbolTableRecord
100
AcDbDimStyleTableRecord
  2
STANDARD
 70
     0
  3

  4

  5

  6

  7

 40
1.0
 41
0.18
 42
0.0625
 43
0.38
 44
0.18
 45
0.0
 46
0.0
 47
0.0
 48
0.0
 71
     0
 72
     0
 73
     1
 74
     1
 75
     0
 76
     0
 77
     0
 78
     0
140
0.18
141
0.09
142
0.0
143
25.4
144
1.0
145
0.0
146
1.0
147
0.09
170
     0
171
     2
172
     1
173
     0
174
     0
175
     0
176
     0
177
     0
178
     0
270
     2
271
     4
272
     4
273
     2
274
     2
275
     0
280
     0
281
     0
282
     0
283
     1
284
     0
285
     0
286
     0
287
     0
288
     0
340
17
  0
ENDTAB
  0
TABLE
  2
BLOCK_RECORD
  5
1
100
AcDbSymbolTable
 70
    21
  0
BLOCK_RECORD
  5
A
100
AcDbSymbolTableRecord
100
AcDbBlockTableRecord
  2
*MODEL_SPACE
  0
BLOCK_RECORD
  5
B
100
AcDbSymbolTableRecord
100
AcDbBlockTableRecord
  2
*PAPER_SPACE
  0
BLOCK_RECORD
  5
2D
100
AcDbSymbolTableRecord
100
AcDbBlockTableRecord
  2
_EX_NORM
  0
BLOCK_RECORD
  5
2E
100
AcDbSymbolTableRecord
100
AcDbBlockTableRecord
  2
_EX_BNORM
  0
BLOCK_RECORD
  5
2F
100
AcDbSymbolTableRecord
100
AcDbBlockTableRecord
  2
_EX_BCIR
  0
BLOCK_RECORD
  5
30
100
AcDbSymbolTableRecord
100
AcDbBlockTableRecord
  2
_EX_RCIVIL
  0
BLOCK_RECORD
  5
31
100
AcDbSymbolTableRecord
100
AcDbBlockTableRecord
  2
_EX_SLANT
  0
BLOCK_RECORD
  5
32
100
AcDbSymbolTableRecord
100
AcDbBlockTableRecord
  2
_EX_NONE
  0
BLOCK_RECORD
  5
33
100
AcDbSymbolTableRecord
100
AcDbBlockTableRecord
  2
_EX_CIVIL
  0
BLOCK_RECORD
  5
34
100
AcDbSymbolTableRecord
100
AcDbBlockTableRecord
  2
_EX_WCIR
  0
BLOCK_RECORD
  5
35
100
AcDbSymbolTableRecord
100
AcDbBlockTableRecord
  2
_EX_WCIR2
  0
BLOCK_RECORD
  5
36
100
AcDbSymbolTableRecord
100
AcDbBlockTableRecord
  2
_EX_WNORM
  0
BLOCK_RECORD
  5
37
100
AcDbSymbolTableRecord
100
AcDbBlockTableRecord
  2
_EX_NNORM
  0
BLOCK_RECORD
  5
38
100
AcDbSymbolTableRecord
100
AcDbBlockTableRecord
  2
_EX_BBOX
  0
BLOCK_RECORD
  5
39
100
AcDbSymbolTableRecord
100
AcDbBlockTableRecord
  2
_EX_WBOX
  0
BLOCK_RECORD
  5
3A
100
AcDbSymbolTableRecord
100
AcDbBlockTableRecord
  2
_EX_INTEGRAL
  0
BLOCK_RECORD
  5
936
100
AcDbSymbolTableRecord
100
AcDbBlockTableRecord
  2
*D14
  0
BLOCK_RECORD
  5
942
100
AcDbSymbolTableRecord
100
AcDbBlockTableRecord
  2
*D15
  0
BLOCK_RECORD
  5
94E
100
AcDbSymbolTableRecord
100
AcDbBlockTableRecord
  2
*D16
  0
BLOCK_RECORD
  5
959
100
AcDbSymbolTableRecord
100
AcDbBlockTableRecord
  2
*D17
  0
BLOCK_RECORD
  5
964
100
AcDbSymbolTableRecord
100
AcDbBlockTableRecord
  2
*D18
  0
BLOCK_RECORD
  5
975
100
AcDbSymbolTableRecord
100
AcDbBlockTableRecord
  2
*D19
  0
BLOCK_RECORD
  5
981
100
AcDbSymbolTableRecord
100
AcDbBlockTableRecord
  2
*D20
  0
ENDTAB
  0
ENDSEC
  0
SECTION
  2
BLOCKS
  0
BLOCK
  5
D
100
AcDbEntity
  8
0
100
AcDbBlockBegin
  2
*MODEL_SPACE
 70
     0
 10
0.0
 20
0.0
 30
0.0
  3
*MODEL_SPACE
  1

  0
ENDBLK
  5
E
100
AcDbEntity
  8
0
100
AcDbBlockEnd
  0
BLOCK
  5
F
100
AcDbEntity
 67
     1
  8
0
100
AcDbBlockBegin
  2
*PAPER_SPACE
 70
     0
 10
0.0
 20
0.0
 30
0.0
  3
*PAPER_SPACE
  1

  0
ENDBLK
  5
10
100
AcDbEntity
 67
     1
  8
0
100
AcDbBlockEnd
  0
BLOCK
  5
3B
100
AcDbEntity
  8
0
100
AcDbBlockBegin
  2
_EX_NORM
 70
     0
 10
0.0
 20
0.0
 30
0.0
  3
_EX_NORM
  1

  0
LINE
  5
3C
100
AcDbEntity
  8
0
  6
CONTINUOUS
 62
     0
100
AcDbLine
 10
0.0
 20
0.0
 30
0.0
 11
-1.0
 21
0.0
 31
0.0
  0
LINE
  5
3D
100
AcDbEntity
  8
0
  6
CONTINUOUS
 62
     0
100
AcDbLine
 10
0.0
 20
0.0
 30
0.0
 11
-1.0
 21
0.166667
 31
0.0
  0
LINE
  5
3E
100
AcDbEntity
  8
0
  6
CONTINUOUS
 62
     0
100
AcDbLine
 10
0.0
 20
0.0
 30
0.0
 11
-1.0
 21
-0.166667
 31
0.0
  0
ENDBLK
  5
3F
100
AcDbEntity
  8
0
100
AcDbBlockEnd
  0
BLOCK
  5
40
100
AcDbEntity
  8
0
100
AcDbBlockBegin
  2
_EX_BNORM
 70
     0
 10
0.0
 20
0.0
 30
0.0
  3
_EX_BNORM
  1

  0
LINE
  5
41
100
AcDbEntity
  8
0
  6
CONTINUOUS
 62
     0
100
AcDbLine
 10
0.0
 20
0.0
 30
0.0
 11
-1.0
 21
0.0
 31
0.0
  0
LINE
  5
42
100
AcDbEntity
  8
0
  6
CONTINUOUS
 62
     0
100
AcDbLine
 10
0.0
 20
0.0
 30
0.0
 11
-1.0
 21
0.166667
 31
0.0
  0
LINE
  5
43
100
AcDbEntity
  8
0
  6
CONTINUOUS
 62
     0
100
AcDbLine
 10
0.0
 20
0.0
 30
0.0
 11
-1.0
 21
-0.166667
 31
0.0
  0
LINE
  5
44
100
AcDbEntity
  8
0
  6
CONTINUOUS
 62
     0
100
AcDbLine
 10
0.0
 20
0.0
 30
0.0
 11
-1.0
 21
0.083333
 31
0.0
  0
LINE
  5
45
100
AcDbEntity
  8
0
  6
CONTINUOUS
 62
     0
100
AcDbLine
 10
0.0
 20
0.0
 30
0.0
 11
-1.0
 21
-0.083333
 31
0.0
  0
LINE
  5
46
100
AcDbEntity
  8
0
  6
CONTINUOUS
 62
     0
100
AcDbLine
 10
-1.0
 20
0.166667
 30
0.0
 11
-1.0
 21
-0.166667
 31
0.0
  0
ENDBLK
  5
47
100
AcDbEntity
  8
0
100
AcDbBlockEnd
  0
BLOCK
  5
48
100
AcDbEntity
  8
0
100
AcDbBlockBegin
  2
_EX_BCIR
 70
     0
 10
0.0
 20
0.0
 30
0.0
  3
_EX_BCIR
  1

  0
LINE
  5
49
100
AcDbEntity
  8
0
  6
CONTINUOUS
 62
     0
100
AcDbLine
 10
0.0
 20
0.0
 30
0.0
 11
-1.0
 21
0.0
 31
0.0
  0
CIRCLE
  5
4A
100
AcDbEntity
  8
0
  6
CONTINUOUS
 62
     0
100
AcDbCircle
 10
0.0
 20
0.0
 30
0.0
 40
0.5
  0
CIRCLE
  5
4B
100
AcDbEntity
  8
0
  6
CONTINUOUS
 62
     0
100
AcDbCircle
 10
0.0
 20
0.0
 30
0.0
 40
0.25
  0
ENDBLK
  5
4C
100
AcDbEntity
  8
0
100
AcDbBlockEnd
  0
BLOCK
  5
4D
100
AcDbEntity
  8
0
100
AcDbBlockBegin
  2
_EX_RCIVIL
 70
     0
 10
0.0
 20
0.0
 30
0.0
  3
_EX_RCIVIL
  1

  0
LINE
  5
4E
100
AcDbEntity
  8
0
  6
CONTINUOUS
 62
     0
100
AcDbLine
 10
0.0
 20
0.0
 30
0.0
 11
-1.0
 21
0.0
 31
0.0
  0
LINE
  5
4F
100
AcDbEntity
  8
0
  6
CONTINUOUS
 62
     0
100
AcDbLine
 10
-1.0
 20
-0.25
 30
0.0
 11
0.0
 21
-0.25
 31
0.0
  0
LINE
  5
50
100
AcDbEntity
  8
0
  6
CONTINUOUS
 62
     0
100
AcDbLine
 10
-1.0
 20
-0.125
 30
0.0
 11
0.0
 21
-0.125
 31
0.0
  0
ENDBLK
  5
51
100
AcDbEntity
  8
0
100
AcDbBlockEnd
  0
BLOCK
  5
52
100
AcDbEntity
  8
0
100
AcDbBlockBegin
  2
_EX_SLANT
 70
     0
 10
0.0
 20
0.0
 30
0.0
  3
_EX_SLANT
  1

  0
LINE
  5
53
100
AcDbEntity
  8
0
  6
CONTINUOUS
 62
     0
100
AcDbLine
 10
0.0
 20
0.0
 30
0.0
 11
-1.0
 21
0.0
 31
0.0
  0
LINE
  5
54
100
AcDbEntity
  8
0
  6
CONTINUOUS
 62
     0
100
AcDbLine
 10
0.707107
 20
0.707107
 30
0.0
 11
-0.707107
 21
-0.707107
 31
0.0
  0
ENDBLK
  5
55
100
AcDbEntity
  8
0
100
AcDbBlockEnd
  0
BLOCK
  5
56
100
AcDbEntity
  8
0
100
AcDbBlockBegin
  2
_EX_NONE
 70
     0
 10
0.0
 20
0.0
 30
0.0
  3
_EX_NONE
  1

  0
LINE
  5
57
100
AcDbEntity
  8
0
  6
CONTINUOUS
 62
     0
100
AcDbLine
 10
0.0
 20
0.0
 30
0.0
 11
-1.0
 21
0.0
 31
0.0
  0
ENDBLK
  5
58
100
AcDbEntity
  8
0
100
AcDbBlockEnd
  0
BLOCK
  5
59
100
AcDbEntity
  8
0
100
AcDbBlockBegin
  2
_EX_CIVIL
 70
     0
 10
0.0
 20
0.0
 30
0.0
  3
_EX_CIVIL
  1

  0
LINE
  5
5A
100
AcDbEntity
  8
0
  6
CONTINUOUS
 62
     0
100
AcDbLine
 10
0.0
 20
0.0
 30
0.0
 11
-1.0
 21
0.0
 31
0.0
  0
LINE
  5
5B
100
AcDbEntity
  8
0
  6
CONTINUOUS
 62
     0
100
AcDbLine
 10
-1.0
 20
0.25
 30
0.0
 11
0.0
 21
0.25
 31
0.0
  0
LINE
  5
5C
100
AcDbEntity
  8
0
  6
CONTINUOUS
 62
     0
100
AcDbLine
 10
-1.0
 20
0.125
 30
0.0
 11
0.0
 21
0.125
 31
0.0
  0
ENDBLK
  5
5D
100
AcDbEntity
  8
0
100
AcDbBlockEnd
  0
BLOCK
  5
5E
100
AcDbEntity
  8
0
100
AcDbBlockBegin
  2
_EX_WCIR
 70
     0
 10
0.0
 20
0.0
 30
0.0
  3
_EX_WCIR
  1

  0
LINE
  5
5F
100
AcDbEntity
  8
0
  6
CONTINUOUS
 62
     0
100
AcDbLine
 10
0.0
 20
0.0
 30
0.0
 11
-1.0
 21
0.0
 31
0.0
  0
CIRCLE
  5
60
100
AcDbEntity
  8
0
  6
CONTINUOUS
 62
     0
100
AcDbCircle
 10
0.0
 20
0.0
 30
0.0
 40
0.5
  0
ENDBLK
  5
61
100
AcDbEntity
  8
0
100
AcDbBlockEnd
  0
BLOCK
  5
62
100
AcDbEntity
  8
0
100
AcDbBlockBegin
  2
_EX_WCIR2
 70
     0
 10
0.0
 20
0.0
 30
0.0
  3
_EX_WCIR2
  1

  0
LINE
  5
63
100
AcDbEntity
  8
0
  6
CONTINUOUS
 62
     0
100
AcDbLine
 10
-0.5
 20
0.0
 30
0.0
 11
-1.0
 21
0.0
 31
0.0
  0
CIRCLE
  5
64
100
AcDbEntity
  8
0
  6
CONTINUOUS
 62
     0
100
AcDbCircle
 10
0.0
 20
0.0
 30
0.0
 40
0.5
  0
ENDBLK
  5
65
100
AcDbEntity
  8
0
100
AcDbBlockEnd
  0
BLOCK
  5
66
100
AcDbEntity
  8
0
100
AcDbBlockBegin
  2
_EX_WNORM
 70
     0
 10
0.0
 20
0.0
 30
0.0
  3
_EX_WNORM
  1

  0
LINE
  5
67
100
AcDbEntity
  8
0
  6
CONTINUOUS
 62
     0
100
AcDbLine
 10
-1.0
 20
0.0
 30
0.0
 11
-1.0
 21
0.0
 31
0.0
  0
LINE
  5
68
100
AcDbEntity
  8
0
  6
CONTINUOUS
 62
     0
100
AcDbLine
 10
0.0
 20
0.0
 30
0.0
 11
-1.0
 21
0.166667
 31
0.0
  0
LINE
  5
69
100
AcDbEntity
  8
0
  6
CONTINUOUS
 62
     0
100
AcDbLine
 10
0.0
 20
0.0
 30
0.0
 11
-1.0
 21
-0.166667
 31
0.0
  0
LINE
  5
6A
100
AcDbEntity
  8
0
  6
CONTINUOUS
 62
     0
100
AcDbLine
 10
-1.0
 20
0.166667
 30
0.0
 11
-1.0
 21
-0.166667
 31
0.0
  0
ENDBLK
  5
6B
100
AcDbEntity
  8
0
100
AcDbBlockEnd
  0
BLOCK
  5
6C
100
AcDbEntity
  8
0
100
AcDbBlockBegin
  2
_EX_NNORM
 70
     0
 10
0.0
 20
0.0
 30
0.0
  3
_EX_NNORM
  1

  0
LINE
  5
6D
100
AcDbEntity
  8
0
  6
CONTINUOUS
 62
     0
100
AcDbLine
 10
0.0
 20
0.0
 30
0.0
 11
-1.0
 21
0.0
 31
0.0
  0
LINE
  5
6E
100
AcDbEntity
  8
0
  6
CONTINUOUS
 62
     0
100
AcDbLine
 10
0.0
 20
0.0
 30
0.0
 11
-1.0
 21
0.166667
 31
0.0
  0
LINE
  5
6F
100
AcDbEntity
  8
0
  6
CONTINUOUS
 62
     0
100
AcDbLine
 10
0.0
 20
0.0
 30
0.0
 11
-1.0
 21
-0.166667
 31
0.0
  0
LINE
  5
70
100
AcDbEntity
  8
0
  6
CONTINUOUS
 62
     0
100
AcDbLine
 10
-1.0
 20
0.166667
 30
0.0
 11
-1.0
 21
-0.166667
 31
0.0
  0
ENDBLK
  5
71
100
AcDbEntity
  8
0
100
AcDbBlockEnd
  0
BLOCK
  5
72
100
AcDbEntity
  8
0
100
AcDbBlockBegin
  2
_EX_BBOX
 70
     0
 10
0.0
 20
0.0
 30
0.0
  3
_EX_BBOX
  1

  0
LINE
  5
73
100
AcDbEntity
  8
0
  6
CONTINUOUS
 62
     0
100
AcDbLine
 10
0.0
 20
0.0
 30
0.0
 11
-1.0
 21
0.0
 31
0.0
  0
LINE
  5
74
100
AcDbEntity
  8
0
  6
CONTINUOUS
 62
     0
100
AcDbLine
 10
-0.5
 20
0.5
 30
0.0
 11
0.5
 21
0.5
 31
0.0
  0
LINE
  5
75
100
AcDbEntity
  8
0
  6
CONTINUOUS
 62
     0
100
AcDbLine
 10
0.5
 20
0.5
 30
0.0
 11
0.5
 21
-0.5
 31
0.0
  0
LINE
  5
76
100
AcDbEntity
  8
0
  6
CONTINUOUS
 62
     0
100
AcDbLine
 10
0.5
 20
-0.5
 30
0.0
 11
-0.5
 21
-0.5
 31
0.0
  0
LINE
  5
77
100
AcDbEntity
  8
0
  6
CONTINUOUS
 62
     0
100
AcDbLine
 10
-0.5
 20
-0.5
 30
0.0
 11
-0.5
 21
0.5
 31
0.0
  0
LINE
  5
78
100
AcDbEntity
  8
0
  6
CONTINUOUS
 62
     0
100
AcDbLine
 10
-0.25
 20
0.25
 30
0.0
 11
0.25
 21
0.25
 31
0.0
  0
LINE
  5
79
100
AcDbEntity
  8
0
  6
CONTINUOUS
 62
     0
100
AcDbLine
 10
0.25
 20
0.25
 30
0.0
 11
0.25
 21
-0.25
 31
0.0
  0
LINE
  5
7A
100
AcDbEntity
  8
0
  6
CONTINUOUS
 62
     0
100
AcDbLine
 10
0.25
 20
-0.25
 30
0.0
 11
-0.25
 21
-0.25
 31
0.0
  0
LINE
  5
7B
100
AcDbEntity
  8
0
  6
CONTINUOUS
 62
     0
100
AcDbLine
 10
-0.25
 20
-0.25
 30
0.0
 11
-0.25
 21
0.25
 31
0.0
  0
ENDBLK
  5
7C
100
AcDbEntity
  8
0
100
AcDbBlockEnd
  0
BLOCK
  5
7D
100
AcDbEntity
  8
0
100
AcDbBlockBegin
  2
_EX_WBOX
 70
     0
 10
0.0
 20
0.0
 30
0.0
  3
_EX_WBOX
  1

  0
LINE
  5
7E
100
AcDbEntity
  8
0
  6
CONTINUOUS
 62
     0
100
AcDbLine
 10
-0.5
 20
0.0
 30
0.0
 11
-1.0
 21
0.0
 31
0.0
  0
LINE
  5
7F
100
AcDbEntity
  8
0
  6
CONTINUOUS
 62
     0
100
AcDbLine
 10
-0.5
 20
0.5
 30
0.0
 11
0.5
 21
0.5
 31
0.0
  0
LINE
  5
80
100
AcDbEntity
  8
0
  6
CONTINUOUS
 62
     0
100
AcDbLine
 10
0.5
 20
0.5
 30
0.0
 11
0.5
 21
-0.5
 31
0.0
  0
LINE
  5
81
100
AcDbEntity
  8
0
  6
CONTINUOUS
 62
     0
100
AcDbLine
 10
0.5
 20
-0.5
 30
0.0
 11
-0.5
 21
-0.5
 31
0.0
  0
LINE
  5
82
100
AcDbEntity
  8
0
  6
CONTINUOUS
 62
     0
100
AcDbLine
 10
-0.5
 20
-0.5
 30
0.0
 11
-0.5
 21
0.5
 31
0.0
  0
ENDBLK
  5
83
100
AcDbEntity
  8
0
100
AcDbBlockEnd
  0
BLOCK
  5
84
100
AcDbEntity
  8
0
100
AcDbBlockBegin
  2
_EX_INTEGRAL
 70
     0
 10
0.0
 20
0.0
 30
0.0
  3
_EX_INTEGRAL
  1

  0
LINE
  5
85
100
AcDbEntity
  8
0
  6
CONTINUOUS
 62
     0
100
AcDbLine
 10
0.0
 20
0.0
 30
0.0
 11
-1.0
 21
0.0
 31
0.0
  0
ARC
  5
86
100
AcDbEntity
  8
0
  6
CONTINUOUS
 62
     0
100
AcDbCircle
 10
0.542115
 20
0.164992
 30
0.0
 40
0.56667
100
AcDbArc
 50
73.07249
 51
196.927513
  0
ARC
  5
87
100
AcDbEntity
  8
0
  6
CONTINUOUS
 62
     0
100
AcDbCircle
 10
-0.542115
 20
-0.164992
 30
0.0
 40
0.56667
100
AcDbArc
 50
253.072487
 51
16.927513
  0
ENDBLK
  5
88
100
AcDbEntity
  8
0
100
AcDbBlockEnd
  0
BLOCK
  5
937
100
AcDbEntity
  8
0
100
AcDbBlockBegin
  2
*D14
 70
    65
 10
0.0
 20
0.0
 30
0.0
  3
*D14
  1

  0
TEXT
  5
938
100
AcDbEntity
  8
寸法
  6
CONTINUOUS
 62
     2
100
AcDbText
 10
699.520367
 20
2135.841832
 30
0.0
 40
40.0
  1
749
 41
0.945
  7
EXCADSTD
 72
     1
 11
749.500367
 21
2135.841832
 31
0.0
100
AcDbText
  0
LINE
  5
939
100
AcDbEntity
  8
寸法
  6
CONTINUOUS
 62
     3
100
AcDbLine
 10
375.000724
 20
2132.341832
 30
0.0
 11
1124.00001
 21
2132.341832
 31
0.0
  0
LINE
  5
93A
100
AcDbEntity
  8
寸法
  6
CONTINUOUS
 62
     3
100
AcDbLine
 10
410.000724
 20
2138.175166
 30
0.0
 11
375.000724
 21
2132.341832
 31
0.0
  0
LINE
  5
93B
100
AcDbEntity
  8
寸法
  6
CONTINUOUS
 62
     3
100
AcDbLine
 10
375.000724
 20
2132.341832
 30
0.0
 11
410.000724
 21
2126.508499
 31
0.0
  0
LINE
  5
93C
100
AcDbEntity
  8
寸法
  6
CONTINUOUS
 62
     3
100
AcDbLine
 10
1089.00001
 20
2126.508499
 30
0.0
 11
1124.00001
 21
2132.341832
 31
0.0
  0
LINE
  5
93D
100
AcDbEntity
  8
寸法
  6
CONTINUOUS
 62
     3
100
AcDbLine
 10
1124.00001
 20
2132.341832
 30
0.0
 11
1089.00001
 21
2138.175166
 31
0.0
  0
LINE
  5
93E
100
AcDbEntity
  8
寸法
  6
CONTINUOUS
 62
     3
100
AcDbLine
 10
375.000724
 20
2284.0
 30
0.0
 11
375.000724
 21
2112.341832
 31
0.0
  0
ENDBLK
  5
93F
100
AcDbEntity
  8
0
100
AcDbBlockEnd
  0
BLOCK
  5
943
100
AcDbEntity
  8
0
100
AcDbBlockBegin
  2
*D15
 70
    65
 10
0.0
 20
0.0
 30
0.0
  3
*D15
  1

  0
LINE
  5
944
100
AcDbEntity
  8
寸法
  6
CONTINUOUS
 62
     3
100
AcDbLine
 10
424.043605
 20
2727.0
 30
0.0
 11
1124.043605
 21
2727.0
 31
0.0
  0
LINE
  5
945
100
AcDbEntity
  8
寸法
  6
CONTINUOUS
 62
     3
100
AcDbLine
 10
459.043605
 20
2732.833333
 30
0.0
 11
424.043605
 21
2727.0
 31
0.0
  0
LINE
  5
946
100
AcDbEntity
  8
寸法
  6
CONTINUOUS
 62
     3
100
AcDbLine
 10
424.043605
 20
2727.0
 30
0.0
 11
459.043605
 21
2721.166667
 31
0.0
  0
LINE
  5
947
100
AcDbEntity
  8
寸法
  6
CONTINUOUS
 62
     3
100
AcDbLine
 10
1089.043605
 20
2721.166667
 30
0.0
 11
1124.043605
 21
2727.0
 31
0.0
  0
LINE
  5
948
100
AcDbEntity
  8
寸法
  6
CONTINUOUS
 62
     3
100
AcDbLine
 10
1124.043605
 20
2727.0
 30
0.0
 11
1089.043605
 21
2732.833333
 31
0.0
  0
TEXT
  5
949
100
AcDbEntity
  8
寸法
  6
CONTINUOUS
 62
     2
100
AcDbText
 10
724.063605
 20
2730.5
 30
0.0
 40
40.0
  1
700
 41
0.945
  7
EXCADSTD
 72
     1
 11
774.043605
 21
2730.5
 31
0.0
100
AcDbText
  0
LINE
  5
94A
100
AcDbEntity
  8
寸法
  6
CONTINUOUS
 62
     3
100
AcDbLine
 10
424.043605
 20
2495.0
 30
0.0
 11
424.043605
 21
2747.0
 31
0.0
  0
LINE
  5
94B
100
AcDbEntity
  8
寸法
  6
CONTINUOUS
 62
     3
100
AcDbLine
 10
1124.043605
 20
2480.0
 30
0.0
 11
1124.043605
 21
2747.0
 31
0.0
  0
ENDBLK
  5
94C
100
AcDbEntity
  8
0
100
AcDbBlockEnd
  0
BLOCK
  5
94F
100
AcDbEntity
  8
0
100
AcDbBlockBegin
  2
*D16
 70
    65
 10
0.0
 20
0.0
 30
0.0
  3
*D16
  1

  0
LINE
  5
950
100
AcDbEntity
  8
寸法
  6
CONTINUOUS
 62
     3
100
AcDbLine
 10
479.018804
 20
560.291336
 30
0.0
 11
479.018804
 21
449.0
 31
0.0
  0
TEXT
  5
951
100
AcDbEntity
  8
寸法
  6
CONTINUOUS
 62
     2
100
AcDbText
 10
368.578804
 20
472.5
 30
0.0
 40
40.0
  1
55
 41
0.945
  7
EXCADSTD
 72
     1
 11
403.018804
 21
472.5
 31
0.0
100
AcDbText
  0
LINE
  5
952
100
AcDbEntity
  8
寸法
  6
CONTINUOUS
 62
     3
100
AcDbLine
 10
579.000012
 20
469.0
 30
0.0
 11
358.518802
 21
469.0
 31
0.0
  0
LINE
  5
953
100
AcDbEntity
  8
寸法
  6
CONTINUOUS
 62
     3
100
AcDbLine
 10
569.000012
 20
474.833333
 30
0.0
 11
534.000012
 21
469.0
 31
0.0
  0
LINE
  5
954
100
AcDbEntity
  8
寸法
  6
CONTINUOUS
 62
     3
100
AcDbLine
 10
534.000012
 20
469.0
 30
0.0
 11
569.000012
 21
463.166667
 31
0.0
  0
LINE
  5
955
100
AcDbEntity
  8
寸法
  6
CONTINUOUS
 62
     3
100
AcDbLine
 10
444.018804
 20
463.166667
 30
0.0
 11
479.018804
 21
469.0
 31
0.0
  0
LINE
  5
956
100
AcDbEntity
  8
寸法
  6
CONTINUOUS
 62
     3
100
AcDbLine
 10
479.018804
 20
469.0
 30
0.0
 11
444.018804
 21
474.833333
 31
0.0
  0
ENDBLK
  5
957
100
AcDbEntity
  8
0
100
AcDbBlockEnd
  0
BLOCK
  5
95A
100
AcDbEntity
  8
0
100
AcDbBlockBegin
  2
*D17
 70
    65
 10
0.0
 20
0.0
 30
0.0
  3
*D17
  1

  0
TEXT
  5
95B
100
AcDbEntity
  8
寸法
  6
CONTINUOUS
 62
     2
100
AcDbText
 10
339.0
 20
654.5
 30
0.0
 40
40.0
  1
100
 41
0.84
  7
EXCADSTD
 72
     1
 11
381.0
 21
654.5
 31
0.0
100
AcDbText
  0
LINE
  5
95C
100
AcDbEntity
  8
寸法
  6
CONTINUOUS
 62
     3
100
AcDbLine
 10
334.0
 20
651.0
 30
0.0
 11
434.0
 21
651.0
 31
0.0
  0
LINE
  5
95D
100
AcDbEntity
  8
寸法
  6
CONTINUOUS
 62
     3
100
AcDbLine
 10
369.0
 20
656.833333
 30
0.0
 11
334.0
 21
651.0
 31
0.0
  0
LINE
  5
95E
100
AcDbEntity
  8
寸法
  6
CONTINUOUS
 62
     3
100
AcDbLine
 10
334.0
 20
651.0
 30
0.0
 11
369.0
 21
645.166667
 31
0.0
  0
LINE
  5
95F
100
AcDbEntity
  8
寸法
  6
CONTINUOUS
 62
     3
100
AcDbLine
 10
399.0
 20
645.166667
 30
0.0
 11
434.0
 21
651.0
 31
0.0
  0
LINE
  5
960
100
AcDbEntity
  8
寸法
  6
CONTINUOUS
 62
     3
100
AcDbLine
 10
434.0
 20
651.0
 30
0.0
 11
399.0
 21
656.833333
 31
0.0
  0
ENDBLK
  5
961
100
AcDbEntity
  8
0
100
AcDbBlockEnd
  0
BLOCK
  5
965
100
AcDbEntity
  8
0
100
AcDbBlockBegin
  2
*D18
 70
    65
 10
0.0
 20
0.0
 30
0.0
  3
*D18
  1

  0
LINE
  5
966
100
AcDbEntity
  8
寸法
  6
CONTINUOUS
 62
     3
100
AcDbLine
 10
327.0
 20
2473.0
 30
0.0
 11
240.00002
 21
2473.0
 31
0.0
  0
TEXT
  5
967
100
AcDbEntity
  8
寸法
  6
CONTINUOUS
 62
     2
100
AcDbText
 10
256.50002
 20
2273.02
 30
0.0
 40
40.0
  1
300
 50
90.0
 41
0.945
  7
EXCADSTD
 72
     1
 11
256.50002
 21
2323.0
 31
0.0
100
AcDbText
  0
LINE
  5
968
100
AcDbEntity
  8
寸法
  6
CONTINUOUS
 62
     3
100
AcDbLine
 10
260.00002
 20
2473.0
 30
0.0
 11
260.00002
 21
2173.0
 31
0.0
  0
LINE
  5
969
100
AcDbEntity
  8
寸法
  6
CONTINUOUS
 62
     3
100
AcDbLine
 10
265.833353
 20
2438.0
 30
0.0
 11
260.00002
 21
2473.0
 31
0.0
  0
LINE
  5
96A
100
AcDbEntity
  8
寸法
  6
CONTINUOUS
 62
     3
100
AcDbLine
 10
260.00002
 20
2473.0
 30
0.0
 11
254.166687
 21
2438.0
 31
0.0
  0
LINE
  5
96B
100
AcDbEntity
  8
寸法
  6
CONTINUOUS
 62
     3
100
AcDbLine
 10
254.166687
 20
2208.0
 30
0.0
 11
260.00002
 21
2173.0
 31
0.0
  0
LINE
  5
96C
100
AcDbEntity
  8
寸法
  6
CONTINUOUS
 62
     3
100
AcDbLine
 10
260.00002
 20
2173.0
 30
0.0
 11
265.833353
 21
2208.0
 31
0.0
  0
ENDBLK
  5
96D
100
AcDbEntity
  8
0
100
AcDbBlockEnd
  0
BLOCK
  5
976
100
AcDbEntity
  8
0
100
AcDbBlockBegin
  2
*D19
 70
    65
 10
0.0
 20
0.0
 30
0.0
  3
*D19
  1

  0
LINE
  5
977
100
AcDbEntity
  8
寸法
  6
CONTINUOUS
 62
     3
100
AcDbLine
 10
313.0
 20
898.0
 30
0.0
 11
267.00004
 21
898.0
 31
0.0
  0
TEXT
  5
978
100
AcDbEntity
  8
寸法
  6
CONTINUOUS
 62
     2
100
AcDbText
 10
283.50004
 20
643.0
 30
0.0
 40
40.0
  1
300（壁給水）
 50
90.0
 41
0.84
  7
EXCADSTD
 72
     1
 11
283.50004
 21
748.0
 31
0.0
100
AcDbText
  0
LINE
  5
979
100
AcDbEntity
  8
寸法
  6
CONTINUOUS
 62
     3
100
AcDbLine
 10
287.00004
 20
898.0
 30
0.0
 11
287.00004
 21
598.0
 31
0.0
  0
LINE
  5
97A
100
AcDbEntity
  8
寸法
  6
CONTINUOUS
 62
     3
100
AcDbLine
 10
292.833373
 20
863.0
 30
0.0
 11
287.00004
 21
898.0
 31
0.0
  0
LINE
  5
97B
100
AcDbEntity
  8
寸法
  6
CONTINUOUS
 62
     3
100
AcDbLine
 10
287.00004
 20
898.0
 30
0.0
 11
281.166707
 21
863.0
 31
0.0
  0
LINE
  5
97C
100
AcDbEntity
  8
寸法
  6
CONTINUOUS
 62
     3
100
AcDbLine
 10
281.166707
 20
633.0
 30
0.0
 11
287.00004
 21
598.0
 31
0.0
  0
LINE
  5
97D
100
AcDbEntity
  8
寸法
  6
CONTINUOUS
 62
     3
100
AcDbLine
 10
287.00004
 20
598.0
 30
0.0
 11
292.833373
 21
633.0
 31
0.0
  0
ENDBLK
  5
97E
100
AcDbEntity
  8
0
100
AcDbBlockEnd
  0
BLOCK
  5
982
100
AcDbEntity
  8
0
100
AcDbBlockBegin
  2
*D20
 70
    65
 10
0.0
 20
0.0
 30
0.0
  3
*D20
  1

  0
TEXT
  5
983
100
AcDbEntity
  8
寸法
  6
CONTINUOUS
 62
     2
100
AcDbText
 10
229.5
 20
1135.533235
 30
0.0
 40
40.0
  1
405
 50
90.0
 41
0.945
  7
EXCADSTD
 72
     1
 11
229.5
 21
1185.513235
 31
0.0
100
AcDbText
  0
LINE
  5
984
100
AcDbEntity
  8
寸法
  6
CONTINUOUS
 62
     3
100
AcDbLine
 10
233.0
 20
1388.013202
 30
0.0
 11
233.0
 21
983.013268
 31
0.0
  0
LINE
  5
985
100
AcDbEntity
  8
寸法
  6
CONTINUOUS
 62
     3
100
AcDbLine
 10
238.833333
 20
1353.013202
 30
0.0
 11
233.0
 21
1388.013202
 31
0.0
  0
LINE
  5
986
100
AcDbEntity
  8
寸法
  6
CONTINUOUS
 62
     3
100
AcDbLine
 10
233.0
 20
1388.013202
 30
0.0
 11
227.166667
 21
1353.013202
 31
0.0
  0
LINE
  5
987
100
AcDbEntity
  8
寸法
  6
CONTINUOUS
 62
     3
100
AcDbLine
 10
227.166667
 20
1018.013268
 30
0.0
 11
233.0
 21
983.013268
 31
0.0
  0
LINE
  5
988
100
AcDbEntity
  8
寸法
  6
CONTINUOUS
 62
     3
100
AcDbLine
 10
233.0
 20
983.013268
 30
0.0
 11
238.833333
 21
1018.013268
 31
0.0
  0
ENDBLK
  5
989
100
AcDbEntity
  8
0
100
AcDbBlockEnd
  0
ENDSEC
  0
SECTION
  2
ENTITIES
  0
TEXT
  5
89
100
AcDbEntity
  8
枠
  6
CONTINUOUS
 62
     2
100
AcDbText
 10
201.5
 20
287.5
 30
0.0
 40
45.0
  1
製図
 41
1.026667
  7
EXCADSTD
 72
     5
 11
302.326
 21
287.5
 31
0.0
100
AcDbText
  0
TEXT
  5
8A
100
AcDbEntity
  8
枠
  6
CONTINUOUS
 62
     2
100
AcDbText
 10
356.5
 20
287.5
 30
0.0
 40
45.0
  1
写図
 41
1.026667
  7
EXCADSTD
 72
     5
 11
457.326
 21
287.5
 31
0.0
100
AcDbText
  0
TEXT
  5
8B
100
AcDbEntity
  8
枠
  6
CONTINUOUS
 62
     2
100
AcDbText
 10
504.0
 20
287.5
 30
0.0
 40
45.0
  1
検図
 41
0.933333
  7
EXCADSTD
 72
     5
 11
595.66
 21
287.5
 31
0.0
100
AcDbText
  0
TEXT
  5
8C
100
AcDbEntity
  8
枠
  6
CONTINUOUS
 62
     2
100
AcDbText
 10
634.0
 20
287.5
 30
0.0
 40
45.0
  1
承認
 41
0.933333
  7
EXCADSTD
 72
     5
 11
725.66
 21
287.5
 31
0.0
100
AcDbText
  0
TEXT
  5
8D
100
AcDbEntity
  8
枠
  6
CONTINUOUS
 62
     2
100
AcDbText
 10
774.0
 20
325.0
 30
0.0
 40
45.0
  1
品名
  7
EXCADVERT
 72
     3
 11
774.0
 21
225.0
 31
0.0
100
AcDbText
  0
TEXT
  5
8E
100
AcDbEntity
  8
枠
  6
CONTINUOUS
 62
     2
100
AcDbText
 10
1414.0
 20
325.0
 30
0.0
 40
45.0
  1
品番
  7
EXCADVERT
 72
     3
 11
1414.0
 21
225.0
 31
0.0
100
AcDbText
  0
TEXT
  5
8F
100
AcDbEntity
  8
枠
  6
CONTINUOUS
 62
     2
100
AcDbText
 10
1834.0
 20
325.0
 30
0.0
 40
45.0
  1
尺度
  7
EXCADVERT
 72
     3
 11
1834.0
 21
225.0
 31
0.0
100
AcDbText
  0
TEXT
  5
90
100
AcDbEntity
  8
枠
  6
CONTINUOUS
 62
     2
100
AcDbText
 10
1414.0
 20
210.0
 30
0.0
 40
45.0
  1
図番
  7
EXCADVERT
 72
     3
 11
1414.0
 21
120.0
 31
0.0
100
AcDbText
  0
TEXT
  5
91
100
AcDbEntity
  8
枠
  6
CONTINUOUS
 62
     2
100
AcDbText
 10
1896.0
 20
316.5
 30
0.0
 40
35.0
  1
１
 41
0.785714
  7
EXCADVERT
 72
     3
 11
1896.0
 21
281.5
 31
0.0
100
AcDbText
  0
LINE
  5
92
100
AcDbEntity
  8
枠
  6
CONTINUOUS
 62
     7
100
AcDbLine
 10
179.0
 20
115.0
 30
0.0
 11
1999.0
 21
115.0
 31
0.0
  0
LINE
  5
93
100
AcDbEntity
  8
枠
  6
CONTINUOUS
 62
     7
100
AcDbLine
 10
1999.0
 20
115.0
 30
0.0
 11
1999.0
 21
2915.0
 31
0.0
  0
LINE
  5
94
100
AcDbEntity
  8
枠
  6
CONTINUOUS
 62
     7
100
AcDbLine
 10
179.0
 20
115.0
 30
0.0
 11
179.0
 21
2915.0
 31
0.0
  0
LINE
  5
95
100
AcDbEntity
  8
枠
  6
CONTINUOUS
 62
     7
100
AcDbLine
 10
179.0
 20
2915.0
 30
0.0
 11
1999.0
 21
2915.0
 31
0.0
  0
LINE
  5
96
100
AcDbEntity
  8
枠
  6
CONTINUOUS
 62
     7
100
AcDbLine
 10
179.0
 20
335.0
 30
0.0
 11
1999.0
 21
335.0
 31
0.0
  0
LINE
  5
97
100
AcDbEntity
  8
枠
  6
CONTINUOUS
 62
     6
100
AcDbLine
 10
1999.0
 20
215.0
 30
0.0
 11
749.0
 21
215.0
 31
0.0
  0
LINE
  5
98
100
AcDbEntity
  8
枠
  6
CONTINUOUS
 62
     6
100
AcDbLine
 10
1859.0
 20
335.0
 30
0.0
 11
1859.0
 21
215.0
 31
0.0
  0
LINE
  5
99
100
AcDbEntity
  8
枠
  6
CONTINUOUS
 62
     6
100
AcDbLine
 10
1809.0
 20
335.0
 30
0.0
 11
1809.0
 21
215.0
 31
0.0
  0
LINE
  5
9A
100
AcDbEntity
  8
枠
  6
CONTINUOUS
 62
     6
100
AcDbLine
 10
1439.0
 20
335.0
 30
0.0
 11
1439.0
 21
115.0
 31
0.0
  0
LINE
  5
9B
100
AcDbEntity
  8
枠
  6
CONTINUOUS
 62
     6
100
AcDbLine
 10
1389.0
 20
335.0
 30
0.0
 11
1389.0
 21
115.0
 31
0.0
  0
LINE
  5
9C
100
AcDbEntity
  8
枠
  6
CONTINUOUS
 62
     6
100
AcDbLine
 10
799.0
 20
335.0
 30
0.0
 11
799.0
 21
215.0
 31
0.0
  0
LINE
  5
9D
100
AcDbEntity
  8
枠
  6
CONTINUOUS
 62
     6
100
AcDbLine
 10
749.0
 20
335.0
 30
0.0
 11
749.0
 21
115.0
 31
0.0
  0
LINE
  5
9E
100
AcDbEntity
  8
枠
  6
CONTINUOUS
 62
     6
100
AcDbLine
 10
619.0
 20
335.0
 30
0.0
 11
619.0
 21
115.0
 31
0.0
  0
LINE
  5
9F
100
AcDbEntity
  8
枠
  6
CONTINUOUS
 62
     6
100
AcDbLine
 10
489.0
 20
335.0
 30
0.0
 11
489.0
 21
115.0
 31
0.0
  0
LINE
  5
A0
100
AcDbEntity
  8
枠
  6
CONTINUOUS
 62
     6
100
AcDbLine
 10
334.0
 20
335.0
 30
0.0
 11
334.0
 21
115.0
 31
0.0
  0
LINE
  5
A1
100
AcDbEntity
  8
枠
  6
CONTINUOUS
 62
     6
100
AcDbLine
 10
179.0
 20
285.0
 30
0.0
 11
749.0
 21
285.0
 31
0.0
  0
LINE
  5
A2
100
AcDbEntity
  8
枠
  6
CONTINUOUS
 62
     6
100
AcDbLine
 10
1891.654114
 20
238.00293
 30
0.0
 11
1968.993897
 21
316.699829
 31
0.0
  0
TEXT
  5
A3
100
AcDbEntity
  8
枠
  6
CONTINUOUS
 62
     2
100
AcDbText
 10
1930.279297
 20
238.348846
 30
0.0
 40
30.0
  1
１０
 41
0.826
  7
EXCADSTD
 72
     5
 11
1984.358698
 21
238.348846
 31
0.0
100
AcDbText
  0
TEXT
  5
A4
100
AcDbEntity
  8
枠
  6
CONTINUOUS
 62
     2
100
AcDbText
 10
714.0
 20
2829.5
 30
0.0
 40
40.0
  1
Ｗ．Ｌ
 41
0.833
  7
EXCADSTD
 72
     5
 11
833.0
 21
2829.5
 31
0.0
100
AcDbText
  0
LINE
  5
A5
100
AcDbEntity
  8
枠
  6
CONTINUOUS
 62
     7
100
AcDbLine
 10
334.0
 20
2873.0
 30
0.0
 11
334.0
 21
2030.0
 31
0.0
  0
TEXT
  5
A6
100
AcDbEntity
  8
枠
  6
CONTINUOUS
 62
     2
100
AcDbText
 10
1010.6
 20
601.5
 30
0.0
 40
40.0
  1
Ｆ．Ｌ
 41
0.833
  7
EXCADSTD
 72
     5
 11
1129.6
 21
601.5
 31
0.0
100
AcDbText
  0
LINE
  5
A7
100
AcDbEntity
  8
枠
  6
CONTINUOUS
 62
     7
100
AcDbLine
 10
1299.0
 20
598.0
 30
0.0
 11
1973.0
 21
598.0
 31
0.0
  0
LINE
  5
A8
100
AcDbEntity
  8
枠
  6
CONTINUOUS
 62
     7
100
AcDbLine
 10
334.0
 20
598.0
 30
0.0
 11
1252.0
 21
598.0
 31
0.0
  0
TEXT
  5
A9
100
AcDbEntity
  8
枠
  6
CONTINUOUS
 62
     2
100
AcDbText
 10
1442.795166
 20
275.931549
 30
0.0
 40
55.0
  1
ＳＣ８１Ｓ－ＡＴ（ＢＴ）
 41
0.470909
  7
EXCADSTD
 72
     5
 11
1812.795166
 21
275.931549
 31
0.0
100
AcDbText
  0
TEXT
  5
AA
100
AcDbEntity
  8
枠
  6
CONTINUOUS
 62
     2
100
AcDbText
 10
805.610718
 20
272.931519
 30
0.0
 40
57.5
  1
洋風タンク密結ネオボルテックス便器セット（防露仕様）
 41
0.32701
  7
EXCADSTD
 72
     5
 11
1387.61073
 21
272.931519
 31
0.0
100
AcDbText
  0
LINE
  5
AB
100
AcDbEntity
  8
枠
  6
EXLTYPE2
 62
     6
100
AcDbLine
 10
179.0
 20
165.0
 30
0.0
 11
489.0
 21
165.0
 31
0.0
  0
CIRCLE
  5
AC
100
AcDbEntity
  8
枠
  6
CONTINUOUS
 62
     6
100
AcDbCircle
 10
229.0
 20
140.0
 30
0.0
 40
1.0
  0
CIRCLE
  5
AD
100
AcDbEntity
  8
枠
  6
CONTINUOUS
 62
     6
100
AcDbCircle
 10
279.0
 20
140.0
 30
0.0
 40
1.0
  0
CIRCLE
  5
AE
100
AcDbEntity
  8
枠
  6
CONTINUOUS
 62
     6
100
AcDbCircle
 10
384.0
 20
140.0
 30
0.0
 40
1.0
  0
CIRCLE
  5
AF
100
AcDbEntity
  8
枠
  6
CONTINUOUS
 62
     6
100
AcDbCircle
 10
434.0
 20
140.0
 30
0.0
 40
1.0
  0
TEXT
  5
B0
100
AcDbEntity
  8
枠
  6
CONTINUOUS
 62
     6
100
AcDbText
 10
206.5
 20
200.0
 30
0.0
 40
50.0
  1
間瀬
 41
0.8736
  7
EXCADSTD
 72
     5
 11
301.8264
 21
200.0
 31
0.0
100
AcDbText
  0
TEXT
  5
B1
100
AcDbEntity
  8
枠
  6
CONTINUOUS
 62
     6
100
AcDbText
 10
634.5
 20
200.0
 30
0.0
 40
50.0
  1
古林
 41
0.8568
  7
EXCADSTD
 72
     5
 11
727.9932
 21
200.0
 31
0.0
100
AcDbText
  0
LINE
  5
B2
100
AcDbEntity
  8
枠
  6
EXLTYPE2
 62
     6
100
AcDbLine
 10
-71.0
 20
1515.0
 30
0.0
 11
179.0
 21
1515.0
 31
0.0
  0
TEXT
  5
B3
100
AcDbEntity
  8
枠
  6
CONTINUOUS
 62
     6
100
AcDbText
 10
181.044116
 20
126.950073
 30
0.0
 40
25.0
  1
２０
 41
0.75768
  7
EXCADSTD
 72
     5
 11
222.382775
 21
126.950073
 31
0.0
100
AcDbText
  0
TEXT
  5
B4
100
AcDbEntity
  8
枠
  6
CONTINUOUS
 62
     6
100
AcDbText
 10
242.344116
 20
126.950073
 30
0.0
 40
25.0
  1
８
 41
0.89208
  7
EXCADSTD
 72
     5
 11
263.584116
 21
126.950073
 31
0.0
100
AcDbText
  0
TEXT
  5
B5
100
AcDbEntity
  8
枠
  6
CONTINUOUS
 62
     6
100
AcDbText
 10
295.119116
 20
126.950073
 30
0.0
 40
25.0
  1
８
 41
0.89208
  7
EXCADSTD
 72
     5
 11
316.359116
 21
126.950073
 31
0.0
100
AcDbText
  0
TEXT
  5
B7
100
AcDbEntity
  8
枠
  6
CONTINUOUS
 62
     2
100
AcDbText
 10
769.0
 20
135.0
 30
0.0
 40
45.0
  1
ジャニス工業株式会社
  7
EXCADTTF1
 72
     5
 11
1369.0
 21
135.0
 31
0.0
100
AcDbText
  0
TEXT
  5
B8
100
AcDbEntity
  8
枠
  6
CONTINUOUS
 62
     7
100
AcDbText
 10
1453.25
 20
130.75
 30
0.0
 40
70.0
  1
Ｃ７０１Ｚ０４８
 41
0.795
  7
EXCADSTD
 72
     5
 11
1983.25
 21
130.75
 31
0.0
100
AcDbText
  0
TEXT
  5
B9
100
AcDbEntity
  8
枠
  6
CONTINUOUS
 62
     2
100
AcDbText
 10
1443.085693
 20
219.916992
 30
0.0
 40
57.5
  1
ＳＴＶ１８９ＦＵ－０ＡＥ０Ｄ
 41
0.38087
  7
EXCADSTD
 72
     5
 11
1808.085678
 21
219.916992
 31
0.0
100
AcDbText
  0
TEXT
  5
BA
100
AcDbEntity
  8
枠
  6
CONTINUOUS
 62
     2
100
AcDbText
 10
377.5
 20
1538.0
 30
0.0
 40
40.0
  1
Ｗ．Ｌ
 50
90.0
 41
0.833
  7
EXCADSTD
 72
     5
 11
377.5
 21
1657.0
 31
0.0
100
AcDbText
  0
LINE
  5
BB
100
AcDbEntity
  8
枠
  6
CONTINUOUS
 62
     7
100
AcDbLine
 10
334.0
 20
1657.0
 30
0.0
 11
334.0
 21
598.0
 31
0.0
  0
TEXT
  5
BC
100
AcDbEntity
  8
枠
  6
CONTINUOUS
 62
     2
100
AcDbText
 10
807.61084
 20
218.271332
 30
0.0
 40
55.0
  1
樹脂製防露型密結ロータンクセット
 41
0.496364
  7
EXCADSTD
 72
     5
 11
1327.610838
 21
218.271332
 31
0.0
100
AcDbText
  0
TEXT
  5
BD
100
AcDbEntity
  8
便器
  6
CONTINUOUS
 62
     2
100
AcDbText
 10
374.500006
 20
412.5
 30
0.0
 40
40.0
  1
２００
 41
0.833
  7
EXCADSTD
 72
     5
 11
493.500006
 21
412.5
 31
0.0
100
AcDbText
  0
LINE
  5
BE
100
AcDbEntity
  8
便器
  6
CONTINUOUS
 62
     3
100
AcDbLine
 10
334.0
 20
409.0
 30
0.0
 11
534.000012
 21
409.0
 31
0.0
  0
LINE
  5
BF
100
AcDbEntity
  8
便器
  6
CONTINUOUS
 62
     3
100
AcDbLine
 10
369.0
 20
414.833333
 30
0.0
 11
334.0
 21
409.0
 31
0.0
  0
LINE
  5
C0
100
AcDbEntity
  8
便器
  6
CONTINUOUS
 62
     3
100
AcDbLine
 10
334.0
 20
409.0
 30
0.0
 11
369.0
 21
403.166667
 31
0.0
  0
LINE
  5
C1
100
AcDbEntity
  8
便器
  6
CONTINUOUS
 62
     3
100
AcDbLine
 10
499.000012
 20
403.166667
 30
0.0
 11
534.000012
 21
409.0
 31
0.0
  0
LINE
  5
C2
100
AcDbEntity
  8
便器
  6
CONTINUOUS
 62
     3
100
AcDbLine
 10
534.000012
 20
409.0
 30
0.0
 11
499.000012
 21
414.833333
 31
0.0
  0
TEXT
  5
C3
100
AcDbEntity
  8
便器
  6
CONTINUOUS
 62
     2
100
AcDbText
 10
1149.5
 20
723.5
 30
0.0
 40
40.0
  1
３７０
 50
90.0
 41
0.833
  7
EXCADSTD
 72
     5
 11
1149.5
 21
842.5
 31
0.0
100
AcDbText
  0
LINE
  5
C4
100
AcDbEntity
  8
便器
  6
CONTINUOUS
 62
     3
100
AcDbLine
 10
1153.0
 20
968.0
 30
0.0
 11
1153.0
 21
598.0
 31
0.0
  0
LINE
  5
C5
100
AcDbEntity
  8
便器
  6
CONTINUOUS
 62
     3
100
AcDbLine
 10
1158.833333
 20
933.0
 30
0.0
 11
1153.0
 21
968.0
 31
0.0
  0
LINE
  5
C6
100
AcDbEntity
  8
便器
  6
CONTINUOUS
 62
     3
100
AcDbLine
 10
1153.0
 20
968.0
 30
0.0
 11
1147.166667
 21
933.0
 31
0.0
  0
LINE
  5
C7
100
AcDbEntity
  8
便器
  6
CONTINUOUS
 62
     3
100
AcDbLine
 10
1147.166667
 20
633.0
 30
0.0
 11
1153.0
 21
598.0
 31
0.0
  0
LINE
  5
C8
100
AcDbEntity
  8
便器
  6
CONTINUOUS
 62
     3
100
AcDbLine
 10
1153.0
 20
598.0
 30
0.0
 11
1158.833333
 21
633.0
 31
0.0
  0
TEXT
  5
C9
100
AcDbEntity
  8
便器
  6
CONTINUOUS
 62
     2
100
AcDbText
 10
1619.5
 20
676.5
 30
0.0
 40
40.0
  1
１８０
 41
0.833
  7
EXCADSTD
 72
     5
 11
1738.5
 21
676.5
 31
0.0
100
AcDbText
  0
LINE
  5
CA
100
AcDbEntity
  8
便器
  6
CONTINUOUS
 62
     3
100
AcDbLine
 10
1588.83591
 20
673.0
 30
0.0
 11
1769.16409
 21
673.0
 31
0.0
  0
LINE
  5
CB
100
AcDbEntity
  8
便器
  6
CONTINUOUS
 62
     3
100
AcDbLine
 10
1623.83591
 20
678.833333
 30
0.0
 11
1588.83591
 21
673.0
 31
0.0
  0
LINE
  5
CC
100
AcDbEntity
  8
便器
  6
CONTINUOUS
 62
     3
100
AcDbLine
 10
1588.83591
 20
673.0
 30
0.0
 11
1623.83591
 21
667.166667
 31
0.0
  0
LINE
  5
CD
100
AcDbEntity
  8
便器
  6
CONTINUOUS
 62
     3
100
AcDbLine
 10
1734.16409
 20
667.166667
 30
0.0
 11
1769.16409
 21
673.0
 31
0.0
  0
LINE
  5
CE
100
AcDbEntity
  8
便器
  6
CONTINUOUS
 62
     3
100
AcDbLine
 10
1769.16409
 20
673.0
 30
0.0
 11
1734.16409
 21
678.833333
 31
0.0
  0
TEXT
  5
CF
100
AcDbEntity
  8
便器
  6
CONTINUOUS
 62
     2
100
AcDbText
 10
829.50001
 20
2195.841832
 30
0.0
 40
40.0
  1
４７０
 41
0.833
  7
EXCADSTD
 72
     5
 11
948.50001
 21
2195.841832
 31
0.0
100
AcDbText
  0
LINE
  5
D0
100
AcDbEntity
  8
便器
  6
CONTINUOUS
 62
     3
100
AcDbLine
 10
654.00001
 20
2192.341832
 30
0.0
 11
1124.00001
 21
2192.341832
 31
0.0
  0
LINE
  5
D1
100
AcDbEntity
  8
便器
  6
CONTINUOUS
 62
     3
100
AcDbLine
 10
689.00001
 20
2198.175166
 30
0.0
 11
654.00001
 21
2192.341832
 31
0.0
  0
LINE
  5
D2
100
AcDbEntity
  8
便器
  6
CONTINUOUS
 62
     3
100
AcDbLine
 10
654.00001
 20
2192.341832
 30
0.0
 11
689.00001
 21
2186.508499
 31
0.0
  0
LINE
  5
D3
100
AcDbEntity
  8
便器
  6
CONTINUOUS
 62
     3
100
AcDbLine
 10
1089.00001
 20
2186.508499
 30
0.0
 11
1124.00001
 21
2192.341832
 31
0.0
  0
LINE
  5
D4
100
AcDbEntity
  8
便器
  6
CONTINUOUS
 62
     3
100
AcDbLine
 10
1124.00001
 20
2192.341832
 30
0.0
 11
1089.00001
 21
2198.175166
 31
0.0
  0
TEXT
  5
D5
100
AcDbEntity
  8
便器
  6
CONTINUOUS
 62
     2
100
AcDbText
 10
1200.50001
 20
2413.341832
 30
0.0
 40
40.0
  1
３５５
 50
90.0
 41
0.833
  7
EXCADSTD
 72
     5
 11
1200.50001
 21
2532.341832
 31
0.0
100
AcDbText
  0
LINE
  5
D6
100
AcDbEntity
  8
便器
  6
CONTINUOUS
 62
     3
100
AcDbLine
 10
1204.00001
 20
2650.341832
 30
0.0
 11
1204.00001
 21
2295.341832
 31
0.0
  0
LINE
  5
D7
100
AcDbEntity
  8
便器
  6
CONTINUOUS
 62
     3
100
AcDbLine
 10
1209.833343
 20
2615.341832
 30
0.0
 11
1204.00001
 21
2650.341832
 31
0.0
  0
LINE
  5
D8
100
AcDbEntity
  8
便器
  6
CONTINUOUS
 62
     3
100
AcDbLine
 10
1204.00001
 20
2650.341832
 30
0.0
 11
1198.166677
 21
2615.341832
 31
0.0
  0
LINE
  5
D9
100
AcDbEntity
  8
便器
  6
CONTINUOUS
 62
     3
100
AcDbLine
 10
1198.166677
 20
2330.341832
 30
0.0
 11
1204.00001
 21
2295.341832
 31
0.0
  0
LINE
  5
DA
100
AcDbEntity
  8
便器
  6
CONTINUOUS
 62
     3
100
AcDbLine
 10
1204.00001
 20
2295.341832
 30
0.0
 11
1209.833343
 21
2330.341832
 31
0.0
  0
LEADER
  5
DB
100
AcDbEntity
  8
便器
  6
CONTINUOUS
 62
     6
100
AcDbLeader
  3
STANDARD
 73
     3
 74
     1
 75
     0
 40
0.0
 76
     2
 10
481.918584
 20
587.0
 30
0.0
 10
832.0
 20
517.103679
 30
0.0
 77
     6
1001
ACAD
1000
DSTYLE
1002
{
1070
    41
1040
35.0
1070
     5
1000
_EX_NORM
1070
     6
1000
_EX_NORM
1070
     7
1000
_EX_NORM
1070
   341
1005
2D
1002
}
  0
LEADER
  5
DC
100
AcDbEntity
  8
便器
  6
CONTINUOUS
 62
     6
100
AcDbLeader
  3
STANDARD
 73
     3
 74
     1
 75
     0
 40
0.0
 76
     2
 10
572.275256
 20
589.996565
 30
0.0
 10
832.0
 20
517.103679
 30
0.0
 77
     6
1001
ACAD
1000
DSTYLE
1002
{
1070
    41
1040
35.0
1070
     5
1000
_EX_NORM
1070
     6
1000
_EX_NORM
1070
     7
1000
_EX_NORM
1070
   341
1005
2D
1002
}
  0
LEADER
  5
DD
100
AcDbEntity
  8
便器
  6
CONTINUOUS
 62
     6
100
AcDbLeader
  3
STANDARD
 73
     3
 74
     1
 75
     0
 40
0.0
 76
     2
 10
915.818584
 20
612.800819
 30
0.0
 10
832.0
 20
517.103679
 30
0.0
 77
     6
1001
ACAD
1000
DSTYLE
1002
{
1070
    41
1040
35.0
1070
     5
1000
_EX_NORM
1070
     6
1000
_EX_NORM
1070
     7
1000
_EX_NORM
1070
   341
1005
2D
1002
}
  0
LINE
  5
DE
100
AcDbEntity
  8
便器
  6
CONTINUOUS
 62
     3
100
AcDbLine
 10
847.00001
 20
2295.341832
 30
0.0
 11
1224.00001
 21
2295.341832
 31
0.0
  0
LINE
  5
DF
100
AcDbEntity
  8
便器
  6
CONTINUOUS
 62
     3
100
AcDbLine
 10
847.00001
 20
2650.341832
 30
0.0
 11
1224.00001
 21
2650.341832
 31
0.0
  0
ARC
  5
E0
100
AcDbEntity
  8
便器
  6
EXLTYPE2
 62
     2
100
AcDbCircle
 10
984.043605
 20
2473.0
 30
0.0
 40
140.0
100
AcDbArc
 50
309.465387
 51
0.0
  0
ARC
  5
E1
100
AcDbEntity
  8
便器
  6
EXLTYPE2
 62
     2
100
AcDbCircle
 10
812.054348
 20
2556.171791
 30
0.0
 40
200.0
100
AcDbArc
 50
286.435057
 51
310.877792
  0
ARC
  5
E2
100
AcDbEntity
  8
便器
  6
EXLTYPE2
 62
     2
100
AcDbCircle
 10
744.448406
 20
2455.008967
 30
0.0
 40
300.0
100
AcDbArc
 50
182.577895
 51
195.17991
  0
ARC
  5
E3
100
AcDbEntity
  8
便器
  6
EXLTYPE2
 62
     2
100
AcDbCircle
 10
722.764757
 20
5348.0
 30
0.0
 40
3000.0
100
AcDbArc
 50
265.300887
 51
270.0
  0
ARC
  5
E4
100
AcDbEntity
  8
便器
  6
EXLTYPE2
 62
     2
100
AcDbCircle
 10
484.353704
 20
2359.978979
 30
0.0
 40
35.0
100
AcDbArc
 50
205.245292
 51
262.516497
  0
ARC
  5
E5
100
AcDbEntity
  8
便器
  6
EXLTYPE2
 62
     2
100
AcDbCircle
 10
914.12629
 20
2557.920958
 30
0.0
 40
250.0
100
AcDbArc
 50
286.544913
 51
309.465387
  0
ARC
  5
E6
100
AcDbEntity
  8
便器
  6
EXLTYPE2
 62
     2
100
AcDbCircle
 10
755.468675
 20
2748.0
 30
0.0
 40
400.0
100
AcDbArc
 50
270.0
 51
286.435057
  0
ARC
  5
E7
100
AcDbEntity
  8
便器
  6
EXLTYPE2
 62
     2
100
AcDbCircle
 10
828.696234
 20
2845.5
 30
0.0
 40
550.0
100
AcDbArc
 50
267.1413
 51
286.544913
  0
LINE
  5
E8
100
AcDbEntity
  8
便器
  6
EXLTYPE2
 62
     2
100
AcDbLine
 10
722.764757
 20
2348.0
 30
0.0
 11
755.468675
 21
2348.0
 31
0.0
  0
ARC
  5
E9
100
AcDbEntity
  8
便器
  6
EXLTYPE2
 62
     2
100
AcDbCircle
 10
722.764757
 20
-402.0
 30
0.0
 40
3000.0
100
AcDbArc
 50
90.0
 51
94.699113
  0
ARC
  5
EA
100
AcDbEntity
  8
便器
  6
EXLTYPE2
 62
     2
100
AcDbCircle
 10
744.448406
 20
2490.991033
 30
0.0
 40
300.0
100
AcDbArc
 50
164.82009
 51
177.422105
  0
ARC
  5
EB
100
AcDbEntity
  8
便器
  6
EXLTYPE2
 62
     2
100
AcDbCircle
 10
914.12629
 20
2388.079042
 30
0.0
 40
250.0
100
AcDbArc
 50
50.534613
 51
73.455087
  0
ARC
  5
EC
100
AcDbEntity
  8
便器
  6
EXLTYPE2
 62
     2
100
AcDbCircle
 10
755.468675
 20
2198.0
 30
0.0
 40
400.0
100
AcDbArc
 50
73.564943
 51
90.0
  0
LINE
  5
ED
100
AcDbEntity
  8
便器
  6
EXLTYPE2
 62
     2
100
AcDbLine
 10
722.764757
 20
2598.0
 30
0.0
 11
755.468675
 21
2598.0
 31
0.0
  0
ARC
  5
EE
100
AcDbEntity
  8
便器
  6
EXLTYPE2
 62
     2
100
AcDbCircle
 10
884.043605
 20
2473.0
 30
0.0
 40
90.0
100
AcDbArc
 50
0.0
 51
49.122208
  0
ARC
  5
EF
100
AcDbEntity
  8
便器
  6
EXLTYPE2
 62
     2
100
AcDbCircle
 10
884.043605
 20
2473.0
 30
0.0
 40
90.0
100
AcDbArc
 50
310.877792
 51
0.0
  0
ARC
  5
F0
100
AcDbEntity
  8
便器
  6
EXLTYPE2
 62
     2
100
AcDbCircle
 10
812.054348
 20
2389.828209
 30
0.0
 40
200.0
100
AcDbArc
 50
49.122208
 51
73.564943
  0
ARC
  5
F1
100
AcDbEntity
  8
便器
  6
EXLTYPE2
 62
     2
100
AcDbCircle
 10
984.043605
 20
2473.0
 30
0.0
 40
140.0
100
AcDbArc
 50
0.0
 51
50.534613
  0
ARC
  5
F2
100
AcDbEntity
  8
便器
  6
EXLTYPE2
 62
     2
100
AcDbCircle
 10
479.043605
 20
2383.0
 30
0.0
 40
25.0
100
AcDbArc
 50
195.17991
 51
265.300887
  0
ARC
  5
F3
100
AcDbEntity
  8
便器
  6
EXLTYPE2
 62
     2
100
AcDbCircle
 10
484.353704
 20
2586.021021
 30
0.0
 40
35.0
100
AcDbArc
 50
97.483503
 51
154.754708
  0
ARC
  5
F4
100
AcDbEntity
  8
便器
  6
EXLTYPE2
 62
     2
100
AcDbCircle
 10
479.043605
 20
2563.0
 30
0.0
 40
25.0
100
AcDbArc
 50
94.699113
 51
164.82009
  0
CIRCLE
  5
F5
100
AcDbEntity
  8
便器
  6
EXLTYPE2
 62
     2
100
AcDbCircle
 10
479.043605
 20
2563.0
 30
0.0
 40
8.0
  0
CIRCLE
  5
F6
100
AcDbEntity
  8
便器
  6
EXLTYPE2
 62
     2
100
AcDbCircle
 10
479.043605
 20
2383.0
 30
0.0
 40
8.0
  0
CIRCLE
  5
F7
100
AcDbEntity
  8
便器
  6
EXLTYPE2
 62
     2
100
AcDbCircle
 10
534.000012
 20
2473.0
 30
0.0
 40
40.0
  0
ARC
  5
F8
100
AcDbEntity
  8
便器
  6
EXLTYPE2
 62
     2
100
AcDbCircle
 10
1000.558168
 20
-1345.206704
 30
0.0
 40
4000.0
100
AcDbArc
 50
96.179727
 51
97.483503
  0
ARC
  5
F9
100
AcDbEntity
  8
便器
  6
EXLTYPE2
 62
     2
100
AcDbCircle
 10
1000.758168
 20
6291.206704
 30
0.0
 40
4000.0
100
AcDbArc
 50
262.516497
 51
263.817414
  0
CIRCLE
  5
FA
100
AcDbEntity
  8
便器
  6
EXLTYPE2
 62
     6
100
AcDbCircle
 10
926.999734
 20
2500.75
 30
0.0
 40
11.5
  0
CIRCLE
  5
FB
100
AcDbEntity
  8
便器
  6
EXLTYPE2
 62
     6
100
AcDbCircle
 10
926.999734
 20
2500.75
 30
0.0
 40
11.5
  0
CIRCLE
  5
FC
100
AcDbEntity
  8
便器
  6
EXLTYPE2
 62
     6
100
AcDbCircle
 10
926.999734
 20
2500.75
 30
0.0
 40
11.5
  0
CIRCLE
  5
FD
100
AcDbEntity
  8
便器
  6
EXLTYPE2
 62
     6
100
AcDbCircle
 10
926.999734
 20
2445.25
 30
0.0
 40
11.5
  0
LINE
  5
FE
100
AcDbEntity
  8
便器
  6
EXLTYPE2
 62
     6
100
AcDbLine
 10
953.499734
 20
2493.0
 30
0.0
 11
934.531758
 21
2509.440145
 31
0.0
  0
LINE
  5
FF
100
AcDbEntity
  8
便器
  6
EXLTYPE2
 62
     6
100
AcDbLine
 10
953.499734
 20
2453.0
 30
0.0
 11
934.531758
 21
2436.559855
 31
0.0
  0
LINE
  5
100
100
AcDbEntity
  8
便器
  6
EXLTYPE2
 62
     6
100
AcDbLine
 10
953.499734
 20
2493.0
 30
0.0
 11
953.499734
 21
2453.0
 31
0.0
  0
LINE
  5
101
100
AcDbEntity
  8
便器
  6
EXLTYPE2
 62
     6
100
AcDbLine
 10
923.499734
 20
2489.795549
 30
0.0
 11
923.499734
 21
2456.204451
 31
0.0
  0
CIRCLE
  5
102
100
AcDbEntity
  8
便器
  6
EXLTYPE2
 62
     6
100
AcDbCircle
 10
926.999734
 20
2500.75
 30
0.0
 40
3.0
  0
CIRCLE
  5
103
100
AcDbEntity
  8
便器
  6
EXLTYPE2
 62
     6
100
AcDbCircle
 10
926.999734
 20
2445.25
 30
0.0
 40
3.0
  0
LINE
  5
104
100
AcDbEntity
  8
便器
  6
CONTINUOUS
 62
     7
100
AcDbLine
 10
334.0
 20
2873.0
 30
0.0
 11
1275.0
 21
2873.0
 31
0.0
  0
LINE
  5
105
100
AcDbEntity
  8
便器
  6
CONTINUOUS
 62
     3
100
AcDbLine
 10
1124.00001
 20
2464.0
 30
0.0
 11
1124.00001
 21
2052.341832
 31
0.0
  0
LINE
  5
106
100
AcDbEntity
  8
便器
  6
EXLTYPE3
 62
     1
100
AcDbLine
 10
334.0
 20
2473.0
 30
0.0
 11
1143.36665
 21
2473.0
 31
0.0
  0
LINE
  5
107
100
AcDbEntity
  8
便器
  6
CONTINUOUS
 62
     3
100
AcDbLine
 10
1115.111123
 20
967.997099
 30
0.0
 11
1173.0
 21
967.996884
 31
0.0
  0
LINE
  5
108
100
AcDbEntity
  8
便器
  6
CONTINUOUS
 62
     6
100
AcDbLine
 10
793.0
 20
659.0
 30
0.0
 11
832.0
 21
517.103679
 31
0.0
  0
ARC
  5
109
100
AcDbEntity
  8
便器
  6
CONTINUOUS
 62
     6
100
AcDbCircle
 10
461.922246
 20
577.669568
 30
0.0
 40
20.0
100
AcDbArc
 50
328.740234
 51
1.073222
  0
ARC
  5
10A
100
AcDbEntity
  8
便器
  6
CONTINUOUS
 62
     6
100
AcDbCircle
 10
496.115361
 20
577.669568
 30
0.0
 40
20.0
100
AcDbArc
 50
178.926758
 51
211.259766
  0
LINE
  5
10B
100
AcDbEntity
  8
便器
  6
CONTINUOUS
 62
     6
100
AcDbLine
 10
476.118718
 20
578.044172
 30
0.0
 11
476.118718
 21
597.999721
 31
0.0
  0
LINE
  5
10C
100
AcDbEntity
  8
便器
  6
CONTINUOUS
 62
     6
100
AcDbLine
 10
481.918584
 20
578.044172
 30
0.0
 11
481.918584
 21
597.999721
 31
0.0
  0
LINE
  5
10D
100
AcDbEntity
  8
便器
  6
CONTINUOUS
 62
     7
100
AcDbLine
 10
453.68846
 20
948.000042
 30
0.0
 11
509.000012
 21
948.000042
 31
0.0
  0
ARC
  5
10E
100
AcDbEntity
  8
便器
  6
CONTINUOUS
 62
     7
100
AcDbCircle
 10
1004.000012
 20
956.58652
 30
0.0
 40
120.0
100
AcDbArc
 50
318.981444
 51
0.0
  0
ARC
  5
10F
100
AcDbEntity
  8
便器
  6
CONTINUOUS
 62
     7
100
AcDbCircle
 10
868.19054
 20
1074.721135
 30
0.0
 40
300.0
100
AcDbArc
 50
297.733588
 51
318.981444
  0
ARC
  5
110
100
AcDbEntity
  8
便器
  6
CONTINUOUS
 62
     7
100
AcDbCircle
 10
1104.000012
 20
868.0
 30
0.0
 40
100.0
100
AcDbArc
 50
83.62063
 51
90.0
  0
ARC
  5
111
100
AcDbEntity
  8
便器
  6
CONTINUOUS
 62
     7
100
AcDbCircle
 10
476.320866
 20
772.245778
 30
0.0
 40
50.0
100
AcDbArc
 50
336.4432
 51
53.296433
  0
ARC
  5
112
100
AcDbEntity
  8
便器
  6
CONTINUOUS
 62
     7
100
AcDbCircle
 10
716.000349
 20
748.798751
 30
0.0
 40
60.0
100
AcDbArc
 50
336.924108
 51
54.646525
  0
LINE
  5
113
100
AcDbEntity
  8
便器
  6
CONTINUOUS
 62
     7
100
AcDbLine
 10
651.95649
 20
855.531357
 30
0.0
 11
725.501587
 21
713.619945
 31
0.0
  0
ARC
  5
114
100
AcDbEntity
  8
便器
  6
CONTINUOUS
 62
     7
100
AcDbCircle
 10
503.306932
 20
698.0
 30
0.0
 40
40.0
100
AcDbArc
 50
270.0
 51
345.0
  0
LINE
  5
115
100
AcDbEntity
  8
便器
  6
CONTINUOUS
 62
     7
100
AcDbLine
 10
455.749785
 20
628.0
 30
0.0
 11
510.614996
 21
628.0
 31
0.0
  0
ARC
  5
116
100
AcDbEntity
  8
便器
  6
CONTINUOUS
 62
     7
100
AcDbCircle
 10
455.749785
 20
618.0
 30
0.0
 40
10.0
100
AcDbArc
 50
90.0
 51
180.0
  0
ARC
  5
117
100
AcDbEntity
  8
便器
  6
CONTINUOUS
 62
     7
100
AcDbCircle
 10
490.985498
 20
663.0
 30
0.0
 40
5.0
100
AcDbArc
 50
270.0
 51
345.0
  0
ARC
  5
118
100
AcDbEntity
  8
便器
  6
CONTINUOUS
 62
     7
100
AcDbCircle
 10
687.153661
 20
680.32444
 30
0.0
 40
180.0
100
AcDbArc
 50
156.4432
 51
165.0
  0
LINE
  5
119
100
AcDbEntity
  8
便器
  6
CONTINUOUS
 62
     7
100
AcDbLine
 10
678.830212
 20
762.073598
 30
0.0
 11
728.754192
 21
708.459393
 31
0.0
  0
ARC
  5
11A
100
AcDbEntity
  8
便器
  6
CONTINUOUS
 62
     7
100
AcDbCircle
 10
604.520264
 20
728.0
 30
0.0
 40
50.0
100
AcDbArc
 50
90.0
 51
165.0
  0
ARC
  5
11B
100
AcDbEntity
  8
便器
  6
CONTINUOUS
 62
     7
100
AcDbCircle
 10
739.000012
 20
739.0
 30
0.0
 40
35.0
100
AcDbArc
 50
270.0
 51
336.924108
  0
ARC
  5
11C
100
AcDbEntity
  8
便器
  6
CONTINUOUS
 62
     7
100
AcDbCircle
 10
739.000012
 20
718.0
 30
0.0
 40
14.0
100
AcDbArc
 50
197.847675
 51
270.232506
  0
ARC
  5
11D
100
AcDbEntity
  8
便器
  6
CONTINUOUS
 62
     7
100
AcDbCircle
 10
788.765638
 20
837.399764
 30
0.0
 40
200.0
100
AcDbArc
 50
332.209682
 51
341.773298
  0
ARC
  5
11E
100
AcDbEntity
  8
便器
  6
CONTINUOUS
 62
     7
100
AcDbCircle
 10
-13.776369
 20
531.349457
 30
0.0
 40
1000.0
100
AcDbArc
 50
3.821628
 51
11.892711
  0
ARC
  5
11F
100
AcDbEntity
  8
便器
  6
CONTINUOUS
 62
     7
100
AcDbCircle
 10
974.544192
 20
739.489963
 30
0.0
 40
10.0
100
AcDbArc
 50
152.209682
 51
191.892711
  0
LINE
  5
120
100
AcDbEntity
  8
便器
  6
CONTINUOUS
 62
     7
100
AcDbLine
 10
523.459852
 20
889.372325
 30
0.0
 11
560.928476
 21
826.859014
 31
0.0
  0
ARC
  5
121
100
AcDbEntity
  8
便器
  6
CONTINUOUS
 62
     7
100
AcDbCircle
 10
562.525566
 20
975.11116
 30
0.0
 40
60.0
100
AcDbArc
 50
206.862611
 51
266.230818
  0
ARC
  5
122
100
AcDbEntity
  8
便器
  6
CONTINUOUS
 62
     7
100
AcDbCircle
 10
532.037163
 20
894.513311
 30
0.0
 40
10.0
100
AcDbArc
 50
87.98129
 51
210.937222
  0
LINE
  5
123
100
AcDbEntity
  8
便器
  6
CONTINUOUS
 62
     7
100
AcDbLine
 10
614.000012
 20
822.0
 30
0.0
 11
569.505787
 21
822.0
 31
0.0
  0
ARC
  5
124
100
AcDbEntity
  8
便器
  6
CONTINUOUS
 62
     7
100
AcDbCircle
 10
569.505787
 20
832.0
 30
0.0
 40
10.0
100
AcDbArc
 50
210.937222
 51
270.0
  0
ARC
  5
125
100
AcDbEntity
  8
便器
  6
CONTINUOUS
 62
     7
100
AcDbCircle
 10
564.000012
 20
983.0
 30
0.0
 40
15.0
100
AcDbArc
 50
180.0
 51
270.0
  0
ARC
  5
126
100
AcDbEntity
  8
便器
  6
CONTINUOUS
 62
     7
100
AcDbCircle
 10
680.501672
 20
889.280274
 30
0.0
 40
10.0
100
AcDbArc
 50
11.096542
 51
87.98129
  0
ARC
  5
127
100
AcDbEntity
  8
便器
  6
CONTINUOUS
 62
     7
100
AcDbCircle
 10
837.510357
 20
920.074313
 30
0.0
 40
150.0
100
AcDbArc
 50
191.096542
 51
234.646525
  0
LINE
  5
128
100
AcDbEntity
  8
便器
  6
CONTINUOUS
 62
     7
100
AcDbLine
 10
1124.000012
 20
957.555315
 30
0.0
 11
1124.000012
 21
956.58652
 31
0.0
  0
ARC
  5
129
100
AcDbEntity
  8
便器
  6
CONTINUOUS
 62
     7
100
AcDbCircle
 10
1114.000012
 20
957.442719
 30
0.0
 40
10.0
100
AcDbArc
 50
0.645139
 51
83.62063
  0
ARC
  5
12A
100
AcDbEntity
  8
便器
  6
CONTINUOUS
 62
     6
100
AcDbCircle
 10
962.15509
 20
633.000352
 30
0.0
 40
19.5
100
AcDbArc
 50
338.381836
 51
21.618195
  0
LINE
  5
12B
100
AcDbEntity
  8
便器
  6
CONTINUOUS
 62
     6
100
AcDbLine
 10
976.4549
 20
635.900382
 30
0.0
 11
973.004028
 21
635.900382
 31
0.0
  0
LINE
  5
12C
100
AcDbEntity
  8
便器
  6
CONTINUOUS
 62
     6
100
AcDbLine
 10
962.404028
 20
635.900382
 30
0.0
 11
958.65509
 21
635.900382
 31
0.0
  0
LINE
  5
12D
100
AcDbEntity
  8
便器
  6
CONTINUOUS
 62
     6
100
AcDbLine
 10
976.4549
 20
630.100332
 30
0.0
 11
973.004028
 21
630.100332
 31
0.0
  0
LINE
  5
12E
100
AcDbEntity
  8
便器
  6
CONTINUOUS
 62
     6
100
AcDbLine
 10
962.404028
 20
630.100332
 30
0.0
 11
958.65509
 21
630.100332
 31
0.0
  0
LINE
  5
12F
100
AcDbEntity
  8
便器
  6
CONTINUOUS
 62
     6
100
AcDbLine
 10
976.4549
 20
635.900382
 30
0.0
 11
976.4549
 21
630.100332
 31
0.0
  0
LINE
  5
130
100
AcDbEntity
  8
便器
  6
CONTINUOUS
 62
     6
100
AcDbLine
 10
958.65509
 20
635.900382
 30
0.0
 11
958.65509
 21
630.100332
 31
0.0
  0
LINE
  5
131
100
AcDbEntity
  8
便器
  6
CONTINUOUS
 62
     6
100
AcDbLine
 10
958.65509
 20
635.320422
 30
0.0
 11
955.999984
 21
635.320422
 31
0.0
  0
LINE
  5
132
100
AcDbEntity
  8
便器
  6
CONTINUOUS
 62
     6
100
AcDbLine
 10
948.999734
 20
658.000352
 30
0.0
 11
953.999734
 21
653.000352
 31
0.0
  0
LINE
  5
133
100
AcDbEntity
  8
便器
  6
CONTINUOUS
 62
     6
100
AcDbLine
 10
953.999984
 20
646.700819
 30
0.0
 11
953.999984
 21
653.000352
 31
0.0
  0
LINE
  5
134
100
AcDbEntity
  8
便器
  6
CONTINUOUS
 62
     6
100
AcDbLine
 10
948.999734
 20
658.000352
 30
0.0
 11
943.999984
 21
658.000352
 31
0.0
  0
LINE
  5
135
100
AcDbEntity
  8
便器
  6
CONTINUOUS
 62
     6
100
AcDbLine
 10
958.65509
 20
630.680282
 30
0.0
 11
955.999984
 21
630.680282
 31
0.0
  0
LINE
  5
136
100
AcDbEntity
  8
便器
  6
CONTINUOUS
 62
     6
100
AcDbLine
 10
953.999984
 20
612.800819
 30
0.0
 11
953.999984
 21
637.600819
 31
0.0
  0
LINE
  5
137
100
AcDbEntity
  8
便器
  6
CONTINUOUS
 62
     6
100
AcDbLine
 10
928.999734
 20
658.000352
 30
0.0
 11
923.999734
 21
653.000352
 31
0.0
  0
LINE
  5
138
100
AcDbEntity
  8
便器
  6
CONTINUOUS
 62
     6
100
AcDbLine
 10
933.999734
 20
658.000352
 30
0.0
 11
928.999984
 21
658.000352
 31
0.0
  0
LINE
  5
139
100
AcDbEntity
  8
便器
  6
CONTINUOUS
 62
     6
100
AcDbLine
 10
923.999984
 20
646.700819
 30
0.0
 11
923.999984
 21
653.000352
 31
0.0
  0
LINE
  5
13A
100
AcDbEntity
  8
便器
  6
CONTINUOUS
 62
     6
100
AcDbLine
 10
923.999984
 20
612.800819
 30
0.0
 11
923.999984
 21
637.600819
 31
0.0
  0
LINE
  5
13B
100
AcDbEntity
  8
便器
  6
CONTINUOUS
 62
     6
100
AcDbLine
 10
915.818584
 20
618.000352
 30
0.0
 11
915.818584
 21
612.800819
 31
0.0
  0
LINE
  5
13C
100
AcDbEntity
  8
便器
  6
CONTINUOUS
 62
     6
100
AcDbLine
 10
923.999734
 20
618.000352
 30
0.0
 11
915.818584
 21
618.000352
 31
0.0
  0
LINE
  5
13D
100
AcDbEntity
  8
便器
  6
CONTINUOUS
 62
     6
100
AcDbLine
 10
979.219097
 20
638.664339
 30
0.0
 11
976.4549
 21
635.900382
 31
0.0
  0
LINE
  5
13E
100
AcDbEntity
  8
便器
  6
EXLTYPE1
 62
     6
100
AcDbLine
 10
976.4549
 20
630.100332
 30
0.0
 11
980.13874
 21
626.416492
 31
0.0
  0
LINE
  5
13F
100
AcDbEntity
  8
便器
  6
CONTINUOUS
 62
     6
100
AcDbLine
 10
953.999984
 20
598.000819
 30
0.0
 11
953.999984
 21
604.700819
 31
0.0
  0
LINE
  5
140
100
AcDbEntity
  8
便器
  6
CONTINUOUS
 62
     6
100
AcDbLine
 10
923.999984
 20
598.000819
 30
0.0
 11
923.999984
 21
604.700819
 31
0.0
  0
LINE
  5
141
100
AcDbEntity
  8
便器
  6
CONTINUOUS
 62
     6
100
AcDbLine
 10
926.999734
 20
564.999862
 30
0.0
 11
929.249734
 21
570.333112
 31
0.0
  0
LINE
  5
142
100
AcDbEntity
  8
便器
  6
CONTINUOUS
 62
     6
100
AcDbLine
 10
924.749734
 20
570.333112
 30
0.0
 11
926.999734
 21
564.999862
 31
0.0
  0
LINE
  5
143
100
AcDbEntity
  8
便器
  6
CONTINUOUS
 62
     6
100
AcDbLine
 10
924.749734
 20
570.333112
 30
0.0
 11
924.749854
 21
597.999862
 31
0.0
  0
LINE
  5
144
100
AcDbEntity
  8
便器
  6
CONTINUOUS
 62
     6
100
AcDbLine
 10
929.249734
 20
570.333112
 30
0.0
 11
929.249854
 21
597.999862
 31
0.0
  0
LINE
  5
145
100
AcDbEntity
  8
便器
  6
CONTINUOUS
 62
     6
100
AcDbLine
 10
915.818584
 20
604.700819
 30
0.0
 11
915.818584
 21
598.000979
 31
0.0
  0
ARC
  5
146
100
AcDbEntity
  8
便器
  6
CONTINUOUS
 62
     7
100
AcDbCircle
 10
1035.720499
 20
756.077584
 30
0.0
 40
60.0
100
AcDbArc
 50
117.733588
 51
161.773298
  0
LINE
  5
147
100
AcDbEntity
  8
便器
  6
CONTINUOUS
 62
     2
100
AcDbLine
 10
864.65886
 20
741.0
 30
0.0
 11
964.65886
 21
741.0
 31
0.0
  0
LINE
  5
148
100
AcDbEntity
  8
便器
  6
CONTINUOUS
 62
     6
100
AcDbLine
 10
481.5
 20
929.994794
 30
0.0
 11
486.5
 21
929.994794
 31
0.0
  0
LINE
  5
149
100
AcDbEntity
  8
便器
  6
CONTINUOUS
 62
     6
100
AcDbLine
 10
480.05
 20
933.994794
 30
0.0
 11
487.95
 21
933.994794
 31
0.0
  0
LINE
  5
14A
100
AcDbEntity
  8
便器
  6
CONTINUOUS
 62
     6
100
AcDbLine
 10
480.95
 20
933.994794
 30
0.0
 11
481.5
 21
929.994794
 31
0.0
  0
LINE
  5
14B
100
AcDbEntity
  8
便器
  6
CONTINUOUS
 62
     6
100
AcDbLine
 10
487.05
 20
933.994794
 30
0.0
 11
486.5
 21
929.994794
 31
0.0
  0
LINE
  5
14C
100
AcDbEntity
  8
便器
  6
CONTINUOUS
 62
     6
100
AcDbLine
 10
480.05
 20
942.995584
 30
0.0
 11
480.05
 21
937.095584
 31
0.0
  0
LINE
  5
14D
100
AcDbEntity
  8
便器
  6
CONTINUOUS
 62
     6
100
AcDbLine
 10
476.65
 20
942.995584
 30
0.0
 11
476.65
 21
937.095584
 31
0.0
  0
ARC
  5
14E
100
AcDbEntity
  8
便器
  6
CONTINUOUS
 62
     6
100
AcDbCircle
 10
478.35
 20
939.735584
 30
0.0
 40
3.14
100
AcDbArc
 50
237.220919
 51
302.779081
  0
ARC
  5
14F
100
AcDbEntity
  8
便器
  6
CONTINUOUS
 62
     6
100
AcDbCircle
 10
484.0
 20
952.448084
 30
0.0
 40
15.8525
100
AcDbArc
 50
255.571476
 51
284.428524
  0
LINE
  5
150
100
AcDbEntity
  8
便器
  6
CONTINUOUS
 62
     6
100
AcDbLine
 10
478.35
 20
936.595584
 30
0.0
 11
489.65
 21
936.595584
 31
0.0
  0
LINE
  5
151
100
AcDbEntity
  8
便器
  6
CONTINUOUS
 62
     6
100
AcDbLine
 10
491.35
 20
942.995584
 30
0.0
 11
491.35
 21
937.095584
 31
0.0
  0
LINE
  5
152
100
AcDbEntity
  8
便器
  6
CONTINUOUS
 62
     6
100
AcDbLine
 10
487.95
 20
942.995584
 30
0.0
 11
487.95
 21
937.095584
 31
0.0
  0
ARC
  5
153
100
AcDbEntity
  8
便器
  6
CONTINUOUS
 62
     6
100
AcDbCircle
 10
489.65
 20
939.735584
 30
0.0
 40
3.14
100
AcDbArc
 50
237.220919
 51
302.779081
  0
LINE
  5
154
100
AcDbEntity
  8
便器
  6
CONTINUOUS
 62
     6
100
AcDbLine
 10
473.0
 20
942.995584
 30
0.0
 11
495.0
 21
942.995584
 31
0.0
  0
LINE
  5
155
100
AcDbEntity
  8
便器
  6
CONTINUOUS
 62
     6
100
AcDbLine
 10
476.65
 20
942.995584
 30
0.0
 11
484.0
 21
942.995584
 31
0.0
  0
LINE
  5
156
100
AcDbEntity
  8
便器
  6
CONTINUOUS
 62
     6
100
AcDbLine
 10
473.0
 20
943.995584
 30
0.0
 11
473.0
 21
942.995584
 31
0.0
  0
LINE
  5
157
100
AcDbEntity
  8
便器
  6
CONTINUOUS
 62
     6
100
AcDbLine
 10
470.5
 20
947.995584
 30
0.0
 11
470.5
 21
943.995584
 31
0.0
  0
LINE
  5
158
100
AcDbEntity
  8
便器
  6
CONTINUOUS
 62
     6
100
AcDbLine
 10
497.5
 20
947.995584
 30
0.0
 11
497.5
 21
943.995584
 31
0.0
  0
LINE
  5
159
100
AcDbEntity
  8
便器
  6
CONTINUOUS
 62
     6
100
AcDbLine
 10
470.5
 20
943.995584
 30
0.0
 11
497.5
 21
943.995584
 31
0.0
  0
LINE
  5
15A
100
AcDbEntity
  8
便器
  6
CONTINUOUS
 62
     6
100
AcDbLine
 10
495.0
 20
943.995584
 30
0.0
 11
495.0
 21
942.995584
 31
0.0
  0
LINE
  5
15B
100
AcDbEntity
  8
便器
  6
CONTINUOUS
 62
     6
100
AcDbLine
 10
473.0
 20
943.995584
 30
0.0
 11
473.0
 21
942.995584
 31
0.0
  0
LINE
  5
15C
100
AcDbEntity
  8
便器
  6
CONTINUOUS
 62
     6
100
AcDbLine
 10
480.95
 20
936.595584
 30
0.0
 11
480.95
 21
933.994794
 31
0.0
  0
LINE
  5
15D
100
AcDbEntity
  8
便器
  6
CONTINUOUS
 62
     6
100
AcDbLine
 10
487.05
 20
936.595584
 30
0.0
 11
487.05
 21
933.994794
 31
0.0
  0
LINE
  5
15E
100
AcDbEntity
  8
便器
  6
CONTINUOUS
 62
     6
100
AcDbLine
 10
480.05
 20
936.595584
 30
0.0
 11
480.05
 21
933.994794
 31
0.0
  0
LINE
  5
15F
100
AcDbEntity
  8
便器
  6
CONTINUOUS
 62
     6
100
AcDbLine
 10
487.95
 20
936.595584
 30
0.0
 11
487.95
 21
933.994794
 31
0.0
  0
CIRCLE
  5
160
100
AcDbEntity
  8
便器
  6
CONTINUOUS
 62
     7
100
AcDbCircle
 10
793.0
 20
659.0
 30
0.0
 40
2.0
  0
LINE
  5
161
100
AcDbEntity
  8
便器
  6
CONTINUOUS
 62
     7
100
AcDbLine
 10
532.389422
 20
904.507104
 30
0.0
 11
639.473173
 21
900.732645
 31
0.0
  0
LINE
  5
162
100
AcDbEntity
  8
便器
  6
CONTINUOUS
 62
     7
100
AcDbLine
 10
668.998739
 20
899.691936
 30
0.0
 11
680.85393
 21
899.274067
 31
0.0
  0
ARC
  5
163
100
AcDbEntity
  8
便器
  6
CONTINUOUS
 62
     6
100
AcDbCircle
 10
479.000012
 20
637.999801
 30
0.0
 40
7.0
100
AcDbArc
 50
39.129364
 51
140.870636
  0
ARC
  5
164
100
AcDbEntity
  8
便器
  6
CONTINUOUS
 62
     6
100
AcDbCircle
 10
492.963022
 20
626.640431
 30
0.0
 40
25.0
100
AcDbArc
 50
140.870667
 51
176.883057
  0
ARC
  5
165
100
AcDbEntity
  8
便器
  6
CONTINUOUS
 62
     6
100
AcDbCircle
 10
465.037232
 20
626.640891
 30
0.0
 40
25.0
100
AcDbArc
 50
3.116882
 51
39.129364
  0
CIRCLE
  5
166
100
AcDbEntity
  8
便器
  6
EXLTYPE2
 62
     6
100
AcDbCircle
 10
1129.000912
 20
1330.0
 30
0.0
 40
4.0
  0
CIRCLE
  5
167
100
AcDbEntity
  8
便器
  6
EXLTYPE2
 62
     6
100
AcDbCircle
 10
1219.000912
 20
1330.0
 30
0.0
 40
4.0
  0
CIRCLE
  5
168
100
AcDbEntity
  8
便器
  6
EXLTYPE2
 62
     6
100
AcDbCircle
 10
1174.000912
 20
1286.0
 30
0.0
 40
4.0
  0
LINE
  5
169
100
AcDbEntity
  8
便器
  6
CONTINUOUS
 62
     6
100
AcDbLine
 10
571.750012
 20
560.0
 30
0.0
 11
496.250012
 21
560.0
 31
0.0
  0
LINE
  5
16A
100
AcDbEntity
  8
便器
  6
CONTINUOUS
 62
     6
100
AcDbLine
 10
571.750012
 20
560.0
 30
0.0
 11
572.500006
 21
598.0
 31
0.0
  0
LINE
  5
16B
100
AcDbEntity
  8
便器
  6
EXLTYPE2
 62
     6
100
AcDbLine
 10
470.349987
 20
643.000015
 30
0.0
 11
597.650037
 21
643.000015
 31
0.0
  0
LINE
  5
16C
100
AcDbEntity
  8
便器
  6
EXLTYPE2
 62
     6
100
AcDbLine
 10
470.349987
 20
643.000015
 30
0.0
 11
470.349987
 21
624.500015
 31
0.0
  0
LINE
  5
16D
100
AcDbEntity
  8
便器
  6
EXLTYPE2
 62
     6
100
AcDbLine
 10
472.349987
 20
622.500015
 30
0.0
 11
595.650037
 21
622.500015
 31
0.0
  0
LINE
  5
16E
100
AcDbEntity
  8
便器
  6
EXLTYPE2
 62
     6
100
AcDbLine
 10
473.699993
 20
598.0
 30
0.0
 11
473.699993
 21
622.500015
 31
0.0
  0
ARC
  5
16F
100
AcDbEntity
  8
便器
  6
EXLTYPE2
 62
     6
100
AcDbCircle
 10
472.349987
 20
624.500015
 30
0.0
 40
2.0
100
AcDbArc
 50
180.0
 51
270.0
  0
LINE
  5
170
100
AcDbEntity
  8
便器
  6
EXLTYPE2
 62
     6
100
AcDbLine
 10
594.300031
 20
598.0
 30
0.0
 11
594.300031
 21
622.500015
 31
0.0
  0
LINE
  5
171
100
AcDbEntity
  8
便器
  6
EXLTYPE2
 62
     6
100
AcDbLine
 10
597.650037
 20
643.000015
 30
0.0
 11
597.650037
 21
624.500015
 31
0.0
  0
ARC
  5
172
100
AcDbEntity
  8
便器
  6
EXLTYPE2
 62
     6
100
AcDbCircle
 10
595.650037
 20
624.500015
 30
0.0
 40
2.0
100
AcDbArc
 50
270.0
 51
0.0
  0
LINE
  5
173
100
AcDbEntity
  8
便器
  6
CONTINUOUS
 62
     6
100
AcDbLine
 10
496.250012
 20
560.0
 30
0.0
 11
495.500018
 21
598.0
 31
0.0
  0
LINE
  5
174
100
AcDbEntity
  8
便器
  6
CONTINUOUS
 62
     6
100
AcDbLine
 10
489.500012
 20
567.849499
 30
0.0
 11
489.500012
 21
598.0
 31
0.0
  0
LINE
  5
175
100
AcDbEntity
  8
便器
  6
CONTINUOUS
 62
     6
100
AcDbLine
 10
489.500012
 20
550.849499
 30
0.0
 11
489.500012
 21
557.849499
 31
0.0
  0
LINE
  5
176
100
AcDbEntity
  8
便器
  6
CONTINUOUS
 62
     6
100
AcDbLine
 10
489.500012
 20
499.549499
 30
0.0
 11
489.500012
 21
523.849499
 31
0.0
  0
LINE
  5
177
100
AcDbEntity
  8
便器
  6
CONTINUOUS
 62
     6
100
AcDbLine
 10
489.500012
 20
533.849499
 30
0.0
 11
489.500012
 21
540.849499
 31
0.0
  0
LINE
  5
178
100
AcDbEntity
  8
便器
  6
CONTINUOUS
 62
     6
100
AcDbLine
 10
578.500012
 20
567.849499
 30
0.0
 11
578.500012
 21
598.0
 31
0.0
  0
LINE
  5
179
100
AcDbEntity
  8
便器
  6
CONTINUOUS
 62
     6
100
AcDbLine
 10
578.500012
 20
550.849499
 30
0.0
 11
578.500012
 21
557.849499
 31
0.0
  0
LINE
  5
17A
100
AcDbEntity
  8
便器
  6
CONTINUOUS
 62
     6
100
AcDbLine
 10
578.500012
 20
499.549499
 30
0.0
 11
578.500012
 21
523.849499
 31
0.0
  0
LINE
  5
17B
100
AcDbEntity
  8
便器
  6
CONTINUOUS
 62
     6
100
AcDbLine
 10
578.500012
 20
533.849499
 30
0.0
 11
578.500012
 21
540.849499
 31
0.0
  0
LINE
  5
17C
100
AcDbEntity
  8
便器
  6
EXLTYPE3
 62
     1
100
AcDbLine
 10
534.000012
 20
486.0
 30
0.0
 11
534.000012
 21
654.0
 31
0.0
  0
ARC
  5
17D
100
AcDbEntity
  8
便器
  6
CONTINUOUS
 62
     6
100
AcDbCircle
 10
511.750012
 20
466.30889
 30
0.0
 40
40.0
100
AcDbArc
 50
56.203156
 51
62.85461
  0
ARC
  5
17E
100
AcDbEntity
  8
便器
  6
CONTINUOUS
 62
     6
100
AcDbCircle
 10
511.750012
 20
466.30889
 30
0.0
 40
40.0
100
AcDbArc
 50
81.010701
 51
92.507491
  0
ARC
  5
17F
100
AcDbEntity
  8
便器
  6
CONTINUOUS
 62
     6
100
AcDbCircle
 10
511.750012
 20
466.30889
 30
0.0
 40
40.0
100
AcDbArc
 50
110.10551
 51
123.796844
  0
ARC
  5
180
100
AcDbEntity
  8
便器
  6
CONTINUOUS
 62
     6
100
AcDbCircle
 10
511.750012
 20
532.7901
 30
0.0
 40
40.0
100
AcDbArc
 50
236.203125
 51
249.89449
  0
ARC
  5
181
100
AcDbEntity
  8
便器
  6
CONTINUOUS
 62
     6
100
AcDbCircle
 10
511.750012
 20
532.7901
 30
0.0
 40
40.0
100
AcDbArc
 50
267.492509
 51
278.989299
  0
ARC
  5
182
100
AcDbEntity
  8
便器
  6
CONTINUOUS
 62
     6
100
AcDbCircle
 10
511.750012
 20
532.7901
 30
0.0
 40
40.0
100
AcDbArc
 50
297.14539
 51
303.796875
  0
ARC
  5
183
100
AcDbEntity
  8
便器
  6
CONTINUOUS
 62
     6
100
AcDbCircle
 10
556.250012
 20
532.7901
 30
0.0
 40
40.0
100
AcDbArc
 50
236.203125
 51
242.85461
  0
ARC
  5
184
100
AcDbEntity
  8
便器
  6
CONTINUOUS
 62
     6
100
AcDbCircle
 10
556.250012
 20
532.7901
 30
0.0
 40
40.0
100
AcDbArc
 50
261.010701
 51
303.796875
  0
LINE
  5
185
100
AcDbEntity
  8
便器
  6
CONTINUOUS
 62
     7
100
AcDbLine
 10
446.193842
 20
623.075597
 30
0.0
 11
445.574122
 21
615.992159
 31
0.0
  0
ARC
  5
186
100
AcDbEntity
  8
便器
  6
CONTINUOUS
 62
     7
100
AcDbCircle
 10
625.739629
 20
972.680388
 30
0.0
 40
200.0
100
AcDbArc
 50
189.662116
 51
233.296433
  0
LINE
  5
187
100
AcDbEntity
  8
便器
  6
CONTINUOUS
 62
     3
100
AcDbLine
 10
334.000002
 20
591.0
 30
0.0
 11
334.000002
 21
389.0
 31
0.0
  0
LINE
  5
188
100
AcDbEntity
  8
便器
  6
CONTINUOUS
 62
     3
100
AcDbLine
 10
534.000012
 20
486.0
 30
0.0
 11
534.000012
 21
389.0
 31
0.0
  0
ARC
  5
189
100
AcDbEntity
  8
便器
  6
EXLTYPE2
 62
     2
100
AcDbCircle
 10
828.496234
 20
2100.5
 30
0.0
 40
550.0
100
AcDbArc
 50
73.455087
 51
92.8587
  0
ARC
  5
18A
100
AcDbEntity
  8
便器
  6
CONTINUOUS
 62
     7
100
AcDbCircle
 10
1000.558168
 20
-1345.206704
 30
0.0
 40
4000.0
100
AcDbArc
 50
95.749654
 51
96.179727
  0
ARC
  5
18B
100
AcDbEntity
  8
便器
  6
CONTINUOUS
 62
     7
100
AcDbCircle
 10
678.592085
 20
869.335162
 30
0.0
 40
30.0
100
AcDbArc
 50
87.98129
 51
109.065592
  0
ARC
  5
18C
100
AcDbEntity
  8
便器
  6
CONTINUOUS
 62
     7
100
AcDbCircle
 10
462.994299
 20
643.0
 30
0.0
 40
15.0
100
AcDbArc
 50
90.0
 51
175.0
  0
LINE
  5
18D
100
AcDbEntity
  8
便器
  6
CONTINUOUS
 62
     7
100
AcDbLine
 10
462.994299
 20
658.0
 30
0.0
 11
503.306932
 21
658.0
 31
0.0
  0
ARC
  5
18E
100
AcDbEntity
  8
便器
  6
CONTINUOUS
 62
     7
100
AcDbCircle
 10
642.238
 20
728.0
 30
0.0
 40
50.0
100
AcDbArc
 50
42.958774
 51
90.0
  0
LINE
  5
18F
100
AcDbEntity
  8
便器
  6
CONTINUOUS
 62
     7
100
AcDbLine
 10
640.223786
 20
778.0
 30
0.0
 11
642.238
 21
778.0
 31
0.0
  0
ARC
  5
190
100
AcDbEntity
  8
便器
  6
CONTINUOUS
 62
     7
100
AcDbCircle
 10
614.000012
 20
731.0
 30
0.0
 40
91.0
100
AcDbArc
 50
27.395293
 51
67.241969
  0
LINE
  5
191
100
AcDbEntity
  8
便器
  6
CONTINUOUS
 62
     7
100
AcDbLine
 10
541.470736
 20
685.881125
 30
0.0
 11
529.933513
 21
642.823619
 31
0.0
  0
ARC
  5
192
100
AcDbEntity
  8
便器
  6
CONTINUOUS
 62
     7
100
AcDbCircle
 10
510.614996
 20
648.0
 30
0.0
 40
20.0
100
AcDbArc
 50
270.0
 51
345.0
  0
ARC
  5
193
100
AcDbEntity
  8
便器
  6
CONTINUOUS
 62
     6
100
AcDbCircle
 10
1571.739354
 20
577.669847
 30
0.0
 40
20.0
100
AcDbArc
 50
328.740234
 51
1.073222
  0
ARC
  5
194
100
AcDbEntity
  8
便器
  6
CONTINUOUS
 62
     6
100
AcDbCircle
 10
1605.93247
 20
577.669847
 30
0.0
 40
20.0
100
AcDbArc
 50
178.926758
 51
211.259766
  0
LINE
  5
195
100
AcDbEntity
  8
便器
  6
CONTINUOUS
 62
     6
100
AcDbLine
 10
1585.935826
 20
578.04445
 30
0.0
 11
1585.935826
 21
598.0
 31
0.0
  0
LINE
  5
196
100
AcDbEntity
  8
便器
  6
CONTINUOUS
 62
     6
100
AcDbLine
 10
1591.735692
 20
578.04445
 30
0.0
 11
1591.735692
 21
598.0
 31
0.0
  0
ARC
  5
197
100
AcDbEntity
  8
便器
  6
CONTINUOUS
 62
     6
100
AcDbCircle
 10
1786.260646
 20
577.669847
 30
0.0
 40
20.0
100
AcDbArc
 50
178.926778
 51
211.259766
  0
ARC
  5
198
100
AcDbEntity
  8
便器
  6
CONTINUOUS
 62
     6
100
AcDbCircle
 10
1752.06753
 20
577.669847
 30
0.0
 40
20.0
100
AcDbArc
 50
328.740234
 51
1.073242
  0
LINE
  5
199
100
AcDbEntity
  8
便器
  6
CONTINUOUS
 62
     6
100
AcDbLine
 10
1772.064174
 20
578.04445
 30
0.0
 11
1772.064174
 21
598.0
 31
0.0
  0
LINE
  5
19A
100
AcDbEntity
  8
便器
  6
CONTINUOUS
 62
     6
100
AcDbLine
 10
1766.264308
 20
578.04445
 30
0.0
 11
1766.264308
 21
598.0
 31
0.0
  0
LINE
  5
19B
100
AcDbEntity
  8
便器
  6
CONTINUOUS
 62
     6
100
AcDbLine
 10
1653.42512
 20
570.32628
 30
0.0
 11
1653.42524
 21
597.99303
 31
0.0
  0
LINE
  5
19C
100
AcDbEntity
  8
便器
  6
CONTINUOUS
 62
     6
100
AcDbLine
 10
1648.92512
 20
570.32628
 30
0.0
 11
1648.92524
 21
597.99303
 31
0.0
  0
LINE
  5
19D
100
AcDbEntity
  8
便器
  6
CONTINUOUS
 62
     6
100
AcDbLine
 10
1648.92512
 20
570.32628
 30
0.0
 11
1651.17512
 21
564.99303
 31
0.0
  0
LINE
  5
19E
100
AcDbEntity
  8
便器
  6
CONTINUOUS
 62
     6
100
AcDbLine
 10
1651.17512
 20
564.99303
 30
0.0
 11
1653.42512
 21
570.32628
 31
0.0
  0
ARC
  5
19F
100
AcDbEntity
  8
便器
  6
CONTINUOUS
 62
     7
100
AcDbCircle
 10
1547.745966
 20
759.380141
 30
0.0
 40
50.0
100
AcDbArc
 50
20.459139
 51
48.50247
  0
ARC
  5
1A0
100
AcDbEntity
  8
便器
  6
CONTINUOUS
 62
     7
100
AcDbCircle
 10
1719.518947
 20
630.67277
 30
0.0
 40
150.0
100
AcDbArc
 50
137.397287
 51
167.554265
  0
LINE
  5
1A1
100
AcDbEntity
  8
便器
  6
CONTINUOUS
 62
     7
100
AcDbLine
 10
1679.0
 20
968.0
 30
0.0
 11
1522.279795
 21
968.0
 31
0.0
  0
LINE
  5
1A2
100
AcDbEntity
  8
便器
  6
CONTINUOUS
 62
     7
100
AcDbLine
 10
1567.3571
 20
598.0
 30
0.0
 11
1573.043863
 21
663.0
 31
0.0
  0
ARC
  5
1A3
100
AcDbEntity
  8
便器
  6
CONTINUOUS
 62
     7
100
AcDbCircle
 10
1652.279795
 20
956.366036
 30
0.0
 40
150.0
100
AcDbArc
 50
180.0
 51
196.345398
  0
ARC
  5
1A4
100
AcDbEntity
  8
便器
  6
CONTINUOUS
 62
     7
100
AcDbCircle
 10
1680.263519
 20
909.176997
 30
0.0
 40
150.0
100
AcDbArc
 50
183.147383
 51
228.50247
  0
LINE
  5
1A5
100
AcDbEntity
  8
便器
  6
CONTINUOUS
 62
     7
100
AcDbLine
 10
1526.237922
 20
905.611636
 30
0.0
 11
1516.457025
 21
907.076547
 31
0.0
  0
ARC
  5
1A6
100
AcDbEntity
  8
便器
  6
CONTINUOUS
 62
     7
100
AcDbCircle
 10
1517.938231
 20
916.96624
 30
0.0
 40
10.0
100
AcDbArc
 50
196.345398
 51
261.481977
  0
ARC
  5
1A7
100
AcDbEntity
  8
便器
  6
CONTINUOUS
 62
     7
100
AcDbCircle
 10
1525.49732
 20
900.66679
 30
0.0
 40
5.0
100
AcDbArc
 50
3.147383
 51
81.481977
  0
ARC
  5
1A8
100
AcDbEntity
  8
便器
  6
CONTINUOUS
 62
     7
100
AcDbCircle
 10
1522.310424
 20
868.000005
 30
0.0
 40
100.0
100
AcDbArc
 50
89.982451
 51
96.398991
  0
ARC
  5
1A9
100
AcDbEntity
  8
便器
  6
CONTINUOUS
 62
     7
100
AcDbCircle
 10
1512.279795
 20
957.439294
 30
0.0
 40
10.0
100
AcDbArc
 50
96.398991
 51
180.0
  0
LINE
  5
1AA
100
AcDbEntity
  8
便器
  6
CONTINUOUS
 62
     7
100
AcDbLine
 10
1502.279795
 20
956.366036
 30
0.0
 11
1502.279795
 21
957.439294
 31
0.0
  0
ARC
  5
1AB
100
AcDbEntity
  8
便器
  6
CONTINUOUS
 62
     7
100
AcDbCircle
 10
1781.976392
 20
846.764967
 30
0.0
 40
200.0
100
AcDbArc
 50
200.459139
 51
210.881815
  0
ARC
  5
1AC
100
AcDbEntity
  8
便器
  6
CONTINUOUS
 62
     7
100
AcDbCircle
 10
1601.748542
 20
738.978502
 30
0.0
 40
10.0
100
AcDbArc
 50
317.397287
 51
30.881815
  0
LINE
  5
1AD
100
AcDbEntity
  8
便器
  6
CONTINUOUS
 62
     7
100
AcDbLine
 10
1679.0
 20
968.0
 30
0.0
 11
1835.720205
 21
968.0
 31
0.0
  0
ARC
  5
1AE
100
AcDbEntity
  8
便器
  6
CONTINUOUS
 62
     7
100
AcDbCircle
 10
1845.720205
 20
957.439294
 30
0.0
 40
10.0
100
AcDbArc
 50
0.0
 51
83.601009
  0
LINE
  5
1AF
100
AcDbEntity
  8
便器
  6
CONTINUOUS
 62
     7
100
AcDbLine
 10
1855.720205
 20
956.366036
 30
0.0
 11
1855.720205
 21
957.439294
 31
0.0
  0
ARC
  5
1B0
100
AcDbEntity
  8
便器
  6
CONTINUOUS
 62
     7
100
AcDbCircle
 10
1835.689576
 20
868.000005
 30
0.0
 40
100.0
100
AcDbArc
 50
83.601009
 51
90.017549
  0
ARC
  5
1B1
100
AcDbEntity
  8
便器
  6
CONTINUOUS
 62
     7
100
AcDbCircle
 10
1705.720205
 20
956.366036
 30
0.0
 40
150.0
100
AcDbArc
 50
343.654602
 51
0.0
  0
LINE
  5
1B2
100
AcDbEntity
  8
便器
  6
CONTINUOUS
 62
     7
100
AcDbLine
 10
1831.762078
 20
905.611636
 30
0.0
 11
1841.542975
 21
907.076547
 31
0.0
  0
ARC
  5
1B3
100
AcDbEntity
  8
便器
  6
CONTINUOUS
 62
     7
100
AcDbCircle
 10
1840.061769
 20
916.96624
 30
0.0
 40
10.0
100
AcDbArc
 50
278.518023
 51
343.654602
  0
ARC
  5
1B4
100
AcDbEntity
  8
便器
  6
CONTINUOUS
 62
     7
100
AcDbCircle
 10
1832.50268
 20
900.66679
 30
0.0
 40
5.0
100
AcDbArc
 50
98.518023
 51
176.852617
  0
ARC
  5
1B5
100
AcDbEntity
  8
便器
  6
CONTINUOUS
 62
     7
100
AcDbCircle
 10
1677.736481
 20
909.176997
 30
0.0
 40
150.0
100
AcDbArc
 50
311.49753
 51
356.852617
  0
ARC
  5
1B6
100
AcDbEntity
  8
便器
  6
CONTINUOUS
 62
     7
100
AcDbCircle
 10
1810.254034
 20
759.380141
 30
0.0
 40
50.0
100
AcDbArc
 50
131.49753
 51
159.540861
  0
ARC
  5
1B7
100
AcDbEntity
  8
便器
  6
CONTINUOUS
 62
     7
100
AcDbCircle
 10
1576.023608
 20
846.764967
 30
0.0
 40
200.0
100
AcDbArc
 50
329.118185
 51
339.540861
  0
ARC
  5
1B8
100
AcDbEntity
  8
便器
  6
CONTINUOUS
 62
     7
100
AcDbCircle
 10
1756.251458
 20
738.978502
 30
0.0
 40
10.0
100
AcDbArc
 50
149.118185
 51
222.602713
  0
ARC
  5
1B9
100
AcDbEntity
  8
便器
  6
CONTINUOUS
 62
     7
100
AcDbCircle
 10
1638.481053
 20
630.67277
 30
0.0
 40
150.0
100
AcDbArc
 50
12.445735
 51
42.602713
  0
LINE
  5
1BA
100
AcDbEntity
  8
便器
  6
CONTINUOUS
 62
     7
100
AcDbLine
 10
1790.6429
 20
598.0
 30
0.0
 11
1784.956137
 21
663.0
 31
0.0
  0
LINE
  5
1BB
100
AcDbEntity
  8
便器
  6
CONTINUOUS
 62
     7
100
AcDbLine
 10
1524.365865
 20
908.046089
 30
0.0
 11
1604.0
 21
917.999172
 31
0.0
  0
LINE
  5
1BC
100
AcDbEntity
  8
便器
  6
CONTINUOUS
 62
     7
100
AcDbLine
 10
1833.634135
 20
908.046089
 30
0.0
 11
1754.0
 21
917.999172
 31
0.0
  0
LINE
  5
1BD
100
AcDbEntity
  8
便器
  6
CONTINUOUS
 62
     2
100
AcDbLine
 10
1619.0
 20
741.0
 30
0.0
 11
1739.0
 21
741.0
 31
0.0
  0
LINE
  5
1BE
100
AcDbEntity
  8
便器
  6
CONTINUOUS
 62
     6
100
AcDbLine
 10
1704.57488
 20
570.32628
 30
0.0
 11
1704.57476
 21
597.99303
 31
0.0
  0
LINE
  5
1BF
100
AcDbEntity
  8
便器
  6
CONTINUOUS
 62
     6
100
AcDbLine
 10
1709.07488
 20
570.32628
 30
0.0
 11
1709.07476
 21
597.99303
 31
0.0
  0
LINE
  5
1C0
100
AcDbEntity
  8
便器
  6
CONTINUOUS
 62
     6
100
AcDbLine
 10
1709.07488
 20
570.32628
 30
0.0
 11
1706.82488
 21
564.99303
 31
0.0
  0
LINE
  5
1C1
100
AcDbEntity
  8
便器
  6
CONTINUOUS
 62
     6
100
AcDbLine
 10
1706.82488
 20
564.99303
 30
0.0
 11
1704.57488
 21
570.32628
 31
0.0
  0
LINE
  5
1C2
100
AcDbEntity
  8
便器
  6
CONTINUOUS
 62
     6
100
AcDbLine
 10
1716.75
 20
560.0
 30
0.0
 11
1641.25
 21
560.0
 31
0.0
  0
LINE
  5
1C3
100
AcDbEntity
  8
便器
  6
CONTINUOUS
 62
     6
100
AcDbLine
 10
1716.75
 20
560.0
 30
0.0
 11
1717.499994
 21
598.0
 31
0.0
  0
LINE
  5
1C4
100
AcDbEntity
  8
便器
  6
EXLTYPE2
 62
     6
100
AcDbLine
 10
1615.349975
 20
643.000015
 30
0.0
 11
1615.349975
 21
624.500015
 31
0.0
  0
LINE
  5
1C5
100
AcDbEntity
  8
便器
  6
EXLTYPE2
 62
     6
100
AcDbLine
 10
1618.699981
 20
598.0
 30
0.0
 11
1618.699981
 21
622.500015
 31
0.0
  0
ARC
  5
1C6
100
AcDbEntity
  8
便器
  6
EXLTYPE2
 62
     6
100
AcDbCircle
 10
1617.349975
 20
624.500015
 30
0.0
 40
2.0
100
AcDbArc
 50
180.0
 51
270.0
  0
LINE
  5
1C7
100
AcDbEntity
  8
便器
  6
EXLTYPE2
 62
     6
100
AcDbLine
 10
1739.300019
 20
598.0
 30
0.0
 11
1739.300019
 21
622.500015
 31
0.0
  0
LINE
  5
1C8
100
AcDbEntity
  8
便器
  6
EXLTYPE2
 62
     6
100
AcDbLine
 10
1742.650025
 20
643.000015
 30
0.0
 11
1742.650025
 21
624.500015
 31
0.0
  0
ARC
  5
1C9
100
AcDbEntity
  8
便器
  6
EXLTYPE2
 62
     6
100
AcDbCircle
 10
1740.650025
 20
624.500015
 30
0.0
 40
2.0
100
AcDbArc
 50
270.0
 51
0.0
  0
LINE
  5
1CA
100
AcDbEntity
  8
便器
  6
CONTINUOUS
 62
     6
100
AcDbLine
 10
1641.25
 20
560.0
 30
0.0
 11
1640.500006
 21
598.0
 31
0.0
  0
LINE
  5
1CB
100
AcDbEntity
  8
便器
  6
CONTINUOUS
 62
     6
100
AcDbLine
 10
1634.5
 20
567.849499
 30
0.0
 11
1634.5
 21
598.0
 31
0.0
  0
LINE
  5
1CC
100
AcDbEntity
  8
便器
  6
CONTINUOUS
 62
     6
100
AcDbLine
 10
1634.5
 20
550.849499
 30
0.0
 11
1634.5
 21
557.849499
 31
0.0
  0
LINE
  5
1CD
100
AcDbEntity
  8
便器
  6
CONTINUOUS
 62
     6
100
AcDbLine
 10
1634.5
 20
499.549499
 30
0.0
 11
1634.5
 21
523.849499
 31
0.0
  0
LINE
  5
1CE
100
AcDbEntity
  8
便器
  6
CONTINUOUS
 62
     6
100
AcDbLine
 10
1634.5
 20
533.849499
 30
0.0
 11
1634.5
 21
540.849499
 31
0.0
  0
LINE
  5
1CF
100
AcDbEntity
  8
便器
  6
CONTINUOUS
 62
     6
100
AcDbLine
 10
1723.5
 20
567.849499
 30
0.0
 11
1723.5
 21
598.0
 31
0.0
  0
LINE
  5
1D0
100
AcDbEntity
  8
便器
  6
CONTINUOUS
 62
     6
100
AcDbLine
 10
1723.5
 20
550.849499
 30
0.0
 11
1723.5
 21
557.849499
 31
0.0
  0
LINE
  5
1D1
100
AcDbEntity
  8
便器
  6
CONTINUOUS
 62
     6
100
AcDbLine
 10
1723.5
 20
499.549499
 30
0.0
 11
1723.5
 21
523.849499
 31
0.0
  0
LINE
  5
1D2
100
AcDbEntity
  8
便器
  6
CONTINUOUS
 62
     6
100
AcDbLine
 10
1723.5
 20
533.849499
 30
0.0
 11
1723.5
 21
540.849499
 31
0.0
  0
LINE
  5
1D3
100
AcDbEntity
  8
便器
  6
CONTINUOUS
 62
     6
100
AcDbLine
 10
1653.49982
 20
630.0927
 30
0.0
 11
1653.49982
 21
636.0927
 31
0.0
  0
LINE
  5
1D4
100
AcDbEntity
  8
便器
  6
CONTINUOUS
 62
     6
100
AcDbLine
 10
1639.69988
 20
604.0927
 30
0.0
 11
1639.69988
 21
597.99932
 31
0.0
  0
LINE
  5
1D5
100
AcDbEntity
  8
便器
  6
CONTINUOUS
 62
     6
100
AcDbLine
 10
1639.69988
 20
617.99868
 30
0.0
 11
1639.69988
 21
614.0927
 31
0.0
  0
LINE
  5
1D6
100
AcDbEntity
  8
便器
  6
CONTINUOUS
 62
     6
100
AcDbLine
 10
1653.49982
 20
617.99868
 30
0.0
 11
1653.49982
 21
620.0927
 31
0.0
  0
LINE
  5
1D7
100
AcDbEntity
  8
便器
  6
CONTINUOUS
 62
     6
100
AcDbLine
 10
1653.49982
 20
617.99868
 30
0.0
 11
1639.70002
 21
617.99868
 31
0.0
  0
LINE
  5
1D8
100
AcDbEntity
  8
便器
  6
CONTINUOUS
 62
     6
100
AcDbLine
 10
1653.49982
 20
657.99868
 30
0.0
 11
1658.80837
 21
657.99868
 31
0.0
  0
LINE
  5
1D9
100
AcDbEntity
  8
便器
  6
CONTINUOUS
 62
     6
100
AcDbLine
 10
1653.49982
 20
646.0927
 30
0.0
 11
1653.49982
 21
657.99868
 31
0.0
  0
LINE
  5
1DA
100
AcDbEntity
  8
便器
  6
CONTINUOUS
 62
     6
100
AcDbLine
 10
1668.80837
 20
657.99868
 30
0.0
 11
1674.80837
 21
657.99868
 31
0.0
  0
LINE
  5
1DB
100
AcDbEntity
  8
便器
  6
CONTINUOUS
 62
     6
100
AcDbLine
 10
1704.50007
 20
630.0927
 30
0.0
 11
1704.50007
 21
636.0927
 31
0.0
  0
LINE
  5
1DC
100
AcDbEntity
  8
便器
  6
CONTINUOUS
 62
     6
100
AcDbLine
 10
1704.50007
 20
617.99868
 30
0.0
 11
1704.50007
 21
620.0927
 31
0.0
  0
LINE
  5
1DD
100
AcDbEntity
  8
便器
  6
CONTINUOUS
 62
     6
100
AcDbLine
 10
1718.30012
 20
604.0927
 30
0.0
 11
1718.30012
 21
597.99932
 31
0.0
  0
LINE
  5
1DE
100
AcDbEntity
  8
便器
  6
CONTINUOUS
 62
     6
100
AcDbLine
 10
1718.30012
 20
617.99868
 30
0.0
 11
1718.30012
 21
614.0927
 31
0.0
  0
LINE
  5
1DF
100
AcDbEntity
  8
便器
  6
CONTINUOUS
 62
     6
100
AcDbLine
 10
1704.50007
 20
617.99868
 30
0.0
 11
1718.30012
 21
617.99868
 31
0.0
  0
LINE
  5
1E0
100
AcDbEntity
  8
便器
  6
CONTINUOUS
 62
     6
100
AcDbLine
 10
1684.80837
 20
657.99868
 30
0.0
 11
1690.80837
 21
657.99868
 31
0.0
  0
LINE
  5
1E1
100
AcDbEntity
  8
便器
  6
CONTINUOUS
 62
     6
100
AcDbLine
 10
1704.50007
 20
646.0927
 30
0.0
 11
1704.50007
 21
657.99868
 31
0.0
  0
LINE
  5
1E2
100
AcDbEntity
  8
便器
  6
CONTINUOUS
 62
     6
100
AcDbLine
 10
1700.80837
 20
657.99868
 30
0.0
 11
1704.50007
 21
657.99868
 31
0.0
  0
CIRCLE
  5
1E3
100
AcDbEntity
  8
便器
  6
CONTINUOUS
 62
     6
100
AcDbCircle
 10
1679.00007
 20
633.00112
 30
0.0
 40
7.0
  0
LINE
  5
1E4
100
AcDbEntity
  8
便器
  6
EXLTYPE2
 62
     6
100
AcDbLine
 10
1615.349975
 20
643.000015
 30
0.0
 11
1653.49982
 21
643.000015
 31
0.0
  0
LINE
  5
1E5
100
AcDbEntity
  8
便器
  6
EXLTYPE2
 62
     6
100
AcDbLine
 10
1704.50007
 20
643.000015
 30
0.0
 11
1742.650025
 21
643.000015
 31
0.0
  0
LINE
  5
1E6
100
AcDbEntity
  8
便器
  6
EXLTYPE2
 62
     6
100
AcDbLine
 10
1617.349975
 20
622.500015
 30
0.0
 11
1653.49982
 21
622.500015
 31
0.0
  0
LINE
  5
1E7
100
AcDbEntity
  8
便器
  6
EXLTYPE2
 62
     6
100
AcDbLine
 10
1704.50007
 20
622.500015
 30
0.0
 11
1740.650025
 21
622.500015
 31
0.0
  0
ARC
  5
1E8
100
AcDbEntity
  8
便器
  6
CONTINUOUS
 62
     6
100
AcDbCircle
 10
1656.749988
 20
466.308897
 30
0.0
 40
40.0
100
AcDbArc
 50
56.203156
 51
62.85461
  0
ARC
  5
1E9
100
AcDbEntity
  8
便器
  6
CONTINUOUS
 62
     6
100
AcDbCircle
 10
1656.749988
 20
466.308897
 30
0.0
 40
40.0
100
AcDbArc
 50
81.010701
 51
92.507491
  0
ARC
  5
1EA
100
AcDbEntity
  8
便器
  6
CONTINUOUS
 62
     6
100
AcDbCircle
 10
1656.749988
 20
466.308897
 30
0.0
 40
40.0
100
AcDbArc
 50
110.10551
 51
123.796844
  0
ARC
  5
1EB
100
AcDbEntity
  8
便器
  6
CONTINUOUS
 62
     6
100
AcDbCircle
 10
1656.749988
 20
532.790107
 30
0.0
 40
40.0
100
AcDbArc
 50
236.203125
 51
249.89449
  0
ARC
  5
1EC
100
AcDbEntity
  8
便器
  6
CONTINUOUS
 62
     6
100
AcDbCircle
 10
1656.749988
 20
532.790107
 30
0.0
 40
40.0
100
AcDbArc
 50
267.492509
 51
278.989299
  0
ARC
  5
1ED
100
AcDbEntity
  8
便器
  6
CONTINUOUS
 62
     6
100
AcDbCircle
 10
1656.749988
 20
532.790107
 30
0.0
 40
40.0
100
AcDbArc
 50
297.14539
 51
303.796875
  0
ARC
  5
1EE
100
AcDbEntity
  8
便器
  6
CONTINUOUS
 62
     6
100
AcDbCircle
 10
1701.249988
 20
532.790107
 30
0.0
 40
40.0
100
AcDbArc
 50
236.203125
 51
242.85461
  0
ARC
  5
1EF
100
AcDbEntity
  8
便器
  6
CONTINUOUS
 62
     6
100
AcDbCircle
 10
1701.249988
 20
532.790107
 30
0.0
 40
40.0
100
AcDbArc
 50
261.010701
 51
303.796875
  0
LINE
  5
1F0
100
AcDbEntity
  8
便器
  6
CONTINUOUS
 62
     3
100
AcDbLine
 10
1588.83591
 20
603.0
 30
0.0
 11
1588.83591
 21
693.0
 31
0.0
  0
LINE
  5
1F1
100
AcDbEntity
  8
便器
  6
CONTINUOUS
 62
     3
100
AcDbLine
 10
1769.16409
 20
603.0
 30
0.0
 11
1769.16409
 21
693.0
 31
0.0
  0
ARC
  5
1F2
100
AcDbEntity
  8
便器
  6
EXLTYPE2
 62
     2
100
AcDbCircle
 10
1000.758168
 20
6291.206704
 30
0.0
 40
4000.0
100
AcDbArc
 50
266.428718
 51
267.1413
  0
ARC
  5
1F3
100
AcDbEntity
  8
便器
  6
CONTINUOUS
 62
     7
100
AcDbCircle
 10
1000.758168
 20
6291.206704
 30
0.0
 40
4000.0
100
AcDbArc
 50
263.817414
 51
266.428718
  0
ARC
  5
1F4
100
AcDbEntity
  8
便器
  6
CONTINUOUS
 62
     7
100
AcDbCircle
 10
1000.558168
 20
-1345.206704
 30
0.0
 40
4000.0
100
AcDbArc
 50
95.343072
 51
95.749654
  0
ARC
  5
1F5
100
AcDbEntity
  8
便器
  6
EXLTYPE1
 62
     2
100
AcDbCircle
 10
1000.558168
 20
-1345.206704
 30
0.0
 40
4000.0
100
AcDbArc
 50
92.8587
 51
93.567519
  0
LINE
  5
1F6
100
AcDbEntity
  8
便器
  6
CONTINUOUS
 62
     7
100
AcDbLine
 10
564.000012
 20
968.0
 30
0.0
 11
1104.000012
 21
968.0
 31
0.0
  0
LINE
  5
1F7
100
AcDbEntity
  8
便器
  6
CONTINUOUS
 62
     7
100
AcDbLine
 10
495.815127
 20
661.705905
 30
0.0
 11
513.287012
 21
726.911868
 31
0.0
  0
LINE
  5
1F8
100
AcDbEntity
  8
便器
  6
CONTINUOUS
 62
     7
100
AcDbLine
 10
541.943965
 20
687.647238
 30
0.0
 11
556.223973
 21
740.940952
 31
0.0
  0
LINE
  5
1F9
100
AcDbEntity
  8
便器
  6
CONTINUOUS
 62
     7
100
AcDbLine
 10
604.520264
 20
778.0
 30
0.0
 11
642.238
 21
778.0
 31
0.0
  0
ARC
  5
1FA
100
AcDbEntity
  8
便器
  6
CONTINUOUS
 62
     7
100
AcDbCircle
 10
614.000012
 20
731.0
 30
0.0
 40
91.0
100
AcDbArc
 50
67.241969
 51
90.0
  0
ARC
  5
1FB
100
AcDbEntity
  8
便器
  6
CONTINUOUS
 62
     7
100
AcDbCircle
 10
1000.558168
 20
-1345.206704
 30
0.0
 40
4000.0
100
AcDbArc
 50
93.619327
 51
95.343072
  0
ARC
  5
1FC
100
AcDbEntity
  8
便器
  6
CONTINUOUS
 62
     7
100
AcDbCircle
 10
795.235258
 20
4507.454037
 30
0.0
 40
3600.0
100
AcDbArc
 50
266.230818
 51
274.805888
  0
ARC
  5
1FD
100
AcDbEntity
  8
便器
  6
CONTINUOUS
 62
     7
100
AcDbCircle
 10
678.592085
 20
869.335162
 30
0.0
 40
30.0
100
AcDbArc
 50
172.336829
 51
207.395293
  0
LINE
  5
1FE
100
AcDbEntity
  8
便器
  6
CONTINUOUS
 62
     7
100
AcDbLine
 10
448.051379
 20
644.307336
 30
0.0
 11
447.203372
 21
634.614574
 31
0.0
  0
TEXT
  5
1FF
100
AcDbEntity
  8
便器
  6
CONTINUOUS
 62
     2
100
AcDbText
 10
869.999998
 20
520.603679
 30
0.0
 40
40.0
  1
ＳＣ８１Ｓ－ＡＴ（ＢＴ）
 41
0.686
  7
EXCADSTD
 72
     5
 11
1261.999997
 21
520.603679
 31
0.0
100
AcDbText
  0
LINE
  5
200
100
AcDbEntity
  8
便器
  6
CONTINUOUS
 62
     6
100
AcDbLine
 10
832.0
 20
517.103679
 30
0.0
 11
1247.0
 21
517.103679
 31
0.0
  0
ARC
  5
201
100
AcDbEntity
  8
便器
  6
EXLTYPE2
 62
     2
100
AcDbCircle
 10
724.043605
 20
2473.0
 30
0.0
 40
300.0
100
AcDbArc
 50
154.754708
 51
180.0
  0
ARC
  5
202
100
AcDbEntity
  8
便器
  6
EXLTYPE2
 62
     2
100
AcDbCircle
 10
724.043605
 20
2473.0
 30
0.0
 40
300.0
100
AcDbArc
 50
180.0
 51
205.245292
  0
ARC
  5
203
100
AcDbEntity
  8
便器
  6
EXLTYPE2
 62
     2
100
AcDbCircle
 10
1144.043605
 20
2473.0
 30
0.0
 40
700.0
100
AcDbArc
 50
177.544881
 51
180.0
  0
ARC
  5
204
100
AcDbEntity
  8
便器
  6
EXLTYPE2
 62
     2
100
AcDbCircle
 10
1144.043605
 20
2473.0
 30
0.0
 40
700.0
100
AcDbArc
 50
180.0
 51
182.577895
  0
LINE
  5
205
100
AcDbEntity
  8
便器
  6
EXLTYPE3
 62
     1
100
AcDbLine
 10
1679.0
 20
484.0
 30
0.0
 11
1679.0
 21
1402.0
 31
0.0
  0
LINE
  5
206
100
AcDbEntity
  8
タンク
  6
CONTINUOUS
 62
     3
100
AcDbLine
 10
334.0
 20
2473.0
 30
0.0
 11
255.00009
 21
2473.0
 31
0.0
  0
LINE
  5
207
100
AcDbEntity
  8
タンク
  6
CONTINUOUS
 62
     3
100
AcDbLine
 10
240.00002
 20
2173.0
 30
0.0
 11
469.0
 21
2173.0
 31
0.0
  0
ARC
  5
208
100
AcDbEntity
  8
タンク
  6
CONTINUOUS
 62
     7
100
AcDbCircle
 10
393.44592
 20
987.013207
 30
0.0
 40
4.000005
100
AcDbArc
 50
180.780273
 51
270.000031
  0
ARC
  5
209
100
AcDbEntity
  8
タンク
  6
CONTINUOUS
 62
     7
100
AcDbCircle
 10
395.335874
 20
1325.498315
 30
0.0
 40
20.000019
100
AcDbArc
 50
180.780273
 51
209.999924
  0
LINE
  5
20A
100
AcDbEntity
  8
タンク
  6
CONTINUOUS
 62
     7
100
AcDbLine
 10
385.138273
 20
1303.161126
 30
0.0
 11
378.015317
 21
1315.498315
 31
0.0
  0
ARC
  5
20B
100
AcDbEntity
  8
タンク
  6
CONTINUOUS
 62
     7
100
AcDbCircle
 10
383.945951
 20
987.013207
 30
0.0
 40
4.000005
100
AcDbArc
 50
180.780273
 51
270.000031
  0
ARC
  5
20C
100
AcDbEntity
  8
タンク
  6
CONTINUOUS
 62
     7
100
AcDbCircle
 10
551.812772
 20
987.013207
 30
0.0
 40
3.999939
100
AcDbArc
 50
270.000031
 51
355.36795
  0
ARC
  5
20D
100
AcDbEntity
  8
タンク
  6
CONTINUOUS
 62
     7
100
AcDbCircle
 10
-3431.126528
 20
1309.854241
 30
0.0
 40
4000.0
100
AcDbArc
 50
355.366
 51
359.000043
  0
LINE
  5
20E
100
AcDbEntity
  8
タンク
  6
CONTINUOUS
 62
     7
100
AcDbLine
 10
383.968946
 20
983.013268
 30
0.0
 11
551.812774
 21
983.013268
 31
0.0
  0
LINE
  5
20F
100
AcDbEntity
  8
タンク
  6
CONTINUOUS
 62
     2
100
AcDbLine
 10
379.659468
 20
1008.013268
 30
0.0
 11
557.468716
 21
1008.013268
 31
0.0
  0
LINE
  5
210
100
AcDbEntity
  8
タンク
  6
CONTINUOUS
 62
     7
100
AcDbLine
 10
1474.840042
 20
1291.245537
 30
0.0
 11
1473.674576
 21
1358.017998
 31
0.0
  0
LINE
  5
211
100
AcDbEntity
  8
タンク
  6
CONTINUOUS
 62
     7
100
AcDbLine
 10
1883.159897
 20
1291.244164
 30
0.0
 11
1884.325516
 21
1358.017998
 31
0.0
  0
LINE
  5
212
100
AcDbEntity
  8
タンク
  6
CONTINUOUS
 62
     6
100
AcDbLine
 10
533.288814
 20
2683.0
 30
0.0
 11
533.288813
 21
2698.543955
 31
0.0
  0
LINE
  5
213
100
AcDbEntity
  8
タンク
  6
CONTINUOUS
 62
     6
100
AcDbLine
 10
496.799212
 20
2683.0
 30
0.0
 11
496.799213
 21
2698.543947
 31
0.0
  0
ARC
  5
214
100
AcDbEntity
  8
タンク
  6
CONTINUOUS
 62
     6
100
AcDbCircle
 10
508.962382
 20
2704.819451
 30
0.0
 40
4.0544
100
AcDbArc
 50
122.196686
 51
161.721527
  0
ARC
  5
215
100
AcDbEntity
  8
タンク
  6
CONTINUOUS
 62
     6
100
AcDbCircle
 10
521.125119
 20
2704.819776
 30
0.0
 40
4.0544
100
AcDbArc
 50
18.280151
 51
57.805664
  0
ARC
  5
216
100
AcDbEntity
  8
タンク
  6
CONTINUOUS
 62
     6
100
AcDbCircle
 10
513.564599
 20
2692.811209
 30
0.0
 40
18.2448
100
AcDbArc
 50
57.805664
 51
80.66687
  0
ARC
  5
217
100
AcDbEntity
  8
タンク
  6
CONTINUOUS
 62
     6
100
AcDbCircle
 10
516.523427
 20
2692.811205
 30
0.0
 40
18.2448
100
AcDbArc
 50
99.33316
 51
122.196716
  0
ARC
  5
218
100
AcDbEntity
  8
タンク
  6
CONTINUOUS
 62
     6
100
AcDbCircle
 10
528.260034
 20
2698.264733
 30
0.0
 40
5.068
100
AcDbArc
 50
15.989868
 51
62.588623
  0
ARC
  5
219
100
AcDbEntity
  8
タンク
  6
CONTINUOUS
 62
     6
100
AcDbCircle
 10
528.260034
 20
2698.264733
 30
0.0
 40
5.068
100
AcDbArc
 50
15.989868
 51
62.588623
  0
ARC
  5
21A
100
AcDbEntity
  8
タンク
  6
CONTINUOUS
 62
     6
100
AcDbCircle
 10
523.593634
 20
2689.266768
 30
0.0
 40
15.204
100
AcDbArc
 50
62.588623
 51
66.453674
  0
ARC
  5
21B
100
AcDbEntity
  8
タンク
  6
CONTINUOUS
 62
     6
100
AcDbCircle
 10
541.820275
 20
2727.098402
 30
0.0
 40
26.926876
100
AcDbArc
 50
231.274048
 51
234.443848
  0
ARC
  5
21C
100
AcDbEntity
  8
タンク
  6
CONTINUOUS
 62
     6
100
AcDbCircle
 10
537.361062
 20
2720.859737
 30
0.0
 40
19.2584
100
AcDbArc
 50
234.443848
 51
246.453674
  0
ARC
  5
21D
100
AcDbEntity
  8
タンク
  6
CONTINUOUS
 62
     6
100
AcDbCircle
 10
500.853613
 20
2698.54395
 30
0.0
 40
4.0544
100
AcDbArc
 50
164.010132
 51
180.0
  0
ARC
  5
21E
100
AcDbEntity
  8
タンク
  6
CONTINUOUS
 62
     6
100
AcDbCircle
 10
501.828022
 20
2698.264745
 30
0.0
 40
5.068
100
AcDbArc
 50
117.411407
 51
164.010132
  0
ARC
  5
21F
100
AcDbEntity
  8
タンク
  6
CONTINUOUS
 62
     6
100
AcDbCircle
 10
506.494393
 20
2689.266767
 30
0.0
 40
15.204
100
AcDbArc
 50
113.546326
 51
117.411407
  0
ARC
  5
220
100
AcDbEntity
  8
タンク
  6
CONTINUOUS
 62
     6
100
AcDbCircle
 10
492.726966
 20
2720.859735
 30
0.0
 40
19.2584
100
AcDbArc
 50
293.546326
 51
305.556152
  0
ARC
  5
221
100
AcDbEntity
  8
タンク
  6
CONTINUOUS
 62
     6
100
AcDbCircle
 10
488.267749
 20
2727.098412
 30
0.0
 40
26.926876
100
AcDbArc
 50
305.556152
 51
308.724487
  0
ARC
  5
222
100
AcDbEntity
  8
タンク
  6
CONTINUOUS
 62
     6
100
AcDbCircle
 10
529.234413
 20
2698.543953
 30
0.0
 40
4.0544
100
AcDbArc
 50
0.0
 51
15.989868
  0
LINE
  5
223
100
AcDbEntity
  8
タンク
  6
CONTINUOUS
 62
     6
100
AcDbLine
 10
1885.135759
 20
1305.072536
 30
0.0
 11
1885.135759
 21
1340.953985
 31
0.0
  0
LINE
  5
224
100
AcDbEntity
  8
タンク
  6
CONTINUOUS
 62
     6
100
AcDbLine
 10
1910.412657
 20
1272.333268
 30
0.0
 11
1890.203759
 21
1272.333268
 31
0.0
  0
LINE
  5
225
100
AcDbEntity
  8
タンク
  6
CONTINUOUS
 62
     6
100
AcDbLine
 10
1904.166062
 20
1341.258068
 30
0.0
 11
1885.439827
 21
1341.258068
 31
0.0
  0
LINE
  5
226
100
AcDbEntity
  8
タンク
  6
CONTINUOUS
 62
     6
100
AcDbLine
 10
1890.203759
 20
1289.53434
 30
0.0
 11
1890.203759
 21
1272.333268
 31
0.0
  0
ARC
  5
227
100
AcDbEntity
  8
タンク
  6
CONTINUOUS
 62
     6
100
AcDbCircle
 10
1890.507827
 20
1272.637274
 30
0.0
 40
0.30408
100
AcDbArc
 50
180.005127
 51
270.056458
  0
ARC
  5
228
100
AcDbEntity
  8
タンク
  6
CONTINUOUS
 62
     6
100
AcDbCircle
 10
1874.999759
 20
1323.013268
 30
0.0
 40
36.4896
100
AcDbArc
 50
10.758698
 51
25.944489
  0
ARC
  5
229
100
AcDbEntity
  8
タンク
  6
CONTINUOUS
 62
     6
100
AcDbCircle
 10
1904.166062
 20
1337.203668
 30
0.0
 40
4.0544
100
AcDbArc
 50
25.944489
 51
90.0
  0
ARC
  5
22A
100
AcDbEntity
  8
タンク
  6
CONTINUOUS
 62
     6
100
AcDbCircle
 10
1910.412657
 20
1276.387668
 30
0.0
 40
4.0544
100
AcDbArc
 50
270.0
 51
328.506104
  0
ARC
  5
22B
100
AcDbEntity
  8
タンク
  6
CONTINUOUS
 62
     6
100
AcDbCircle
 10
1898.312559
 20
1283.800856
 30
0.0
 40
18.2448
100
AcDbArc
 50
328.506104
 51
3.653961
  0
ARC
  5
22C
100
AcDbEntity
  8
タンク
  6
CONTINUOUS
 62
     6
100
AcDbCircle
 10
1552.366066
 20
1261.708594
 30
0.0
 40
364.896
100
AcDbArc
 50
3.653961
 51
10.758698
  0
ARC
  5
22D
100
AcDbEntity
  8
タンク
  6
CONTINUOUS
 62
     6
100
AcDbCircle
 10
1863.850191
 20
1289.53434
 30
0.0
 40
26.353569
100
AcDbArc
 50
0.0
 51
36.128998
  0
POLYLINE
  5
22E
100
AcDbEntity
  8
タンク
  6
CONTINUOUS
 62
     6
100
AcDb2dPolyline
 66
     1
 10
0.0
 20
0.0
 30
0.0
 70
   128
  0
VERTEX
  5
22F
100
AcDbEntity
  8
タンク
  6
CONTINUOUS
 62
     6
100
AcDbVertex
100
AcDb2dVertex
 10
1088.386099
 20
1323.972284
 30
0.0
  0
VERTEX
  5
230
100
AcDbEntity
  8
タンク
  6
CONTINUOUS
 62
     6
100
AcDbVertex
100
AcDb2dVertex
 10
1062.144098
 20
1358.915367
 30
0.0
  0
VERTEX
  5
231
100
AcDbEntity
  8
タンク
  6
CONTINUOUS
 62
     6
100
AcDbVertex
100
AcDb2dVertex
 10
878.144098
 20
1358.915367
 30
0.0
  0
SEQEND
  5
232
100
AcDbEntity
  8
タンク
  6
CONTINUOUS
 62
     6
  0
LINE
  5
233
100
AcDbEntity
  8
タンク
  6
CONTINUOUS
 62
     6
100
AcDbLine
 10
1062.703879
 20
1348.45598
 30
0.0
 11
1088.386099
 21
1323.972284
 31
0.0
  0
LINE
  5
234
100
AcDbEntity
  8
タンク
  6
CONTINUOUS
 62
     6
100
AcDbLine
 10
1088.386099
 20
1323.972284
 30
0.0
 11
1072.032765
 21
1355.461906
 31
0.0
  0
LEADER
  5
235
100
AcDbEntity
  8
タンク
  6
CONTINUOUS
 62
     6
100
AcDbLeader
  3
STANDARD
 73
     3
 74
     1
 75
     0
 40
0.0
 76
     2
 10
568.89398
 20
1276.001851
 30
0.0
 10
708.164951
 20
1482.927274
 30
0.0
 77
     6
1001
ACAD
1000
DSTYLE
1002
{
1070
    41
1040
35.0
1070
     5
1000
_EX_NORM
1070
     6
1000
_EX_NORM
1070
     7
1000
_EX_NORM
1070
   341
1005
2D
1002
}
  0
LINE
  5
236
100
AcDbEntity
  8
タンク
  6
CONTINUOUS
 62
     3
100
AcDbLine
 10
377.0
 20
983.013202
 30
0.0
 11
213.0
 21
983.013202
 31
0.0
  0
ARC
  5
237
100
AcDbEntity
  8
タンク
  6
CONTINUOUS
 62
     7
100
AcDbCircle
 10
3174.5811
 20
1320.913964
 30
0.0
 40
1700.0
100
AcDbArc
 50
180.999985
 51
190.110528
  0
ARC
  5
238
100
AcDbEntity
  8
タンク
  6
CONTINUOUS
 62
     7
100
AcDbCircle
 10
183.418838
 20
1320.913659
 30
0.0
 40
1700.0
100
AcDbArc
 50
349.889503
 51
359.0
  0
ARC
  5
239
100
AcDbEntity
  8
タンク
  6
CONTINUOUS
 62
     6
100
AcDbCircle
 10
515.044019
 20
2701.812848
 30
0.0
 40
9.1224
100
AcDbArc
 50
80.66687
 51
90.0
  0
ARC
  5
23A
100
AcDbEntity
  8
タンク
  6
CONTINUOUS
 62
     6
100
AcDbCircle
 10
515.044019
 20
2701.812848
 30
0.0
 40
9.1224
100
AcDbArc
 50
90.0
 51
99.33316
  0
LINE
  5
23B
100
AcDbEntity
  8
タンク
  6
CONTINUOUS
 62
     6
100
AcDbLine
 10
708.164951
 20
1482.927274
 30
0.0
 11
1108.0
 21
1482.927274
 31
0.0
  0
TEXT
  5
23C
100
AcDbEntity
  8
タンク
  6
CONTINUOUS
 62
     2
100
AcDbText
 10
875.584547
 20
1363.877187
 30
0.0
 40
40.0
  1
ＮＣ７１ＶＪ
 41
0.7
  7
EXCADSTD
 72
     5
 11
1075.584546
 21
1363.877187
 31
0.0
100
AcDbText
  0
TEXT
  5
23D
100
AcDbEntity
  8
タンク
  6
CONTINUOUS
 62
     2
100
AcDbText
 10
707.947601
 20
1486.427274
 30
0.0
 40
40.0
  1
ＳＴＶ１８９ＦＵ－０ＡＥ０Ｄ
 41
0.603
  7
EXCADSTD
 72
     5
 11
1109.947595
 21
1486.427274
 31
0.0
100
AcDbText
  0
LINE
  5
23E
100
AcDbEntity
  8
タンク
  6
CONTINUOUS
 62
     7
100
AcDbLine
 10
382.043678
 20
2353.0
 30
0.0
 11
375.044166
 21
2353.0
 31
0.0
  0
LINE
  5
23F
100
AcDbEntity
  8
タンク
  6
CONTINUOUS
 62
     7
100
AcDbLine
 10
375.044014
 20
2293.0
 30
0.0
 11
375.044166
 21
2353.0
 31
0.0
  0
LINE
  5
240
100
AcDbEntity
  8
タンク
  6
CONTINUOUS
 62
     7
100
AcDbLine
 10
382.043525
 20
2293.0
 30
0.0
 11
375.044014
 21
2293.0
 31
0.0
  0
LINE
  5
241
100
AcDbEntity
  8
タンク
  6
CONTINUOUS
 62
     7
100
AcDbLine
 10
382.043831
 20
2653.0
 30
0.0
 11
375.044319
 21
2653.0
 31
0.0
  0
LINE
  5
242
100
AcDbEntity
  8
タンク
  6
CONTINUOUS
 62
     7
100
AcDbLine
 10
375.044166
 20
2593.0
 30
0.0
 11
375.044319
 21
2653.0
 31
0.0
  0
LINE
  5
243
100
AcDbEntity
  8
タンク
  6
CONTINUOUS
 62
     7
100
AcDbLine
 10
382.043678
 20
2593.0
 30
0.0
 11
375.044166
 21
2593.0
 31
0.0
  0
ARC
  5
244
100
AcDbEntity
  8
タンク
  6
CONTINUOUS
 62
     7
100
AcDbCircle
 10
377.544166
 20
2533.0
 30
0.0
 40
2.5
100
AcDbArc
 50
90.0
 51
270.0
  0
ARC
  5
245
100
AcDbEntity
  8
タンク
  6
CONTINUOUS
 62
     7
100
AcDbCircle
 10
377.544166
 20
2473.0
 30
0.0
 40
2.5
100
AcDbArc
 50
90.0
 51
270.0
  0
ARC
  5
246
100
AcDbEntity
  8
タンク
  6
CONTINUOUS
 62
     7
100
AcDbCircle
 10
377.544166
 20
2413.0
 30
0.0
 40
2.5
100
AcDbArc
 50
90.0
 51
270.0
  0
LINE
  5
247
100
AcDbEntity
  8
タンク
  6
CONTINUOUS
 62
     7
100
AcDbLine
 10
382.043678
 20
2535.5
 30
0.0
 11
377.544166
 21
2535.5
 31
0.0
  0
LINE
  5
248
100
AcDbEntity
  8
タンク
  6
CONTINUOUS
 62
     7
100
AcDbLine
 10
382.043678
 20
2530.5
 30
0.0
 11
377.544166
 21
2530.5
 31
0.0
  0
LINE
  5
249
100
AcDbEntity
  8
タンク
  6
CONTINUOUS
 62
     7
100
AcDbLine
 10
382.043678
 20
2475.5
 30
0.0
 11
377.544166
 21
2475.5
 31
0.0
  0
LINE
  5
24A
100
AcDbEntity
  8
タンク
  6
CONTINUOUS
 62
     7
100
AcDbLine
 10
382.043678
 20
2470.5
 30
0.0
 11
377.544166
 21
2470.5
 31
0.0
  0
LINE
  5
24B
100
AcDbEntity
  8
タンク
  6
CONTINUOUS
 62
     7
100
AcDbLine
 10
382.043678
 20
2415.5
 30
0.0
 11
377.544166
 21
2415.5
 31
0.0
  0
LINE
  5
24C
100
AcDbEntity
  8
タンク
  6
CONTINUOUS
 62
     7
100
AcDbLine
 10
382.043678
 20
2410.5
 30
0.0
 11
377.544166
 21
2410.5
 31
0.0
  0
LINE
  5
24D
100
AcDbEntity
  8
タンク
  6
CONTINUOUS
 62
     7
100
AcDbLine
 10
382.043527
 20
2288.00002
 30
0.0
 11
382.043829
 21
2658.00002
 31
0.0
  0
ARC
  5
24E
100
AcDbEntity
  8
タンク
  6
CONTINUOUS
 62
     7
100
AcDbCircle
 10
407.043527
 20
2288.0
 30
0.0
 40
25.0
100
AcDbArc
 50
179.999953
 51
270.0
  0
LINE
  5
24F
100
AcDbEntity
  8
タンク
  6
CONTINUOUS
 62
     7
100
AcDbLine
 10
535.686208
 20
2263.0
 30
0.0
 11
407.043527
 21
2263.0
 31
0.0
  0
ARC
  5
250
100
AcDbEntity
  8
タンク
  6
CONTINUOUS
 62
     7
100
AcDbCircle
 10
535.686208
 20
2296.0
 30
0.0
 40
33.0
100
AcDbArc
 50
270.0
 51
355.885514
  0
ARC
  5
251
100
AcDbEntity
  8
タンク
  6
CONTINUOUS
 62
     7
100
AcDbCircle
 10
-1924.955528
 20
2473.006336
 30
0.0
 40
2500.0
100
AcDbArc
 50
355.885514
 51
4.114191
  0
ARC
  5
252
100
AcDbEntity
  8
タンク
  6
CONTINUOUS
 62
     7
100
AcDbCircle
 10
535.68712
 20
2650.0
 30
0.0
 40
33.0
100
AcDbArc
 50
4.114191
 51
90.0
  0
LINE
  5
253
100
AcDbEntity
  8
タンク
  6
CONTINUOUS
 62
     7
100
AcDbLine
 10
535.68712
 20
2683.0
 30
0.0
 11
407.043829
 21
2683.0
 31
0.0
  0
ARC
  5
254
100
AcDbEntity
  8
タンク
  6
CONTINUOUS
 62
     7
100
AcDbCircle
 10
407.043829
 20
2658.0
 30
0.0
 40
25.0
100
AcDbArc
 50
90.0
 51
179.999953
  0
TEXT
  5
255
100
AcDbEntity
  8
タンク
  6
CONTINUOUS
 62
     2
100
AcDbText
 10
415.543681
 20
1451.513202
 30
0.0
 40
40.0
  1
２００
 41
0.833
  7
EXCADSTD
 72
     5
 11
534.543681
 21
1451.513202
 31
0.0
100
AcDbText
  0
LINE
  5
256
100
AcDbEntity
  8
タンク
  6
CONTINUOUS
 62
     3
100
AcDbLine
 10
375.043758
 20
1448.013202
 30
0.0
 11
575.043605
 21
1448.013202
 31
0.0
  0
LINE
  5
257
100
AcDbEntity
  8
タンク
  6
CONTINUOUS
 62
     3
100
AcDbLine
 10
410.043758
 20
1453.846535
 30
0.0
 11
375.043758
 21
1448.013202
 31
0.0
  0
LINE
  5
258
100
AcDbEntity
  8
タンク
  6
CONTINUOUS
 62
     3
100
AcDbLine
 10
375.043758
 20
1448.013202
 30
0.0
 11
410.043758
 21
1442.179869
 31
0.0
  0
LINE
  5
259
100
AcDbEntity
  8
タンク
  6
CONTINUOUS
 62
     3
100
AcDbLine
 10
540.043605
 20
1442.179869
 30
0.0
 11
575.043605
 21
1448.013202
 31
0.0
  0
LINE
  5
25A
100
AcDbEntity
  8
タンク
  6
CONTINUOUS
 62
     3
100
AcDbLine
 10
575.043605
 20
1448.013202
 30
0.0
 11
540.043605
 21
1453.846535
 31
0.0
  0
LINE
  5
25B
100
AcDbEntity
  8
タンク
  6
EXLTYPE2
 62
     2
100
AcDbLine
 10
384.499998
 20
1368.013268
 30
0.0
 11
570.500059
 21
1368.013268
 31
0.0
  0
ARC
  5
25C
100
AcDbEntity
  8
タンク
  6
CONTINUOUS
 62
     7
100
AcDbCircle
 10
567.043623
 20
1376.339325
 30
0.0
 40
8.0
100
AcDbArc
 50
0.0
 51
85.298781
  0
ARC
  5
25D
100
AcDbEntity
  8
タンク
  6
CONTINUOUS
 62
     7
100
AcDbCircle
 10
477.543623
 20
288.013202
 30
0.0
 40
1100.0
100
AcDbArc
 50
85.298781
 51
94.701219
  0
ARC
  5
25E
100
AcDbEntity
  8
タンク
  6
CONTINUOUS
 62
     7
100
AcDbCircle
 10
388.043623
 20
1376.339325
 30
0.0
 40
8.0
100
AcDbArc
 50
94.701219
 51
180.0
  0
LINE
  5
25F
100
AcDbEntity
  8
タンク
  6
CONTINUOUS
 62
     3
100
AcDbLine
 10
575.043605
 20
1468.013202
 30
0.0
 11
575.043605
 21
1388.013202
 31
0.0
  0
LINE
  5
260
100
AcDbEntity
  8
タンク
  6
CONTINUOUS
 62
     3
100
AcDbLine
 10
375.043758
 20
1468.013202
 30
0.0
 11
375.043758
 21
1350.013172
 31
0.0
  0
LINE
  5
261
100
AcDbEntity
  8
タンク
  6
CONTINUOUS
 62
     7
100
AcDbLine
 10
380.043623
 20
1350.013172
 30
0.0
 11
380.043623
 21
1376.339325
 31
0.0
  0
LINE
  5
262
100
AcDbEntity
  8
タンク
  6
CONTINUOUS
 62
     7
100
AcDbLine
 10
575.043623
 20
1350.013172
 30
0.0
 11
575.043623
 21
1376.339325
 31
0.0
  0
LINE
  5
263
100
AcDbEntity
  8
タンク
  6
CONTINUOUS
 62
     3
100
AcDbLine
 10
470.543623
 20
1388.013202
 30
0.0
 11
219.0
 21
1388.013202
 31
0.0
  0
TEXT
  5
264
100
AcDbEntity
  8
タンク
  6
CONTINUOUS
 62
     2
100
AcDbText
 10
1619.5
 20
1451.641162
 30
0.0
 40
40.0
  1
４２０
 41
0.833
  7
EXCADSTD
 72
     5
 11
1738.5
 21
1451.641162
 31
0.0
100
AcDbText
  0
LINE
  5
265
100
AcDbEntity
  8
タンク
  6
CONTINUOUS
 62
     3
100
AcDbLine
 10
1469.0
 20
1448.141162
 30
0.0
 11
1889.0
 21
1448.141162
 31
0.0
  0
LINE
  5
266
100
AcDbEntity
  8
タンク
  6
CONTINUOUS
 62
     3
100
AcDbLine
 10
1504.0
 20
1453.974496
 30
0.0
 11
1469.0
 21
1448.141162
 31
0.0
  0
LINE
  5
267
100
AcDbEntity
  8
タンク
  6
CONTINUOUS
 62
     3
100
AcDbLine
 10
1469.0
 20
1448.141162
 30
0.0
 11
1504.0
 21
1442.307829
 31
0.0
  0
LINE
  5
268
100
AcDbEntity
  8
タンク
  6
CONTINUOUS
 62
     3
100
AcDbLine
 10
1854.0
 20
1442.307829
 30
0.0
 11
1889.0
 21
1448.141162
 31
0.0
  0
LINE
  5
269
100
AcDbEntity
  8
タンク
  6
CONTINUOUS
 62
     3
100
AcDbLine
 10
1889.0
 20
1448.141162
 30
0.0
 11
1854.0
 21
1453.974496
 31
0.0
  0
LINE
  5
26A
100
AcDbEntity
  8
タンク
  6
CONTINUOUS
 62
     7
100
AcDbLine
 10
1469.000046
 20
1358.017846
 30
0.0
 11
1889.000046
 21
1358.017998
 31
0.0
  0
LINE
  5
26B
100
AcDbEntity
  8
タンク
  6
EXLTYPE2
 62
     2
100
AcDbLine
 10
1884.325516
 20
1358.017998
 30
0.0
 11
1884.500076
 21
1368.017998
 31
0.0
  0
LINE
  5
26C
100
AcDbEntity
  8
タンク
  6
EXLTYPE2
 62
     2
100
AcDbLine
 10
1473.500015
 20
1368.017998
 30
0.0
 11
1884.500076
 21
1368.017998
 31
0.0
  0
LINE
  5
26D
100
AcDbEntity
  8
タンク
  6
EXLTYPE2
 62
     2
100
AcDbLine
 10
1473.500015
 20
1368.017998
 30
0.0
 11
1473.674576
 21
1358.017998
 31
0.0
  0
ARC
  5
26E
100
AcDbEntity
  8
タンク
  6
CONTINUOUS
 62
     7
100
AcDbCircle
 10
1679.0
 20
-3611.986798
 30
0.0
 40
5000.0
100
AcDbArc
 50
87.680908
 51
92.319092
  0
LINE
  5
26F
100
AcDbEntity
  8
タンク
  6
CONTINUOUS
 62
     3
100
AcDbLine
 10
1889.0
 20
1388.013202
 30
0.0
 11
1889.0
 21
1468.141162
 31
0.0
  0
LINE
  5
270
100
AcDbEntity
  8
タンク
  6
CONTINUOUS
 62
     3
100
AcDbLine
 10
1469.0
 20
1388.013202
 30
0.0
 11
1469.0
 21
1468.141162
 31
0.0
  0
ARC
  5
271
100
AcDbEntity
  8
タンク
  6
CONTINUOUS
 62
     7
100
AcDbCircle
 10
1477.0
 20
1375.924589
 30
0.0
 40
8.0
100
AcDbArc
 50
92.319092
 51
180.0
  0
ARC
  5
272
100
AcDbEntity
  8
タンク
  6
CONTINUOUS
 62
     7
100
AcDbCircle
 10
1881.0
 20
1375.924589
 30
0.0
 40
8.0
100
AcDbArc
 50
0.0
 51
87.680908
  0
LINE
  5
273
100
AcDbEntity
  8
タンク
  6
CONTINUOUS
 62
     7
100
AcDbLine
 10
1469.0
 20
1375.924589
 30
0.0
 11
1469.0
 21
1358.017846
 31
0.0
  0
LINE
  5
274
100
AcDbEntity
  8
タンク
  6
CONTINUOUS
 62
     7
100
AcDbLine
 10
1889.0
 20
1375.924589
 30
0.0
 11
1889.0
 21
1358.017998
 31
0.0
  0
LINE
  5
275
100
AcDbEntity
  8
タンク
  6
CONTINUOUS
 62
     7
100
AcDbLine
 10
575.043623
 20
1350.013172
 30
0.0
 11
375.000029
 21
1350.013172
 31
0.0
  0
LINE
  5
276
100
AcDbEntity
  8
タンク
  6
CONTINUOUS
 62
     7
100
AcDbLine
 10
375.000029
 20
1350.013172
 30
0.0
 11
379.946317
 21
986.958735
 31
0.0
  0
LINE
  5
277
100
AcDbEntity
  8
タンク
  6
CONTINUOUS
 62
     7
100
AcDbLine
 10
384.500043
 20
1350.013172
 30
0.0
 11
389.446287
 21
986.958735
 31
0.0
  0
LINE
  5
278
100
AcDbEntity
  8
タンク
  6
EXLTYPE2
 62
     2
100
AcDbLine
 10
384.499998
 20
1368.013268
 30
0.0
 11
384.499998
 21
1350.013172
 31
0.0
  0
LINE
  5
279
100
AcDbEntity
  8
タンク
  6
CONTINUOUS
 62
     7
100
AcDbLine
 10
568.266324
 20
1240.043603
 30
0.0
 11
570.185855
 21
1350.013172
 31
0.0
  0
LINE
  5
27A
100
AcDbEntity
  8
タンク
  6
EXLTYPE2
 62
     2
100
AcDbLine
 10
570.185848
 20
1350.013172
 30
0.0
 11
570.500059
 21
1368.013268
 31
0.0
  0
LEADER
  5
27B
100
AcDbEntity
  8
止水栓
  6
CONTINUOUS
 62
     6
100
AcDbLeader
  3
STANDARD
 73
     3
 74
     1
 75
     0
 40
0.0
 76
     2
 10
578.500012
 20
499.549363
 30
0.0
 10
642.055594
 20
380.312341
 30
0.0
 77
     6
1001
ACAD
1000
DSTYLE
1002
{
1070
    41
1040
35.0
1070
     5
1000
_EX_NORM
1070
     6
1000
_EX_NORM
1070
     7
1000
_EX_NORM
1070
   341
1005
2D
1002
}
  0
TEXT
  5
27C
100
AcDbEntity
  8
止水栓
  6
CONTINUOUS
 62
     2
100
AcDbText
 10
282.957836
 20
528.4
 30
0.0
 40
25.0
  1
２
 41
0.84
  7
EXCADSTD
 72
     5
 11
302.957836
 21
528.4
 31
0.0
100
AcDbText
  0
TEXT
  5
27D
100
AcDbEntity
  8
止水栓
  6
CONTINUOUS
 62
     6
100
AcDbText
 10
262.357836
 20
528.5
 30
0.0
 40
40.0
  1
／ 
 41
0.945
  7
EXCADSTD
 72
     5
 11
298.357836
 21
528.5
 31
0.0
100
AcDbText
  0
TEXT
  5
27E
100
AcDbEntity
  8
止水栓
  6
CONTINUOUS
 62
     2
100
AcDbText
 10
215.857836
 20
528.5
 30
0.0
 40
40.0
  1
Ｒ
 41
0.945
  7
EXCADSTD
 72
     5
 11
251.857836
 21
528.5
 31
0.0
100
AcDbText
  0
TEXT
  5
27F
100
AcDbEntity
  8
止水栓
  6
CONTINUOUS
 62
     2
100
AcDbText
 10
252.357836
 20
543.7
 30
0.0
 40
25.0
  1
１
 41
0.84
  7
EXCADSTD
 72
     5
 11
272.357836
 21
543.7
 31
0.0
100
AcDbText
  0
LINE
  5
280
100
AcDbEntity
  8
止水栓
  6
CONTINUOUS
 62
     6
100
AcDbLine
 10
307.0
 20
525.0
 30
0.0
 11
220.0
 21
525.0
 31
0.0
  0
LEADER
  5
281
100
AcDbEntity
  8
止水栓
  6
CONTINUOUS
 62
     6
100
AcDbLeader
  3
STANDARD
 73
     3
 74
     1
 75
     0
 40
0.0
 76
     2
 10
423.7
 20
595.15977
 30
0.0
 10
307.0
 20
525.0
 30
0.0
 77
     6
1001
ACAD
1000
DSTYLE
1002
{
1070
    41
1040
35.0
1070
     5
1000
_EX_NORM
1070
     6
1000
_EX_NORM
1070
     7
1000
_EX_NORM
1070
   341
1005
2D
1002
}
  0
LINE
  5
282
100
AcDbEntity
  8
止水栓
  6
CONTINUOUS
 62
     6
100
AcDbLine
 10
427.5
 20
731.131989
 30
0.0
 11
412.564399
 21
983.013268
 31
0.0
  0
LINE
  5
283
100
AcDbEntity
  8
止水栓
  6
CONTINUOUS
 62
     6
100
AcDbLine
 10
440.5
 20
731.775357
 30
0.0
 11
425.602548
 21
983.013268
 31
0.0
  0
LINE
  5
284
100
AcDbEntity
  8
止水栓
  6
EXLTYPE3
 62
     6
100
AcDbLine
 10
434.0
 20
682.0
 30
0.0
 11
434.0
 21
577.7
 31
0.0
  0
TEXT
  5
285
100
AcDbEntity
  8
止水栓
  6
CONTINUOUS
 62
     2
100
AcDbText
 10
613.639657
 20
437.123658
 30
0.0
 40
40.0
  1
ＶＵ 、ＶＰ７５
 41
0.584531
  7
EXCADSTD
 72
     5
 11
831.139671
 21
437.123658
 31
0.0
100
AcDbText
  0
LINE
  5
286
100
AcDbEntity
  8
止水栓
  6
CONTINUOUS
 62
     6
100
AcDbLine
 10
613.639657
 20
433.623658
 30
0.0
 11
829.0
 21
433.623658
 31
0.0
  0
TEXT
  5
287
100
AcDbEntity
  8
止水栓
  6
CONTINUOUS
 62
     2
100
AcDbText
 10
642.055594
 20
383.812341
 30
0.0
 40
40.0
  1
ＶＵ 、ＶＰ１００
 41
0.584957
  7
EXCADSTD
 72
     5
 11
887.55561
 21
383.812341
 31
0.0
100
AcDbText
  0
LINE
  5
288
100
AcDbEntity
  8
止水栓
  6
CONTINUOUS
 62
     6
100
AcDbLine
 10
642.055594
 20
380.312341
 30
0.0
 11
885.0
 21
380.312341
 31
0.0
  0
LINE
  5
289
100
AcDbEntity
  8
止水栓
  6
EXLTYPE2
 62
     6
100
AcDbLine
 10
356.16
 20
2162.7
 30
0.0
 11
356.16
 21
2183.3
 31
0.0
  0
LINE
  5
28A
100
AcDbEntity
  8
止水栓
  6
EXLTYPE2
 62
     6
100
AcDbLine
 10
356.16
 20
2182.46675
 30
0.0
 11
354.716769
 21
2183.3
 31
0.0
  0
LINE
  5
28B
100
AcDbEntity
  8
止水栓
  6
EXLTYPE2
 62
     6
100
AcDbLine
 10
350.0
 20
2186.5
 30
0.0
 11
350.0
 21
2159.5
 31
0.0
  0
ARC
  5
28C
100
AcDbEntity
  8
止水栓
  6
EXLTYPE2
 62
     6
100
AcDbCircle
 10
336.0
 20
2186.5
 30
0.0
 40
14.0
100
AcDbArc
 50
0.0
 51
90.0
  0
LINE
  5
28D
100
AcDbEntity
  8
止水栓
  6
EXLTYPE2
 62
     6
100
AcDbLine
 10
334.0
 20
2200.5
 30
0.0
 11
336.0
 21
2200.5
 31
0.0
  0
ARC
  5
28E
100
AcDbEntity
  8
止水栓
  6
EXLTYPE2
 62
     6
100
AcDbCircle
 10
336.0
 20
2159.5
 30
0.0
 40
14.0
100
AcDbArc
 50
270.0
 51
0.0
  0
LINE
  5
28F
100
AcDbEntity
  8
止水栓
  6
EXLTYPE2
 62
     6
100
AcDbLine
 10
334.0
 20
2145.5
 30
0.0
 11
336.0
 21
2145.5
 31
0.0
  0
LINE
  5
290
100
AcDbEntity
  8
止水栓
  6
EXLTYPE2
 62
     6
100
AcDbLine
 10
334.0
 20
2162.7
 30
0.0
 11
328.32
 21
2162.7
 31
0.0
  0
LINE
  5
291
100
AcDbEntity
  8
止水栓
  6
EXLTYPE2
 62
     6
100
AcDbLine
 10
326.160516
 20
2163.929484
 30
0.0
 11
334.0
 21
2163.6845
 31
0.0
  0
LINE
  5
292
100
AcDbEntity
  8
止水栓
  6
EXLTYPE2
 62
     6
100
AcDbLine
 10
327.34
 20
2162.730625
 30
0.0
 11
327.34
 21
2183.269375
 31
0.0
  0
LINE
  5
293
100
AcDbEntity
  8
止水栓
  6
EXLTYPE2
 62
     6
100
AcDbLine
 10
328.32
 20
2162.7
 30
0.0
 11
327.34
 21
2162.730625
 31
0.0
  0
LINE
  5
294
100
AcDbEntity
  8
止水栓
  6
EXLTYPE2
 62
     6
100
AcDbLine
 10
327.339
 20
2162.731625
 30
0.0
 11
325.84
 21
2164.230625
 31
0.0
  0
LINE
  5
295
100
AcDbEntity
  8
止水栓
  6
EXLTYPE2
 62
     6
100
AcDbLine
 10
325.84
 20
2164.230625
 30
0.0
 11
325.84
 21
2181.769375
 31
0.0
  0
LINE
  5
296
100
AcDbEntity
  8
止水栓
  6
EXLTYPE2
 62
     6
100
AcDbLine
 10
326.160516
 20
2182.070516
 30
0.0
 11
334.0
 21
2182.3155
 31
0.0
  0
LINE
  5
297
100
AcDbEntity
  8
止水栓
  6
EXLTYPE2
 62
     6
100
AcDbLine
 10
327.339
 20
2183.268375
 30
0.0
 11
325.84
 21
2181.769375
 31
0.0
  0
LINE
  5
298
100
AcDbEntity
  8
止水栓
  6
EXLTYPE2
 62
     6
100
AcDbLine
 10
334.0
 20
2183.3
 30
0.0
 11
328.32
 21
2183.3
 31
0.0
  0
LINE
  5
299
100
AcDbEntity
  8
止水栓
  6
EXLTYPE2
 62
     6
100
AcDbLine
 10
328.32
 20
2183.3
 30
0.0
 11
327.34
 21
2183.269375
 31
0.0
  0
LINE
  5
29A
100
AcDbEntity
  8
止水栓
  6
EXLTYPE3
 62
     6
100
AcDbLine
 10
1379.0
 20
898.0
 30
0.0
 11
1379.0
 21
797.689283
 31
0.0
  0
ARC
  5
29B
100
AcDbEntity
  8
止水栓
  6
EXLTYPE3
 62
     6
100
AcDbCircle
 10
1463.999971
 20
797.689283
 30
0.0
 40
84.999971
100
AcDbArc
 50
180.0
 51
0.0
  0
LINE
  5
29C
100
AcDbEntity
  8
止水栓
  6
EXLTYPE3
 62
     6
100
AcDbLine
 10
1548.999942
 20
797.689283
 30
0.0
 11
1548.999942
 21
836.583104
 31
0.0
  0
ARC
  5
29D
100
AcDbEntity
  8
止水栓
  6
EXLTYPE3
 62
     6
100
AcDbCircle
 10
404.141665
 20
727.88098
 30
0.0
 40
15.141669
100
AcDbArc
 50
180.0
 51
0.0
  0
LINE
  5
29E
100
AcDbEntity
  8
止水栓
  6
EXLTYPE3
 62
     6
100
AcDbLine
 10
419.283333
 20
979.500729
 30
0.0
 11
419.283333
 21
727.88098
 31
0.0
  0
LINE
  5
29F
100
AcDbEntity
  8
止水栓
  6
CONTINUOUS
 62
     6
100
AcDbLine
 10
443.316444
 20
2193.0
 30
0.0
 11
444.530142
 21
2190.897783
 31
0.0
  0
LINE
  5
2A0
100
AcDbEntity
  8
止水栓
  6
CONTINUOUS
 62
     6
100
AcDbLine
 10
444.478444
 20
2193.0
 30
0.0
 11
423.523444
 21
2193.0
 31
0.0
  0
LINE
  5
2A1
100
AcDbEntity
  8
止水栓
  6
CONTINUOUS
 62
     6
100
AcDbLine
 10
424.685444
 20
2193.0
 30
0.0
 11
423.471746
 21
2190.897783
 31
0.0
  0
LINE
  5
2A2
100
AcDbEntity
  8
止水栓
  6
CONTINUOUS
 62
     6
100
AcDbLine
 10
423.523444
 20
2186.144181
 30
0.0
 11
423.523444
 21
2197.0
 31
0.0
  0
LINE
  5
2A3
100
AcDbEntity
  8
止水栓
  6
CONTINUOUS
 62
     6
100
AcDbLine
 10
424.685444
 20
2197.0
 30
0.0
 11
424.685444
 21
2193.0
 31
0.0
  0
LINE
  5
2A4
100
AcDbEntity
  8
止水栓
  6
CONTINUOUS
 62
     6
100
AcDbLine
 10
443.316444
 20
2197.0
 30
0.0
 11
443.316444
 21
2193.0
 31
0.0
  0
LINE
  5
2A5
100
AcDbEntity
  8
止水栓
  6
CONTINUOUS
 62
     6
100
AcDbLine
 10
444.478444
 20
2186.144181
 30
0.0
 11
444.478444
 21
2196.77417
 31
0.0
  0
POLYLINE
  5
2A6
100
AcDbEntity
  8
止水栓
  6
CONTINUOUS
 62
     6
100
AcDb2dPolyline
 66
     1
 10
0.0
 20
0.0
 30
0.0
 70
   128
  0
VERTEX
  5
2A7
100
AcDbEntity
  8
止水栓
  6
CONTINUOUS
 62
     6
100
AcDbVertex
100
AcDb2dVertex
 10
439.858641
 20
2203.223145
 30
0.0
  0
VERTEX
  5
2A8
100
AcDbEntity
  8
止水栓
  6
CONTINUOUS
 62
     6
100
AcDbVertex
100
AcDb2dVertex
 10
439.836668
 20
2203.706543
 30
0.0
  0
VERTEX
  5
2A9
100
AcDbEntity
  8
止水栓
  6
CONTINUOUS
 62
     6
100
AcDbVertex
100
AcDb2dVertex
 10
439.77075
 20
2204.1875
 30
0.0
  0
VERTEX
  5
2AA
100
AcDbEntity
  8
止水栓
  6
CONTINUOUS
 62
     6
100
AcDbVertex
100
AcDb2dVertex
 10
439.660887
 20
2204.661133
 30
0.0
  0
VERTEX
  5
2AB
100
AcDbEntity
  8
止水栓
  6
CONTINUOUS
 62
     6
100
AcDbVertex
100
AcDb2dVertex
 10
439.507078
 20
2205.125
 30
0.0
  0
VERTEX
  5
2AC
100
AcDbEntity
  8
止水栓
  6
CONTINUOUS
 62
     6
100
AcDbVertex
100
AcDb2dVertex
 10
439.314207
 20
2205.571777
 30
0.0
  0
VERTEX
  5
2AD
100
AcDbEntity
  8
止水栓
  6
CONTINUOUS
 62
     6
100
AcDbVertex
100
AcDb2dVertex
 10
439.077391
 20
2206.003906
 30
0.0
  0
VERTEX
  5
2AE
100
AcDbEntity
  8
止水栓
  6
CONTINUOUS
 62
     6
100
AcDbVertex
100
AcDb2dVertex
 10
438.803953
 20
2206.411621
 30
0.0
  0
VERTEX
  5
2AF
100
AcDbEntity
  8
止水栓
  6
CONTINUOUS
 62
     6
100
AcDbVertex
100
AcDb2dVertex
 10
438.493895
 20
2206.797363
 30
0.0
  0
VERTEX
  5
2B0
100
AcDbEntity
  8
止水栓
  6
CONTINUOUS
 62
     6
100
AcDbVertex
100
AcDb2dVertex
 10
438.152098
 20
2207.153809
 30
0.0
  0
VERTEX
  5
2B1
100
AcDbEntity
  8
止水栓
  6
CONTINUOUS
 62
     6
100
AcDbVertex
100
AcDb2dVertex
 10
437.776121
 20
2207.483398
 30
0.0
  0
VERTEX
  5
2B2
100
AcDbEntity
  8
止水栓
  6
CONTINUOUS
 62
     6
100
AcDbVertex
100
AcDb2dVertex
 10
437.373289
 20
2207.776367
 30
0.0
  0
VERTEX
  5
2B3
100
AcDbEntity
  8
止水栓
  6
CONTINUOUS
 62
     6
100
AcDbVertex
100
AcDb2dVertex
 10
436.943602
 20
2208.040039
 30
0.0
  0
VERTEX
  5
2B4
100
AcDbEntity
  8
止水栓
  6
CONTINUOUS
 62
     6
100
AcDbVertex
100
AcDb2dVertex
 10
436.491941
 20
2208.264648
 30
0.0
  0
VERTEX
  5
2B5
100
AcDbEntity
  8
止水栓
  6
CONTINUOUS
 62
     6
100
AcDbVertex
100
AcDb2dVertex
 10
436.023191
 20
2208.450195
 30
0.0
  0
VERTEX
  5
2B6
100
AcDbEntity
  8
止水栓
  6
CONTINUOUS
 62
     6
100
AcDbVertex
100
AcDb2dVertex
 10
435.537352
 20
2208.594238
 30
0.0
  0
VERTEX
  5
2B7
100
AcDbEntity
  8
止水栓
  6
CONTINUOUS
 62
     6
100
AcDbVertex
100
AcDb2dVertex
 10
435.041746
 20
2208.699219
 30
0.0
  0
VERTEX
  5
2B8
100
AcDbEntity
  8
止水栓
  6
CONTINUOUS
 62
     6
100
AcDbVertex
100
AcDb2dVertex
 10
434.536375
 20
2208.762695
 30
0.0
  0
VERTEX
  5
2B9
100
AcDbEntity
  8
止水栓
  6
CONTINUOUS
 62
     6
100
AcDbVertex
100
AcDb2dVertex
 10
434.028563
 20
2208.784668
 30
0.0
  0
VERTEX
  5
2BA
100
AcDbEntity
  8
止水栓
  6
CONTINUOUS
 62
     6
100
AcDbVertex
100
AcDb2dVertex
 10
434.018797
 20
2208.784668
 30
0.0
  0
VERTEX
  5
2BB
100
AcDbEntity
  8
止水栓
  6
CONTINUOUS
 62
     6
100
AcDbVertex
100
AcDb2dVertex
 10
434.011473
 20
2208.784668
 30
0.0
  0
VERTEX
  5
2BC
100
AcDbEntity
  8
止水栓
  6
CONTINUOUS
 62
     6
100
AcDbVertex
100
AcDb2dVertex
 10
434.001707
 20
2208.784668
 30
0.0
  0
SEQEND
  5
2BD
100
AcDbEntity
  8
止水栓
  6
CONTINUOUS
 62
     6
  0
LINE
  5
2BE
100
AcDbEntity
  8
止水栓
  6
CONTINUOUS
 62
     6
100
AcDbLine
 10
440.751707
 20
2242.999512
 30
0.0
 11
427.251707
 21
2242.999512
 31
0.0
  0
LINE
  5
2BF
100
AcDbEntity
  8
止水栓
  6
CONTINUOUS
 62
     6
100
AcDbLine
 10
438.751707
 20
2218.999512
 30
0.0
 11
429.251707
 21
2218.999512
 31
0.0
  0
LINE
  5
2C0
100
AcDbEntity
  8
止水栓
  6
CONTINUOUS
 62
     6
100
AcDbLine
 10
439.751707
 20
2215.999512
 30
0.0
 11
428.251707
 21
2215.999512
 31
0.0
  0
LINE
  5
2C1
100
AcDbEntity
  8
止水栓
  6
CONTINUOUS
 62
     6
100
AcDbLine
 10
438.751707
 20
2226.999512
 30
0.0
 11
429.251707
 21
2226.999512
 31
0.0
  0
LINE
  5
2C2
100
AcDbEntity
  8
止水栓
  6
CONTINUOUS
 62
     6
100
AcDbLine
 10
438.751707
 20
2231.999512
 30
0.0
 11
429.251707
 21
2231.999512
 31
0.0
  0
LINE
  5
2C3
100
AcDbEntity
  8
止水栓
  6
CONTINUOUS
 62
     6
100
AcDbLine
 10
438.751707
 20
2223.999512
 30
0.0
 11
429.251707
 21
2223.999512
 31
0.0
  0
LINE
  5
2C4
100
AcDbEntity
  8
止水栓
  6
CONTINUOUS
 62
     6
100
AcDbLine
 10
440.751707
 20
2234.999512
 30
0.0
 11
427.251707
 21
2234.999512
 31
0.0
  0
POLYLINE
  5
2C5
100
AcDbEntity
  8
止水栓
  6
CONTINUOUS
 62
     6
100
AcDb2dPolyline
 66
     1
 10
0.0
 20
0.0
 30
0.0
 70
   128
  0
VERTEX
  5
2C6
100
AcDbEntity
  8
止水栓
  6
CONTINUOUS
 62
     6
100
AcDbVertex
100
AcDb2dVertex
 10
434.001707
 20
2208.784668
 30
0.0
  0
VERTEX
  5
2C7
100
AcDbEntity
  8
止水栓
  6
CONTINUOUS
 62
     6
100
AcDbVertex
100
AcDb2dVertex
 10
433.50366
 20
2208.762695
 30
0.0
  0
VERTEX
  5
2C8
100
AcDbEntity
  8
止水栓
  6
CONTINUOUS
 62
     6
100
AcDbVertex
100
AcDb2dVertex
 10
433.008055
 20
2208.696777
 30
0.0
  0
VERTEX
  5
2C9
100
AcDbEntity
  8
止水栓
  6
CONTINUOUS
 62
     6
100
AcDbVertex
100
AcDb2dVertex
 10
432.519774
 20
2208.594238
 30
0.0
  0
VERTEX
  5
2CA
100
AcDbEntity
  8
止水栓
  6
CONTINUOUS
 62
     6
100
AcDbVertex
100
AcDb2dVertex
 10
432.033934
 20
2208.447754
 30
0.0
  0
VERTEX
  5
2CB
100
AcDbEntity
  8
止水栓
  6
CONTINUOUS
 62
     6
100
AcDbVertex
100
AcDb2dVertex
 10
431.565184
 20
2208.262207
 30
0.0
  0
VERTEX
  5
2CC
100
AcDbEntity
  8
止水栓
  6
CONTINUOUS
 62
     6
100
AcDbVertex
100
AcDb2dVertex
 10
431.113524
 20
2208.040039
 30
0.0
  0
VERTEX
  5
2CD
100
AcDbEntity
  8
止水栓
  6
CONTINUOUS
 62
     6
100
AcDbVertex
100
AcDb2dVertex
 10
430.683836
 20
2207.778809
 30
0.0
  0
VERTEX
  5
2CE
100
AcDbEntity
  8
止水栓
  6
CONTINUOUS
 62
     6
100
AcDbVertex
100
AcDb2dVertex
 10
430.281004
 20
2207.483398
 30
0.0
  0
VERTEX
  5
2CF
100
AcDbEntity
  8
止水栓
  6
CONTINUOUS
 62
     6
100
AcDbVertex
100
AcDb2dVertex
 10
429.905027
 20
2207.15625
 30
0.0
  0
VERTEX
  5
2D0
100
AcDbEntity
  8
止水栓
  6
CONTINUOUS
 62
     6
100
AcDbVertex
100
AcDb2dVertex
 10
429.563231
 20
2206.797363
 30
0.0
  0
VERTEX
  5
2D1
100
AcDbEntity
  8
止水栓
  6
CONTINUOUS
 62
     6
100
AcDbVertex
100
AcDb2dVertex
 10
429.253172
 20
2206.411621
 30
0.0
  0
VERTEX
  5
2D2
100
AcDbEntity
  8
止水栓
  6
CONTINUOUS
 62
     6
100
AcDbVertex
100
AcDb2dVertex
 10
428.979734
 20
2206.003906
 30
0.0
  0
VERTEX
  5
2D3
100
AcDbEntity
  8
止水栓
  6
CONTINUOUS
 62
     6
100
AcDbVertex
100
AcDb2dVertex
 10
428.742918
 20
2205.574219
 30
0.0
  0
VERTEX
  5
2D4
100
AcDbEntity
  8
止水栓
  6
CONTINUOUS
 62
     6
100
AcDbVertex
100
AcDb2dVertex
 10
428.550047
 20
2205.125
 30
0.0
  0
VERTEX
  5
2D5
100
AcDbEntity
  8
止水栓
  6
CONTINUOUS
 62
     6
100
AcDbVertex
100
AcDb2dVertex
 10
428.396238
 20
2204.661133
 30
0.0
  0
VERTEX
  5
2D6
100
AcDbEntity
  8
止水栓
  6
CONTINUOUS
 62
     6
100
AcDbVertex
100
AcDb2dVertex
 10
428.286375
 20
2204.1875
 30
0.0
  0
VERTEX
  5
2D7
100
AcDbEntity
  8
止水栓
  6
CONTINUOUS
 62
     6
100
AcDbVertex
100
AcDb2dVertex
 10
428.220457
 20
2203.706543
 30
0.0
  0
VERTEX
  5
2D8
100
AcDbEntity
  8
止水栓
  6
CONTINUOUS
 62
     6
100
AcDbVertex
100
AcDb2dVertex
 10
428.196043
 20
2203.223145
 30
0.0
  0
VERTEX
  5
2D9
100
AcDbEntity
  8
止水栓
  6
CONTINUOUS
 62
     6
100
AcDbVertex
100
AcDb2dVertex
 10
428.220457
 20
2202.737305
 30
0.0
  0
VERTEX
  5
2DA
100
AcDbEntity
  8
止水栓
  6
CONTINUOUS
 62
     6
100
AcDbVertex
100
AcDb2dVertex
 10
428.286375
 20
2202.256348
 30
0.0
  0
VERTEX
  5
2DB
100
AcDbEntity
  8
止水栓
  6
CONTINUOUS
 62
     6
100
AcDbVertex
100
AcDb2dVertex
 10
428.396238
 20
2201.782715
 30
0.0
  0
VERTEX
  5
2DC
100
AcDbEntity
  8
止水栓
  6
CONTINUOUS
 62
     6
100
AcDbVertex
100
AcDb2dVertex
 10
428.550047
 20
2201.321289
 30
0.0
  0
VERTEX
  5
2DD
100
AcDbEntity
  8
止水栓
  6
CONTINUOUS
 62
     6
100
AcDbVertex
100
AcDb2dVertex
 10
428.742918
 20
2200.87207
 30
0.0
  0
VERTEX
  5
2DE
100
AcDbEntity
  8
止水栓
  6
CONTINUOUS
 62
     6
100
AcDbVertex
100
AcDb2dVertex
 10
428.979734
 20
2200.442383
 30
0.0
  0
VERTEX
  5
2DF
100
AcDbEntity
  8
止水栓
  6
CONTINUOUS
 62
     6
100
AcDbVertex
100
AcDb2dVertex
 10
429.253172
 20
2200.032227
 30
0.0
  0
VERTEX
  5
2E0
100
AcDbEntity
  8
止水栓
  6
CONTINUOUS
 62
     6
100
AcDbVertex
100
AcDb2dVertex
 10
429.563231
 20
2199.648926
 30
0.0
  0
VERTEX
  5
2E1
100
AcDbEntity
  8
止水栓
  6
CONTINUOUS
 62
     6
100
AcDbVertex
100
AcDb2dVertex
 10
429.905027
 20
2199.290039
 30
0.0
  0
VERTEX
  5
2E2
100
AcDbEntity
  8
止水栓
  6
CONTINUOUS
 62
     6
100
AcDbVertex
100
AcDb2dVertex
 10
430.281004
 20
2198.962891
 30
0.0
  0
VERTEX
  5
2E3
100
AcDbEntity
  8
止水栓
  6
CONTINUOUS
 62
     6
100
AcDbVertex
100
AcDb2dVertex
 10
430.683836
 20
2198.66748
 30
0.0
  0
VERTEX
  5
2E4
100
AcDbEntity
  8
止水栓
  6
CONTINUOUS
 62
     6
100
AcDbVertex
100
AcDb2dVertex
 10
431.113524
 20
2198.40625
 30
0.0
  0
VERTEX
  5
2E5
100
AcDbEntity
  8
止水栓
  6
CONTINUOUS
 62
     6
100
AcDbVertex
100
AcDb2dVertex
 10
431.565184
 20
2198.181641
 30
0.0
  0
VERTEX
  5
2E6
100
AcDbEntity
  8
止水栓
  6
CONTINUOUS
 62
     6
100
AcDbVertex
100
AcDb2dVertex
 10
432.033934
 20
2197.996094
 30
0.0
  0
VERTEX
  5
2E7
100
AcDbEntity
  8
止水栓
  6
CONTINUOUS
 62
     6
100
AcDbVertex
100
AcDb2dVertex
 10
432.519774
 20
2197.852051
 30
0.0
  0
VERTEX
  5
2E8
100
AcDbEntity
  8
止水栓
  6
CONTINUOUS
 62
     6
100
AcDbVertex
100
AcDb2dVertex
 10
433.015379
 20
2197.74707
 30
0.0
  0
VERTEX
  5
2E9
100
AcDbEntity
  8
止水栓
  6
CONTINUOUS
 62
     6
100
AcDbVertex
100
AcDb2dVertex
 10
433.52075
 20
2197.683594
 30
0.0
  0
VERTEX
  5
2EA
100
AcDbEntity
  8
止水栓
  6
CONTINUOUS
 62
     6
100
AcDbVertex
100
AcDb2dVertex
 10
434.028563
 20
2197.661621
 30
0.0
  0
VERTEX
  5
2EB
100
AcDbEntity
  8
止水栓
  6
CONTINUOUS
 62
     6
100
AcDbVertex
100
AcDb2dVertex
 10
434.536375
 20
2197.683594
 30
0.0
  0
VERTEX
  5
2EC
100
AcDbEntity
  8
止水栓
  6
CONTINUOUS
 62
     6
100
AcDbVertex
100
AcDb2dVertex
 10
435.041746
 20
2197.74707
 30
0.0
  0
VERTEX
  5
2ED
100
AcDbEntity
  8
止水栓
  6
CONTINUOUS
 62
     6
100
AcDbVertex
100
AcDb2dVertex
 10
435.537352
 20
2197.852051
 30
0.0
  0
VERTEX
  5
2EE
100
AcDbEntity
  8
止水栓
  6
CONTINUOUS
 62
     6
100
AcDbVertex
100
AcDb2dVertex
 10
436.023191
 20
2197.996094
 30
0.0
  0
VERTEX
  5
2EF
100
AcDbEntity
  8
止水栓
  6
CONTINUOUS
 62
     6
100
AcDbVertex
100
AcDb2dVertex
 10
436.491941
 20
2198.181641
 30
0.0
  0
VERTEX
  5
2F0
100
AcDbEntity
  8
止水栓
  6
CONTINUOUS
 62
     6
100
AcDbVertex
100
AcDb2dVertex
 10
436.943602
 20
2198.40625
 30
0.0
  0
VERTEX
  5
2F1
100
AcDbEntity
  8
止水栓
  6
CONTINUOUS
 62
     6
100
AcDbVertex
100
AcDb2dVertex
 10
437.373289
 20
2198.66748
 30
0.0
  0
VERTEX
  5
2F2
100
AcDbEntity
  8
止水栓
  6
CONTINUOUS
 62
     6
100
AcDbVertex
100
AcDb2dVertex
 10
437.776121
 20
2198.962891
 30
0.0
  0
VERTEX
  5
2F3
100
AcDbEntity
  8
止水栓
  6
CONTINUOUS
 62
     6
100
AcDbVertex
100
AcDb2dVertex
 10
438.152098
 20
2199.290039
 30
0.0
  0
VERTEX
  5
2F4
100
AcDbEntity
  8
止水栓
  6
CONTINUOUS
 62
     6
100
AcDbVertex
100
AcDb2dVertex
 10
438.493895
 20
2199.648926
 30
0.0
  0
VERTEX
  5
2F5
100
AcDbEntity
  8
止水栓
  6
CONTINUOUS
 62
     6
100
AcDbVertex
100
AcDb2dVertex
 10
438.803953
 20
2200.032227
 30
0.0
  0
VERTEX
  5
2F6
100
AcDbEntity
  8
止水栓
  6
CONTINUOUS
 62
     6
100
AcDbVertex
100
AcDb2dVertex
 10
439.077391
 20
2200.442383
 30
0.0
  0
VERTEX
  5
2F7
100
AcDbEntity
  8
止水栓
  6
CONTINUOUS
 62
     6
100
AcDbVertex
100
AcDb2dVertex
 10
439.314207
 20
2200.87207
 30
0.0
  0
VERTEX
  5
2F8
100
AcDbEntity
  8
止水栓
  6
CONTINUOUS
 62
     6
100
AcDbVertex
100
AcDb2dVertex
 10
439.507078
 20
2201.321289
 30
0.0
  0
VERTEX
  5
2F9
100
AcDbEntity
  8
止水栓
  6
CONTINUOUS
 62
     6
100
AcDbVertex
100
AcDb2dVertex
 10
439.660887
 20
2201.782715
 30
0.0
  0
VERTEX
  5
2FA
100
AcDbEntity
  8
止水栓
  6
CONTINUOUS
 62
     6
100
AcDbVertex
100
AcDb2dVertex
 10
439.77075
 20
2202.256348
 30
0.0
  0
VERTEX
  5
2FB
100
AcDbEntity
  8
止水栓
  6
CONTINUOUS
 62
     6
100
AcDbVertex
100
AcDb2dVertex
 10
439.836668
 20
2202.737305
 30
0.0
  0
VERTEX
  5
2FC
100
AcDbEntity
  8
止水栓
  6
CONTINUOUS
 62
     6
100
AcDbVertex
100
AcDb2dVertex
 10
439.858641
 20
2203.220703
 30
0.0
  0
SEQEND
  5
2FD
100
AcDbEntity
  8
止水栓
  6
CONTINUOUS
 62
     6
  0
LINE
  5
2FE
100
AcDbEntity
  8
止水栓
  6
CONTINUOUS
 62
     6
100
AcDbLine
 10
444.501707
 20
2213.999512
 30
0.0
 11
423.501707
 21
2213.999512
 31
0.0
  0
LINE
  5
2FF
100
AcDbEntity
  8
止水栓
  6
CONTINUOUS
 62
     6
100
AcDbLine
 10
444.970945
 20
2197.0
 30
0.0
 11
423.030943
 21
2197.0
 31
0.0
  0
LINE
  5
300
100
AcDbEntity
  8
止水栓
  6
CONTINUOUS
 62
     6
100
AcDbLine
 10
444.970945
 20
2208.999512
 30
0.0
 11
423.032469
 21
2208.999512
 31
0.0
  0
LINE
  5
301
100
AcDbEntity
  8
止水栓
  6
CONTINUOUS
 62
     6
100
AcDbLine
 10
444.501707
 20
2208.999512
 30
0.0
 11
444.501707
 21
2213.999512
 31
0.0
  0
LINE
  5
302
100
AcDbEntity
  8
止水栓
  6
CONTINUOUS
 62
     6
100
AcDbLine
 10
440.751707
 20
2234.999512
 30
0.0
 11
440.751707
 21
2242.999512
 31
0.0
  0
LINE
  5
303
100
AcDbEntity
  8
止水栓
  6
CONTINUOUS
 62
     6
100
AcDbLine
 10
439.751707
 20
2215.999512
 30
0.0
 11
439.751707
 21
2218.999512
 31
0.0
  0
LINE
  5
304
100
AcDbEntity
  8
止水栓
  6
CONTINUOUS
 62
     6
100
AcDbLine
 10
438.001707
 20
2213.999512
 30
0.0
 11
438.001707
 21
2215.999512
 31
0.0
  0
ARC
  5
305
100
AcDbEntity
  8
止水栓
  6
CONTINUOUS
 62
     6
100
AcDbCircle
 10
438.751707
 20
2229.499512
 30
0.0
 40
2.5
100
AcDbArc
 50
0.0
 51
90.0
  0
ARC
  5
306
100
AcDbEntity
  8
止水栓
  6
CONTINUOUS
 62
     6
100
AcDbCircle
 10
438.751707
 20
2229.499512
 30
0.0
 40
2.5
100
AcDbArc
 50
270.0
 51
0.0
  0
ARC
  5
307
100
AcDbEntity
  8
止水栓
  6
CONTINUOUS
 62
     6
100
AcDbCircle
 10
438.751707
 20
2221.499512
 30
0.0
 40
2.5
100
AcDbArc
 50
0.0
 51
90.0
  0
LINE
  5
308
100
AcDbEntity
  8
止水栓
  6
CONTINUOUS
 62
     6
100
AcDbLine
 10
439.751707
 20
2223.999512
 30
0.0
 11
439.751707
 21
2226.999512
 31
0.0
  0
LINE
  5
309
100
AcDbEntity
  8
止水栓
  6
CONTINUOUS
 62
     6
100
AcDbLine
 10
439.751707
 20
2231.999512
 30
0.0
 11
439.751707
 21
2234.999512
 31
0.0
  0
ARC
  5
30A
100
AcDbEntity
  8
止水栓
  6
CONTINUOUS
 62
     6
100
AcDbCircle
 10
438.751707
 20
2221.499512
 30
0.0
 40
2.5
100
AcDbArc
 50
270.0
 51
0.0
  0
POLYLINE
  5
30B
100
AcDbEntity
  8
止水栓
  6
CONTINUOUS
 62
     6
100
AcDb2dPolyline
 66
     1
 10
0.0
 20
0.0
 30
0.0
 70
   128
  0
VERTEX
  5
30C
100
AcDbEntity
  8
止水栓
  6
CONTINUOUS
 62
     6
100
AcDbVertex
100
AcDb2dVertex
 10
446.413816
 20
2201.958496
 30
0.0
  0
VERTEX
  5
30D
100
AcDbEntity
  8
止水栓
  6
CONTINUOUS
 62
     6
100
AcDbVertex
100
AcDb2dVertex
 10
446.460203
 20
2202.383301
 30
0.0
  0
VERTEX
  5
30E
100
AcDbEntity
  8
止水栓
  6
CONTINUOUS
 62
     6
100
AcDbVertex
100
AcDb2dVertex
 10
446.487059
 20
2202.81543
 30
0.0
  0
VERTEX
  5
30F
100
AcDbEntity
  8
止水栓
  6
CONTINUOUS
 62
     6
100
AcDbVertex
100
AcDb2dVertex
 10
446.496824
 20
2203.25
 30
0.0
  0
SEQEND
  5
310
100
AcDbEntity
  8
止水栓
  6
CONTINUOUS
 62
     6
  0
POLYLINE
  5
311
100
AcDbEntity
  8
止水栓
  6
CONTINUOUS
 62
     6
100
AcDb2dPolyline
 66
     1
 10
0.0
 20
0.0
 30
0.0
 70
   128
  0
VERTEX
  5
312
100
AcDbEntity
  8
止水栓
  6
CONTINUOUS
 62
     6
100
AcDbVertex
100
AcDb2dVertex
 10
445.08325
 20
2198.728516
 30
0.0
  0
VERTEX
  5
313
100
AcDbEntity
  8
止水栓
  6
CONTINUOUS
 62
     6
100
AcDbVertex
100
AcDb2dVertex
 10
445.271238
 20
2198.928711
 30
0.0
  0
VERTEX
  5
314
100
AcDbEntity
  8
止水栓
  6
CONTINUOUS
 62
     6
100
AcDbVertex
100
AcDb2dVertex
 10
445.451902
 20
2199.163086
 30
0.0
  0
VERTEX
  5
315
100
AcDbEntity
  8
止水栓
  6
CONTINUOUS
 62
     6
100
AcDbVertex
100
AcDb2dVertex
 10
445.622801
 20
2199.426758
 30
0.0
  0
VERTEX
  5
316
100
AcDbEntity
  8
止水栓
  6
CONTINUOUS
 62
     6
100
AcDbVertex
100
AcDb2dVertex
 10
445.779051
 20
2199.722168
 30
0.0
  0
VERTEX
  5
317
100
AcDbEntity
  8
止水栓
  6
CONTINUOUS
 62
     6
100
AcDbVertex
100
AcDb2dVertex
 10
445.923094
 20
2200.041992
 30
0.0
  0
VERTEX
  5
318
100
AcDbEntity
  8
止水栓
  6
CONTINUOUS
 62
     6
100
AcDbVertex
100
AcDb2dVertex
 10
446.05493
 20
2200.388672
 30
0.0
  0
VERTEX
  5
319
100
AcDbEntity
  8
止水栓
  6
CONTINUOUS
 62
     6
100
AcDbVertex
100
AcDb2dVertex
 10
446.169676
 20
2200.754883
 30
0.0
  0
VERTEX
  5
31A
100
AcDbEntity
  8
止水栓
  6
CONTINUOUS
 62
     6
100
AcDbVertex
100
AcDb2dVertex
 10
446.267332
 20
2201.140625
 30
0.0
  0
VERTEX
  5
31B
100
AcDbEntity
  8
止水栓
  6
CONTINUOUS
 62
     6
100
AcDbVertex
100
AcDb2dVertex
 10
446.347899
 20
2201.543457
 30
0.0
  0
VERTEX
  5
31C
100
AcDbEntity
  8
止水栓
  6
CONTINUOUS
 62
     6
100
AcDbVertex
100
AcDb2dVertex
 10
446.413816
 20
2201.958496
 30
0.0
  0
SEQEND
  5
31D
100
AcDbEntity
  8
止水栓
  6
CONTINUOUS
 62
     6
  0
ARC
  5
31E
100
AcDbEntity
  8
止水栓
  6
CONTINUOUS
 62
     6
100
AcDbCircle
 10
435.752195
 20
2202.998535
 30
0.0
 40
10.998535
100
AcDbArc
 50
326.94841
 51
33.059082
  0
POLYLINE
  5
31F
100
AcDbEntity
  8
止水栓
  6
CONTINUOUS
 62
     6
100
AcDb2dPolyline
 66
     1
 10
0.0
 20
0.0
 30
0.0
 70
   128
  0
VERTEX
  5
320
100
AcDbEntity
  8
止水栓
  6
CONTINUOUS
 62
     6
100
AcDbVertex
100
AcDb2dVertex
 10
446.496824
 20
2203.25
 30
0.0
  0
VERTEX
  5
321
100
AcDbEntity
  8
止水栓
  6
CONTINUOUS
 62
     6
100
AcDbVertex
100
AcDb2dVertex
 10
446.487059
 20
2203.687012
 30
0.0
  0
VERTEX
  5
322
100
AcDbEntity
  8
止水栓
  6
CONTINUOUS
 62
     6
100
AcDbVertex
100
AcDb2dVertex
 10
446.460203
 20
2204.119141
 30
0.0
  0
VERTEX
  5
323
100
AcDbEntity
  8
止水栓
  6
CONTINUOUS
 62
     6
100
AcDbVertex
100
AcDb2dVertex
 10
446.413816
 20
2204.543945
 30
0.0
  0
VERTEX
  5
324
100
AcDbEntity
  8
止水栓
  6
CONTINUOUS
 62
     6
100
AcDbVertex
100
AcDb2dVertex
 10
446.347899
 20
2204.958984
 30
0.0
  0
VERTEX
  5
325
100
AcDbEntity
  8
止水栓
  6
CONTINUOUS
 62
     6
100
AcDbVertex
100
AcDb2dVertex
 10
446.267332
 20
2205.359375
 30
0.0
  0
VERTEX
  5
326
100
AcDbEntity
  8
止水栓
  6
CONTINUOUS
 62
     6
100
AcDbVertex
100
AcDb2dVertex
 10
446.169676
 20
2205.745117
 30
0.0
  0
VERTEX
  5
327
100
AcDbEntity
  8
止水栓
  6
CONTINUOUS
 62
     6
100
AcDbVertex
100
AcDb2dVertex
 10
446.052488
 20
2206.11377
 30
0.0
  0
VERTEX
  5
328
100
AcDbEntity
  8
止水栓
  6
CONTINUOUS
 62
     6
100
AcDbVertex
100
AcDb2dVertex
 10
445.923094
 20
2206.458008
 30
0.0
  0
VERTEX
  5
329
100
AcDbEntity
  8
止水栓
  6
CONTINUOUS
 62
     6
100
AcDbVertex
100
AcDb2dVertex
 10
445.779051
 20
2206.780273
 30
0.0
  0
VERTEX
  5
32A
100
AcDbEntity
  8
止水栓
  6
CONTINUOUS
 62
     6
100
AcDbVertex
100
AcDb2dVertex
 10
445.620359
 20
2207.073242
 30
0.0
  0
VERTEX
  5
32B
100
AcDbEntity
  8
止水栓
  6
CONTINUOUS
 62
     6
100
AcDbVertex
100
AcDb2dVertex
 10
445.451902
 20
2207.339355
 30
0.0
  0
VERTEX
  5
32C
100
AcDbEntity
  8
止水栓
  6
CONTINUOUS
 62
     6
100
AcDbVertex
100
AcDb2dVertex
 10
445.271238
 20
2207.571289
 30
0.0
  0
VERTEX
  5
32D
100
AcDbEntity
  8
止水栓
  6
CONTINUOUS
 62
     6
100
AcDbVertex
100
AcDb2dVertex
 10
445.08325
 20
2207.773926
 30
0.0
  0
VERTEX
  5
32E
100
AcDbEntity
  8
止水栓
  6
CONTINUOUS
 62
     6
100
AcDbVertex
100
AcDb2dVertex
 10
444.885496
 20
2207.939941
 30
0.0
  0
VERTEX
  5
32F
100
AcDbEntity
  8
止水栓
  6
CONTINUOUS
 62
     6
100
AcDbVertex
100
AcDb2dVertex
 10
444.680418
 20
2208.071777
 30
0.0
  0
VERTEX
  5
330
100
AcDbEntity
  8
止水栓
  6
CONTINUOUS
 62
     6
100
AcDbVertex
100
AcDb2dVertex
 10
444.472899
 20
2208.164551
 30
0.0
  0
VERTEX
  5
331
100
AcDbEntity
  8
止水栓
  6
CONTINUOUS
 62
     6
100
AcDbVertex
100
AcDb2dVertex
 10
444.260496
 20
2208.223145
 30
0.0
  0
VERTEX
  5
332
100
AcDbEntity
  8
止水栓
  6
CONTINUOUS
 62
     6
100
AcDbVertex
100
AcDb2dVertex
 10
444.048094
 20
2208.240234
 30
0.0
  0
VERTEX
  5
333
100
AcDbEntity
  8
止水栓
  6
CONTINUOUS
 62
     6
100
AcDbVertex
100
AcDb2dVertex
 10
443.83325
 20
2208.220703
 30
0.0
  0
VERTEX
  5
334
100
AcDbEntity
  8
止水栓
  6
CONTINUOUS
 62
     6
100
AcDbVertex
100
AcDb2dVertex
 10
443.620848
 20
2208.164551
 30
0.0
  0
VERTEX
  5
335
100
AcDbEntity
  8
止水栓
  6
CONTINUOUS
 62
     6
100
AcDbVertex
100
AcDb2dVertex
 10
443.413328
 20
2208.071777
 30
0.0
  0
VERTEX
  5
336
100
AcDbEntity
  8
止水栓
  6
CONTINUOUS
 62
     6
100
AcDbVertex
100
AcDb2dVertex
 10
443.20825
 20
2207.939941
 30
0.0
  0
VERTEX
  5
337
100
AcDbEntity
  8
止水栓
  6
CONTINUOUS
 62
     6
100
AcDbVertex
100
AcDb2dVertex
 10
443.010496
 20
2207.773926
 30
0.0
  0
VERTEX
  5
338
100
AcDbEntity
  8
止水栓
  6
CONTINUOUS
 62
     6
100
AcDbVertex
100
AcDb2dVertex
 10
442.822508
 20
2207.571289
 30
0.0
  0
VERTEX
  5
339
100
AcDbEntity
  8
止水栓
  6
CONTINUOUS
 62
     6
100
AcDbVertex
100
AcDb2dVertex
 10
442.641844
 20
2207.336914
 30
0.0
  0
VERTEX
  5
33A
100
AcDbEntity
  8
止水栓
  6
CONTINUOUS
 62
     6
100
AcDbVertex
100
AcDb2dVertex
 10
442.473387
 20
2207.073242
 30
0.0
  0
VERTEX
  5
33B
100
AcDbEntity
  8
止水栓
  6
CONTINUOUS
 62
     6
100
AcDbVertex
100
AcDb2dVertex
 10
442.314695
 20
2206.780273
 30
0.0
  0
VERTEX
  5
33C
100
AcDbEntity
  8
止水栓
  6
CONTINUOUS
 62
     6
100
AcDbVertex
100
AcDb2dVertex
 10
442.170652
 20
2206.458008
 30
0.0
  0
VERTEX
  5
33D
100
AcDbEntity
  8
止水栓
  6
CONTINUOUS
 62
     6
100
AcDbVertex
100
AcDb2dVertex
 10
442.041258
 20
2206.11377
 30
0.0
  0
VERTEX
  5
33E
100
AcDbEntity
  8
止水栓
  6
CONTINUOUS
 62
     6
100
AcDbVertex
100
AcDb2dVertex
 10
441.926512
 20
2205.745117
 30
0.0
  0
VERTEX
  5
33F
100
AcDbEntity
  8
止水栓
  6
CONTINUOUS
 62
     6
100
AcDbVertex
100
AcDb2dVertex
 10
441.826414
 20
2205.359375
 30
0.0
  0
VERTEX
  5
340
100
AcDbEntity
  8
止水栓
  6
CONTINUOUS
 62
     6
100
AcDbVertex
100
AcDb2dVertex
 10
441.745848
 20
2204.956543
 30
0.0
  0
VERTEX
  5
341
100
AcDbEntity
  8
止水栓
  6
CONTINUOUS
 62
     6
100
AcDbVertex
100
AcDb2dVertex
 10
441.67993
 20
2204.541504
 30
0.0
  0
VERTEX
  5
342
100
AcDbEntity
  8
止水栓
  6
CONTINUOUS
 62
     6
100
AcDbVertex
100
AcDb2dVertex
 10
441.633543
 20
2204.116699
 30
0.0
  0
VERTEX
  5
343
100
AcDbEntity
  8
止水栓
  6
CONTINUOUS
 62
     6
100
AcDbVertex
100
AcDb2dVertex
 10
441.606688
 20
2203.68457
 30
0.0
  0
VERTEX
  5
344
100
AcDbEntity
  8
止水栓
  6
CONTINUOUS
 62
     6
100
AcDbVertex
100
AcDb2dVertex
 10
441.596922
 20
2203.25
 30
0.0
  0
VERTEX
  5
345
100
AcDbEntity
  8
止水栓
  6
CONTINUOUS
 62
     6
100
AcDbVertex
100
AcDb2dVertex
 10
441.606688
 20
2202.81543
 30
0.0
  0
VERTEX
  5
346
100
AcDbEntity
  8
止水栓
  6
CONTINUOUS
 62
     6
100
AcDbVertex
100
AcDb2dVertex
 10
441.635984
 20
2202.383301
 30
0.0
  0
VERTEX
  5
347
100
AcDbEntity
  8
止水栓
  6
CONTINUOUS
 62
     6
100
AcDbVertex
100
AcDb2dVertex
 10
441.682371
 20
2201.958496
 30
0.0
  0
VERTEX
  5
348
100
AcDbEntity
  8
止水栓
  6
CONTINUOUS
 62
     6
100
AcDbVertex
100
AcDb2dVertex
 10
441.745848
 20
2201.543457
 30
0.0
  0
VERTEX
  5
349
100
AcDbEntity
  8
止水栓
  6
CONTINUOUS
 62
     6
100
AcDbVertex
100
AcDb2dVertex
 10
441.826414
 20
2201.140625
 30
0.0
  0
VERTEX
  5
34A
100
AcDbEntity
  8
止水栓
  6
CONTINUOUS
 62
     6
100
AcDbVertex
100
AcDb2dVertex
 10
441.926512
 20
2200.754883
 30
0.0
  0
VERTEX
  5
34B
100
AcDbEntity
  8
止水栓
  6
CONTINUOUS
 62
     6
100
AcDbVertex
100
AcDb2dVertex
 10
442.041258
 20
2200.388672
 30
0.0
  0
VERTEX
  5
34C
100
AcDbEntity
  8
止水栓
  6
CONTINUOUS
 62
     6
100
AcDbVertex
100
AcDb2dVertex
 10
442.170652
 20
2200.041992
 30
0.0
  0
VERTEX
  5
34D
100
AcDbEntity
  8
止水栓
  6
CONTINUOUS
 62
     6
100
AcDbVertex
100
AcDb2dVertex
 10
442.314695
 20
2199.722168
 30
0.0
  0
VERTEX
  5
34E
100
AcDbEntity
  8
止水栓
  6
CONTINUOUS
 62
     6
100
AcDbVertex
100
AcDb2dVertex
 10
442.473387
 20
2199.426758
 30
0.0
  0
VERTEX
  5
34F
100
AcDbEntity
  8
止水栓
  6
CONTINUOUS
 62
     6
100
AcDbVertex
100
AcDb2dVertex
 10
442.641844
 20
2199.163086
 30
0.0
  0
VERTEX
  5
350
100
AcDbEntity
  8
止水栓
  6
CONTINUOUS
 62
     6
100
AcDbVertex
100
AcDb2dVertex
 10
442.822508
 20
2198.928711
 30
0.0
  0
VERTEX
  5
351
100
AcDbEntity
  8
止水栓
  6
CONTINUOUS
 62
     6
100
AcDbVertex
100
AcDb2dVertex
 10
443.010496
 20
2198.728516
 30
0.0
  0
VERTEX
  5
352
100
AcDbEntity
  8
止水栓
  6
CONTINUOUS
 62
     6
100
AcDbVertex
100
AcDb2dVertex
 10
443.20825
 20
2198.560059
 30
0.0
  0
VERTEX
  5
353
100
AcDbEntity
  8
止水栓
  6
CONTINUOUS
 62
     6
100
AcDbVertex
100
AcDb2dVertex
 10
443.413328
 20
2198.430664
 30
0.0
  0
VERTEX
  5
354
100
AcDbEntity
  8
止水栓
  6
CONTINUOUS
 62
     6
100
AcDbVertex
100
AcDb2dVertex
 10
443.620848
 20
2198.335449
 30
0.0
  0
VERTEX
  5
355
100
AcDbEntity
  8
止水栓
  6
CONTINUOUS
 62
     6
100
AcDbVertex
100
AcDb2dVertex
 10
443.83325
 20
2198.279297
 30
0.0
  0
VERTEX
  5
356
100
AcDbEntity
  8
止水栓
  6
CONTINUOUS
 62
     6
100
AcDbVertex
100
AcDb2dVertex
 10
444.048094
 20
2198.259766
 30
0.0
  0
VERTEX
  5
357
100
AcDbEntity
  8
止水栓
  6
CONTINUOUS
 62
     6
100
AcDbVertex
100
AcDb2dVertex
 10
444.260496
 20
2198.279297
 30
0.0
  0
VERTEX
  5
358
100
AcDbEntity
  8
止水栓
  6
CONTINUOUS
 62
     6
100
AcDbVertex
100
AcDb2dVertex
 10
444.472899
 20
2198.335449
 30
0.0
  0
VERTEX
  5
359
100
AcDbEntity
  8
止水栓
  6
CONTINUOUS
 62
     6
100
AcDbVertex
100
AcDb2dVertex
 10
444.680418
 20
2198.430664
 30
0.0
  0
VERTEX
  5
35A
100
AcDbEntity
  8
止水栓
  6
CONTINUOUS
 62
     6
100
AcDbVertex
100
AcDb2dVertex
 10
444.885496
 20
2198.560059
 30
0.0
  0
VERTEX
  5
35B
100
AcDbEntity
  8
止水栓
  6
CONTINUOUS
 62
     6
100
AcDbVertex
100
AcDb2dVertex
 10
445.08325
 20
2198.728516
 30
0.0
  0
SEQEND
  5
35C
100
AcDbEntity
  8
止水栓
  6
CONTINUOUS
 62
     6
  0
LINE
  5
35D
100
AcDbEntity
  8
止水栓
  6
CONTINUOUS
 62
     6
100
AcDbLine
 10
423.501707
 20
2208.999512
 30
0.0
 11
423.501707
 21
2213.999512
 31
0.0
  0
LINE
  5
35E
100
AcDbEntity
  8
止水栓
  6
CONTINUOUS
 62
     6
100
AcDbLine
 10
427.251707
 20
2234.999512
 30
0.0
 11
427.251707
 21
2242.999512
 31
0.0
  0
LINE
  5
35F
100
AcDbEntity
  8
止水栓
  6
CONTINUOUS
 62
     6
100
AcDbLine
 10
428.251707
 20
2215.999512
 30
0.0
 11
428.251707
 21
2218.999512
 31
0.0
  0
LINE
  5
360
100
AcDbEntity
  8
止水栓
  6
CONTINUOUS
 62
     6
100
AcDbLine
 10
430.001707
 20
2213.999512
 30
0.0
 11
430.001707
 21
2215.999512
 31
0.0
  0
LINE
  5
361
100
AcDbEntity
  8
止水栓
  6
CONTINUOUS
 62
     6
100
AcDbLine
 10
428.251707
 20
2223.999512
 30
0.0
 11
428.251707
 21
2226.999512
 31
0.0
  0
ARC
  5
362
100
AcDbEntity
  8
止水栓
  6
CONTINUOUS
 62
     6
100
AcDbCircle
 10
429.251707
 20
2229.499512
 30
0.0
 40
2.5
100
AcDbArc
 50
90.0
 51
180.0
  0
ARC
  5
363
100
AcDbEntity
  8
止水栓
  6
CONTINUOUS
 62
     6
100
AcDbCircle
 10
429.251707
 20
2229.499512
 30
0.0
 40
2.5
100
AcDbArc
 50
180.0
 51
270.0
  0
LINE
  5
364
100
AcDbEntity
  8
止水栓
  6
CONTINUOUS
 62
     6
100
AcDbLine
 10
428.251707
 20
2231.999512
 30
0.0
 11
428.251707
 21
2234.999512
 31
0.0
  0
ARC
  5
365
100
AcDbEntity
  8
止水栓
  6
CONTINUOUS
 62
     6
100
AcDbCircle
 10
429.251707
 20
2221.499512
 30
0.0
 40
2.5
100
AcDbArc
 50
90.0
 51
180.0
  0
ARC
  5
366
100
AcDbEntity
  8
止水栓
  6
CONTINUOUS
 62
     6
100
AcDbCircle
 10
429.251707
 20
2221.499512
 30
0.0
 40
2.5
100
AcDbArc
 50
180.0
 51
270.0
  0
POLYLINE
  5
367
100
AcDbEntity
  8
止水栓
  6
CONTINUOUS
 62
     6
100
AcDb2dPolyline
 66
     1
 10
0.0
 20
0.0
 30
0.0
 70
   128
  0
VERTEX
  5
368
100
AcDbEntity
  8
止水栓
  6
CONTINUOUS
 62
     6
100
AcDbVertex
100
AcDb2dVertex
 10
426.399168
 20
2203.257324
 30
0.0
  0
VERTEX
  5
369
100
AcDbEntity
  8
止水栓
  6
CONTINUOUS
 62
     6
100
AcDbVertex
100
AcDb2dVertex
 10
426.389402
 20
2203.660156
 30
0.0
  0
VERTEX
  5
36A
100
AcDbEntity
  8
止水栓
  6
CONTINUOUS
 62
     6
100
AcDbVertex
100
AcDb2dVertex
 10
426.360106
 20
2204.060547
 30
0.0
  0
VERTEX
  5
36B
100
AcDbEntity
  8
止水栓
  6
CONTINUOUS
 62
     6
100
AcDbVertex
100
AcDb2dVertex
 10
426.313719
 20
2204.456055
 30
0.0
  0
VERTEX
  5
36C
100
AcDbEntity
  8
止水栓
  6
CONTINUOUS
 62
     6
100
AcDbVertex
100
AcDb2dVertex
 10
426.250242
 20
2204.839355
 30
0.0
  0
VERTEX
  5
36D
100
AcDbEntity
  8
止水栓
  6
CONTINUOUS
 62
     6
100
AcDbVertex
100
AcDb2dVertex
 10
426.169676
 20
2205.212891
 30
0.0
  0
VERTEX
  5
36E
100
AcDbEntity
  8
止水栓
  6
CONTINUOUS
 62
     6
100
AcDbVertex
100
AcDb2dVertex
 10
426.069578
 20
2205.571777
 30
0.0
  0
VERTEX
  5
36F
100
AcDbEntity
  8
止水栓
  6
CONTINUOUS
 62
     6
100
AcDbVertex
100
AcDb2dVertex
 10
425.954832
 20
2205.911133
 30
0.0
  0
VERTEX
  5
370
100
AcDbEntity
  8
止水栓
  6
CONTINUOUS
 62
     6
100
AcDbVertex
100
AcDb2dVertex
 10
425.825438
 20
2206.233398
 30
0.0
  0
VERTEX
  5
371
100
AcDbEntity
  8
止水栓
  6
CONTINUOUS
 62
     6
100
AcDbVertex
100
AcDb2dVertex
 10
425.681395
 20
2206.53125
 30
0.0
  0
VERTEX
  5
372
100
AcDbEntity
  8
止水栓
  6
CONTINUOUS
 62
     6
100
AcDbVertex
100
AcDb2dVertex
 10
425.522703
 20
2206.802246
 30
0.0
  0
VERTEX
  5
373
100
AcDbEntity
  8
止水栓
  6
CONTINUOUS
 62
     6
100
AcDbVertex
100
AcDb2dVertex
 10
425.354246
 20
2207.048828
 30
0.0
  0
VERTEX
  5
374
100
AcDbEntity
  8
止水栓
  6
CONTINUOUS
 62
     6
100
AcDbVertex
100
AcDb2dVertex
 10
425.173582
 20
2207.266113
 30
0.0
  0
VERTEX
  5
375
100
AcDbEntity
  8
止水栓
  6
CONTINUOUS
 62
     6
100
AcDbVertex
100
AcDb2dVertex
 10
424.983152
 20
2207.454102
 30
0.0
  0
VERTEX
  5
376
100
AcDbEntity
  8
止水栓
  6
CONTINUOUS
 62
     6
100
AcDbVertex
100
AcDb2dVertex
 10
424.785399
 20
2207.60791
 30
0.0
  0
VERTEX
  5
377
100
AcDbEntity
  8
止水栓
  6
CONTINUOUS
 62
     6
100
AcDbVertex
100
AcDb2dVertex
 10
424.582762
 20
2207.727539
 30
0.0
  0
VERTEX
  5
378
100
AcDbEntity
  8
止水栓
  6
CONTINUOUS
 62
     6
100
AcDbVertex
100
AcDb2dVertex
 10
424.372801
 20
2207.81543
 30
0.0
  0
VERTEX
  5
379
100
AcDbEntity
  8
止水栓
  6
CONTINUOUS
 62
     6
100
AcDbVertex
100
AcDb2dVertex
 10
424.16284
 20
2207.869141
 30
0.0
  0
VERTEX
  5
37A
100
AcDbEntity
  8
止水栓
  6
CONTINUOUS
 62
     6
100
AcDbVertex
100
AcDb2dVertex
 10
423.947996
 20
2207.88623
 30
0.0
  0
VERTEX
  5
37B
100
AcDbEntity
  8
止水栓
  6
CONTINUOUS
 62
     6
100
AcDbVertex
100
AcDb2dVertex
 10
423.735594
 20
2207.869141
 30
0.0
  0
VERTEX
  5
37C
100
AcDbEntity
  8
止水栓
  6
CONTINUOUS
 62
     6
100
AcDbVertex
100
AcDb2dVertex
 10
423.523191
 20
2207.81543
 30
0.0
  0
VERTEX
  5
37D
100
AcDbEntity
  8
止水栓
  6
CONTINUOUS
 62
     6
100
AcDbVertex
100
AcDb2dVertex
 10
423.313231
 20
2207.727539
 30
0.0
  0
VERTEX
  5
37E
100
AcDbEntity
  8
止水栓
  6
CONTINUOUS
 62
     6
100
AcDbVertex
100
AcDb2dVertex
 10
423.110594
 20
2207.60791
 30
0.0
  0
VERTEX
  5
37F
100
AcDbEntity
  8
止水栓
  6
CONTINUOUS
 62
     6
100
AcDbVertex
100
AcDb2dVertex
 10
422.91284
 20
2207.45166
 30
0.0
  0
VERTEX
  5
380
100
AcDbEntity
  8
止水栓
  6
CONTINUOUS
 62
     6
100
AcDbVertex
100
AcDb2dVertex
 10
422.724852
 20
2207.266113
 30
0.0
  0
VERTEX
  5
381
100
AcDbEntity
  8
止水栓
  6
CONTINUOUS
 62
     6
100
AcDbVertex
100
AcDb2dVertex
 10
422.544188
 20
2207.048828
 30
0.0
  0
VERTEX
  5
382
100
AcDbEntity
  8
止水栓
  6
CONTINUOUS
 62
     6
100
AcDbVertex
100
AcDb2dVertex
 10
422.373289
 20
2206.804688
 30
0.0
  0
VERTEX
  5
383
100
AcDbEntity
  8
止水栓
  6
CONTINUOUS
 62
     6
100
AcDbVertex
100
AcDb2dVertex
 10
422.217039
 20
2206.53125
 30
0.0
  0
VERTEX
  5
384
100
AcDbEntity
  8
止水栓
  6
CONTINUOUS
 62
     6
100
AcDbVertex
100
AcDb2dVertex
 10
422.072996
 20
2206.233398
 30
0.0
  0
VERTEX
  5
385
100
AcDbEntity
  8
止水栓
  6
CONTINUOUS
 62
     6
100
AcDbVertex
100
AcDb2dVertex
 10
421.94116
 20
2205.911133
 30
0.0
  0
VERTEX
  5
386
100
AcDbEntity
  8
止水栓
  6
CONTINUOUS
 62
     6
100
AcDbVertex
100
AcDb2dVertex
 10
421.826414
 20
2205.571777
 30
0.0
  0
VERTEX
  5
387
100
AcDbEntity
  8
止水栓
  6
CONTINUOUS
 62
     6
100
AcDbVertex
100
AcDb2dVertex
 10
421.728758
 20
2205.212891
 30
0.0
  0
VERTEX
  5
388
100
AcDbEntity
  8
止水栓
  6
CONTINUOUS
 62
     6
100
AcDbVertex
100
AcDb2dVertex
 10
421.648191
 20
2204.841797
 30
0.0
  0
VERTEX
  5
389
100
AcDbEntity
  8
止水栓
  6
CONTINUOUS
 62
     6
100
AcDbVertex
100
AcDb2dVertex
 10
421.582274
 20
2204.456055
 30
0.0
  0
VERTEX
  5
38A
100
AcDbEntity
  8
止水栓
  6
CONTINUOUS
 62
     6
100
AcDbVertex
100
AcDb2dVertex
 10
421.535887
 20
2204.060547
 30
0.0
  0
VERTEX
  5
38B
100
AcDbEntity
  8
止水栓
  6
CONTINUOUS
 62
     6
100
AcDbVertex
100
AcDb2dVertex
 10
421.509031
 20
2203.660156
 30
0.0
  0
VERTEX
  5
38C
100
AcDbEntity
  8
止水栓
  6
CONTINUOUS
 62
     6
100
AcDbVertex
100
AcDb2dVertex
 10
421.499266
 20
2203.257324
 30
0.0
  0
VERTEX
  5
38D
100
AcDbEntity
  8
止水栓
  6
CONTINUOUS
 62
     6
100
AcDbVertex
100
AcDb2dVertex
 10
421.509031
 20
2202.854492
 30
0.0
  0
VERTEX
  5
38E
100
AcDbEntity
  8
止水栓
  6
CONTINUOUS
 62
     6
100
AcDbVertex
100
AcDb2dVertex
 10
421.535887
 20
2202.454102
 30
0.0
  0
VERTEX
  5
38F
100
AcDbEntity
  8
止水栓
  6
CONTINUOUS
 62
     6
100
AcDbVertex
100
AcDb2dVertex
 10
421.582274
 20
2202.058594
 30
0.0
  0
VERTEX
  5
390
100
AcDbEntity
  8
止水栓
  6
CONTINUOUS
 62
     6
100
AcDbVertex
100
AcDb2dVertex
 10
421.64575
 20
2201.672852
 30
0.0
  0
VERTEX
  5
391
100
AcDbEntity
  8
止水栓
  6
CONTINUOUS
 62
     6
100
AcDbVertex
100
AcDb2dVertex
 10
421.728758
 20
2201.299316
 30
0.0
  0
VERTEX
  5
392
100
AcDbEntity
  8
止水栓
  6
CONTINUOUS
 62
     6
100
AcDbVertex
100
AcDb2dVertex
 10
421.826414
 20
2200.94043
 30
0.0
  0
VERTEX
  5
393
100
AcDbEntity
  8
止水栓
  6
CONTINUOUS
 62
     6
100
AcDbVertex
100
AcDb2dVertex
 10
421.94116
 20
2200.601074
 30
0.0
  0
VERTEX
  5
394
100
AcDbEntity
  8
止水栓
  6
CONTINUOUS
 62
     6
100
AcDbVertex
100
AcDb2dVertex
 10
422.072996
 20
2200.278809
 30
0.0
  0
VERTEX
  5
395
100
AcDbEntity
  8
止水栓
  6
CONTINUOUS
 62
     6
100
AcDbVertex
100
AcDb2dVertex
 10
422.217039
 20
2199.983398
 30
0.0
  0
VERTEX
  5
396
100
AcDbEntity
  8
止水栓
  6
CONTINUOUS
 62
     6
100
AcDbVertex
100
AcDb2dVertex
 10
422.373289
 20
2199.709961
 30
0.0
  0
VERTEX
  5
397
100
AcDbEntity
  8
止水栓
  6
CONTINUOUS
 62
     6
100
AcDbVertex
100
AcDb2dVertex
 10
422.544188
 20
2199.463379
 30
0.0
  0
VERTEX
  5
398
100
AcDbEntity
  8
止水栓
  6
CONTINUOUS
 62
     6
100
AcDbVertex
100
AcDb2dVertex
 10
422.72241
 20
2199.246094
 30
0.0
  0
VERTEX
  5
399
100
AcDbEntity
  8
止水栓
  6
CONTINUOUS
 62
     6
100
AcDbVertex
100
AcDb2dVertex
 10
422.91284
 20
2199.060547
 30
0.0
  0
VERTEX
  5
39A
100
AcDbEntity
  8
止水栓
  6
CONTINUOUS
 62
     6
100
AcDbVertex
100
AcDb2dVertex
 10
423.110594
 20
2198.906738
 30
0.0
  0
VERTEX
  5
39B
100
AcDbEntity
  8
止水栓
  6
CONTINUOUS
 62
     6
100
AcDbVertex
100
AcDb2dVertex
 10
423.313231
 20
2198.784668
 30
0.0
  0
VERTEX
  5
39C
100
AcDbEntity
  8
止水栓
  6
CONTINUOUS
 62
     6
100
AcDbVertex
100
AcDb2dVertex
 10
423.523191
 20
2198.696777
 30
0.0
  0
VERTEX
  5
39D
100
AcDbEntity
  8
止水栓
  6
CONTINUOUS
 62
     6
100
AcDbVertex
100
AcDb2dVertex
 10
423.735594
 20
2198.643066
 30
0.0
  0
VERTEX
  5
39E
100
AcDbEntity
  8
止水栓
  6
CONTINUOUS
 62
     6
100
AcDbVertex
100
AcDb2dVertex
 10
423.947996
 20
2198.625977
 30
0.0
  0
VERTEX
  5
39F
100
AcDbEntity
  8
止水栓
  6
CONTINUOUS
 62
     6
100
AcDbVertex
100
AcDb2dVertex
 10
424.16284
 20
2198.645508
 30
0.0
  0
VERTEX
  5
3A0
100
AcDbEntity
  8
止水栓
  6
CONTINUOUS
 62
     6
100
AcDbVertex
100
AcDb2dVertex
 10
424.372801
 20
2198.696777
 30
0.0
  0
VERTEX
  5
3A1
100
AcDbEntity
  8
止水栓
  6
CONTINUOUS
 62
     6
100
AcDbVertex
100
AcDb2dVertex
 10
424.582762
 20
2198.784668
 30
0.0
  0
VERTEX
  5
3A2
100
AcDbEntity
  8
止水栓
  6
CONTINUOUS
 62
     6
100
AcDbVertex
100
AcDb2dVertex
 10
424.785399
 20
2198.906738
 30
0.0
  0
VERTEX
  5
3A3
100
AcDbEntity
  8
止水栓
  6
CONTINUOUS
 62
     6
100
AcDbVertex
100
AcDb2dVertex
 10
424.983152
 20
2199.060547
 30
0.0
  0
SEQEND
  5
3A4
100
AcDbEntity
  8
止水栓
  6
CONTINUOUS
 62
     6
  0
POLYLINE
  5
3A5
100
AcDbEntity
  8
止水栓
  6
CONTINUOUS
 62
     6
100
AcDb2dPolyline
 66
     1
 10
0.0
 20
0.0
 30
0.0
 70
   128
  0
VERTEX
  5
3A6
100
AcDbEntity
  8
止水栓
  6
CONTINUOUS
 62
     6
100
AcDbVertex
100
AcDb2dVertex
 10
426.313719
 20
2202.058594
 30
0.0
  0
VERTEX
  5
3A7
100
AcDbEntity
  8
止水栓
  6
CONTINUOUS
 62
     6
100
AcDbVertex
100
AcDb2dVertex
 10
426.360106
 20
2202.45166
 30
0.0
  0
VERTEX
  5
3A8
100
AcDbEntity
  8
止水栓
  6
CONTINUOUS
 62
     6
100
AcDbVertex
100
AcDb2dVertex
 10
426.389402
 20
2202.852051
 30
0.0
  0
VERTEX
  5
3A9
100
AcDbEntity
  8
止水栓
  6
CONTINUOUS
 62
     6
100
AcDbVertex
100
AcDb2dVertex
 10
426.399168
 20
2203.254883
 30
0.0
  0
SEQEND
  5
3AA
100
AcDbEntity
  8
止水栓
  6
CONTINUOUS
 62
     6
  0
POLYLINE
  5
3AB
100
AcDbEntity
  8
止水栓
  6
CONTINUOUS
 62
     6
100
AcDb2dPolyline
 66
     1
 10
0.0
 20
0.0
 30
0.0
 70
   128
  0
VERTEX
  5
3AC
100
AcDbEntity
  8
止水栓
  6
CONTINUOUS
 62
     6
100
AcDbVertex
100
AcDb2dVertex
 10
424.983152
 20
2199.060547
 30
0.0
  0
VERTEX
  5
3AD
100
AcDbEntity
  8
止水栓
  6
CONTINUOUS
 62
     6
100
AcDbVertex
100
AcDb2dVertex
 10
425.173582
 20
2199.246094
 30
0.0
  0
VERTEX
  5
3AE
100
AcDbEntity
  8
止水栓
  6
CONTINUOUS
 62
     6
100
AcDbVertex
100
AcDb2dVertex
 10
425.354246
 20
2199.463379
 30
0.0
  0
VERTEX
  5
3AF
100
AcDbEntity
  8
止水栓
  6
CONTINUOUS
 62
     6
100
AcDbVertex
100
AcDb2dVertex
 10
425.522703
 20
2199.709961
 30
0.0
  0
VERTEX
  5
3B0
100
AcDbEntity
  8
止水栓
  6
CONTINUOUS
 62
     6
100
AcDbVertex
100
AcDb2dVertex
 10
425.681395
 20
2199.983398
 30
0.0
  0
VERTEX
  5
3B1
100
AcDbEntity
  8
止水栓
  6
CONTINUOUS
 62
     6
100
AcDbVertex
100
AcDb2dVertex
 10
425.825438
 20
2200.28125
 30
0.0
  0
VERTEX
  5
3B2
100
AcDbEntity
  8
止水栓
  6
CONTINUOUS
 62
     6
100
AcDbVertex
100
AcDb2dVertex
 10
425.954832
 20
2200.601074
 30
0.0
  0
VERTEX
  5
3B3
100
AcDbEntity
  8
止水栓
  6
CONTINUOUS
 62
     6
100
AcDbVertex
100
AcDb2dVertex
 10
426.069578
 20
2200.94043
 30
0.0
  0
VERTEX
  5
3B4
100
AcDbEntity
  8
止水栓
  6
CONTINUOUS
 62
     6
100
AcDbVertex
100
AcDb2dVertex
 10
426.169676
 20
2201.299316
 30
0.0
  0
VERTEX
  5
3B5
100
AcDbEntity
  8
止水栓
  6
CONTINUOUS
 62
     6
100
AcDbVertex
100
AcDb2dVertex
 10
426.250242
 20
2201.672852
 30
0.0
  0
VERTEX
  5
3B6
100
AcDbEntity
  8
止水栓
  6
CONTINUOUS
 62
     6
100
AcDbVertex
100
AcDb2dVertex
 10
426.313719
 20
2202.058594
 30
0.0
  0
SEQEND
  5
3B7
100
AcDbEntity
  8
止水栓
  6
CONTINUOUS
 62
     6
  0
ARC
  5
3B8
100
AcDbEntity
  8
止水栓
  6
CONTINUOUS
 62
     6
100
AcDbCircle
 10
432.251219
 20
2202.998535
 30
0.0
 40
10.99987
100
AcDbArc
 50
146.937744
 51
213.054688
  0
LINE
  5
3B9
100
AcDbEntity
  8
止水栓
  6
CONTINUOUS
 62
     6
100
AcDbLine
 10
427.500944
 20
2242.773682
 30
0.0
 11
427.500944
 21
2263.0
 31
0.0
  0
LINE
  5
3BA
100
AcDbEntity
  8
止水栓
  6
CONTINUOUS
 62
     6
100
AcDbLine
 10
440.500944
 20
2242.773682
 30
0.0
 11
440.500944
 21
2263.0
 31
0.0
  0
ARC
  5
3BB
100
AcDbEntity
  8
止水栓
  6
CONTINUOUS
 62
     6
100
AcDbCircle
 10
434.000944
 20
2173.0
 30
0.0
 40
27.5
100
AcDbArc
 50
114.79044
 51
64.998019
  0
LINE
  5
3BC
100
AcDbEntity
  8
止水栓
  6
CONTINUOUS
 62
     6
100
AcDbLine
 10
1399.019922
 20
642.199044
 30
0.0
 11
1397.287871
 21
641.199044
 31
0.0
  0
LINE
  5
3BD
100
AcDbEntity
  8
止水栓
  6
CONTINUOUS
 62
     6
100
AcDbLine
 10
1399.019922
 20
661.149044
 30
0.0
 11
1397.287871
 21
662.149044
 31
0.0
  0
LINE
  5
3BE
100
AcDbEntity
  8
止水栓
  6
CONTINUOUS
 62
     6
100
AcDbLine
 10
1368.75
 20
620.66
 30
0.0
 11
1369.804168
 21
622.467323
 31
0.0
  0
LINE
  5
3BF
100
AcDbEntity
  8
止水栓
  6
CONTINUOUS
 62
     6
100
AcDbLine
 10
1369.84004
 20
623.674044
 30
0.0
 11
1369.804168
 21
622.467323
 31
0.0
  0
LINE
  5
3C0
100
AcDbEntity
  8
止水栓
  6
CONTINUOUS
 62
     6
100
AcDbLine
 10
1370.118023
 20
588.294768
 30
0.0
 11
1369.829516
 21
598.0
 31
0.0
  0
LINE
  5
3C1
100
AcDbEntity
  8
止水栓
  6
CONTINUOUS
 62
     6
100
AcDbLine
 10
1387.881977
 20
588.294768
 30
0.0
 11
1388.170484
 21
598.0
 31
0.0
  0
ARC
  5
3C2
100
AcDbEntity
  8
止水栓
  6
CONTINUOUS
 62
     6
100
AcDbCircle
 10
1396.019922
 20
636.199044
 30
0.0
 40
5.0
100
AcDbArc
 50
90.0
 51
180.0
  0
LINE
  5
3C3
100
AcDbEntity
  8
止水栓
  6
CONTINUOUS
 62
     6
100
AcDbLine
 10
1399.019922
 20
662.149044
 30
0.0
 11
1399.019922
 21
641.199044
 31
0.0
  0
LINE
  5
3C4
100
AcDbEntity
  8
止水栓
  6
CONTINUOUS
 62
     6
100
AcDbLine
 10
1391.019922
 20
636.199044
 30
0.0
 11
1391.019922
 21
635.162049
 31
0.0
  0
LINE
  5
3C5
100
AcDbEntity
  8
止水栓
  6
CONTINUOUS
 62
     6
100
AcDbLine
 10
1368.839599
 20
623.674044
 30
0.0
 11
1368.75
 21
620.66
 31
0.0
  0
LINE
  5
3C6
100
AcDbEntity
  8
止水栓
  6
CONTINUOUS
 62
     6
100
AcDbLine
 10
1369.1
 20
588.886194
 30
0.0
 11
1368.829074
 21
598.0
 31
0.0
  0
LINE
  5
3C7
100
AcDbEntity
  8
止水栓
  6
CONTINUOUS
 62
     6
100
AcDbLine
 10
1388.9
 20
588.886194
 30
0.0
 11
1389.170926
 21
598.0
 31
0.0
  0
LINE
  5
3C8
100
AcDbEntity
  8
止水栓
  6
CONTINUOUS
 62
     6
100
AcDbLine
 10
1387.65
 20
588.16
 30
0.0
 11
1388.9
 21
588.886194
 31
0.0
  0
LINE
  5
3C9
100
AcDbEntity
  8
止水栓
  6
CONTINUOUS
 62
     6
100
AcDbLine
 10
1387.65
 20
588.16
 30
0.0
 11
1370.35
 21
588.16
 31
0.0
  0
LINE
  5
3CA
100
AcDbEntity
  8
止水栓
  6
CONTINUOUS
 62
     6
100
AcDbLine
 10
1370.35
 20
588.16
 30
0.0
 11
1369.1
 21
588.886194
 31
0.0
  0
LINE
  5
3CB
100
AcDbEntity
  8
止水栓
  6
CONTINUOUS
 62
     6
100
AcDbLine
 10
1388.9
 20
588.886194
 30
0.0
 11
1369.1
 21
588.886194
 31
0.0
  0
LINE
  5
3CC
100
AcDbEntity
  8
止水栓
  6
CONTINUOUS
 62
     6
100
AcDbLine
 10
1368.75
 20
620.66
 30
0.0
 11
1368.75
 21
613.9968
 31
0.0
  0
LINE
  5
3CD
100
AcDbEntity
  8
止水栓
  6
CONTINUOUS
 62
     6
100
AcDbLine
 10
1389.25
 20
620.66
 30
0.0
 11
1389.25
 21
613.9968
 31
0.0
  0
ARC
  5
3CE
100
AcDbEntity
  8
止水栓
  6
CONTINUOUS
 62
     6
100
AcDbCircle
 10
1393.819922
 20
600.503105
 30
0.0
 40
12.7
100
AcDbArc
 50
0.0
 51
58.561141
  0
ARC
  5
3CF
100
AcDbEntity
  8
止水栓
  6
CONTINUOUS
 62
     6
100
AcDbCircle
 10
1389.219922
 20
589.0
 30
0.0
 40
25.0
100
AcDbArc
 50
63.322579
 51
89.083228
  0
POLYLINE
  5
3D0
100
AcDbEntity
  8
止水栓
  6
CONTINUOUS
 62
     6
100
AcDb2dPolyline
 66
     1
 10
0.0
 20
0.0
 30
0.0
 70
   128
  0
VERTEX
  5
3D1
100
AcDbEntity
  8
止水栓
  6
CONTINUOUS
 62
     6
100
AcDbVertex
100
AcDb2dVertex
 10
1406.519922
 20
600.503105
 30
0.0
  0
VERTEX
  5
3D2
100
AcDbEntity
  8
止水栓
  6
CONTINUOUS
 62
     6
100
AcDbVertex
100
AcDb2dVertex
 10
1406.519922
 20
598.0
 30
0.0
  0
SEQEND
  5
3D3
100
AcDbEntity
  8
止水栓
  6
CONTINUOUS
 62
     6
  0
LINE
  5
3D4
100
AcDbEntity
  8
止水栓
  6
CONTINUOUS
 62
     6
100
AcDbLine
 10
1389.619922
 20
613.9968
 30
0.0
 11
1368.419922
 21
613.9968
 31
0.0
  0
ARC
  5
3D5
100
AcDbEntity
  8
止水栓
  6
CONTINUOUS
 62
     6
100
AcDbCircle
 10
1364.219922
 20
600.503105
 30
0.0
 40
12.7
100
AcDbArc
 50
121.438859
 51
180.0
  0
LINE
  5
3D6
100
AcDbEntity
  8
止水栓
  6
CONTINUOUS
 62
     6
100
AcDbLine
 10
1351.519922
 20
600.503105
 30
0.0
 11
1351.519922
 21
598.0
 31
0.0
  0
ARC
  5
3D7
100
AcDbEntity
  8
止水栓
  6
CONTINUOUS
 62
     6
100
AcDbCircle
 10
1368.819922
 20
589.0
 30
0.0
 40
25.0
100
AcDbArc
 50
90.916772
 51
116.677421
  0
LINE
  5
3D8
100
AcDbEntity
  8
止水栓
  6
CONTINUOUS
 62
     6
100
AcDbLine
 10
1389.25
 20
620.66
 30
0.0
 11
1388.195832
 21
622.467323
 31
0.0
  0
LINE
  5
3D9
100
AcDbEntity
  8
止水栓
  6
CONTINUOUS
 62
     6
100
AcDbLine
 10
1388.15996
 20
623.674044
 30
0.0
 11
1388.195832
 21
622.467323
 31
0.0
  0
LINE
  5
3DA
100
AcDbEntity
  8
止水栓
  6
CONTINUOUS
 62
     6
100
AcDbLine
 10
1389.160401
 20
623.674044
 30
0.0
 11
1389.25
 21
620.66
 31
0.0
  0
LINE
  5
3DB
100
AcDbEntity
  8
止水栓
  6
CONTINUOUS
 62
     6
100
AcDbLine
 10
1389.196274
 20
622.467323
 30
0.0
 11
1368.803726
 21
622.467323
 31
0.0
  0
LINE
  5
3DC
100
AcDbEntity
  8
止水栓
  6
CONTINUOUS
 62
     6
100
AcDbLine
 10
1399.019922
 20
661.149044
 30
0.0
 11
1401.5
 21
661.149044
 31
0.0
  0
LINE
  5
3DD
100
AcDbEntity
  8
止水栓
  6
CONTINUOUS
 62
     6
100
AcDbLine
 10
1395.017576
 20
662.149044
 30
0.0
 11
1401.5
 21
662.149044
 31
0.0
  0
LINE
  5
3DE
100
AcDbEntity
  8
止水栓
  6
CONTINUOUS
 62
     6
100
AcDbLine
 10
1399.019922
 20
642.199044
 30
0.0
 11
1401.5
 21
642.199044
 31
0.0
  0
LINE
  5
3DF
100
AcDbEntity
  8
止水栓
  6
CONTINUOUS
 62
     6
100
AcDbLine
 10
1396.019922
 20
641.199044
 30
0.0
 11
1401.5
 21
641.199044
 31
0.0
  0
LINE
  5
3E0
100
AcDbEntity
  8
止水栓
  6
CONTINUOUS
 62
     6
100
AcDbLine
 10
1439.499512
 20
658.423282
 30
0.0
 11
1447.499512
 21
658.423282
 31
0.0
  0
LINE
  5
3E1
100
AcDbEntity
  8
止水栓
  6
CONTINUOUS
 62
     6
100
AcDbLine
 10
1439.499512
 20
644.923282
 30
0.0
 11
1447.499512
 21
644.923282
 31
0.0
  0
ARC
  5
3E2
100
AcDbEntity
  8
止水栓
  6
CONTINUOUS
 62
     6
100
AcDbCircle
 10
1425.999512
 20
656.423282
 30
0.0
 40
2.5
100
AcDbArc
 50
90.0
 51
180.0
  0
ARC
  5
3E3
100
AcDbEntity
  8
止水栓
  6
CONTINUOUS
 62
     6
100
AcDbCircle
 10
1425.999512
 20
656.423282
 30
0.0
 40
2.5
100
AcDbArc
 50
0.0
 51
90.0
  0
LINE
  5
3E4
100
AcDbEntity
  8
止水栓
  6
CONTINUOUS
 62
     6
100
AcDbLine
 10
1436.499512
 20
657.423282
 30
0.0
 11
1439.499512
 21
657.423282
 31
0.0
  0
ARC
  5
3E5
100
AcDbEntity
  8
止水栓
  6
CONTINUOUS
 62
     6
100
AcDbCircle
 10
1433.999512
 20
656.423282
 30
0.0
 40
2.5
100
AcDbArc
 50
90.0
 51
180.0
  0
ARC
  5
3E6
100
AcDbEntity
  8
止水栓
  6
CONTINUOUS
 62
     6
100
AcDbCircle
 10
1433.999512
 20
656.423282
 30
0.0
 40
2.5
100
AcDbArc
 50
0.0
 51
90.0
  0
LINE
  5
3E7
100
AcDbEntity
  8
止水栓
  6
CONTINUOUS
 62
     6
100
AcDbLine
 10
1428.499512
 20
657.423282
 30
0.0
 11
1431.499512
 21
657.423282
 31
0.0
  0
ARC
  5
3E8
100
AcDbEntity
  8
止水栓
  6
CONTINUOUS
 62
     6
100
AcDbCircle
 10
1425.999512
 20
646.923282
 30
0.0
 40
2.5
100
AcDbArc
 50
180.0
 51
270.0
  0
LINE
  5
3E9
100
AcDbEntity
  8
止水栓
  6
CONTINUOUS
 62
     6
100
AcDbLine
 10
1436.499512
 20
645.923282
 30
0.0
 11
1439.499512
 21
645.923282
 31
0.0
  0
LINE
  5
3EA
100
AcDbEntity
  8
止水栓
  6
CONTINUOUS
 62
     6
100
AcDbLine
 10
1428.499512
 20
645.923282
 30
0.0
 11
1431.499512
 21
645.923282
 31
0.0
  0
ARC
  5
3EB
100
AcDbEntity
  8
止水栓
  6
CONTINUOUS
 62
     6
100
AcDbCircle
 10
1425.999512
 20
646.923282
 30
0.0
 40
2.5
100
AcDbArc
 50
270.0
 51
0.0
  0
ARC
  5
3EC
100
AcDbEntity
  8
止水栓
  6
CONTINUOUS
 62
     6
100
AcDbCircle
 10
1433.999512
 20
646.923282
 30
0.0
 40
2.5
100
AcDbArc
 50
180.0
 51
270.0
  0
ARC
  5
3ED
100
AcDbEntity
  8
止水栓
  6
CONTINUOUS
 62
     6
100
AcDbCircle
 10
1433.999512
 20
646.923282
 30
0.0
 40
2.5
100
AcDbArc
 50
270.0
 51
0.0
  0
LINE
  5
3EE
100
AcDbEntity
  8
止水栓
  6
CONTINUOUS
 62
     6
100
AcDbLine
 10
1439.499512
 20
644.923282
 30
0.0
 11
1439.499512
 21
658.423282
 31
0.0
  0
LINE
  5
3EF
100
AcDbEntity
  8
止水栓
  6
CONTINUOUS
 62
     6
100
AcDbLine
 10
1428.499512
 20
646.923282
 30
0.0
 11
1428.499512
 21
656.423282
 31
0.0
  0
LINE
  5
3F0
100
AcDbEntity
  8
止水栓
  6
CONTINUOUS
 62
     6
100
AcDbLine
 10
1436.499512
 20
646.923282
 30
0.0
 11
1436.499512
 21
656.423282
 31
0.0
  0
LINE
  5
3F1
100
AcDbEntity
  8
止水栓
  6
CONTINUOUS
 62
     6
100
AcDbLine
 10
1431.499512
 20
646.923282
 30
0.0
 11
1431.499512
 21
656.423282
 31
0.0
  0
LINE
  5
3F2
100
AcDbEntity
  8
止水栓
  6
CONTINUOUS
 62
     6
100
AcDbLine
 10
1447.499512
 20
644.923282
 30
0.0
 11
1447.499512
 21
658.423282
 31
0.0
  0
ARC
  5
3F3
100
AcDbEntity
  8
止水栓
  6
CONTINUOUS
 62
     6
100
AcDbCircle
 10
1407.498535
 20
653.42377
 30
0.0
 40
10.99987
100
AcDbArc
 50
56.937744
 51
123.054687
  0
POLYLINE
  5
3F4
100
AcDbEntity
  8
止水栓
  6
CONTINUOUS
 62
     6
100
AcDb2dPolyline
 66
     1
 10
0.0
 20
0.0
 30
0.0
 70
   128
  0
VERTEX
  5
3F5
100
AcDbEntity
  8
止水栓
  6
CONTINUOUS
 62
     6
100
AcDbVertex
100
AcDb2dVertex
 10
1407.757324
 20
659.275821
 30
0.0
  0
VERTEX
  5
3F6
100
AcDbEntity
  8
止水栓
  6
CONTINUOUS
 62
     6
100
AcDbVertex
100
AcDb2dVertex
 10
1408.160156
 20
659.285586
 30
0.0
  0
VERTEX
  5
3F7
100
AcDbEntity
  8
止水栓
  6
CONTINUOUS
 62
     6
100
AcDbVertex
100
AcDb2dVertex
 10
1408.560547
 20
659.314883
 30
0.0
  0
VERTEX
  5
3F8
100
AcDbEntity
  8
止水栓
  6
CONTINUOUS
 62
     6
100
AcDbVertex
100
AcDb2dVertex
 10
1408.956055
 20
659.36127
 30
0.0
  0
VERTEX
  5
3F9
100
AcDbEntity
  8
止水栓
  6
CONTINUOUS
 62
     6
100
AcDbVertex
100
AcDb2dVertex
 10
1409.339355
 20
659.424746
 30
0.0
  0
VERTEX
  5
3FA
100
AcDbEntity
  8
止水栓
  6
CONTINUOUS
 62
     6
100
AcDbVertex
100
AcDb2dVertex
 10
1409.712891
 20
659.505313
 30
0.0
  0
VERTEX
  5
3FB
100
AcDbEntity
  8
止水栓
  6
CONTINUOUS
 62
     6
100
AcDbVertex
100
AcDb2dVertex
 10
1410.071777
 20
659.60541
 30
0.0
  0
VERTEX
  5
3FC
100
AcDbEntity
  8
止水栓
  6
CONTINUOUS
 62
     6
100
AcDbVertex
100
AcDb2dVertex
 10
1410.411133
 20
659.720157
 30
0.0
  0
VERTEX
  5
3FD
100
AcDbEntity
  8
止水栓
  6
CONTINUOUS
 62
     6
100
AcDbVertex
100
AcDb2dVertex
 10
1410.733398
 20
659.849551
 30
0.0
  0
VERTEX
  5
3FE
100
AcDbEntity
  8
止水栓
  6
CONTINUOUS
 62
     6
100
AcDbVertex
100
AcDb2dVertex
 10
1411.03125
 20
659.993594
 30
0.0
  0
VERTEX
  5
3FF
100
AcDbEntity
  8
止水栓
  6
CONTINUOUS
 62
     6
100
AcDbVertex
100
AcDb2dVertex
 10
1411.302246
 20
660.152285
 30
0.0
  0
VERTEX
  5
400
100
AcDbEntity
  8
止水栓
  6
CONTINUOUS
 62
     6
100
AcDbVertex
100
AcDb2dVertex
 10
1411.548828
 20
660.320742
 30
0.0
  0
VERTEX
  5
401
100
AcDbEntity
  8
止水栓
  6
CONTINUOUS
 62
     6
100
AcDbVertex
100
AcDb2dVertex
 10
1411.766113
 20
660.501407
 30
0.0
  0
VERTEX
  5
402
100
AcDbEntity
  8
止水栓
  6
CONTINUOUS
 62
     6
100
AcDbVertex
100
AcDb2dVertex
 10
1411.954101
 20
660.691836
 30
0.0
  0
VERTEX
  5
403
100
AcDbEntity
  8
止水栓
  6
CONTINUOUS
 62
     6
100
AcDbVertex
100
AcDb2dVertex
 10
1412.10791
 20
660.88959
 30
0.0
  0
VERTEX
  5
404
100
AcDbEntity
  8
止水栓
  6
CONTINUOUS
 62
     6
100
AcDbVertex
100
AcDb2dVertex
 10
1412.227539
 20
661.092227
 30
0.0
  0
VERTEX
  5
405
100
AcDbEntity
  8
止水栓
  6
CONTINUOUS
 62
     6
100
AcDbVertex
100
AcDb2dVertex
 10
1412.31543
 20
661.302188
 30
0.0
  0
VERTEX
  5
406
100
AcDbEntity
  8
止水栓
  6
CONTINUOUS
 62
     6
100
AcDbVertex
100
AcDb2dVertex
 10
1412.369141
 20
661.512149
 30
0.0
  0
VERTEX
  5
407
100
AcDbEntity
  8
止水栓
  6
CONTINUOUS
 62
     6
100
AcDbVertex
100
AcDb2dVertex
 10
1412.38623
 20
661.726992
 30
0.0
  0
VERTEX
  5
408
100
AcDbEntity
  8
止水栓
  6
CONTINUOUS
 62
     6
100
AcDbVertex
100
AcDb2dVertex
 10
1412.369141
 20
661.939395
 30
0.0
  0
VERTEX
  5
409
100
AcDbEntity
  8
止水栓
  6
CONTINUOUS
 62
     6
100
AcDbVertex
100
AcDb2dVertex
 10
1412.31543
 20
662.151797
 30
0.0
  0
VERTEX
  5
40A
100
AcDbEntity
  8
止水栓
  6
CONTINUOUS
 62
     6
100
AcDbVertex
100
AcDb2dVertex
 10
1412.227539
 20
662.361758
 30
0.0
  0
VERTEX
  5
40B
100
AcDbEntity
  8
止水栓
  6
CONTINUOUS
 62
     6
100
AcDbVertex
100
AcDb2dVertex
 10
1412.10791
 20
662.564395
 30
0.0
  0
VERTEX
  5
40C
100
AcDbEntity
  8
止水栓
  6
CONTINUOUS
 62
     6
100
AcDbVertex
100
AcDb2dVertex
 10
1411.95166
 20
662.762149
 30
0.0
  0
VERTEX
  5
40D
100
AcDbEntity
  8
止水栓
  6
CONTINUOUS
 62
     6
100
AcDbVertex
100
AcDb2dVertex
 10
1411.766113
 20
662.950137
 30
0.0
  0
VERTEX
  5
40E
100
AcDbEntity
  8
止水栓
  6
CONTINUOUS
 62
     6
100
AcDbVertex
100
AcDb2dVertex
 10
1411.548828
 20
663.130801
 30
0.0
  0
VERTEX
  5
40F
100
AcDbEntity
  8
止水栓
  6
CONTINUOUS
 62
     6
100
AcDbVertex
100
AcDb2dVertex
 10
1411.304687
 20
663.301699
 30
0.0
  0
VERTEX
  5
410
100
AcDbEntity
  8
止水栓
  6
CONTINUOUS
 62
     6
100
AcDbVertex
100
AcDb2dVertex
 10
1411.03125
 20
663.457949
 30
0.0
  0
VERTEX
  5
411
100
AcDbEntity
  8
止水栓
  6
CONTINUOUS
 62
     6
100
AcDbVertex
100
AcDb2dVertex
 10
1410.733398
 20
663.601992
 30
0.0
  0
VERTEX
  5
412
100
AcDbEntity
  8
止水栓
  6
CONTINUOUS
 62
     6
100
AcDbVertex
100
AcDb2dVertex
 10
1410.411133
 20
663.733828
 30
0.0
  0
VERTEX
  5
413
100
AcDbEntity
  8
止水栓
  6
CONTINUOUS
 62
     6
100
AcDbVertex
100
AcDb2dVertex
 10
1410.071777
 20
663.848574
 30
0.0
  0
VERTEX
  5
414
100
AcDbEntity
  8
止水栓
  6
CONTINUOUS
 62
     6
100
AcDbVertex
100
AcDb2dVertex
 10
1409.712891
 20
663.946231
 30
0.0
  0
VERTEX
  5
415
100
AcDbEntity
  8
止水栓
  6
CONTINUOUS
 62
     6
100
AcDbVertex
100
AcDb2dVertex
 10
1409.341797
 20
664.026797
 30
0.0
  0
VERTEX
  5
416
100
AcDbEntity
  8
止水栓
  6
CONTINUOUS
 62
     6
100
AcDbVertex
100
AcDb2dVertex
 10
1408.956055
 20
664.092715
 30
0.0
  0
VERTEX
  5
417
100
AcDbEntity
  8
止水栓
  6
CONTINUOUS
 62
     6
100
AcDbVertex
100
AcDb2dVertex
 10
1408.560547
 20
664.139102
 30
0.0
  0
VERTEX
  5
418
100
AcDbEntity
  8
止水栓
  6
CONTINUOUS
 62
     6
100
AcDbVertex
100
AcDb2dVertex
 10
1408.160156
 20
664.165957
 30
0.0
  0
VERTEX
  5
419
100
AcDbEntity
  8
止水栓
  6
CONTINUOUS
 62
     6
100
AcDbVertex
100
AcDb2dVertex
 10
1407.757324
 20
664.175723
 30
0.0
  0
VERTEX
  5
41A
100
AcDbEntity
  8
止水栓
  6
CONTINUOUS
 62
     6
100
AcDbVertex
100
AcDb2dVertex
 10
1407.354492
 20
664.165957
 30
0.0
  0
VERTEX
  5
41B
100
AcDbEntity
  8
止水栓
  6
CONTINUOUS
 62
     6
100
AcDbVertex
100
AcDb2dVertex
 10
1406.954101
 20
664.139102
 30
0.0
  0
VERTEX
  5
41C
100
AcDbEntity
  8
止水栓
  6
CONTINUOUS
 62
     6
100
AcDbVertex
100
AcDb2dVertex
 10
1406.558594
 20
664.092715
 30
0.0
  0
VERTEX
  5
41D
100
AcDbEntity
  8
止水栓
  6
CONTINUOUS
 62
     6
100
AcDbVertex
100
AcDb2dVertex
 10
1406.172851
 20
664.029239
 30
0.0
  0
VERTEX
  5
41E
100
AcDbEntity
  8
止水栓
  6
CONTINUOUS
 62
     6
100
AcDbVertex
100
AcDb2dVertex
 10
1405.799316
 20
663.946231
 30
0.0
  0
VERTEX
  5
41F
100
AcDbEntity
  8
止水栓
  6
CONTINUOUS
 62
     6
100
AcDbVertex
100
AcDb2dVertex
 10
1405.44043
 20
663.848574
 30
0.0
  0
VERTEX
  5
420
100
AcDbEntity
  8
止水栓
  6
CONTINUOUS
 62
     6
100
AcDbVertex
100
AcDb2dVertex
 10
1405.101074
 20
663.733828
 30
0.0
  0
VERTEX
  5
421
100
AcDbEntity
  8
止水栓
  6
CONTINUOUS
 62
     6
100
AcDbVertex
100
AcDb2dVertex
 10
1404.778808
 20
663.601992
 30
0.0
  0
VERTEX
  5
422
100
AcDbEntity
  8
止水栓
  6
CONTINUOUS
 62
     6
100
AcDbVertex
100
AcDb2dVertex
 10
1404.483398
 20
663.457949
 30
0.0
  0
VERTEX
  5
423
100
AcDbEntity
  8
止水栓
  6
CONTINUOUS
 62
     6
100
AcDbVertex
100
AcDb2dVertex
 10
1404.209961
 20
663.301699
 30
0.0
  0
VERTEX
  5
424
100
AcDbEntity
  8
止水栓
  6
CONTINUOUS
 62
     6
100
AcDbVertex
100
AcDb2dVertex
 10
1403.963379
 20
663.130801
 30
0.0
  0
VERTEX
  5
425
100
AcDbEntity
  8
止水栓
  6
CONTINUOUS
 62
     6
100
AcDbVertex
100
AcDb2dVertex
 10
1403.746094
 20
662.952578
 30
0.0
  0
VERTEX
  5
426
100
AcDbEntity
  8
止水栓
  6
CONTINUOUS
 62
     6
100
AcDbVertex
100
AcDb2dVertex
 10
1403.560547
 20
662.762149
 30
0.0
  0
VERTEX
  5
427
100
AcDbEntity
  8
止水栓
  6
CONTINUOUS
 62
     6
100
AcDbVertex
100
AcDb2dVertex
 10
1403.406738
 20
662.564395
 30
0.0
  0
VERTEX
  5
428
100
AcDbEntity
  8
止水栓
  6
CONTINUOUS
 62
     6
100
AcDbVertex
100
AcDb2dVertex
 10
1403.284668
 20
662.361758
 30
0.0
  0
VERTEX
  5
429
100
AcDbEntity
  8
止水栓
  6
CONTINUOUS
 62
     6
100
AcDbVertex
100
AcDb2dVertex
 10
1403.196777
 20
662.151797
 30
0.0
  0
VERTEX
  5
42A
100
AcDbEntity
  8
止水栓
  6
CONTINUOUS
 62
     6
100
AcDbVertex
100
AcDb2dVertex
 10
1403.143066
 20
661.939395
 30
0.0
  0
VERTEX
  5
42B
100
AcDbEntity
  8
止水栓
  6
CONTINUOUS
 62
     6
100
AcDbVertex
100
AcDb2dVertex
 10
1403.125976
 20
661.726992
 30
0.0
  0
VERTEX
  5
42C
100
AcDbEntity
  8
止水栓
  6
CONTINUOUS
 62
     6
100
AcDbVertex
100
AcDb2dVertex
 10
1403.145508
 20
661.512149
 30
0.0
  0
VERTEX
  5
42D
100
AcDbEntity
  8
止水栓
  6
CONTINUOUS
 62
     6
100
AcDbVertex
100
AcDb2dVertex
 10
1403.196777
 20
661.302188
 30
0.0
  0
VERTEX
  5
42E
100
AcDbEntity
  8
止水栓
  6
CONTINUOUS
 62
     6
100
AcDbVertex
100
AcDb2dVertex
 10
1403.284668
 20
661.092227
 30
0.0
  0
VERTEX
  5
42F
100
AcDbEntity
  8
止水栓
  6
CONTINUOUS
 62
     6
100
AcDbVertex
100
AcDb2dVertex
 10
1403.406738
 20
660.88959
 30
0.0
  0
VERTEX
  5
430
100
AcDbEntity
  8
止水栓
  6
CONTINUOUS
 62
     6
100
AcDbVertex
100
AcDb2dVertex
 10
1403.560547
 20
660.691836
 30
0.0
  0
SEQEND
  5
431
100
AcDbEntity
  8
止水栓
  6
CONTINUOUS
 62
     6
  0
LINE
  5
432
100
AcDbEntity
  8
止水栓
  6
CONTINUOUS
 62
     6
100
AcDbLine
 10
1418.499512
 20
655.673282
 30
0.0
 11
1420.499512
 21
655.673282
 31
0.0
  0
LINE
  5
433
100
AcDbEntity
  8
止水栓
  6
CONTINUOUS
 62
     6
100
AcDbLine
 10
1420.499512
 20
657.423282
 30
0.0
 11
1423.499512
 21
657.423282
 31
0.0
  0
LINE
  5
434
100
AcDbEntity
  8
止水栓
  6
CONTINUOUS
 62
     6
100
AcDbLine
 10
1413.499512
 20
662.173282
 30
0.0
 11
1418.499512
 21
662.173282
 31
0.0
  0
POLYLINE
  5
435
100
AcDbEntity
  8
止水栓
  6
CONTINUOUS
 62
     6
100
AcDb2dPolyline
 66
     1
 10
0.0
 20
0.0
 30
0.0
 70
   128
  0
VERTEX
  5
436
100
AcDbEntity
  8
止水栓
  6
CONTINUOUS
 62
     6
100
AcDbVertex
100
AcDb2dVertex
 10
1407.75
 20
639.178164
 30
0.0
  0
VERTEX
  5
437
100
AcDbEntity
  8
止水栓
  6
CONTINUOUS
 62
     6
100
AcDbVertex
100
AcDb2dVertex
 10
1408.187012
 20
639.18793
 30
0.0
  0
VERTEX
  5
438
100
AcDbEntity
  8
止水栓
  6
CONTINUOUS
 62
     6
100
AcDbVertex
100
AcDb2dVertex
 10
1408.619141
 20
639.214785
 30
0.0
  0
VERTEX
  5
439
100
AcDbEntity
  8
止水栓
  6
CONTINUOUS
 62
     6
100
AcDbVertex
100
AcDb2dVertex
 10
1409.043945
 20
639.261172
 30
0.0
  0
VERTEX
  5
43A
100
AcDbEntity
  8
止水栓
  6
CONTINUOUS
 62
     6
100
AcDbVertex
100
AcDb2dVertex
 10
1409.458984
 20
639.32709
 30
0.0
  0
VERTEX
  5
43B
100
AcDbEntity
  8
止水栓
  6
CONTINUOUS
 62
     6
100
AcDbVertex
100
AcDb2dVertex
 10
1409.859375
 20
639.407657
 30
0.0
  0
VERTEX
  5
43C
100
AcDbEntity
  8
止水栓
  6
CONTINUOUS
 62
     6
100
AcDbVertex
100
AcDb2dVertex
 10
1410.245117
 20
639.505313
 30
0.0
  0
VERTEX
  5
43D
100
AcDbEntity
  8
止水栓
  6
CONTINUOUS
 62
     6
100
AcDbVertex
100
AcDb2dVertex
 10
1410.613769
 20
639.6225
 30
0.0
  0
VERTEX
  5
43E
100
AcDbEntity
  8
止水栓
  6
CONTINUOUS
 62
     6
100
AcDbVertex
100
AcDb2dVertex
 10
1410.958008
 20
639.751895
 30
0.0
  0
VERTEX
  5
43F
100
AcDbEntity
  8
止水栓
  6
CONTINUOUS
 62
     6
100
AcDbVertex
100
AcDb2dVertex
 10
1411.280273
 20
639.895938
 30
0.0
  0
VERTEX
  5
440
100
AcDbEntity
  8
止水栓
  6
CONTINUOUS
 62
     6
100
AcDbVertex
100
AcDb2dVertex
 10
1411.573242
 20
640.054629
 30
0.0
  0
VERTEX
  5
441
100
AcDbEntity
  8
止水栓
  6
CONTINUOUS
 62
     6
100
AcDbVertex
100
AcDb2dVertex
 10
1411.839355
 20
640.223086
 30
0.0
  0
VERTEX
  5
442
100
AcDbEntity
  8
止水栓
  6
CONTINUOUS
 62
     6
100
AcDbVertex
100
AcDb2dVertex
 10
1412.071289
 20
640.40375
 30
0.0
  0
VERTEX
  5
443
100
AcDbEntity
  8
止水栓
  6
CONTINUOUS
 62
     6
100
AcDbVertex
100
AcDb2dVertex
 10
1412.273926
 20
640.591739
 30
0.0
  0
VERTEX
  5
444
100
AcDbEntity
  8
止水栓
  6
CONTINUOUS
 62
     6
100
AcDbVertex
100
AcDb2dVertex
 10
1412.439941
 20
640.789492
 30
0.0
  0
VERTEX
  5
445
100
AcDbEntity
  8
止水栓
  6
CONTINUOUS
 62
     6
100
AcDbVertex
100
AcDb2dVertex
 10
1412.571777
 20
640.994571
 30
0.0
  0
VERTEX
  5
446
100
AcDbEntity
  8
止水栓
  6
CONTINUOUS
 62
     6
100
AcDbVertex
100
AcDb2dVertex
 10
1412.664551
 20
641.20209
 30
0.0
  0
VERTEX
  5
447
100
AcDbEntity
  8
止水栓
  6
CONTINUOUS
 62
     6
100
AcDbVertex
100
AcDb2dVertex
 10
1412.723144
 20
641.414492
 30
0.0
  0
VERTEX
  5
448
100
AcDbEntity
  8
止水栓
  6
CONTINUOUS
 62
     6
100
AcDbVertex
100
AcDb2dVertex
 10
1412.740234
 20
641.626895
 30
0.0
  0
VERTEX
  5
449
100
AcDbEntity
  8
止水栓
  6
CONTINUOUS
 62
     6
100
AcDbVertex
100
AcDb2dVertex
 10
1412.720703
 20
641.841739
 30
0.0
  0
VERTEX
  5
44A
100
AcDbEntity
  8
止水栓
  6
CONTINUOUS
 62
     6
100
AcDbVertex
100
AcDb2dVertex
 10
1412.664551
 20
642.054141
 30
0.0
  0
VERTEX
  5
44B
100
AcDbEntity
  8
止水栓
  6
CONTINUOUS
 62
     6
100
AcDbVertex
100
AcDb2dVertex
 10
1412.571777
 20
642.26166
 30
0.0
  0
VERTEX
  5
44C
100
AcDbEntity
  8
止水栓
  6
CONTINUOUS
 62
     6
100
AcDbVertex
100
AcDb2dVertex
 10
1412.439941
 20
642.466739
 30
0.0
  0
VERTEX
  5
44D
100
AcDbEntity
  8
止水栓
  6
CONTINUOUS
 62
     6
100
AcDbVertex
100
AcDb2dVertex
 10
1412.273926
 20
642.664492
 30
0.0
  0
VERTEX
  5
44E
100
AcDbEntity
  8
止水栓
  6
CONTINUOUS
 62
     6
100
AcDbVertex
100
AcDb2dVertex
 10
1412.071289
 20
642.852481
 30
0.0
  0
VERTEX
  5
44F
100
AcDbEntity
  8
止水栓
  6
CONTINUOUS
 62
     6
100
AcDbVertex
100
AcDb2dVertex
 10
1411.836914
 20
643.033145
 30
0.0
  0
VERTEX
  5
450
100
AcDbEntity
  8
止水栓
  6
CONTINUOUS
 62
     6
100
AcDbVertex
100
AcDb2dVertex
 10
1411.573242
 20
643.201602
 30
0.0
  0
VERTEX
  5
451
100
AcDbEntity
  8
止水栓
  6
CONTINUOUS
 62
     6
100
AcDbVertex
100
AcDb2dVertex
 10
1411.280273
 20
643.360293
 30
0.0
  0
VERTEX
  5
452
100
AcDbEntity
  8
止水栓
  6
CONTINUOUS
 62
     6
100
AcDbVertex
100
AcDb2dVertex
 10
1410.958008
 20
643.504336
 30
0.0
  0
VERTEX
  5
453
100
AcDbEntity
  8
止水栓
  6
CONTINUOUS
 62
     6
100
AcDbVertex
100
AcDb2dVertex
 10
1410.613769
 20
643.633731
 30
0.0
  0
VERTEX
  5
454
100
AcDbEntity
  8
止水栓
  6
CONTINUOUS
 62
     6
100
AcDbVertex
100
AcDb2dVertex
 10
1410.245117
 20
643.748477
 30
0.0
  0
VERTEX
  5
455
100
AcDbEntity
  8
止水栓
  6
CONTINUOUS
 62
     6
100
AcDbVertex
100
AcDb2dVertex
 10
1409.859375
 20
643.848574
 30
0.0
  0
VERTEX
  5
456
100
AcDbEntity
  8
止水栓
  6
CONTINUOUS
 62
     6
100
AcDbVertex
100
AcDb2dVertex
 10
1409.456543
 20
643.929141
 30
0.0
  0
VERTEX
  5
457
100
AcDbEntity
  8
止水栓
  6
CONTINUOUS
 62
     6
100
AcDbVertex
100
AcDb2dVertex
 10
1409.041504
 20
643.995059
 30
0.0
  0
VERTEX
  5
458
100
AcDbEntity
  8
止水栓
  6
CONTINUOUS
 62
     6
100
AcDbVertex
100
AcDb2dVertex
 10
1408.616699
 20
644.041446
 30
0.0
  0
VERTEX
  5
459
100
AcDbEntity
  8
止水栓
  6
CONTINUOUS
 62
     6
100
AcDbVertex
100
AcDb2dVertex
 10
1408.18457
 20
644.068301
 30
0.0
  0
VERTEX
  5
45A
100
AcDbEntity
  8
止水栓
  6
CONTINUOUS
 62
     6
100
AcDbVertex
100
AcDb2dVertex
 10
1407.75
 20
644.078067
 30
0.0
  0
VERTEX
  5
45B
100
AcDbEntity
  8
止水栓
  6
CONTINUOUS
 62
     6
100
AcDbVertex
100
AcDb2dVertex
 10
1407.31543
 20
644.068301
 30
0.0
  0
VERTEX
  5
45C
100
AcDbEntity
  8
止水栓
  6
CONTINUOUS
 62
     6
100
AcDbVertex
100
AcDb2dVertex
 10
1406.883301
 20
644.039004
 30
0.0
  0
VERTEX
  5
45D
100
AcDbEntity
  8
止水栓
  6
CONTINUOUS
 62
     6
100
AcDbVertex
100
AcDb2dVertex
 10
1406.458496
 20
643.992617
 30
0.0
  0
VERTEX
  5
45E
100
AcDbEntity
  8
止水栓
  6
CONTINUOUS
 62
     6
100
AcDbVertex
100
AcDb2dVertex
 10
1406.043457
 20
643.929141
 30
0.0
  0
VERTEX
  5
45F
100
AcDbEntity
  8
止水栓
  6
CONTINUOUS
 62
     6
100
AcDbVertex
100
AcDb2dVertex
 10
1405.640625
 20
643.848574
 30
0.0
  0
VERTEX
  5
460
100
AcDbEntity
  8
止水栓
  6
CONTINUOUS
 62
     6
100
AcDbVertex
100
AcDb2dVertex
 10
1405.254883
 20
643.748477
 30
0.0
  0
VERTEX
  5
461
100
AcDbEntity
  8
止水栓
  6
CONTINUOUS
 62
     6
100
AcDbVertex
100
AcDb2dVertex
 10
1404.888672
 20
643.633731
 30
0.0
  0
VERTEX
  5
462
100
AcDbEntity
  8
止水栓
  6
CONTINUOUS
 62
     6
100
AcDbVertex
100
AcDb2dVertex
 10
1404.541992
 20
643.504336
 30
0.0
  0
VERTEX
  5
463
100
AcDbEntity
  8
止水栓
  6
CONTINUOUS
 62
     6
100
AcDbVertex
100
AcDb2dVertex
 10
1404.222168
 20
643.360293
 30
0.0
  0
VERTEX
  5
464
100
AcDbEntity
  8
止水栓
  6
CONTINUOUS
 62
     6
100
AcDbVertex
100
AcDb2dVertex
 10
1403.926758
 20
643.201602
 30
0.0
  0
VERTEX
  5
465
100
AcDbEntity
  8
止水栓
  6
CONTINUOUS
 62
     6
100
AcDbVertex
100
AcDb2dVertex
 10
1403.663086
 20
643.033145
 30
0.0
  0
VERTEX
  5
466
100
AcDbEntity
  8
止水栓
  6
CONTINUOUS
 62
     6
100
AcDbVertex
100
AcDb2dVertex
 10
1403.428711
 20
642.852481
 30
0.0
  0
VERTEX
  5
467
100
AcDbEntity
  8
止水栓
  6
CONTINUOUS
 62
     6
100
AcDbVertex
100
AcDb2dVertex
 10
1403.228516
 20
642.664492
 30
0.0
  0
VERTEX
  5
468
100
AcDbEntity
  8
止水栓
  6
CONTINUOUS
 62
     6
100
AcDbVertex
100
AcDb2dVertex
 10
1403.060058
 20
642.466739
 30
0.0
  0
VERTEX
  5
469
100
AcDbEntity
  8
止水栓
  6
CONTINUOUS
 62
     6
100
AcDbVertex
100
AcDb2dVertex
 10
1402.930664
 20
642.26166
 30
0.0
  0
VERTEX
  5
46A
100
AcDbEntity
  8
止水栓
  6
CONTINUOUS
 62
     6
100
AcDbVertex
100
AcDb2dVertex
 10
1402.835449
 20
642.054141
 30
0.0
  0
VERTEX
  5
46B
100
AcDbEntity
  8
止水栓
  6
CONTINUOUS
 62
     6
100
AcDbVertex
100
AcDb2dVertex
 10
1402.779297
 20
641.841739
 30
0.0
  0
VERTEX
  5
46C
100
AcDbEntity
  8
止水栓
  6
CONTINUOUS
 62
     6
100
AcDbVertex
100
AcDb2dVertex
 10
1402.759766
 20
641.626895
 30
0.0
  0
VERTEX
  5
46D
100
AcDbEntity
  8
止水栓
  6
CONTINUOUS
 62
     6
100
AcDbVertex
100
AcDb2dVertex
 10
1402.779297
 20
641.414492
 30
0.0
  0
VERTEX
  5
46E
100
AcDbEntity
  8
止水栓
  6
CONTINUOUS
 62
     6
100
AcDbVertex
100
AcDb2dVertex
 10
1402.835449
 20
641.20209
 30
0.0
  0
VERTEX
  5
46F
100
AcDbEntity
  8
止水栓
  6
CONTINUOUS
 62
     6
100
AcDbVertex
100
AcDb2dVertex
 10
1402.930664
 20
640.994571
 30
0.0
  0
VERTEX
  5
470
100
AcDbEntity
  8
止水栓
  6
CONTINUOUS
 62
     6
100
AcDbVertex
100
AcDb2dVertex
 10
1403.060058
 20
640.789492
 30
0.0
  0
VERTEX
  5
471
100
AcDbEntity
  8
止水栓
  6
CONTINUOUS
 62
     6
100
AcDbVertex
100
AcDb2dVertex
 10
1403.228516
 20
640.591739
 30
0.0
  0
SEQEND
  5
472
100
AcDbEntity
  8
止水栓
  6
CONTINUOUS
 62
     6
  0
ARC
  5
473
100
AcDbEntity
  8
止水栓
  6
CONTINUOUS
 62
     6
100
AcDbCircle
 10
1407.498535
 20
649.922793
 30
0.0
 40
10.998535
100
AcDbArc
 50
236.94841
 51
303.059082
  0
LINE
  5
474
100
AcDbEntity
  8
止水栓
  6
CONTINUOUS
 62
     6
100
AcDbLine
 10
1418.499512
 20
647.673282
 30
0.0
 11
1420.499512
 21
647.673282
 31
0.0
  0
LINE
  5
475
100
AcDbEntity
  8
止水栓
  6
CONTINUOUS
 62
     6
100
AcDbLine
 10
1420.499512
 20
645.923282
 30
0.0
 11
1423.499512
 21
645.923282
 31
0.0
  0
LINE
  5
476
100
AcDbEntity
  8
止水栓
  6
CONTINUOUS
 62
     6
100
AcDbLine
 10
1413.499512
 20
641.173282
 30
0.0
 11
1418.499512
 21
641.173282
 31
0.0
  0
LINE
  5
477
100
AcDbEntity
  8
止水栓
  6
CONTINUOUS
 62
     6
100
AcDbLine
 10
1413.499512
 20
640.704043
 30
0.0
 11
1413.499512
 21
662.64252
 31
0.0
  0
LINE
  5
478
100
AcDbEntity
  8
止水栓
  6
CONTINUOUS
 62
     6
100
AcDbLine
 10
1418.499512
 20
641.173282
 30
0.0
 11
1418.499512
 21
662.173282
 31
0.0
  0
POLYLINE
  5
479
100
AcDbEntity
  8
止水栓
  6
CONTINUOUS
 62
     6
100
AcDb2dPolyline
 66
     1
 10
0.0
 20
0.0
 30
0.0
 70
   128
  0
VERTEX
  5
47A
100
AcDbEntity
  8
止水栓
  6
CONTINUOUS
 62
     6
100
AcDbVertex
100
AcDb2dVertex
 10
1413.284668
 20
651.673282
 30
0.0
  0
VERTEX
  5
47B
100
AcDbEntity
  8
止水栓
  6
CONTINUOUS
 62
     6
100
AcDbVertex
100
AcDb2dVertex
 10
1413.262695
 20
652.171328
 30
0.0
  0
VERTEX
  5
47C
100
AcDbEntity
  8
止水栓
  6
CONTINUOUS
 62
     6
100
AcDbVertex
100
AcDb2dVertex
 10
1413.196777
 20
652.666934
 30
0.0
  0
VERTEX
  5
47D
100
AcDbEntity
  8
止水栓
  6
CONTINUOUS
 62
     6
100
AcDbVertex
100
AcDb2dVertex
 10
1413.094238
 20
653.155215
 30
0.0
  0
VERTEX
  5
47E
100
AcDbEntity
  8
止水栓
  6
CONTINUOUS
 62
     6
100
AcDbVertex
100
AcDb2dVertex
 10
1412.947754
 20
653.641055
 30
0.0
  0
VERTEX
  5
47F
100
AcDbEntity
  8
止水栓
  6
CONTINUOUS
 62
     6
100
AcDbVertex
100
AcDb2dVertex
 10
1412.762207
 20
654.109805
 30
0.0
  0
VERTEX
  5
480
100
AcDbEntity
  8
止水栓
  6
CONTINUOUS
 62
     6
100
AcDbVertex
100
AcDb2dVertex
 10
1412.540039
 20
654.561465
 30
0.0
  0
VERTEX
  5
481
100
AcDbEntity
  8
止水栓
  6
CONTINUOUS
 62
     6
100
AcDbVertex
100
AcDb2dVertex
 10
1412.278808
 20
654.991153
 30
0.0
  0
VERTEX
  5
482
100
AcDbEntity
  8
止水栓
  6
CONTINUOUS
 62
     6
100
AcDbVertex
100
AcDb2dVertex
 10
1411.983398
 20
655.393985
 30
0.0
  0
VERTEX
  5
483
100
AcDbEntity
  8
止水栓
  6
CONTINUOUS
 62
     6
100
AcDbVertex
100
AcDb2dVertex
 10
1411.65625
 20
655.769961
 30
0.0
  0
VERTEX
  5
484
100
AcDbEntity
  8
止水栓
  6
CONTINUOUS
 62
     6
100
AcDbVertex
100
AcDb2dVertex
 10
1411.297363
 20
656.111758
 30
0.0
  0
VERTEX
  5
485
100
AcDbEntity
  8
止水栓
  6
CONTINUOUS
 62
     6
100
AcDbVertex
100
AcDb2dVertex
 10
1410.911621
 20
656.421817
 30
0.0
  0
VERTEX
  5
486
100
AcDbEntity
  8
止水栓
  6
CONTINUOUS
 62
     6
100
AcDbVertex
100
AcDb2dVertex
 10
1410.503906
 20
656.695254
 30
0.0
  0
VERTEX
  5
487
100
AcDbEntity
  8
止水栓
  6
CONTINUOUS
 62
     6
100
AcDbVertex
100
AcDb2dVertex
 10
1410.074219
 20
656.932071
 30
0.0
  0
VERTEX
  5
488
100
AcDbEntity
  8
止水栓
  6
CONTINUOUS
 62
     6
100
AcDbVertex
100
AcDb2dVertex
 10
1409.625
 20
657.124942
 30
0.0
  0
VERTEX
  5
489
100
AcDbEntity
  8
止水栓
  6
CONTINUOUS
 62
     6
100
AcDbVertex
100
AcDb2dVertex
 10
1409.161133
 20
657.27875
 30
0.0
  0
VERTEX
  5
48A
100
AcDbEntity
  8
止水栓
  6
CONTINUOUS
 62
     6
100
AcDbVertex
100
AcDb2dVertex
 10
1408.6875
 20
657.388614
 30
0.0
  0
VERTEX
  5
48B
100
AcDbEntity
  8
止水栓
  6
CONTINUOUS
 62
     6
100
AcDbVertex
100
AcDb2dVertex
 10
1408.206543
 20
657.454532
 30
0.0
  0
VERTEX
  5
48C
100
AcDbEntity
  8
止水栓
  6
CONTINUOUS
 62
     6
100
AcDbVertex
100
AcDb2dVertex
 10
1407.723144
 20
657.478946
 30
0.0
  0
VERTEX
  5
48D
100
AcDbEntity
  8
止水栓
  6
CONTINUOUS
 62
     6
100
AcDbVertex
100
AcDb2dVertex
 10
1407.237305
 20
657.454532
 30
0.0
  0
VERTEX
  5
48E
100
AcDbEntity
  8
止水栓
  6
CONTINUOUS
 62
     6
100
AcDbVertex
100
AcDb2dVertex
 10
1406.756348
 20
657.388614
 30
0.0
  0
VERTEX
  5
48F
100
AcDbEntity
  8
止水栓
  6
CONTINUOUS
 62
     6
100
AcDbVertex
100
AcDb2dVertex
 10
1406.282715
 20
657.27875
 30
0.0
  0
VERTEX
  5
490
100
AcDbEntity
  8
止水栓
  6
CONTINUOUS
 62
     6
100
AcDbVertex
100
AcDb2dVertex
 10
1405.821289
 20
657.124942
 30
0.0
  0
VERTEX
  5
491
100
AcDbEntity
  8
止水栓
  6
CONTINUOUS
 62
     6
100
AcDbVertex
100
AcDb2dVertex
 10
1405.37207
 20
656.932071
 30
0.0
  0
VERTEX
  5
492
100
AcDbEntity
  8
止水栓
  6
CONTINUOUS
 62
     6
100
AcDbVertex
100
AcDb2dVertex
 10
1404.942383
 20
656.695254
 30
0.0
  0
VERTEX
  5
493
100
AcDbEntity
  8
止水栓
  6
CONTINUOUS
 62
     6
100
AcDbVertex
100
AcDb2dVertex
 10
1404.532226
 20
656.421817
 30
0.0
  0
VERTEX
  5
494
100
AcDbEntity
  8
止水栓
  6
CONTINUOUS
 62
     6
100
AcDbVertex
100
AcDb2dVertex
 10
1404.148926
 20
656.111758
 30
0.0
  0
VERTEX
  5
495
100
AcDbEntity
  8
止水栓
  6
CONTINUOUS
 62
     6
100
AcDbVertex
100
AcDb2dVertex
 10
1403.790039
 20
655.769961
 30
0.0
  0
VERTEX
  5
496
100
AcDbEntity
  8
止水栓
  6
CONTINUOUS
 62
     6
100
AcDbVertex
100
AcDb2dVertex
 10
1403.462891
 20
655.393985
 30
0.0
  0
VERTEX
  5
497
100
AcDbEntity
  8
止水栓
  6
CONTINUOUS
 62
     6
100
AcDbVertex
100
AcDb2dVertex
 10
1403.16748
 20
654.991153
 30
0.0
  0
VERTEX
  5
498
100
AcDbEntity
  8
止水栓
  6
CONTINUOUS
 62
     6
100
AcDbVertex
100
AcDb2dVertex
 10
1402.90625
 20
654.561465
 30
0.0
  0
VERTEX
  5
499
100
AcDbEntity
  8
止水栓
  6
CONTINUOUS
 62
     6
100
AcDbVertex
100
AcDb2dVertex
 10
1402.681641
 20
654.109805
 30
0.0
  0
VERTEX
  5
49A
100
AcDbEntity
  8
止水栓
  6
CONTINUOUS
 62
     6
100
AcDbVertex
100
AcDb2dVertex
 10
1402.496094
 20
653.641055
 30
0.0
  0
VERTEX
  5
49B
100
AcDbEntity
  8
止水栓
  6
CONTINUOUS
 62
     6
100
AcDbVertex
100
AcDb2dVertex
 10
1402.352051
 20
653.155215
 30
0.0
  0
VERTEX
  5
49C
100
AcDbEntity
  8
止水栓
  6
CONTINUOUS
 62
     6
100
AcDbVertex
100
AcDb2dVertex
 10
1402.24707
 20
652.65961
 30
0.0
  0
VERTEX
  5
49D
100
AcDbEntity
  8
止水栓
  6
CONTINUOUS
 62
     6
100
AcDbVertex
100
AcDb2dVertex
 10
1402.183594
 20
652.154239
 30
0.0
  0
VERTEX
  5
49E
100
AcDbEntity
  8
止水栓
  6
CONTINUOUS
 62
     6
100
AcDbVertex
100
AcDb2dVertex
 10
1402.161621
 20
651.646426
 30
0.0
  0
VERTEX
  5
49F
100
AcDbEntity
  8
止水栓
  6
CONTINUOUS
 62
     6
100
AcDbVertex
100
AcDb2dVertex
 10
1402.183594
 20
651.138614
 30
0.0
  0
VERTEX
  5
4A0
100
AcDbEntity
  8
止水栓
  6
CONTINUOUS
 62
     6
100
AcDbVertex
100
AcDb2dVertex
 10
1402.24707
 20
650.633242
 30
0.0
  0
VERTEX
  5
4A1
100
AcDbEntity
  8
止水栓
  6
CONTINUOUS
 62
     6
100
AcDbVertex
100
AcDb2dVertex
 10
1402.352051
 20
650.137637
 30
0.0
  0
VERTEX
  5
4A2
100
AcDbEntity
  8
止水栓
  6
CONTINUOUS
 62
     6
100
AcDbVertex
100
AcDb2dVertex
 10
1402.496094
 20
649.651797
 30
0.0
  0
VERTEX
  5
4A3
100
AcDbEntity
  8
止水栓
  6
CONTINUOUS
 62
     6
100
AcDbVertex
100
AcDb2dVertex
 10
1402.681641
 20
649.183047
 30
0.0
  0
VERTEX
  5
4A4
100
AcDbEntity
  8
止水栓
  6
CONTINUOUS
 62
     6
100
AcDbVertex
100
AcDb2dVertex
 10
1402.90625
 20
648.731387
 30
0.0
  0
VERTEX
  5
4A5
100
AcDbEntity
  8
止水栓
  6
CONTINUOUS
 62
     6
100
AcDbVertex
100
AcDb2dVertex
 10
1403.16748
 20
648.301699
 30
0.0
  0
VERTEX
  5
4A6
100
AcDbEntity
  8
止水栓
  6
CONTINUOUS
 62
     6
100
AcDbVertex
100
AcDb2dVertex
 10
1403.462891
 20
647.898867
 30
0.0
  0
VERTEX
  5
4A7
100
AcDbEntity
  8
止水栓
  6
CONTINUOUS
 62
     6
100
AcDbVertex
100
AcDb2dVertex
 10
1403.790039
 20
647.522891
 30
0.0
  0
VERTEX
  5
4A8
100
AcDbEntity
  8
止水栓
  6
CONTINUOUS
 62
     6
100
AcDbVertex
100
AcDb2dVertex
 10
1404.148926
 20
647.181094
 30
0.0
  0
VERTEX
  5
4A9
100
AcDbEntity
  8
止水栓
  6
CONTINUOUS
 62
     6
100
AcDbVertex
100
AcDb2dVertex
 10
1404.532226
 20
646.871035
 30
0.0
  0
VERTEX
  5
4AA
100
AcDbEntity
  8
止水栓
  6
CONTINUOUS
 62
     6
100
AcDbVertex
100
AcDb2dVertex
 10
1404.942383
 20
646.597598
 30
0.0
  0
VERTEX
  5
4AB
100
AcDbEntity
  8
止水栓
  6
CONTINUOUS
 62
     6
100
AcDbVertex
100
AcDb2dVertex
 10
1405.37207
 20
646.360782
 30
0.0
  0
VERTEX
  5
4AC
100
AcDbEntity
  8
止水栓
  6
CONTINUOUS
 62
     6
100
AcDbVertex
100
AcDb2dVertex
 10
1405.821289
 20
646.16791
 30
0.0
  0
VERTEX
  5
4AD
100
AcDbEntity
  8
止水栓
  6
CONTINUOUS
 62
     6
100
AcDbVertex
100
AcDb2dVertex
 10
1406.282715
 20
646.014102
 30
0.0
  0
VERTEX
  5
4AE
100
AcDbEntity
  8
止水栓
  6
CONTINUOUS
 62
     6
100
AcDbVertex
100
AcDb2dVertex
 10
1406.756348
 20
645.904239
 30
0.0
  0
VERTEX
  5
4AF
100
AcDbEntity
  8
止水栓
  6
CONTINUOUS
 62
     6
100
AcDbVertex
100
AcDb2dVertex
 10
1407.237305
 20
645.838321
 30
0.0
  0
VERTEX
  5
4B0
100
AcDbEntity
  8
止水栓
  6
CONTINUOUS
 62
     6
100
AcDbVertex
100
AcDb2dVertex
 10
1407.720703
 20
645.816348
 30
0.0
  0
SEQEND
  5
4B1
100
AcDbEntity
  8
止水栓
  6
CONTINUOUS
 62
     6
  0
LINE
  5
4B2
100
AcDbEntity
  8
止水栓
  6
CONTINUOUS
 62
     6
100
AcDbLine
 10
1420.499512
 20
645.923282
 30
0.0
 11
1420.499512
 21
657.423282
 31
0.0
  0
LINE
  5
4B3
100
AcDbEntity
  8
止水栓
  6
CONTINUOUS
 62
     6
100
AcDbLine
 10
1423.499512
 20
646.923282
 30
0.0
 11
1423.499512
 21
656.423282
 31
0.0
  0
POLYLINE
  5
4B4
100
AcDbEntity
  8
止水栓
  6
CONTINUOUS
 62
     6
100
AcDb2dPolyline
 66
     1
 10
0.0
 20
0.0
 30
0.0
 70
   128
  0
VERTEX
  5
4B5
100
AcDbEntity
  8
止水栓
  6
CONTINUOUS
 62
     6
100
AcDbVertex
100
AcDb2dVertex
 10
1407.723144
 20
645.816348
 30
0.0
  0
VERTEX
  5
4B6
100
AcDbEntity
  8
止水栓
  6
CONTINUOUS
 62
     6
100
AcDbVertex
100
AcDb2dVertex
 10
1408.206543
 20
645.838321
 30
0.0
  0
VERTEX
  5
4B7
100
AcDbEntity
  8
止水栓
  6
CONTINUOUS
 62
     6
100
AcDbVertex
100
AcDb2dVertex
 10
1408.6875
 20
645.904239
 30
0.0
  0
VERTEX
  5
4B8
100
AcDbEntity
  8
止水栓
  6
CONTINUOUS
 62
     6
100
AcDbVertex
100
AcDb2dVertex
 10
1409.161133
 20
646.014102
 30
0.0
  0
VERTEX
  5
4B9
100
AcDbEntity
  8
止水栓
  6
CONTINUOUS
 62
     6
100
AcDbVertex
100
AcDb2dVertex
 10
1409.625
 20
646.16791
 30
0.0
  0
VERTEX
  5
4BA
100
AcDbEntity
  8
止水栓
  6
CONTINUOUS
 62
     6
100
AcDbVertex
100
AcDb2dVertex
 10
1410.071777
 20
646.360782
 30
0.0
  0
VERTEX
  5
4BB
100
AcDbEntity
  8
止水栓
  6
CONTINUOUS
 62
     6
100
AcDbVertex
100
AcDb2dVertex
 10
1410.503906
 20
646.597598
 30
0.0
  0
VERTEX
  5
4BC
100
AcDbEntity
  8
止水栓
  6
CONTINUOUS
 62
     6
100
AcDbVertex
100
AcDb2dVertex
 10
1410.911621
 20
646.871035
 30
0.0
  0
VERTEX
  5
4BD
100
AcDbEntity
  8
止水栓
  6
CONTINUOUS
 62
     6
100
AcDbVertex
100
AcDb2dVertex
 10
1411.297363
 20
647.181094
 30
0.0
  0
VERTEX
  5
4BE
100
AcDbEntity
  8
止水栓
  6
CONTINUOUS
 62
     6
100
AcDbVertex
100
AcDb2dVertex
 10
1411.653808
 20
647.522891
 30
0.0
  0
VERTEX
  5
4BF
100
AcDbEntity
  8
止水栓
  6
CONTINUOUS
 62
     6
100
AcDbVertex
100
AcDb2dVertex
 10
1411.983398
 20
647.898867
 30
0.0
  0
VERTEX
  5
4C0
100
AcDbEntity
  8
止水栓
  6
CONTINUOUS
 62
     6
100
AcDbVertex
100
AcDb2dVertex
 10
1412.276367
 20
648.301699
 30
0.0
  0
VERTEX
  5
4C1
100
AcDbEntity
  8
止水栓
  6
CONTINUOUS
 62
     6
100
AcDbVertex
100
AcDb2dVertex
 10
1412.540039
 20
648.731387
 30
0.0
  0
VERTEX
  5
4C2
100
AcDbEntity
  8
止水栓
  6
CONTINUOUS
 62
     6
100
AcDbVertex
100
AcDb2dVertex
 10
1412.764648
 20
649.183047
 30
0.0
  0
VERTEX
  5
4C3
100
AcDbEntity
  8
止水栓
  6
CONTINUOUS
 62
     6
100
AcDbVertex
100
AcDb2dVertex
 10
1412.950195
 20
649.651797
 30
0.0
  0
VERTEX
  5
4C4
100
AcDbEntity
  8
止水栓
  6
CONTINUOUS
 62
     6
100
AcDbVertex
100
AcDb2dVertex
 10
1413.094238
 20
650.137637
 30
0.0
  0
VERTEX
  5
4C5
100
AcDbEntity
  8
止水栓
  6
CONTINUOUS
 62
     6
100
AcDbVertex
100
AcDb2dVertex
 10
1413.199219
 20
650.633242
 30
0.0
  0
VERTEX
  5
4C6
100
AcDbEntity
  8
止水栓
  6
CONTINUOUS
 62
     6
100
AcDbVertex
100
AcDb2dVertex
 10
1413.262695
 20
651.138614
 30
0.0
  0
VERTEX
  5
4C7
100
AcDbEntity
  8
止水栓
  6
CONTINUOUS
 62
     6
100
AcDbVertex
100
AcDb2dVertex
 10
1413.284668
 20
651.646426
 30
0.0
  0
VERTEX
  5
4C8
100
AcDbEntity
  8
止水栓
  6
CONTINUOUS
 62
     6
100
AcDbVertex
100
AcDb2dVertex
 10
1413.284668
 20
651.656192
 30
0.0
  0
VERTEX
  5
4C9
100
AcDbEntity
  8
止水栓
  6
CONTINUOUS
 62
     6
100
AcDbVertex
100
AcDb2dVertex
 10
1413.284668
 20
651.663516
 30
0.0
  0
VERTEX
  5
4CA
100
AcDbEntity
  8
止水栓
  6
CONTINUOUS
 62
     6
100
AcDbVertex
100
AcDb2dVertex
 10
1413.284668
 20
651.673282
 30
0.0
  0
SEQEND
  5
4CB
100
AcDbEntity
  8
止水栓
  6
CONTINUOUS
 62
     6
  0
POLYLINE
  5
4CC
100
AcDbEntity
  8
止水栓
  6
CONTINUOUS
 62
     6
100
AcDb2dPolyline
 66
     1
 10
0.0
 20
0.0
 30
0.0
 70
   128
  0
VERTEX
  5
4CD
100
AcDbEntity
  8
止水栓
  6
CONTINUOUS
 62
     6
100
AcDbVertex
100
AcDb2dVertex
 10
1406.558594
 20
659.36127
 30
0.0
  0
VERTEX
  5
4CE
100
AcDbEntity
  8
止水栓
  6
CONTINUOUS
 62
     6
100
AcDbVertex
100
AcDb2dVertex
 10
1406.95166
 20
659.314883
 30
0.0
  0
VERTEX
  5
4CF
100
AcDbEntity
  8
止水栓
  6
CONTINUOUS
 62
     6
100
AcDbVertex
100
AcDb2dVertex
 10
1407.352051
 20
659.285586
 30
0.0
  0
VERTEX
  5
4D0
100
AcDbEntity
  8
止水栓
  6
CONTINUOUS
 62
     6
100
AcDbVertex
100
AcDb2dVertex
 10
1407.754883
 20
659.275821
 30
0.0
  0
SEQEND
  5
4D1
100
AcDbEntity
  8
止水栓
  6
CONTINUOUS
 62
     6
  0
POLYLINE
  5
4D2
100
AcDbEntity
  8
止水栓
  6
CONTINUOUS
 62
     6
100
AcDb2dPolyline
 66
     1
 10
0.0
 20
0.0
 30
0.0
 70
   128
  0
VERTEX
  5
4D3
100
AcDbEntity
  8
止水栓
  6
CONTINUOUS
 62
     6
100
AcDbVertex
100
AcDb2dVertex
 10
1406.458496
 20
639.261172
 30
0.0
  0
VERTEX
  5
4D4
100
AcDbEntity
  8
止水栓
  6
CONTINUOUS
 62
     6
100
AcDbVertex
100
AcDb2dVertex
 10
1406.883301
 20
639.214785
 30
0.0
  0
VERTEX
  5
4D5
100
AcDbEntity
  8
止水栓
  6
CONTINUOUS
 62
     6
100
AcDbVertex
100
AcDb2dVertex
 10
1407.31543
 20
639.18793
 30
0.0
  0
VERTEX
  5
4D6
100
AcDbEntity
  8
止水栓
  6
CONTINUOUS
 62
     6
100
AcDbVertex
100
AcDb2dVertex
 10
1407.75
 20
639.178164
 30
0.0
  0
SEQEND
  5
4D7
100
AcDbEntity
  8
止水栓
  6
CONTINUOUS
 62
     6
  0
POLYLINE
  5
4D8
100
AcDbEntity
  8
止水栓
  6
CONTINUOUS
 62
     6
100
AcDb2dPolyline
 66
     1
 10
0.0
 20
0.0
 30
0.0
 70
   128
  0
VERTEX
  5
4D9
100
AcDbEntity
  8
止水栓
  6
CONTINUOUS
 62
     6
100
AcDbVertex
100
AcDb2dVertex
 10
1403.560547
 20
660.691836
 30
0.0
  0
VERTEX
  5
4DA
100
AcDbEntity
  8
止水栓
  6
CONTINUOUS
 62
     6
100
AcDbVertex
100
AcDb2dVertex
 10
1403.746094
 20
660.501407
 30
0.0
  0
VERTEX
  5
4DB
100
AcDbEntity
  8
止水栓
  6
CONTINUOUS
 62
     6
100
AcDbVertex
100
AcDb2dVertex
 10
1403.963379
 20
660.320742
 30
0.0
  0
VERTEX
  5
4DC
100
AcDbEntity
  8
止水栓
  6
CONTINUOUS
 62
     6
100
AcDbVertex
100
AcDb2dVertex
 10
1404.209961
 20
660.152285
 30
0.0
  0
VERTEX
  5
4DD
100
AcDbEntity
  8
止水栓
  6
CONTINUOUS
 62
     6
100
AcDbVertex
100
AcDb2dVertex
 10
1404.483398
 20
659.993594
 30
0.0
  0
VERTEX
  5
4DE
100
AcDbEntity
  8
止水栓
  6
CONTINUOUS
 62
     6
100
AcDbVertex
100
AcDb2dVertex
 10
1404.78125
 20
659.849551
 30
0.0
  0
VERTEX
  5
4DF
100
AcDbEntity
  8
止水栓
  6
CONTINUOUS
 62
     6
100
AcDbVertex
100
AcDb2dVertex
 10
1405.101074
 20
659.720157
 30
0.0
  0
VERTEX
  5
4E0
100
AcDbEntity
  8
止水栓
  6
CONTINUOUS
 62
     6
100
AcDbVertex
100
AcDb2dVertex
 10
1405.44043
 20
659.60541
 30
0.0
  0
VERTEX
  5
4E1
100
AcDbEntity
  8
止水栓
  6
CONTINUOUS
 62
     6
100
AcDbVertex
100
AcDb2dVertex
 10
1405.799316
 20
659.505313
 30
0.0
  0
VERTEX
  5
4E2
100
AcDbEntity
  8
止水栓
  6
CONTINUOUS
 62
     6
100
AcDbVertex
100
AcDb2dVertex
 10
1406.172851
 20
659.424746
 30
0.0
  0
VERTEX
  5
4E3
100
AcDbEntity
  8
止水栓
  6
CONTINUOUS
 62
     6
100
AcDbVertex
100
AcDb2dVertex
 10
1406.558594
 20
659.36127
 30
0.0
  0
SEQEND
  5
4E4
100
AcDbEntity
  8
止水栓
  6
CONTINUOUS
 62
     6
  0
POLYLINE
  5
4E5
100
AcDbEntity
  8
止水栓
  6
CONTINUOUS
 62
     6
100
AcDb2dPolyline
 66
     1
 10
0.0
 20
0.0
 30
0.0
 70
   128
  0
VERTEX
  5
4E6
100
AcDbEntity
  8
止水栓
  6
CONTINUOUS
 62
     6
100
AcDbVertex
100
AcDb2dVertex
 10
1403.228516
 20
640.591739
 30
0.0
  0
VERTEX
  5
4E7
100
AcDbEntity
  8
止水栓
  6
CONTINUOUS
 62
     6
100
AcDbVertex
100
AcDb2dVertex
 10
1403.428711
 20
640.40375
 30
0.0
  0
VERTEX
  5
4E8
100
AcDbEntity
  8
止水栓
  6
CONTINUOUS
 62
     6
100
AcDbVertex
100
AcDb2dVertex
 10
1403.663086
 20
640.223086
 30
0.0
  0
VERTEX
  5
4E9
100
AcDbEntity
  8
止水栓
  6
CONTINUOUS
 62
     6
100
AcDbVertex
100
AcDb2dVertex
 10
1403.926758
 20
640.052188
 30
0.0
  0
VERTEX
  5
4EA
100
AcDbEntity
  8
止水栓
  6
CONTINUOUS
 62
     6
100
AcDbVertex
100
AcDb2dVertex
 10
1404.222168
 20
639.895938
 30
0.0
  0
VERTEX
  5
4EB
100
AcDbEntity
  8
止水栓
  6
CONTINUOUS
 62
     6
100
AcDbVertex
100
AcDb2dVertex
 10
1404.541992
 20
639.751895
 30
0.0
  0
VERTEX
  5
4EC
100
AcDbEntity
  8
止水栓
  6
CONTINUOUS
 62
     6
100
AcDbVertex
100
AcDb2dVertex
 10
1404.888672
 20
639.620059
 30
0.0
  0
VERTEX
  5
4ED
100
AcDbEntity
  8
止水栓
  6
CONTINUOUS
 62
     6
100
AcDbVertex
100
AcDb2dVertex
 10
1405.254883
 20
639.505313
 30
0.0
  0
VERTEX
  5
4EE
100
AcDbEntity
  8
止水栓
  6
CONTINUOUS
 62
     6
100
AcDbVertex
100
AcDb2dVertex
 10
1405.640625
 20
639.407657
 30
0.0
  0
VERTEX
  5
4EF
100
AcDbEntity
  8
止水栓
  6
CONTINUOUS
 62
     6
100
AcDbVertex
100
AcDb2dVertex
 10
1406.043457
 20
639.32709
 30
0.0
  0
VERTEX
  5
4F0
100
AcDbEntity
  8
止水栓
  6
CONTINUOUS
 62
     6
100
AcDbVertex
100
AcDb2dVertex
 10
1406.458496
 20
639.261172
 30
0.0
  0
SEQEND
  5
4F1
100
AcDbEntity
  8
止水栓
  6
CONTINUOUS
 62
     6
  0
LINE
  5
4F2
100
AcDbEntity
  8
止水栓
  6
CONTINUOUS
 62
     6
100
AcDbLine
 10
1401.5
 20
640.704043
 30
0.0
 11
1401.5
 21
662.644046
 31
0.0
  0
ARC
  5
4F3
100
AcDbEntity
  8
止水栓
  6
CONTINUOUS
 62
     6
100
AcDbCircle
 10
1502.499942
 20
698.173286
 30
0.0
 40
40.0
100
AcDbArc
 50
270.0
 51
0.0
  0
ARC
  5
4F4
100
AcDbEntity
  8
止水栓
  6
CONTINUOUS
 62
     6
100
AcDbCircle
 10
1502.499942
 20
698.173286
 30
0.0
 40
53.0
100
AcDbArc
 50
270.0
 51
0.0
  0
LINE
  5
4F5
100
AcDbEntity
  8
止水栓
  6
CONTINUOUS
 62
     6
100
AcDbLine
 10
1447.499512
 20
658.173282
 30
0.0
 11
1502.499942
 21
658.173282
 31
0.0
  0
LINE
  5
4F6
100
AcDbEntity
  8
止水栓
  6
CONTINUOUS
 62
     6
100
AcDbLine
 10
1447.499512
 20
645.173282
 30
0.0
 11
1502.499942
 21
645.173282
 31
0.0
  0
LINE
  5
4F7
100
AcDbEntity
  8
止水栓
  6
CONTINUOUS
 62
     6
100
AcDbLine
 10
1542.499942
 20
849.837324
 30
0.0
 11
1542.499942
 21
698.173286
 31
0.0
  0
LINE
  5
4F8
100
AcDbEntity
  8
止水栓
  6
CONTINUOUS
 62
     6
100
AcDbLine
 10
1555.499942
 20
825.906055
 30
0.0
 11
1555.499942
 21
698.173286
 31
0.0
  0
LINE
  5
4F9
100
AcDbEntity
  8
止水栓
  6
CONTINUOUS
 62
     6
100
AcDbLine
 10
423.730078
 20
620.6632
 30
0.0
 11
424.784246
 21
622.470523
 31
0.0
  0
LINE
  5
4FA
100
AcDbEntity
  8
止水栓
  6
CONTINUOUS
 62
     6
100
AcDbLine
 10
424.820118
 20
623.677245
 30
0.0
 11
424.784246
 21
622.470523
 31
0.0
  0
LINE
  5
4FB
100
AcDbEntity
  8
止水栓
  6
CONTINUOUS
 62
     6
100
AcDbLine
 10
423.819676
 20
623.677245
 30
0.0
 11
423.730078
 21
620.6632
 31
0.0
  0
LINE
  5
4FC
100
AcDbEntity
  8
止水栓
  6
CONTINUOUS
 62
     6
100
AcDbLine
 10
423.730078
 20
620.6632
 30
0.0
 11
423.730078
 21
614.0
 31
0.0
  0
LINE
  5
4FD
100
AcDbEntity
  8
止水栓
  6
CONTINUOUS
 62
     6
100
AcDbLine
 10
444.230078
 20
620.6632
 30
0.0
 11
444.230078
 21
614.0
 31
0.0
  0
LINE
  5
4FE
100
AcDbEntity
  8
止水栓
  6
CONTINUOUS
 62
     6
100
AcDbLine
 10
444.230078
 20
620.6632
 30
0.0
 11
443.17591
 21
622.470523
 31
0.0
  0
LINE
  5
4FF
100
AcDbEntity
  8
止水栓
  6
CONTINUOUS
 62
     6
100
AcDbLine
 10
443.140037
 20
623.677245
 30
0.0
 11
443.17591
 21
622.470523
 31
0.0
  0
LINE
  5
500
100
AcDbEntity
  8
止水栓
  6
CONTINUOUS
 62
     6
100
AcDbLine
 10
444.140479
 20
623.677245
 30
0.0
 11
444.230078
 21
620.6632
 31
0.0
  0
LINE
  5
501
100
AcDbEntity
  8
止水栓
  6
CONTINUOUS
 62
     6
100
AcDbLine
 10
444.176351
 20
622.470523
 30
0.0
 11
423.783804
 21
622.470523
 31
0.0
  0
LINE
  5
502
100
AcDbEntity
  8
止水栓
  6
CONTINUOUS
 62
     6
100
AcDbLine
 10
447.5
 20
614.0
 30
0.0
 11
420.5
 21
614.0
 31
0.0
  0
LINE
  5
503
100
AcDbEntity
  8
止水栓
  6
CONTINUOUS
 62
     6
100
AcDbLine
 10
444.3
 20
598.0
 30
0.0
 11
444.3
 21
592.32
 31
0.0
  0
LINE
  5
504
100
AcDbEntity
  8
止水栓
  6
CONTINUOUS
 62
     6
100
AcDbLine
 10
443.070516
 20
590.160516
 30
0.0
 11
443.3155
 21
598.0
 31
0.0
  0
LINE
  5
505
100
AcDbEntity
  8
止水栓
  6
CONTINUOUS
 62
     6
100
AcDbLine
 10
444.269375
 20
591.34
 30
0.0
 11
423.730625
 21
591.34
 31
0.0
  0
LINE
  5
506
100
AcDbEntity
  8
止水栓
  6
CONTINUOUS
 62
     6
100
AcDbLine
 10
444.3
 20
592.32
 30
0.0
 11
444.269375
 21
591.34
 31
0.0
  0
LINE
  5
507
100
AcDbEntity
  8
止水栓
  6
CONTINUOUS
 62
     6
100
AcDbLine
 10
444.268375
 20
591.339
 30
0.0
 11
442.769375
 21
589.84
 31
0.0
  0
LINE
  5
508
100
AcDbEntity
  8
止水栓
  6
CONTINUOUS
 62
     6
100
AcDbLine
 10
442.769375
 20
589.84
 30
0.0
 11
425.230625
 21
589.84
 31
0.0
  0
LINE
  5
509
100
AcDbEntity
  8
止水栓
  6
CONTINUOUS
 62
     6
100
AcDbLine
 10
424.929484
 20
590.160516
 30
0.0
 11
424.6845
 21
598.0
 31
0.0
  0
LINE
  5
50A
100
AcDbEntity
  8
止水栓
  6
CONTINUOUS
 62
     6
100
AcDbLine
 10
423.731625
 20
591.339
 30
0.0
 11
425.230625
 21
589.84
 31
0.0
  0
LINE
  5
50B
100
AcDbEntity
  8
止水栓
  6
CONTINUOUS
 62
     6
100
AcDbLine
 10
423.7
 20
598.0
 30
0.0
 11
423.7
 21
592.32
 31
0.0
  0
LINE
  5
50C
100
AcDbEntity
  8
止水栓
  6
CONTINUOUS
 62
     6
100
AcDbLine
 10
423.7
 20
592.32
 30
0.0
 11
423.730625
 21
591.34
 31
0.0
  0
ARC
  5
50D
100
AcDbEntity
  8
止水栓
  6
CONTINUOUS
 62
     6
100
AcDbCircle
 10
420.5
 20
600.0
 30
0.0
 40
14.0
100
AcDbArc
 50
90.0
 51
180.0
  0
LINE
  5
50E
100
AcDbEntity
  8
止水栓
  6
CONTINUOUS
 62
     6
100
AcDbLine
 10
406.5
 20
598.0
 30
0.0
 11
406.5
 21
600.0
 31
0.0
  0
ARC
  5
50F
100
AcDbEntity
  8
止水栓
  6
CONTINUOUS
 62
     6
100
AcDbCircle
 10
447.5
 20
600.0
 30
0.0
 40
14.0
100
AcDbArc
 50
0.0
 51
90.0
  0
LINE
  5
510
100
AcDbEntity
  8
止水栓
  6
CONTINUOUS
 62
     6
100
AcDbLine
 10
461.5
 20
598.0
 30
0.0
 11
461.5
 21
600.0
 31
0.0
  0
LINE
  5
511
100
AcDbEntity
  8
止水栓
  6
CONTINUOUS
 62
     6
100
AcDbLine
 10
446.000732
 20
661.680364
 30
0.0
 11
446.000732
 21
666.272649
 31
0.0
  0
LINE
  5
512
100
AcDbEntity
  8
止水栓
  6
CONTINUOUS
 62
     6
100
AcDbLine
 10
421.999268
 20
661.680364
 30
0.0
 11
421.999268
 21
666.272649
 31
0.0
  0
LINE
  5
513
100
AcDbEntity
  8
止水栓
  6
EXLTYPE2
 62
     6
100
AcDbLine
 10
356.66
 20
908.269922
 30
0.0
 11
358.467323
 21
907.215754
 31
0.0
  0
LINE
  5
514
100
AcDbEntity
  8
止水栓
  6
EXLTYPE2
 62
     6
100
AcDbLine
 10
359.674044
 20
907.179882
 30
0.0
 11
358.467323
 21
907.215754
 31
0.0
  0
LINE
  5
515
100
AcDbEntity
  8
止水栓
  6
EXLTYPE2
 62
     6
100
AcDbLine
 10
324.294768
 20
906.901899
 30
0.0
 11
334.0
 21
907.190407
 31
0.0
  0
LINE
  5
516
100
AcDbEntity
  8
止水栓
  6
EXLTYPE2
 62
     6
100
AcDbLine
 10
324.294768
 20
889.137945
 30
0.0
 11
334.0
 21
888.849438
 31
0.0
  0
LINE
  5
517
100
AcDbEntity
  8
止水栓
  6
EXLTYPE2
 62
     6
100
AcDbLine
 10
360.835129
 20
882.988943
 30
0.0
 11
368.268914
 21
882.988943
 31
0.0
  0
LINE
  5
518
100
AcDbEntity
  8
止水栓
  6
EXLTYPE2
 62
     6
100
AcDbLine
 10
360.790499
 20
913.011057
 30
0.0
 11
368.268914
 21
913.011057
 31
0.0
  0
LINE
  5
519
100
AcDbEntity
  8
止水栓
  6
EXLTYPE2
 62
     6
100
AcDbLine
 10
360.835129
 20
882.988943
 30
0.0
 11
359.674044
 21
885.0
 31
0.0
  0
LINE
  5
51A
100
AcDbEntity
  8
止水栓
  6
EXLTYPE2
 62
     6
100
AcDbLine
 10
360.790499
 20
912.933757
 30
0.0
 11
359.674044
 21
911.0
 31
0.0
  0
LINE
  5
51B
100
AcDbEntity
  8
止水栓
  6
EXLTYPE2
 62
     6
100
AcDbLine
 10
359.674044
 20
908.180324
 30
0.0
 11
356.66
 21
908.269922
 31
0.0
  0
LINE
  5
51C
100
AcDbEntity
  8
止水栓
  6
EXLTYPE2
 62
     6
100
AcDbLine
 10
324.886194
 20
907.919922
 30
0.0
 11
334.0
 21
908.190848
 31
0.0
  0
LINE
  5
51D
100
AcDbEntity
  8
止水栓
  6
EXLTYPE2
 62
     6
100
AcDbLine
 10
324.886194
 20
888.119922
 30
0.0
 11
334.0
 21
887.848996
 31
0.0
  0
LINE
  5
51E
100
AcDbEntity
  8
止水栓
  6
EXLTYPE2
 62
     6
100
AcDbLine
 10
324.16
 20
889.369922
 30
0.0
 11
324.886194
 21
888.119922
 31
0.0
  0
LINE
  5
51F
100
AcDbEntity
  8
止水栓
  6
EXLTYPE2
 62
     6
100
AcDbLine
 10
324.16
 20
889.369922
 30
0.0
 11
324.16
 21
906.669922
 31
0.0
  0
LINE
  5
520
100
AcDbEntity
  8
止水栓
  6
EXLTYPE2
 62
     6
100
AcDbLine
 10
324.16
 20
906.669922
 30
0.0
 11
324.886194
 21
907.919922
 31
0.0
  0
LINE
  5
521
100
AcDbEntity
  8
止水栓
  6
EXLTYPE2
 62
     6
100
AcDbLine
 10
324.886194
 20
888.119922
 30
0.0
 11
324.886194
 21
907.919922
 31
0.0
  0
LINE
  5
522
100
AcDbEntity
  8
止水栓
  6
EXLTYPE2
 62
     6
100
AcDbLine
 10
356.66
 20
908.269922
 30
0.0
 11
349.9968
 21
908.269922
 31
0.0
  0
LINE
  5
523
100
AcDbEntity
  8
止水栓
  6
EXLTYPE2
 62
     6
100
AcDbLine
 10
356.66
 20
887.769922
 30
0.0
 11
349.9968
 21
887.769922
 31
0.0
  0
ARC
  5
524
100
AcDbEntity
  8
止水栓
  6
EXLTYPE2
 62
     6
100
AcDbCircle
 10
366.539282
 20
909.258305
 30
0.0
 40
6.865249
100
AcDbArc
 50
156.844796
 51
213.136123
  0
LINE
  5
525
100
AcDbEntity
  8
止水栓
  6
EXLTYPE2
 62
     6
100
AcDbLine
 10
360.790499
 20
905.505553
 30
0.0
 11
368.268914
 21
905.505553
 31
0.0
  0
ARC
  5
526
100
AcDbEntity
  8
止水栓
  6
EXLTYPE2
 62
     6
100
AcDbCircle
 10
336.503105
 20
883.2
 30
0.0
 40
12.7
100
AcDbArc
 50
270.0
 51
328.561141
  0
ARC
  5
527
100
AcDbEntity
  8
止水栓
  6
EXLTYPE2
 62
     6
100
AcDbCircle
 10
325.0
 20
887.8
 30
0.0
 40
25.0
100
AcDbArc
 50
333.322579
 51
359.083228
  0
POLYLINE
  5
528
100
AcDbEntity
  8
止水栓
  6
EXLTYPE2
 62
     6
100
AcDb2dPolyline
 66
     1
 10
0.0
 20
0.0
 30
0.0
 70
   128
  0
VERTEX
  5
529
100
AcDbEntity
  8
止水栓
  6
EXLTYPE2
 62
     6
100
AcDbVertex
100
AcDb2dVertex
 10
336.503105
 20
870.5
 30
0.0
  0
VERTEX
  5
52A
100
AcDbEntity
  8
止水栓
  6
EXLTYPE2
 62
     6
100
AcDbVertex
100
AcDb2dVertex
 10
334.0
 20
870.5
 30
0.0
  0
SEQEND
  5
52B
100
AcDbEntity
  8
止水栓
  6
EXLTYPE2
 62
     6
  0
LINE
  5
52C
100
AcDbEntity
  8
止水栓
  6
EXLTYPE2
 62
     6
100
AcDbLine
 10
349.9968
 20
887.4
 30
0.0
 11
349.9968
 21
908.6
 31
0.0
  0
ARC
  5
52D
100
AcDbEntity
  8
止水栓
  6
EXLTYPE2
 62
     6
100
AcDbCircle
 10
336.503105
 20
912.8
 30
0.0
 40
12.7
100
AcDbArc
 50
31.438859
 51
90.0
  0
LINE
  5
52E
100
AcDbEntity
  8
止水栓
  6
EXLTYPE2
 62
     6
100
AcDbLine
 10
336.503105
 20
925.5
 30
0.0
 11
334.0
 21
925.5
 31
0.0
  0
ARC
  5
52F
100
AcDbEntity
  8
止水栓
  6
EXLTYPE2
 62
     6
100
AcDbCircle
 10
325.0
 20
908.2
 30
0.0
 40
25.0
100
AcDbArc
 50
0.916772
 51
26.677421
  0
ARC
  5
530
100
AcDbEntity
  8
止水栓
  6
EXLTYPE2
 62
     6
100
AcDbCircle
 10
366.539282
 20
886.78154
 30
0.0
 40
6.865249
100
AcDbArc
 50
146.863877
 51
203.155204
  0
LINE
  5
531
100
AcDbEntity
  8
止水栓
  6
EXLTYPE2
 62
     6
100
AcDbLine
 10
356.66
 20
887.769922
 30
0.0
 11
358.467323
 21
888.82409
 31
0.0
  0
LINE
  5
532
100
AcDbEntity
  8
止水栓
  6
EXLTYPE2
 62
     6
100
AcDbLine
 10
359.674044
 20
888.859963
 30
0.0
 11
358.467323
 21
888.82409
 31
0.0
  0
LINE
  5
533
100
AcDbEntity
  8
止水栓
  6
EXLTYPE2
 62
     6
100
AcDbLine
 10
359.674044
 20
887.859521
 30
0.0
 11
356.66
 21
887.769922
 31
0.0
  0
ARC
  5
534
100
AcDbEntity
  8
止水栓
  6
EXLTYPE2
 62
     6
100
AcDbCircle
 10
385.460935
 20
898.0
 30
0.0
 40
25.78689
100
AcDbArc
 50
163.078523
 51
196.858376
  0
LINE
  5
535
100
AcDbEntity
  8
止水栓
  6
EXLTYPE2
 62
     6
100
AcDbLine
 10
360.790499
 20
890.534291
 30
0.0
 11
368.268914
 21
890.534291
 31
0.0
  0
LINE
  5
536
100
AcDbEntity
  8
止水栓
  6
EXLTYPE2
 62
     6
100
AcDbLine
 10
359.674044
 20
911.0
 30
0.0
 11
359.674044
 21
885.0
 31
0.0
  0
LINE
  5
537
100
AcDbEntity
  8
止水栓
  6
EXLTYPE2
 62
     6
100
AcDbLine
 10
358.467323
 20
887.823649
 30
0.0
 11
358.467323
 21
908.216196
 31
0.0
  0
LINE
  5
538
100
AcDbEntity
  8
止水栓
  6
EXLTYPE3
 62
     6
100
AcDbLine
 10
325.84
 20
898.0
 30
0.0
 11
409.499999
 21
898.0
 31
0.0
  0
LINE
  5
539
100
AcDbEntity
  8
止水栓
  6
EXLTYPE3
 62
     6
100
AcDbLine
 10
388.999996
 20
858.520411
 30
0.0
 11
388.999996
 21
727.88098
 31
0.0
  0
POLYLINE
  5
53A
100
AcDbEntity
  8
止水栓
  6
EXLTYPE2
 62
     6
100
AcDb2dPolyline
 66
     1
 10
0.0
 20
0.0
 30
0.0
 70
   128
  0
VERTEX
  5
53B
100
AcDbEntity
  8
止水栓
  6
EXLTYPE2
 62
     6
100
AcDbVertex
100
AcDb2dVertex
 10
1366.504883
 20
869.219696
 30
0.0
  0
VERTEX
  5
53C
100
AcDbEntity
  8
止水栓
  6
EXLTYPE2
 62
     6
100
AcDbVertex
100
AcDb2dVertex
 10
1366.514648
 20
868.782684
 30
0.0
  0
VERTEX
  5
53D
100
AcDbEntity
  8
止水栓
  6
EXLTYPE2
 62
     6
100
AcDbVertex
100
AcDb2dVertex
 10
1366.541504
 20
868.350555
 30
0.0
  0
VERTEX
  5
53E
100
AcDbEntity
  8
止水栓
  6
EXLTYPE2
 62
     6
100
AcDbVertex
100
AcDb2dVertex
 10
1366.587891
 20
867.925751
 30
0.0
  0
VERTEX
  5
53F
100
AcDbEntity
  8
止水栓
  6
EXLTYPE2
 62
     6
100
AcDbVertex
100
AcDb2dVertex
 10
1366.653809
 20
867.510712
 30
0.0
  0
VERTEX
  5
540
100
AcDbEntity
  8
止水栓
  6
EXLTYPE2
 62
     6
100
AcDbVertex
100
AcDb2dVertex
 10
1366.734375
 20
867.110321
 30
0.0
  0
VERTEX
  5
541
100
AcDbEntity
  8
止水栓
  6
EXLTYPE2
 62
     6
100
AcDbVertex
100
AcDb2dVertex
 10
1366.832031
 20
866.724579
 30
0.0
  0
VERTEX
  5
542
100
AcDbEntity
  8
止水栓
  6
EXLTYPE2
 62
     6
100
AcDbVertex
100
AcDb2dVertex
 10
1366.949219
 20
866.355926
 30
0.0
  0
VERTEX
  5
543
100
AcDbEntity
  8
止水栓
  6
EXLTYPE2
 62
     6
100
AcDbVertex
100
AcDb2dVertex
 10
1367.078613
 20
866.011688
 30
0.0
  0
VERTEX
  5
544
100
AcDbEntity
  8
止水栓
  6
EXLTYPE2
 62
     6
100
AcDbVertex
100
AcDb2dVertex
 10
1367.222656
 20
865.689423
 30
0.0
  0
VERTEX
  5
545
100
AcDbEntity
  8
止水栓
  6
EXLTYPE2
 62
     6
100
AcDbVertex
100
AcDb2dVertex
 10
1367.381348
 20
865.396454
 30
0.0
  0
VERTEX
  5
546
100
AcDbEntity
  8
止水栓
  6
EXLTYPE2
 62
     6
100
AcDbVertex
100
AcDb2dVertex
 10
1367.549805
 20
865.130341
 30
0.0
  0
VERTEX
  5
547
100
AcDbEntity
  8
止水栓
  6
EXLTYPE2
 62
     6
100
AcDbVertex
100
AcDb2dVertex
 10
1367.730469
 20
864.898407
 30
0.0
  0
VERTEX
  5
548
100
AcDbEntity
  8
止水栓
  6
EXLTYPE2
 62
     6
100
AcDbVertex
100
AcDb2dVertex
 10
1367.918457
 20
864.69577
 30
0.0
  0
VERTEX
  5
549
100
AcDbEntity
  8
止水栓
  6
EXLTYPE2
 62
     6
100
AcDbVertex
100
AcDb2dVertex
 10
1368.116211
 20
864.529755
 30
0.0
  0
VERTEX
  5
54A
100
AcDbEntity
  8
止水栓
  6
EXLTYPE2
 62
     6
100
AcDbVertex
100
AcDb2dVertex
 10
1368.321289
 20
864.397919
 30
0.0
  0
VERTEX
  5
54B
100
AcDbEntity
  8
止水栓
  6
EXLTYPE2
 62
     6
100
AcDbVertex
100
AcDb2dVertex
 10
1368.528809
 20
864.305145
 30
0.0
  0
VERTEX
  5
54C
100
AcDbEntity
  8
止水栓
  6
EXLTYPE2
 62
     6
100
AcDbVertex
100
AcDb2dVertex
 10
1368.741211
 20
864.246551
 30
0.0
  0
VERTEX
  5
54D
100
AcDbEntity
  8
止水栓
  6
EXLTYPE2
 62
     6
100
AcDbVertex
100
AcDb2dVertex
 10
1368.953613
 20
864.229462
 30
0.0
  0
VERTEX
  5
54E
100
AcDbEntity
  8
止水栓
  6
EXLTYPE2
 62
     6
100
AcDbVertex
100
AcDb2dVertex
 10
1369.168457
 20
864.248993
 30
0.0
  0
VERTEX
  5
54F
100
AcDbEntity
  8
止水栓
  6
EXLTYPE2
 62
     6
100
AcDbVertex
100
AcDb2dVertex
 10
1369.380859
 20
864.305145
 30
0.0
  0
VERTEX
  5
550
100
AcDbEntity
  8
止水栓
  6
EXLTYPE2
 62
     6
100
AcDbVertex
100
AcDb2dVertex
 10
1369.588379
 20
864.397919
 30
0.0
  0
VERTEX
  5
551
100
AcDbEntity
  8
止水栓
  6
EXLTYPE2
 62
     6
100
AcDbVertex
100
AcDb2dVertex
 10
1369.793457
 20
864.529755
 30
0.0
  0
VERTEX
  5
552
100
AcDbEntity
  8
止水栓
  6
EXLTYPE2
 62
     6
100
AcDbVertex
100
AcDb2dVertex
 10
1369.991211
 20
864.69577
 30
0.0
  0
VERTEX
  5
553
100
AcDbEntity
  8
止水栓
  6
EXLTYPE2
 62
     6
100
AcDbVertex
100
AcDb2dVertex
 10
1370.179199
 20
864.898407
 30
0.0
  0
VERTEX
  5
554
100
AcDbEntity
  8
止水栓
  6
EXLTYPE2
 62
     6
100
AcDbVertex
100
AcDb2dVertex
 10
1370.359863
 20
865.132782
 30
0.0
  0
VERTEX
  5
555
100
AcDbEntity
  8
止水栓
  6
EXLTYPE2
 62
     6
100
AcDbVertex
100
AcDb2dVertex
 10
1370.52832
 20
865.396454
 30
0.0
  0
VERTEX
  5
556
100
AcDbEntity
  8
止水栓
  6
EXLTYPE2
 62
     6
100
AcDbVertex
100
AcDb2dVertex
 10
1370.687012
 20
865.689423
 30
0.0
  0
VERTEX
  5
557
100
AcDbEntity
  8
止水栓
  6
EXLTYPE2
 62
     6
100
AcDbVertex
100
AcDb2dVertex
 10
1370.831055
 20
866.011688
 30
0.0
  0
VERTEX
  5
558
100
AcDbEntity
  8
止水栓
  6
EXLTYPE2
 62
     6
100
AcDbVertex
100
AcDb2dVertex
 10
1370.960449
 20
866.355926
 30
0.0
  0
VERTEX
  5
559
100
AcDbEntity
  8
止水栓
  6
EXLTYPE2
 62
     6
100
AcDbVertex
100
AcDb2dVertex
 10
1371.075195
 20
866.724579
 30
0.0
  0
VERTEX
  5
55A
100
AcDbEntity
  8
止水栓
  6
EXLTYPE2
 62
     6
100
AcDbVertex
100
AcDb2dVertex
 10
1371.175293
 20
867.110321
 30
0.0
  0
VERTEX
  5
55B
100
AcDbEntity
  8
止水栓
  6
EXLTYPE2
 62
     6
100
AcDbVertex
100
AcDb2dVertex
 10
1371.255859
 20
867.513153
 30
0.0
  0
VERTEX
  5
55C
100
AcDbEntity
  8
止水栓
  6
EXLTYPE2
 62
     6
100
AcDbVertex
100
AcDb2dVertex
 10
1371.321777
 20
867.928192
 30
0.0
  0
VERTEX
  5
55D
100
AcDbEntity
  8
止水栓
  6
EXLTYPE2
 62
     6
100
AcDbVertex
100
AcDb2dVertex
 10
1371.368164
 20
868.352997
 30
0.0
  0
VERTEX
  5
55E
100
AcDbEntity
  8
止水栓
  6
EXLTYPE2
 62
     6
100
AcDbVertex
100
AcDb2dVertex
 10
1371.39502
 20
868.785126
 30
0.0
  0
VERTEX
  5
55F
100
AcDbEntity
  8
止水栓
  6
EXLTYPE2
 62
     6
100
AcDbVertex
100
AcDb2dVertex
 10
1371.404785
 20
869.219696
 30
0.0
  0
VERTEX
  5
560
100
AcDbEntity
  8
止水栓
  6
EXLTYPE2
 62
     6
100
AcDbVertex
100
AcDb2dVertex
 10
1371.39502
 20
869.654266
 30
0.0
  0
VERTEX
  5
561
100
AcDbEntity
  8
止水栓
  6
EXLTYPE2
 62
     6
100
AcDbVertex
100
AcDb2dVertex
 10
1371.365723
 20
870.086395
 30
0.0
  0
VERTEX
  5
562
100
AcDbEntity
  8
止水栓
  6
EXLTYPE2
 62
     6
100
AcDbVertex
100
AcDb2dVertex
 10
1371.319336
 20
870.5112
 30
0.0
  0
VERTEX
  5
563
100
AcDbEntity
  8
止水栓
  6
EXLTYPE2
 62
     6
100
AcDbVertex
100
AcDb2dVertex
 10
1371.255859
 20
870.926239
 30
0.0
  0
VERTEX
  5
564
100
AcDbEntity
  8
止水栓
  6
EXLTYPE2
 62
     6
100
AcDbVertex
100
AcDb2dVertex
 10
1371.175293
 20
871.329071
 30
0.0
  0
VERTEX
  5
565
100
AcDbEntity
  8
止水栓
  6
EXLTYPE2
 62
     6
100
AcDbVertex
100
AcDb2dVertex
 10
1371.075195
 20
871.714813
 30
0.0
  0
VERTEX
  5
566
100
AcDbEntity
  8
止水栓
  6
EXLTYPE2
 62
     6
100
AcDbVertex
100
AcDb2dVertex
 10
1370.960449
 20
872.081024
 30
0.0
  0
VERTEX
  5
567
100
AcDbEntity
  8
止水栓
  6
EXLTYPE2
 62
     6
100
AcDbVertex
100
AcDb2dVertex
 10
1370.831055
 20
872.427704
 30
0.0
  0
VERTEX
  5
568
100
AcDbEntity
  8
止水栓
  6
EXLTYPE2
 62
     6
100
AcDbVertex
100
AcDb2dVertex
 10
1370.687012
 20
872.747528
 30
0.0
  0
VERTEX
  5
569
100
AcDbEntity
  8
止水栓
  6
EXLTYPE2
 62
     6
100
AcDbVertex
100
AcDb2dVertex
 10
1370.52832
 20
873.042938
 30
0.0
  0
VERTEX
  5
56A
100
AcDbEntity
  8
止水栓
  6
EXLTYPE2
 62
     6
100
AcDbVertex
100
AcDb2dVertex
 10
1370.359863
 20
873.30661
 30
0.0
  0
VERTEX
  5
56B
100
AcDbEntity
  8
止水栓
  6
EXLTYPE2
 62
     6
100
AcDbVertex
100
AcDb2dVertex
 10
1370.179199
 20
873.540985
 30
0.0
  0
VERTEX
  5
56C
100
AcDbEntity
  8
止水栓
  6
EXLTYPE2
 62
     6
100
AcDbVertex
100
AcDb2dVertex
 10
1369.991211
 20
873.74118
 30
0.0
  0
VERTEX
  5
56D
100
AcDbEntity
  8
止水栓
  6
EXLTYPE2
 62
     6
100
AcDbVertex
100
AcDb2dVertex
 10
1369.793457
 20
873.909637
 30
0.0
  0
VERTEX
  5
56E
100
AcDbEntity
  8
止水栓
  6
EXLTYPE2
 62
     6
100
AcDbVertex
100
AcDb2dVertex
 10
1369.588379
 20
874.039032
 30
0.0
  0
VERTEX
  5
56F
100
AcDbEntity
  8
止水栓
  6
EXLTYPE2
 62
     6
100
AcDbVertex
100
AcDb2dVertex
 10
1369.380859
 20
874.134247
 30
0.0
  0
VERTEX
  5
570
100
AcDbEntity
  8
止水栓
  6
EXLTYPE2
 62
     6
100
AcDbVertex
100
AcDb2dVertex
 10
1369.168457
 20
874.190399
 30
0.0
  0
VERTEX
  5
571
100
AcDbEntity
  8
止水栓
  6
EXLTYPE2
 62
     6
100
AcDbVertex
100
AcDb2dVertex
 10
1368.953613
 20
874.20993
 30
0.0
  0
VERTEX
  5
572
100
AcDbEntity
  8
止水栓
  6
EXLTYPE2
 62
     6
100
AcDbVertex
100
AcDb2dVertex
 10
1368.741211
 20
874.190399
 30
0.0
  0
VERTEX
  5
573
100
AcDbEntity
  8
止水栓
  6
EXLTYPE2
 62
     6
100
AcDbVertex
100
AcDb2dVertex
 10
1368.528809
 20
874.134247
 30
0.0
  0
VERTEX
  5
574
100
AcDbEntity
  8
止水栓
  6
EXLTYPE2
 62
     6
100
AcDbVertex
100
AcDb2dVertex
 10
1368.321289
 20
874.039032
 30
0.0
  0
VERTEX
  5
575
100
AcDbEntity
  8
止水栓
  6
EXLTYPE2
 62
     6
100
AcDbVertex
100
AcDb2dVertex
 10
1368.116211
 20
873.909637
 30
0.0
  0
VERTEX
  5
576
100
AcDbEntity
  8
止水栓
  6
EXLTYPE2
 62
     6
100
AcDbVertex
100
AcDb2dVertex
 10
1367.918457
 20
873.74118
 30
0.0
  0
SEQEND
  5
577
100
AcDbEntity
  8
止水栓
  6
EXLTYPE2
 62
     6
  0
LINE
  5
578
100
AcDbEntity
  8
止水栓
  6
EXLTYPE2
 62
     6
100
AcDbLine
 10
1368.030762
 20
863.470184
 30
0.0
 11
1389.969238
 21
863.470184
 31
0.0
  0
LINE
  5
579
100
AcDbEntity
  8
止水栓
  6
EXLTYPE2
 62
     6
100
AcDbLine
 10
1368.5
 20
858.470184
 30
0.0
 11
1389.5
 21
858.470184
 31
0.0
  0
ARC
  5
57A
100
AcDbEntity
  8
止水栓
  6
EXLTYPE2
 62
     6
100
AcDbCircle
 10
1377.249512
 20
869.471161
 30
0.0
 40
10.998535
100
AcDbArc
 50
146.94841
 51
213.059082
  0
LINE
  5
57B
100
AcDbEntity
  8
止水栓
  6
EXLTYPE2
 62
     6
100
AcDbLine
 10
1368.5
 20
863.470184
 30
0.0
 11
1368.5
 21
858.470184
 31
0.0
  0
POLYLINE
  5
57C
100
AcDbEntity
  8
止水栓
  6
EXLTYPE2
 62
     6
100
AcDb2dPolyline
 66
     1
 10
0.0
 20
0.0
 30
0.0
 70
   128
  0
VERTEX
  5
57D
100
AcDbEntity
  8
止水栓
  6
EXLTYPE2
 62
     6
100
AcDbVertex
100
AcDb2dVertex
 10
1386.602539
 20
869.212372
 30
0.0
  0
VERTEX
  5
57E
100
AcDbEntity
  8
止水栓
  6
EXLTYPE2
 62
     6
100
AcDbVertex
100
AcDb2dVertex
 10
1386.612305
 20
868.80954
 30
0.0
  0
VERTEX
  5
57F
100
AcDbEntity
  8
止水栓
  6
EXLTYPE2
 62
     6
100
AcDbVertex
100
AcDb2dVertex
 10
1386.641602
 20
868.409149
 30
0.0
  0
VERTEX
  5
580
100
AcDbEntity
  8
止水栓
  6
EXLTYPE2
 62
     6
100
AcDbVertex
100
AcDb2dVertex
 10
1386.687988
 20
868.013641
 30
0.0
  0
VERTEX
  5
581
100
AcDbEntity
  8
止水栓
  6
EXLTYPE2
 62
     6
100
AcDbVertex
100
AcDb2dVertex
 10
1386.751465
 20
867.630341
 30
0.0
  0
VERTEX
  5
582
100
AcDbEntity
  8
止水栓
  6
EXLTYPE2
 62
     6
100
AcDbVertex
100
AcDb2dVertex
 10
1386.832031
 20
867.256805
 30
0.0
  0
VERTEX
  5
583
100
AcDbEntity
  8
止水栓
  6
EXLTYPE2
 62
     6
100
AcDbVertex
100
AcDb2dVertex
 10
1386.932129
 20
866.897919
 30
0.0
  0
VERTEX
  5
584
100
AcDbEntity
  8
止水栓
  6
EXLTYPE2
 62
     6
100
AcDbVertex
100
AcDb2dVertex
 10
1387.046875
 20
866.558563
 30
0.0
  0
VERTEX
  5
585
100
AcDbEntity
  8
止水栓
  6
EXLTYPE2
 62
     6
100
AcDbVertex
100
AcDb2dVertex
 10
1387.17627
 20
866.236298
 30
0.0
  0
VERTEX
  5
586
100
AcDbEntity
  8
止水栓
  6
EXLTYPE2
 62
     6
100
AcDbVertex
100
AcDb2dVertex
 10
1387.320313
 20
865.938446
 30
0.0
  0
VERTEX
  5
587
100
AcDbEntity
  8
止水栓
  6
EXLTYPE2
 62
     6
100
AcDbVertex
100
AcDb2dVertex
 10
1387.479004
 20
865.66745
 30
0.0
  0
VERTEX
  5
588
100
AcDbEntity
  8
止水栓
  6
EXLTYPE2
 62
     6
100
AcDbVertex
100
AcDb2dVertex
 10
1387.647461
 20
865.420868
 30
0.0
  0
VERTEX
  5
589
100
AcDbEntity
  8
止水栓
  6
EXLTYPE2
 62
     6
100
AcDbVertex
100
AcDb2dVertex
 10
1387.828125
 20
865.203583
 30
0.0
  0
VERTEX
  5
58A
100
AcDbEntity
  8
止水栓
  6
EXLTYPE2
 62
     6
100
AcDbVertex
100
AcDb2dVertex
 10
1388.018555
 20
865.015594
 30
0.0
  0
VERTEX
  5
58B
100
AcDbEntity
  8
止水栓
  6
EXLTYPE2
 62
     6
100
AcDbVertex
100
AcDb2dVertex
 10
1388.216309
 20
864.861786
 30
0.0
  0
VERTEX
  5
58C
100
AcDbEntity
  8
止水栓
  6
EXLTYPE2
 62
     6
100
AcDbVertex
100
AcDb2dVertex
 10
1388.418945
 20
864.742157
 30
0.0
  0
VERTEX
  5
58D
100
AcDbEntity
  8
止水栓
  6
EXLTYPE2
 62
     6
100
AcDbVertex
100
AcDb2dVertex
 10
1388.628906
 20
864.654266
 30
0.0
  0
VERTEX
  5
58E
100
AcDbEntity
  8
止水栓
  6
EXLTYPE2
 62
     6
100
AcDbVertex
100
AcDb2dVertex
 10
1388.838867
 20
864.600555
 30
0.0
  0
VERTEX
  5
58F
100
AcDbEntity
  8
止水栓
  6
EXLTYPE2
 62
     6
100
AcDbVertex
100
AcDb2dVertex
 10
1389.053711
 20
864.583466
 30
0.0
  0
VERTEX
  5
590
100
AcDbEntity
  8
止水栓
  6
EXLTYPE2
 62
     6
100
AcDbVertex
100
AcDb2dVertex
 10
1389.266113
 20
864.600555
 30
0.0
  0
VERTEX
  5
591
100
AcDbEntity
  8
止水栓
  6
EXLTYPE2
 62
     6
100
AcDbVertex
100
AcDb2dVertex
 10
1389.478516
 20
864.654266
 30
0.0
  0
VERTEX
  5
592
100
AcDbEntity
  8
止水栓
  6
EXLTYPE2
 62
     6
100
AcDbVertex
100
AcDb2dVertex
 10
1389.688477
 20
864.742157
 30
0.0
  0
VERTEX
  5
593
100
AcDbEntity
  8
止水栓
  6
EXLTYPE2
 62
     6
100
AcDbVertex
100
AcDb2dVertex
 10
1389.891113
 20
864.861786
 30
0.0
  0
VERTEX
  5
594
100
AcDbEntity
  8
止水栓
  6
EXLTYPE2
 62
     6
100
AcDbVertex
100
AcDb2dVertex
 10
1390.088867
 20
865.018036
 30
0.0
  0
VERTEX
  5
595
100
AcDbEntity
  8
止水栓
  6
EXLTYPE2
 62
     6
100
AcDbVertex
100
AcDb2dVertex
 10
1390.276855
 20
865.203583
 30
0.0
  0
VERTEX
  5
596
100
AcDbEntity
  8
止水栓
  6
EXLTYPE2
 62
     6
100
AcDbVertex
100
AcDb2dVertex
 10
1390.45752
 20
865.420868
 30
0.0
  0
VERTEX
  5
597
100
AcDbEntity
  8
止水栓
  6
EXLTYPE2
 62
     6
100
AcDbVertex
100
AcDb2dVertex
 10
1390.628418
 20
865.665008
 30
0.0
  0
VERTEX
  5
598
100
AcDbEntity
  8
止水栓
  6
EXLTYPE2
 62
     6
100
AcDbVertex
100
AcDb2dVertex
 10
1390.784668
 20
865.938446
 30
0.0
  0
VERTEX
  5
599
100
AcDbEntity
  8
止水栓
  6
EXLTYPE2
 62
     6
100
AcDbVertex
100
AcDb2dVertex
 10
1390.928711
 20
866.236298
 30
0.0
  0
VERTEX
  5
59A
100
AcDbEntity
  8
止水栓
  6
EXLTYPE2
 62
     6
100
AcDbVertex
100
AcDb2dVertex
 10
1391.060547
 20
866.558563
 30
0.0
  0
VERTEX
  5
59B
100
AcDbEntity
  8
止水栓
  6
EXLTYPE2
 62
     6
100
AcDbVertex
100
AcDb2dVertex
 10
1391.175293
 20
866.897919
 30
0.0
  0
VERTEX
  5
59C
100
AcDbEntity
  8
止水栓
  6
EXLTYPE2
 62
     6
100
AcDbVertex
100
AcDb2dVertex
 10
1391.272949
 20
867.256805
 30
0.0
  0
VERTEX
  5
59D
100
AcDbEntity
  8
止水栓
  6
EXLTYPE2
 62
     6
100
AcDbVertex
100
AcDb2dVertex
 10
1391.353516
 20
867.627899
 30
0.0
  0
VERTEX
  5
59E
100
AcDbEntity
  8
止水栓
  6
EXLTYPE2
 62
     6
100
AcDbVertex
100
AcDb2dVertex
 10
1391.419434
 20
868.013641
 30
0.0
  0
VERTEX
  5
59F
100
AcDbEntity
  8
止水栓
  6
EXLTYPE2
 62
     6
100
AcDbVertex
100
AcDb2dVertex
 10
1391.46582
 20
868.409149
 30
0.0
  0
VERTEX
  5
5A0
100
AcDbEntity
  8
止水栓
  6
EXLTYPE2
 62
     6
100
AcDbVertex
100
AcDb2dVertex
 10
1391.492676
 20
868.80954
 30
0.0
  0
VERTEX
  5
5A1
100
AcDbEntity
  8
止水栓
  6
EXLTYPE2
 62
     6
100
AcDbVertex
100
AcDb2dVertex
 10
1391.502441
 20
869.212372
 30
0.0
  0
VERTEX
  5
5A2
100
AcDbEntity
  8
止水栓
  6
EXLTYPE2
 62
     6
100
AcDbVertex
100
AcDb2dVertex
 10
1391.492676
 20
869.615204
 30
0.0
  0
VERTEX
  5
5A3
100
AcDbEntity
  8
止水栓
  6
EXLTYPE2
 62
     6
100
AcDbVertex
100
AcDb2dVertex
 10
1391.46582
 20
870.015594
 30
0.0
  0
VERTEX
  5
5A4
100
AcDbEntity
  8
止水栓
  6
EXLTYPE2
 62
     6
100
AcDbVertex
100
AcDb2dVertex
 10
1391.419434
 20
870.411102
 30
0.0
  0
VERTEX
  5
5A5
100
AcDbEntity
  8
止水栓
  6
EXLTYPE2
 62
     6
100
AcDbVertex
100
AcDb2dVertex
 10
1391.355957
 20
870.796844
 30
0.0
  0
VERTEX
  5
5A6
100
AcDbEntity
  8
止水栓
  6
EXLTYPE2
 62
     6
100
AcDbVertex
100
AcDb2dVertex
 10
1391.272949
 20
871.17038
 30
0.0
  0
VERTEX
  5
5A7
100
AcDbEntity
  8
止水栓
  6
EXLTYPE2
 62
     6
100
AcDbVertex
100
AcDb2dVertex
 10
1391.175293
 20
871.529266
 30
0.0
  0
VERTEX
  5
5A8
100
AcDbEntity
  8
止水栓
  6
EXLTYPE2
 62
     6
100
AcDbVertex
100
AcDb2dVertex
 10
1391.060547
 20
871.868622
 30
0.0
  0
VERTEX
  5
5A9
100
AcDbEntity
  8
止水栓
  6
EXLTYPE2
 62
     6
100
AcDbVertex
100
AcDb2dVertex
 10
1390.928711
 20
872.190887
 30
0.0
  0
VERTEX
  5
5AA
100
AcDbEntity
  8
止水栓
  6
EXLTYPE2
 62
     6
100
AcDbVertex
100
AcDb2dVertex
 10
1390.784668
 20
872.486298
 30
0.0
  0
VERTEX
  5
5AB
100
AcDbEntity
  8
止水栓
  6
EXLTYPE2
 62
     6
100
AcDbVertex
100
AcDb2dVertex
 10
1390.628418
 20
872.759735
 30
0.0
  0
VERTEX
  5
5AC
100
AcDbEntity
  8
止水栓
  6
EXLTYPE2
 62
     6
100
AcDbVertex
100
AcDb2dVertex
 10
1390.45752
 20
873.006317
 30
0.0
  0
VERTEX
  5
5AD
100
AcDbEntity
  8
止水栓
  6
EXLTYPE2
 62
     6
100
AcDbVertex
100
AcDb2dVertex
 10
1390.279297
 20
873.223602
 30
0.0
  0
VERTEX
  5
5AE
100
AcDbEntity
  8
止水栓
  6
EXLTYPE2
 62
     6
100
AcDbVertex
100
AcDb2dVertex
 10
1390.088867
 20
873.409149
 30
0.0
  0
VERTEX
  5
5AF
100
AcDbEntity
  8
止水栓
  6
EXLTYPE2
 62
     6
100
AcDbVertex
100
AcDb2dVertex
 10
1389.891113
 20
873.562958
 30
0.0
  0
VERTEX
  5
5B0
100
AcDbEntity
  8
止水栓
  6
EXLTYPE2
 62
     6
100
AcDbVertex
100
AcDb2dVertex
 10
1389.688477
 20
873.685028
 30
0.0
  0
VERTEX
  5
5B1
100
AcDbEntity
  8
止水栓
  6
EXLTYPE2
 62
     6
100
AcDbVertex
100
AcDb2dVertex
 10
1389.478516
 20
873.772919
 30
0.0
  0
VERTEX
  5
5B2
100
AcDbEntity
  8
止水栓
  6
EXLTYPE2
 62
     6
100
AcDbVertex
100
AcDb2dVertex
 10
1389.266113
 20
873.82663
 30
0.0
  0
VERTEX
  5
5B3
100
AcDbEntity
  8
止水栓
  6
EXLTYPE2
 62
     6
100
AcDbVertex
100
AcDb2dVertex
 10
1389.053711
 20
873.843719
 30
0.0
  0
VERTEX
  5
5B4
100
AcDbEntity
  8
止水栓
  6
EXLTYPE2
 62
     6
100
AcDbVertex
100
AcDb2dVertex
 10
1388.838867
 20
873.824188
 30
0.0
  0
VERTEX
  5
5B5
100
AcDbEntity
  8
止水栓
  6
EXLTYPE2
 62
     6
100
AcDbVertex
100
AcDb2dVertex
 10
1388.628906
 20
873.772919
 30
0.0
  0
VERTEX
  5
5B6
100
AcDbEntity
  8
止水栓
  6
EXLTYPE2
 62
     6
100
AcDbVertex
100
AcDb2dVertex
 10
1388.418945
 20
873.685028
 30
0.0
  0
VERTEX
  5
5B7
100
AcDbEntity
  8
止水栓
  6
EXLTYPE2
 62
     6
100
AcDbVertex
100
AcDb2dVertex
 10
1388.216309
 20
873.562958
 30
0.0
  0
VERTEX
  5
5B8
100
AcDbEntity
  8
止水栓
  6
EXLTYPE2
 62
     6
100
AcDbVertex
100
AcDb2dVertex
 10
1388.018555
 20
873.409149
 30
0.0
  0
SEQEND
  5
5B9
100
AcDbEntity
  8
止水栓
  6
EXLTYPE2
 62
     6
  0
LINE
  5
5BA
100
AcDbEntity
  8
止水栓
  6
EXLTYPE2
 62
     6
100
AcDbLine
 10
1389.5
 20
863.470184
 30
0.0
 11
1389.5
 21
858.470184
 31
0.0
  0
POLYLINE
  5
5BB
100
AcDbEntity
  8
止水栓
  6
EXLTYPE2
 62
     6
100
AcDb2dPolyline
 66
     1
 10
0.0
 20
0.0
 30
0.0
 70
   128
  0
VERTEX
  5
5BC
100
AcDbEntity
  8
止水栓
  6
EXLTYPE2
 62
     6
100
AcDbVertex
100
AcDb2dVertex
 10
1379.0
 20
863.685028
 30
0.0
  0
VERTEX
  5
5BD
100
AcDbEntity
  8
止水栓
  6
EXLTYPE2
 62
     6
100
AcDbVertex
100
AcDb2dVertex
 10
1379.498047
 20
863.707001
 30
0.0
  0
VERTEX
  5
5BE
100
AcDbEntity
  8
止水栓
  6
EXLTYPE2
 62
     6
100
AcDbVertex
100
AcDb2dVertex
 10
1379.993652
 20
863.772919
 30
0.0
  0
VERTEX
  5
5BF
100
AcDbEntity
  8
止水栓
  6
EXLTYPE2
 62
     6
100
AcDbVertex
100
AcDb2dVertex
 10
1380.481934
 20
863.875458
 30
0.0
  0
VERTEX
  5
5C0
100
AcDbEntity
  8
止水栓
  6
EXLTYPE2
 62
     6
100
AcDbVertex
100
AcDb2dVertex
 10
1380.967773
 20
864.021942
 30
0.0
  0
VERTEX
  5
5C1
100
AcDbEntity
  8
止水栓
  6
EXLTYPE2
 62
     6
100
AcDbVertex
100
AcDb2dVertex
 10
1381.436523
 20
864.207489
 30
0.0
  0
VERTEX
  5
5C2
100
AcDbEntity
  8
止水栓
  6
EXLTYPE2
 62
     6
100
AcDbVertex
100
AcDb2dVertex
 10
1381.888184
 20
864.429657
 30
0.0
  0
VERTEX
  5
5C3
100
AcDbEntity
  8
止水栓
  6
EXLTYPE2
 62
     6
100
AcDbVertex
100
AcDb2dVertex
 10
1382.317871
 20
864.690887
 30
0.0
  0
VERTEX
  5
5C4
100
AcDbEntity
  8
止水栓
  6
EXLTYPE2
 62
     6
100
AcDbVertex
100
AcDb2dVertex
 10
1382.720703
 20
864.986298
 30
0.0
  0
VERTEX
  5
5C5
100
AcDbEntity
  8
止水栓
  6
EXLTYPE2
 62
     6
100
AcDbVertex
100
AcDb2dVertex
 10
1383.09668
 20
865.313446
 30
0.0
  0
VERTEX
  5
5C6
100
AcDbEntity
  8
止水栓
  6
EXLTYPE2
 62
     6
100
AcDbVertex
100
AcDb2dVertex
 10
1383.438477
 20
865.672333
 30
0.0
  0
VERTEX
  5
5C7
100
AcDbEntity
  8
止水栓
  6
EXLTYPE2
 62
     6
100
AcDbVertex
100
AcDb2dVertex
 10
1383.748535
 20
866.058075
 30
0.0
  0
VERTEX
  5
5C8
100
AcDbEntity
  8
止水栓
  6
EXLTYPE2
 62
     6
100
AcDbVertex
100
AcDb2dVertex
 10
1384.021973
 20
866.46579
 30
0.0
  0
VERTEX
  5
5C9
100
AcDbEntity
  8
止水栓
  6
EXLTYPE2
 62
     6
100
AcDbVertex
100
AcDb2dVertex
 10
1384.258789
 20
866.895477
 30
0.0
  0
VERTEX
  5
5CA
100
AcDbEntity
  8
止水栓
  6
EXLTYPE2
 62
     6
100
AcDbVertex
100
AcDb2dVertex
 10
1384.45166
 20
867.344696
 30
0.0
  0
VERTEX
  5
5CB
100
AcDbEntity
  8
止水栓
  6
EXLTYPE2
 62
     6
100
AcDbVertex
100
AcDb2dVertex
 10
1384.605469
 20
867.808563
 30
0.0
  0
VERTEX
  5
5CC
100
AcDbEntity
  8
止水栓
  6
EXLTYPE2
 62
     6
100
AcDbVertex
100
AcDb2dVertex
 10
1384.715332
 20
868.282196
 30
0.0
  0
VERTEX
  5
5CD
100
AcDbEntity
  8
止水栓
  6
EXLTYPE2
 62
     6
100
AcDbVertex
100
AcDb2dVertex
 10
1384.78125
 20
868.763153
 30
0.0
  0
VERTEX
  5
5CE
100
AcDbEntity
  8
止水栓
  6
EXLTYPE2
 62
     6
100
AcDbVertex
100
AcDb2dVertex
 10
1384.805664
 20
869.246551
 30
0.0
  0
VERTEX
  5
5CF
100
AcDbEntity
  8
止水栓
  6
EXLTYPE2
 62
     6
100
AcDbVertex
100
AcDb2dVertex
 10
1384.78125
 20
869.732391
 30
0.0
  0
VERTEX
  5
5D0
100
AcDbEntity
  8
止水栓
  6
EXLTYPE2
 62
     6
100
AcDbVertex
100
AcDb2dVertex
 10
1384.715332
 20
870.213348
 30
0.0
  0
VERTEX
  5
5D1
100
AcDbEntity
  8
止水栓
  6
EXLTYPE2
 62
     6
100
AcDbVertex
100
AcDb2dVertex
 10
1384.605469
 20
870.686981
 30
0.0
  0
VERTEX
  5
5D2
100
AcDbEntity
  8
止水栓
  6
EXLTYPE2
 62
     6
100
AcDbVertex
100
AcDb2dVertex
 10
1384.45166
 20
871.148407
 30
0.0
  0
VERTEX
  5
5D3
100
AcDbEntity
  8
止水栓
  6
EXLTYPE2
 62
     6
100
AcDbVertex
100
AcDb2dVertex
 10
1384.258789
 20
871.597626
 30
0.0
  0
VERTEX
  5
5D4
100
AcDbEntity
  8
止水栓
  6
EXLTYPE2
 62
     6
100
AcDbVertex
100
AcDb2dVertex
 10
1384.021973
 20
872.027313
 30
0.0
  0
VERTEX
  5
5D5
100
AcDbEntity
  8
止水栓
  6
EXLTYPE2
 62
     6
100
AcDbVertex
100
AcDb2dVertex
 10
1383.748535
 20
872.437469
 30
0.0
  0
VERTEX
  5
5D6
100
AcDbEntity
  8
止水栓
  6
EXLTYPE2
 62
     6
100
AcDbVertex
100
AcDb2dVertex
 10
1383.438477
 20
872.82077
 30
0.0
  0
VERTEX
  5
5D7
100
AcDbEntity
  8
止水栓
  6
EXLTYPE2
 62
     6
100
AcDbVertex
100
AcDb2dVertex
 10
1383.09668
 20
873.179657
 30
0.0
  0
VERTEX
  5
5D8
100
AcDbEntity
  8
止水栓
  6
EXLTYPE2
 62
     6
100
AcDbVertex
100
AcDb2dVertex
 10
1382.720703
 20
873.506805
 30
0.0
  0
VERTEX
  5
5D9
100
AcDbEntity
  8
止水栓
  6
EXLTYPE2
 62
     6
100
AcDbVertex
100
AcDb2dVertex
 10
1382.317871
 20
873.802216
 30
0.0
  0
VERTEX
  5
5DA
100
AcDbEntity
  8
止水栓
  6
EXLTYPE2
 62
     6
100
AcDbVertex
100
AcDb2dVertex
 10
1381.888184
 20
874.063446
 30
0.0
  0
VERTEX
  5
5DB
100
AcDbEntity
  8
止水栓
  6
EXLTYPE2
 62
     6
100
AcDbVertex
100
AcDb2dVertex
 10
1381.436523
 20
874.288055
 30
0.0
  0
VERTEX
  5
5DC
100
AcDbEntity
  8
止水栓
  6
EXLTYPE2
 62
     6
100
AcDbVertex
100
AcDb2dVertex
 10
1380.967773
 20
874.473602
 30
0.0
  0
VERTEX
  5
5DD
100
AcDbEntity
  8
止水栓
  6
EXLTYPE2
 62
     6
100
AcDbVertex
100
AcDb2dVertex
 10
1380.481934
 20
874.617645
 30
0.0
  0
VERTEX
  5
5DE
100
AcDbEntity
  8
止水栓
  6
EXLTYPE2
 62
     6
100
AcDbVertex
100
AcDb2dVertex
 10
1379.986328
 20
874.722626
 30
0.0
  0
VERTEX
  5
5DF
100
AcDbEntity
  8
止水栓
  6
EXLTYPE2
 62
     6
100
AcDbVertex
100
AcDb2dVertex
 10
1379.480957
 20
874.786102
 30
0.0
  0
VERTEX
  5
5E0
100
AcDbEntity
  8
止水栓
  6
EXLTYPE2
 62
     6
100
AcDbVertex
100
AcDb2dVertex
 10
1378.973145
 20
874.808075
 30
0.0
  0
VERTEX
  5
5E1
100
AcDbEntity
  8
止水栓
  6
EXLTYPE2
 62
     6
100
AcDbVertex
100
AcDb2dVertex
 10
1378.465332
 20
874.786102
 30
0.0
  0
VERTEX
  5
5E2
100
AcDbEntity
  8
止水栓
  6
EXLTYPE2
 62
     6
100
AcDbVertex
100
AcDb2dVertex
 10
1377.959961
 20
874.722626
 30
0.0
  0
VERTEX
  5
5E3
100
AcDbEntity
  8
止水栓
  6
EXLTYPE2
 62
     6
100
AcDbVertex
100
AcDb2dVertex
 10
1377.464355
 20
874.617645
 30
0.0
  0
VERTEX
  5
5E4
100
AcDbEntity
  8
止水栓
  6
EXLTYPE2
 62
     6
100
AcDbVertex
100
AcDb2dVertex
 10
1376.978516
 20
874.473602
 30
0.0
  0
VERTEX
  5
5E5
100
AcDbEntity
  8
止水栓
  6
EXLTYPE2
 62
     6
100
AcDbVertex
100
AcDb2dVertex
 10
1376.509766
 20
874.288055
 30
0.0
  0
VERTEX
  5
5E6
100
AcDbEntity
  8
止水栓
  6
EXLTYPE2
 62
     6
100
AcDbVertex
100
AcDb2dVertex
 10
1376.058105
 20
874.063446
 30
0.0
  0
VERTEX
  5
5E7
100
AcDbEntity
  8
止水栓
  6
EXLTYPE2
 62
     6
100
AcDbVertex
100
AcDb2dVertex
 10
1375.628418
 20
873.802216
 30
0.0
  0
VERTEX
  5
5E8
100
AcDbEntity
  8
止水栓
  6
EXLTYPE2
 62
     6
100
AcDbVertex
100
AcDb2dVertex
 10
1375.225586
 20
873.506805
 30
0.0
  0
VERTEX
  5
5E9
100
AcDbEntity
  8
止水栓
  6
EXLTYPE2
 62
     6
100
AcDbVertex
100
AcDb2dVertex
 10
1374.849609
 20
873.179657
 30
0.0
  0
VERTEX
  5
5EA
100
AcDbEntity
  8
止水栓
  6
EXLTYPE2
 62
     6
100
AcDbVertex
100
AcDb2dVertex
 10
1374.507813
 20
872.82077
 30
0.0
  0
VERTEX
  5
5EB
100
AcDbEntity
  8
止水栓
  6
EXLTYPE2
 62
     6
100
AcDbVertex
100
AcDb2dVertex
 10
1374.197754
 20
872.437469
 30
0.0
  0
VERTEX
  5
5EC
100
AcDbEntity
  8
止水栓
  6
EXLTYPE2
 62
     6
100
AcDbVertex
100
AcDb2dVertex
 10
1373.924316
 20
872.027313
 30
0.0
  0
VERTEX
  5
5ED
100
AcDbEntity
  8
止水栓
  6
EXLTYPE2
 62
     6
100
AcDbVertex
100
AcDb2dVertex
 10
1373.6875
 20
871.597626
 30
0.0
  0
VERTEX
  5
5EE
100
AcDbEntity
  8
止水栓
  6
EXLTYPE2
 62
     6
100
AcDbVertex
100
AcDb2dVertex
 10
1373.494629
 20
871.148407
 30
0.0
  0
VERTEX
  5
5EF
100
AcDbEntity
  8
止水栓
  6
EXLTYPE2
 62
     6
100
AcDbVertex
100
AcDb2dVertex
 10
1373.34082
 20
870.686981
 30
0.0
  0
VERTEX
  5
5F0
100
AcDbEntity
  8
止水栓
  6
EXLTYPE2
 62
     6
100
AcDbVertex
100
AcDb2dVertex
 10
1373.230957
 20
870.213348
 30
0.0
  0
VERTEX
  5
5F1
100
AcDbEntity
  8
止水栓
  6
EXLTYPE2
 62
     6
100
AcDbVertex
100
AcDb2dVertex
 10
1373.165039
 20
869.732391
 30
0.0
  0
VERTEX
  5
5F2
100
AcDbEntity
  8
止水栓
  6
EXLTYPE2
 62
     6
100
AcDbVertex
100
AcDb2dVertex
 10
1373.143066
 20
869.248993
 30
0.0
  0
SEQEND
  5
5F3
100
AcDbEntity
  8
止水栓
  6
EXLTYPE2
 62
     6
  0
POLYLINE
  5
5F4
100
AcDbEntity
  8
止水栓
  6
EXLTYPE2
 62
     6
100
AcDb2dPolyline
 66
     1
 10
0.0
 20
0.0
 30
0.0
 70
   128
  0
VERTEX
  5
5F5
100
AcDbEntity
  8
止水栓
  6
EXLTYPE2
 62
     6
100
AcDbVertex
100
AcDb2dVertex
 10
1373.143066
 20
869.246551
 30
0.0
  0
VERTEX
  5
5F6
100
AcDbEntity
  8
止水栓
  6
EXLTYPE2
 62
     6
100
AcDbVertex
100
AcDb2dVertex
 10
1373.165039
 20
868.763153
 30
0.0
  0
VERTEX
  5
5F7
100
AcDbEntity
  8
止水栓
  6
EXLTYPE2
 62
     6
100
AcDbVertex
100
AcDb2dVertex
 10
1373.230957
 20
868.282196
 30
0.0
  0
VERTEX
  5
5F8
100
AcDbEntity
  8
止水栓
  6
EXLTYPE2
 62
     6
100
AcDbVertex
100
AcDb2dVertex
 10
1373.34082
 20
867.808563
 30
0.0
  0
VERTEX
  5
5F9
100
AcDbEntity
  8
止水栓
  6
EXLTYPE2
 62
     6
100
AcDbVertex
100
AcDb2dVertex
 10
1373.494629
 20
867.344696
 30
0.0
  0
VERTEX
  5
5FA
100
AcDbEntity
  8
止水栓
  6
EXLTYPE2
 62
     6
100
AcDbVertex
100
AcDb2dVertex
 10
1373.6875
 20
866.897919
 30
0.0
  0
VERTEX
  5
5FB
100
AcDbEntity
  8
止水栓
  6
EXLTYPE2
 62
     6
100
AcDbVertex
100
AcDb2dVertex
 10
1373.924316
 20
866.46579
 30
0.0
  0
VERTEX
  5
5FC
100
AcDbEntity
  8
止水栓
  6
EXLTYPE2
 62
     6
100
AcDbVertex
100
AcDb2dVertex
 10
1374.197754
 20
866.058075
 30
0.0
  0
VERTEX
  5
5FD
100
AcDbEntity
  8
止水栓
  6
EXLTYPE2
 62
     6
100
AcDbVertex
100
AcDb2dVertex
 10
1374.507813
 20
865.672333
 30
0.0
  0
VERTEX
  5
5FE
100
AcDbEntity
  8
止水栓
  6
EXLTYPE2
 62
     6
100
AcDbVertex
100
AcDb2dVertex
 10
1374.849609
 20
865.315887
 30
0.0
  0
VERTEX
  5
5FF
100
AcDbEntity
  8
止水栓
  6
EXLTYPE2
 62
     6
100
AcDbVertex
100
AcDb2dVertex
 10
1375.225586
 20
864.986298
 30
0.0
  0
VERTEX
  5
600
100
AcDbEntity
  8
止水栓
  6
EXLTYPE2
 62
     6
100
AcDbVertex
100
AcDb2dVertex
 10
1375.628418
 20
864.693329
 30
0.0
  0
VERTEX
  5
601
100
AcDbEntity
  8
止水栓
  6
EXLTYPE2
 62
     6
100
AcDbVertex
100
AcDb2dVertex
 10
1376.058105
 20
864.429657
 30
0.0
  0
VERTEX
  5
602
100
AcDbEntity
  8
止水栓
  6
EXLTYPE2
 62
     6
100
AcDbVertex
100
AcDb2dVertex
 10
1376.509766
 20
864.205048
 30
0.0
  0
VERTEX
  5
603
100
AcDbEntity
  8
止水栓
  6
EXLTYPE2
 62
     6
100
AcDbVertex
100
AcDb2dVertex
 10
1376.978516
 20
864.019501
 30
0.0
  0
VERTEX
  5
604
100
AcDbEntity
  8
止水栓
  6
EXLTYPE2
 62
     6
100
AcDbVertex
100
AcDb2dVertex
 10
1377.464355
 20
863.875458
 30
0.0
  0
VERTEX
  5
605
100
AcDbEntity
  8
止水栓
  6
EXLTYPE2
 62
     6
100
AcDbVertex
100
AcDb2dVertex
 10
1377.959961
 20
863.770477
 30
0.0
  0
VERTEX
  5
606
100
AcDbEntity
  8
止水栓
  6
EXLTYPE2
 62
     6
100
AcDbVertex
100
AcDb2dVertex
 10
1378.465332
 20
863.707001
 30
0.0
  0
VERTEX
  5
607
100
AcDbEntity
  8
止水栓
  6
EXLTYPE2
 62
     6
100
AcDbVertex
100
AcDb2dVertex
 10
1378.973145
 20
863.685028
 30
0.0
  0
VERTEX
  5
608
100
AcDbEntity
  8
止水栓
  6
EXLTYPE2
 62
     6
100
AcDbVertex
100
AcDb2dVertex
 10
1378.98291
 20
863.685028
 30
0.0
  0
VERTEX
  5
609
100
AcDbEntity
  8
止水栓
  6
EXLTYPE2
 62
     6
100
AcDbVertex
100
AcDb2dVertex
 10
1378.990234
 20
863.685028
 30
0.0
  0
VERTEX
  5
60A
100
AcDbEntity
  8
止水栓
  6
EXLTYPE2
 62
     6
100
AcDbVertex
100
AcDb2dVertex
 10
1379.0
 20
863.685028
 30
0.0
  0
SEQEND
  5
60B
100
AcDbEntity
  8
止水栓
  6
EXLTYPE2
 62
     6
  0
ARC
  5
60C
100
AcDbEntity
  8
止水栓
  6
EXLTYPE2
 62
     6
100
AcDbCircle
 10
1380.750488
 20
869.471161
 30
0.0
 40
10.99987
100
AcDbArc
 50
326.937744
 51
33.047067
  0
ARC
  5
60D
100
AcDbEntity
  8
止水栓
  6
EXLTYPE4
 62
     6
100
AcDbCircle
 10
1379.0
 20
898.0
 30
0.0
 40
27.5
100
AcDbArc
 50
296.026528
 51
243.976268
  0
LINE
  5
60E
100
AcDbEntity
  8
止水栓
  6
CONTINUOUS
 62
     6
100
AcDbLine
 10
1396.873911
 20
662.153983
 30
0.0
 11
1399.00004
 21
660.926459
 31
0.0
  0
ARC
  5
60F
100
AcDbEntity
  8
止水栓
  6
CONTINUOUS
 62
     6
100
AcDbCircle
 10
1395.498827
 20
667.111835
 30
0.0
 40
5.0
100
AcDbArc
 50
205.872755
 51
262.555023
  0
LINE
  5
610
100
AcDbEntity
  8
止水栓
  6
CONTINUOUS
 62
     6
100
AcDbLine
 10
1391.0
 20
672.676468
 30
0.0
 11
1391.0
 21
664.929965
 31
0.0
  0
LINE
  5
611
100
AcDbEntity
  8
止水栓
  6
CONTINUOUS
 62
     6
100
AcDbLine
 10
1370.0
 20
673.376468
 30
0.0
 11
1370.0
 21
672.676468
 31
0.0
  0
LINE
  5
612
100
AcDbEntity
  8
止水栓
  6
CONTINUOUS
 62
     6
100
AcDbLine
 10
1388.0
 20
673.376468
 30
0.0
 11
1388.0
 21
672.676468
 31
0.0
  0
LINE
  5
613
100
AcDbEntity
  8
止水栓
  6
CONTINUOUS
 62
     6
100
AcDbLine
 10
1378.1
 20
673.376468
 30
0.0
 11
1378.1
 21
672.676468
 31
0.0
  0
LINE
  5
614
100
AcDbEntity
  8
止水栓
  6
CONTINUOUS
 62
     6
100
AcDbLine
 10
1379.9
 20
673.376468
 30
0.0
 11
1379.9
 21
672.676468
 31
0.0
  0
LINE
  5
615
100
AcDbEntity
  8
止水栓
  6
CONTINUOUS
 62
     6
100
AcDbLine
 10
1379.9
 20
673.376468
 30
0.0
 11
1388.0
 21
673.376468
 31
0.0
  0
LINE
  5
616
100
AcDbEntity
  8
止水栓
  6
CONTINUOUS
 62
     6
100
AcDbLine
 10
1378.1
 20
673.376468
 30
0.0
 11
1370.0
 21
673.376468
 31
0.0
  0
ARC
  5
617
100
AcDbEntity
  8
止水栓
  6
CONTINUOUS
 62
     6
100
AcDbCircle
 10
1385.375
 20
642.574771
 30
0.0
 40
18.612052
100
AcDbArc
 50
249.969519
 51
290.030481
  0
ARC
  5
618
100
AcDbEntity
  8
止水栓
  6
CONTINUOUS
 62
     6
100
AcDbCircle
 10
1372.625
 20
642.574771
 30
0.0
 40
18.612052
100
AcDbArc
 50
249.969519
 51
290.030481
  0
ARC
  5
619
100
AcDbEntity
  8
止水栓
  6
CONTINUOUS
 62
     6
100
AcDbCircle
 10
1385.375
 20
622.85239
 30
0.0
 40
10.182953
100
AcDbArc
 50
51.240977
 51
128.759023
  0
ARC
  5
61A
100
AcDbEntity
  8
止水栓
  6
CONTINUOUS
 62
     6
100
AcDbCircle
 10
1372.625
 20
622.85239
 30
0.0
 40
10.182953
100
AcDbArc
 50
51.240977
 51
128.759023
  0
LINE
  5
61B
100
AcDbEntity
  8
止水栓
  6
CONTINUOUS
 62
     6
100
AcDbLine
 10
1366.75
 20
623.674044
 30
0.0
 11
1366.25
 21
623.96272
 31
0.0
  0
LINE
  5
61C
100
AcDbEntity
  8
止水栓
  6
CONTINUOUS
 62
     6
100
AcDbLine
 10
1391.25
 20
623.674044
 30
0.0
 11
1391.75
 21
623.96272
 31
0.0
  0
LINE
  5
61D
100
AcDbEntity
  8
止水栓
  6
CONTINUOUS
 62
     6
100
AcDbLine
 10
1366.75
 20
623.674044
 30
0.0
 11
1391.25
 21
623.674044
 31
0.0
  0
LINE
  5
61E
100
AcDbEntity
  8
止水栓
  6
CONTINUOUS
 62
     6
100
AcDbLine
 10
1367.019922
 20
672.676468
 30
0.0
 11
1367.019922
 21
635.162049
 31
0.0
  0
LINE
  5
61F
100
AcDbEntity
  8
止水栓
  6
CONTINUOUS
 62
     6
100
AcDbLine
 10
1391.0
 20
672.676468
 30
0.0
 11
1367.019922
 21
672.676468
 31
0.0
  0
ARC
  5
620
100
AcDbEntity
  8
止水栓
  6
CONTINUOUS
 62
     6
100
AcDbCircle
 10
1365.019922
 20
635.162049
 30
0.0
 40
2.0
100
AcDbArc
 50
307.954744
 51
0.0
  0
LINE
  5
621
100
AcDbEntity
  8
止水栓
  6
CONTINUOUS
 62
     6
100
AcDbLine
 10
1366.25
 20
633.585056
 30
0.0
 11
1366.25
 21
623.96272
 31
0.0
  0
LINE
  5
622
100
AcDbEntity
  8
止水栓
  6
CONTINUOUS
 62
     6
100
AcDbLine
 10
1391.75
 20
633.616961
 30
0.0
 11
1391.75
 21
623.96272
 31
0.0
  0
ARC
  5
623
100
AcDbEntity
  8
止水栓
  6
CONTINUOUS
 62
     6
100
AcDbCircle
 10
1393.019922
 20
635.162049
 30
0.0
 40
2.0
100
AcDbArc
 50
180.0
 51
230.582897
  0
LINE
  5
624
100
AcDbEntity
  8
止水栓
  6
CONTINUOUS
 62
     6
100
AcDbLine
 10
434.899985
 20
673.361252
 30
0.0
 11
442.999985
 21
673.361252
 31
0.0
  0
LINE
  5
625
100
AcDbEntity
  8
止水栓
  6
CONTINUOUS
 62
     6
100
AcDbLine
 10
433.099985
 20
673.361252
 30
0.0
 11
424.999985
 21
673.361252
 31
0.0
  0
LINE
  5
626
100
AcDbEntity
  8
止水栓
  6
CONTINUOUS
 62
     6
100
AcDbLine
 10
433.099985
 20
673.361252
 30
0.0
 11
433.099985
 21
672.661252
 31
0.0
  0
LINE
  5
627
100
AcDbEntity
  8
止水栓
  6
CONTINUOUS
 62
     6
100
AcDbLine
 10
434.899985
 20
673.361252
 30
0.0
 11
434.899985
 21
672.661252
 31
0.0
  0
LINE
  5
628
100
AcDbEntity
  8
止水栓
  6
CONTINUOUS
 62
     6
100
AcDbLine
 10
424.999985
 20
673.361252
 30
0.0
 11
424.999985
 21
672.661252
 31
0.0
  0
LINE
  5
629
100
AcDbEntity
  8
止水栓
  6
CONTINUOUS
 62
     6
100
AcDbLine
 10
442.999985
 20
673.361252
 30
0.0
 11
442.999985
 21
672.661252
 31
0.0
  0
ARC
  5
62A
100
AcDbEntity
  8
止水栓
  6
CONTINUOUS
 62
     6
100
AcDbCircle
 10
462.97474
 20
626.675466
 30
0.0
 40
25.0
100
AcDbArc
 50
141.057556
 51
141.057605
  0
LINE
  5
62B
100
AcDbEntity
  8
止水栓
  6
CONTINUOUS
 62
     6
100
AcDbLine
 10
446.999985
 20
623.662016
 30
0.0
 11
420.999985
 21
623.662016
 31
0.0
  0
ARC
  5
62C
100
AcDbEntity
  8
止水栓
  6
CONTINUOUS
 62
     6
100
AcDbCircle
 10
433.999985
 20
607.586451
 30
0.0
 40
25.78689
100
AcDbArc
 50
73.078523
 51
106.828962
  0
LINE
  5
62D
100
AcDbEntity
  8
止水栓
  6
CONTINUOUS
 62
     6
100
AcDbLine
 10
426.534276
 20
624.778471
 30
0.0
 11
426.534276
 21
632.256886
 31
0.0
  0
ARC
  5
62E
100
AcDbEntity
  8
止水栓
  6
CONTINUOUS
 62
     6
100
AcDbCircle
 10
433.999985
 20
649.448906
 30
0.0
 40
25.78689
100
AcDbArc
 50
253.141624
 51
286.921477
  0
ARC
  5
62F
100
AcDbEntity
  8
止水栓
  6
CONTINUOUS
 62
     6
100
AcDbCircle
 10
422.781525
 20
630.527254
 30
0.0
 40
6.865249
100
AcDbArc
 50
246.844796
 51
303.136123
  0
ARC
  5
630
100
AcDbEntity
  8
止水栓
  6
CONTINUOUS
 62
     6
100
AcDbCircle
 10
422.781525
 20
626.508103
 30
0.0
 40
6.865249
100
AcDbArc
 50
56.863877
 51
123.136123
  0
LINE
  5
631
100
AcDbEntity
  8
止水栓
  6
CONTINUOUS
 62
     6
100
AcDbLine
 10
441.505538
 20
624.778471
 30
0.0
 11
441.505538
 21
632.256886
 31
0.0
  0
ARC
  5
632
100
AcDbEntity
  8
止水栓
  6
CONTINUOUS
 62
     6
100
AcDbCircle
 10
445.258289
 20
630.527254
 30
0.0
 40
6.865249
100
AcDbArc
 50
236.863877
 51
293.155204
  0
LINE
  5
633
100
AcDbEntity
  8
止水栓
  6
CONTINUOUS
 62
     6
100
AcDbLine
 10
418.988928
 20
624.8231
 30
0.0
 11
420.999985
 21
623.662016
 31
0.0
  0
ARC
  5
634
100
AcDbEntity
  8
止水栓
  6
CONTINUOUS
 62
     6
100
AcDbCircle
 10
447.999985
 20
635.150021
 30
0.0
 40
2.0
100
AcDbArc
 50
180.0
 51
240.0
  0
ARC
  5
635
100
AcDbEntity
  8
止水栓
  6
CONTINUOUS
 62
     6
100
AcDbCircle
 10
419.999985
 20
635.150021
 30
0.0
 40
2.0
100
AcDbArc
 50
300.0
 51
0.0
  0
LINE
  5
636
100
AcDbEntity
  8
止水栓
  6
CONTINUOUS
 62
     6
100
AcDbLine
 10
421.999985
 20
636.187016
 30
0.0
 11
421.999985
 21
635.150021
 31
0.0
  0
LINE
  5
637
100
AcDbEntity
  8
止水栓
  6
CONTINUOUS
 62
     6
100
AcDbLine
 10
418.988928
 20
632.256886
 30
0.0
 11
420.999985
 21
633.41797
 31
0.0
  0
LINE
  5
638
100
AcDbEntity
  8
止水栓
  6
CONTINUOUS
 62
     6
100
AcDbLine
 10
418.988928
 20
624.8231
 30
0.0
 11
418.988928
 21
632.256886
 31
0.0
  0
ARC
  5
639
100
AcDbEntity
  8
止水栓
  6
CONTINUOUS
 62
     6
100
AcDbCircle
 10
445.258289
 20
626.508103
 30
0.0
 40
6.865249
100
AcDbArc
 50
56.863877
 51
123.136123
  0
LINE
  5
63A
100
AcDbEntity
  8
止水栓
  6
CONTINUOUS
 62
     6
100
AcDbLine
 10
449.011041
 20
624.778471
 30
0.0
 11
449.011041
 21
632.256886
 31
0.0
  0
LINE
  5
63B
100
AcDbEntity
  8
止水栓
  6
CONTINUOUS
 62
     6
100
AcDbLine
 10
449.011041
 20
632.256886
 30
0.0
 11
446.999985
 21
633.41797
 31
0.0
  0
LINE
  5
63C
100
AcDbEntity
  8
止水栓
  6
CONTINUOUS
 62
     6
100
AcDbLine
 10
448.933741
 20
624.778471
 30
0.0
 11
446.999985
 21
623.662016
 31
0.0
  0
LINE
  5
63D
100
AcDbEntity
  8
止水栓
  6
CONTINUOUS
 62
     6
100
AcDbLine
 10
422.0
 20
636.066433
 30
0.0
 11
422.0
 21
672.661252
 31
0.0
  0
LINE
  5
63E
100
AcDbEntity
  8
止水栓
  6
CONTINUOUS
 62
     6
100
AcDbLine
 10
446.0
 20
636.066433
 30
0.0
 11
446.0
 21
672.661252
 31
0.0
  0
LINE
  5
63F
100
AcDbEntity
  8
止水栓
  6
CONTINUOUS
 62
     6
100
AcDbLine
 10
422.0
 20
672.661252
 30
0.0
 11
446.0
 21
672.661252
 31
0.0
  0
LINE
  5
640
100
AcDbEntity
  8
止水栓
  6
CONTINUOUS
 62
     6
100
AcDbLine
 10
440.5
 20
731.775357
 30
0.0
 11
440.5
 21
673.361252
 31
0.0
  0
LINE
  5
641
100
AcDbEntity
  8
止水栓
  6
CONTINUOUS
 62
     6
100
AcDbLine
 10
427.5
 20
731.131989
 30
0.0
 11
427.5
 21
673.361252
 31
0.0
  0
LINE
  5
642
100
AcDbEntity
  8
止水栓
  6
CONTINUOUS
 62
     6
100
AcDbLine
 10
443.220394
 20
2172.001465
 30
0.0
 11
424.781494
 21
2172.001465
 31
0.0
  0
LINE
  5
643
100
AcDbEntity
  8
止水栓
  6
CONTINUOUS
 62
     6
100
AcDbLine
 10
424.781759
 20
2174.000977
 30
0.0
 11
443.220129
 21
2174.000977
 31
0.0
  0
ARC
  5
644
100
AcDbEntity
  8
止水栓
  6
CONTINUOUS
 62
     6
100
AcDbCircle
 10
489.978444
 20
2186.144181
 30
0.0
 40
45.5
100
AcDbArc
 50
180.0
 51
193.214335
  0
ARC
  5
645
100
AcDbEntity
  8
止水栓
  6
CONTINUOUS
 62
     6
100
AcDbCircle
 10
378.023444
 20
2186.144181
 30
0.0
 40
45.5
100
AcDbArc
 50
346.785665
 51
0.0
  0
CIRCLE
  5
646
100
AcDbEntity
  8
止水栓
  6
CONTINUOUS
 62
     6
100
AcDbCircle
 10
434.000944
 20
2173.0
 30
0.0
 40
9.273367
  0
CIRCLE
  5
647
100
AcDbEntity
  8
止水栓
  6
CONTINUOUS
 62
     6
100
AcDbCircle
 10
434.000944
 20
2173.0
 30
0.0
 40
9.959438
  0
CIRCLE
  5
648
100
AcDbEntity
  8
止水栓
  6
CONTINUOUS
 62
     6
100
AcDbCircle
 10
434.000944
 20
2173.0
 30
0.0
 40
12.0
  0
LINE
  5
649
100
AcDbEntity
  8
止水栓
  6
EXLTYPE2
 62
     6
100
AcDbLine
 10
1369.6845
 20
878.0
 30
0.0
 11
1368.470802
 21
880.102217
 31
0.0
  0
LINE
  5
64A
100
AcDbEntity
  8
止水栓
  6
EXLTYPE2
 62
     6
100
AcDbLine
 10
1368.5225
 20
878.0
 30
0.0
 11
1389.4775
 21
878.0
 31
0.0
  0
LINE
  5
64B
100
AcDbEntity
  8
止水栓
  6
EXLTYPE2
 62
     6
100
AcDbLine
 10
1388.3155
 20
878.0
 30
0.0
 11
1389.529198
 21
880.102217
 31
0.0
  0
POLYLINE
  5
64C
100
AcDbEntity
  8
止水栓
  6
EXLTYPE2
 62
     6
100
AcDb2dPolyline
 66
     1
 10
0.0
 20
0.0
 30
0.0
 70
   128
  0
VERTEX
  5
64D
100
AcDbEntity
  8
止水栓
  6
EXLTYPE2
 62
     6
100
AcDbVertex
100
AcDb2dVertex
 10
1367.918457
 20
873.74118
 30
0.0
  0
VERTEX
  5
64E
100
AcDbEntity
  8
止水栓
  6
EXLTYPE2
 62
     6
100
AcDbVertex
100
AcDb2dVertex
 10
1367.730469
 20
873.540985
 30
0.0
  0
VERTEX
  5
64F
100
AcDbEntity
  8
止水栓
  6
EXLTYPE2
 62
     6
100
AcDbVertex
100
AcDb2dVertex
 10
1367.549805
 20
873.30661
 30
0.0
  0
VERTEX
  5
650
100
AcDbEntity
  8
止水栓
  6
EXLTYPE2
 62
     6
100
AcDbVertex
100
AcDb2dVertex
 10
1367.378906
 20
873.042938
 30
0.0
  0
VERTEX
  5
651
100
AcDbEntity
  8
止水栓
  6
EXLTYPE2
 62
     6
100
AcDbVertex
100
AcDb2dVertex
 10
1367.222656
 20
872.747528
 30
0.0
  0
VERTEX
  5
652
100
AcDbEntity
  8
止水栓
  6
EXLTYPE2
 62
     6
100
AcDbVertex
100
AcDb2dVertex
 10
1367.078613
 20
872.427704
 30
0.0
  0
VERTEX
  5
653
100
AcDbEntity
  8
止水栓
  6
EXLTYPE2
 62
     6
100
AcDbVertex
100
AcDb2dVertex
 10
1366.946777
 20
872.081024
 30
0.0
  0
VERTEX
  5
654
100
AcDbEntity
  8
止水栓
  6
EXLTYPE2
 62
     6
100
AcDbVertex
100
AcDb2dVertex
 10
1366.832031
 20
871.714813
 30
0.0
  0
VERTEX
  5
655
100
AcDbEntity
  8
止水栓
  6
EXLTYPE2
 62
     6
100
AcDbVertex
100
AcDb2dVertex
 10
1366.734375
 20
871.329071
 30
0.0
  0
VERTEX
  5
656
100
AcDbEntity
  8
止水栓
  6
EXLTYPE2
 62
     6
100
AcDbVertex
100
AcDb2dVertex
 10
1366.653809
 20
870.926239
 30
0.0
  0
VERTEX
  5
657
100
AcDbEntity
  8
止水栓
  6
EXLTYPE2
 62
     6
100
AcDbVertex
100
AcDb2dVertex
 10
1366.587891
 20
870.5112
 30
0.0
  0
SEQEND
  5
658
100
AcDbEntity
  8
止水栓
  6
EXLTYPE2
 62
     6
  0
POLYLINE
  5
659
100
AcDbEntity
  8
止水栓
  6
EXLTYPE2
 62
     6
100
AcDb2dPolyline
 66
     1
 10
0.0
 20
0.0
 30
0.0
 70
   128
  0
VERTEX
  5
65A
100
AcDbEntity
  8
止水栓
  6
EXLTYPE2
 62
     6
100
AcDbVertex
100
AcDb2dVertex
 10
1366.587891
 20
870.5112
 30
0.0
  0
VERTEX
  5
65B
100
AcDbEntity
  8
止水栓
  6
EXLTYPE2
 62
     6
100
AcDbVertex
100
AcDb2dVertex
 10
1366.541504
 20
870.086395
 30
0.0
  0
VERTEX
  5
65C
100
AcDbEntity
  8
止水栓
  6
EXLTYPE2
 62
     6
100
AcDbVertex
100
AcDb2dVertex
 10
1366.514648
 20
869.654266
 30
0.0
  0
VERTEX
  5
65D
100
AcDbEntity
  8
止水栓
  6
EXLTYPE2
 62
     6
100
AcDbVertex
100
AcDb2dVertex
 10
1366.504883
 20
869.219696
 30
0.0
  0
SEQEND
  5
65E
100
AcDbEntity
  8
止水栓
  6
EXLTYPE2
 62
     6
  0
POLYLINE
  5
65F
100
AcDbEntity
  8
止水栓
  6
EXLTYPE2
 62
     6
100
AcDb2dPolyline
 66
     1
 10
0.0
 20
0.0
 30
0.0
 70
   128
  0
VERTEX
  5
660
100
AcDbEntity
  8
止水栓
  6
EXLTYPE2
 62
     6
100
AcDbVertex
100
AcDb2dVertex
 10
1388.018555
 20
873.409149
 30
0.0
  0
VERTEX
  5
661
100
AcDbEntity
  8
止水栓
  6
EXLTYPE2
 62
     6
100
AcDbVertex
100
AcDb2dVertex
 10
1387.828125
 20
873.223602
 30
0.0
  0
VERTEX
  5
662
100
AcDbEntity
  8
止水栓
  6
EXLTYPE2
 62
     6
100
AcDbVertex
100
AcDb2dVertex
 10
1387.647461
 20
873.006317
 30
0.0
  0
VERTEX
  5
663
100
AcDbEntity
  8
止水栓
  6
EXLTYPE2
 62
     6
100
AcDbVertex
100
AcDb2dVertex
 10
1387.479004
 20
872.759735
 30
0.0
  0
VERTEX
  5
664
100
AcDbEntity
  8
止水栓
  6
EXLTYPE2
 62
     6
100
AcDbVertex
100
AcDb2dVertex
 10
1387.320313
 20
872.486298
 30
0.0
  0
VERTEX
  5
665
100
AcDbEntity
  8
止水栓
  6
EXLTYPE2
 62
     6
100
AcDbVertex
100
AcDb2dVertex
 10
1387.17627
 20
872.188446
 30
0.0
  0
VERTEX
  5
666
100
AcDbEntity
  8
止水栓
  6
EXLTYPE2
 62
     6
100
AcDbVertex
100
AcDb2dVertex
 10
1387.046875
 20
871.868622
 30
0.0
  0
VERTEX
  5
667
100
AcDbEntity
  8
止水栓
  6
EXLTYPE2
 62
     6
100
AcDbVertex
100
AcDb2dVertex
 10
1386.932129
 20
871.529266
 30
0.0
  0
VERTEX
  5
668
100
AcDbEntity
  8
止水栓
  6
EXLTYPE2
 62
     6
100
AcDbVertex
100
AcDb2dVertex
 10
1386.832031
 20
871.17038
 30
0.0
  0
VERTEX
  5
669
100
AcDbEntity
  8
止水栓
  6
EXLTYPE2
 62
     6
100
AcDbVertex
100
AcDb2dVertex
 10
1386.751465
 20
870.796844
 30
0.0
  0
VERTEX
  5
66A
100
AcDbEntity
  8
止水栓
  6
EXLTYPE2
 62
     6
100
AcDbVertex
100
AcDb2dVertex
 10
1386.687988
 20
870.411102
 30
0.0
  0
SEQEND
  5
66B
100
AcDbEntity
  8
止水栓
  6
EXLTYPE2
 62
     6
  0
POLYLINE
  5
66C
100
AcDbEntity
  8
止水栓
  6
EXLTYPE2
 62
     6
100
AcDb2dPolyline
 66
     1
 10
0.0
 20
0.0
 30
0.0
 70
   128
  0
VERTEX
  5
66D
100
AcDbEntity
  8
止水栓
  6
EXLTYPE2
 62
     6
100
AcDbVertex
100
AcDb2dVertex
 10
1386.687988
 20
870.411102
 30
0.0
  0
VERTEX
  5
66E
100
AcDbEntity
  8
止水栓
  6
EXLTYPE2
 62
     6
100
AcDbVertex
100
AcDb2dVertex
 10
1386.641602
 20
870.018036
 30
0.0
  0
VERTEX
  5
66F
100
AcDbEntity
  8
止水栓
  6
EXLTYPE2
 62
     6
100
AcDbVertex
100
AcDb2dVertex
 10
1386.612305
 20
869.617645
 30
0.0
  0
VERTEX
  5
670
100
AcDbEntity
  8
止水栓
  6
EXLTYPE2
 62
     6
100
AcDbVertex
100
AcDb2dVertex
 10
1386.602539
 20
869.214813
 30
0.0
  0
SEQEND
  5
671
100
AcDbEntity
  8
止水栓
  6
EXLTYPE2
 62
     6
  0
LINE
  5
672
100
AcDbEntity
  8
止水栓
  6
EXLTYPE2
 62
     6
100
AcDbLine
 10
1368.5225
 20
884.855819
 30
0.0
 11
1368.5225
 21
875.469696
 31
0.0
  0
LINE
  5
673
100
AcDbEntity
  8
止水栓
  6
EXLTYPE2
 62
     6
100
AcDbLine
 10
1369.6845
 20
875.469696
 30
0.0
 11
1369.6845
 21
878.0
 31
0.0
  0
LINE
  5
674
100
AcDbEntity
  8
止水栓
  6
EXLTYPE2
 62
     6
100
AcDbLine
 10
1388.3155
 20
875.469696
 30
0.0
 11
1388.3155
 21
878.0
 31
0.0
  0
LINE
  5
675
100
AcDbEntity
  8
止水栓
  6
EXLTYPE2
 62
     6
100
AcDbLine
 10
1389.4775
 20
884.855819
 30
0.0
 11
1389.4775
 21
875.469696
 31
0.0
  0
LINE
  5
676
100
AcDbEntity
  8
止水栓
  6
EXLTYPE2
 62
     6
100
AcDbLine
 10
1368.030762
 20
875.469696
 30
0.0
 11
1389.970831
 21
875.469696
 31
0.0
  0
LINE
  5
677
100
AcDbEntity
  8
止水栓
  6
EXLTYPE2
 62
     6
100
AcDbLine
 10
1369.78055
 20
898.998535
 30
0.0
 11
1388.21945
 21
898.998535
 31
0.0
  0
LINE
  5
678
100
AcDbEntity
  8
止水栓
  6
EXLTYPE2
 62
     6
100
AcDbLine
 10
1388.219185
 20
896.999023
 30
0.0
 11
1369.780815
 21
896.999023
 31
0.0
  0
ARC
  5
679
100
AcDbEntity
  8
止水栓
  6
EXLTYPE2
 62
     6
100
AcDbCircle
 10
1323.0225
 20
884.855819
 30
0.0
 40
45.5
100
AcDbArc
 50
0.0
 51
13.214335
  0
ARC
  5
67A
100
AcDbEntity
  8
止水栓
  6
EXLTYPE2
 62
     6
100
AcDbCircle
 10
1434.9775
 20
884.855819
 30
0.0
 40
45.5
100
AcDbArc
 50
166.785665
 51
180.0
  0
CIRCLE
  5
67B
100
AcDbEntity
  8
止水栓
  6
EXLTYPE2
 62
     6
100
AcDbCircle
 10
1379.0
 20
898.0
 30
0.0
 40
9.273367
  0
CIRCLE
  5
67C
100
AcDbEntity
  8
止水栓
  6
EXLTYPE2
 62
     6
100
AcDbCircle
 10
1379.0
 20
898.0
 30
0.0
 40
9.959438
  0
CIRCLE
  5
67D
100
AcDbEntity
  8
止水栓
  6
EXLTYPE2
 62
     6
100
AcDbCircle
 10
1379.0
 20
898.0
 30
0.0
 40
12.0
  0
LINE
  5
67E
100
AcDbEntity
  8
止水栓
  6
EXLTYPE2
 62
     6
100
AcDbLine
 10
378.199044
 20
878.0
 30
0.0
 11
377.199044
 21
879.732051
 31
0.0
  0
LINE
  5
67F
100
AcDbEntity
  8
止水栓
  6
EXLTYPE2
 62
     6
100
AcDbLine
 10
403.041755
 20
910.0
 30
0.0
 11
371.162049
 21
910.0
 31
0.0
  0
ARC
  5
680
100
AcDbEntity
  8
止水栓
  6
EXLTYPE2
 62
     6
100
AcDbCircle
 10
372.199044
 20
881.0
 30
0.0
 40
5.0
100
AcDbArc
 50
0.0
 51
90.0
  0
LINE
  5
681
100
AcDbEntity
  8
止水栓
  6
EXLTYPE2
 62
     6
100
AcDbLine
 10
398.149044
 20
878.0
 30
0.0
 11
377.199044
 21
878.0
 31
0.0
  0
LINE
  5
682
100
AcDbEntity
  8
止水栓
  6
EXLTYPE2
 62
     6
100
AcDbLine
 10
368.268914
 20
882.988943
 30
0.0
 11
369.429998
 21
885.0
 31
0.0
  0
LINE
  5
683
100
AcDbEntity
  8
止水栓
  6
EXLTYPE2
 62
     6
100
AcDbLine
 10
372.199044
 20
886.0
 30
0.0
 11
371.162049
 21
886.0
 31
0.0
  0
ARC
  5
684
100
AcDbEntity
  8
止水栓
  6
EXLTYPE2
 62
     6
100
AcDbCircle
 10
371.162049
 20
884.0
 30
0.0
 40
2.0
100
AcDbArc
 50
90.0
 51
150.0
  0
ARC
  5
685
100
AcDbEntity
  8
止水栓
  6
EXLTYPE2
 62
     6
100
AcDbCircle
 10
371.162049
 20
912.0
 30
0.0
 40
2.0
100
AcDbArc
 50
210.0
 51
270.0
  0
LINE
  5
686
100
AcDbEntity
  8
止水栓
  6
EXLTYPE2
 62
     6
100
AcDbLine
 10
368.268914
 20
913.011057
 30
0.0
 11
369.429998
 21
911.0
 31
0.0
  0
ARC
  5
687
100
AcDbEntity
  8
止水栓
  6
EXLTYPE2
 62
     6
100
AcDbCircle
 10
362.520131
 20
909.258305
 30
0.0
 40
6.865249
100
AcDbArc
 50
326.863877
 51
33.136123
  0
ARC
  5
688
100
AcDbEntity
  8
止水栓
  6
EXLTYPE2
 62
     6
100
AcDbCircle
 10
362.520131
 20
886.78154
 30
0.0
 40
6.865249
100
AcDbArc
 50
326.863877
 51
33.136123
  0
ARC
  5
689
100
AcDbEntity
  8
止水栓
  6
EXLTYPE2
 62
     6
100
AcDbCircle
 10
343.598479
 20
898.0
 30
0.0
 40
25.78689
100
AcDbArc
 50
343.171038
 51
16.921477
  0
LINE
  5
68A
100
AcDbEntity
  8
止水栓
  6
EXLTYPE2
 62
     6
100
AcDbLine
 10
397.149044
 20
878.0
 30
0.0
 11
397.149044
 21
875.519922
 31
0.0
  0
LINE
  5
68B
100
AcDbEntity
  8
止水栓
  6
EXLTYPE2
 62
     6
100
AcDbLine
 10
398.149044
 20
882.002346
 30
0.0
 11
398.149044
 21
875.519922
 31
0.0
  0
LINE
  5
68C
100
AcDbEntity
  8
止水栓
  6
EXLTYPE2
 62
     6
100
AcDbLine
 10
378.199044
 20
878.0
 30
0.0
 11
378.199044
 21
875.519922
 31
0.0
  0
LINE
  5
68D
100
AcDbEntity
  8
止水栓
  6
EXLTYPE2
 62
     6
100
AcDbLine
 10
377.199044
 20
881.0
 30
0.0
 11
377.199044
 21
875.519922
 31
0.0
  0
ARC
  5
68E
100
AcDbEntity
  8
止水栓
  6
EXLTYPE2
 62
     6
100
AcDbCircle
 10
389.42377
 20
869.521387
 30
0.0
 40
10.99987
100
AcDbArc
 50
326.937744
 51
33.054687
  0
POLYLINE
  5
68F
100
AcDbEntity
  8
止水栓
  6
EXLTYPE2
 62
     6
100
AcDb2dPolyline
 66
     1
 10
0.0
 20
0.0
 30
0.0
 70
   128
  0
VERTEX
  5
690
100
AcDbEntity
  8
止水栓
  6
EXLTYPE2
 62
     6
100
AcDbVertex
100
AcDb2dVertex
 10
395.275821
 20
869.262598
 30
0.0
  0
VERTEX
  5
691
100
AcDbEntity
  8
止水栓
  6
EXLTYPE2
 62
     6
100
AcDbVertex
100
AcDb2dVertex
 10
395.285586
 20
868.859766
 30
0.0
  0
VERTEX
  5
692
100
AcDbEntity
  8
止水栓
  6
EXLTYPE2
 62
     6
100
AcDbVertex
100
AcDb2dVertex
 10
395.314883
 20
868.459375
 30
0.0
  0
VERTEX
  5
693
100
AcDbEntity
  8
止水栓
  6
EXLTYPE2
 62
     6
100
AcDbVertex
100
AcDb2dVertex
 10
395.36127
 20
868.063868
 30
0.0
  0
VERTEX
  5
694
100
AcDbEntity
  8
止水栓
  6
EXLTYPE2
 62
     6
100
AcDbVertex
100
AcDb2dVertex
 10
395.424746
 20
867.680567
 30
0.0
  0
VERTEX
  5
695
100
AcDbEntity
  8
止水栓
  6
EXLTYPE2
 62
     6
100
AcDbVertex
100
AcDb2dVertex
 10
395.505313
 20
867.307032
 30
0.0
  0
VERTEX
  5
696
100
AcDbEntity
  8
止水栓
  6
EXLTYPE2
 62
     6
100
AcDbVertex
100
AcDb2dVertex
 10
395.60541
 20
866.948145
 30
0.0
  0
VERTEX
  5
697
100
AcDbEntity
  8
止水栓
  6
EXLTYPE2
 62
     6
100
AcDbVertex
100
AcDb2dVertex
 10
395.720157
 20
866.608789
 30
0.0
  0
VERTEX
  5
698
100
AcDbEntity
  8
止水栓
  6
EXLTYPE2
 62
     6
100
AcDbVertex
100
AcDb2dVertex
 10
395.849551
 20
866.286524
 30
0.0
  0
VERTEX
  5
699
100
AcDbEntity
  8
止水栓
  6
EXLTYPE2
 62
     6
100
AcDbVertex
100
AcDb2dVertex
 10
395.993594
 20
865.988672
 30
0.0
  0
VERTEX
  5
69A
100
AcDbEntity
  8
止水栓
  6
EXLTYPE2
 62
     6
100
AcDbVertex
100
AcDb2dVertex
 10
396.152285
 20
865.717676
 30
0.0
  0
VERTEX
  5
69B
100
AcDbEntity
  8
止水栓
  6
EXLTYPE2
 62
     6
100
AcDbVertex
100
AcDb2dVertex
 10
396.320742
 20
865.471094
 30
0.0
  0
VERTEX
  5
69C
100
AcDbEntity
  8
止水栓
  6
EXLTYPE2
 62
     6
100
AcDbVertex
100
AcDb2dVertex
 10
396.501407
 20
865.253809
 30
0.0
  0
VERTEX
  5
69D
100
AcDbEntity
  8
止水栓
  6
EXLTYPE2
 62
     6
100
AcDbVertex
100
AcDb2dVertex
 10
396.691836
 20
865.065821
 30
0.0
  0
VERTEX
  5
69E
100
AcDbEntity
  8
止水栓
  6
EXLTYPE2
 62
     6
100
AcDbVertex
100
AcDb2dVertex
 10
396.88959
 20
864.912012
 30
0.0
  0
VERTEX
  5
69F
100
AcDbEntity
  8
止水栓
  6
EXLTYPE2
 62
     6
100
AcDbVertex
100
AcDb2dVertex
 10
397.092227
 20
864.792383
 30
0.0
  0
VERTEX
  5
6A0
100
AcDbEntity
  8
止水栓
  6
EXLTYPE2
 62
     6
100
AcDbVertex
100
AcDb2dVertex
 10
397.302188
 20
864.704493
 30
0.0
  0
VERTEX
  5
6A1
100
AcDbEntity
  8
止水栓
  6
EXLTYPE2
 62
     6
100
AcDbVertex
100
AcDb2dVertex
 10
397.512149
 20
864.650782
 30
0.0
  0
VERTEX
  5
6A2
100
AcDbEntity
  8
止水栓
  6
EXLTYPE2
 62
     6
100
AcDbVertex
100
AcDb2dVertex
 10
397.726992
 20
864.633692
 30
0.0
  0
VERTEX
  5
6A3
100
AcDbEntity
  8
止水栓
  6
EXLTYPE2
 62
     6
100
AcDbVertex
100
AcDb2dVertex
 10
397.939395
 20
864.650782
 30
0.0
  0
VERTEX
  5
6A4
100
AcDbEntity
  8
止水栓
  6
EXLTYPE2
 62
     6
100
AcDbVertex
100
AcDb2dVertex
 10
398.151797
 20
864.704493
 30
0.0
  0
VERTEX
  5
6A5
100
AcDbEntity
  8
止水栓
  6
EXLTYPE2
 62
     6
100
AcDbVertex
100
AcDb2dVertex
 10
398.361758
 20
864.792383
 30
0.0
  0
VERTEX
  5
6A6
100
AcDbEntity
  8
止水栓
  6
EXLTYPE2
 62
     6
100
AcDbVertex
100
AcDb2dVertex
 10
398.564395
 20
864.912012
 30
0.0
  0
VERTEX
  5
6A7
100
AcDbEntity
  8
止水栓
  6
EXLTYPE2
 62
     6
100
AcDbVertex
100
AcDb2dVertex
 10
398.762149
 20
865.068262
 30
0.0
  0
VERTEX
  5
6A8
100
AcDbEntity
  8
止水栓
  6
EXLTYPE2
 62
     6
100
AcDbVertex
100
AcDb2dVertex
 10
398.950137
 20
865.253809
 30
0.0
  0
VERTEX
  5
6A9
100
AcDbEntity
  8
止水栓
  6
EXLTYPE2
 62
     6
100
AcDbVertex
100
AcDb2dVertex
 10
399.130801
 20
865.471094
 30
0.0
  0
VERTEX
  5
6AA
100
AcDbEntity
  8
止水栓
  6
EXLTYPE2
 62
     6
100
AcDbVertex
100
AcDb2dVertex
 10
399.301699
 20
865.715235
 30
0.0
  0
VERTEX
  5
6AB
100
AcDbEntity
  8
止水栓
  6
EXLTYPE2
 62
     6
100
AcDbVertex
100
AcDb2dVertex
 10
399.457949
 20
865.988672
 30
0.0
  0
VERTEX
  5
6AC
100
AcDbEntity
  8
止水栓
  6
EXLTYPE2
 62
     6
100
AcDbVertex
100
AcDb2dVertex
 10
399.601992
 20
866.286524
 30
0.0
  0
VERTEX
  5
6AD
100
AcDbEntity
  8
止水栓
  6
EXLTYPE2
 62
     6
100
AcDbVertex
100
AcDb2dVertex
 10
399.733828
 20
866.608789
 30
0.0
  0
VERTEX
  5
6AE
100
AcDbEntity
  8
止水栓
  6
EXLTYPE2
 62
     6
100
AcDbVertex
100
AcDb2dVertex
 10
399.848574
 20
866.948145
 30
0.0
  0
VERTEX
  5
6AF
100
AcDbEntity
  8
止水栓
  6
EXLTYPE2
 62
     6
100
AcDbVertex
100
AcDb2dVertex
 10
399.946231
 20
867.307032
 30
0.0
  0
VERTEX
  5
6B0
100
AcDbEntity
  8
止水栓
  6
EXLTYPE2
 62
     6
100
AcDbVertex
100
AcDb2dVertex
 10
400.026797
 20
867.678125
 30
0.0
  0
VERTEX
  5
6B1
100
AcDbEntity
  8
止水栓
  6
EXLTYPE2
 62
     6
100
AcDbVertex
100
AcDb2dVertex
 10
400.092715
 20
868.063868
 30
0.0
  0
VERTEX
  5
6B2
100
AcDbEntity
  8
止水栓
  6
EXLTYPE2
 62
     6
100
AcDbVertex
100
AcDb2dVertex
 10
400.139102
 20
868.459375
 30
0.0
  0
VERTEX
  5
6B3
100
AcDbEntity
  8
止水栓
  6
EXLTYPE2
 62
     6
100
AcDbVertex
100
AcDb2dVertex
 10
400.165957
 20
868.859766
 30
0.0
  0
VERTEX
  5
6B4
100
AcDbEntity
  8
止水栓
  6
EXLTYPE2
 62
     6
100
AcDbVertex
100
AcDb2dVertex
 10
400.175723
 20
869.262598
 30
0.0
  0
VERTEX
  5
6B5
100
AcDbEntity
  8
止水栓
  6
EXLTYPE2
 62
     6
100
AcDbVertex
100
AcDb2dVertex
 10
400.165957
 20
869.66543
 30
0.0
  0
VERTEX
  5
6B6
100
AcDbEntity
  8
止水栓
  6
EXLTYPE2
 62
     6
100
AcDbVertex
100
AcDb2dVertex
 10
400.139102
 20
870.065821
 30
0.0
  0
VERTEX
  5
6B7
100
AcDbEntity
  8
止水栓
  6
EXLTYPE2
 62
     6
100
AcDbVertex
100
AcDb2dVertex
 10
400.092715
 20
870.461329
 30
0.0
  0
VERTEX
  5
6B8
100
AcDbEntity
  8
止水栓
  6
EXLTYPE2
 62
     6
100
AcDbVertex
100
AcDb2dVertex
 10
400.029239
 20
870.847071
 30
0.0
  0
VERTEX
  5
6B9
100
AcDbEntity
  8
止水栓
  6
EXLTYPE2
 62
     6
100
AcDbVertex
100
AcDb2dVertex
 10
399.946231
 20
871.220606
 30
0.0
  0
VERTEX
  5
6BA
100
AcDbEntity
  8
止水栓
  6
EXLTYPE2
 62
     6
100
AcDbVertex
100
AcDb2dVertex
 10
399.848574
 20
871.579493
 30
0.0
  0
VERTEX
  5
6BB
100
AcDbEntity
  8
止水栓
  6
EXLTYPE2
 62
     6
100
AcDbVertex
100
AcDb2dVertex
 10
399.733828
 20
871.918848
 30
0.0
  0
VERTEX
  5
6BC
100
AcDbEntity
  8
止水栓
  6
EXLTYPE2
 62
     6
100
AcDbVertex
100
AcDb2dVertex
 10
399.601992
 20
872.241114
 30
0.0
  0
VERTEX
  5
6BD
100
AcDbEntity
  8
止水栓
  6
EXLTYPE2
 62
     6
100
AcDbVertex
100
AcDb2dVertex
 10
399.457949
 20
872.536524
 30
0.0
  0
VERTEX
  5
6BE
100
AcDbEntity
  8
止水栓
  6
EXLTYPE2
 62
     6
100
AcDbVertex
100
AcDb2dVertex
 10
399.301699
 20
872.809961
 30
0.0
  0
VERTEX
  5
6BF
100
AcDbEntity
  8
止水栓
  6
EXLTYPE2
 62
     6
100
AcDbVertex
100
AcDb2dVertex
 10
399.130801
 20
873.056543
 30
0.0
  0
VERTEX
  5
6C0
100
AcDbEntity
  8
止水栓
  6
EXLTYPE2
 62
     6
100
AcDbVertex
100
AcDb2dVertex
 10
398.952578
 20
873.273829
 30
0.0
  0
VERTEX
  5
6C1
100
AcDbEntity
  8
止水栓
  6
EXLTYPE2
 62
     6
100
AcDbVertex
100
AcDb2dVertex
 10
398.762149
 20
873.459375
 30
0.0
  0
VERTEX
  5
6C2
100
AcDbEntity
  8
止水栓
  6
EXLTYPE2
 62
     6
100
AcDbVertex
100
AcDb2dVertex
 10
398.564395
 20
873.613184
 30
0.0
  0
VERTEX
  5
6C3
100
AcDbEntity
  8
止水栓
  6
EXLTYPE2
 62
     6
100
AcDbVertex
100
AcDb2dVertex
 10
398.361758
 20
873.735254
 30
0.0
  0
VERTEX
  5
6C4
100
AcDbEntity
  8
止水栓
  6
EXLTYPE2
 62
     6
100
AcDbVertex
100
AcDb2dVertex
 10
398.151797
 20
873.823145
 30
0.0
  0
VERTEX
  5
6C5
100
AcDbEntity
  8
止水栓
  6
EXLTYPE2
 62
     6
100
AcDbVertex
100
AcDb2dVertex
 10
397.939395
 20
873.876856
 30
0.0
  0
VERTEX
  5
6C6
100
AcDbEntity
  8
止水栓
  6
EXLTYPE2
 62
     6
100
AcDbVertex
100
AcDb2dVertex
 10
397.726992
 20
873.893946
 30
0.0
  0
VERTEX
  5
6C7
100
AcDbEntity
  8
止水栓
  6
EXLTYPE2
 62
     6
100
AcDbVertex
100
AcDb2dVertex
 10
397.512149
 20
873.874414
 30
0.0
  0
VERTEX
  5
6C8
100
AcDbEntity
  8
止水栓
  6
EXLTYPE2
 62
     6
100
AcDbVertex
100
AcDb2dVertex
 10
397.302188
 20
873.823145
 30
0.0
  0
VERTEX
  5
6C9
100
AcDbEntity
  8
止水栓
  6
EXLTYPE2
 62
     6
100
AcDbVertex
100
AcDb2dVertex
 10
397.092227
 20
873.735254
 30
0.0
  0
VERTEX
  5
6CA
100
AcDbEntity
  8
止水栓
  6
EXLTYPE2
 62
     6
100
AcDbVertex
100
AcDb2dVertex
 10
396.88959
 20
873.613184
 30
0.0
  0
VERTEX
  5
6CB
100
AcDbEntity
  8
止水栓
  6
EXLTYPE2
 62
     6
100
AcDbVertex
100
AcDb2dVertex
 10
396.691836
 20
873.459375
 30
0.0
  0
SEQEND
  5
6CC
100
AcDbEntity
  8
止水栓
  6
EXLTYPE2
 62
     6
  0
LINE
  5
6CD
100
AcDbEntity
  8
止水栓
  6
EXLTYPE2
 62
     6
100
AcDbLine
 10
398.173282
 20
863.520411
 30
0.0
 11
398.173282
 21
858.520411
 31
0.0
  0
POLYLINE
  5
6CE
100
AcDbEntity
  8
止水栓
  6
EXLTYPE2
 62
     6
100
AcDb2dPolyline
 66
     1
 10
0.0
 20
0.0
 30
0.0
 70
   128
  0
VERTEX
  5
6CF
100
AcDbEntity
  8
止水栓
  6
EXLTYPE2
 62
     6
100
AcDbVertex
100
AcDb2dVertex
 10
375.178164
 20
869.269922
 30
0.0
  0
VERTEX
  5
6D0
100
AcDbEntity
  8
止水栓
  6
EXLTYPE2
 62
     6
100
AcDbVertex
100
AcDb2dVertex
 10
375.18793
 20
868.832911
 30
0.0
  0
VERTEX
  5
6D1
100
AcDbEntity
  8
止水栓
  6
EXLTYPE2
 62
     6
100
AcDbVertex
100
AcDb2dVertex
 10
375.214785
 20
868.400782
 30
0.0
  0
VERTEX
  5
6D2
100
AcDbEntity
  8
止水栓
  6
EXLTYPE2
 62
     6
100
AcDbVertex
100
AcDb2dVertex
 10
375.261172
 20
867.975977
 30
0.0
  0
VERTEX
  5
6D3
100
AcDbEntity
  8
止水栓
  6
EXLTYPE2
 62
     6
100
AcDbVertex
100
AcDb2dVertex
 10
375.32709
 20
867.560938
 30
0.0
  0
VERTEX
  5
6D4
100
AcDbEntity
  8
止水栓
  6
EXLTYPE2
 62
     6
100
AcDbVertex
100
AcDb2dVertex
 10
375.407657
 20
867.160547
 30
0.0
  0
VERTEX
  5
6D5
100
AcDbEntity
  8
止水栓
  6
EXLTYPE2
 62
     6
100
AcDbVertex
100
AcDb2dVertex
 10
375.505313
 20
866.774805
 30
0.0
  0
VERTEX
  5
6D6
100
AcDbEntity
  8
止水栓
  6
EXLTYPE2
 62
     6
100
AcDbVertex
100
AcDb2dVertex
 10
375.6225
 20
866.406153
 30
0.0
  0
VERTEX
  5
6D7
100
AcDbEntity
  8
止水栓
  6
EXLTYPE2
 62
     6
100
AcDbVertex
100
AcDb2dVertex
 10
375.751895
 20
866.061914
 30
0.0
  0
VERTEX
  5
6D8
100
AcDbEntity
  8
止水栓
  6
EXLTYPE2
 62
     6
100
AcDbVertex
100
AcDb2dVertex
 10
375.895938
 20
865.739649
 30
0.0
  0
VERTEX
  5
6D9
100
AcDbEntity
  8
止水栓
  6
EXLTYPE2
 62
     6
100
AcDbVertex
100
AcDb2dVertex
 10
376.054629
 20
865.44668
 30
0.0
  0
VERTEX
  5
6DA
100
AcDbEntity
  8
止水栓
  6
EXLTYPE2
 62
     6
100
AcDbVertex
100
AcDb2dVertex
 10
376.223086
 20
865.180567
 30
0.0
  0
VERTEX
  5
6DB
100
AcDbEntity
  8
止水栓
  6
EXLTYPE2
 62
     6
100
AcDbVertex
100
AcDb2dVertex
 10
376.40375
 20
864.948633
 30
0.0
  0
VERTEX
  5
6DC
100
AcDbEntity
  8
止水栓
  6
EXLTYPE2
 62
     6
100
AcDbVertex
100
AcDb2dVertex
 10
376.591739
 20
864.745997
 30
0.0
  0
VERTEX
  5
6DD
100
AcDbEntity
  8
止水栓
  6
EXLTYPE2
 62
     6
100
AcDbVertex
100
AcDb2dVertex
 10
376.789492
 20
864.579981
 30
0.0
  0
VERTEX
  5
6DE
100
AcDbEntity
  8
止水栓
  6
EXLTYPE2
 62
     6
100
AcDbVertex
100
AcDb2dVertex
 10
376.994571
 20
864.448145
 30
0.0
  0
VERTEX
  5
6DF
100
AcDbEntity
  8
止水栓
  6
EXLTYPE2
 62
     6
100
AcDbVertex
100
AcDb2dVertex
 10
377.20209
 20
864.355372
 30
0.0
  0
VERTEX
  5
6E0
100
AcDbEntity
  8
止水栓
  6
EXLTYPE2
 62
     6
100
AcDbVertex
100
AcDb2dVertex
 10
377.414492
 20
864.296778
 30
0.0
  0
VERTEX
  5
6E1
100
AcDbEntity
  8
止水栓
  6
EXLTYPE2
 62
     6
100
AcDbVertex
100
AcDb2dVertex
 10
377.626895
 20
864.279688
 30
0.0
  0
VERTEX
  5
6E2
100
AcDbEntity
  8
止水栓
  6
EXLTYPE2
 62
     6
100
AcDbVertex
100
AcDb2dVertex
 10
377.841739
 20
864.299219
 30
0.0
  0
VERTEX
  5
6E3
100
AcDbEntity
  8
止水栓
  6
EXLTYPE2
 62
     6
100
AcDbVertex
100
AcDb2dVertex
 10
378.054141
 20
864.355372
 30
0.0
  0
VERTEX
  5
6E4
100
AcDbEntity
  8
止水栓
  6
EXLTYPE2
 62
     6
100
AcDbVertex
100
AcDb2dVertex
 10
378.26166
 20
864.448145
 30
0.0
  0
VERTEX
  5
6E5
100
AcDbEntity
  8
止水栓
  6
EXLTYPE2
 62
     6
100
AcDbVertex
100
AcDb2dVertex
 10
378.466739
 20
864.579981
 30
0.0
  0
VERTEX
  5
6E6
100
AcDbEntity
  8
止水栓
  6
EXLTYPE2
 62
     6
100
AcDbVertex
100
AcDb2dVertex
 10
378.664492
 20
864.745997
 30
0.0
  0
VERTEX
  5
6E7
100
AcDbEntity
  8
止水栓
  6
EXLTYPE2
 62
     6
100
AcDbVertex
100
AcDb2dVertex
 10
378.852481
 20
864.948633
 30
0.0
  0
VERTEX
  5
6E8
100
AcDbEntity
  8
止水栓
  6
EXLTYPE2
 62
     6
100
AcDbVertex
100
AcDb2dVertex
 10
379.033145
 20
865.183008
 30
0.0
  0
VERTEX
  5
6E9
100
AcDbEntity
  8
止水栓
  6
EXLTYPE2
 62
     6
100
AcDbVertex
100
AcDb2dVertex
 10
379.201602
 20
865.44668
 30
0.0
  0
VERTEX
  5
6EA
100
AcDbEntity
  8
止水栓
  6
EXLTYPE2
 62
     6
100
AcDbVertex
100
AcDb2dVertex
 10
379.360293
 20
865.739649
 30
0.0
  0
VERTEX
  5
6EB
100
AcDbEntity
  8
止水栓
  6
EXLTYPE2
 62
     6
100
AcDbVertex
100
AcDb2dVertex
 10
379.504336
 20
866.061914
 30
0.0
  0
VERTEX
  5
6EC
100
AcDbEntity
  8
止水栓
  6
EXLTYPE2
 62
     6
100
AcDbVertex
100
AcDb2dVertex
 10
379.633731
 20
866.406153
 30
0.0
  0
VERTEX
  5
6ED
100
AcDbEntity
  8
止水栓
  6
EXLTYPE2
 62
     6
100
AcDbVertex
100
AcDb2dVertex
 10
379.748477
 20
866.774805
 30
0.0
  0
VERTEX
  5
6EE
100
AcDbEntity
  8
止水栓
  6
EXLTYPE2
 62
     6
100
AcDbVertex
100
AcDb2dVertex
 10
379.848574
 20
867.160547
 30
0.0
  0
VERTEX
  5
6EF
100
AcDbEntity
  8
止水栓
  6
EXLTYPE2
 62
     6
100
AcDbVertex
100
AcDb2dVertex
 10
379.929141
 20
867.563379
 30
0.0
  0
VERTEX
  5
6F0
100
AcDbEntity
  8
止水栓
  6
EXLTYPE2
 62
     6
100
AcDbVertex
100
AcDb2dVertex
 10
379.995059
 20
867.978418
 30
0.0
  0
VERTEX
  5
6F1
100
AcDbEntity
  8
止水栓
  6
EXLTYPE2
 62
     6
100
AcDbVertex
100
AcDb2dVertex
 10
380.041446
 20
868.403223
 30
0.0
  0
VERTEX
  5
6F2
100
AcDbEntity
  8
止水栓
  6
EXLTYPE2
 62
     6
100
AcDbVertex
100
AcDb2dVertex
 10
380.068301
 20
868.835352
 30
0.0
  0
VERTEX
  5
6F3
100
AcDbEntity
  8
止水栓
  6
EXLTYPE2
 62
     6
100
AcDbVertex
100
AcDb2dVertex
 10
380.078067
 20
869.269922
 30
0.0
  0
VERTEX
  5
6F4
100
AcDbEntity
  8
止水栓
  6
EXLTYPE2
 62
     6
100
AcDbVertex
100
AcDb2dVertex
 10
380.068301
 20
869.704493
 30
0.0
  0
VERTEX
  5
6F5
100
AcDbEntity
  8
止水栓
  6
EXLTYPE2
 62
     6
100
AcDbVertex
100
AcDb2dVertex
 10
380.039004
 20
870.136622
 30
0.0
  0
VERTEX
  5
6F6
100
AcDbEntity
  8
止水栓
  6
EXLTYPE2
 62
     6
100
AcDbVertex
100
AcDb2dVertex
 10
379.992617
 20
870.561426
 30
0.0
  0
VERTEX
  5
6F7
100
AcDbEntity
  8
止水栓
  6
EXLTYPE2
 62
     6
100
AcDbVertex
100
AcDb2dVertex
 10
379.929141
 20
870.976465
 30
0.0
  0
VERTEX
  5
6F8
100
AcDbEntity
  8
止水栓
  6
EXLTYPE2
 62
     6
100
AcDbVertex
100
AcDb2dVertex
 10
379.848574
 20
871.379297
 30
0.0
  0
VERTEX
  5
6F9
100
AcDbEntity
  8
止水栓
  6
EXLTYPE2
 62
     6
100
AcDbVertex
100
AcDb2dVertex
 10
379.748477
 20
871.765039
 30
0.0
  0
VERTEX
  5
6FA
100
AcDbEntity
  8
止水栓
  6
EXLTYPE2
 62
     6
100
AcDbVertex
100
AcDb2dVertex
 10
379.633731
 20
872.13125
 30
0.0
  0
VERTEX
  5
6FB
100
AcDbEntity
  8
止水栓
  6
EXLTYPE2
 62
     6
100
AcDbVertex
100
AcDb2dVertex
 10
379.504336
 20
872.47793
 30
0.0
  0
VERTEX
  5
6FC
100
AcDbEntity
  8
止水栓
  6
EXLTYPE2
 62
     6
100
AcDbVertex
100
AcDb2dVertex
 10
379.360293
 20
872.797754
 30
0.0
  0
VERTEX
  5
6FD
100
AcDbEntity
  8
止水栓
  6
EXLTYPE2
 62
     6
100
AcDbVertex
100
AcDb2dVertex
 10
379.201602
 20
873.093164
 30
0.0
  0
VERTEX
  5
6FE
100
AcDbEntity
  8
止水栓
  6
EXLTYPE2
 62
     6
100
AcDbVertex
100
AcDb2dVertex
 10
379.033145
 20
873.356836
 30
0.0
  0
VERTEX
  5
6FF
100
AcDbEntity
  8
止水栓
  6
EXLTYPE2
 62
     6
100
AcDbVertex
100
AcDb2dVertex
 10
378.852481
 20
873.591211
 30
0.0
  0
VERTEX
  5
700
100
AcDbEntity
  8
止水栓
  6
EXLTYPE2
 62
     6
100
AcDbVertex
100
AcDb2dVertex
 10
378.664492
 20
873.791407
 30
0.0
  0
VERTEX
  5
701
100
AcDbEntity
  8
止水栓
  6
EXLTYPE2
 62
     6
100
AcDbVertex
100
AcDb2dVertex
 10
378.466739
 20
873.959864
 30
0.0
  0
VERTEX
  5
702
100
AcDbEntity
  8
止水栓
  6
EXLTYPE2
 62
     6
100
AcDbVertex
100
AcDb2dVertex
 10
378.26166
 20
874.089258
 30
0.0
  0
VERTEX
  5
703
100
AcDbEntity
  8
止水栓
  6
EXLTYPE2
 62
     6
100
AcDbVertex
100
AcDb2dVertex
 10
378.054141
 20
874.184473
 30
0.0
  0
VERTEX
  5
704
100
AcDbEntity
  8
止水栓
  6
EXLTYPE2
 62
     6
100
AcDbVertex
100
AcDb2dVertex
 10
377.841739
 20
874.240625
 30
0.0
  0
VERTEX
  5
705
100
AcDbEntity
  8
止水栓
  6
EXLTYPE2
 62
     6
100
AcDbVertex
100
AcDb2dVertex
 10
377.626895
 20
874.260157
 30
0.0
  0
VERTEX
  5
706
100
AcDbEntity
  8
止水栓
  6
EXLTYPE2
 62
     6
100
AcDbVertex
100
AcDb2dVertex
 10
377.414492
 20
874.240625
 30
0.0
  0
VERTEX
  5
707
100
AcDbEntity
  8
止水栓
  6
EXLTYPE2
 62
     6
100
AcDbVertex
100
AcDb2dVertex
 10
377.20209
 20
874.184473
 30
0.0
  0
VERTEX
  5
708
100
AcDbEntity
  8
止水栓
  6
EXLTYPE2
 62
     6
100
AcDbVertex
100
AcDb2dVertex
 10
376.994571
 20
874.089258
 30
0.0
  0
VERTEX
  5
709
100
AcDbEntity
  8
止水栓
  6
EXLTYPE2
 62
     6
100
AcDbVertex
100
AcDb2dVertex
 10
376.789492
 20
873.959864
 30
0.0
  0
VERTEX
  5
70A
100
AcDbEntity
  8
止水栓
  6
EXLTYPE2
 62
     6
100
AcDbVertex
100
AcDb2dVertex
 10
376.591739
 20
873.791407
 30
0.0
  0
SEQEND
  5
70B
100
AcDbEntity
  8
止水栓
  6
EXLTYPE2
 62
     6
  0
ARC
  5
70C
100
AcDbEntity
  8
止水栓
  6
EXLTYPE2
 62
     6
100
AcDbCircle
 10
385.922793
 20
869.521387
 30
0.0
 40
10.998535
100
AcDbArc
 50
146.94841
 51
213.059082
  0
LINE
  5
70D
100
AcDbEntity
  8
止水栓
  6
EXLTYPE2
 62
     6
100
AcDbLine
 10
377.173282
 20
863.520411
 30
0.0
 11
377.173282
 21
858.520411
 31
0.0
  0
LINE
  5
70E
100
AcDbEntity
  8
止水栓
  6
EXLTYPE2
 62
     6
100
AcDbLine
 10
376.704043
 20
863.520411
 30
0.0
 11
398.64252
 21
863.520411
 31
0.0
  0
LINE
  5
70F
100
AcDbEntity
  8
止水栓
  6
EXLTYPE2
 62
     6
100
AcDbLine
 10
377.173282
 20
858.520411
 30
0.0
 11
398.173282
 21
858.520411
 31
0.0
  0
POLYLINE
  5
710
100
AcDbEntity
  8
止水栓
  6
EXLTYPE2
 62
     6
100
AcDb2dPolyline
 66
     1
 10
0.0
 20
0.0
 30
0.0
 70
   128
  0
VERTEX
  5
711
100
AcDbEntity
  8
止水栓
  6
EXLTYPE2
 62
     6
100
AcDbVertex
100
AcDb2dVertex
 10
387.673282
 20
863.735254
 30
0.0
  0
VERTEX
  5
712
100
AcDbEntity
  8
止水栓
  6
EXLTYPE2
 62
     6
100
AcDbVertex
100
AcDb2dVertex
 10
388.171328
 20
863.757227
 30
0.0
  0
VERTEX
  5
713
100
AcDbEntity
  8
止水栓
  6
EXLTYPE2
 62
     6
100
AcDbVertex
100
AcDb2dVertex
 10
388.666934
 20
863.823145
 30
0.0
  0
VERTEX
  5
714
100
AcDbEntity
  8
止水栓
  6
EXLTYPE2
 62
     6
100
AcDbVertex
100
AcDb2dVertex
 10
389.155215
 20
863.925684
 30
0.0
  0
VERTEX
  5
715
100
AcDbEntity
  8
止水栓
  6
EXLTYPE2
 62
     6
100
AcDbVertex
100
AcDb2dVertex
 10
389.641055
 20
864.072168
 30
0.0
  0
VERTEX
  5
716
100
AcDbEntity
  8
止水栓
  6
EXLTYPE2
 62
     6
100
AcDbVertex
100
AcDb2dVertex
 10
390.109805
 20
864.257715
 30
0.0
  0
VERTEX
  5
717
100
AcDbEntity
  8
止水栓
  6
EXLTYPE2
 62
     6
100
AcDbVertex
100
AcDb2dVertex
 10
390.561465
 20
864.479883
 30
0.0
  0
VERTEX
  5
718
100
AcDbEntity
  8
止水栓
  6
EXLTYPE2
 62
     6
100
AcDbVertex
100
AcDb2dVertex
 10
390.991153
 20
864.741114
 30
0.0
  0
VERTEX
  5
719
100
AcDbEntity
  8
止水栓
  6
EXLTYPE2
 62
     6
100
AcDbVertex
100
AcDb2dVertex
 10
391.393985
 20
865.036524
 30
0.0
  0
VERTEX
  5
71A
100
AcDbEntity
  8
止水栓
  6
EXLTYPE2
 62
     6
100
AcDbVertex
100
AcDb2dVertex
 10
391.769961
 20
865.363672
 30
0.0
  0
VERTEX
  5
71B
100
AcDbEntity
  8
止水栓
  6
EXLTYPE2
 62
     6
100
AcDbVertex
100
AcDb2dVertex
 10
392.111758
 20
865.722559
 30
0.0
  0
VERTEX
  5
71C
100
AcDbEntity
  8
止水栓
  6
EXLTYPE2
 62
     6
100
AcDbVertex
100
AcDb2dVertex
 10
392.421817
 20
866.108301
 30
0.0
  0
VERTEX
  5
71D
100
AcDbEntity
  8
止水栓
  6
EXLTYPE2
 62
     6
100
AcDbVertex
100
AcDb2dVertex
 10
392.695254
 20
866.516016
 30
0.0
  0
VERTEX
  5
71E
100
AcDbEntity
  8
止水栓
  6
EXLTYPE2
 62
     6
100
AcDbVertex
100
AcDb2dVertex
 10
392.932071
 20
866.945704
 30
0.0
  0
VERTEX
  5
71F
100
AcDbEntity
  8
止水栓
  6
EXLTYPE2
 62
     6
100
AcDbVertex
100
AcDb2dVertex
 10
393.124942
 20
867.394922
 30
0.0
  0
VERTEX
  5
720
100
AcDbEntity
  8
止水栓
  6
EXLTYPE2
 62
     6
100
AcDbVertex
100
AcDb2dVertex
 10
393.27875
 20
867.858789
 30
0.0
  0
VERTEX
  5
721
100
AcDbEntity
  8
止水栓
  6
EXLTYPE2
 62
     6
100
AcDbVertex
100
AcDb2dVertex
 10
393.388614
 20
868.332422
 30
0.0
  0
VERTEX
  5
722
100
AcDbEntity
  8
止水栓
  6
EXLTYPE2
 62
     6
100
AcDbVertex
100
AcDb2dVertex
 10
393.454532
 20
868.813379
 30
0.0
  0
VERTEX
  5
723
100
AcDbEntity
  8
止水栓
  6
EXLTYPE2
 62
     6
100
AcDbVertex
100
AcDb2dVertex
 10
393.478946
 20
869.296778
 30
0.0
  0
VERTEX
  5
724
100
AcDbEntity
  8
止水栓
  6
EXLTYPE2
 62
     6
100
AcDbVertex
100
AcDb2dVertex
 10
393.454532
 20
869.782618
 30
0.0
  0
VERTEX
  5
725
100
AcDbEntity
  8
止水栓
  6
EXLTYPE2
 62
     6
100
AcDbVertex
100
AcDb2dVertex
 10
393.388614
 20
870.263575
 30
0.0
  0
VERTEX
  5
726
100
AcDbEntity
  8
止水栓
  6
EXLTYPE2
 62
     6
100
AcDbVertex
100
AcDb2dVertex
 10
393.27875
 20
870.737207
 30
0.0
  0
VERTEX
  5
727
100
AcDbEntity
  8
止水栓
  6
EXLTYPE2
 62
     6
100
AcDbVertex
100
AcDb2dVertex
 10
393.124942
 20
871.198633
 30
0.0
  0
VERTEX
  5
728
100
AcDbEntity
  8
止水栓
  6
EXLTYPE2
 62
     6
100
AcDbVertex
100
AcDb2dVertex
 10
392.932071
 20
871.647852
 30
0.0
  0
VERTEX
  5
729
100
AcDbEntity
  8
止水栓
  6
EXLTYPE2
 62
     6
100
AcDbVertex
100
AcDb2dVertex
 10
392.695254
 20
872.077539
 30
0.0
  0
VERTEX
  5
72A
100
AcDbEntity
  8
止水栓
  6
EXLTYPE2
 62
     6
100
AcDbVertex
100
AcDb2dVertex
 10
392.421817
 20
872.487696
 30
0.0
  0
VERTEX
  5
72B
100
AcDbEntity
  8
止水栓
  6
EXLTYPE2
 62
     6
100
AcDbVertex
100
AcDb2dVertex
 10
392.111758
 20
872.870997
 30
0.0
  0
VERTEX
  5
72C
100
AcDbEntity
  8
止水栓
  6
EXLTYPE2
 62
     6
100
AcDbVertex
100
AcDb2dVertex
 10
391.769961
 20
873.229883
 30
0.0
  0
VERTEX
  5
72D
100
AcDbEntity
  8
止水栓
  6
EXLTYPE2
 62
     6
100
AcDbVertex
100
AcDb2dVertex
 10
391.393985
 20
873.557032
 30
0.0
  0
VERTEX
  5
72E
100
AcDbEntity
  8
止水栓
  6
EXLTYPE2
 62
     6
100
AcDbVertex
100
AcDb2dVertex
 10
390.991153
 20
873.852442
 30
0.0
  0
VERTEX
  5
72F
100
AcDbEntity
  8
止水栓
  6
EXLTYPE2
 62
     6
100
AcDbVertex
100
AcDb2dVertex
 10
390.561465
 20
874.113672
 30
0.0
  0
VERTEX
  5
730
100
AcDbEntity
  8
止水栓
  6
EXLTYPE2
 62
     6
100
AcDbVertex
100
AcDb2dVertex
 10
390.109805
 20
874.338282
 30
0.0
  0
VERTEX
  5
731
100
AcDbEntity
  8
止水栓
  6
EXLTYPE2
 62
     6
100
AcDbVertex
100
AcDb2dVertex
 10
389.641055
 20
874.523829
 30
0.0
  0
VERTEX
  5
732
100
AcDbEntity
  8
止水栓
  6
EXLTYPE2
 62
     6
100
AcDbVertex
100
AcDb2dVertex
 10
389.155215
 20
874.667872
 30
0.0
  0
VERTEX
  5
733
100
AcDbEntity
  8
止水栓
  6
EXLTYPE2
 62
     6
100
AcDbVertex
100
AcDb2dVertex
 10
388.65961
 20
874.772852
 30
0.0
  0
VERTEX
  5
734
100
AcDbEntity
  8
止水栓
  6
EXLTYPE2
 62
     6
100
AcDbVertex
100
AcDb2dVertex
 10
388.154239
 20
874.836329
 30
0.0
  0
VERTEX
  5
735
100
AcDbEntity
  8
止水栓
  6
EXLTYPE2
 62
     6
100
AcDbVertex
100
AcDb2dVertex
 10
387.646426
 20
874.858301
 30
0.0
  0
VERTEX
  5
736
100
AcDbEntity
  8
止水栓
  6
EXLTYPE2
 62
     6
100
AcDbVertex
100
AcDb2dVertex
 10
387.138614
 20
874.836329
 30
0.0
  0
VERTEX
  5
737
100
AcDbEntity
  8
止水栓
  6
EXLTYPE2
 62
     6
100
AcDbVertex
100
AcDb2dVertex
 10
386.633242
 20
874.772852
 30
0.0
  0
VERTEX
  5
738
100
AcDbEntity
  8
止水栓
  6
EXLTYPE2
 62
     6
100
AcDbVertex
100
AcDb2dVertex
 10
386.137637
 20
874.667872
 30
0.0
  0
VERTEX
  5
739
100
AcDbEntity
  8
止水栓
  6
EXLTYPE2
 62
     6
100
AcDbVertex
100
AcDb2dVertex
 10
385.651797
 20
874.523829
 30
0.0
  0
VERTEX
  5
73A
100
AcDbEntity
  8
止水栓
  6
EXLTYPE2
 62
     6
100
AcDbVertex
100
AcDb2dVertex
 10
385.183047
 20
874.338282
 30
0.0
  0
VERTEX
  5
73B
100
AcDbEntity
  8
止水栓
  6
EXLTYPE2
 62
     6
100
AcDbVertex
100
AcDb2dVertex
 10
384.731387
 20
874.113672
 30
0.0
  0
VERTEX
  5
73C
100
AcDbEntity
  8
止水栓
  6
EXLTYPE2
 62
     6
100
AcDbVertex
100
AcDb2dVertex
 10
384.301699
 20
873.852442
 30
0.0
  0
VERTEX
  5
73D
100
AcDbEntity
  8
止水栓
  6
EXLTYPE2
 62
     6
100
AcDbVertex
100
AcDb2dVertex
 10
383.898867
 20
873.557032
 30
0.0
  0
VERTEX
  5
73E
100
AcDbEntity
  8
止水栓
  6
EXLTYPE2
 62
     6
100
AcDbVertex
100
AcDb2dVertex
 10
383.522891
 20
873.229883
 30
0.0
  0
VERTEX
  5
73F
100
AcDbEntity
  8
止水栓
  6
EXLTYPE2
 62
     6
100
AcDbVertex
100
AcDb2dVertex
 10
383.181094
 20
872.870997
 30
0.0
  0
VERTEX
  5
740
100
AcDbEntity
  8
止水栓
  6
EXLTYPE2
 62
     6
100
AcDbVertex
100
AcDb2dVertex
 10
382.871035
 20
872.487696
 30
0.0
  0
VERTEX
  5
741
100
AcDbEntity
  8
止水栓
  6
EXLTYPE2
 62
     6
100
AcDbVertex
100
AcDb2dVertex
 10
382.597598
 20
872.077539
 30
0.0
  0
VERTEX
  5
742
100
AcDbEntity
  8
止水栓
  6
EXLTYPE2
 62
     6
100
AcDbVertex
100
AcDb2dVertex
 10
382.360782
 20
871.647852
 30
0.0
  0
VERTEX
  5
743
100
AcDbEntity
  8
止水栓
  6
EXLTYPE2
 62
     6
100
AcDbVertex
100
AcDb2dVertex
 10
382.16791
 20
871.198633
 30
0.0
  0
VERTEX
  5
744
100
AcDbEntity
  8
止水栓
  6
EXLTYPE2
 62
     6
100
AcDbVertex
100
AcDb2dVertex
 10
382.014102
 20
870.737207
 30
0.0
  0
VERTEX
  5
745
100
AcDbEntity
  8
止水栓
  6
EXLTYPE2
 62
     6
100
AcDbVertex
100
AcDb2dVertex
 10
381.904239
 20
870.263575
 30
0.0
  0
VERTEX
  5
746
100
AcDbEntity
  8
止水栓
  6
EXLTYPE2
 62
     6
100
AcDbVertex
100
AcDb2dVertex
 10
381.838321
 20
869.782618
 30
0.0
  0
VERTEX
  5
747
100
AcDbEntity
  8
止水栓
  6
EXLTYPE2
 62
     6
100
AcDbVertex
100
AcDb2dVertex
 10
381.816348
 20
869.299219
 30
0.0
  0
SEQEND
  5
748
100
AcDbEntity
  8
止水栓
  6
EXLTYPE2
 62
     6
  0
POLYLINE
  5
749
100
AcDbEntity
  8
止水栓
  6
EXLTYPE2
 62
     6
100
AcDb2dPolyline
 66
     1
 10
0.0
 20
0.0
 30
0.0
 70
   128
  0
VERTEX
  5
74A
100
AcDbEntity
  8
止水栓
  6
EXLTYPE2
 62
     6
100
AcDbVertex
100
AcDb2dVertex
 10
381.816348
 20
869.296778
 30
0.0
  0
VERTEX
  5
74B
100
AcDbEntity
  8
止水栓
  6
EXLTYPE2
 62
     6
100
AcDbVertex
100
AcDb2dVertex
 10
381.838321
 20
868.813379
 30
0.0
  0
VERTEX
  5
74C
100
AcDbEntity
  8
止水栓
  6
EXLTYPE2
 62
     6
100
AcDbVertex
100
AcDb2dVertex
 10
381.904239
 20
868.332422
 30
0.0
  0
VERTEX
  5
74D
100
AcDbEntity
  8
止水栓
  6
EXLTYPE2
 62
     6
100
AcDbVertex
100
AcDb2dVertex
 10
382.014102
 20
867.858789
 30
0.0
  0
VERTEX
  5
74E
100
AcDbEntity
  8
止水栓
  6
EXLTYPE2
 62
     6
100
AcDbVertex
100
AcDb2dVertex
 10
382.16791
 20
867.394922
 30
0.0
  0
VERTEX
  5
74F
100
AcDbEntity
  8
止水栓
  6
EXLTYPE2
 62
     6
100
AcDbVertex
100
AcDb2dVertex
 10
382.360782
 20
866.948145
 30
0.0
  0
VERTEX
  5
750
100
AcDbEntity
  8
止水栓
  6
EXLTYPE2
 62
     6
100
AcDbVertex
100
AcDb2dVertex
 10
382.597598
 20
866.516016
 30
0.0
  0
VERTEX
  5
751
100
AcDbEntity
  8
止水栓
  6
EXLTYPE2
 62
     6
100
AcDbVertex
100
AcDb2dVertex
 10
382.871035
 20
866.108301
 30
0.0
  0
VERTEX
  5
752
100
AcDbEntity
  8
止水栓
  6
EXLTYPE2
 62
     6
100
AcDbVertex
100
AcDb2dVertex
 10
383.181094
 20
865.722559
 30
0.0
  0
VERTEX
  5
753
100
AcDbEntity
  8
止水栓
  6
EXLTYPE2
 62
     6
100
AcDbVertex
100
AcDb2dVertex
 10
383.522891
 20
865.366114
 30
0.0
  0
VERTEX
  5
754
100
AcDbEntity
  8
止水栓
  6
EXLTYPE2
 62
     6
100
AcDbVertex
100
AcDb2dVertex
 10
383.898867
 20
865.036524
 30
0.0
  0
VERTEX
  5
755
100
AcDbEntity
  8
止水栓
  6
EXLTYPE2
 62
     6
100
AcDbVertex
100
AcDb2dVertex
 10
384.301699
 20
864.743555
 30
0.0
  0
VERTEX
  5
756
100
AcDbEntity
  8
止水栓
  6
EXLTYPE2
 62
     6
100
AcDbVertex
100
AcDb2dVertex
 10
384.731387
 20
864.479883
 30
0.0
  0
VERTEX
  5
757
100
AcDbEntity
  8
止水栓
  6
EXLTYPE2
 62
     6
100
AcDbVertex
100
AcDb2dVertex
 10
385.183047
 20
864.255274
 30
0.0
  0
VERTEX
  5
758
100
AcDbEntity
  8
止水栓
  6
EXLTYPE2
 62
     6
100
AcDbVertex
100
AcDb2dVertex
 10
385.651797
 20
864.069727
 30
0.0
  0
VERTEX
  5
759
100
AcDbEntity
  8
止水栓
  6
EXLTYPE2
 62
     6
100
AcDbVertex
100
AcDb2dVertex
 10
386.137637
 20
863.925684
 30
0.0
  0
VERTEX
  5
75A
100
AcDbEntity
  8
止水栓
  6
EXLTYPE2
 62
     6
100
AcDbVertex
100
AcDb2dVertex
 10
386.633242
 20
863.820704
 30
0.0
  0
VERTEX
  5
75B
100
AcDbEntity
  8
止水栓
  6
EXLTYPE2
 62
     6
100
AcDbVertex
100
AcDb2dVertex
 10
387.138614
 20
863.757227
 30
0.0
  0
VERTEX
  5
75C
100
AcDbEntity
  8
止水栓
  6
EXLTYPE2
 62
     6
100
AcDbVertex
100
AcDb2dVertex
 10
387.646426
 20
863.735254
 30
0.0
  0
VERTEX
  5
75D
100
AcDbEntity
  8
止水栓
  6
EXLTYPE2
 62
     6
100
AcDbVertex
100
AcDb2dVertex
 10
387.656192
 20
863.735254
 30
0.0
  0
VERTEX
  5
75E
100
AcDbEntity
  8
止水栓
  6
EXLTYPE2
 62
     6
100
AcDbVertex
100
AcDb2dVertex
 10
387.663516
 20
863.735254
 30
0.0
  0
VERTEX
  5
75F
100
AcDbEntity
  8
止水栓
  6
EXLTYPE2
 62
     6
100
AcDbVertex
100
AcDb2dVertex
 10
387.673282
 20
863.735254
 30
0.0
  0
SEQEND
  5
760
100
AcDbEntity
  8
止水栓
  6
EXLTYPE2
 62
     6
  0
POLYLINE
  5
761
100
AcDbEntity
  8
止水栓
  6
EXLTYPE2
 62
     6
100
AcDb2dPolyline
 66
     1
 10
0.0
 20
0.0
 30
0.0
 70
   128
  0
VERTEX
  5
762
100
AcDbEntity
  8
止水栓
  6
EXLTYPE2
 62
     6
100
AcDbVertex
100
AcDb2dVertex
 10
395.36127
 20
870.461329
 30
0.0
  0
VERTEX
  5
763
100
AcDbEntity
  8
止水栓
  6
EXLTYPE2
 62
     6
100
AcDbVertex
100
AcDb2dVertex
 10
395.314883
 20
870.068262
 30
0.0
  0
VERTEX
  5
764
100
AcDbEntity
  8
止水栓
  6
EXLTYPE2
 62
     6
100
AcDbVertex
100
AcDb2dVertex
 10
395.285586
 20
869.667872
 30
0.0
  0
VERTEX
  5
765
100
AcDbEntity
  8
止水栓
  6
EXLTYPE2
 62
     6
100
AcDbVertex
100
AcDb2dVertex
 10
395.275821
 20
869.265039
 30
0.0
  0
SEQEND
  5
766
100
AcDbEntity
  8
止水栓
  6
EXLTYPE2
 62
     6
  0
POLYLINE
  5
767
100
AcDbEntity
  8
止水栓
  6
EXLTYPE2
 62
     6
100
AcDb2dPolyline
 66
     1
 10
0.0
 20
0.0
 30
0.0
 70
   128
  0
VERTEX
  5
768
100
AcDbEntity
  8
止水栓
  6
EXLTYPE2
 62
     6
100
AcDbVertex
100
AcDb2dVertex
 10
375.261172
 20
870.561426
 30
0.0
  0
VERTEX
  5
769
100
AcDbEntity
  8
止水栓
  6
EXLTYPE2
 62
     6
100
AcDbVertex
100
AcDb2dVertex
 10
375.214785
 20
870.136622
 30
0.0
  0
VERTEX
  5
76A
100
AcDbEntity
  8
止水栓
  6
EXLTYPE2
 62
     6
100
AcDbVertex
100
AcDb2dVertex
 10
375.18793
 20
869.704493
 30
0.0
  0
VERTEX
  5
76B
100
AcDbEntity
  8
止水栓
  6
EXLTYPE2
 62
     6
100
AcDbVertex
100
AcDb2dVertex
 10
375.178164
 20
869.269922
 30
0.0
  0
SEQEND
  5
76C
100
AcDbEntity
  8
止水栓
  6
EXLTYPE2
 62
     6
  0
POLYLINE
  5
76D
100
AcDbEntity
  8
止水栓
  6
EXLTYPE2
 62
     6
100
AcDb2dPolyline
 66
     1
 10
0.0
 20
0.0
 30
0.0
 70
   128
  0
VERTEX
  5
76E
100
AcDbEntity
  8
止水栓
  6
EXLTYPE2
 62
     6
100
AcDbVertex
100
AcDb2dVertex
 10
396.691836
 20
873.459375
 30
0.0
  0
VERTEX
  5
76F
100
AcDbEntity
  8
止水栓
  6
EXLTYPE2
 62
     6
100
AcDbVertex
100
AcDb2dVertex
 10
396.501407
 20
873.273829
 30
0.0
  0
VERTEX
  5
770
100
AcDbEntity
  8
止水栓
  6
EXLTYPE2
 62
     6
100
AcDbVertex
100
AcDb2dVertex
 10
396.320742
 20
873.056543
 30
0.0
  0
VERTEX
  5
771
100
AcDbEntity
  8
止水栓
  6
EXLTYPE2
 62
     6
100
AcDbVertex
100
AcDb2dVertex
 10
396.152285
 20
872.809961
 30
0.0
  0
VERTEX
  5
772
100
AcDbEntity
  8
止水栓
  6
EXLTYPE2
 62
     6
100
AcDbVertex
100
AcDb2dVertex
 10
395.993594
 20
872.536524
 30
0.0
  0
VERTEX
  5
773
100
AcDbEntity
  8
止水栓
  6
EXLTYPE2
 62
     6
100
AcDbVertex
100
AcDb2dVertex
 10
395.849551
 20
872.238672
 30
0.0
  0
VERTEX
  5
774
100
AcDbEntity
  8
止水栓
  6
EXLTYPE2
 62
     6
100
AcDbVertex
100
AcDb2dVertex
 10
395.720157
 20
871.918848
 30
0.0
  0
VERTEX
  5
775
100
AcDbEntity
  8
止水栓
  6
EXLTYPE2
 62
     6
100
AcDbVertex
100
AcDb2dVertex
 10
395.60541
 20
871.579493
 30
0.0
  0
VERTEX
  5
776
100
AcDbEntity
  8
止水栓
  6
EXLTYPE2
 62
     6
100
AcDbVertex
100
AcDb2dVertex
 10
395.505313
 20
871.220606
 30
0.0
  0
VERTEX
  5
777
100
AcDbEntity
  8
止水栓
  6
EXLTYPE2
 62
     6
100
AcDbVertex
100
AcDb2dVertex
 10
395.424746
 20
870.847071
 30
0.0
  0
VERTEX
  5
778
100
AcDbEntity
  8
止水栓
  6
EXLTYPE2
 62
     6
100
AcDbVertex
100
AcDb2dVertex
 10
395.36127
 20
870.461329
 30
0.0
  0
SEQEND
  5
779
100
AcDbEntity
  8
止水栓
  6
EXLTYPE2
 62
     6
  0
POLYLINE
  5
77A
100
AcDbEntity
  8
止水栓
  6
EXLTYPE2
 62
     6
100
AcDb2dPolyline
 66
     1
 10
0.0
 20
0.0
 30
0.0
 70
   128
  0
VERTEX
  5
77B
100
AcDbEntity
  8
止水栓
  6
EXLTYPE2
 62
     6
100
AcDbVertex
100
AcDb2dVertex
 10
376.591739
 20
873.791407
 30
0.0
  0
VERTEX
  5
77C
100
AcDbEntity
  8
止水栓
  6
EXLTYPE2
 62
     6
100
AcDbVertex
100
AcDb2dVertex
 10
376.40375
 20
873.591211
 30
0.0
  0
VERTEX
  5
77D
100
AcDbEntity
  8
止水栓
  6
EXLTYPE2
 62
     6
100
AcDbVertex
100
AcDb2dVertex
 10
376.223086
 20
873.356836
 30
0.0
  0
VERTEX
  5
77E
100
AcDbEntity
  8
止水栓
  6
EXLTYPE2
 62
     6
100
AcDbVertex
100
AcDb2dVertex
 10
376.052188
 20
873.093164
 30
0.0
  0
VERTEX
  5
77F
100
AcDbEntity
  8
止水栓
  6
EXLTYPE2
 62
     6
100
AcDbVertex
100
AcDb2dVertex
 10
375.895938
 20
872.797754
 30
0.0
  0
VERTEX
  5
780
100
AcDbEntity
  8
止水栓
  6
EXLTYPE2
 62
     6
100
AcDbVertex
100
AcDb2dVertex
 10
375.751895
 20
872.47793
 30
0.0
  0
VERTEX
  5
781
100
AcDbEntity
  8
止水栓
  6
EXLTYPE2
 62
     6
100
AcDbVertex
100
AcDb2dVertex
 10
375.620059
 20
872.13125
 30
0.0
  0
VERTEX
  5
782
100
AcDbEntity
  8
止水栓
  6
EXLTYPE2
 62
     6
100
AcDbVertex
100
AcDb2dVertex
 10
375.505313
 20
871.765039
 30
0.0
  0
VERTEX
  5
783
100
AcDbEntity
  8
止水栓
  6
EXLTYPE2
 62
     6
100
AcDbVertex
100
AcDb2dVertex
 10
375.407657
 20
871.379297
 30
0.0
  0
VERTEX
  5
784
100
AcDbEntity
  8
止水栓
  6
EXLTYPE2
 62
     6
100
AcDbVertex
100
AcDb2dVertex
 10
375.32709
 20
870.976465
 30
0.0
  0
VERTEX
  5
785
100
AcDbEntity
  8
止水栓
  6
EXLTYPE2
 62
     6
100
AcDbVertex
100
AcDb2dVertex
 10
375.261172
 20
870.561426
 30
0.0
  0
SEQEND
  5
786
100
AcDbEntity
  8
止水栓
  6
EXLTYPE2
 62
     6
  0
LINE
  5
787
100
AcDbEntity
  8
止水栓
  6
EXLTYPE2
 62
     6
100
AcDbLine
 10
376.704043
 20
875.519922
 30
0.0
 11
398.644046
 21
875.519922
 31
0.0
  0
LINE
  5
788
100
AcDbEntity
  8
止水栓
  6
EXLTYPE2
 62
     6
100
AcDbLine
 10
397.149044
 20
878.0
 30
0.0
 11
398.149044
 21
879.732051
 31
0.0
  0
LINE
  5
789
100
AcDbEntity
  8
止水栓
  6
EXLTYPE2
 62
     6
100
AcDbLine
 10
408.676468
 20
886.019922
 30
0.0
 11
400.929965
 21
886.019922
 31
0.0
  0
LINE
  5
78A
100
AcDbEntity
  8
止水栓
  6
EXLTYPE2
 62
     6
100
AcDbLine
 10
409.376468
 20
907.019922
 30
0.0
 11
408.676468
 21
907.019922
 31
0.0
  0
LINE
  5
78B
100
AcDbEntity
  8
止水栓
  6
EXLTYPE2
 62
     6
100
AcDbLine
 10
409.376468
 20
889.019922
 30
0.0
 11
408.676468
 21
889.019922
 31
0.0
  0
LINE
  5
78C
100
AcDbEntity
  8
止水栓
  6
EXLTYPE2
 62
     6
100
AcDbLine
 10
409.376468
 20
898.919922
 30
0.0
 11
408.676468
 21
898.919922
 31
0.0
  0
LINE
  5
78D
100
AcDbEntity
  8
止水栓
  6
EXLTYPE2
 62
     6
100
AcDbLine
 10
409.376468
 20
897.119922
 30
0.0
 11
408.676468
 21
897.119922
 31
0.0
  0
LINE
  5
78E
100
AcDbEntity
  8
止水栓
  6
EXLTYPE2
 62
     6
100
AcDbLine
 10
409.376468
 20
897.119922
 30
0.0
 11
409.376468
 21
889.019922
 31
0.0
  0
LINE
  5
78F
100
AcDbEntity
  8
止水栓
  6
EXLTYPE2
 62
     6
100
AcDbLine
 10
409.376468
 20
898.919922
 30
0.0
 11
409.376468
 21
907.019922
 31
0.0
  0
LINE
  5
790
100
AcDbEntity
  8
止水栓
  6
EXLTYPE2
 62
     6
100
AcDbLine
 10
408.676468
 20
886.019922
 30
0.0
 11
408.676468
 21
910.0
 31
0.0
  0
ARC
  5
791
100
AcDbEntity
  8
止水栓
  6
EXLTYPE2
 62
     6
100
AcDbCircle
 10
403.111835
 20
881.521095
 30
0.0
 40
5.0
100
AcDbArc
 50
115.872755
 51
172.555023
  0
LINE
  5
792
100
AcDbEntity
  8
止水栓
  6
CONTINUOUS
 62
     6
100
AcDbLine
 10
397.680364
 20
2160.999268
 30
0.0
 11
402.272649
 21
2160.999268
 31
0.0
  0
LINE
  5
793
100
AcDbEntity
  8
止水栓
  6
CONTINUOUS
 62
     6
100
AcDbLine
 10
397.680364
 20
2185.000732
 30
0.0
 11
402.272649
 21
2185.000732
 31
0.0
  0
LINE
  5
794
100
AcDbEntity
  8
止水栓
  6
CONTINUOUS
 62
     6
100
AcDbLine
 10
409.361252
 20
2172.100015
 30
0.0
 11
409.361252
 21
2164.000015
 31
0.0
  0
LINE
  5
795
100
AcDbEntity
  8
止水栓
  6
CONTINUOUS
 62
     6
100
AcDbLine
 10
409.361252
 20
2173.900015
 30
0.0
 11
409.361252
 21
2182.000015
 31
0.0
  0
LINE
  5
796
100
AcDbEntity
  8
止水栓
  6
CONTINUOUS
 62
     6
100
AcDbLine
 10
409.361252
 20
2173.900015
 30
0.0
 11
408.661252
 21
2173.900015
 31
0.0
  0
LINE
  5
797
100
AcDbEntity
  8
止水栓
  6
CONTINUOUS
 62
     6
100
AcDbLine
 10
409.361252
 20
2172.100015
 30
0.0
 11
408.661252
 21
2172.100015
 31
0.0
  0
LINE
  5
798
100
AcDbEntity
  8
止水栓
  6
CONTINUOUS
 62
     6
100
AcDbLine
 10
409.361252
 20
2182.000015
 30
0.0
 11
408.661252
 21
2182.000015
 31
0.0
  0
LINE
  5
799
100
AcDbEntity
  8
止水栓
  6
CONTINUOUS
 62
     6
100
AcDbLine
 10
409.361252
 20
2164.000015
 30
0.0
 11
408.661252
 21
2164.000015
 31
0.0
  0
ARC
  5
79A
100
AcDbEntity
  8
止水栓
  6
CONTINUOUS
 62
     6
100
AcDbCircle
 10
362.675466
 20
2144.02526
 30
0.0
 40
25.0
100
AcDbArc
 50
51.057556
 51
51.057605
  0
ARC
  5
79B
100
AcDbEntity
  8
止水栓
  6
CONTINUOUS
 62
     6
100
AcDbCircle
 10
343.586451
 20
2173.000015
 30
0.0
 40
25.78689
100
AcDbArc
 50
343.078523
 51
16.828962
  0
LINE
  5
79C
100
AcDbEntity
  8
止水栓
  6
CONTINUOUS
 62
     6
100
AcDbLine
 10
360.778471
 20
2180.465724
 30
0.0
 11
368.256886
 21
2180.465724
 31
0.0
  0
ARC
  5
79D
100
AcDbEntity
  8
止水栓
  6
CONTINUOUS
 62
     6
100
AcDbCircle
 10
385.448906
 20
2173.000015
 30
0.0
 40
25.78689
100
AcDbArc
 50
163.141624
 51
196.921477
  0
ARC
  5
79E
100
AcDbEntity
  8
止水栓
  6
CONTINUOUS
 62
     6
100
AcDbCircle
 10
366.527254
 20
2184.218475
 30
0.0
 40
6.865249
100
AcDbArc
 50
156.844796
 51
213.136123
  0
ARC
  5
79F
100
AcDbEntity
  8
止水栓
  6
CONTINUOUS
 62
     6
100
AcDbCircle
 10
362.508103
 20
2184.218475
 30
0.0
 40
6.865249
100
AcDbArc
 50
326.863877
 51
33.136123
  0
LINE
  5
7A0
100
AcDbEntity
  8
止水栓
  6
CONTINUOUS
 62
     6
100
AcDbLine
 10
360.778471
 20
2165.494462
 30
0.0
 11
368.256886
 21
2165.494462
 31
0.0
  0
ARC
  5
7A1
100
AcDbEntity
  8
止水栓
  6
CONTINUOUS
 62
     6
100
AcDbCircle
 10
366.527254
 20
2161.741711
 30
0.0
 40
6.865249
100
AcDbArc
 50
146.863877
 51
203.155204
  0
LINE
  5
7A2
100
AcDbEntity
  8
止水栓
  6
CONTINUOUS
 62
     6
100
AcDbLine
 10
360.8231
 20
2188.011072
 30
0.0
 11
359.662016
 21
2186.000015
 31
0.0
  0
ARC
  5
7A3
100
AcDbEntity
  8
止水栓
  6
CONTINUOUS
 62
     6
100
AcDbCircle
 10
371.150021
 20
2159.000015
 30
0.0
 40
2.0
100
AcDbArc
 50
90.0
 51
150.0
  0
ARC
  5
7A4
100
AcDbEntity
  8
止水栓
  6
CONTINUOUS
 62
     6
100
AcDbCircle
 10
371.150021
 20
2187.000015
 30
0.0
 40
2.0
100
AcDbArc
 50
210.0
 51
270.0
  0
LINE
  5
7A5
100
AcDbEntity
  8
止水栓
  6
CONTINUOUS
 62
     6
100
AcDbLine
 10
372.187016
 20
2185.000015
 30
0.0
 11
371.150021
 21
2185.000015
 31
0.0
  0
LINE
  5
7A6
100
AcDbEntity
  8
止水栓
  6
CONTINUOUS
 62
     6
100
AcDbLine
 10
368.256886
 20
2188.011072
 30
0.0
 11
369.41797
 21
2186.000015
 31
0.0
  0
LINE
  5
7A7
100
AcDbEntity
  8
止水栓
  6
CONTINUOUS
 62
     6
100
AcDbLine
 10
360.8231
 20
2188.011072
 30
0.0
 11
368.256886
 21
2188.011072
 31
0.0
  0
ARC
  5
7A8
100
AcDbEntity
  8
止水栓
  6
CONTINUOUS
 62
     6
100
AcDbCircle
 10
362.508103
 20
2161.741711
 30
0.0
 40
6.865249
100
AcDbArc
 50
326.863877
 51
33.136123
  0
LINE
  5
7A9
100
AcDbEntity
  8
止水栓
  6
CONTINUOUS
 62
     6
100
AcDbLine
 10
360.778471
 20
2157.988959
 30
0.0
 11
368.256886
 21
2157.988959
 31
0.0
  0
LINE
  5
7AA
100
AcDbEntity
  8
止水栓
  6
CONTINUOUS
 62
     6
100
AcDbLine
 10
368.256886
 20
2157.988959
 30
0.0
 11
369.41797
 21
2160.000015
 31
0.0
  0
LINE
  5
7AB
100
AcDbEntity
  8
止水栓
  6
CONTINUOUS
 62
     6
100
AcDbLine
 10
360.778471
 20
2158.066259
 30
0.0
 11
359.662016
 21
2160.000015
 31
0.0
  0
LINE
  5
7AC
100
AcDbEntity
  8
止水栓
  6
CONTINUOUS
 62
     6
100
AcDbLine
 10
372.066433
 20
2185.0
 30
0.0
 11
408.661252
 21
2185.0
 31
0.0
  0
LINE
  5
7AD
100
AcDbEntity
  8
止水栓
  6
CONTINUOUS
 62
     6
100
AcDbLine
 10
372.066433
 20
2161.0
 30
0.0
 11
408.661252
 21
2161.0
 31
0.0
  0
LINE
  5
7AE
100
AcDbEntity
  8
止水栓
  6
CONTINUOUS
 62
     6
100
AcDbLine
 10
408.661252
 20
2185.0
 30
0.0
 11
408.661252
 21
2161.0
 31
0.0
  0
LINE
  5
7AF
100
AcDbEntity
  8
止水栓
  6
CONTINUOUS
 62
     6
100
AcDbLine
 10
359.662016
 20
2186.000015
 30
0.0
 11
359.662016
 21
2160.000015
 31
0.0
  0
LINE
  5
7B0
100
AcDbEntity
  8
止水栓
  6
EXLTYPE2
 62
     6
100
AcDbLine
 10
355.651403
 20
2183.3
 30
0.0
 11
350.0
 21
2183.3
 31
0.0
  0
LINE
  5
7B1
100
AcDbEntity
  8
止水栓
  6
CONTINUOUS
 62
     6
100
AcDbLine
 10
359.677245
 20
2183.180324
 30
0.0
 11
355.651403
 21
2183.3
 31
0.0
  0
LINE
  5
7B2
100
AcDbEntity
  8
止水栓
  6
EXLTYPE2
 62
     6
100
AcDbLine
 10
356.16
 20
2163.53325
 30
0.0
 11
354.716769
 21
2162.7
 31
0.0
  0
LINE
  5
7B3
100
AcDbEntity
  8
止水栓
  6
CONTINUOUS
 62
     6
100
AcDbLine
 10
359.677245
 20
2162.819676
 30
0.0
 11
355.651403
 21
2162.7
 31
0.0
  0
LINE
  5
7B4
100
AcDbEntity
  8
止水栓
  6
EXLTYPE2
 62
     6
100
AcDbLine
 10
359.662016
 20
2163.642688
 30
0.0
 11
356.16
 21
2163.53325
 31
0.0
  0
LINE
  5
7B5
100
AcDbEntity
  8
止水栓
  6
EXLTYPE2
 62
     6
100
AcDbLine
 10
359.662016
 20
2182.357312
 30
0.0
 11
356.16
 21
2182.46675
 31
0.0
  0
LINE
  5
7B6
100
AcDbEntity
  8
便座
  6
CONTINUOUS
 62
     6
100
AcDbLine
 10
1174.000912
 20
1312.0
 30
0.0
 11
1174.000912
 21
1304.0
 31
0.0
  0
LINE
  5
7B7
100
AcDbEntity
  8
便座
  6
CONTINUOUS
 62
     6
100
AcDbLine
 10
619.167583
 20
2542.998932
 30
0.0
 11
689.99998
 21
2542.998932
 31
0.0
  0
LINE
  5
7B8
100
AcDbEntity
  8
便座
  6
CONTINUOUS
 62
     6
100
AcDbLine
 10
619.167583
 20
2403.001068
 30
0.0
 11
689.99998
 21
2403.001068
 31
0.0
  0
LINE
  5
7B9
100
AcDbEntity
  8
便座
  6
CONTINUOUS
 62
     6
100
AcDbLine
 10
653.99998
 20
2508.166535
 30
0.0
 11
653.99998
 21
2578.998932
 31
0.0
  0
LINE
  5
7BA
100
AcDbEntity
  8
便座
  6
CONTINUOUS
 62
     6
100
AcDbLine
 10
653.99998
 20
2166.341832
 30
0.0
 11
653.99998
 21
2439.001068
 31
0.0
  0
POLYLINE
  5
7BB
100
AcDbEntity
  8
便座
  6
CONTINUOUS
 62
     6
100
AcDb2dPolyline
 66
     1
 10
0.0
 20
0.0
 30
0.0
 70
   128
  0
VERTEX
  5
7BC
100
AcDbEntity
  8
便座
  6
CONTINUOUS
 62
     6
100
AcDbVertex
100
AcDb2dVertex
 10
877.210608
 20
1043.56645
 30
0.0
  0
VERTEX
  5
7BD
100
AcDbEntity
  8
便座
  6
CONTINUOUS
 62
     6
100
AcDbVertex
100
AcDb2dVertex
 10
901.410608
 20
1095.597786
 30
0.0
  0
SEQEND
  5
7BE
100
AcDbEntity
  8
便座
  6
CONTINUOUS
 62
     6
  0
LINE
  5
7BF
100
AcDbEntity
  8
便座
  6
CONTINUOUS
 62
     6
100
AcDbLine
 10
886.681643
 20
1077.761878
 30
0.0
 11
877.210608
 21
1043.56645
 31
0.0
  0
LINE
  5
7C0
100
AcDbEntity
  8
便座
  6
CONTINUOUS
 62
     6
100
AcDbLine
 10
877.210608
 20
1043.56645
 30
0.0
 11
897.260104
 21
1072.84179
 31
0.0
  0
LINE
  5
7C1
100
AcDbEntity
  8
便座
  6
CONTINUOUS
 62
     6
100
AcDbLine
 10
901.410608
 20
1095.597786
 30
0.0
 11
1126.995762
 21
1095.597786
 31
0.0
  0
LINE
  5
7C2
100
AcDbEntity
  8
便座
  6
CONTINUOUS
 62
     6
100
AcDbLine
 10
653.999954
 20
2560.499984
 30
0.0
 11
674.474978
 21
2560.499997
 31
0.0
  0
LINE
  5
7C3
100
AcDbEntity
  8
便座
  6
CONTINUOUS
 62
     6
100
AcDbLine
 10
673.36729
 20
2525.499982
 30
0.0
 11
653.999963
 21
2525.499984
 31
0.0
  0
LINE
  5
7C4
100
AcDbEntity
  8
便座
  6
CONTINUOUS
 62
     6
100
AcDbLine
 10
673.367243
 20
2420.500018
 30
0.0
 11
653.999963
 21
2420.500016
 31
0.0
  0
LINE
  5
7C5
100
AcDbEntity
  8
便座
  6
CONTINUOUS
 62
     6
100
AcDbLine
 10
653.999954
 20
2385.500016
 30
0.0
 11
674.474978
 21
2385.500003
 31
0.0
  0
LINE
  5
7C6
100
AcDbEntity
  8
便座
  6
CONTINUOUS
 62
     6
100
AcDbLine
 10
633.552194
 20
2397.0
 30
0.0
 11
646.552194
 21
2397.0
 31
0.0
  0
LINE
  5
7C7
100
AcDbEntity
  8
便座
  6
CONTINUOUS
 62
     6
100
AcDbLine
 10
633.552194
 20
2409.0
 30
0.0
 11
646.552194
 21
2409.0
 31
0.0
  0
ARC
  5
7C8
100
AcDbEntity
  8
便座
  6
CONTINUOUS
 62
     6
100
AcDbCircle
 10
653.999965
 20
2403.000016
 30
0.0
 40
17.5
100
AcDbArc
 50
200.051098
 51
269.999965
  0
ARC
  5
7C9
100
AcDbEntity
  8
便座
  6
CONTINUOUS
 62
     6
100
AcDbCircle
 10
653.99998
 20
2403.0
 30
0.0
 40
16.0
100
AcDbArc
 50
202.024313
 51
157.975687
  0
ARC
  5
7CA
100
AcDbEntity
  8
便座
  6
CONTINUOUS
 62
     6
100
AcDbCircle
 10
653.999965
 20
2403.000016
 30
0.0
 40
17.5
100
AcDbArc
 50
90.000006
 51
159.949013
  0
LINE
  5
7CB
100
AcDbEntity
  8
便座
  6
CONTINUOUS
 62
     6
100
AcDbLine
 10
633.552194
 20
2549.0
 30
0.0
 11
646.552194
 21
2549.0
 31
0.0
  0
LINE
  5
7CC
100
AcDbEntity
  8
便座
  6
CONTINUOUS
 62
     6
100
AcDbLine
 10
633.552194
 20
2537.0
 30
0.0
 11
646.552194
 21
2537.0
 31
0.0
  0
ARC
  5
7CD
100
AcDbEntity
  8
便座
  6
CONTINUOUS
 62
     6
100
AcDbCircle
 10
653.999965
 20
2542.999984
 30
0.0
 40
17.5
100
AcDbArc
 50
90.000035
 51
159.948902
  0
ARC
  5
7CE
100
AcDbEntity
  8
便座
  6
CONTINUOUS
 62
     6
100
AcDbCircle
 10
653.99998
 20
2543.0
 30
0.0
 40
16.0
100
AcDbArc
 50
202.024313
 51
157.975687
  0
ARC
  5
7CF
100
AcDbEntity
  8
便座
  6
CONTINUOUS
 62
     6
100
AcDbCircle
 10
653.999965
 20
2542.999984
 30
0.0
 40
17.5
100
AcDbArc
 50
200.050987
 51
269.999994
  0
ARC
  5
7D0
100
AcDbEntity
  8
便座
  6
CONTINUOUS
 62
     6
100
AcDbCircle
 10
633.552194
 20
2403.0
 30
0.0
 40
6.0
100
AcDbArc
 50
90.0
 51
270.0
  0
ARC
  5
7D1
100
AcDbEntity
  8
便座
  6
CONTINUOUS
 62
     6
100
AcDbCircle
 10
633.552194
 20
2543.0
 30
0.0
 40
6.0
100
AcDbArc
 50
90.0
 51
270.0
  0
ARC
  5
7D2
100
AcDbEntity
  8
便座
  6
CONTINUOUS
 62
     6
100
AcDbCircle
 10
988.99998
 20
2472.999207
 30
0.0
 40
145.0
100
AcDbArc
 50
310.746826
 51
0.000313
  0
ARC
  5
7D3
100
AcDbEntity
  8
便座
  6
CONTINUOUS
 62
     6
100
AcDbCircle
 10
988.99998
 20
2473.000793
 30
0.0
 40
145.0
100
AcDbArc
 50
359.999687
 51
49.253174
  0
ARC
  5
7D4
100
AcDbEntity
  8
便座
  6
CONTINUOUS
 62
     6
100
AcDbCircle
 10
2572.889581
 20
2463.101521
 30
0.0
 40
1900.0
100
AcDbArc
 50
180.700195
 51
183.535244
  0
ARC
  5
7D5
100
AcDbEntity
  8
便座
  6
CONTINUOUS
 62
     6
100
AcDbCircle
 10
2572.889581
 20
2482.898479
 30
0.0
 40
1900.0
100
AcDbArc
 50
176.464756
 51
179.299805
  0
ARC
  5
7D6
100
AcDbEntity
  8
便座
  6
CONTINUOUS
 62
     6
100
AcDbCircle
 10
913.554776
 20
2386.207814
 30
0.0
 40
260.0
100
AcDbArc
 50
49.001046
 51
74.521925
  0
ARC
  5
7D7
100
AcDbEntity
  8
便座
  6
CONTINUOUS
 62
     6
100
AcDbCircle
 10
716.445425
 20
2597.854665
 30
0.0
 40
40.0
100
AcDbArc
 50
106.511925
 51
176.456611
  0
ARC
  5
7D8
100
AcDbEntity
  8
便座
  6
CONTINUOUS
 62
     6
100
AcDbCircle
 10
841.49998
 20
2770.0
 30
0.0
 40
480.0
100
AcDbArc
 50
253.488075
 51
270.0
  0
ARC
  5
7D9
100
AcDbEntity
  8
便座
  6
CONTINUOUS
 62
     6
100
AcDbCircle
 10
716.445425
 20
2348.145335
 30
0.0
 40
40.0
100
AcDbArc
 50
183.543389
 51
253.488075
  0
ARC
  5
7DA
100
AcDbEntity
  8
便座
  6
CONTINUOUS
 62
     6
100
AcDbCircle
 10
841.49998
 20
2820.0
 30
0.0
 40
530.0
100
AcDbArc
 50
270.0
 51
285.478075
  0
ARC
  5
7DB
100
AcDbEntity
  8
便座
  6
CONTINUOUS
 62
     6
100
AcDbCircle
 10
913.554776
 20
2559.792186
 30
0.0
 40
260.0
100
AcDbArc
 50
285.478075
 51
310.998954
  0
ARC
  5
7DC
100
AcDbEntity
  8
便座
  6
CONTINUOUS
 62
     6
100
AcDbCircle
 10
1672.477932
 20
2473.0
 30
0.0
 40
1000.0
100
AcDbArc
 50
178.088381
 51
181.911438
  0
ARC
  5
7DD
100
AcDbEntity
  8
便座
  6
CONTINUOUS
 62
     6
100
AcDbCircle
 10
841.49998
 20
2176.0
 30
0.0
 40
480.0
100
AcDbArc
 50
90.0
 51
106.511925
  0
ARC
  5
7DE
100
AcDbEntity
  8
便座
  6
CONTINUOUS
 62
     6
100
AcDbCircle
 10
841.49998
 20
2126.0
 30
0.0
 40
530.0
100
AcDbArc
 50
74.521925
 51
90.0
  0
TEXT
  5
7DF
100
AcDbEntity
  8
便座
  6
CONTINUOUS
 62
     2
100
AcDbText
 10
901.428855
 20
1099.613285
 30
0.0
 40
40.0
  1
ＮＣ８２２Ｗ
 41
0.805
  7
EXCADSTD
 72
     5
 11
1131.428854
 21
1099.613285
 31
0.0
100
AcDbText
  0
ARC
  5
7E0
100
AcDbEntity
  8
便座
  6
CONTINUOUS
 62
     6
100
AcDbCircle
 10
1516.297552
 20
1033.508664
 30
0.0
 40
30.0
100
AcDbArc
 50
233.946045
 51
261.287033
  0
ARC
  5
7E1
100
AcDbEntity
  8
便座
  6
CONTINUOUS
 62
     6
100
AcDbCircle
 10
1679.001047
 20
4429.402832
 30
0.0
 40
3430.064941
100
AcDbArc
 50
267.345932
 51
269.999985
  0
ARC
  5
7E2
100
AcDbEntity
  8
便座
  6
CONTINUOUS
 62
     6
100
AcDbCircle
 10
1523.871753
 20
1082.931636
 30
0.0
 40
80.0
100
AcDbArc
 50
261.287033
 51
267.345932
  0
ARC
  5
7E3
100
AcDbEntity
  8
便座
  6
CONTINUOUS
 62
     6
100
AcDbCircle
 10
1859.932003
 20
983.651976
 30
0.0
 40
2.0
100
AcDbArc
 50
307.317505
 51
0.0
  0
ARC
  5
7E4
100
AcDbEntity
  8
便座
  6
CONTINUOUS
 62
     6
100
AcDbCircle
 10
1853.869383
 20
991.605224
 30
0.0
 40
12.0
100
AcDbArc
 50
276.214051
 51
307.317505
  0
ARC
  5
7E5
100
AcDbEntity
  8
便座
  6
CONTINUOUS
 62
     6
100
AcDbCircle
 10
1779.397943
 20
1675.56284
 30
0.0
 40
700.0
100
AcDbArc
 50
273.987213
 51
276.214112
  0
ARC
  5
7E6
100
AcDbEntity
  8
便座
  6
CONTINUOUS
 62
     6
100
AcDbCircle
 10
1782.78985
 20
976.265018
 30
0.0
 40
2.5
100
AcDbArc
 50
312.39917
 51
321.627472
  0
ARC
  5
7E7
100
AcDbEntity
  8
便座
  6
CONTINUOUS
 62
     6
100
AcDbCircle
 10
1781.441218
 20
977.741947
 30
0.0
 40
4.5
100
AcDbArc
 50
276.756409
 51
312.399658
  0
ARC
  5
7E8
100
AcDbEntity
  8
便座
  6
CONTINUOUS
 62
     6
100
AcDbCircle
 10
1761.382424
 20
1147.0579
 30
0.0
 40
175.0
100
AcDbArc
 50
271.671082
 51
276.756348
  0
ARC
  5
7E9
100
AcDbEntity
  8
便座
  6
CONTINUOUS
 62
     6
100
AcDbCircle
 10
1679.0009
 20
3970.856445
 30
0.0
 40
3000.0
100
AcDbArc
 50
268.326229
 51
271.671082
  0
LINE
  5
7EA
100
AcDbEntity
  8
便座
  6
CONTINUOUS
 62
     6
100
AcDbLine
 10
1862.031978
 20
983.651975
 30
0.0
 11
1861.352171
 21
991.839597
 31
0.0
  0
LINE
  5
7EB
100
AcDbEntity
  8
便座
  6
CONTINUOUS
 62
     6
100
AcDbLine
 10
1861.932003
 20
983.651975
 30
0.0
 11
1862.031978
 21
983.651975
 31
0.0
  0
LINE
  5
7EC
100
AcDbEntity
  8
便座
  6
EXLTYPE1
 62
     6
100
AcDbLine
 10
1861.940853
 20
984.516477
 30
0.0
 11
1862.031978
 21
983.651975
 31
0.0
  0
ARC
  5
7ED
100
AcDbEntity
  8
便座
  6
CONTINUOUS
 62
     6
100
AcDbCircle
 10
1568.250183
 20
973.0
 30
0.0
 40
5.0
100
AcDbArc
 50
270.0
 51
0.0
  0
ARC
  5
7EE
100
AcDbEntity
  8
便座
  6
CONTINUOUS
 62
     6
100
AcDbCircle
 10
1529.199178
 20
973.0
 30
0.0
 40
5.0
100
AcDbArc
 50
180.0
 51
270.0
  0
ARC
  5
7EF
100
AcDbEntity
  8
便座
  6
CONTINUOUS
 62
     6
100
AcDbCircle
 10
1592.508911
 20
1875.078721
 30
0.0
 40
900.0
100
AcDbArc
 50
266.012817
 51
267.639526
  0
ARC
  5
7F0
100
AcDbEntity
  8
便座
  6
CONTINUOUS
 62
     6
100
AcDbCircle
 10
1575.210191
 20
976.264973
 30
0.0
 40
2.5
100
AcDbArc
 50
218.372742
 51
227.601257
  0
ARC
  5
7F1
100
AcDbEntity
  8
便座
  6
CONTINUOUS
 62
     6
100
AcDbCircle
 10
1576.558797
 20
977.741957
 30
0.0
 40
4.5
100
AcDbArc
 50
227.60022
 51
263.243591
  0
ARC
  5
7F2
100
AcDbEntity
  8
便座
  6
CONTINUOUS
 62
     6
100
AcDbCircle
 10
1523.871776
 20
1082.93164
 30
0.0
 40
80.0
100
AcDbArc
 50
261.286987
 51
267.345947
  0
ARC
  5
7F3
100
AcDbEntity
  8
便座
  6
CONTINUOUS
 62
     6
100
AcDbCircle
 10
1789.749817
 20
973.0
 30
0.0
 40
5.0
100
AcDbArc
 50
180.0
 51
270.0
  0
ARC
  5
7F4
100
AcDbEntity
  8
便座
  6
CONTINUOUS
 62
     6
100
AcDbCircle
 10
1828.800856
 20
973.0
 30
0.0
 40
5.0
100
AcDbArc
 50
270.0
 51
0.0
  0
ARC
  5
7F5
100
AcDbEntity
  8
便座
  6
CONTINUOUS
 62
     6
100
AcDbCircle
 10
1852.487006
 20
974.499972
 30
0.0
 40
5.0
100
AcDbArc
 50
270.0
 51
0.0
  0
ARC
  5
7F6
100
AcDbEntity
  8
便座
  6
CONTINUOUS
 62
     6
100
AcDbCircle
 10
1529.199178
 20
973.0
 30
0.0
 40
5.0
100
AcDbArc
 50
180.0
 51
270.0
  0
ARC
  5
7F7
100
AcDbEntity
  8
便座
  6
CONTINUOUS
 62
     6
100
AcDbCircle
 10
1568.250183
 20
973.0
 30
0.0
 40
5.0
100
AcDbArc
 50
270.0
 51
0.0
  0
ARC
  5
7F8
100
AcDbEntity
  8
便座
  6
CONTINUOUS
 62
     6
100
AcDbCircle
 10
1505.51301
 20
974.499972
 30
0.0
 40
5.0
100
AcDbArc
 50
180.0
 51
270.0
  0
ARC
  5
7F9
100
AcDbEntity
  8
便座
  6
CONTINUOUS
 62
     6
100
AcDbCircle
 10
1578.602084
 20
1675.562807
 30
0.0
 40
700.0
100
AcDbArc
 50
263.785889
 51
266.012817
  0
ARC
  5
7FA
100
AcDbEntity
  8
便座
  6
CONTINUOUS
 62
     6
100
AcDbCircle
 10
1498.068043
 20
983.651991
 30
0.0
 40
2.0
100
AcDbArc
 50
180.0
 51
232.682495
  0
ARC
  5
7FB
100
AcDbEntity
  8
便座
  6
CONTINUOUS
 62
     6
100
AcDbCircle
 10
1504.130632
 20
991.605211
 30
0.0
 40
11.999999
100
AcDbArc
 50
232.682495
 51
263.78595
  0
ARC
  5
7FC
100
AcDbEntity
  8
便座
  6
CONTINUOUS
 62
     6
100
AcDbCircle
 10
1592.508911
 20
1875.078721
 30
0.0
 40
900.0
100
AcDbArc
 50
266.012817
 51
267.639526
  0
ARC
  5
7FD
100
AcDbEntity
  8
便座
  6
CONTINUOUS
 62
     6
100
AcDbCircle
 10
1596.617628
 20
1147.057888
 30
0.0
 40
175.0
100
AcDbArc
 50
263.243652
 51
268.328918
  0
ARC
  5
7FE
100
AcDbEntity
  8
便座
  6
CONTINUOUS
 62
     6
100
AcDbCircle
 10
1576.558797
 20
977.741957
 30
0.0
 40
4.5
100
AcDbArc
 50
222.67218
 51
263.243591
  0
ARC
  5
7FF
100
AcDbEntity
  8
便座
  6
CONTINUOUS
 62
     6
100
AcDbCircle
 10
1679.0
 20
3973.296767
 30
0.0
 40
3000.0
100
AcDbArc
 50
267.639526
 51
270.0
  0
ARC
  5
800
100
AcDbEntity
  8
便座
  6
CONTINUOUS
 62
     6
100
AcDbCircle
 10
1765.491122
 20
1875.078721
 30
0.0
 40
900.0
100
AcDbArc
 50
272.360474
 51
273.987213
  0
ARC
  5
801
100
AcDbEntity
  8
便座
  6
CONTINUOUS
 62
     6
100
AcDbCircle
 10
1679.0
 20
3973.296767
 30
0.0
 40
3000.0
100
AcDbArc
 50
270.0
 51
272.360474
  0
ARC
  5
802
100
AcDbEntity
  8
便座
  6
CONTINUOUS
 62
     6
100
AcDbCircle
 10
1841.702433
 20
1033.508626
 30
0.0
 40
30.0
100
AcDbArc
 50
278.713013
 51
306.053986
  0
ARC
  5
803
100
AcDbEntity
  8
便座
  6
CONTINUOUS
 62
     6
100
AcDbCircle
 10
1678.998949
 20
4429.402859
 30
0.0
 40
3430.064833
100
AcDbArc
 50
270.000031
 51
272.654053
  0
ARC
  5
804
100
AcDbEntity
  8
便座
  6
CONTINUOUS
 62
     6
100
AcDbCircle
 10
1834.128241
 20
1082.93164
 30
0.0
 40
80.0
100
AcDbArc
 50
272.654083
 51
278.712982
  0
ARC
  5
805
100
AcDbEntity
  8
便座
  6
CONTINUOUS
 62
     6
100
AcDbCircle
 10
1858.18179
 20
1010.871703
 30
0.0
 40
2.0
100
AcDbArc
 50
306.05365
 51
0.0
  0
ARC
  5
806
100
AcDbEntity
  8
便座
  6
CONTINUOUS
 62
     6
100
AcDbCircle
 10
1808.493272
 20
934.95543
 30
0.0
 40
100.0
100
AcDbArc
 50
65.644104
 51
75.639404
  0
ARC
  5
807
100
AcDbEntity
  8
便座
  6
CONTINUOUS
 62
     6
100
AcDbCircle
 10
1771.2897
 20
789.64232
 30
0.0
 40
250.0
100
AcDbArc
 50
75.639404
 51
82.744019
  0
ARC
  5
808
100
AcDbEntity
  8
便座
  6
CONTINUOUS
 62
     6
100
AcDbCircle
 10
1842.310343
 20
1009.657579
 30
0.0
 40
17.999999
100
AcDbArc
 50
6.117493
 51
65.644104
  0
ARC
  5
809
100
AcDbEntity
  8
便座
  6
CONTINUOUS
 62
     6
100
AcDbCircle
 10
1760.777276
 20
1000.918904
 30
0.0
 40
100.0
100
AcDbArc
 50
5.999878
 51
6.117554
  0
LINE
  5
80A
100
AcDbEntity
  8
便座
  6
CONTINUOUS
 62
     6
100
AcDbLine
 10
1573.250183
 20
975.16139
 30
0.0
 11
1573.250183
 21
973.0
 31
0.0
  0
LINE
  5
80B
100
AcDbEntity
  8
便座
  6
CONTINUOUS
 62
     6
100
AcDbLine
 10
1568.250183
 20
968.0
 30
0.0
 11
1529.199178
 21
968.0
 31
0.0
  0
LINE
  5
80C
100
AcDbEntity
  8
便座
  6
CONTINUOUS
 62
     6
100
AcDbLine
 10
1524.199178
 20
973.0
 30
0.0
 11
1573.250183
 21
973.0
 31
0.0
  0
LINE
  5
80D
100
AcDbEntity
  8
便座
  6
CONTINUOUS
 62
     6
100
AcDbLine
 10
1524.199178
 20
977.68004
 30
0.0
 11
1524.199178
 21
973.0
 31
0.0
  0
LINE
  5
80E
100
AcDbEntity
  8
便座
  6
CONTINUOUS
 62
     6
100
AcDbLine
 10
1784.749817
 20
975.16139
 30
0.0
 11
1784.749817
 21
973.0
 31
0.0
  0
LINE
  5
80F
100
AcDbEntity
  8
便座
  6
CONTINUOUS
 62
     6
100
AcDbLine
 10
1789.749817
 20
968.0
 30
0.0
 11
1828.800856
 21
968.0
 31
0.0
  0
LINE
  5
810
100
AcDbEntity
  8
便座
  6
CONTINUOUS
 62
     6
100
AcDbLine
 10
1833.800822
 20
973.0
 30
0.0
 11
1784.749817
 21
973.0
 31
0.0
  0
LINE
  5
811
100
AcDbEntity
  8
便座
  6
CONTINUOUS
 62
     6
100
AcDbLine
 10
1833.800822
 20
977.68004
 30
0.0
 11
1833.800822
 21
973.0
 31
0.0
  0
LINE
  5
812
100
AcDbEntity
  8
便座
  6
CONTINUOUS
 62
     6
100
AcDbLine
 10
1832.371582
 20
969.499972
 30
0.0
 11
1852.487006
 21
969.499972
 31
0.0
  0
LINE
  5
813
100
AcDbEntity
  8
便座
  6
CONTINUOUS
 62
     6
100
AcDbLine
 10
1833.800822
 20
974.499972
 30
0.0
 11
1857.487006
 21
974.499972
 31
0.0
  0
LINE
  5
814
100
AcDbEntity
  8
便座
  6
CONTINUOUS
 62
     6
100
AcDbLine
 10
1857.487006
 20
979.932101
 30
0.0
 11
1857.487006
 21
974.499972
 31
0.0
  0
LINE
  5
815
100
AcDbEntity
  8
便座
  6
CONTINUOUS
 62
     6
100
AcDbLine
 10
1524.199178
 20
973.0
 30
0.0
 11
1573.250217
 21
973.0
 31
0.0
  0
LINE
  5
816
100
AcDbEntity
  8
便座
  6
CONTINUOUS
 62
     6
100
AcDbLine
 10
1568.250183
 20
968.0
 30
0.0
 11
1529.199178
 21
968.0
 31
0.0
  0
LINE
  5
817
100
AcDbEntity
  8
便座
  6
CONTINUOUS
 62
     6
100
AcDbLine
 10
1524.199178
 20
977.68004
 30
0.0
 11
1524.199178
 21
973.0
 31
0.0
  0
LINE
  5
818
100
AcDbEntity
  8
便座
  6
CONTINUOUS
 62
     6
100
AcDbLine
 10
1573.250183
 20
975.16139
 30
0.0
 11
1573.250183
 21
973.0
 31
0.0
  0
LINE
  5
819
100
AcDbEntity
  8
便座
  6
CONTINUOUS
 62
     6
100
AcDbLine
 10
1524.199178
 20
974.499972
 30
0.0
 11
1500.51301
 21
974.499972
 31
0.0
  0
LINE
  5
81A
100
AcDbEntity
  8
便座
  6
CONTINUOUS
 62
     6
100
AcDbLine
 10
1525.628469
 20
969.499972
 30
0.0
 11
1505.51301
 21
969.499972
 31
0.0
  0
LINE
  5
81B
100
AcDbEntity
  8
便座
  6
CONTINUOUS
 62
     6
100
AcDbLine
 10
1500.51301
 20
979.932101
 30
0.0
 11
1500.51301
 21
974.499972
 31
0.0
  0
LINE
  5
81C
100
AcDbEntity
  8
便座
  6
CONTINUOUS
 62
     6
100
AcDbLine
 10
1495.968028
 20
983.651991
 30
0.0
 11
1496.647874
 21
991.839586
 31
0.0
  0
LINE
  5
81D
100
AcDbEntity
  8
便座
  6
CONTINUOUS
 62
     6
100
AcDbLine
 10
1496.06804
 20
983.651991
 30
0.0
 11
1495.968028
 21
983.651991
 31
0.0
  0
LINE
  5
81E
100
AcDbEntity
  8
便座
  6
EXLTYPE1
 62
     6
100
AcDbLine
 10
1496.05919
 20
984.516452
 30
0.0
 11
1495.968028
 21
983.651991
 31
0.0
  0
LINE
  5
81F
100
AcDbEntity
  8
便座
  6
CONTINUOUS
 62
     6
100
AcDbLine
 10
1860.282077
 20
1010.871703
 30
0.0
 11
1860.182048
 21
1010.871703
 31
0.0
  0
LINE
  5
820
100
AcDbEntity
  8
便座
  6
CONTINUOUS
 62
     6
100
AcDbLine
 10
1860.282077
 20
1010.871703
 30
0.0
 11
1860.229519
 21
1011.371718
 31
0.0
  0
ARC
  5
821
100
AcDbEntity
  8
便座
  6
CONTINUOUS
 62
     6
100
AcDbCircle
 10
1849.393309
 20
990.846558
 30
0.0
 40
12.0
100
AcDbArc
 50
4.000061
 51
43.447065
  0
ARC
  5
822
100
AcDbEntity
  8
便座
  6
CONTINUOUS
 62
     6
100
AcDbCircle
 10
1839.955196
 20
981.906681
 30
0.0
 40
25.0
100
AcDbArc
 50
43.447065
 51
65.896475
  0
LINE
  5
823
100
AcDbEntity
  8
便座
  6
CONTINUOUS
 62
     6
100
AcDbLine
 10
1766.499984
 20
972.132743
 30
0.0
 11
1766.499984
 21
970.5
 31
0.0
  0
LINE
  5
824
100
AcDbEntity
  8
便座
  6
CONTINUOUS
 62
     6
100
AcDbLine
 10
1731.499984
 20
971.315839
 30
0.0
 11
1731.499984
 21
970.5
 31
0.0
  0
LINE
  5
825
100
AcDbEntity
  8
便座
  6
CONTINUOUS
 62
     6
100
AcDbLine
 10
1764.499984
 20
968.0
 30
0.0
 11
1733.499984
 21
968.0
 31
0.0
  0
LINE
  5
826
100
AcDbEntity
  8
便座
  6
CONTINUOUS
 62
     6
100
AcDbLine
 10
1731.499984
 20
970.5
 30
0.0
 11
1766.499984
 21
970.5
 31
0.0
  0
LINE
  5
827
100
AcDbEntity
  8
便座
  6
CONTINUOUS
 62
     6
100
AcDbLine
 10
1764.499984
 20
968.0
 30
0.0
 11
1764.499984
 21
970.5
 31
0.0
  0
LINE
  5
828
100
AcDbEntity
  8
便座
  6
CONTINUOUS
 62
     6
100
AcDbLine
 10
1733.499984
 20
968.0
 30
0.0
 11
1733.499984
 21
970.5
 31
0.0
  0
LINE
  5
829
100
AcDbEntity
  8
便座
  6
CONTINUOUS
 62
     6
100
AcDbLine
 10
1591.500016
 20
972.132743
 30
0.0
 11
1591.500016
 21
970.5
 31
0.0
  0
LINE
  5
82A
100
AcDbEntity
  8
便座
  6
CONTINUOUS
 62
     6
100
AcDbLine
 10
1626.500016
 20
971.315839
 30
0.0
 11
1626.500016
 21
970.5
 31
0.0
  0
LINE
  5
82B
100
AcDbEntity
  8
便座
  6
CONTINUOUS
 62
     6
100
AcDbLine
 10
1593.500016
 20
968.0
 30
0.0
 11
1624.500016
 21
968.0
 31
0.0
  0
LINE
  5
82C
100
AcDbEntity
  8
便座
  6
CONTINUOUS
 62
     6
100
AcDbLine
 10
1626.500016
 20
970.5
 30
0.0
 11
1591.500016
 21
970.5
 31
0.0
  0
LINE
  5
82D
100
AcDbEntity
  8
便座
  6
CONTINUOUS
 62
     6
100
AcDbLine
 10
1593.500016
 20
968.0
 30
0.0
 11
1593.500016
 21
970.5
 31
0.0
  0
LINE
  5
82E
100
AcDbEntity
  8
便座
  6
CONTINUOUS
 62
     6
100
AcDbLine
 10
1624.500016
 20
968.0
 30
0.0
 11
1624.500016
 21
970.5
 31
0.0
  0
ARC
  5
82F
100
AcDbEntity
  8
便座
  6
CONTINUOUS
 62
     6
100
AcDbCircle
 10
1678.99966
 20
64.790039
 30
0.0
 40
980.703979
100
AcDbArc
 50
82.744002
 51
97.255982
  0
ARC
  5
830
100
AcDbEntity
  8
便座
  6
CONTINUOUS
 62
     6
100
AcDbCircle
 10
1586.710299
 20
789.642327
 30
0.0
 40
250.0
100
AcDbArc
 50
97.255982
 51
104.360601
  0
ARC
  5
831
100
AcDbEntity
  8
便座
  6
CONTINUOUS
 62
     6
100
AcDbCircle
 10
1499.818237
 20
1010.871705
 30
0.0
 40
2.0
100
AcDbArc
 50
180.0
 51
233.946045
  0
ARC
  5
832
100
AcDbEntity
  8
便座
  6
CONTINUOUS
 62
     6
100
AcDbCircle
 10
1515.689697
 20
1009.65759
 30
0.0
 40
18.0
100
AcDbArc
 50
114.355896
 51
173.882447
  0
ARC
  5
833
100
AcDbEntity
  8
便座
  6
CONTINUOUS
 62
     6
100
AcDbCircle
 10
1597.222744
 20
1000.918951
 30
0.0
 40
100.0
100
AcDbArc
 50
173.882447
 51
174.000122
  0
LINE
  5
834
100
AcDbEntity
  8
便座
  6
CONTINUOUS
 62
     6
100
AcDbLine
 10
1497.717987
 20
1010.871705
 30
0.0
 11
1497.817993
 21
1010.871705
 31
0.0
  0
LINE
  5
835
100
AcDbEntity
  8
便座
  6
CONTINUOUS
 62
     6
100
AcDbLine
 10
1497.717987
 20
1010.871705
 30
0.0
 11
1497.770538
 21
1011.371705
 31
0.0
  0
ARC
  5
836
100
AcDbEntity
  8
便座
  6
CONTINUOUS
 62
     6
100
AcDbCircle
 10
1549.506724
 20
934.95544
 30
0.0
 40
100.0
100
AcDbArc
 50
104.360601
 51
114.355896
  0
ARC
  5
837
100
AcDbEntity
  8
便座
  6
CONTINUOUS
 62
     6
100
AcDbCircle
 10
1822.0
 20
1007.070028
 30
0.0
 40
8.75
100
AcDbArc
 50
215.175899
 51
329.609488
  0
ARC
  5
838
100
AcDbEntity
  8
便座
  6
CONTINUOUS
 62
     6
100
AcDbCircle
 10
1536.0
 20
1007.070028
 30
0.0
 40
8.75
100
AcDbArc
 50
210.391563
 51
324.82305
  0
ARC
  5
839
100
AcDbEntity
  8
便座
  6
CONTINUOUS
 62
     6
100
AcDbCircle
 10
1508.60673
 20
990.846543
 30
0.0
 40
11.999999
100
AcDbArc
 50
133.725278
 51
175.999878
  0
ARC
  5
83A
100
AcDbEntity
  8
便座
  6
CONTINUOUS
 62
     6
100
AcDbCircle
 10
1518.044817
 20
981.906657
 30
0.0
 40
25.0
100
AcDbArc
 50
114.103088
 51
136.552825
  0
LINE
  5
83B
100
AcDbEntity
  8
便座
  6
CONTINUOUS
 62
     6
100
AcDbLine
 10
668.49998
 20
969.0
 30
0.0
 11
668.49998
 21
968.0
 31
0.0
  0
LINE
  5
83C
100
AcDbEntity
  8
便座
  6
CONTINUOUS
 62
     6
100
AcDbLine
 10
639.49998
 20
969.0
 30
0.0
 11
639.49998
 21
968.0
 31
0.0
  0
LINE
  5
83D
100
AcDbEntity
  8
便座
  6
CONTINUOUS
 62
     6
100
AcDbLine
 10
670.454618
 20
979.0
 30
0.0
 11
637.99998
 21
979.0
 31
0.0
  0
ARC
  5
83E
100
AcDbEntity
  8
便座
  6
CONTINUOUS
 62
     6
100
AcDbCircle
 10
637.99998
 20
977.5
 30
0.0
 40
1.5
100
AcDbArc
 50
90.0
 51
180.0
  0
LINE
  5
83F
100
AcDbEntity
  8
便座
  6
CONTINUOUS
 62
     6
100
AcDbLine
 10
636.49998
 20
969.0
 30
0.0
 11
636.49998
 21
977.5
 31
0.0
  0
LINE
  5
840
100
AcDbEntity
  8
便座
  6
CONTINUOUS
 62
     6
100
AcDbLine
 10
693.429412
 20
969.0
 30
0.0
 11
627.552194
 21
969.0
 31
0.0
  0
LINE
  5
841
100
AcDbEntity
  8
便座
  6
CONTINUOUS
 62
     6
100
AcDbLine
 10
627.552194
 20
984.0
 30
0.0
 11
627.552194
 21
969.0
 31
0.0
  0
LINE
  5
842
100
AcDbEntity
  8
便座
  6
CONTINUOUS
 62
     6
100
AcDbLine
 10
636.49998
 20
984.0
 30
0.0
 11
646.552194
 21
979.0
 31
0.0
  0
LINE
  5
843
100
AcDbEntity
  8
便座
  6
CONTINUOUS
 62
     6
100
AcDbLine
 10
636.49998
 20
984.0
 30
0.0
 11
627.552194
 21
984.0
 31
0.0
  0
ARC
  5
844
100
AcDbEntity
  8
便座
  6
CONTINUOUS
 62
     6
100
AcDbCircle
 10
1344.984782
 20
13993.956055
 30
0.0
 40
13000.0
100
AcDbArc
 50
267.439697
 51
268.225281
  0
ARC
  5
845
100
AcDbEntity
  8
便座
  6
CONTINUOUS
 62
     6
100
AcDbCircle
 10
139.425395
 20
871.219482
 30
0.0
 40
1000.0
100
AcDbArc
 50
5.999908
 51
6.375183
  0
ARC
  5
846
100
AcDbEntity
  8
便座
  6
CONTINUOUS
 62
     6
100
AcDbCircle
 10
1131.90916
 20
975.245972
 30
0.0
 40
2.0
100
AcDbArc
 50
282.906372
 51
0.007874
  0
LINE
  5
847
100
AcDbEntity
  8
便座
  6
CONTINUOUS
 62
     6
100
AcDbLine
 10
813.495708
 20
974.487961
 30
0.0
 11
978.575267
 21
972.12764
 31
0.0
  0
LINE
  5
848
100
AcDbEntity
  8
便座
  6
CONTINUOUS
 62
     6
100
AcDbLine
 10
1008.32429
 20
971.702286
 30
0.0
 11
1067.47932
 21
970.856476
 31
0.0
  0
LINE
  5
849
100
AcDbEntity
  8
便座
  6
CONTINUOUS
 62
     6
100
AcDbLine
 10
1132.355876
 20
973.296509
 30
0.0
 11
783.610881
 21
983.951599
 31
0.0
  0
LINE
  5
84A
100
AcDbEntity
  8
便座
  6
CONTINUOUS
 62
     6
100
AcDbLine
 10
1133.94749
 20
975.746277
 30
0.0
 11
1133.99998
 21
975.246216
 31
0.0
  0
LINE
  5
84B
100
AcDbEntity
  8
便座
  6
CONTINUOUS
 62
     6
100
AcDbLine
 10
1008.495647
 20
977.08075
 30
0.0
 11
1008.495647
 21
973.0
 31
0.0
  0
LINE
  5
84C
100
AcDbEntity
  8
便座
  6
CONTINUOUS
 62
     6
100
AcDbLine
 10
978.498576
 20
977.997253
 30
0.0
 11
978.498576
 21
973.0
 31
0.0
  0
LINE
  5
84D
100
AcDbEntity
  8
便座
  6
CONTINUOUS
 62
     6
100
AcDbLine
 10
978.498576
 20
973.0
 30
0.0
 11
1008.495647
 21
973.0
 31
0.0
  0
LINE
  5
84E
100
AcDbEntity
  8
便座
  6
CONTINUOUS
 62
     6
100
AcDbLine
 10
1119.761699
 20
994.696411
 30
0.0
 11
942.380076
 21
1000.192505
 31
0.0
  0
LINE
  5
84F
100
AcDbEntity
  8
便座
  6
CONTINUOUS
 62
     6
100
AcDbLine
 10
1133.99998
 20
975.246216
 30
0.0
 11
1133.90916
 21
975.246216
 31
0.0
  0
ARC
  5
850
100
AcDbEntity
  8
便座
  6
CONTINUOUS
 62
     6
100
AcDbCircle
 10
1031.999431
 20
991.393463
 30
0.0
 40
100.0
100
AcDbArc
 50
5.995056
 51
6.167908
  0
ARC
  5
851
100
AcDbEntity
  8
便座
  6
CONTINUOUS
 62
     6
100
AcDbCircle
 10
1129.405009
 20
1001.337997
 30
0.0
 40
2.0
100
AcDbArc
 50
270.0
 51
0.0
  0
ARC
  5
852
100
AcDbEntity
  8
便座
  6
CONTINUOUS
 62
     6
100
AcDbCircle
 10
1115.508525
 20
1000.466736
 30
0.0
 40
16.0
100
AcDbArc
 50
5.994843
 51
65.145721
  0
ARC
  5
853
100
AcDbEntity
  8
便座
  6
CONTINUOUS
 62
     6
100
AcDbCircle
 10
1099.116313
 20
965.078934
 30
0.0
 40
55.0
100
AcDbArc
 50
65.145721
 51
77.491241
  0
ARC
  5
854
100
AcDbEntity
  8
便座
  6
CONTINUOUS
 62
     6
100
AcDbCircle
 10
1035.222789
 20
677.081848
 30
0.0
 40
350.0
100
AcDbArc
 50
77.491272
 51
81.432617
  0
ARC
  5
855
100
AcDbEntity
  8
便座
  6
CONTINUOUS
 62
     6
100
AcDbCircle
 10
2646.268291
 20
50976.3125
 30
0.0
 40
50000.0
100
AcDbArc
 50
267.869141
 51
268.261108
  0
ARC
  5
856
100
AcDbEntity
  8
便座
  6
CONTINUOUS
 62
     6
100
AcDbCircle
 10
789.418452
 20
-954.506348
 30
0.0
 40
2000.0
100
AcDbArc
 50
81.432617
 51
90.042389
  0
LINE
  5
857
100
AcDbEntity
  8
便座
  6
CONTINUOUS
 62
     6
100
AcDbLine
 10
1131.452495
 20
1001.837646
 30
0.0
 11
1131.504985
 21
1001.337997
 31
0.0
  0
LINE
  5
858
100
AcDbEntity
  8
便座
  6
CONTINUOUS
 62
     6
100
AcDbLine
 10
1129.048198
 20
999.337997
 30
0.0
 11
1129.405009
 21
999.337997
 31
0.0
  0
LINE
  5
859
100
AcDbEntity
  8
便座
  6
CONTINUOUS
 62
     6
100
AcDbLine
 10
1131.405009
 20
1001.337997
 30
0.0
 11
1131.504985
 21
1001.337997
 31
0.0
  0
ARC
  5
85A
100
AcDbEntity
  8
便座
  6
CONTINUOUS
 62
     6
100
AcDbCircle
 10
808.495693
 20
974.49999
 30
0.0
 40
5.0
100
AcDbArc
 50
270.0
 51
0.0
  0
ARC
  5
85B
100
AcDbEntity
  8
便座
  6
CONTINUOUS
 62
     6
100
AcDbCircle
 10
799.495721
 20
974.49999
 30
0.0
 40
5.0
100
AcDbArc
 50
180.0
 51
270.0
  0
ARC
  5
85C
100
AcDbEntity
  8
便座
  6
CONTINUOUS
 62
     6
100
AcDbCircle
 10
983.498576
 20
973.0
 30
0.0
 40
5.0
100
AcDbArc
 50
180.0
 51
270.0
  0
ARC
  5
85D
100
AcDbEntity
  8
便座
  6
CONTINUOUS
 62
     6
100
AcDbCircle
 10
1003.49566
 20
973.0
 30
0.0
 40
5.0
100
AcDbArc
 50
270.0
 51
0.0
  0
LINE
  5
85E
100
AcDbEntity
  8
便座
  6
CONTINUOUS
 62
     6
100
AcDbLine
 10
808.495693
 20
969.49999
 30
0.0
 11
799.495721
 21
969.49999
 31
0.0
  0
LINE
  5
85F
100
AcDbEntity
  8
便座
  6
CONTINUOUS
 62
     6
100
AcDbLine
 10
1003.49566
 20
968.0
 30
0.0
 11
983.498576
 21
968.0
 31
0.0
  0
ARC
  5
860
100
AcDbEntity
  8
便座
  6
CONTINUOUS
 62
     6
100
AcDbCircle
 10
1119.328105
 20
980.703125
 30
0.0
 40
14.0
100
AcDbArc
 50
6.375153
 51
92.909413
  0
ARC
  5
861
100
AcDbEntity
  8
便座
  6
EXLTYPE2
 62
     6
100
AcDbCircle
 10
1066.515152
 20
973.370517
 30
0.0
 40
2.5
100
AcDbArc
 50
178.810746
 51
269.18083
  0
ARC
  5
862
100
AcDbEntity
  8
便座
  6
EXLTYPE2
 62
     6
100
AcDbCircle
 10
1078.012675
 20
973.131836
 30
0.0
 40
14.0
100
AcDbArc
 50
171.310969
 51
178.810746
  0
ARC
  5
863
100
AcDbEntity
  8
便座
  6
CONTINUOUS
 62
     6
100
AcDbCircle
 10
1067.515086
 20
973.356262
 30
0.0
 40
2.5
100
AcDbArc
 50
269.180298
 51
352.607427
  0
ARC
  5
864
100
AcDbEntity
  8
便座
  6
CONTINUOUS
 62
     6
100
AcDbCircle
 10
1077.938568
 20
972.003862
 30
0.0
 40
8.0
100
AcDbArc
 50
156.581694
 51
172.607427
  0
ARC
  5
865
100
AcDbEntity
  8
便座
  6
CONTINUOUS
 62
     6
100
AcDbCircle
 10
994.000014
 20
1007.847522
 30
0.0
 40
9.25
100
AcDbArc
 50
205.281893
 51
330.930377
  0
ARC
  5
866
100
AcDbEntity
  8
便座
  6
CONTINUOUS
 62
     6
100
AcDbCircle
 10
669.049663
 20
934.034943
 30
0.0
 40
75.0
100
AcDbArc
 50
63.787048
 51
80.909973
  0
ARC
  5
867
100
AcDbEntity
  8
便座
  6
CONTINUOUS
 62
     6
100
AcDbCircle
 10
675.369121
 20
973.532593
 30
0.0
 40
35.0
100
AcDbArc
 50
80.909973
 51
90.0
  0
ARC
  5
868
100
AcDbEntity
  8
便座
  6
CONTINUOUS
 62
     6
100
AcDbCircle
 10
772.851192
 20
1144.867203
 30
0.0
 40
160.0
100
AcDbArc
 50
243.787048
 51
264.506714
  0
ARC
  5
869
100
AcDbEntity
  8
便座
  6
CONTINUOUS
 62
     6
100
AcDbCircle
 10
784.363475
 20
1456.483856
 30
0.0
 40
450.0
100
AcDbArc
 50
257.444275
 51
267.439697
  0
ARC
  5
86A
100
AcDbEntity
  8
便座
  6
CONTINUOUS
 62
     6
100
AcDbCircle
 10
675.120906
 20
1010.532593
 30
0.0
 40
2.0
100
AcDbArc
 50
180.0
 51
270.0
  0
ARC
  5
86B
100
AcDbEntity
  8
便座
  6
CONTINUOUS
 62
     6
100
AcDbCircle
 10
683.929729
 20
1005.532593
 30
0.0
 40
12.0
100
AcDbArc
 50
77.444244
 51
155.376892
  0
LINE
  5
86C
100
AcDbEntity
  8
便座
  6
CONTINUOUS
 62
     6
100
AcDbLine
 10
673.142589
 20
1010.238892
 30
0.0
 11
673.606395
 21
997.034912
 31
0.0
  0
LINE
  5
86D
100
AcDbEntity
  8
便座
  6
CONTINUOUS
 62
     6
100
AcDbLine
 10
673.424098
 20
1009.473892
 30
0.0
 11
673.601069
 21
997.249451
 31
0.0
  0
LINE
  5
86E
100
AcDbEntity
  8
便座
  6
CONTINUOUS
 62
     6
100
AcDbLine
 10
675.120906
 20
1008.532593
 30
0.0
 11
675.369121
 21
1008.532593
 31
0.0
  0
LINE
  5
86F
100
AcDbEntity
  8
便座
  6
CONTINUOUS
 62
     6
100
AcDbLine
 10
673.020915
 20
1010.532349
 30
0.0
 11
673.120906
 21
1010.532349
 31
0.0
  0
ARC
  5
870
100
AcDbEntity
  8
便座
  6
CONTINUOUS
 62
     6
100
AcDbCircle
 10
696.61848
 20
1069.359917
 30
0.0
 40
50.0
100
AcDbArc
 50
242.001892
 51
261.610718
  0
ARC
  5
871
100
AcDbEntity
  8
便座
  6
CONTINUOUS
 62
     6
100
AcDbCircle
 10
788.575069
 20
185.493408
 30
0.0
 40
860.0
100
AcDbArc
 50
90.042389
 51
96.243958
  0
ARC
  5
872
100
AcDbEntity
  8
便座
  6
CONTINUOUS
 62
     6
100
AcDbCircle
 10
820.632396
 20
1910.264526
 30
0.0
 40
900.0
100
AcDbArc
 50
261.610657
 51
267.881714
  0
LINE
  5
873
100
AcDbEntity
  8
便座
  6
CONTINUOUS
 62
     6
100
AcDbLine
 10
694.669139
 20
1019.123016
 30
0.0
 11
694.60628
 21
1015.526192
 31
0.0
  0
LINE
  5
874
100
AcDbEntity
  8
便座
  6
CONTINUOUS
 62
     6
100
AcDbLine
 10
696.599577
 20
1015.12516
 30
0.0
 11
696.402862
 21
1003.86905
 31
0.0
  0
LINE
  5
875
100
AcDbEntity
  8
便座
  6
CONTINUOUS
 62
     6
100
AcDbLine
 10
673.128595
 20
1023.76972
 30
0.0
 11
673.405192
 21
1011.297493
 31
0.0
  0
ARC
  5
876
100
AcDbEntity
  8
便座
  6
CONTINUOUS
 62
     6
100
AcDbCircle
 10
688.124908
 20
1024.102293
 30
0.0
 40
15.0
100
AcDbArc
 50
102.081549
 51
181.270441
  0
ARC
  5
877
100
AcDbEntity
  8
便座
  6
CONTINUOUS
 62
     6
100
AcDbCircle
 10
705.915721
 20
940.984985
 30
0.0
 40
100.0
100
AcDbArc
 50
96.243958
 51
102.081549
  0
LINE
  5
878
100
AcDbEntity
  8
便座
  6
CONTINUOUS
 62
     6
100
AcDbLine
 10
698.959117
 20
993.965149
 30
0.0
 11
699.263423
 21
1002.679871
 31
0.0
  0
LINE
  5
879
100
AcDbEntity
  8
便座
  6
CONTINUOUS
 62
     6
100
AcDbLine
 10
694.996631
 20
997.808044
 30
0.0
 11
695.111003
 21
1004.361374
 31
0.0
  0
ARC
  5
87A
100
AcDbEntity
  8
便座
  6
CONTINUOUS
 62
     6
100
AcDbCircle
 10
684.89998
 20
998.0
 30
0.0
 40
7.0
100
AcDbArc
 50
3.0
 51
90.0
  0
LINE
  5
87B
100
AcDbEntity
  8
便座
  6
CONTINUOUS
 62
     6
100
AcDbLine
 10
684.89998
 20
1005.0
 30
0.0
 11
683.09998
 21
1005.0
 31
0.0
  0
ARC
  5
87C
100
AcDbEntity
  8
便座
  6
CONTINUOUS
 62
     6
100
AcDbCircle
 10
683.99998
 20
998.0
 30
0.0
 40
11.0
100
AcDbArc
 50
318.89534
 51
0.0
  0
ARC
  5
87D
100
AcDbEntity
  8
便座
  6
CONTINUOUS
 62
     6
100
AcDbCircle
 10
683.09998
 20
998.0
 30
0.0
 40
7.0
100
AcDbArc
 50
90.0
 51
177.410775
  0
LINE
  5
87E
100
AcDbEntity
  8
便座
  6
CONTINUOUS
 62
     6
100
AcDbLine
 10
676.107126
 20
998.316226
 30
0.0
 11
675.449514
 21
983.774124
 31
0.0
  0
ARC
  5
87F
100
AcDbEntity
  8
便座
  6
CONTINUOUS
 62
     6
100
AcDbCircle
 10
683.99998
 20
997.399994
 30
0.0
 40
10.4
100
AcDbArc
 50
182.011902
 51
217.758146
  0
ARC
  5
880
100
AcDbEntity
  8
便座
  6
CONTINUOUS
 62
     6
100
AcDbCircle
 10
697.959697
 20
994.0
 30
0.0
 40
1.0
100
AcDbArc
 50
270.0
 51
358.001953
  0
LINE
  5
881
100
AcDbEntity
  8
便座
  6
CONTINUOUS
 62
     6
100
AcDbLine
 10
693.797938
 20
993.0
 30
0.0
 11
697.959697
 21
993.0
 31
0.0
  0
ARC
  5
882
100
AcDbEntity
  8
便座
  6
CONTINUOUS
 62
     6
100
AcDbCircle
 10
670.454618
 20
984.0
 30
0.0
 40
5.0
100
AcDbArc
 50
270.0
 51
357.410775
  0
ARC
  5
883
100
AcDbEntity
  8
便座
  6
CONTINUOUS
 62
     6
100
AcDbCircle
 10
795.826274
 20
1383.765015
 30
0.0
 40
400.0
100
AcDbArc
 50
264.506714
 51
268.25
  0
LINE
  5
884
100
AcDbEntity
  8
便座
  6
CONTINUOUS
 62
     6
100
AcDbLine
 10
794.495708
 20
974.5
 30
0.0
 11
813.495708
 21
974.5
 31
0.0
  0
LINE
  5
885
100
AcDbEntity
  8
便座
  6
CONTINUOUS
 62
     6
100
AcDbLine
 10
813.495708
 20
983.038513
 30
0.0
 11
813.495708
 21
974.5
 31
0.0
  0
LINE
  5
886
100
AcDbEntity
  8
便座
  6
CONTINUOUS
 62
     6
100
AcDbLine
 10
794.495708
 20
983.619019
 30
0.0
 11
794.495708
 21
974.5
 31
0.0
  0
LINE
  5
887
100
AcDbEntity
  8
便座
  6
CONTINUOUS
 62
     6
100
AcDbLine
 10
755.062724
 20
975.323425
 30
0.0
 11
794.495708
 21
974.759613
 31
0.0
  0
ARC
  5
888
100
AcDbEntity
  8
便座
  6
CONTINUOUS
 62
     6
100
AcDbCircle
 10
755.09846
 20
977.823181
 30
0.0
 40
2.5
100
AcDbArc
 50
202.670105
 51
269.180908
  0
ARC
  5
889
100
AcDbEntity
  8
便座
  6
CONTINUOUS
 62
     6
100
AcDbCircle
 10
561.593425
 20
682.690369
 30
0.0
 40
353.0
100
AcDbArc
 50
58.114288
 51
60.155516
  0
ARC
  5
88A
100
AcDbEntity
  8
便座
  6
CONTINUOUS
 62
     6
100
AcDbCircle
 10
741.71873
 20
972.234558
 30
0.0
 40
12.0
100
AcDbArc
 50
28.196236
 51
51.672324
  0
LINE
  5
88B
100
AcDbEntity
  8
便座
  6
CONTINUOUS
 62
     6
100
AcDbLine
 10
693.429412
 20
969.0
 30
0.0
 11
691.890387
 21
998.366352
 31
0.0
  0
LINE
  5
88C
100
AcDbEntity
  8
便座
  6
CONTINUOUS
 62
     6
100
AcDbLine
 10
649.49998
 20
873.0
 30
0.0
 11
658.49998
 21
873.0
 31
0.0
  0
LINE
  5
88D
100
AcDbEntity
  8
便座
  6
CONTINUOUS
 62
     6
100
AcDbLine
 10
647.99998
 20
876.5
 30
0.0
 11
649.49998
 21
875.0
 31
0.0
  0
LINE
  5
88E
100
AcDbEntity
  8
便座
  6
CONTINUOUS
 62
     6
100
AcDbLine
 10
649.49998
 20
873.0
 30
0.0
 11
649.49998
 21
875.0
 31
0.0
  0
LINE
  5
88F
100
AcDbEntity
  8
便座
  6
CONTINUOUS
 62
     6
100
AcDbLine
 10
658.49998
 20
873.0
 30
0.0
 11
658.49998
 21
875.0
 31
0.0
  0
LINE
  5
890
100
AcDbEntity
  8
便座
  6
CONTINUOUS
 62
     6
100
AcDbLine
 10
659.99998
 20
876.5
 30
0.0
 11
658.49998
 21
875.0
 31
0.0
  0
LINE
  5
891
100
AcDbEntity
  8
便座
  6
CONTINUOUS
 62
     6
100
AcDbLine
 10
649.49998
 20
875.0
 30
0.0
 11
658.49998
 21
875.0
 31
0.0
  0
LINE
  5
892
100
AcDbEntity
  8
便座
  6
CONTINUOUS
 62
     6
100
AcDbLine
 10
647.99998
 20
876.5
 30
0.0
 11
659.99998
 21
876.5
 31
0.0
  0
LINE
  5
893
100
AcDbEntity
  8
便座
  6
CONTINUOUS
 62
     6
100
AcDbLine
 10
748.057418
 20
982.423883
 30
0.0
 11
749.160626
 21
981.648281
 31
0.0
  0
LINE
  5
894
100
AcDbEntity
  8
便座
  6
CONTINUOUS
 62
     6
100
AcDbLine
 10
752.294744
 20
977.904472
 30
0.0
 11
752.791612
 21
976.859619
 31
0.0
  0
LINE
  5
895
100
AcDbEntity
  8
便座
  6
CONTINUOUS
 62
     6
100
AcDbLine
 10
646.607923
 20
881.8
 30
0.0
 11
646.607923
 21
898.3
 31
0.0
  0
LINE
  5
896
100
AcDbEntity
  8
便座
  6
CONTINUOUS
 62
     6
100
AcDbLine
 10
650.24998
 20
897.3
 30
0.0
 11
650.24998
 21
881.8
 31
0.0
  0
LINE
  5
897
100
AcDbEntity
  8
便座
  6
CONTINUOUS
 62
     6
100
AcDbLine
 10
642.49998
 20
898.3
 30
0.0
 11
642.49998
 21
881.8
 31
0.0
  0
LINE
  5
898
100
AcDbEntity
  8
便座
  6
CONTINUOUS
 62
     6
100
AcDbLine
 10
651.49998
 20
880.8
 30
0.0
 11
651.49998
 21
886.8
 31
0.0
  0
LINE
  5
899
100
AcDbEntity
  8
便座
  6
CONTINUOUS
 62
     6
100
AcDbLine
 10
656.49998
 20
880.8
 30
0.0
 11
656.49998
 21
886.8
 31
0.0
  0
LINE
  5
89A
100
AcDbEntity
  8
便座
  6
CONTINUOUS
 62
     6
100
AcDbLine
 10
665.49998
 20
898.3
 30
0.0
 11
665.49998
 21
881.8
 31
0.0
  0
LINE
  5
89B
100
AcDbEntity
  8
便座
  6
CONTINUOUS
 62
     6
100
AcDbLine
 10
657.74998
 20
897.3
 30
0.0
 11
657.74998
 21
881.8
 31
0.0
  0
LINE
  5
89C
100
AcDbEntity
  8
便座
  6
CONTINUOUS
 62
     6
100
AcDbLine
 10
643.49998
 20
880.8
 30
0.0
 11
664.49998
 21
880.8
 31
0.0
  0
ARC
  5
89D
100
AcDbEntity
  8
便座
  6
CONTINUOUS
 62
     6
100
AcDbCircle
 10
643.49998
 20
881.8
 30
0.0
 40
1.0
100
AcDbArc
 50
180.0
 51
270.0
  0
ARC
  5
89E
100
AcDbEntity
  8
便座
  6
CONTINUOUS
 62
     6
100
AcDbCircle
 10
651.24998
 20
881.8
 30
0.0
 40
1.0
100
AcDbArc
 50
180.0
 51
270.0
  0
LINE
  5
89F
100
AcDbEntity
  8
便座
  6
CONTINUOUS
 62
     6
100
AcDbLine
 10
650.24998
 20
885.3
 30
0.0
 11
642.49998
 21
885.3
 31
0.0
  0
ARC
  5
8A0
100
AcDbEntity
  8
便座
  6
CONTINUOUS
 62
     6
100
AcDbCircle
 10
656.74998
 20
881.8
 30
0.0
 40
1.0
100
AcDbArc
 50
270.0
 51
0.0
  0
ARC
  5
8A1
100
AcDbEntity
  8
便座
  6
CONTINUOUS
 62
     6
100
AcDbCircle
 10
664.49998
 20
881.8
 30
0.0
 40
1.0
100
AcDbArc
 50
270.0
 51
0.0
  0
LINE
  5
8A2
100
AcDbEntity
  8
便座
  6
CONTINUOUS
 62
     6
100
AcDbLine
 10
641.29998
 20
901.3
 30
0.0
 11
666.69998
 21
901.3
 31
0.0
  0
LINE
  5
8A3
100
AcDbEntity
  8
便座
  6
CONTINUOUS
 62
     6
100
AcDbLine
 10
641.29998
 20
902.3
 30
0.0
 11
666.69998
 21
902.3
 31
0.0
  0
LINE
  5
8A4
100
AcDbEntity
  8
便座
  6
CONTINUOUS
 62
     6
100
AcDbLine
 10
641.49998
 20
902.3
 30
0.0
 11
666.49998
 21
902.3
 31
0.0
  0
LINE
  5
8A5
100
AcDbEntity
  8
便座
  6
CONTINUOUS
 62
     6
100
AcDbLine
 10
641.99998
 20
901.3
 30
0.0
 11
665.99998
 21
901.3
 31
0.0
  0
LINE
  5
8A6
100
AcDbEntity
  8
便座
  6
CONTINUOUS
 62
     6
100
AcDbLine
 10
665.99998
 20
898.3
 30
0.0
 11
658.74998
 21
898.3
 31
0.0
  0
LINE
  5
8A7
100
AcDbEntity
  8
便座
  6
CONTINUOUS
 62
     6
100
AcDbLine
 10
651.99998
 20
887.3
 30
0.0
 11
655.99998
 21
887.3
 31
0.0
  0
ARC
  5
8A8
100
AcDbEntity
  8
便座
  6
CONTINUOUS
 62
     6
100
AcDbCircle
 10
641.99998
 20
899.3
 30
0.0
 40
1.0
100
AcDbArc
 50
180.0
 51
270.0
  0
ARC
  5
8A9
100
AcDbEntity
  8
便座
  6
CONTINUOUS
 62
     6
100
AcDbCircle
 10
641.99998
 20
900.3
 30
0.0
 40
1.0
100
AcDbArc
 50
90.0
 51
180.0
  0
ARC
  5
8AA
100
AcDbEntity
  8
便座
  6
CONTINUOUS
 62
     6
100
AcDbCircle
 10
649.24998
 20
897.3
 30
0.0
 40
1.0
100
AcDbArc
 50
0.0
 51
90.0
  0
LINE
  5
8AB
100
AcDbEntity
  8
便座
  6
CONTINUOUS
 62
     6
100
AcDbLine
 10
650.24998
 20
895.3
 30
0.0
 11
642.49998
 21
895.3
 31
0.0
  0
LINE
  5
8AC
100
AcDbEntity
  8
便座
  6
CONTINUOUS
 62
     6
100
AcDbLine
 10
650.24998
 20
890.3
 30
0.0
 11
642.49998
 21
890.3
 31
0.0
  0
LINE
  5
8AD
100
AcDbEntity
  8
便座
  6
CONTINUOUS
 62
     6
100
AcDbLine
 10
641.99998
 20
898.3
 30
0.0
 11
649.24998
 21
898.3
 31
0.0
  0
LINE
  5
8AE
100
AcDbEntity
  8
便座
  6
CONTINUOUS
 62
     6
100
AcDbLine
 10
640.99998
 20
900.3
 30
0.0
 11
640.99998
 21
899.3
 31
0.0
  0
ARC
  5
8AF
100
AcDbEntity
  8
便座
  6
CONTINUOUS
 62
     6
100
AcDbCircle
 10
651.99998
 20
886.8
 30
0.0
 40
0.5
100
AcDbArc
 50
90.0
 51
180.0
  0
ARC
  5
8B0
100
AcDbEntity
  8
便座
  6
CONTINUOUS
 62
     6
100
AcDbCircle
 10
641.29998
 20
902.0
 30
0.0
 40
0.3
100
AcDbArc
 50
90.0
 51
180.0
  0
ARC
  5
8B1
100
AcDbEntity
  8
便座
  6
CONTINUOUS
 62
     6
100
AcDbCircle
 10
641.29998
 20
901.6
 30
0.0
 40
0.3
100
AcDbArc
 50
180.0
 51
270.0
  0
LINE
  5
8B2
100
AcDbEntity
  8
便座
  6
CONTINUOUS
 62
     6
100
AcDbLine
 10
640.99998
 20
901.6
 30
0.0
 11
640.99998
 21
902.0
 31
0.0
  0
ARC
  5
8B3
100
AcDbEntity
  8
便座
  6
CONTINUOUS
 62
     6
100
AcDbCircle
 10
655.99998
 20
886.8
 30
0.0
 40
0.5
100
AcDbArc
 50
0.0
 51
90.0
  0
ARC
  5
8B4
100
AcDbEntity
  8
便座
  6
CONTINUOUS
 62
     6
100
AcDbCircle
 10
658.74998
 20
897.3
 30
0.0
 40
1.0
100
AcDbArc
 50
90.0
 51
180.0
  0
LINE
  5
8B5
100
AcDbEntity
  8
便座
  6
CONTINUOUS
 62
     6
100
AcDbLine
 10
666.99998
 20
901.6
 30
0.0
 11
666.99998
 21
902.0
 31
0.0
  0
ARC
  5
8B6
100
AcDbEntity
  8
便座
  6
CONTINUOUS
 62
     6
100
AcDbCircle
 10
666.69998
 20
901.6
 30
0.0
 40
0.3
100
AcDbArc
 50
270.0
 51
0.0
  0
ARC
  5
8B7
100
AcDbEntity
  8
便座
  6
CONTINUOUS
 62
     6
100
AcDbCircle
 10
666.69998
 20
902.0
 30
0.0
 40
0.3
100
AcDbArc
 50
0.0
 51
90.0
  0
LINE
  5
8B8
100
AcDbEntity
  8
便座
  6
CONTINUOUS
 62
     6
100
AcDbLine
 10
666.99998
 20
900.3
 30
0.0
 11
666.99998
 21
899.3
 31
0.0
  0
ARC
  5
8B9
100
AcDbEntity
  8
便座
  6
CONTINUOUS
 62
     6
100
AcDbCircle
 10
665.99998
 20
900.3
 30
0.0
 40
1.0
100
AcDbArc
 50
0.0
 51
90.0
  0
ARC
  5
8BA
100
AcDbEntity
  8
便座
  6
CONTINUOUS
 62
     6
100
AcDbCircle
 10
665.99998
 20
899.3
 30
0.0
 40
1.0
100
AcDbArc
 50
270.0
 51
0.0
  0
LINE
  5
8BB
100
AcDbEntity
  8
便座
  6
CONTINUOUS
 62
     6
100
AcDbLine
 10
661.392037
 20
881.8
 30
0.0
 11
661.392037
 21
898.3
 31
0.0
  0
LINE
  5
8BC
100
AcDbEntity
  8
便座
  6
CONTINUOUS
 62
     6
100
AcDbLine
 10
657.74998
 20
895.3
 30
0.0
 11
665.49998
 21
895.3
 31
0.0
  0
LINE
  5
8BD
100
AcDbEntity
  8
便座
  6
CONTINUOUS
 62
     6
100
AcDbLine
 10
657.74998
 20
890.3
 30
0.0
 11
665.49998
 21
890.3
 31
0.0
  0
LINE
  5
8BE
100
AcDbEntity
  8
便座
  6
CONTINUOUS
 62
     6
100
AcDbLine
 10
657.74998
 20
885.3
 30
0.0
 11
665.49998
 21
885.3
 31
0.0
  0
ARC
  5
8BF
100
AcDbEntity
  8
便座
  6
CONTINUOUS
 62
     6
100
AcDbCircle
 10
653.99998
 20
902.3
 30
0.0
 40
12.5
100
AcDbArc
 50
0.0
 51
37.146559
  0
ARC
  5
8C0
100
AcDbEntity
  8
便座
  6
CONTINUOUS
 62
     6
100
AcDbCircle
 10
653.99998
 20
902.3
 30
0.0
 40
12.5
100
AcDbArc
 50
138.366504
 51
180.0
  0
LINE
  5
8C1
100
AcDbEntity
  8
便座
  6
CONTINUOUS
 62
     6
100
AcDbLine
 10
647.99998
 20
880.8
 30
0.0
 11
647.99998
 21
876.5
 31
0.0
  0
LINE
  5
8C2
100
AcDbEntity
  8
便座
  6
CONTINUOUS
 62
     6
100
AcDbLine
 10
648.99998
 20
880.8
 30
0.0
 11
648.99998
 21
875.5
 31
0.0
  0
LINE
  5
8C3
100
AcDbEntity
  8
便座
  6
CONTINUOUS
 62
     6
100
AcDbLine
 10
659.99998
 20
880.8
 30
0.0
 11
659.99998
 21
876.5
 31
0.0
  0
LINE
  5
8C4
100
AcDbEntity
  8
便座
  6
CONTINUOUS
 62
     6
100
AcDbLine
 10
658.99998
 20
880.8
 30
0.0
 11
658.99998
 21
875.5
 31
0.0
  0
LINE
  5
8C5
100
AcDbEntity
  8
紙巻器
  6
CONTINUOUS
 62
     6
100
AcDbLine
 10
1246.286789
 20
1266.0
 30
0.0
 11
1226.000912
 21
1266.0
 31
0.0
  0
LINE
  5
8C6
100
AcDbEntity
  8
紙巻器
  6
CONTINUOUS
 62
     6
100
AcDbLine
 10
1122.000912
 20
1266.0
 30
0.0
 11
1101.715034
 21
1266.0
 31
0.0
  0
LINE
  5
8C7
100
AcDbEntity
  8
紙巻器
  6
CONTINUOUS
 62
     6
100
AcDbLine
 10
1113.978566
 20
2864.0
 30
0.0
 11
1234.023257
 21
2864.0
 31
0.0
  0
LINE
  5
8C8
100
AcDbEntity
  8
紙巻器
  6
CONTINUOUS
 62
     6
100
AcDbLine
 10
1236.023131
 20
2862.02247
 30
0.0
 11
1236.978692
 21
2776.97753
 31
0.0
  0
ARC
  5
8C9
100
AcDbEntity
  8
紙巻器
  6
CONTINUOUS
 62
     6
100
AcDbCircle
 10
1238.978566
 20
2777.0
 30
0.0
 40
2.0
100
AcDbArc
 50
180.643746
 51
270.0
  0
LINE
  5
8CA
100
AcDbEntity
  8
紙巻器
  6
CONTINUOUS
 62
     6
100
AcDbLine
 10
1238.978566
 20
2775.0
 30
0.0
 11
1245.611551
 21
2775.0
 31
0.0
  0
ARC
  5
8CB
100
AcDbEntity
  8
紙巻器
  6
CONTINUOUS
 62
     6
100
AcDbCircle
 10
1245.611551
 20
2785.0
 30
0.0
 40
10.0
100
AcDbArc
 50
270.0
 51
356.527299
  0
ARC
  5
8CC
100
AcDbEntity
  8
紙巻器
  6
CONTINUOUS
 62
     6
100
AcDbCircle
 10
-740.734355
 20
2905.540215
 30
0.0
 40
2000.0
100
AcDbArc
 50
356.527299
 51
359.06775
  0
LINE
  5
8CD
100
AcDbEntity
  8
紙巻器
  6
CONTINUOUS
 62
     6
100
AcDbLine
 10
1111.978692
 20
2862.02247
 30
0.0
 11
1111.023131
 21
2776.97753
 31
0.0
  0
ARC
  5
8CE
100
AcDbEntity
  8
紙巻器
  6
CONTINUOUS
 62
     6
100
AcDbCircle
 10
1109.023257
 20
2777.0
 30
0.0
 40
2.0
100
AcDbArc
 50
270.0
 51
359.356254
  0
LINE
  5
8CF
100
AcDbEntity
  8
紙巻器
  6
CONTINUOUS
 62
     6
100
AcDbLine
 10
1109.023257
 20
2775.0
 30
0.0
 11
1102.390272
 21
2775.0
 31
0.0
  0
ARC
  5
8D0
100
AcDbEntity
  8
紙巻器
  6
CONTINUOUS
 62
     6
100
AcDbCircle
 10
1102.390272
 20
2785.0
 30
0.0
 40
10.0
100
AcDbArc
 50
183.472701
 51
270.0
  0
ARC
  5
8D1
100
AcDbEntity
  8
紙巻器
  6
CONTINUOUS
 62
     6
100
AcDbCircle
 10
3088.736178
 20
2905.540215
 30
0.0
 40
2000.0
100
AcDbArc
 50
180.93225
 51
183.472701
  0
ARC
  5
8D2
100
AcDbEntity
  8
紙巻器
  6
CONTINUOUS
 62
     6
100
AcDbCircle
 10
1234.023257
 20
2862.0
 30
0.0
 40
2.0
100
AcDbArc
 50
0.643746
 51
90.0
  0
LINE
  5
8D3
100
AcDbEntity
  8
紙巻器
  6
CONTINUOUS
 62
     6
100
AcDbLine
 10
1234.865711
 20
2851.0
 30
0.0
 11
1236.000912
 21
2851.0
 31
0.0
  0
LINE
  5
8D4
100
AcDbEntity
  8
紙巻器
  6
CONTINUOUS
 62
     6
100
AcDbLine
 10
1113.136112
 20
2851.0
 30
0.0
 11
1112.000912
 21
2851.0
 31
0.0
  0
ARC
  5
8D5
100
AcDbEntity
  8
紙巻器
  6
CONTINUOUS
 62
     6
100
AcDbCircle
 10
1114.239739
 20
2860.0
 30
0.0
 40
1.0
100
AcDbArc
 50
90.0
 51
179.356254
  0
LINE
  5
8D6
100
AcDbEntity
  8
紙巻器
  6
CONTINUOUS
 62
     6
100
AcDbLine
 10
1113.22844
 20
2859.0
 30
0.0
 11
1112.000912
 21
2859.0
 31
0.0
  0
ARC
  5
8D7
100
AcDbEntity
  8
紙巻器
  6
CONTINUOUS
 62
     6
100
AcDbCircle
 10
1113.978566
 20
2862.0
 30
0.0
 40
2.0
100
AcDbArc
 50
90.0
 51
179.356254
  0
LINE
  5
8D8
100
AcDbEntity
  8
紙巻器
  6
CONTINUOUS
 62
     6
100
AcDbLine
 10
1114.239739
 20
2861.0
 30
0.0
 11
1233.762084
 21
2861.0
 31
0.0
  0
ARC
  5
8D9
100
AcDbEntity
  8
紙巻器
  6
CONTINUOUS
 62
     6
100
AcDbCircle
 10
1233.762084
 20
2860.0
 30
0.0
 40
1.0
100
AcDbArc
 50
0.643746
 51
90.0
  0
LINE
  5
8DA
100
AcDbEntity
  8
紙巻器
  6
CONTINUOUS
 62
     6
100
AcDbLine
 10
1234.773657
 20
2859.0
 30
0.0
 11
1236.000912
 21
2859.0
 31
0.0
  0
ARC
  5
8DB
100
AcDbEntity
  8
紙巻器
  6
CONTINUOUS
 62
     6
100
AcDbCircle
 10
1115.284809
 20
2777.0
 30
0.0
 40
3.0
100
AcDbArc
 50
179.356254
 51
270.0
  0
LINE
  5
8DC
100
AcDbEntity
  8
紙巻器
  6
CONTINUOUS
 62
     6
100
AcDbLine
 10
1113.239802
 20
2860.011235
 30
0.0
 11
1112.284998
 21
2777.033706
 31
0.0
  0
ARC
  5
8DD
100
AcDbEntity
  8
紙巻器
  6
CONTINUOUS
 62
     6
100
AcDbCircle
 10
1232.717014
 20
2777.0
 30
0.0
 40
3.0
100
AcDbArc
 50
270.0
 51
0.643746
  0
LINE
  5
8DE
100
AcDbEntity
  8
紙巻器
  6
CONTINUOUS
 62
     6
100
AcDbLine
 10
1234.762021
 20
2860.011235
 30
0.0
 11
1235.716825
 21
2777.033706
 31
0.0
  0
LINE
  5
8DF
100
AcDbEntity
  8
紙巻器
  6
CONTINUOUS
 62
     6
100
AcDbLine
 10
1232.717014
 20
2774.0
 30
0.0
 11
1115.284809
 21
2774.0
 31
0.0
  0
LINE
  5
8E0
100
AcDbEntity
  8
紙巻器
  6
CONTINUOUS
 62
     6
100
AcDbLine
 10
1112.000912
 20
2859.0
 30
0.0
 11
1112.000912
 21
2851.0
 31
0.0
  0
LINE
  5
8E1
100
AcDbEntity
  8
紙巻器
  6
CONTINUOUS
 62
     6
100
AcDbLine
 10
1236.000912
 20
2859.0
 30
0.0
 11
1236.000912
 21
2851.0
 31
0.0
  0
LINE
  5
8E2
100
AcDbEntity
  8
紙巻器
  6
CONTINUOUS
 62
     6
100
AcDbLine
 10
1112.000912
 20
2858.0
 30
0.0
 11
1111.933496
 21
2858.0
 31
0.0
  0
LINE
  5
8E3
100
AcDbEntity
  8
紙巻器
  6
CONTINUOUS
 62
     6
100
AcDbLine
 10
1112.000912
 20
2852.0
 30
0.0
 11
1111.86608
 21
2852.0
 31
0.0
  0
LINE
  5
8E4
100
AcDbEntity
  8
紙巻器
  6
CONTINUOUS
 62
     6
100
AcDbLine
 10
1236.000912
 20
2858.0
 30
0.0
 11
1236.068327
 21
2858.0
 31
0.0
  0
LINE
  5
8E5
100
AcDbEntity
  8
紙巻器
  6
CONTINUOUS
 62
     6
100
AcDbLine
 10
1236.000912
 20
2852.0
 30
0.0
 11
1236.135743
 21
2852.0
 31
0.0
  0
LINE
  5
8E6
100
AcDbEntity
  8
紙巻器
  6
CONTINUOUS
 62
     6
100
AcDbLine
 10
1111.382934
 20
2809.0
 30
0.0
 11
1112.652827
 21
2809.0
 31
0.0
  0
LINE
  5
8E7
100
AcDbEntity
  8
紙巻器
  6
CONTINUOUS
 62
     6
100
AcDbLine
 10
1111.158215
 20
2789.0
 30
0.0
 11
1112.422692
 21
2789.0
 31
0.0
  0
LINE
  5
8E8
100
AcDbEntity
  8
紙巻器
  6
CONTINUOUS
 62
     6
100
AcDbLine
 10
1236.618889
 20
2809.0
 30
0.0
 11
1235.348996
 21
2809.0
 31
0.0
  0
LINE
  5
8E9
100
AcDbEntity
  8
紙巻器
  6
CONTINUOUS
 62
     6
100
AcDbLine
 10
1236.843608
 20
2789.0
 30
0.0
 11
1235.579131
 21
2789.0
 31
0.0
  0
LINE
  5
8EA
100
AcDbEntity
  8
紙巻器
  6
CONTINUOUS
 62
     6
100
AcDbLine
 10
1127.500912
 20
2873.0
 30
0.0
 11
1127.500912
 21
2895.37868
 31
0.0
  0
LINE
  5
8EB
100
AcDbEntity
  8
紙巻器
  6
CONTINUOUS
 62
     6
100
AcDbLine
 10
1130.500912
 20
2873.0
 30
0.0
 11
1130.500912
 21
2895.37868
 31
0.0
  0
LINE
  5
8EC
100
AcDbEntity
  8
紙巻器
  6
CONTINUOUS
 62
     6
100
AcDbLine
 10
1127.500912
 20
2895.37868
 30
0.0
 11
1129.000912
 21
2899.0
 31
0.0
  0
LINE
  5
8ED
100
AcDbEntity
  8
紙巻器
  6
CONTINUOUS
 62
     6
100
AcDbLine
 10
1130.500912
 20
2895.37868
 30
0.0
 11
1129.000912
 21
2899.0
 31
0.0
  0
LINE
  5
8EE
100
AcDbEntity
  8
紙巻器
  6
CONTINUOUS
 62
     6
100
AcDbLine
 10
1172.500912
 20
2873.0
 30
0.0
 11
1172.500912
 21
2895.37868
 31
0.0
  0
LINE
  5
8EF
100
AcDbEntity
  8
紙巻器
  6
CONTINUOUS
 62
     6
100
AcDbLine
 10
1175.500912
 20
2873.0
 30
0.0
 11
1175.500912
 21
2895.37868
 31
0.0
  0
LINE
  5
8F0
100
AcDbEntity
  8
紙巻器
  6
CONTINUOUS
 62
     6
100
AcDbLine
 10
1172.500912
 20
2895.37868
 30
0.0
 11
1174.000912
 21
2899.0
 31
0.0
  0
LINE
  5
8F1
100
AcDbEntity
  8
紙巻器
  6
CONTINUOUS
 62
     6
100
AcDbLine
 10
1175.500912
 20
2895.37868
 30
0.0
 11
1174.000912
 21
2899.0
 31
0.0
  0
LINE
  5
8F2
100
AcDbEntity
  8
紙巻器
  6
CONTINUOUS
 62
     6
100
AcDbLine
 10
1222.500912
 20
2873.0
 30
0.0
 11
1222.500912
 21
2895.37868
 31
0.0
  0
LINE
  5
8F3
100
AcDbEntity
  8
紙巻器
  6
CONTINUOUS
 62
     6
100
AcDbLine
 10
1225.500912
 20
2873.0
 30
0.0
 11
1225.500912
 21
2895.37868
 31
0.0
  0
LINE
  5
8F4
100
AcDbEntity
  8
紙巻器
  6
CONTINUOUS
 62
     6
100
AcDbLine
 10
1222.500912
 20
2895.37868
 30
0.0
 11
1224.000912
 21
2899.0
 31
0.0
  0
LINE
  5
8F5
100
AcDbEntity
  8
紙巻器
  6
CONTINUOUS
 62
     6
100
AcDbLine
 10
1225.500912
 20
2895.37868
 30
0.0
 11
1224.000912
 21
2899.0
 31
0.0
  0
LINE
  5
8F6
100
AcDbEntity
  8
紙巻器
  6
CONTINUOUS
 62
     6
100
AcDbLine
 10
1068.173466
 20
1308.0
 30
0.0
 11
1158.000912
 21
1308.0
 31
0.0
  0
LINE
  5
8F7
100
AcDbEntity
  8
紙巻器
  6
CONTINUOUS
 62
     6
100
AcDbLine
 10
1170.000912
 20
1308.0
 30
0.0
 11
1178.000912
 21
1308.0
 31
0.0
  0
LINE
  5
8F8
100
AcDbEntity
  8
紙巻器
  6
CONTINUOUS
 62
     6
100
AcDbLine
 10
1190.000912
 20
1308.0
 30
0.0
 11
1274.0
 21
1308.0
 31
0.0
  0
ARC
  5
8F9
100
AcDbEntity
  8
紙巻器
  6
CONTINUOUS
 62
     6
100
AcDbCircle
 10
1246.286789
 20
1276.0
 30
0.0
 40
10.0
100
AcDbArc
 50
270.0
 51
350.303972
  0
ARC
  5
8FA
100
AcDbEntity
  8
紙巻器
  6
CONTINUOUS
 62
     6
100
AcDbCircle
 10
1246.286789
 20
1340.0
 30
0.0
 40
10.0
100
AcDbArc
 50
9.696028
 51
90.0
  0
ARC
  5
8FB
100
AcDbEntity
  8
紙巻器
  6
CONTINUOUS
 62
     6
100
AcDbCircle
 10
1059.000912
 20
1308.0
 30
0.0
 40
200.0
100
AcDbArc
 50
350.303972
 51
9.696028
  0
ARC
  5
8FC
100
AcDbEntity
  8
紙巻器
  6
CONTINUOUS
 62
     6
100
AcDbCircle
 10
1239.000912
 20
1348.0
 30
0.0
 40
2.0
100
AcDbArc
 50
90.0
 51
180.0
  0
LINE
  5
8FD
100
AcDbEntity
  8
紙巻器
  6
CONTINUOUS
 62
     6
100
AcDbLine
 10
1237.000912
 20
1348.0
 30
0.0
 11
1237.000912
 21
1268.0
 31
0.0
  0
ARC
  5
8FE
100
AcDbEntity
  8
紙巻器
  6
CONTINUOUS
 62
     6
100
AcDbCircle
 10
1239.000912
 20
1268.0
 30
0.0
 40
2.0
100
AcDbArc
 50
180.0
 51
270.0
  0
LINE
  5
8FF
100
AcDbEntity
  8
紙巻器
  6
CONTINUOUS
 62
     6
100
AcDbLine
 10
1101.715034
 20
1350.0
 30
0.0
 11
1246.286789
 21
1350.0
 31
0.0
  0
LINE
  5
900
100
AcDbEntity
  8
紙巻器
  6
CONTINUOUS
 62
     6
100
AcDbLine
 10
1233.500912
 20
1318.818289
 30
0.0
 11
1114.500912
 21
1318.818289
 31
0.0
  0
ARC
  5
901
100
AcDbEntity
  8
紙巻器
  6
CONTINUOUS
 62
     6
100
AcDbCircle
 10
1233.500912
 20
1320.818289
 30
0.0
 40
2.0
100
AcDbArc
 50
270.0
 51
0.0
  0
LINE
  5
902
100
AcDbEntity
  8
紙巻器
  6
CONTINUOUS
 62
     6
100
AcDbLine
 10
1114.500912
 20
1322.98625
 30
0.0
 11
1233.500912
 21
1322.98625
 31
0.0
  0
ARC
  5
903
100
AcDbEntity
  8
紙巻器
  6
CONTINUOUS
 62
     6
100
AcDbCircle
 10
1233.500912
 20
1324.98625
 30
0.0
 40
2.0
100
AcDbArc
 50
270.0
 51
0.0
  0
LINE
  5
904
100
AcDbEntity
  8
紙巻器
  6
CONTINUOUS
 62
     6
100
AcDbLine
 10
1235.500912
 20
1349.5
 30
0.0
 11
1235.500912
 21
1320.818289
 31
0.0
  0
LINE
  5
905
100
AcDbEntity
  8
紙巻器
  6
CONTINUOUS
 62
     6
100
AcDbLine
 10
1235.500912
 20
1347.5
 30
0.0
 11
1237.000912
 21
1347.5
 31
0.0
  0
LINE
  5
906
100
AcDbEntity
  8
紙巻器
  6
CONTINUOUS
 62
     6
100
AcDbLine
 10
1235.500912
 20
1339.5
 30
0.0
 11
1237.000912
 21
1339.5
 31
0.0
  0
ARC
  5
907
100
AcDbEntity
  8
紙巻器
  6
CONTINUOUS
 62
     6
100
AcDbCircle
 10
1101.715034
 20
1340.0
 30
0.0
 40
10.0
100
AcDbArc
 50
90.0
 51
170.303972
  0
ARC
  5
908
100
AcDbEntity
  8
紙巻器
  6
CONTINUOUS
 62
     6
100
AcDbCircle
 10
1289.000912
 20
1308.0
 30
0.0
 40
200.0
100
AcDbArc
 50
170.303972
 51
189.696028
  0
ARC
  5
909
100
AcDbEntity
  8
紙巻器
  6
CONTINUOUS
 62
     6
100
AcDbCircle
 10
1109.000912
 20
1348.0
 30
0.0
 40
2.0
100
AcDbArc
 50
0.0
 51
90.0
  0
ARC
  5
90A
100
AcDbEntity
  8
紙巻器
  6
CONTINUOUS
 62
     6
100
AcDbCircle
 10
1109.000912
 20
1268.0
 30
0.0
 40
2.0
100
AcDbArc
 50
270.0
 51
0.0
  0
ARC
  5
90B
100
AcDbEntity
  8
紙巻器
  6
CONTINUOUS
 62
     6
100
AcDbCircle
 10
1114.500912
 20
1320.818289
 30
0.0
 40
2.0
100
AcDbArc
 50
180.0
 51
270.0
  0
ARC
  5
90C
100
AcDbEntity
  8
紙巻器
  6
CONTINUOUS
 62
     6
100
AcDbCircle
 10
1114.500912
 20
1324.98625
 30
0.0
 40
2.0
100
AcDbArc
 50
180.0
 51
270.0
  0
LINE
  5
90D
100
AcDbEntity
  8
紙巻器
  6
CONTINUOUS
 62
     6
100
AcDbLine
 10
1112.500912
 20
1349.5
 30
0.0
 11
1112.500912
 21
1320.818289
 31
0.0
  0
LINE
  5
90E
100
AcDbEntity
  8
紙巻器
  6
CONTINUOUS
 62
     6
100
AcDbLine
 10
1112.500912
 20
1347.5
 30
0.0
 11
1111.000912
 21
1347.5
 31
0.0
  0
LINE
  5
90F
100
AcDbEntity
  8
紙巻器
  6
CONTINUOUS
 62
     6
100
AcDbLine
 10
1112.500912
 20
1339.5
 30
0.0
 11
1111.000912
 21
1339.5
 31
0.0
  0
LINE
  5
910
100
AcDbEntity
  8
紙巻器
  6
CONTINUOUS
 62
     6
100
AcDbLine
 10
1233.000912
 20
1283.403978
 30
0.0
 11
1233.000912
 21
1283.4
 31
0.0
  0
ARC
  5
911
100
AcDbEntity
  8
紙巻器
  6
CONTINUOUS
 62
     6
100
AcDbCircle
 10
1234.000912
 20
1283.403978
 30
0.0
 40
1.0
100
AcDbArc
 50
180.0
 51
270.0
  0
LINE
  5
912
100
AcDbEntity
  8
紙巻器
  6
CONTINUOUS
 62
     6
100
AcDbLine
 10
1234.000912
 20
1282.403978
 30
0.0
 11
1237.000912
 21
1282.403978
 31
0.0
  0
LINE
  5
913
100
AcDbEntity
  8
紙巻器
  6
CONTINUOUS
 62
     6
100
AcDbLine
 10
1115.000912
 20
1283.4
 30
0.0
 11
1115.000912
 21
1283.396022
 31
0.0
  0
ARC
  5
914
100
AcDbEntity
  8
紙巻器
  6
CONTINUOUS
 62
     6
100
AcDbCircle
 10
1114.000912
 20
1283.4
 30
0.0
 40
1.0
100
AcDbArc
 50
270.0
 51
0.0
  0
LINE
  5
915
100
AcDbEntity
  8
紙巻器
  6
CONTINUOUS
 62
     6
100
AcDbLine
 10
1114.000912
 20
1282.4
 30
0.0
 11
1111.000912
 21
1282.4
 31
0.0
  0
LINE
  5
916
100
AcDbEntity
  8
紙巻器
  6
CONTINUOUS
 62
     6
100
AcDbLine
 10
1111.000912
 20
1268.0
 30
0.0
 11
1111.000912
 21
1348.0
 31
0.0
  0
LINE
  5
917
100
AcDbEntity
  8
紙巻器
  6
CONTINUOUS
 62
     6
100
AcDbLine
 10
1111.000912
 20
1283.403978
 30
0.0
 11
1115.012846
 21
1283.403978
 31
0.0
  0
LINE
  5
918
100
AcDbEntity
  8
紙巻器
  6
CONTINUOUS
 62
     6
100
AcDbLine
 10
1233.000912
 20
1283.403978
 30
0.0
 11
1237.000912
 21
1283.403978
 31
0.0
  0
LINE
  5
919
100
AcDbEntity
  8
紙巻器
  6
EXLTYPE4
 62
     6
100
AcDbLine
 10
1122.000912
 20
1231.4
 30
0.0
 11
1122.000912
 21
1318.818289
 31
0.0
  0
LINE
  5
91A
100
AcDbEntity
  8
紙巻器
  6
EXLTYPE4
 62
     6
100
AcDbLine
 10
1226.000912
 20
1231.4
 30
0.0
 11
1226.000912
 21
1318.818289
 31
0.0
  0
ARC
  5
91B
100
AcDbEntity
  8
紙巻器
  6
CONTINUOUS
 62
     6
100
AcDbCircle
 10
1101.715034
 20
1276.0
 30
0.0
 40
10.0
100
AcDbArc
 50
189.696028
 51
270.0
  0
LINE
  5
91C
100
AcDbEntity
  8
紙巻器
  6
CONTINUOUS
 62
     6
100
AcDbLine
 10
1235.500912
 20
1349.5
 30
0.0
 11
1112.500912
 21
1349.5
 31
0.0
  0
LINE
  5
91D
100
AcDbEntity
  8
紙巻器
  6
CONTINUOUS
 62
     6
100
AcDbLine
 10
1111.000912
 20
1299.4
 30
0.0
 11
1122.000912
 21
1299.4
 31
0.0
  0
LINE
  5
91E
100
AcDbEntity
  8
紙巻器
  6
CONTINUOUS
 62
     6
100
AcDbLine
 10
1122.000912
 20
1285.733333
 30
0.0
 11
1115.000912
 21
1283.4
 31
0.0
  0
LINE
  5
91F
100
AcDbEntity
  8
紙巻器
  6
CONTINUOUS
 62
     6
100
AcDbLine
 10
1226.000912
 20
1285.737312
 30
0.0
 11
1233.000912
 21
1283.403978
 31
0.0
  0
LINE
  5
920
100
AcDbEntity
  8
紙巻器
  6
CONTINUOUS
 62
     6
100
AcDbLine
 10
1237.000912
 20
1299.403978
 30
0.0
 11
1226.000912
 21
1299.403978
 31
0.0
  0
LINE
  5
921
100
AcDbEntity
  8
紙巻器
  6
EXLTYPE4
 62
     6
100
AcDbLine
 10
1226.000912
 20
1231.4
 30
0.0
 11
1122.000912
 21
1231.4
 31
0.0
  0
LINE
  5
922
100
AcDbEntity
  8
紙巻器
  6
CONTINUOUS
 62
     6
100
AcDbLine
 10
1174.000912
 20
1292.0
 30
0.0
 11
1174.000912
 21
1188.0
 31
0.0
  0
LINE
  5
923
100
AcDbEntity
  8
紙巻器
  6
CONTINUOUS
 62
     6
100
AcDbLine
 10
1174.000912
 20
1370.5
 30
0.0
 11
1174.000912
 21
1324.0
 31
0.0
  0
TEXT
  5
924
100
AcDbEntity
  8
寸法
  6
CONTINUOUS
 62
     2
100
AcDbText
 10
669.500005
 20
2075.841832
 30
0.0
 40
40.0
  1
７９０
 41
0.833
  7
EXCADSTD
 72
     5
 11
788.500005
 21
2075.841832
 31
0.0
100
AcDbText
  0
LINE
  5
925
100
AcDbEntity
  8
寸法
  6
CONTINUOUS
 62
     3
100
AcDbLine
 10
334.0
 20
2072.341832
 30
0.0
 11
1124.00001
 21
2072.341832
 31
0.0
  0
LINE
  5
926
100
AcDbEntity
  8
寸法
  6
CONTINUOUS
 62
     3
100
AcDbLine
 10
369.0
 20
2078.175166
 30
0.0
 11
334.0
 21
2072.341832
 31
0.0
  0
LINE
  5
927
100
AcDbEntity
  8
寸法
  6
CONTINUOUS
 62
     3
100
AcDbLine
 10
334.0
 20
2072.341832
 30
0.0
 11
369.0
 21
2066.508499
 31
0.0
  0
LINE
  5
928
100
AcDbEntity
  8
寸法
  6
CONTINUOUS
 62
     3
100
AcDbLine
 10
1089.00001
 20
2066.508499
 30
0.0
 11
1124.00001
 21
2072.341832
 31
0.0
  0
LINE
  5
929
100
AcDbEntity
  8
寸法
  6
CONTINUOUS
 62
     3
100
AcDbLine
 10
1124.00001
 20
2072.341832
 30
0.0
 11
1089.00001
 21
2078.175166
 31
0.0
  0
TEXT
  5
92A
100
AcDbEntity
  8
寸法
  6
CONTINUOUS
 62
     2
100
AcDbText
 10
1208.5
 20
856.5
 30
0.0
 40
40.0
  1
（７１０）
 50
90.0
 41
0.8106
  7
EXCADSTD
 72
     5
 11
1208.5
 21
1049.5
 31
0.0
100
AcDbText
  0
LINE
  5
92B
100
AcDbEntity
  8
寸法
  6
CONTINUOUS
 62
     3
100
AcDbLine
 10
1212.0
 20
1308.0
 30
0.0
 11
1212.0
 21
598.0
 31
0.0
  0
LINE
  5
92C
100
AcDbEntity
  8
寸法
  6
CONTINUOUS
 62
     3
100
AcDbLine
 10
1217.833333
 20
1273.0
 30
0.0
 11
1212.0
 21
1308.0
 31
0.0
  0
LINE
  5
92D
100
AcDbEntity
  8
寸法
  6
CONTINUOUS
 62
     3
100
AcDbLine
 10
1212.0
 20
1308.0
 30
0.0
 11
1206.166667
 21
1273.0
 31
0.0
  0
LINE
  5
92E
100
AcDbEntity
  8
寸法
  6
CONTINUOUS
 62
     3
100
AcDbLine
 10
1206.166667
 20
633.0
 30
0.0
 11
1212.0
 21
598.0
 31
0.0
  0
LINE
  5
92F
100
AcDbEntity
  8
寸法
  6
CONTINUOUS
 62
     3
100
AcDbLine
 10
1212.0
 20
598.0
 30
0.0
 11
1217.833333
 21
633.0
 31
0.0
  0
TEXT
  5
930
100
AcDbEntity
  8
寸法
  6
CONTINUOUS
 62
     2
100
AcDbText
 10
657.500456
 20
1211.5
 30
0.0
 40
40.0
  1
（８４０）
 41
0.8106
  7
EXCADSTD
 72
     5
 11
850.500456
 21
1211.5
 31
0.0
100
AcDbText
  0
LINE
  5
931
100
AcDbEntity
  8
寸法
  6
CONTINUOUS
 62
     3
100
AcDbLine
 10
334.0
 20
1208.0
 30
0.0
 11
1174.000912
 21
1208.0
 31
0.0
  0
LINE
  5
932
100
AcDbEntity
  8
寸法
  6
CONTINUOUS
 62
     3
100
AcDbLine
 10
369.0
 20
1213.833333
 30
0.0
 11
334.0
 21
1208.0
 31
0.0
  0
LINE
  5
933
100
AcDbEntity
  8
寸法
  6
CONTINUOUS
 62
     3
100
AcDbLine
 10
334.0
 20
1208.0
 30
0.0
 11
369.0
 21
1202.166667
 31
0.0
  0
LINE
  5
934
100
AcDbEntity
  8
寸法
  6
CONTINUOUS
 62
     3
100
AcDbLine
 10
1139.000912
 20
1202.166667
 30
0.0
 11
1174.000912
 21
1208.0
 31
0.0
  0
LINE
  5
935
100
AcDbEntity
  8
寸法
  6
CONTINUOUS
 62
     3
100
AcDbLine
 10
1174.000912
 20
1208.0
 30
0.0
 11
1139.000912
 21
1213.833333
 31
0.0
  0
DIMENSION
  5
941
100
AcDbEntity
  8
寸法
  6
CONTINUOUS
 62
     3
100
AcDbDimension
  2
*D14
 10
1124.00001
 20
2132.341832
 30
0.0
 11
749.500367
 21
2155.841832
 31
0.0
 70
   160
  1
749
  3
STANDARD
100
AcDbAlignedDimension
 13
375.000724
 23
2243.999939
 33
0.0
 14
1124.00001
 24
2132.341832
 34
0.0
100
AcDbRotatedDimension
1001
ACAD
1000
DSTYLE
1002
{
1070
     6
1000
_EX_NORM
1070
     7
1000
_EX_NORM
1070
    41
1040
35.0
1070
    42
1040
0.0
1070
    44
1040
0.0
1070
    73
1070
     0
1070
    74
1070
     0
1070
    75
1070
     0
1070
    76
1070
     1
1070
    77
1070
     1
1070
    78
1070
     0
1070
   140
1040
40.0
1070
   147
1040
3.5
1070
   173
1070
     1
1070
   176
1070
     3
1070
   177
1070
     3
1070
   178
1070
     2
1070
   271
1070
     0
1070
   279
1070
     2
1070
   280
1070
     0
1070
   287
1070
     5
1070
   340
1005
940
1002
}
  0
DIMENSION
  5
94D
100
AcDbEntity
  8
寸法
  6
CONTINUOUS
 62
     3
100
AcDbDimension
  2
*D15
 10
1124.043605
 20
2727.0
 30
0.0
 11
774.043605
 21
2750.5
 31
0.0
 70
   160
  3
STANDARD
100
AcDbAlignedDimension
 13
424.043605
 23
2473.0
 33
0.0
 14
1124.043605
 24
2473.0
 34
0.0
100
AcDbRotatedDimension
1001
ACAD
1000
DSTYLE
1002
{
1070
     6
1000
_EX_NORM
1070
     7
1000
_EX_NORM
1070
    41
1040
35.0
1070
    42
1040
22.0
1070
    44
1040
20.0
1070
    73
1070
     0
1070
    74
1070
     0
1070
    75
1070
     0
1070
    76
1070
     0
1070
    77
1070
     1
1070
    78
1070
     0
1070
   140
1040
40.0
1070
   147
1040
3.5
1070
   173
1070
     1
1070
   176
1070
     3
1070
   177
1070
     3
1070
   178
1070
     2
1070
   271
1070
     0
1070
   279
1070
     2
1070
   280
1070
     0
1070
   287
1070
     5
1070
   340
1005
940
1002
}
  0
DIMENSION
  5
958
100
AcDbEntity
  8
寸法
  6
CONTINUOUS
 62
     3
100
AcDbDimension
  2
*D16
 10
479.018804
 20
469.0
 30
0.0
 11
403.018804
 21
492.5
 31
0.0
 70
   160
  3
STANDARD
100
AcDbAlignedDimension
 13
534.000012
 23
511.0
 33
0.0
 14
479.018804
 24
567.291335
 34
0.0
100
AcDbRotatedDimension
1001
ACAD
1000
DSTYLE
1002
{
1070
     6
1000
_EX_NORM
1070
     7
1000
_EX_NORM
1070
    41
1040
35.0
1070
    42
1040
7.0
1070
    44
1040
20.0
1070
    73
1070
     0
1070
    74
1070
     0
1070
    75
1070
     1
1070
    76
1070
     0
1070
    77
1070
     1
1070
    78
1070
     0
1070
   140
1040
40.0
1070
   147
1040
3.5
1070
   173
1070
     1
1070
   176
1070
     3
1070
   177
1070
     3
1070
   178
1070
     2
1070
   271
1070
     0
1070
   279
1070
     2
1070
   280
1070
     2
1070
   287
1070
     5
1070
   340
1005
940
1002
}
  0
DIMENSION
  5
963
100
AcDbEntity
  8
寸法
  6
CONTINUOUS
 62
     3
100
AcDbDimension
  2
*D17
 10
434.0
 20
651.0
 30
0.0
 11
381.0
 21
674.5
 31
0.0
 70
   160
  3
STANDARD
100
AcDbAlignedDimension
 13
334.0
 23
598.0
 33
0.0
 14
434.0
 24
703.6
 34
0.0
100
AcDbRotatedDimension
1001
ACAD
1000
DSTYLE
1002
{
1070
     6
1000
_EX_NORM
1070
     7
1000
_EX_NORM
1070
    41
1040
35.0
1070
    42
1040
0.0
1070
    44
1040
0.0
1070
    73
1070
     0
1070
    74
1070
     0
1070
    75
1070
     1
1070
    76
1070
     1
1070
    77
1070
     1
1070
    78
1070
     0
1070
   140
1040
40.0
1070
   147
1040
3.5
1070
   173
1070
     1
1070
   176
1070
     3
1070
   177
1070
     3
1070
   178
1070
     2
1070
   271
1070
     0
1070
   279
1070
     2
1070
   280
1070
     0
1070
   287
1070
     5
1070
   340
1005
962
1002
}
  0
DIMENSION
  5
96E
100
AcDbEntity
  8
寸法
  6
CONTINUOUS
 62
     3
100
AcDbDimension
  2
*D18
 10
260.00002
 20
2173.0
 30
0.0
 11
236.50002
 21
2323.0
 31
0.0
 70
   160
  3
STANDARD
100
AcDbAlignedDimension
 13
334.0
 23
2473.0
 33
0.0
 14
305.250944
 24
2173.0
 34
0.0
 50
90.0
100
AcDbRotatedDimension
1001
ACAD
1000
DSTYLE
1002
{
1070
     6
1000
_EX_NORM
1070
     7
1000
_EX_NORM
1070
    41
1040
35.0
1070
    42
1040
7.0
1070
    44
1040
20.0
1070
    73
1070
     0
1070
    74
1070
     0
1070
    75
1070
     0
1070
    76
1070
     1
1070
    77
1070
     1
1070
    78
1070
     0
1070
   140
1040
40.0
1070
   147
1040
3.5
1070
   173
1070
     1
1070
   176
1070
     3
1070
   177
1070
     3
1070
   178
1070
     2
1070
   271
1070
     0
1070
   279
1070
     2
1070
   280
1070
     0
1070
   287
1070
     5
1070
   340
1005
940
1002
}
  0
TEXT
  5
96F
100
AcDbEntity
  8
寸法
  6
CONTINUOUS
 62
     2
100
AcDbText
 10
229.5
 20
731.006634
 30
0.0
 40
40.0
  1
３８５
 50
90.0
 41
0.833
  7
EXCADSTD
 72
     5
 11
229.5
 21
850.006634
 31
0.0
100
AcDbText
  0
LINE
  5
970
100
AcDbEntity
  8
寸法
  6
CONTINUOUS
 62
     3
100
AcDbLine
 10
233.0
 20
983.013268
 30
0.0
 11
233.0
 21
598.0
 31
0.0
  0
LINE
  5
971
100
AcDbEntity
  8
寸法
  6
CONTINUOUS
 62
     3
100
AcDbLine
 10
238.833333
 20
948.013268
 30
0.0
 11
233.0
 21
983.013268
 31
0.0
  0
LINE
  5
972
100
AcDbEntity
  8
寸法
  6
CONTINUOUS
 62
     3
100
AcDbLine
 10
233.0
 20
983.013268
 30
0.0
 11
227.166667
 21
948.013268
 31
0.0
  0
LINE
  5
973
100
AcDbEntity
  8
寸法
  6
CONTINUOUS
 62
     3
100
AcDbLine
 10
227.166667
 20
633.0
 30
0.0
 11
233.0
 21
598.0
 31
0.0
  0
LINE
  5
974
100
AcDbEntity
  8
寸法
  6
CONTINUOUS
 62
     3
100
AcDbLine
 10
233.0
 20
598.0
 30
0.0
 11
238.833333
 21
633.0
 31
0.0
  0
DIMENSION
  5
97F
100
AcDbEntity
  8
寸法
  6
CONTINUOUS
 62
     3
100
AcDbDimension
  2
*D19
 10
287.00004
 20
598.0
 30
0.0
 11
263.50004
 21
748.0
 31
0.0
 70
   160
  1
300（壁給水）
  3
STANDARD
100
AcDbAlignedDimension
 13
320.0
 23
898.0
 33
0.0
 14
287.00004
 24
598.0
 34
0.0
 50
90.0
100
AcDbRotatedDimension
1001
ACAD
1000
DSTYLE
1002
{
1070
     6
1000
_EX_NORM
1070
     7
1000
_EX_NORM
1070
    41
1040
35.0
1070
    42
1040
7.0
1070
    44
1040
20.0
1070
    73
1070
     0
1070
    74
1070
     0
1070
    75
1070
     0
1070
    76
1070
     1
1070
    77
1070
     1
1070
    78
1070
     8
1070
   140
1040
40.0
1070
   147
1040
3.5
1070
   173
1070
     1
1070
   176
1070
     3
1070
   177
1070
     3
1070
   178
1070
     2
1070
   271
1070
     2
1070
   279
1070
     2
1070
   280
1070
     0
1070
   287
1070
     5
1070
   340
1005
962
1002
}
  0
LINE
  5
980
100
AcDbEntity
  8
寸法
  6
CONTINUOUS
 62
     3
100
AcDbLine
 10
326.0
 20
598.0
 30
0.0
 11
213.0
 21
598.0
 31
0.0
  0
DIMENSION
  5
98A
100
AcDbEntity
  8
寸法
  6
CONTINUOUS
 62
     3
100
AcDbDimension
  2
*D20
 10
233.0
 20
983.013268
 30
0.0
 11
209.5
 21
1185.513235
 31
0.0
 70
   160
  3
STANDARD
100
AcDbAlignedDimension
 13
477.543623
 23
1388.013202
 33
0.0
 14
233.0
 24
983.013268
 34
0.0
 50
90.0
100
AcDbRotatedDimension
1001
ACAD
1000
DSTYLE
1002
{
1070
     6
1000
_EX_NORM
1070
     7
1000
_EX_NORM
1070
    41
1040
35.0
1070
    42
1040
0.0
1070
    44
1040
0.0
1070
    73
1070
     0
1070
    74
1070
     0
1070
    75
1070
     1
1070
    76
1070
     1
1070
    77
1070
     1
1070
    78
1070
     0
1070
   140
1040
40.0
1070
   147
1040
3.5
1070
   173
1070
     1
1070
   176
1070
     3
1070
   177
1070
     3
1070
   178
1070
     2
1070
   271
1070
     0
1070
   279
1070
     2
1070
   280
1070
     0
1070
   287
1070
     5
1070
   340
1005
940
1002
}
  0
LINE
  5
98B
100
AcDbEntity
  8
器具明細表
  6
CONTINUOUS
 62
     3
100
AcDbLine
 10
1731.9
 20
2105.0
 30
0.0
 11
1650.0
 21
2105.0
 31
0.0
  0
LINE
  5
98C
100
AcDbEntity
  8
器具明細表
  6
CONTINUOUS
 62
     3
100
AcDbLine
 10
1670.0
 20
2020.0
 30
0.0
 11
1670.0
 21
2201.180744
 31
0.0
  0
LINE
  5
98D
100
AcDbEntity
  8
器具明細表
  6
CONTINUOUS
 62
     3
100
AcDbLine
 10
1675.833333
 20
2030.0
 30
0.0
 11
1670.0
 21
2065.0
 31
0.0
  0
LINE
  5
98E
100
AcDbEntity
  8
器具明細表
  6
CONTINUOUS
 62
     3
100
AcDbLine
 10
1670.0
 20
2065.0
 30
0.0
 11
1664.166667
 21
2030.0
 31
0.0
  0
LINE
  5
98F
100
AcDbEntity
  8
器具明細表
  6
CONTINUOUS
 62
     3
100
AcDbLine
 10
1664.166667
 20
2140.0
 30
0.0
 11
1670.0
 21
2105.0
 31
0.0
  0
LINE
  5
990
100
AcDbEntity
  8
器具明細表
  6
CONTINUOUS
 62
     3
100
AcDbLine
 10
1670.0
 20
2105.0
 30
0.0
 11
1675.833333
 21
2140.0
 31
0.0
  0
TEXT
  5
991
100
AcDbEntity
  8
器具明細表
  6
CONTINUOUS
 62
     2
100
AcDbText
 10
1668.8
 20
2133.9
 30
0.0
 40
40.0
  1
４０
 50
90.0
 41
0.861
  7
EXCADSTD
 72
     5
 11
1668.8
 21
2209.0612
 31
0.0
100
AcDbText
  0
LINE
  5
992
100
AcDbEntity
  8
器具明細表
  6
CONTINUOUS
 62
     6
100
AcDbLine
 10
1285.0
 20
2816.0
 30
0.0
 11
1985.0
 21
2816.0
 31
0.0
  0
LINE
  5
993
100
AcDbEntity
  8
器具明細表
  6
CONTINUOUS
 62
     6
100
AcDbLine
 10
1285.0
 20
2751.0
 30
0.0
 11
1985.0
 21
2751.0
 31
0.0
  0
LINE
  5
994
100
AcDbEntity
  8
器具明細表
  6
CONTINUOUS
 62
     6
100
AcDbLine
 10
1285.0
 20
2686.0
 30
0.0
 11
1985.0
 21
2686.0
 31
0.0
  0
TEXT
  5
995
100
AcDbEntity
  8
器具明細表
  6
CONTINUOUS
 62
     2
100
AcDbText
 10
1305.0
 20
2826.0
 30
0.0
 40
60.0
  1
器具明細
 41
1.54
  7
EXCADSTD
 72
     5
 11
1745.0
 21
2826.0
 31
0.0
100
AcDbText
  0
TEXT
  5
996
100
AcDbEntity
  8
器具明細表
  6
CONTINUOUS
 62
     2
100
AcDbText
 10
1665.0
 20
2756.0
 30
0.0
 40
55.0
  1
品名
 41
1.374545
  7
EXCADSTD
 72
     5
 11
1829.988
 21
2756.0
 31
0.0
100
AcDbText
  0
TEXT
  5
997
100
AcDbEntity
  8
器具明細表
  6
CONTINUOUS
 62
     2
100
AcDbText
 10
1896.5
 20
2756.0
 30
0.0
 40
55.0
  1
個数
 41
0.664364
  7
EXCADSTD
 72
     5
 11
1976.2442
 21
2756.0
 31
0.0
100
AcDbText
  0
TEXT
  5
998
100
AcDbEntity
  8
器具明細表
  6
CONTINUOUS
 62
     2
100
AcDbText
 10
1618.0
 20
2693.5
 30
0.0
 40
50.0
  1
便器セット
 41
0.64848
  7
EXCADSTD
 72
     5
 11
1811.0
 21
2693.5
 31
0.0
100
AcDbText
  0
TEXT
  5
999
100
AcDbEntity
  8
器具明細表
  6
CONTINUOUS
 62
     2
100
AcDbText
 10
1618.0
 20
2628.5
 30
0.0
 40
50.0
  1
タンクセット
 41
0.644
  7
EXCADSTD
 72
     5
 11
1847.999999
 21
2628.5
 31
0.0
100
AcDbText
  0
TEXT
  5
99A
100
AcDbEntity
  8
器具明細表
  6
CONTINUOUS
 62
     2
100
AcDbText
 10
1917.5
 20
2696.0
 30
0.0
 40
45.0
  1
１
 41
0.84
  7
EXCADSTD
 72
     5
 11
1953.5
 21
2696.0
 31
0.0
100
AcDbText
  0
TEXT
  5
99B
100
AcDbEntity
  8
器具明細表
  6
CONTINUOUS
 62
     2
100
AcDbText
 10
1917.5
 20
2631.0
 30
0.0
 40
45.0
  1
１
 41
0.84
  7
EXCADSTD
 72
     5
 11
1953.5
 21
2631.0
 31
0.0
100
AcDbText
  0
TEXT
  5
99C
100
AcDbEntity
  8
器具明細表
  6
CONTINUOUS
 62
     2
100
AcDbText
 10
1350.0
 20
2756.0
 30
0.0
 40
55.0
  1
品番
 41
1.527273
  7
EXCADSTD
 72
     5
 11
1533.32
 21
2756.0
 31
0.0
100
AcDbText
  0
LINE
  5
99D
100
AcDbEntity
  8
器具明細表
  6
CONTINUOUS
 62
     6
100
AcDbLine
 10
1285.0
 20
2621.0
 30
0.0
 11
1985.0
 21
2621.0
 31
0.0
  0
TEXT
  5
99E
100
AcDbEntity
  8
器具明細表
  6
CONTINUOUS
 62
     2
100
AcDbText
 10
1917.5
 20
2501.0
 30
0.0
 40
45.0
  1
１
 41
0.84
  7
EXCADSTD
 72
     5
 11
1953.5
 21
2501.0
 31
0.0
100
AcDbText
  0
LINE
  5
99F
100
AcDbEntity
  8
器具明細表
  6
CONTINUOUS
 62
     6
100
AcDbLine
 10
1285.0
 20
2491.0
 30
0.0
 11
1985.0
 21
2491.0
 31
0.0
  0
LINE
  5
9A0
100
AcDbEntity
  8
器具明細表
  6
CONTINUOUS
 62
     6
100
AcDbLine
 10
1285.0
 20
2816.0
 30
0.0
 11
1285.0
 21
2491.0
 31
0.0
  0
LINE
  5
9A1
100
AcDbEntity
  8
器具明細表
  6
CONTINUOUS
 62
     6
100
AcDbLine
 10
1615.0
 20
2491.0
 30
0.0
 11
1615.0
 21
2816.0
 31
0.0
  0
LINE
  5
9A2
100
AcDbEntity
  8
器具明細表
  6
CONTINUOUS
 62
     6
100
AcDbLine
 10
1895.0
 20
2816.0
 30
0.0
 11
1895.0
 21
2491.0
 31
0.0
  0
LINE
  5
9A3
100
AcDbEntity
  8
器具明細表
  6
CONTINUOUS
 62
     6
100
AcDbLine
 10
1985.0
 20
2491.0
 30
0.0
 11
1985.0
 21
2816.0
 31
0.0
  0
LINE
  5
9A4
100
AcDbEntity
  8
器具明細表
  6
CONTINUOUS
 62
     6
100
AcDbLine
 10
1285.0
 20
2556.0
 30
0.0
 11
1985.0
 21
2556.0
 31
0.0
  0
TEXT
  5
9A5
100
AcDbEntity
  8
器具明細表
  6
CONTINUOUS
 62
     2
100
AcDbText
 10
1618.0
 20
2563.5
 30
0.0
 40
50.0
  1
ワンタッチ式紙巻器
 41
0.522667
  7
EXCADSTD
 72
     5
 11
1898.0
 21
2563.5
 31
0.0
100
AcDbText
  0
TEXT
  5
9A6
100
AcDbEntity
  8
器具明細表
  6
CONTINUOUS
 62
     2
100
AcDbText
 10
1917.5
 20
2566.0
 30
0.0
 40
45.0
  1
１
 41
0.84
  7
EXCADSTD
 72
     5
 11
1953.5
 21
2566.0
 31
0.0
100
AcDbText
  0
TEXT
  5
9A7
100
AcDbEntity
  8
器具明細表
  6
CONTINUOUS
 62
     2
100
AcDbText
 10
1618.0
 20
2498.5
 30
0.0
 40
50.0
  1
前丸便座
 41
0.6552
  7
EXCADSTD
 72
     5
 11
1774.0
 21
2498.5
 31
0.0
100
AcDbText
  0
LINE
  5
9A8
100
AcDbEntity
  8
器具明細表
  6
CONTINUOUS
 62
     7
100
AcDbLine
 10
1464.0
 20
2065.0
 30
0.0
 11
1790.5
 21
2065.0
 31
0.0
  0
TEXT
  5
9A9
100
AcDbEntity
  8
器具明細表
  6
CONTINUOUS
 62
     2
100
AcDbText
 10
1531.0
 20
2068.5
 30
0.0
 40
40.0
  1
Ｆ．Ｌ
 41
0.833
  7
EXCADSTD
 72
     5
 11
1650.0
 21
2068.5
 31
0.0
100
AcDbText
  0
TEXT
  5
9AA
100
AcDbEntity
  8
器具明細表
  6
CONTINUOUS
 62
     2
100
AcDbText
 10
1267.391216
 20
1898.5
 30
0.0
 40
40.0
  1
ＶＵ、ＶＰ７５の場合
 41
0.651
  7
EXCADSTD
 72
     5
 11
1577.391216
 21
1898.5
 31
0.0
100
AcDbText
  0
LINE
  5
9AB
100
AcDbEntity
  8
器具明細表
  6
CONTINUOUS
 62
     6
100
AcDbLine
 10
1272.5
 20
1893.0
 30
0.0
 11
1577.5
 21
1893.0
 31
0.0
  0
TEXT
  5
9AC
100
AcDbEntity
  8
器具明細表
  6
CONTINUOUS
 62
     2
100
AcDbText
 10
1348.391216
 20
1849.5
 30
0.0
 40
40.0
  1
床面カット
 41
0.672
  7
EXCADSTD
 72
     5
 11
1508.391216
 21
1849.5
 31
0.0
100
AcDbText
  0
LINE
  5
9AD
100
AcDbEntity
  8
器具明細表
  6
EXLTYPE3
 62
     6
100
AcDbLine
 10
1421.5
 20
2125.0
 30
0.0
 11
1421.5
 21
1985.2547
 31
0.0
  0
LINE
  5
9AE
100
AcDbEntity
  8
器具明細表
  6
CONTINUOUS
 62
     2
100
AcDbLine
 10
1462.5
 20
2065.0
 30
0.0
 11
1462.5
 21
2020.0
 31
0.0
  0
LINE
  5
9AF
100
AcDbEntity
  8
器具明細表
  6
CONTINUOUS
 62
     2
100
AcDbLine
 10
1480.5
 20
2110.446462
 30
0.0
 11
1362.5
 21
2110.446462
 31
0.0
  0
LINE
  5
9B0
100
AcDbEntity
  8
器具明細表
  6
CONTINUOUS
 62
     2
100
AcDbLine
 10
1422.5
 20
2093.446462
 30
0.0
 11
1459.413055
 21
2093.446462
 31
0.0
  0
LINE
  5
9B1
100
AcDbEntity
  8
器具明細表
  6
CONTINUOUS
 62
     2
100
AcDbLine
 10
1454.0
 20
2093.446462
 30
0.0
 11
1468.607625
 21
2109.467725
 31
0.0
  0
LINE
  5
9B2
100
AcDbEntity
  8
器具明細表
  6
CONTINUOUS
 62
     2
100
AcDbLine
 10
1459.413058
 20
2093.446459
 30
0.0
 11
1470.354233
 21
2105.446462
 31
0.0
  0
ARC
  5
9B3
100
AcDbEntity
  8
器具明細表
  6
CONTINUOUS
 62
     2
100
AcDbCircle
 10
1362.5
 20
2107.446462
 30
0.0
 40
3.0
100
AcDbArc
 50
90.0
 51
180.0
  0
ARC
  5
9B4
100
AcDbEntity
  8
器具明細表
  6
CONTINUOUS
 62
     2
100
AcDbCircle
 10
1480.5
 20
2107.446462
 30
0.0
 40
3.0
100
AcDbArc
 50
0.0
 51
90.0
  0
ARC
  5
9B5
100
AcDbEntity
  8
器具明細表
  6
CONTINUOUS
 62
     2
100
AcDbCircle
 10
1470.824493
 20
2107.446462
 30
0.0
 40
3.0
100
AcDbArc
 50
90.0
 51
137.642517
  0
LINE
  5
9B6
100
AcDbEntity
  8
器具明細表
  6
CONTINUOUS
 62
     2
100
AcDbLine
 10
1470.354233
 20
2105.446462
 30
0.0
 11
1475.172134
 21
2105.446462
 31
0.0
  0
LINE
  5
9B7
100
AcDbEntity
  8
器具明細表
  6
CONTINUOUS
 62
     2
100
AcDbLine
 10
1475.172134
 20
2105.446462
 30
0.0
 11
1478.460179
 21
2105.446462
 31
0.0
  0
LINE
  5
9B8
100
AcDbEntity
  8
器具明細表
  6
EXLTYPE2
 62
     2
100
AcDbLine
 10
1364.5
 20
2104.946462
 30
0.0
 11
1421.5
 21
2104.946462
 31
0.0
  0
LINE
  5
9B9
100
AcDbEntity
  8
器具明細表
  6
CONTINUOUS
 62
     2
100
AcDbLine
 10
1478.460179
 20
2104.946462
 30
0.0
 11
1478.460179
 21
2065.0
 31
0.0
  0
LINE
  5
9BA
100
AcDbEntity
  8
器具明細表
  6
CONTINUOUS
 62
     6
100
AcDbLine
 10
1462.5
 20
2020.0
 30
0.0
 11
1462.5
 21
2003.019086
 31
0.0
  0
LINE
  5
9BB
100
AcDbEntity
  8
器具明細表
  6
CONTINUOUS
 62
     2
100
AcDbLine
 10
1459.0
 20
2069.0
 30
0.0
 11
1459.0
 21
2020.0
 31
0.0
  0
LINE
  5
9BC
100
AcDbEntity
  8
器具明細表
  6
CONTINUOUS
 62
     2
100
AcDbLine
 10
1475.460179
 20
2104.946462
 30
0.0
 11
1475.460179
 21
2069.0
 31
0.0
  0
LINE
  5
9BD
100
AcDbEntity
  8
器具明細表
  6
CONTINUOUS
 62
     2
100
AcDbLine
 10
1422.5
 20
2069.0
 30
0.0
 11
1475.460179
 21
2069.0
 31
0.0
  0
LINE
  5
9BE
100
AcDbEntity
  8
器具明細表
  6
CONTINUOUS
 62
     6
100
AcDbLine
 10
1466.0
 20
2065.0
 30
0.0
 11
1466.0
 21
2005.2547
 31
0.0
  0
LINE
  5
9BF
100
AcDbEntity
  8
器具明細表
  6
CONTINUOUS
 62
     6
100
AcDbLine
 10
1377.0
 20
2065.0
 30
0.0
 11
1377.0
 21
2005.2547
 31
0.0
  0
ARC
  5
9C0
100
AcDbEntity
  8
器具明細表
  6
CONTINUOUS
 62
     6
100
AcDbCircle
 10
1399.25
 20
1974.278409
 30
0.0
 40
38.139128
100
AcDbArc
 50
54.310642
 51
125.689358
  0
ARC
  5
9C1
100
AcDbEntity
  8
器具明細表
  6
CONTINUOUS
 62
     6
100
AcDbCircle
 10
1399.25
 20
2036.23099
 30
0.0
 40
38.139128
100
AcDbArc
 50
234.310642
 51
305.689358
  0
ARC
  5
9C2
100
AcDbEntity
  8
器具明細表
  6
CONTINUOUS
 62
     6
100
AcDbCircle
 10
1443.75
 20
2036.23099
 30
0.0
 40
38.139128
100
AcDbArc
 50
234.310642
 51
305.689358
  0
LINE
  5
9C3
100
AcDbEntity
  8
器具明細表
  6
CONTINUOUS
 62
     2
100
AcDbLine
 10
1421.5
 20
2020.0
 30
0.0
 11
1462.5
 21
2020.0
 31
0.0
  0
LINE
  5
9C4
100
AcDbEntity
  8
器具明細表
  6
EXLTYPE2
 62
     2
100
AcDbLine
 10
1380.5
 20
2065.0
 30
0.0
 11
1380.5
 21
2020.0
 31
0.0
  0
LINE
  5
9C5
100
AcDbEntity
  8
器具明細表
  6
EXLTYPE2
 62
     2
100
AcDbLine
 10
1380.5
 20
2020.0
 30
0.0
 11
1421.5
 21
2020.0
 31
0.0
  0
TEXT
  5
9C6
100
AcDbEntity
  8
器具明細表
  6
CONTINUOUS
 62
     2
100
AcDbText
 10
1620.891216
 20
1896.5
 30
0.0
 40
40.0
  1
ＶＵ、ＶＰ１００の場合
 41
0.649091
  7
EXCADSTD
 72
     5
 11
1960.891216
 21
1896.5
 31
0.0
100
AcDbText
  0
TEXT
  5
9C7
100
AcDbEntity
  8
器具明細表
  6
CONTINUOUS
 62
     2
100
AcDbText
 10
1669.891216
 20
1849.5
 30
0.0
 40
40.0
  1
床上４０mmカット
 41
0.583704
  7
EXCADSTD
 72
     5
 11
1909.891216
 21
1849.5
 31
0.0
100
AcDbText
  0
LINE
  5
9C8
100
AcDbEntity
  8
器具明細表
  6
CONTINUOUS
 62
     6
100
AcDbLine
 10
1622.0
 20
1893.0
 30
0.0
 11
1965.0
 21
1893.0
 31
0.0
  0
ARC
  5
9C9
100
AcDbEntity
  8
器具明細表
  6
CONTINUOUS
 62
     6
100
AcDbCircle
 10
1763.5
 20
2046.336934
 30
0.0
 40
50.0
100
AcDbArc
 50
235.249774
 51
304.750226
  0
ARC
  5
9CA
100
AcDbEntity
  8
器具明細表
  6
CONTINUOUS
 62
     6
100
AcDbCircle
 10
1763.5
 20
1964.172465
 30
0.0
 40
50.0
100
AcDbArc
 50
55.249774
 51
124.750226
  0
ARC
  5
9CB
100
AcDbEntity
  8
器具明細表
  6
CONTINUOUS
 62
     6
100
AcDbCircle
 10
1820.5
 20
2046.336934
 30
0.0
 40
50.0
100
AcDbArc
 50
235.249774
 51
304.750226
  0
LINE
  5
9CC
100
AcDbEntity
  8
器具明細表
  6
CONTINUOUS
 62
     6
100
AcDbLine
 10
1849.0
 20
2105.0
 30
0.0
 11
1849.0
 21
2005.2547
 31
0.0
  0
LINE
  5
9CD
100
AcDbEntity
  8
器具明細表
  6
EXLTYPE3
 62
     6
100
AcDbLine
 10
1792.0
 20
1985.2547
 30
0.0
 11
1792.0
 21
2125.0
 31
0.0
  0
LINE
  5
9CE
100
AcDbEntity
  8
器具明細表
  6
CONTINUOUS
 62
     2
100
AcDbLine
 10
1851.0
 20
2110.446462
 30
0.0
 11
1733.0
 21
2110.446462
 31
0.0
  0
LINE
  5
9CF
100
AcDbEntity
  8
器具明細表
  6
CONTINUOUS
 62
     2
100
AcDbLine
 10
1793.0
 20
2093.446462
 30
0.0
 11
1829.913055
 21
2093.446462
 31
0.0
  0
LINE
  5
9D0
100
AcDbEntity
  8
器具明細表
  6
CONTINUOUS
 62
     2
100
AcDbLine
 10
1824.5
 20
2093.446462
 30
0.0
 11
1839.107625
 21
2109.467725
 31
0.0
  0
LINE
  5
9D1
100
AcDbEntity
  8
器具明細表
  6
CONTINUOUS
 62
     2
100
AcDbLine
 10
1829.913058
 20
2093.446459
 30
0.0
 11
1840.854233
 21
2105.446462
 31
0.0
  0
ARC
  5
9D2
100
AcDbEntity
  8
器具明細表
  6
CONTINUOUS
 62
     2
100
AcDbCircle
 10
1733.0
 20
2107.446462
 30
0.0
 40
3.0
100
AcDbArc
 50
90.0
 51
180.0
  0
ARC
  5
9D3
100
AcDbEntity
  8
器具明細表
  6
CONTINUOUS
 62
     2
100
AcDbCircle
 10
1851.0
 20
2107.446462
 30
0.0
 40
3.0
100
AcDbArc
 50
0.0
 51
90.0
  0
ARC
  5
9D4
100
AcDbEntity
  8
器具明細表
  6
CONTINUOUS
 62
     2
100
AcDbCircle
 10
1841.324493
 20
2107.446462
 30
0.0
 40
3.0
100
AcDbArc
 50
90.0
 51
137.642517
  0
ARC
  5
9D5
100
AcDbEntity
  8
器具明細表
  6
CONTINUOUS
 62
     2
100
AcDbCircle
 10
1848.960179
 20
2104.946462
 30
0.0
 40
0.5
100
AcDbArc
 50
5.0
 51
90.0
  0
LINE
  5
9D6
100
AcDbEntity
  8
器具明細表
  6
CONTINUOUS
 62
     2
100
AcDbLine
 10
1840.854233
 20
2105.446462
 30
0.0
 11
1845.672134
 21
2105.446462
 31
0.0
  0
LINE
  5
9D7
100
AcDbEntity
  8
器具明細表
  6
CONTINUOUS
 62
     2
100
AcDbLine
 10
1845.672134
 20
2105.446462
 30
0.0
 11
1848.960179
 21
2105.446462
 31
0.0
  0
LINE
  5
9D8
100
AcDbEntity
  8
器具明細表
  6
CONTINUOUS
 62
     6
100
AcDbLine
 10
1840.398351
 20
2104.946462
 30
0.0
 11
1849.0
 21
2104.946462
 31
0.0
  0
LINE
  5
9D9
100
AcDbEntity
  8
器具明細表
  6
CONTINUOUS
 62
     6
100
AcDbLine
 10
1846.0
 20
2105.0
 30
0.0
 11
1846.0
 21
2003.328214
 31
0.0
  0
LINE
  5
9DA
100
AcDbEntity
  8
器具明細表
  6
CONTINUOUS
 62
     7
100
AcDbLine
 10
1261.0
 20
2065.0
 30
0.0
 11
1420.0
 21
2065.0
 31
0.0
  0
LINE
  5
9DB
100
AcDbEntity
  8
器具明細表
  6
CONTINUOUS
 62
     7
100
AcDbLine
 10
1851.0
 20
2065.0
 30
0.0
 11
1970.0
 21
2065.0
 31
0.0
  0
LINE
  5
9DC
100
AcDbEntity
  8
器具明細表
  6
CONTINUOUS
 62
     2
100
AcDbLine
 10
1359.5
 20
2075.0
 30
0.0
 11
1364.5
 21
2075.0
 31
0.0
  0
LINE
  5
9DD
100
AcDbEntity
  8
器具明細表
  6
CONTINUOUS
 62
     2
100
AcDbLine
 10
1359.5
 20
2075.0
 30
0.0
 11
1359.5
 21
2107.446462
 31
0.0
  0
LINE
  5
9DE
100
AcDbEntity
  8
器具明細表
  6
CONTINUOUS
 62
     2
100
AcDbLine
 10
1481.226951
 20
2079.577642
 30
0.0
 11
1480.965484
 21
2082.566227
 31
0.0
  0
LINE
  5
9DF
100
AcDbEntity
  8
器具明細表
  6
CONTINUOUS
 62
     2
100
AcDbLine
 10
1480.529705
 20
2087.5472
 30
0.0
 11
1479.919615
 21
2094.520563
 31
0.0
  0
ARC
  5
9E0
100
AcDbEntity
  8
器具明細表
  6
CONTINUOUS
 62
     2
100
AcDbCircle
 10
1480.330556
 20
2095.560336
 30
0.0
 40
0.5
100
AcDbArc
 50
275.0
 51
5.0
  0
ARC
  5
9E1
100
AcDbEntity
  8
器具明細表
  6
CONTINUOUS
 62
     2
100
AcDbCircle
 10
1480.417712
 20
2094.564141
 30
0.0
 40
0.5
100
AcDbArc
 50
95.0
 51
185.0
  0
ARC
  5
9E2
100
AcDbEntity
  8
器具明細表
  6
CONTINUOUS
 62
     2
100
AcDbCircle
 10
1480.031608
 20
2087.503622
 30
0.0
 40
0.5
100
AcDbArc
 50
275.0
 51
5.0
  0
ARC
  5
9E3
100
AcDbEntity
  8
器具明細表
  6
CONTINUOUS
 62
     2
100
AcDbCircle
 10
1480.467386
 20
2082.522649
 30
0.0
 40
0.5
100
AcDbArc
 50
5.0
 51
95.0
  0
ARC
  5
9E4
100
AcDbEntity
  8
器具明細表
  6
CONTINUOUS
 62
     2
100
AcDbCircle
 10
1480.728854
 20
2079.534065
 30
0.0
 40
0.5
100
AcDbArc
 50
275.0
 51
5.0
  0
LINE
  5
9E5
100
AcDbEntity
  8
器具明細表
  6
CONTINUOUS
 62
     2
100
AcDbLine
 10
1480.274334
 20
2078.992389
 30
0.0
 11
1480.772431
 21
2079.035967
 31
0.0
  0
LINE
  5
9E6
100
AcDbEntity
  8
器具明細表
  6
CONTINUOUS
 62
     2
100
AcDbLine
 10
1478.950568
 20
2105.044024
 30
0.0
 11
1480.828654
 21
2095.603913
 31
0.0
  0
LINE
  5
9E7
100
AcDbEntity
  8
器具明細表
  6
CONTINUOUS
 62
     2
100
AcDbLine
 10
1480.622957
 20
2075.007611
 30
0.0
 11
1486.493421
 21
2075.52121
 31
0.0
  0
LINE
  5
9E8
100
AcDbEntity
  8
器具明細表
  6
CONTINUOUS
 62
     2
100
AcDbLine
 10
1483.5
 20
2107.446462
 30
0.0
 11
1486.493421
 21
2075.52121
 31
0.0
  0
ARC
  5
9E9
100
AcDbEntity
  8
器具明細表
  6
CONTINUOUS
 62
     2
100
AcDbCircle
 10
1478.460179
 20
2104.946462
 30
0.0
 40
0.5
100
AcDbArc
 50
11.251933
 51
90.0
  0
LINE
  5
9EA
100
AcDbEntity
  8
器具明細表
  6
CONTINUOUS
 62
     2
100
AcDbLine
 10
1469.898351
 20
2104.946462
 30
0.0
 11
1478.460179
 21
2104.946462
 31
0.0
  0
ARC
  5
9EB
100
AcDbEntity
  8
器具明細表
  6
CONTINUOUS
 62
     2
100
AcDbCircle
 10
1480.249497
 20
2085.013135
 30
0.0
 40
2.0
100
AcDbArc
 50
206.535311
 51
275.0
  0
ARC
  5
9EC
100
AcDbEntity
  8
器具明細表
  6
CONTINUOUS
 62
     2
100
AcDbCircle
 10
1480.249497
 20
2085.013135
 30
0.0
 40
2.0
100
AcDbArc
 50
95.0
 51
153.464689
  0
ARC
  5
9ED
100
AcDbEntity
  8
器具明細表
  6
CONTINUOUS
 62
     2
100
AcDbCircle
 10
1480.448646
 20
2077.0
 30
0.0
 40
2.0
100
AcDbArc
 50
95.0
 51
173.843941
  0
ARC
  5
9EE
100
AcDbEntity
  8
器具明細表
  6
CONTINUOUS
 62
     2
100
AcDbCircle
 10
1480.448646
 20
2077.0
 30
0.0
 40
2.0
100
AcDbArc
 50
186.156059
 51
275.0
  0
LINE
  5
9EF
100
AcDbEntity
  8
器具明細表
  6
CONTINUOUS
 62
     2
100
AcDbLine
 10
1730.0
 20
2075.0
 30
0.0
 11
1735.0
 21
2075.0
 31
0.0
  0
LINE
  5
9F0
100
AcDbEntity
  8
器具明細表
  6
CONTINUOUS
 62
     2
100
AcDbLine
 10
1730.0
 20
2075.0
 30
0.0
 11
1730.0
 21
2107.446462
 31
0.0
  0
LINE
  5
9F1
100
AcDbEntity
  8
器具明細表
  6
EXLTYPE2
 62
     6
100
AcDbLine
 10
1735.0
 20
2104.946462
 30
0.0
 11
1792.0
 21
2104.946462
 31
0.0
  0
LINE
  5
9F2
100
AcDbEntity
  8
器具明細表
  6
EXLTYPE2
 62
     6
100
AcDbLine
 10
1735.0
 20
2104.946462
 30
0.0
 11
1735.0
 21
2065.0
 31
0.0
  0
LINE
  5
9F3
100
AcDbEntity
  8
器具明細表
  6
CONTINUOUS
 62
     2
100
AcDbLine
 10
1851.552639
 20
2079.570032
 30
0.0
 11
1851.291172
 21
2082.558616
 31
0.0
  0
LINE
  5
9F4
100
AcDbEntity
  8
器具明細表
  6
CONTINUOUS
 62
     2
100
AcDbLine
 10
1850.855393
 20
2087.539589
 30
0.0
 11
1850.245303
 21
2094.512952
 31
0.0
  0
ARC
  5
9F5
100
AcDbEntity
  8
器具明細表
  6
CONTINUOUS
 62
     2
100
AcDbCircle
 10
1850.656245
 20
2095.552725
 30
0.0
 40
0.5
100
AcDbArc
 50
275.0
 51
5.0
  0
ARC
  5
9F6
100
AcDbEntity
  8
器具明細表
  6
CONTINUOUS
 62
     2
100
AcDbCircle
 10
1850.743401
 20
2094.55653
 30
0.0
 40
0.5
100
AcDbArc
 50
95.0
 51
185.0
  0
ARC
  5
9F7
100
AcDbEntity
  8
器具明細表
  6
CONTINUOUS
 62
     2
100
AcDbCircle
 10
1850.357296
 20
2087.496012
 30
0.0
 40
0.5
100
AcDbArc
 50
275.0
 51
5.0
  0
ARC
  5
9F8
100
AcDbEntity
  8
器具明細表
  6
CONTINUOUS
 62
     2
100
AcDbCircle
 10
1850.793075
 20
2082.515038
 30
0.0
 40
0.5
100
AcDbArc
 50
5.0
 51
95.0
  0
ARC
  5
9F9
100
AcDbEntity
  8
器具明細表
  6
CONTINUOUS
 62
     2
100
AcDbCircle
 10
1851.054542
 20
2079.526454
 30
0.0
 40
0.5
100
AcDbArc
 50
275.0
 51
5.0
  0
ARC
  5
9FA
100
AcDbEntity
  8
器具明細表
  6
CONTINUOUS
 62
     2
100
AcDbCircle
 10
1850.575185
 20
2085.005525
 30
0.0
 40
2.0
100
AcDbArc
 50
95.0
 51
141.961114
  0
ARC
  5
9FB
100
AcDbEntity
  8
器具明細表
  6
CONTINUOUS
 62
     2
100
AcDbCircle
 10
1850.575185
 20
2085.005525
 30
0.0
 40
2.0
100
AcDbArc
 50
218.038886
 51
275.0
  0
LINE
  5
9FC
100
AcDbEntity
  8
器具明細表
  6
CONTINUOUS
 62
     2
100
AcDbLine
 10
1850.600023
 20
2078.984779
 30
0.0
 11
1851.09812
 21
2079.028357
 31
0.0
  0
ARC
  5
9FD
100
AcDbEntity
  8
器具明細表
  6
CONTINUOUS
 62
     2
100
AcDbCircle
 10
1850.774334
 20
2076.992389
 30
0.0
 40
2.0
100
AcDbArc
 50
95.0
 51
152.519387
  0
ARC
  5
9FE
100
AcDbEntity
  8
器具明細表
  6
CONTINUOUS
 62
     2
100
AcDbCircle
 10
1850.774334
 20
2076.992389
 30
0.0
 40
2.0
100
AcDbArc
 50
207.480613
 51
275.0
  0
LINE
  5
9FF
100
AcDbEntity
  8
器具明細表
  6
CONTINUOUS
 62
     2
100
AcDbLine
 10
1851.148289
 20
2095.641565
 30
0.0
 11
1849.452223
 21
2105.035302
 31
0.0
  0
LINE
  5
A00
100
AcDbEntity
  8
器具明細表
  6
CONTINUOUS
 62
     2
100
AcDbLine
 10
1850.948646
 20
2075.0
 30
0.0
 11
1856.992711
 21
2075.528787
 31
0.0
  0
LINE
  5
A01
100
AcDbEntity
  8
器具明細表
  6
CONTINUOUS
 62
     2
100
AcDbLine
 10
1854.0
 20
2107.446462
 30
0.0
 11
1856.992711
 21
2075.528787
 31
0.0
  0
LINE
  5
A02
100
AcDbEntity
  8
器具明細表
  6
EXLTYPE2
 62
     2
100
AcDbLine
 10
1364.5
 20
2104.946462
 30
0.0
 11
1364.5
 21
2075.0
 31
0.0
  0
LINE
  5
A03
100
AcDbEntity
  8
器具明細表
  6
CONTINUOUS
 62
     2
100
AcDbLine
 10
1364.5
 20
2075.0
 30
0.0
 11
1364.5
 21
2065.0
 31
0.0
  0
LINE
  5
A04
100
AcDbEntity
  8
器具明細表
  6
CONTINUOUS
 62
     2
100
AcDbLine
 10
1364.5
 20
2075.0
 30
0.0
 11
1421.5
 21
2075.0
 31
0.0
  0
LINE
  5
A05
100
AcDbEntity
  8
器具明細表
  6
CONTINUOUS
 62
     2
100
AcDbLine
 10
1735.0
 20
2075.0
 30
0.0
 11
1792.0
 21
2075.0
 31
0.0
  0
LINE
  5
A06
100
AcDbEntity
  8
器具明細表
  6
CONTINUOUS
 62
     6
100
AcDbLine
 10
1735.0
 20
2075.0
 30
0.0
 11
1735.0
 21
2005.2547
 31
0.0
  0
TEXT
  5
A07
100
AcDbEntity
  8
器具明細表
  6
CONTINUOUS
 62
     2
100
AcDbText
 10
1285.0
 20
2693.5
 30
0.0
 40
50.0
  1
ＳＣ８１Ｓ－ＡＴ（ＢＴ）
 41
0.4816
  7
EXCADSTD
 72
     5
 11
1628.999987
 21
2693.5
 31
0.0
100
AcDbText
  0
TEXT
  5
A08
100
AcDbEntity
  8
器具明細表
  6
CONTINUOUS
 62
     2
100
AcDbText
 10
1285.0
 20
2498.5
 30
0.0
 40
50.0
  1
ＮＣ８２２Ｗ
 41
0.644
  7
EXCADSTD
 72
     5
 11
1514.999999
 21
2498.5
 31
0.0
100
AcDbText
  0
TEXT
  5
A09
100
AcDbEntity
  8
器具明細表
  6
CONTINUOUS
 62
     2
100
AcDbText
 10
1285.0
 20
2563.5
 30
0.0
 40
50.0
  1
ＮＣ７１ＶＪ
 41
0.644
  7
EXCADSTD
 72
     5
 11
1514.999999
 21
2563.5
 31
0.0
100
AcDbText
  0
TEXT
  5
A0A
100
AcDbEntity
  8
器具明細表
  6
CONTINUOUS
 62
     2
100
AcDbText
 10
1285.0
 20
2628.5
 30
0.0
 40
50.0
  1
ＳＴＶ１８９ＦＵ－０ＡＥ０Ｄ
 41
0.396
  7
EXCADSTD
 72
     5
 11
1614.999977
 21
2628.5
 31
0.0
100
AcDbText
  0
ENDSEC
  0
SECTION
  2
OBJECTS
  0
DICTIONARY
  5
19
100
AcDbDictionary
  3
ACAD_GROUP
350
1A
  3
ACAD_MLINESTYLE
350
1B
  0
DICTIONARY
  5
1A
102
{ACAD_REACTORS
330
19
102
}
100
AcDbDictionary
  0
DICTIONARY
  5
1B
102
{ACAD_REACTORS
330
19
102
}
100
AcDbDictionary
  3
STANDARD
350
1C
  0
MLINESTYLE
  5
1C
102
{ACAD_REACTORS
330
1B
102
}
100
AcDbMlineStyle
  2
Standard
 70
     0
  3

 62
     0
 51
90.0
 52
90.0
 71
     2
 49
0.5
 62
   256
  6
ByLayer
 49
-0.5
 62
   256
  6
ByLayer
  0
ENDSEC
  0
EOF
