  0
SECTION
  2
HEADER
  9
$ACADVER
  1
AC1014
  9
$ACADMAINTVER
 70
     0
  9
$DWGCODEPAGE
  3
ANSI_932
  9
$INSBASE
 10
0.0
 20
0.0
 30
0.0
  9
$EXTMIN
 10
0.0
 20
11.5
 30
0.0
  9
$EXTMAX
 10
200.0
 20
291.5
 30
0.0
  9
$LIMMIN
 10
0.0
 20
0.0
  9
$LIMMAX
 10
210.0
 20
297.0
  9
$ORTHOMODE
 70
     0
  9
$REGENMODE
 70
     1
  9
$FILLMODE
 70
     1
  9
$QTEXTMODE
 70
     0
  9
$MIRRTEXT
 70
     1
  9
$DRAGMODE
 70
     2
  9
$LTSCALE
 40
1.0
  9
$OSMODE
 70
     0
  9
$ATTMODE
 70
     1
  9
$TEXTSIZE
 40
0.2
  9
$TRACEWID
 40
0.05
  9
$TEXTSTYLE
  7
STANDARD
  9
$CLAYER
  8
便器
  9
$CELTYPE
  6
CONTINUOUS
  9
$CECOLOR
 62
   256
  9
$CELTSCALE
 40
1.0
  9
$DELOBJ
 70
     1
  9
$DISPSILH
 70
     0
  9
$DIMSCALE
 40
1.0
  9
$DIMASZ
 40
0.18
  9
$DIMEXO
 40
0.0625
  9
$DIMDLI
 40
0.38
  9
$DIMRND
 40
0.0
  9
$DIMDLE
 40
0.0
  9
$DIMEXE
 40
0.18
  9
$DIMTP
 40
0.0
  9
$DIMTM
 40
0.0
  9
$DIMTXT
 40
0.18
  9
$DIMCEN
 40
0.09
  9
$DIMTSZ
 40
0.0
  9
$DIMTOL
 70
     0
  9
$DIMLIM
 70
     0
  9
$DIMTIH
 70
     1
  9
$DIMTOH
 70
     1
  9
$DIMSE1
 70
     0
  9
$DIMSE2
 70
     0
  9
$DIMTAD
 70
     0
  9
$DIMZIN
 70
     0
  9
$DIMBLK
  1

  9
$DIMASO
 70
     1
  9
$DIMSHO
 70
     1
  9
$DIMPOST
  1

  9
$DIMAPOST
  1

  9
$DIMALT
 70
     0
  9
$DIMALTD
 70
     2
  9
$DIMALTF
 40
25.4
  9
$DIMLFAC
 40
1.0
  9
$DIMTOFL
 70
     0
  9
$DIMTVP
 40
0.0
  9
$DIMTIX
 70
     0
  9
$DIMSOXD
 70
     0
  9
$DIMSAH
 70
     0
  9
$DIMBLK1
  1

  9
$DIMBLK2
  1

  9
$DIMSTYLE
  2
STANDARD
  9
$DIMCLRD
 70
     0
  9
$DIMCLRE
 70
     0
  9
$DIMCLRT
 70
     0
  9
$DIMTFAC
 40
1.0
  9
$DIMGAP
 40
0.09
  9
$DIMJUST
 70
     0
  9
$DIMSD1
 70
     0
  9
$DIMSD2
 70
     0
  9
$DIMTOLJ
 70
     1
  9
$DIMTZIN
 70
     0
  9
$DIMALTZ
 70
     0
  9
$DIMALTTZ
 70
     0
  9
$DIMFIT
 70
     3
  9
$DIMUPT
 70
     0
  9
$DIMUNIT
 70
     2
  9
$DIMDEC
 70
     4
  9
$DIMTDEC
 70
     4
  9
$DIMALTU
 70
     2
  9
$DIMALTTD
 70
     2
  9
$DIMTXSTY
  7
STANDARD
  9
$DIMAUNIT
 70
     0
  9
$LUNITS
 70
     2
  9
$LUPREC
 70
     4
  9
$SKETCHINC
 40
0.1
  9
$FILLETRAD
 40
0.0
  9
$AUNITS
 70
     0
  9
$AUPREC
 70
     0
  9
$MENU
  1
acad
  9
$ELEVATION
 40
0.0
  9
$PELEVATION
 40
0.0
  9
$THICKNESS
 40
0.0
  9
$LIMCHECK
 70
     0
  9
$BLIPMODE
 70
     1
  9
$CHAMFERA
 40
0.0
  9
$CHAMFERB
 40
0.0
  9
$CHAMFERC
 40
0.0
  9
$CHAMFERD
 40
0.0
  9
$SKPOLY
 70
     0
  9
$TDCREATE
 40
2454682.361922986
  9
$TDUPDATE
 40
2454682.361922986
  9
$TDINDWG
 40
0.0000000000
  9
$TDUSRTIMER
 40
0.0000000000
  9
$USRTIMER
 70
     1
  9
$ANGBASE
 50
0.0
  9
$ANGDIR
 70
     0
  9
$PDMODE
 70
     0
  9
$PDSIZE
 40
0.0
  9
$PLINEWID
 40
0.0
  9
$COORDS
 70
     1
  9
$SPLFRAME
 70
     0
  9
$SPLINETYPE
 70
     6
  9
$SPLINESEGS
 70
     8
  9
$ATTDIA
 70
     0
  9
$ATTREQ
 70
     1
  9
$HANDLING
 70
     1
  9
$HANDSEED
  5
9FF
  9
$SURFTAB1
 70
     6
  9
$SURFTAB2
 70
     6
  9
$SURFTYPE
 70
     6
  9
$SURFU
 70
     6
  9
$SURFV
 70
     6
  9
$UCSNAME
  2

  9
$UCSORG
 10
0.0
 20
0.0
 30
0.0
  9
$UCSXDIR
 10
1.0
 20
0.0
 30
0.0
  9
$UCSYDIR
 10
0.0
 20
1.0
 30
0.0
  9
$PUCSNAME
  2

  9
$PUCSORG
 10
0.0
 20
0.0
 30
0.0
  9
$PUCSXDIR
 10
1.0
 20
0.0
 30
0.0
  9
$PUCSYDIR
 10
0.0
 20
1.0
 30
0.0
  9
$USERI1
 70
     0
  9
$USERI2
 70
     0
  9
$USERI3
 70
     0
  9
$USERI4
 70
     0
  9
$USERI5
 70
     0
  9
$USERR1
 40
0.0
  9
$USERR2
 40
0.0
  9
$USERR3
 40
0.0
  9
$USERR4
 40
0.0
  9
$USERR5
 40
0.0
  9
$WORLDVIEW
 70
     1
  9
$SHADEDGE
 70
     3
  9
$SHADEDIF
 70
    70
  9
$TILEMODE
 70
     1
  9
$MAXACTVP
 70
    16
  9
$PINSBASE
 10
0.0
 20
0.0
 30
0.0
  9
$PLIMCHECK
 70
     0
  9
$PEXTMIN
 10
1.000000E+20
 20
1.000000E+20
 30
1.000000E+20
  9
$PEXTMAX
 10
-1.000000E+20
 20
-1.000000E+20
 30
-1.000000E+20
  9
$PLIMMIN
 10
0.0
 20
0.0
  9
$PLIMMAX
 10
12.0
 20
9.0
  9
$UNITMODE
 70
     0
  9
$VISRETAIN
 70
     0
  9
$PLINEGEN
 70
     1
  9
$PSLTSCALE
 70
     0
  9
$TREEDEPTH
 70
  3020
  9
$PICKSTYLE
 70
     1
  9
$CMLSTYLE
  2
Standard
  9
$CMLJUST
 70
     0
  9
$CMLSCALE
 40
1.0
  9
$PROXYGRAPHICS
 70
     0
  9
$MEASUREMENT
 70
     0
  0
ENDSEC
  0
SECTION
  2
CLASSES
  0
CLASS
  1
LWPOLYLINE
  2
AcDbPolyline
  3
"AutoCAD"
 90
        0
280
     0
281
     1
  0
CLASS
  1
IMAGE
  2
AcDbRasterImage
  3
ISM
 90
      127
280
     0
281
     1
  0
CLASS
  1
OLE2FRAME
  2
AcDbOle2Frame
  3
""
 90
        0
280
     0
281
     1
  0
CLASS
  1
HATCH
  2
AcDbHatch
  3
"ACAD_SEDONA"
 90
        0
280
     0
281
     1
  0
CLASS
  1
DICTIONARYVAR
  2
AcDbDictionaryVar
  3
"AutoCAD"
 90
        0
280
     0
281
     0
  0
CLASS
  1
RASTERVARIABLES
  2
AcDbRasterVariables
  3
ISM
 90
        0
280
     0
281
     0
  0
CLASS
  1
IMAGEDEF
  2
AcDbRasterImageDef
  3
ISM
 90
        0
280
     0
281
     0
  0
CLASS
  1
IMAGEDEF_REACTOR
  2
AcDbRasterImageDefReactor
  3
ISM
 90
        1
280
     0
281
     0
  0
CLASS
  1
IDBUFFER
  2
AcDbIdBuffer
  3
"Acad"
 90
        0
280
     0
281
     0
  0
CLASS
  1
SPATIAL_FILTER
  2
AcDbSpatialFilter
  3
"Acad"
 90
        0
280
     0
281
     0
  0
CLASS
  1
XRECORD
  2
AcDbXrecord
  3
"<Built In>"
 90
        0
280
     0
281
     0
  0
CLASS
  1
SORTENTSTABLE
  2
AcDbSortentsTable
  3
"AutoCAD"
 90
        0
280
     0
281
     0
  0
CLASS
  1
LAYER_INDEX
  2
AcDbLayerIndex
  3
"Acad"
 90
        0
280
     0
281
     0
  0
CLASS
  1
SPATIAL_INDEX
  2
AcDbSpatialIndex
  3
"Acad"
 90
        0
280
     0
281
     0
  0
CLASS
  1
OBJECT_PTR
  2
CAseDLPNTableRecord
  3
"ASE-LPNTableRecord"
 90
        1
280
     0
281
     0
  0
CLASS
  1
LAYOUT
  2
AcDbLayout
  3
"AutoCAD 2000"
 90
        1
280
     0
281
     0
  0
CLASS
  1
PLOTSETTINGS
  2
AcDbPlotSettings
  3
"AutoCAD 2000"
 90
        1
280
     0
281
     0
  0
CLASS
  1
ACDBDICTIONARYWDFLT
  2
AcDbDictionaryWithDefault
  3
"AutoCAD 2000"
 90
        1
280
     0
281
     0
  0
CLASS
  1
ACDBPLACEHOLDER
  2
AcDbPlaceHolder
  3
"AutoCAD 2000"
 90
        1
280
     0
281
     0
  0
CLASS
  1
VBA_PROJECT
  2
AcDbVbaProject
  3
"acadvba"
 90
        1
280
     0
281
     0
  0
CLASS
  1
WIPEOUT
  2
AcDbWipeout
  3
WipeOut|AutoCAD Express Tool|expresstools@autodesk.com
 90
      127
280
     0
281
     1
  0
CLASS
  1
WIPEOUTVARIABLES
  2
AcDbWipeoutVariables
  3
WipeOut|AutoCAD Express Tool|expresstools@autodesk.com
 90
        0
280
     0
281
     0
  0
CLASS
  1
RTEXT
  2
RText
  3
RText|AutoCAD Express Tool|expresstools@autodesk.com
 90
        0
280
     0
281
     1
  0
CLASS
  1
ARCALIGNEDTEXT
  2
AcDbArcAlignedText
  3
ATEXT|AutoCAD Express Tool|expresstools@autodesk.com
 90
        0
280
     0
281
     1
  0
ENDSEC
  0
SECTION
  2
TABLES
  0
TABLE
  2
VPORT
  5
7
100
AcDbSymbolTable
 70
     1
  0
VPORT
  5
15
100
AcDbSymbolTableRecord
100
AcDbViewportTableRecord
  2
*ACTIVE
 70
     0
 10
0.0
 20
0.0
 11
1.0
 21
1.0
 12
1000.0
 22
1515.0
 13
0.0
 23
0.0
 14
1.0
 24
1.0
 15
0.0
 25
0.0
 16
0.0
 26
0.0
 36
1.0
 17
0.0
 27
0.0
 37
0.0
 40
2800.0
 41
1.722533
 42
50.0
 43
0.0
 44
0.0
 50
0.0
 51
0.0
 71
     0
 72
   100
 73
     1
 74
     1
 75
     0
 76
     0
 77
     0
 78
     0
  0
ENDTAB
  0
TABLE
  2
LTYPE
  5
4
100
AcDbSymbolTable
 70
     9
  0
LTYPE
  5
11
100
AcDbSymbolTableRecord
100
AcDbLinetypeTableRecord
  2
BYBLOCK
 70
    64
  3

 72
    65
 73
     0
 40
0.0
  0
LTYPE
  5
12
100
AcDbSymbolTableRecord
100
AcDbLinetypeTableRecord
  2
BYLAYER
 70
    64
  3

 72
    65
 73
     0
 40
0.0
  0
LTYPE
  5
13
100
AcDbSymbolTableRecord
100
AcDbLinetypeTableRecord
  2
CONTINUOUS
 70
    64
  3
実線
 72
    65
 73
     0
 40
0.0
  0
LTYPE
  5
1D
100
AcDbSymbolTableRecord
100
AcDbLinetypeTableRecord
  2
EXLTYPE1
 70
    64
  3
破線
 72
    65
 73
     2
 40
3.0
 49
2.0
 74
     0
 49
-1.0
 74
     0
  0
LTYPE
  5
1E
100
AcDbSymbolTableRecord
100
AcDbLinetypeTableRecord
  2
EXLTYPE2
 70
    64
  3
点線
 72
    65
 73
     2
 40
2.0
 49
1.0
 74
     0
 49
-1.0
 74
     0
  0
LTYPE
  5
1F
100
AcDbSymbolTableRecord
100
AcDbLinetypeTableRecord
  2
EXLTYPE3
 70
    64
  3
一点鎖線
 72
    65
 73
     4
 40
10.0
 49
7.0
 74
     0
 49
-1.0
 74
     0
 49
1.0
 74
     0
 49
-1.0
 74
     0
  0
LTYPE
  5
20
100
AcDbSymbolTableRecord
100
AcDbLinetypeTableRecord
  2
EXLTYPE4
 70
    64
  3
二点鎖線
 72
    65
 73
     6
 40
12.0
 49
7.0
 74
     0
 49
-1.0
 74
     0
 49
1.0
 74
     0
 49
-1.0
 74
     0
 49
1.0
 74
     0
 49
-1.0
 74
     0
  0
LTYPE
  5
21
100
AcDbSymbolTableRecord
100
AcDbLinetypeTableRecord
  2
EXLTYPE5
 70
    64
  3
三点鎖線
 72
    65
 73
     8
 40
37.0
 49
30.0
 74
     0
 49
-1.0
 74
     0
 49
1.0
 74
     0
 49
-1.0
 74
     0
 49
1.0
 74
     0
 49
-1.0
 74
     0
 49
1.0
 74
     0
 49
-1.0
 74
     0
  0
LTYPE
  5
22
100
AcDbSymbolTableRecord
100
AcDbLinetypeTableRecord
  2
EXLTYPE6
 70
    64
  3
四点鎖線
 72
    65
 73
    10
 40
39.0
 49
30.0
 74
     0
 49
-1.0
 74
     0
 49
1.0
 74
     0
 49
-1.0
 74
     0
 49
1.0
 74
     0
 49
-1.0
 74
     0
 49
1.0
 74
     0
 49
-1.0
 74
     0
 49
1.0
 74
     0
 49
-1.0
 74
     0
  0
ENDTAB
  0
TABLE
  2
LAYER
  5
2
100
AcDbSymbolTable
 70
     9
  0
LAYER
  5
14
100
AcDbSymbolTableRecord
100
AcDbLayerTableRecord
  2
0
 70
     0
 62
     7
  6
CONTINUOUS
  0
LAYER
  5
25
100
AcDbSymbolTableRecord
100
AcDbLayerTableRecord
  2
枠
 70
    64
 62
     7
  6
CONTINUOUS
  0
LAYER
  5
26
100
AcDbSymbolTableRecord
100
AcDbLayerTableRecord
  2
便器
 70
    64
 62
     7
  6
CONTINUOUS
  0
LAYER
  5
27
100
AcDbSymbolTableRecord
100
AcDbLayerTableRecord
  2
ﾀﾝｸ
 70
    64
 62
     7
  6
CONTINUOUS
  0
LAYER
  5
28
100
AcDbSymbolTableRecord
100
AcDbLayerTableRecord
  2
止水栓
 70
    64
 62
     7
  6
CONTINUOUS
  0
LAYER
  5
29
100
AcDbSymbolTableRecord
100
AcDbLayerTableRecord
  2
便座
 70
    64
 62
     7
  6
CONTINUOUS
  0
LAYER
  5
2A
100
AcDbSymbolTableRecord
100
AcDbLayerTableRecord
  2
紙巻器
 70
    64
 62
     7
  6
CONTINUOUS
  0
LAYER
  5
2B
100
AcDbSymbolTableRecord
100
AcDbLayerTableRecord
  2
寸法
 70
    64
 62
     7
  6
CONTINUOUS
  0
LAYER
  5
2C
100
AcDbSymbolTableRecord
100
AcDbLayerTableRecord
  2
器具明細表
 70
    64
 62
     7
  6
CONTINUOUS
  0
ENDTAB
  0
TABLE
  2
STYLE
  5
3
100
AcDbSymbolTable
 70
     6
  0
STYLE
  5
17
100
AcDbSymbolTableRecord
100
AcDbTextStyleTableRecord
  2
STANDARD
 70
     0
 40
0.0
 41
1.0
 50
0.0
 71
     0
 42
0.0
  3
monotxt
  4
extfont
  0
STYLE
  5
23
100
AcDbSymbolTableRecord
100
AcDbTextStyleTableRecord
  2
EXCADSTD
 70
    64
 40
0.0
 41
1.0
 50
0.0
 71
     0
 42
0.2
  3
monotxt
  4
extfont
  0
STYLE
  5
24
100
AcDbSymbolTableRecord
100
AcDbTextStyleTableRecord
  2
EXCADVERT
 70
    68
 40
0.0
 41
1.0
 50
0.0
 71
     0
 42
0.286885
  3
monotxt
  4
extfont
  0
STYLE
  5
BF
100
AcDbSymbolTableRecord
100
AcDbTextStyleTableRecord
  2
EXCADTTF1
 70
    64
 40
0.0
 41
1.0
 50
0.0
 71
     0
 42
0.2
  3
MS Gothic.ttf
  4

1001
ACAD
1000
MS Gothic
1071
    32817
  0
STYLE
  5
E7
100
AcDbSymbolTableRecord
100
AcDbTextStyleTableRecord
  2
EXCADDIM1
 70
    64
 40
0.0
 41
0.84
 50
0.0
 71
     0
 42
0.2
  3
monotxt
  4
extfont
  0
STYLE
  5
FC
100
AcDbSymbolTableRecord
100
AcDbTextStyleTableRecord
  2
EXCADDIM2
 70
    64
 40
0.0
 41
0.95
 50
0.0
 71
     0
 42
0.2
  3
monotxt
  4
extfont
  0
ENDTAB
  0
TABLE
  2
VIEW
  5
5
100
AcDbSymbolTable
 70
     0
  0
ENDTAB
  0
TABLE
  2
UCS
  5
6
100
AcDbSymbolTable
 70
     0
  0
ENDTAB
  0
TABLE
  2
APPID
  5
8
100
AcDbSymbolTable
 70
     1
  0
APPID
  5
16
100
AcDbSymbolTableRecord
100
AcDbRegAppTableRecord
  2
ACAD
 70
     0
  0
ENDTAB
  0
TABLE
  2
DIMSTYLE
  5
9
100
AcDbSymbolTable
 70
     1
  0
DIMSTYLE
105
18
100
AcDbSymbolTableRecord
100
AcDbDimStyleTableRecord
  2
STANDARD
 70
     0
  3

  4

  5

  6

  7

 40
1.0
 41
0.18
 42
0.0625
 43
0.38
 44
0.18
 45
0.0
 46
0.0
 47
0.0
 48
0.0
 71
     0
 72
     0
 73
     1
 74
     1
 75
     0
 76
     0
 77
     0
 78
     0
140
0.18
141
0.09
142
0.0
143
25.4
144
1.0
145
0.0
146
1.0
147
0.09
170
     0
171
     2
172
     1
173
     0
174
     0
175
     0
176
     0
177
     0
178
     0
270
     2
271
     4
272
     4
273
     2
274
     2
275
     0
280
     0
281
     0
282
     0
283
     1
284
     0
285
     0
286
     0
287
     0
288
     0
340
17
  0
ENDTAB
  0
TABLE
  2
BLOCK_RECORD
  5
1
100
AcDbSymbolTable
 70
    27
  0
BLOCK_RECORD
  5
A
100
AcDbSymbolTableRecord
100
AcDbBlockTableRecord
  2
*MODEL_SPACE
  0
BLOCK_RECORD
  5
B
100
AcDbSymbolTableRecord
100
AcDbBlockTableRecord
  2
*PAPER_SPACE
  0
BLOCK_RECORD
  5
2D
100
AcDbSymbolTableRecord
100
AcDbBlockTableRecord
  2
_EX_NORM
  0
BLOCK_RECORD
  5
2E
100
AcDbSymbolTableRecord
100
AcDbBlockTableRecord
  2
_EX_BNORM
  0
BLOCK_RECORD
  5
2F
100
AcDbSymbolTableRecord
100
AcDbBlockTableRecord
  2
_EX_BCIR
  0
BLOCK_RECORD
  5
30
100
AcDbSymbolTableRecord
100
AcDbBlockTableRecord
  2
_EX_RCIVIL
  0
BLOCK_RECORD
  5
31
100
AcDbSymbolTableRecord
100
AcDbBlockTableRecord
  2
_EX_SLANT
  0
BLOCK_RECORD
  5
32
100
AcDbSymbolTableRecord
100
AcDbBlockTableRecord
  2
_EX_NONE
  0
BLOCK_RECORD
  5
33
100
AcDbSymbolTableRecord
100
AcDbBlockTableRecord
  2
_EX_CIVIL
  0
BLOCK_RECORD
  5
34
100
AcDbSymbolTableRecord
100
AcDbBlockTableRecord
  2
_EX_WCIR
  0
BLOCK_RECORD
  5
35
100
AcDbSymbolTableRecord
100
AcDbBlockTableRecord
  2
_EX_WCIR2
  0
BLOCK_RECORD
  5
36
100
AcDbSymbolTableRecord
100
AcDbBlockTableRecord
  2
_EX_WNORM
  0
BLOCK_RECORD
  5
37
100
AcDbSymbolTableRecord
100
AcDbBlockTableRecord
  2
_EX_NNORM
  0
BLOCK_RECORD
  5
38
100
AcDbSymbolTableRecord
100
AcDbBlockTableRecord
  2
_EX_BBOX
  0
BLOCK_RECORD
  5
39
100
AcDbSymbolTableRecord
100
AcDbBlockTableRecord
  2
_EX_WBOX
  0
BLOCK_RECORD
  5
3A
100
AcDbSymbolTableRecord
100
AcDbBlockTableRecord
  2
_EX_INTEGRAL
  0
BLOCK_RECORD
  5
DC
100
AcDbSymbolTableRecord
100
AcDbBlockTableRecord
  2
*D14
  0
BLOCK_RECORD
  5
E9
100
AcDbSymbolTableRecord
100
AcDbBlockTableRecord
  2
*D15
  0
BLOCK_RECORD
  5
F4
100
AcDbSymbolTableRecord
100
AcDbBlockTableRecord
  2
*D16
  0
BLOCK_RECORD
  5
FE
100
AcDbSymbolTableRecord
100
AcDbBlockTableRecord
  2
*D17
  0
BLOCK_RECORD
  5
10A
100
AcDbSymbolTableRecord
100
AcDbBlockTableRecord
  2
*D18
  0
BLOCK_RECORD
  5
21C
100
AcDbSymbolTableRecord
100
AcDbBlockTableRecord
  2
*D19
  0
BLOCK_RECORD
  5
228
100
AcDbSymbolTableRecord
100
AcDbBlockTableRecord
  2
*D20
  0
BLOCK_RECORD
  5
9A0
100
AcDbSymbolTableRecord
100
AcDbBlockTableRecord
  2
*D21
  0
BLOCK_RECORD
  5
9AD
100
AcDbSymbolTableRecord
100
AcDbBlockTableRecord
  2
*D22
  0
BLOCK_RECORD
  5
9B8
100
AcDbSymbolTableRecord
100
AcDbBlockTableRecord
  2
*D23
  0
BLOCK_RECORD
  5
9C3
100
AcDbSymbolTableRecord
100
AcDbBlockTableRecord
  2
*D24
  0
BLOCK_RECORD
  5
9CF
100
AcDbSymbolTableRecord
100
AcDbBlockTableRecord
  2
*D25
  0
BLOCK_RECORD
  5
9DA
100
AcDbSymbolTableRecord
100
AcDbBlockTableRecord
  2
*D26
  0
ENDTAB
  0
ENDSEC
  0
SECTION
  2
BLOCKS
  0
BLOCK
  5
D
100
AcDbEntity
  8
0
100
AcDbBlockBegin
  2
*MODEL_SPACE
 70
     0
 10
0.0
 20
0.0
 30
0.0
  3
*MODEL_SPACE
  1

  0
ENDBLK
  5
E
100
AcDbEntity
  8
0
100
AcDbBlockEnd
  0
BLOCK
  5
F
100
AcDbEntity
 67
     1
  8
0
100
AcDbBlockBegin
  2
*PAPER_SPACE
 70
     0
 10
0.0
 20
0.0
 30
0.0
  3
*PAPER_SPACE
  1

  0
ENDBLK
  5
10
100
AcDbEntity
 67
     1
  8
0
100
AcDbBlockEnd
  0
BLOCK
  5
3B
100
AcDbEntity
  8
0
100
AcDbBlockBegin
  2
_EX_NORM
 70
     0
 10
0.0
 20
0.0
 30
0.0
  3
_EX_NORM
  1

  0
LINE
  5
3C
100
AcDbEntity
  8
0
  6
CONTINUOUS
 62
     0
100
AcDbLine
 10
0.0
 20
0.0
 30
0.0
 11
-1.0
 21
0.0
 31
0.0
  0
LINE
  5
3D
100
AcDbEntity
  8
0
  6
CONTINUOUS
 62
     0
100
AcDbLine
 10
0.0
 20
0.0
 30
0.0
 11
-1.0
 21
0.166667
 31
0.0
  0
LINE
  5
3E
100
AcDbEntity
  8
0
  6
CONTINUOUS
 62
     0
100
AcDbLine
 10
0.0
 20
0.0
 30
0.0
 11
-1.0
 21
-0.166667
 31
0.0
  0
ENDBLK
  5
3F
100
AcDbEntity
  8
0
100
AcDbBlockEnd
  0
BLOCK
  5
40
100
AcDbEntity
  8
0
100
AcDbBlockBegin
  2
_EX_BNORM
 70
     0
 10
0.0
 20
0.0
 30
0.0
  3
_EX_BNORM
  1

  0
LINE
  5
41
100
AcDbEntity
  8
0
  6
CONTINUOUS
 62
     0
100
AcDbLine
 10
0.0
 20
0.0
 30
0.0
 11
-1.0
 21
0.0
 31
0.0
  0
LINE
  5
42
100
AcDbEntity
  8
0
  6
CONTINUOUS
 62
     0
100
AcDbLine
 10
0.0
 20
0.0
 30
0.0
 11
-1.0
 21
0.166667
 31
0.0
  0
LINE
  5
43
100
AcDbEntity
  8
0
  6
CONTINUOUS
 62
     0
100
AcDbLine
 10
0.0
 20
0.0
 30
0.0
 11
-1.0
 21
-0.166667
 31
0.0
  0
LINE
  5
44
100
AcDbEntity
  8
0
  6
CONTINUOUS
 62
     0
100
AcDbLine
 10
0.0
 20
0.0
 30
0.0
 11
-1.0
 21
0.083333
 31
0.0
  0
LINE
  5
45
100
AcDbEntity
  8
0
  6
CONTINUOUS
 62
     0
100
AcDbLine
 10
0.0
 20
0.0
 30
0.0
 11
-1.0
 21
-0.083333
 31
0.0
  0
LINE
  5
46
100
AcDbEntity
  8
0
  6
CONTINUOUS
 62
     0
100
AcDbLine
 10
-1.0
 20
0.166667
 30
0.0
 11
-1.0
 21
-0.166667
 31
0.0
  0
ENDBLK
  5
47
100
AcDbEntity
  8
0
100
AcDbBlockEnd
  0
BLOCK
  5
48
100
AcDbEntity
  8
0
100
AcDbBlockBegin
  2
_EX_BCIR
 70
     0
 10
0.0
 20
0.0
 30
0.0
  3
_EX_BCIR
  1

  0
LINE
  5
49
100
AcDbEntity
  8
0
  6
CONTINUOUS
 62
     0
100
AcDbLine
 10
0.0
 20
0.0
 30
0.0
 11
-1.0
 21
0.0
 31
0.0
  0
CIRCLE
  5
4A
100
AcDbEntity
  8
0
  6
CONTINUOUS
 62
     0
100
AcDbCircle
 10
0.0
 20
0.0
 30
0.0
 40
0.5
  0
CIRCLE
  5
4B
100
AcDbEntity
  8
0
  6
CONTINUOUS
 62
     0
100
AcDbCircle
 10
0.0
 20
0.0
 30
0.0
 40
0.25
  0
ENDBLK
  5
4C
100
AcDbEntity
  8
0
100
AcDbBlockEnd
  0
BLOCK
  5
4D
100
AcDbEntity
  8
0
100
AcDbBlockBegin
  2
_EX_RCIVIL
 70
     0
 10
0.0
 20
0.0
 30
0.0
  3
_EX_RCIVIL
  1

  0
LINE
  5
4E
100
AcDbEntity
  8
0
  6
CONTINUOUS
 62
     0
100
AcDbLine
 10
0.0
 20
0.0
 30
0.0
 11
-1.0
 21
0.0
 31
0.0
  0
LINE
  5
4F
100
AcDbEntity
  8
0
  6
CONTINUOUS
 62
     0
100
AcDbLine
 10
-1.0
 20
-0.25
 30
0.0
 11
0.0
 21
-0.25
 31
0.0
  0
LINE
  5
50
100
AcDbEntity
  8
0
  6
CONTINUOUS
 62
     0
100
AcDbLine
 10
-1.0
 20
-0.125
 30
0.0
 11
0.0
 21
-0.125
 31
0.0
  0
ENDBLK
  5
51
100
AcDbEntity
  8
0
100
AcDbBlockEnd
  0
BLOCK
  5
52
100
AcDbEntity
  8
0
100
AcDbBlockBegin
  2
_EX_SLANT
 70
     0
 10
0.0
 20
0.0
 30
0.0
  3
_EX_SLANT
  1

  0
LINE
  5
53
100
AcDbEntity
  8
0
  6
CONTINUOUS
 62
     0
100
AcDbLine
 10
0.0
 20
0.0
 30
0.0
 11
-1.0
 21
0.0
 31
0.0
  0
LINE
  5
54
100
AcDbEntity
  8
0
  6
CONTINUOUS
 62
     0
100
AcDbLine
 10
0.707107
 20
0.707107
 30
0.0
 11
-0.707107
 21
-0.707107
 31
0.0
  0
ENDBLK
  5
55
100
AcDbEntity
  8
0
100
AcDbBlockEnd
  0
BLOCK
  5
56
100
AcDbEntity
  8
0
100
AcDbBlockBegin
  2
_EX_NONE
 70
     0
 10
0.0
 20
0.0
 30
0.0
  3
_EX_NONE
  1

  0
LINE
  5
57
100
AcDbEntity
  8
0
  6
CONTINUOUS
 62
     0
100
AcDbLine
 10
0.0
 20
0.0
 30
0.0
 11
-1.0
 21
0.0
 31
0.0
  0
ENDBLK
  5
58
100
AcDbEntity
  8
0
100
AcDbBlockEnd
  0
BLOCK
  5
59
100
AcDbEntity
  8
0
100
AcDbBlockBegin
  2
_EX_CIVIL
 70
     0
 10
0.0
 20
0.0
 30
0.0
  3
_EX_CIVIL
  1

  0
LINE
  5
5A
100
AcDbEntity
  8
0
  6
CONTINUOUS
 62
     0
100
AcDbLine
 10
0.0
 20
0.0
 30
0.0
 11
-1.0
 21
0.0
 31
0.0
  0
LINE
  5
5B
100
AcDbEntity
  8
0
  6
CONTINUOUS
 62
     0
100
AcDbLine
 10
-1.0
 20
0.25
 30
0.0
 11
0.0
 21
0.25
 31
0.0
  0
LINE
  5
5C
100
AcDbEntity
  8
0
  6
CONTINUOUS
 62
     0
100
AcDbLine
 10
-1.0
 20
0.125
 30
0.0
 11
0.0
 21
0.125
 31
0.0
  0
ENDBLK
  5
5D
100
AcDbEntity
  8
0
100
AcDbBlockEnd
  0
BLOCK
  5
5E
100
AcDbEntity
  8
0
100
AcDbBlockBegin
  2
_EX_WCIR
 70
     0
 10
0.0
 20
0.0
 30
0.0
  3
_EX_WCIR
  1

  0
LINE
  5
5F
100
AcDbEntity
  8
0
  6
CONTINUOUS
 62
     0
100
AcDbLine
 10
0.0
 20
0.0
 30
0.0
 11
-1.0
 21
0.0
 31
0.0
  0
CIRCLE
  5
60
100
AcDbEntity
  8
0
  6
CONTINUOUS
 62
     0
100
AcDbCircle
 10
0.0
 20
0.0
 30
0.0
 40
0.5
  0
ENDBLK
  5
61
100
AcDbEntity
  8
0
100
AcDbBlockEnd
  0
BLOCK
  5
62
100
AcDbEntity
  8
0
100
AcDbBlockBegin
  2
_EX_WCIR2
 70
     0
 10
0.0
 20
0.0
 30
0.0
  3
_EX_WCIR2
  1

  0
LINE
  5
63
100
AcDbEntity
  8
0
  6
CONTINUOUS
 62
     0
100
AcDbLine
 10
-0.5
 20
0.0
 30
0.0
 11
-1.0
 21
0.0
 31
0.0
  0
CIRCLE
  5
64
100
AcDbEntity
  8
0
  6
CONTINUOUS
 62
     0
100
AcDbCircle
 10
0.0
 20
0.0
 30
0.0
 40
0.5
  0
ENDBLK
  5
65
100
AcDbEntity
  8
0
100
AcDbBlockEnd
  0
BLOCK
  5
66
100
AcDbEntity
  8
0
100
AcDbBlockBegin
  2
_EX_WNORM
 70
     0
 10
0.0
 20
0.0
 30
0.0
  3
_EX_WNORM
  1

  0
LINE
  5
67
100
AcDbEntity
  8
0
  6
CONTINUOUS
 62
     0
100
AcDbLine
 10
-1.0
 20
0.0
 30
0.0
 11
-1.0
 21
0.0
 31
0.0
  0
LINE
  5
68
100
AcDbEntity
  8
0
  6
CONTINUOUS
 62
     0
100
AcDbLine
 10
0.0
 20
0.0
 30
0.0
 11
-1.0
 21
0.166667
 31
0.0
  0
LINE
  5
69
100
AcDbEntity
  8
0
  6
CONTINUOUS
 62
     0
100
AcDbLine
 10
0.0
 20
0.0
 30
0.0
 11
-1.0
 21
-0.166667
 31
0.0
  0
LINE
  5
6A
100
AcDbEntity
  8
0
  6
CONTINUOUS
 62
     0
100
AcDbLine
 10
-1.0
 20
0.166667
 30
0.0
 11
-1.0
 21
-0.166667
 31
0.0
  0
ENDBLK
  5
6B
100
AcDbEntity
  8
0
100
AcDbBlockEnd
  0
BLOCK
  5
6C
100
AcDbEntity
  8
0
100
AcDbBlockBegin
  2
_EX_NNORM
 70
     0
 10
0.0
 20
0.0
 30
0.0
  3
_EX_NNORM
  1

  0
LINE
  5
6D
100
AcDbEntity
  8
0
  6
CONTINUOUS
 62
     0
100
AcDbLine
 10
0.0
 20
0.0
 30
0.0
 11
-1.0
 21
0.0
 31
0.0
  0
LINE
  5
6E
100
AcDbEntity
  8
0
  6
CONTINUOUS
 62
     0
100
AcDbLine
 10
0.0
 20
0.0
 30
0.0
 11
-1.0
 21
0.166667
 31
0.0
  0
LINE
  5
6F
100
AcDbEntity
  8
0
  6
CONTINUOUS
 62
     0
100
AcDbLine
 10
0.0
 20
0.0
 30
0.0
 11
-1.0
 21
-0.166667
 31
0.0
  0
LINE
  5
70
100
AcDbEntity
  8
0
  6
CONTINUOUS
 62
     0
100
AcDbLine
 10
-1.0
 20
0.166667
 30
0.0
 11
-1.0
 21
-0.166667
 31
0.0
  0
ENDBLK
  5
71
100
AcDbEntity
  8
0
100
AcDbBlockEnd
  0
BLOCK
  5
72
100
AcDbEntity
  8
0
100
AcDbBlockBegin
  2
_EX_BBOX
 70
     0
 10
0.0
 20
0.0
 30
0.0
  3
_EX_BBOX
  1

  0
LINE
  5
73
100
AcDbEntity
  8
0
  6
CONTINUOUS
 62
     0
100
AcDbLine
 10
0.0
 20
0.0
 30
0.0
 11
-1.0
 21
0.0
 31
0.0
  0
LINE
  5
74
100
AcDbEntity
  8
0
  6
CONTINUOUS
 62
     0
100
AcDbLine
 10
-0.5
 20
0.5
 30
0.0
 11
0.5
 21
0.5
 31
0.0
  0
LINE
  5
75
100
AcDbEntity
  8
0
  6
CONTINUOUS
 62
     0
100
AcDbLine
 10
0.5
 20
0.5
 30
0.0
 11
0.5
 21
-0.5
 31
0.0
  0
LINE
  5
76
100
AcDbEntity
  8
0
  6
CONTINUOUS
 62
     0
100
AcDbLine
 10
0.5
 20
-0.5
 30
0.0
 11
-0.5
 21
-0.5
 31
0.0
  0
LINE
  5
77
100
AcDbEntity
  8
0
  6
CONTINUOUS
 62
     0
100
AcDbLine
 10
-0.5
 20
-0.5
 30
0.0
 11
-0.5
 21
0.5
 31
0.0
  0
LINE
  5
78
100
AcDbEntity
  8
0
  6
CONTINUOUS
 62
     0
100
AcDbLine
 10
-0.25
 20
0.25
 30
0.0
 11
0.25
 21
0.25
 31
0.0
  0
LINE
  5
79
100
AcDbEntity
  8
0
  6
CONTINUOUS
 62
     0
100
AcDbLine
 10
0.25
 20
0.25
 30
0.0
 11
0.25
 21
-0.25
 31
0.0
  0
LINE
  5
7A
100
AcDbEntity
  8
0
  6
CONTINUOUS
 62
     0
100
AcDbLine
 10
0.25
 20
-0.25
 30
0.0
 11
-0.25
 21
-0.25
 31
0.0
  0
LINE
  5
7B
100
AcDbEntity
  8
0
  6
CONTINUOUS
 62
     0
100
AcDbLine
 10
-0.25
 20
-0.25
 30
0.0
 11
-0.25
 21
0.25
 31
0.0
  0
ENDBLK
  5
7C
100
AcDbEntity
  8
0
100
AcDbBlockEnd
  0
BLOCK
  5
7D
100
AcDbEntity
  8
0
100
AcDbBlockBegin
  2
_EX_WBOX
 70
     0
 10
0.0
 20
0.0
 30
0.0
  3
_EX_WBOX
  1

  0
LINE
  5
7E
100
AcDbEntity
  8
0
  6
CONTINUOUS
 62
     0
100
AcDbLine
 10
-0.5
 20
0.0
 30
0.0
 11
-1.0
 21
0.0
 31
0.0
  0
LINE
  5
7F
100
AcDbEntity
  8
0
  6
CONTINUOUS
 62
     0
100
AcDbLine
 10
-0.5
 20
0.5
 30
0.0
 11
0.5
 21
0.5
 31
0.0
  0
LINE
  5
80
100
AcDbEntity
  8
0
  6
CONTINUOUS
 62
     0
100
AcDbLine
 10
0.5
 20
0.5
 30
0.0
 11
0.5
 21
-0.5
 31
0.0
  0
LINE
  5
81
100
AcDbEntity
  8
0
  6
CONTINUOUS
 62
     0
100
AcDbLine
 10
0.5
 20
-0.5
 30
0.0
 11
-0.5
 21
-0.5
 31
0.0
  0
LINE
  5
82
100
AcDbEntity
  8
0
  6
CONTINUOUS
 62
     0
100
AcDbLine
 10
-0.5
 20
-0.5
 30
0.0
 11
-0.5
 21
0.5
 31
0.0
  0
ENDBLK
  5
83
100
AcDbEntity
  8
0
100
AcDbBlockEnd
  0
BLOCK
  5
84
100
AcDbEntity
  8
0
100
AcDbBlockBegin
  2
_EX_INTEGRAL
 70
     0
 10
0.0
 20
0.0
 30
0.0
  3
_EX_INTEGRAL
  1

  0
LINE
  5
85
100
AcDbEntity
  8
0
  6
CONTINUOUS
 62
     0
100
AcDbLine
 10
0.0
 20
0.0
 30
0.0
 11
-1.0
 21
0.0
 31
0.0
  0
ARC
  5
86
100
AcDbEntity
  8
0
  6
CONTINUOUS
 62
     0
100
AcDbCircle
 10
0.542115
 20
0.164992
 30
0.0
 40
0.56667
100
AcDbArc
 50
73.07249
 51
196.927513
  0
ARC
  5
87
100
AcDbEntity
  8
0
  6
CONTINUOUS
 62
     0
100
AcDbCircle
 10
-0.542115
 20
-0.164992
 30
0.0
 40
0.56667
100
AcDbArc
 50
253.072487
 51
16.927513
  0
ENDBLK
  5
88
100
AcDbEntity
  8
0
100
AcDbBlockEnd
  0
BLOCK
  5
DD
100
AcDbEntity
  8
0
100
AcDbBlockBegin
  2
*D14
 70
    65
 10
0.0
 20
0.0
 30
0.0
  3
*D14
  1

  0
LINE
  5
DE
100
AcDbEntity
  8
便器
  6
CONTINUOUS
 62
     3
100
AcDbLine
 10
522.771234
 20
824.055239
 30
0.0
 11
458.273184
 21
812.682492
 31
0.0
  0
LINE
  5
DF
100
AcDbEntity
  8
便器
  6
CONTINUOUS
 62
     3
100
AcDbLine
 10
539.441459
 20
729.513694
 30
0.0
 11
474.943409
 21
718.140948
 31
0.0
  0
TEXT
  5
E0
100
AcDbEntity
  8
便器
  6
CONTINUOUS
 62
     2
100
AcDbText
 10
482.458055
 20
810.854378
 30
0.0
 40
40.0
  1
%%c96
 50
280.0
 41
0.84
  7
EXCADSTD
 72
     1
 11
489.751279
 21
769.492452
 31
0.0
100
AcDbText
  0
LINE
  5
E1
100
AcDbEntity
  8
便器
  6
CONTINUOUS
 62
     3
100
AcDbLine
 10
477.969339
 20
816.155456
 30
0.0
 11
494.639564
 21
721.613911
 31
0.0
  0
LINE
  5
E2
100
AcDbEntity
  8
便器
  6
CONTINUOUS
 62
     3
100
AcDbLine
 10
489.791737
 20
782.700132
 30
0.0
 11
477.969339
 21
816.155456
 31
0.0
  0
LINE
  5
E3
100
AcDbEntity
  8
便器
  6
CONTINUOUS
 62
     3
100
AcDbLine
 10
477.969339
 20
816.155456
 30
0.0
 11
478.302313
 21
780.674237
 31
0.0
  0
LINE
  5
E4
100
AcDbEntity
  8
便器
  6
CONTINUOUS
 62
     3
100
AcDbLine
 10
482.817166
 20
755.069235
 30
0.0
 11
494.639564
 21
721.613911
 31
0.0
  0
LINE
  5
E5
100
AcDbEntity
  8
便器
  6
CONTINUOUS
 62
     3
100
AcDbLine
 10
494.639564
 20
721.613911
 30
0.0
 11
494.30659
 21
757.09513
 31
0.0
  0
ENDBLK
  5
E6
100
AcDbEntity
  8
0
100
AcDbBlockEnd
  0
BLOCK
  5
EA
100
AcDbEntity
  8
0
100
AcDbBlockBegin
  2
*D15
 70
    65
 10
0.0
 20
0.0
 30
0.0
  3
*D15
  1

  0
LINE
  5
EB
100
AcDbEntity
  8
便器
  6
CONTINUOUS
 62
     3
100
AcDbLine
 10
539.441459
 20
778.000004
 30
0.0
 11
721.337197
 21
778.000004
 31
0.0
  0
TEXT
  5
EC
100
AcDbEntity
  8
便器
  6
CONTINUOUS
 62
     2
100
AcDbText
 10
698.572426
 20
632.720092
 30
0.0
 40
40.0
  1
170
 50
90.0
 41
0.84
  7
EXCADSTD
 72
     1
 11
698.572426
 21
676.400091
 31
0.0
100
AcDbText
  0
LINE
  5
ED
100
AcDbEntity
  8
便器
  6
CONTINUOUS
 62
     3
100
AcDbLine
 10
701.337197
 20
778.000004
 30
0.0
 11
701.337197
 21
608.000004
 31
0.0
  0
LINE
  5
EE
100
AcDbEntity
  8
便器
  6
CONTINUOUS
 62
     3
100
AcDbLine
 10
707.17053
 20
743.000004
 30
0.0
 11
701.337197
 21
778.000004
 31
0.0
  0
LINE
  5
EF
100
AcDbEntity
  8
便器
  6
CONTINUOUS
 62
     3
100
AcDbLine
 10
701.337197
 20
778.000004
 30
0.0
 11
695.503863
 21
743.000004
 31
0.0
  0
LINE
  5
F0
100
AcDbEntity
  8
便器
  6
CONTINUOUS
 62
     3
100
AcDbLine
 10
695.503863
 20
643.000004
 30
0.0
 11
701.337197
 21
608.000004
 31
0.0
  0
LINE
  5
F1
100
AcDbEntity
  8
便器
  6
CONTINUOUS
 62
     3
100
AcDbLine
 10
701.337197
 20
608.000004
 30
0.0
 11
707.17053
 21
643.000004
 31
0.0
  0
ENDBLK
  5
F2
100
AcDbEntity
  8
0
100
AcDbBlockEnd
  0
BLOCK
  5
F5
100
AcDbEntity
  8
0
100
AcDbBlockBegin
  2
*D16
 70
    65
 10
0.0
 20
0.0
 30
0.0
  3
*D16
  1

  0
TEXT
  5
F6
100
AcDbEntity
  8
便器
  6
CONTINUOUS
 62
     2
100
AcDbText
 10
700.669908
 20
832.916594
 30
0.0
 40
40.0
  1
10%%d
 50
275.0
 41
0.945
  7
EXCADSTD
 72
     1
 11
704.202331
 21
792.540823
 31
0.0
100
AcDbText
  0
ARC
  5
F7
100
AcDbEntity
  8
便器
  6
CONTINUOUS
 62
     3
100
AcDbCircle
 10
537.999953
 20
777.999993
 30
0.0
 40
163.337244
100
AcDbArc
 50
0.000004
 51
25.785195
  0
LINE
  5
F8
100
AcDbEntity
  8
便器
  6
CONTINUOUS
 62
     3
100
AcDbLine
 10
687.03334
 20
839.818534
 30
0.0
 11
698.855738
 21
806.36321
 31
0.0
  0
LINE
  5
F9
100
AcDbEntity
  8
便器
  6
CONTINUOUS
 62
     3
100
AcDbLine
 10
698.855738
 20
806.36321
 30
0.0
 11
698.522763
 21
841.844429
 31
0.0
  0
LINE
  5
FA
100
AcDbEntity
  8
便器
  6
CONTINUOUS
 62
     3
100
AcDbLine
 10
533.121003
 20
777.139705
 30
0.0
 11
718.551893
 21
809.836174
 31
0.0
  0
ENDBLK
  5
FB
100
AcDbEntity
  8
0
100
AcDbBlockEnd
  0
BLOCK
  5
FF
100
AcDbEntity
  8
0
100
AcDbBlockBegin
  2
*D17
 70
    65
 10
0.0
 20
0.0
 30
0.0
  3
*D17
  1

  0
LINE
  5
100
100
AcDbEntity
  8
便器
  6
CONTINUOUS
 62
     3
100
AcDbLine
 10
333.0
 20
450.999513
 30
0.0
 11
333.0
 21
401.000004
 31
0.0
  0
LINE
  5
101
100
AcDbEntity
  8
便器
  6
CONTINUOUS
 62
     3
100
AcDbLine
 10
608.00015
 20
570.291625
 30
0.0
 11
608.00015
 21
401.000004
 31
0.0
  0
TEXT
  5
102
100
AcDbEntity
  8
便器
  6
CONTINUOUS
 62
     2
100
AcDbText
 10
420.520075
 20
424.500004
 30
0.0
 40
40.0
  1
275
 41
0.945
  7
EXCADSTD
 72
     1
 11
470.500075
 21
424.500004
 31
0.0
100
AcDbText
  0
LINE
  5
103
100
AcDbEntity
  8
便器
  6
CONTINUOUS
 62
     3
100
AcDbLine
 10
333.0
 20
421.000004
 30
0.0
 11
608.00015
 21
421.000004
 31
0.0
  0
LINE
  5
104
100
AcDbEntity
  8
便器
  6
CONTINUOUS
 62
     3
100
AcDbLine
 10
368.0
 20
426.833337
 30
0.0
 11
333.0
 21
421.000004
 31
0.0
  0
LINE
  5
105
100
AcDbEntity
  8
便器
  6
CONTINUOUS
 62
     3
100
AcDbLine
 10
333.0
 20
421.000004
 30
0.0
 11
368.0
 21
415.16667
 31
0.0
  0
LINE
  5
106
100
AcDbEntity
  8
便器
  6
CONTINUOUS
 62
     3
100
AcDbLine
 10
573.00015
 20
415.16667
 30
0.0
 11
608.00015
 21
421.000004
 31
0.0
  0
LINE
  5
107
100
AcDbEntity
  8
便器
  6
CONTINUOUS
 62
     3
100
AcDbLine
 10
608.00015
 20
421.000004
 30
0.0
 11
573.00015
 21
426.833337
 31
0.0
  0
ENDBLK
  5
108
100
AcDbEntity
  8
0
100
AcDbBlockEnd
  0
BLOCK
  5
10B
100
AcDbEntity
  8
0
100
AcDbBlockBegin
  2
*D18
 70
    65
 10
0.0
 20
0.0
 30
0.0
  3
*D18
  1

  0
LINE
  5
10C
100
AcDbEntity
  8
便器
  6
CONTINUOUS
 62
     3
100
AcDbLine
 10
423.0
 20
2456.1
 30
0.0
 11
423.0
 21
2713.0
 31
0.0
  0
LINE
  5
10D
100
AcDbEntity
  8
便器
  6
CONTINUOUS
 62
     3
100
AcDbLine
 10
1123.0
 20
2444.000004
 30
0.0
 11
1123.0
 21
2713.0
 31
0.0
  0
TEXT
  5
10E
100
AcDbEntity
  8
便器
  6
CONTINUOUS
 62
     2
100
AcDbText
 10
723.02
 20
2696.5
 30
0.0
 40
40.0
  1
700
 41
0.945
  7
EXCADSTD
 72
     1
 11
773.0
 21
2696.5
 31
0.0
100
AcDbText
  0
LINE
  5
10F
100
AcDbEntity
  8
便器
  6
CONTINUOUS
 62
     3
100
AcDbLine
 10
423.0
 20
2693.0
 30
0.0
 11
1123.0
 21
2693.0
 31
0.0
  0
LINE
  5
110
100
AcDbEntity
  8
便器
  6
CONTINUOUS
 62
     3
100
AcDbLine
 10
458.0
 20
2698.833333
 30
0.0
 11
423.0
 21
2693.0
 31
0.0
  0
LINE
  5
111
100
AcDbEntity
  8
便器
  6
CONTINUOUS
 62
     3
100
AcDbLine
 10
423.0
 20
2693.0
 30
0.0
 11
458.0
 21
2687.166667
 31
0.0
  0
LINE
  5
112
100
AcDbEntity
  8
便器
  6
CONTINUOUS
 62
     3
100
AcDbLine
 10
1088.0
 20
2687.166667
 30
0.0
 11
1123.0
 21
2693.0
 31
0.0
  0
LINE
  5
113
100
AcDbEntity
  8
便器
  6
CONTINUOUS
 62
     3
100
AcDbLine
 10
1123.0
 20
2693.0
 30
0.0
 11
1088.0
 21
2698.833333
 31
0.0
  0
ENDBLK
  5
114
100
AcDbEntity
  8
0
100
AcDbBlockEnd
  0
BLOCK
  5
21D
100
AcDbEntity
  8
0
100
AcDbBlockBegin
  2
*D19
 70
    65
 10
0.0
 20
0.0
 30
0.0
  3
*D19
  1

  0
LINE
  5
21E
100
AcDbEntity
  8
ﾀﾝｸ
  6
CONTINUOUS
 62
     3
100
AcDbLine
 10
348.060978
 20
1487.031995
 30
0.0
 11
348.060978
 21
1619.552309
 31
0.0
  0
LINE
  5
21F
100
AcDbEntity
  8
ﾀﾝｸ
  6
CONTINUOUS
 62
     3
100
AcDbLine
 10
573.0
 20
1443.031994
 30
0.0
 11
573.0
 21
1619.552309
 31
0.0
  0
TEXT
  5
220
100
AcDbEntity
  8
ﾀﾝｸ
  6
CONTINUOUS
 62
     2
100
AcDbText
 10
410.550489
 20
1610.052309
 30
0.0
 40
40.0
  1
225
 41
0.945
  7
EXCADSTD
 72
     1
 11
460.530489
 21
1610.052309
 31
0.0
100
AcDbText
  0
LINE
  5
221
100
AcDbEntity
  8
ﾀﾝｸ
  6
CONTINUOUS
 62
     3
100
AcDbLine
 10
348.060978
 20
1604.552309
 30
0.0
 11
573.0
 21
1604.552309
 31
0.0
  0
LINE
  5
222
100
AcDbEntity
  8
ﾀﾝｸ
  6
CONTINUOUS
 62
     3
100
AcDbLine
 10
378.060978
 20
1609.552309
 30
0.0
 11
348.060978
 21
1604.552309
 31
0.0
  0
LINE
  5
223
100
AcDbEntity
  8
ﾀﾝｸ
  6
CONTINUOUS
 62
     3
100
AcDbLine
 10
348.060978
 20
1604.552309
 30
0.0
 11
378.060978
 21
1599.552309
 31
0.0
  0
LINE
  5
224
100
AcDbEntity
  8
ﾀﾝｸ
  6
CONTINUOUS
 62
     3
100
AcDbLine
 10
543.0
 20
1599.552309
 30
0.0
 11
573.0
 21
1604.552309
 31
0.0
  0
LINE
  5
225
100
AcDbEntity
  8
ﾀﾝｸ
  6
CONTINUOUS
 62
     3
100
AcDbLine
 10
573.0
 20
1604.552309
 30
0.0
 11
543.0
 21
1609.552309
 31
0.0
  0
ENDBLK
  5
226
100
AcDbEntity
  8
0
100
AcDbBlockEnd
  0
BLOCK
  5
229
100
AcDbEntity
  8
0
100
AcDbBlockBegin
  2
*D20
 70
    65
 10
0.0
 20
0.0
 30
0.0
  3
*D20
  1

  0
LINE
  5
22A
100
AcDbEntity
  8
ﾀﾝｸ
  6
CONTINUOUS
 62
     3
100
AcDbLine
 10
1405.5
 20
1463.03199
 30
0.0
 11
1405.5
 21
1619.552305
 31
0.0
  0
LINE
  5
22B
100
AcDbEntity
  8
ﾀﾝｸ
  6
CONTINUOUS
 62
     3
100
AcDbLine
 10
1840.5
 20
1465.031988
 30
0.0
 11
1840.5
 21
1619.552305
 31
0.0
  0
TEXT
  5
22C
100
AcDbEntity
  8
ﾀﾝｸ
  6
CONTINUOUS
 62
     2
100
AcDbText
 10
1573.02
 20
1610.052305
 30
0.0
 40
40.0
  1
435
 41
0.945
  7
EXCADSTD
 72
     1
 11
1623.0
 21
1610.052305
 31
0.0
100
AcDbText
  0
LINE
  5
22D
100
AcDbEntity
  8
ﾀﾝｸ
  6
CONTINUOUS
 62
     3
100
AcDbLine
 10
1405.5
 20
1604.552305
 30
0.0
 11
1840.5
 21
1604.552305
 31
0.0
  0
LINE
  5
22E
100
AcDbEntity
  8
ﾀﾝｸ
  6
CONTINUOUS
 62
     3
100
AcDbLine
 10
1435.5
 20
1609.552305
 30
0.0
 11
1405.5
 21
1604.552305
 31
0.0
  0
LINE
  5
22F
100
AcDbEntity
  8
ﾀﾝｸ
  6
CONTINUOUS
 62
     3
100
AcDbLine
 10
1405.5
 20
1604.552305
 30
0.0
 11
1435.5
 21
1599.552305
 31
0.0
  0
LINE
  5
230
100
AcDbEntity
  8
ﾀﾝｸ
  6
CONTINUOUS
 62
     3
100
AcDbLine
 10
1810.5
 20
1599.552305
 30
0.0
 11
1840.5
 21
1604.552305
 31
0.0
  0
LINE
  5
231
100
AcDbEntity
  8
ﾀﾝｸ
  6
CONTINUOUS
 62
     3
100
AcDbLine
 10
1840.5
 20
1604.552305
 30
0.0
 11
1810.5
 21
1609.552305
 31
0.0
  0
ENDBLK
  5
232
100
AcDbEntity
  8
0
100
AcDbBlockEnd
  0
BLOCK
  5
9A1
100
AcDbEntity
  8
0
100
AcDbBlockBegin
  2
*D21
 70
    65
 10
0.0
 20
0.0
 30
0.0
  3
*D21
  1

  0
LINE
  5
9A2
100
AcDbEntity
  8
寸法
  6
CONTINUOUS
 62
     3
100
AcDbLine
 10
1533.00015
 20
574.0
 30
0.0
 11
1533.00015
 21
496.171568
 31
0.0
  0
LINE
  5
9A3
100
AcDbEntity
  8
寸法
  6
CONTINUOUS
 62
     3
100
AcDbLine
 10
1712.99985
 20
574.0
 30
0.0
 11
1712.99985
 21
496.171568
 31
0.0
  0
TEXT
  5
9A4
100
AcDbEntity
  8
寸法
  6
CONTINUOUS
 62
     2
100
AcDbText
 10
1573.02
 20
519.671568
 30
0.0
 40
40.0
  1
180
 41
0.945
  7
EXCADSTD
 72
     1
 11
1623.0
 21
519.671568
 31
0.0
100
AcDbText
  0
LINE
  5
9A5
100
AcDbEntity
  8
寸法
  6
CONTINUOUS
 62
     3
100
AcDbLine
 10
1533.00015
 20
516.171568
 30
0.0
 11
1712.99985
 21
516.171568
 31
0.0
  0
LINE
  5
9A6
100
AcDbEntity
  8
寸法
  6
CONTINUOUS
 62
     3
100
AcDbLine
 10
1568.00015
 20
522.004902
 30
0.0
 11
1533.00015
 21
516.171568
 31
0.0
  0
LINE
  5
9A7
100
AcDbEntity
  8
寸法
  6
CONTINUOUS
 62
     3
100
AcDbLine
 10
1533.00015
 20
516.171568
 30
0.0
 11
1568.00015
 21
510.338235
 31
0.0
  0
LINE
  5
9A8
100
AcDbEntity
  8
寸法
  6
CONTINUOUS
 62
     3
100
AcDbLine
 10
1677.99985
 20
510.338235
 30
0.0
 11
1712.99985
 21
516.171568
 31
0.0
  0
LINE
  5
9A9
100
AcDbEntity
  8
寸法
  6
CONTINUOUS
 62
     3
100
AcDbLine
 10
1712.99985
 20
516.171568
 30
0.0
 11
1677.99985
 21
522.004902
 31
0.0
  0
ENDBLK
  5
9AA
100
AcDbEntity
  8
0
100
AcDbBlockEnd
  0
BLOCK
  5
9AE
100
AcDbEntity
  8
0
100
AcDbBlockBegin
  2
*D22
 70
    65
 10
0.0
 20
0.0
 30
0.0
  3
*D22
  1

  0
LINE
  5
9AF
100
AcDbEntity
  8
寸法
  6
CONTINUOUS
 62
     3
100
AcDbLine
 10
348.147779
 20
1483.000962
 30
0.0
 11
218.000799
 21
1483.000962
 31
0.0
  0
TEXT
  5
9B0
100
AcDbEntity
  8
寸法
  6
CONTINUOUS
 62
     2
100
AcDbText
 10
234.500799
 20
1188.019821
 30
0.0
 40
40.0
  1
490
 50
90.0
 41
0.945
  7
EXCADSTD
 72
     1
 11
234.500799
 21
1237.999821
 31
0.0
100
AcDbText
  0
LINE
  5
9B1
100
AcDbEntity
  8
寸法
  6
CONTINUOUS
 62
     3
100
AcDbLine
 10
238.000799
 20
992.99868
 30
0.0
 11
238.000799
 21
1483.000962
 31
0.0
  0
LINE
  5
9B2
100
AcDbEntity
  8
寸法
  6
CONTINUOUS
 62
     3
100
AcDbLine
 10
232.167466
 20
1027.99868
 30
0.0
 11
238.000799
 21
992.99868
 31
0.0
  0
LINE
  5
9B3
100
AcDbEntity
  8
寸法
  6
CONTINUOUS
 62
     3
100
AcDbLine
 10
238.000799
 20
992.99868
 30
0.0
 11
243.834132
 21
1027.99868
 31
0.0
  0
LINE
  5
9B4
100
AcDbEntity
  8
寸法
  6
CONTINUOUS
 62
     3
100
AcDbLine
 10
243.834132
 20
1448.000962
 30
0.0
 11
238.000799
 21
1483.000962
 31
0.0
  0
LINE
  5
9B5
100
AcDbEntity
  8
寸法
  6
CONTINUOUS
 62
     3
100
AcDbLine
 10
238.000799
 20
1483.000962
 30
0.0
 11
232.167466
 21
1448.000962
 31
0.0
  0
ENDBLK
  5
9B6
100
AcDbEntity
  8
0
100
AcDbBlockEnd
  0
BLOCK
  5
9B9
100
AcDbEntity
  8
0
100
AcDbBlockBegin
  2
*D23
 70
    65
 10
0.0
 20
0.0
 30
0.0
  3
*D23
  1

  0
LINE
  5
9BA
100
AcDbEntity
  8
寸法
  6
CONTINUOUS
 62
     3
100
AcDbLine
 10
348.0
 20
2097.632833
 30
0.0
 11
1123.0
 21
2097.632833
 31
0.0
  0
LINE
  5
9BB
100
AcDbEntity
  8
寸法
  6
CONTINUOUS
 62
     3
100
AcDbLine
 10
383.0
 20
2103.466167
 30
0.0
 11
348.0
 21
2097.632833
 31
0.0
  0
LINE
  5
9BC
100
AcDbEntity
  8
寸法
  6
CONTINUOUS
 62
     3
100
AcDbLine
 10
348.0
 20
2097.632833
 30
0.0
 11
383.0
 21
2091.7995
 31
0.0
  0
LINE
  5
9BD
100
AcDbEntity
  8
寸法
  6
CONTINUOUS
 62
     3
100
AcDbLine
 10
1088.0
 20
2091.7995
 30
0.0
 11
1123.0
 21
2097.632833
 31
0.0
  0
LINE
  5
9BE
100
AcDbEntity
  8
寸法
  6
CONTINUOUS
 62
     3
100
AcDbLine
 10
1123.0
 20
2097.632833
 30
0.0
 11
1088.0
 21
2103.466167
 31
0.0
  0
TEXT
  5
9BF
100
AcDbEntity
  8
寸法
  6
CONTINUOUS
 62
     2
100
AcDbText
 10
685.52
 20
2101.132833
 30
0.0
 40
40.0
  1
775
 41
0.945
  7
EXCADSTD
 72
     1
 11
735.5
 21
2101.132833
 31
0.0
100
AcDbText
  0
LINE
  5
9C0
100
AcDbEntity
  8
寸法
  6
CONTINUOUS
 62
     3
100
AcDbLine
 10
348.0
 20
2430.000004
 30
0.0
 11
348.0
 21
2077.632833
 31
0.0
  0
ENDBLK
  5
9C1
100
AcDbEntity
  8
0
100
AcDbBlockEnd
  0
BLOCK
  5
9C4
100
AcDbEntity
  8
0
100
AcDbBlockBegin
  2
*D24
 70
    65
 10
0.0
 20
0.0
 30
0.0
  3
*D24
  1

  0
TEXT
  5
9C5
100
AcDbEntity
  8
寸法
  6
CONTINUOUS
 62
     2
100
AcDbText
 10
260.500743
 20
2237.020004
 30
0.0
 40
40.0
  1
300
 50
90.0
 41
0.945
  7
EXCADSTD
 72
     1
 11
260.500743
 21
2287.000004
 31
0.0
100
AcDbText
  0
LINE
  5
9C6
100
AcDbEntity
  8
寸法
  6
CONTINUOUS
 62
     3
100
AcDbLine
 10
264.000743
 20
2437.000004
 30
0.0
 11
264.000743
 21
2137.000004
 31
0.0
  0
LINE
  5
9C7
100
AcDbEntity
  8
寸法
  6
CONTINUOUS
 62
     3
100
AcDbLine
 10
269.834076
 20
2402.000004
 30
0.0
 11
264.000743
 21
2437.000004
 31
0.0
  0
LINE
  5
9C8
100
AcDbEntity
  8
寸法
  6
CONTINUOUS
 62
     3
100
AcDbLine
 10
264.000743
 20
2437.000004
 30
0.0
 11
258.167409
 21
2402.000004
 31
0.0
  0
LINE
  5
9C9
100
AcDbEntity
  8
寸法
  6
CONTINUOUS
 62
     3
100
AcDbLine
 10
258.167409
 20
2172.000004
 30
0.0
 11
264.000743
 21
2137.000004
 31
0.0
  0
LINE
  5
9CA
100
AcDbEntity
  8
寸法
  6
CONTINUOUS
 62
     3
100
AcDbLine
 10
264.000743
 20
2137.000004
 30
0.0
 11
269.834076
 21
2172.000004
 31
0.0
  0
LINE
  5
9CB
100
AcDbEntity
  8
寸法
  6
CONTINUOUS
 62
     3
100
AcDbLine
 10
333.0
 20
2437.000004
 30
0.0
 11
244.000743
 21
2437.000004
 31
0.0
  0
LINE
  5
9CC
100
AcDbEntity
  8
寸法
  6
CONTINUOUS
 62
     3
100
AcDbLine
 10
316.0
 20
2137.000004
 30
0.0
 11
244.000743
 21
2137.000004
 31
0.0
  0
ENDBLK
  5
9CD
100
AcDbEntity
  8
0
100
AcDbBlockEnd
  0
BLOCK
  5
9D0
100
AcDbEntity
  8
0
100
AcDbBlockBegin
  2
*D25
 70
    65
 10
0.0
 20
0.0
 30
0.0
  3
*D25
  1

  0
LINE
  5
9D1
100
AcDbEntity
  8
寸法
  6
CONTINUOUS
 62
     3
100
AcDbLine
 10
317.84
 20
907.950004
 30
0.0
 11
270.000687
 21
907.950004
 31
0.0
  0
LINE
  5
9D2
100
AcDbEntity
  8
寸法
  6
CONTINUOUS
 62
     3
100
AcDbLine
 10
290.000687
 20
907.950004
 30
0.0
 11
290.000687
 21
608.0
 31
0.0
  0
LINE
  5
9D3
100
AcDbEntity
  8
寸法
  6
CONTINUOUS
 62
     3
100
AcDbLine
 10
295.83402
 20
872.950004
 30
0.0
 11
290.000687
 21
907.950004
 31
0.0
  0
LINE
  5
9D4
100
AcDbEntity
  8
寸法
  6
CONTINUOUS
 62
     3
100
AcDbLine
 10
290.000687
 20
907.950004
 30
0.0
 11
284.167353
 21
872.950004
 31
0.0
  0
LINE
  5
9D5
100
AcDbEntity
  8
寸法
  6
CONTINUOUS
 62
     3
100
AcDbLine
 10
284.167353
 20
643.0
 30
0.0
 11
290.000687
 21
608.0
 31
0.0
  0
LINE
  5
9D6
100
AcDbEntity
  8
寸法
  6
CONTINUOUS
 62
     3
100
AcDbLine
 10
290.000687
 20
608.0
 30
0.0
 11
295.83402
 21
643.0
 31
0.0
  0
TEXT
  5
9D7
100
AcDbEntity
  8
寸法
  6
CONTINUOUS
 62
     2
100
AcDbText
 10
286.500687
 20
659.975002
 30
0.0
 40
40.0
  1
300（壁給水）
 50
90.0
 41
0.84
  7
EXCADSTD
 72
     1
 11
286.500687
 21
764.975002
 31
0.0
100
AcDbText
  0
ENDBLK
  5
9D8
100
AcDbEntity
  8
0
100
AcDbBlockEnd
  0
BLOCK
  5
9DB
100
AcDbEntity
  8
0
100
AcDbBlockBegin
  2
*D26
 70
    65
 10
0.0
 20
0.0
 30
0.0
  3
*D26
  1

  0
TEXT
  5
9DC
100
AcDbEntity
  8
寸法
  6
CONTINUOUS
 62
     2
100
AcDbText
 10
341.0
 20
665.5
 30
0.0
 40
40.0
  1
100
 41
0.84
  7
EXCADSTD
 72
     1
 11
383.0
 21
665.5
 31
0.0
100
AcDbText
  0
LINE
  5
9DD
100
AcDbEntity
  8
寸法
  6
CONTINUOUS
 62
     3
100
AcDbLine
 10
333.0
 20
662.0
 30
0.0
 11
433.0
 21
662.0
 31
0.0
  0
LINE
  5
9DE
100
AcDbEntity
  8
寸法
  6
CONTINUOUS
 62
     3
100
AcDbLine
 10
363.0
 20
667.0
 30
0.0
 11
333.0
 21
662.0
 31
0.0
  0
LINE
  5
9DF
100
AcDbEntity
  8
寸法
  6
CONTINUOUS
 62
     3
100
AcDbLine
 10
333.0
 20
662.0
 30
0.0
 11
363.0
 21
657.0
 31
0.0
  0
LINE
  5
9E0
100
AcDbEntity
  8
寸法
  6
CONTINUOUS
 62
     3
100
AcDbLine
 10
403.0
 20
657.0
 30
0.0
 11
433.0
 21
662.0
 31
0.0
  0
LINE
  5
9E1
100
AcDbEntity
  8
寸法
  6
CONTINUOUS
 62
     3
100
AcDbLine
 10
433.0
 20
662.0
 30
0.0
 11
403.0
 21
667.0
 31
0.0
  0
ENDBLK
  5
9E2
100
AcDbEntity
  8
0
100
AcDbBlockEnd
  0
ENDSEC
  0
SECTION
  2
ENTITIES
  0
LINE
  5
89
100
AcDbEntity
  8
枠
  6
CONTINUOUS
 62
     7
100
AcDbLine
 10
180.0
 20
115.0
 30
0.0
 11
2000.0
 21
115.0
 31
0.0
  0
LINE
  5
8A
100
AcDbEntity
  8
枠
  6
CONTINUOUS
 62
     7
100
AcDbLine
 10
2000.0
 20
115.0
 30
0.0
 11
2000.0
 21
2915.0
 31
0.0
  0
LINE
  5
8B
100
AcDbEntity
  8
枠
  6
CONTINUOUS
 62
     7
100
AcDbLine
 10
180.0
 20
115.0
 30
0.0
 11
180.0
 21
2915.0
 31
0.0
  0
LINE
  5
8C
100
AcDbEntity
  8
枠
  6
CONTINUOUS
 62
     7
100
AcDbLine
 10
180.0
 20
2915.0
 30
0.0
 11
2000.0
 21
2915.0
 31
0.0
  0
LINE
  5
8D
100
AcDbEntity
  8
枠
  6
CONTINUOUS
 62
     7
100
AcDbLine
 10
180.0
 20
335.0
 30
0.0
 11
2000.0
 21
335.0
 31
0.0
  0
LINE
  5
8E
100
AcDbEntity
  8
枠
  6
CONTINUOUS
 62
     6
100
AcDbLine
 10
2000.0
 20
215.0
 30
0.0
 11
750.0
 21
215.0
 31
0.0
  0
LINE
  5
8F
100
AcDbEntity
  8
枠
  6
CONTINUOUS
 62
     6
100
AcDbLine
 10
1860.0
 20
335.0
 30
0.0
 11
1860.0
 21
215.0
 31
0.0
  0
LINE
  5
90
100
AcDbEntity
  8
枠
  6
CONTINUOUS
 62
     6
100
AcDbLine
 10
1810.0
 20
335.0
 30
0.0
 11
1810.0
 21
215.0
 31
0.0
  0
LINE
  5
91
100
AcDbEntity
  8
枠
  6
CONTINUOUS
 62
     6
100
AcDbLine
 10
1440.0
 20
335.0
 30
0.0
 11
1440.0
 21
115.0
 31
0.0
  0
LINE
  5
92
100
AcDbEntity
  8
枠
  6
CONTINUOUS
 62
     6
100
AcDbLine
 10
1390.0
 20
335.0
 30
0.0
 11
1390.0
 21
115.0
 31
0.0
  0
LINE
  5
93
100
AcDbEntity
  8
枠
  6
CONTINUOUS
 62
     6
100
AcDbLine
 10
800.0
 20
335.0
 30
0.0
 11
800.0
 21
215.0
 31
0.0
  0
LINE
  5
94
100
AcDbEntity
  8
枠
  6
CONTINUOUS
 62
     6
100
AcDbLine
 10
1892.653809
 20
238.00293
 30
0.0
 11
1969.993897
 21
316.699829
 31
0.0
  0
TEXT
  5
95
100
AcDbEntity
  8
枠
  6
CONTINUOUS
 62
     2
100
AcDbText
 10
1890.537109
 20
282.722778
 30
0.0
 40
30.0
  1
１
 41
0.826
  7
EXCADSTD
 72
     5
 11
1914.13711
 21
282.722778
 31
0.0
100
AcDbText
  0
TEXT
  5
96
100
AcDbEntity
  8
枠
  6
CONTINUOUS
 62
     2
100
AcDbText
 10
1931.279297
 20
238.348846
 30
0.0
 40
30.0
  1
１０
 41
0.791
  7
EXCADSTD
 72
     5
 11
1983.067198
 21
238.348846
 31
0.0
100
AcDbText
  0
TEXT
  5
97
100
AcDbEntity
  8
枠
  6
CONTINUOUS
 62
     2
100
AcDbText
 10
755.75
 20
278.75
 30
0.0
 40
42.5
  1
品
 41
0.84
  7
EXCADSTD
 72
     5
 11
789.75
 21
278.75
 31
0.0
100
AcDbText
  0
TEXT
  5
98
100
AcDbEntity
  8
枠
  6
CONTINUOUS
 62
     2
100
AcDbText
 10
755.75
 20
228.75
 30
0.0
 40
42.5
  1
名
 41
0.84
  7
EXCADSTD
 72
     5
 11
789.75
 21
228.75
 31
0.0
100
AcDbText
  0
TEXT
  5
99
100
AcDbEntity
  8
枠
  6
CONTINUOUS
 62
     2
100
AcDbText
 10
1395.75
 20
278.75
 30
0.0
 40
42.5
  1
品
 41
0.84
  7
EXCADSTD
 72
     5
 11
1429.75
 21
278.75
 31
0.0
100
AcDbText
  0
TEXT
  5
9A
100
AcDbEntity
  8
枠
  6
CONTINUOUS
 62
     2
100
AcDbText
 10
1395.75
 20
228.75
 30
0.0
 40
42.5
  1
番
 41
0.84
  7
EXCADSTD
 72
     5
 11
1429.75
 21
228.75
 31
0.0
100
AcDbText
  0
TEXT
  5
9B
100
AcDbEntity
  8
枠
  6
CONTINUOUS
 62
     2
100
AcDbText
 10
1816.75
 20
278.75
 30
0.0
 40
42.5
  1
尺
 41
0.84
  7
EXCADSTD
 72
     5
 11
1850.75
 21
278.75
 31
0.0
100
AcDbText
  0
TEXT
  5
9C
100
AcDbEntity
  8
枠
  6
CONTINUOUS
 62
     2
100
AcDbText
 10
1816.75
 20
228.75
 30
0.0
 40
42.5
  1
度
 41
0.84
  7
EXCADSTD
 72
     5
 11
1850.75
 21
228.75
 31
0.0
100
AcDbText
  0
TEXT
  5
9D
100
AcDbEntity
  8
枠
  6
CONTINUOUS
 62
     2
100
AcDbText
 10
1395.75
 20
165.75
 30
0.0
 40
42.5
  1
図
 41
0.84
  7
EXCADSTD
 72
     5
 11
1429.75
 21
165.75
 31
0.0
100
AcDbText
  0
TEXT
  5
9E
100
AcDbEntity
  8
枠
  6
CONTINUOUS
 62
     2
100
AcDbText
 10
1395.75
 20
122.75
 30
0.0
 40
42.5
  1
番
 41
0.84
  7
EXCADSTD
 72
     5
 11
1429.75
 21
122.75
 31
0.0
100
AcDbText
  0
LINE
  5
9F
100
AcDbEntity
  8
枠
  6
CONTINUOUS
 62
     7
100
AcDbLine
 10
1280.0
 20
2837.000004
 30
0.0
 11
333.0
 21
2837.000004
 31
0.0
  0
TEXT
  5
A0
100
AcDbEntity
  8
枠
  6
CONTINUOUS
 62
     2
100
AcDbText
 10
706.104004
 20
2794.045902
 30
0.0
 40
40.0
  1
Ｗ．Ｌ
 41
0.833
  7
EXCADSTD
 72
     5
 11
825.104004
 21
2794.045902
 31
0.0
100
AcDbText
  0
TEXT
  5
A1
100
AcDbEntity
  8
枠
  6
CONTINUOUS
 62
     2
100
AcDbText
 10
806.610718
 20
272.931519
 30
0.0
 40
55.0
  1
洋風タンク密結床上排水ネオボルテックス便器セット（防露仕様）
 41
0.302909
  7
EXCADSTD
 72
     5
 11
1401.610732
 21
272.931519
 31
0.0
100
AcDbText
  0
TEXT
  5
A2
100
AcDbEntity
  8
枠
  6
CONTINUOUS
 62
     2
100
AcDbText
 10
808.61084
 20
218.271332
 30
0.0
 40
55.0
  1
防露型手洗付密結ロータンクセット
 41
0.437182
  7
EXCADSTD
 72
     5
 11
1266.610832
 21
218.271332
 31
0.0
100
AcDbText
  0
TEXT
  5
A3
100
AcDbEntity
  8
枠
  6
CONTINUOUS
 62
     2
100
AcDbText
 10
375.954102
 20
1667.104008
 30
0.0
 40
40.0
  1
Ｗ．Ｌ
 50
90.0
 41
0.833
  7
EXCADSTD
 72
     5
 11
375.954102
 21
1786.104007
 31
0.0
100
AcDbText
  0
LINE
  5
A4
100
AcDbEntity
  8
枠
  6
CONTINUOUS
 62
     7
100
AcDbLine
 10
333.0
 20
1791.0
 30
0.0
 11
333.0
 21
608.000004
 31
0.0
  0
TEXT
  5
A5
100
AcDbEntity
  8
枠
  6
CONTINUOUS
 62
     2
100
AcDbText
 10
1443.795166
 20
270.931549
 30
0.0
 40
57.5
  1
ＳＣ８１Ｐ－ＡＴ（ＢＴ）
 41
0.460174
  7
EXCADSTD
 72
     5
 11
1821.795161
 21
270.931549
 31
0.0
100
AcDbText
  0
LINE
  5
A6
100
AcDbEntity
  8
枠
  6
CONTINUOUS
 62
     7
100
AcDbLine
 10
333.0
 20
2837.000004
 30
0.0
 11
333.0
 21
1985.0
 31
0.0
  0
LINE
  5
A7
100
AcDbEntity
  8
枠
  6
CONTINUOUS
 62
     7
100
AcDbLine
 10
1250.0
 20
608.000004
 30
0.0
 11
333.0
 21
608.000004
 31
0.0
  0
LINE
  5
A8
100
AcDbEntity
  8
枠
  6
CONTINUOUS
 62
     7
100
AcDbLine
 10
1275.0
 20
608.0
 30
0.0
 11
1951.0
 21
608.0
 31
0.0
  0
TEXT
  5
A9
100
AcDbEntity
  8
枠
  6
CONTINUOUS
 62
     2
100
AcDbText
 10
1822.0
 20
611.5
 30
0.0
 40
40.0
  1
Ｆ．Ｌ
 41
0.833
  7
EXCADSTD
 72
     5
 11
1941.0
 21
611.5
 31
0.0
100
AcDbText
  0
TEXT
  5
AA
100
AcDbEntity
  8
枠
  6
CONTINUOUS
 62
     2
100
AcDbText
 10
202.5
 20
287.5
 30
0.0
 40
45.0
  1
製図
 41
1.026667
  7
EXCADSTD
 72
     5
 11
303.326
 21
287.5
 31
0.0
100
AcDbText
  0
TEXT
  5
AB
100
AcDbEntity
  8
枠
  6
CONTINUOUS
 62
     2
100
AcDbText
 10
357.5
 20
287.5
 30
0.0
 40
45.0
  1
写図
 41
1.026667
  7
EXCADSTD
 72
     5
 11
458.326
 21
287.5
 31
0.0
100
AcDbText
  0
TEXT
  5
AC
100
AcDbEntity
  8
枠
  6
CONTINUOUS
 62
     2
100
AcDbText
 10
505.0
 20
287.5
 30
0.0
 40
45.0
  1
検図
 41
0.933333
  7
EXCADSTD
 72
     5
 11
596.66
 21
287.5
 31
0.0
100
AcDbText
  0
TEXT
  5
AD
100
AcDbEntity
  8
枠
  6
CONTINUOUS
 62
     2
100
AcDbText
 10
635.0
 20
287.5
 30
0.0
 40
45.0
  1
承認
 41
0.933333
  7
EXCADSTD
 72
     5
 11
726.66
 21
287.5
 31
0.0
100
AcDbText
  0
LINE
  5
AE
100
AcDbEntity
  8
枠
  6
CONTINUOUS
 62
     6
100
AcDbLine
 10
750.0
 20
335.0
 30
0.0
 11
750.0
 21
115.0
 31
0.0
  0
LINE
  5
AF
100
AcDbEntity
  8
枠
  6
CONTINUOUS
 62
     6
100
AcDbLine
 10
620.0
 20
335.0
 30
0.0
 11
620.0
 21
115.0
 31
0.0
  0
LINE
  5
B0
100
AcDbEntity
  8
枠
  6
CONTINUOUS
 62
     6
100
AcDbLine
 10
490.0
 20
335.0
 30
0.0
 11
490.0
 21
115.0
 31
0.0
  0
LINE
  5
B1
100
AcDbEntity
  8
枠
  6
CONTINUOUS
 62
     6
100
AcDbLine
 10
335.0
 20
335.0
 30
0.0
 11
335.0
 21
115.0
 31
0.0
  0
LINE
  5
B2
100
AcDbEntity
  8
枠
  6
CONTINUOUS
 62
     6
100
AcDbLine
 10
180.0
 20
285.0
 30
0.0
 11
750.0
 21
285.0
 31
0.0
  0
LINE
  5
B3
100
AcDbEntity
  8
枠
  6
EXLTYPE2
 62
     6
100
AcDbLine
 10
180.0
 20
165.0
 30
0.0
 11
490.0
 21
165.0
 31
0.0
  0
CIRCLE
  5
B4
100
AcDbEntity
  8
枠
  6
CONTINUOUS
 62
     6
100
AcDbCircle
 10
230.0
 20
140.0
 30
0.0
 40
1.0
  0
CIRCLE
  5
B5
100
AcDbEntity
  8
枠
  6
CONTINUOUS
 62
     6
100
AcDbCircle
 10
280.0
 20
140.0
 30
0.0
 40
1.0
  0
CIRCLE
  5
B6
100
AcDbEntity
  8
枠
  6
CONTINUOUS
 62
     6
100
AcDbCircle
 10
385.0
 20
140.0
 30
0.0
 40
1.0
  0
CIRCLE
  5
B7
100
AcDbEntity
  8
枠
  6
CONTINUOUS
 62
     6
100
AcDbCircle
 10
435.0
 20
140.0
 30
0.0
 40
1.0
  0
TEXT
  5
B8
100
AcDbEntity
  8
枠
  6
CONTINUOUS
 62
     6
100
AcDbText
 10
182.044116
 20
126.950073
 30
0.0
 40
25.0
  1
２０
 41
0.75768
  7
EXCADSTD
 72
     5
 11
223.382775
 21
126.950073
 31
0.0
100
AcDbText
  0
TEXT
  5
B9
100
AcDbEntity
  8
枠
  6
CONTINUOUS
 62
     6
100
AcDbText
 10
634.5
 20
200.0
 30
0.0
 40
50.0
  1
古林
 41
0.8568
  7
EXCADSTD
 72
     5
 11
727.9932
 21
200.0
 31
0.0
100
AcDbText
  0
TEXT
  5
BA
100
AcDbEntity
  8
枠
  6
CONTINUOUS
 62
     7
100
AcDbText
 10
1454.25
 20
130.75
 30
0.0
 40
70.0
  1
Ｃ７２１Ｘ０５８
 41
0.795
  7
EXCADSTD
 72
     5
 11
1984.25
 21
130.75
 31
0.0
100
AcDbText
  0
TEXT
  5
BB
100
AcDbEntity
  8
枠
  6
CONTINUOUS
 62
     6
100
AcDbText
 10
206.5
 20
200.0
 30
0.0
 40
50.0
  1
間瀬
 41
0.8568
  7
EXCADSTD
 72
     5
 11
299.9932
 21
200.0
 31
0.0
100
AcDbText
  0
TEXT
  5
BC
100
AcDbEntity
  8
枠
  6
CONTINUOUS
 62
     6
100
AcDbText
 10
244.544116
 20
126.950073
 30
0.0
 40
25.0
  1
７
 41
0.89208
  7
EXCADSTD
 72
     5
 11
265.784116
 21
126.950073
 31
0.0
100
AcDbText
  0
TEXT
  5
BD
100
AcDbEntity
  8
枠
  6
CONTINUOUS
 62
     6
100
AcDbText
 10
296.119116
 20
126.950073
 30
0.0
 40
25.0
  1
３
 41
0.89208
  7
EXCADSTD
 72
     5
 11
317.359116
 21
126.950073
 31
0.0
100
AcDbText
  0
TEXT
  5
BE
100
AcDbEntity
  8
枠
  6
CONTINUOUS
 62
     2
100
AcDbText
 10
1444.085693
 20
219.916992
 30
0.0
 40
50.0
  1
ＳＴ７８ＦＵ－１ＡＥ０Ｄ
 41
0.518
  7
EXCADSTD
 72
     5
 11
1814.085693
 21
219.916992
 31
0.0
100
AcDbText
  0
TEXT
  5
C0
100
AcDbEntity
  8
枠
  6
CONTINUOUS
 62
     2
100
AcDbText
 10
770.0
 20
135.0
 30
0.0
 40
45.0
  1
ジャニス工業株式会社
  7
EXCADTTF1
 72
     5
 11
1370.0
 21
135.0
 31
0.0
100
AcDbText
  0
LINE
  5
C1
100
AcDbEntity
  8
枠
  6
EXLTYPE2
 62
     6
100
AcDbLine
 10
0.0
 20
1515.0
 30
0.0
 11
180.0
 21
1515.0
 31
0.0
  0
TEXT
  5
C2
100
AcDbEntity
  8
便器
  6
CONTINUOUS
 62
     2
100
AcDbText
 10
1146.92649
 20
733.499194
 30
0.0
 40
40.0
  1
３７０
 50
90.0
 41
0.833
  7
EXCADSTD
 72
     5
 11
1146.92649
 21
852.499193
 31
0.0
100
AcDbText
  0
LINE
  5
C3
100
AcDbEntity
  8
便器
  6
CONTINUOUS
 62
     3
100
AcDbLine
 10
1150.42649
 20
977.999314
 30
0.0
 11
1150.42649
 21
607.999073
 31
0.0
  0
LINE
  5
C4
100
AcDbEntity
  8
便器
  6
CONTINUOUS
 62
     3
100
AcDbLine
 10
1156.259824
 20
942.999314
 30
0.0
 11
1150.42649
 21
977.999314
 31
0.0
  0
LINE
  5
C5
100
AcDbEntity
  8
便器
  6
CONTINUOUS
 62
     3
100
AcDbLine
 10
1150.42649
 20
977.999314
 30
0.0
 11
1144.593157
 21
942.999314
 31
0.0
  0
LINE
  5
C6
100
AcDbEntity
  8
便器
  6
CONTINUOUS
 62
     3
100
AcDbLine
 10
1144.593157
 20
642.999073
 30
0.0
 11
1150.42649
 21
607.999073
 31
0.0
  0
LINE
  5
C7
100
AcDbEntity
  8
便器
  6
CONTINUOUS
 62
     3
100
AcDbLine
 10
1150.42649
 20
607.999073
 30
0.0
 11
1156.259824
 21
642.999073
 31
0.0
  0
TEXT
  5
C8
100
AcDbEntity
  8
便器
  6
CONTINUOUS
 62
     2
100
AcDbText
 10
375.999983
 20
484.50003
 30
0.0
 40
40.0
  1
２０５
 50
359.99997
 41
0.833
  7
EXCADSTD
 72
     5
 11
494.999983
 21
484.499969
 31
0.0
100
AcDbText
  0
LINE
  5
C9
100
AcDbEntity
  8
便器
  6
CONTINUOUS
 62
     3
100
AcDbLine
 10
332.999981
 20
481.000053
 30
0.0
 11
537.999981
 21
480.999947
 31
0.0
  0
LINE
  5
CA
100
AcDbEntity
  8
便器
  6
CONTINUOUS
 62
     3
100
AcDbLine
 10
367.999984
 20
486.833368
 30
0.0
 11
332.999981
 21
481.000053
 31
0.0
  0
LINE
  5
CB
100
AcDbEntity
  8
便器
  6
CONTINUOUS
 62
     3
100
AcDbLine
 10
332.999981
 20
481.000053
 30
0.0
 11
367.999978
 21
475.166701
 31
0.0
  0
LINE
  5
CC
100
AcDbEntity
  8
便器
  6
CONTINUOUS
 62
     3
100
AcDbLine
 10
502.999978
 20
475.166632
 30
0.0
 11
537.999981
 21
480.999947
 31
0.0
  0
LINE
  5
CD
100
AcDbEntity
  8
便器
  6
CONTINUOUS
 62
     3
100
AcDbLine
 10
537.999981
 20
480.999947
 30
0.0
 11
502.999984
 21
486.833298
 31
0.0
  0
TEXT
  5
CE
100
AcDbEntity
  8
便器
  6
CONTINUOUS
 62
     2
100
AcDbText
 10
1199.5
 20
2377.500004
 30
0.0
 40
40.0
  1
３５５
 50
90.0
 41
0.833
  7
EXCADSTD
 72
     5
 11
1199.5
 21
2496.500004
 31
0.0
100
AcDbText
  0
LINE
  5
CF
100
AcDbEntity
  8
便器
  6
CONTINUOUS
 62
     3
100
AcDbLine
 10
1203.0
 20
2614.367174
 30
0.0
 11
1203.0
 21
2259.632833
 31
0.0
  0
LINE
  5
D0
100
AcDbEntity
  8
便器
  6
CONTINUOUS
 62
     3
100
AcDbLine
 10
1208.833334
 20
2579.367174
 30
0.0
 11
1203.0
 21
2614.367174
 31
0.0
  0
LINE
  5
D1
100
AcDbEntity
  8
便器
  6
CONTINUOUS
 62
     3
100
AcDbLine
 10
1203.0
 20
2614.367174
 30
0.0
 11
1197.166667
 21
2579.367174
 31
0.0
  0
LINE
  5
D2
100
AcDbEntity
  8
便器
  6
CONTINUOUS
 62
     3
100
AcDbLine
 10
1197.166667
 20
2294.632833
 30
0.0
 11
1203.0
 21
2259.632833
 31
0.0
  0
LINE
  5
D3
100
AcDbEntity
  8
便器
  6
CONTINUOUS
 62
     3
100
AcDbLine
 10
1203.0
 20
2259.632833
 30
0.0
 11
1208.833334
 21
2294.632833
 31
0.0
  0
TEXT
  5
D4
100
AcDbEntity
  8
便器
  6
CONTINUOUS
 62
     2
100
AcDbText
 10
828.5
 20
2166.132833
 30
0.0
 40
40.0
  1
４７０
 41
0.833
  7
EXCADSTD
 72
     5
 11
947.5
 21
2166.132833
 31
0.0
100
AcDbText
  0
LINE
  5
D5
100
AcDbEntity
  8
便器
  6
CONTINUOUS
 62
     3
100
AcDbLine
 10
653.0
 20
2162.632833
 30
0.0
 11
1123.0
 21
2162.632833
 31
0.0
  0
LINE
  5
D6
100
AcDbEntity
  8
便器
  6
CONTINUOUS
 62
     3
100
AcDbLine
 10
688.0
 20
2168.466167
 30
0.0
 11
653.0
 21
2162.632833
 31
0.0
  0
LINE
  5
D7
100
AcDbEntity
  8
便器
  6
CONTINUOUS
 62
     3
100
AcDbLine
 10
653.0
 20
2162.632833
 30
0.0
 11
688.0
 21
2156.7995
 31
0.0
  0
LINE
  5
D8
100
AcDbEntity
  8
便器
  6
CONTINUOUS
 62
     3
100
AcDbLine
 10
1088.0
 20
2156.7995
 30
0.0
 11
1123.0
 21
2162.632833
 31
0.0
  0
LINE
  5
D9
100
AcDbEntity
  8
便器
  6
CONTINUOUS
 62
     3
100
AcDbLine
 10
1123.0
 20
2162.632833
 30
0.0
 11
1088.0
 21
2168.466167
 31
0.0
  0
LEADER
  5
DA
100
AcDbEntity
  8
便器
  6
CONTINUOUS
 62
     6
100
AcDbLeader
  3
STANDARD
 73
     3
 74
     1
 75
     0
 40
0.0
 76
     2
 10
907.488805
 20
624.4
 30
0.0
 10
834.0
 20
516.171568
 30
0.0
 77
     6
1001
ACAD
1000
DSTYLE
1002
{
1070
    41
1040
35.0
1070
     5
1000
_EX_NORM
1070
     6
1000
_EX_NORM
1070
     7
1000
_EX_NORM
1070
   341
1005
2D
1002
}
  0
LEADER
  5
DB
100
AcDbEntity
  8
便器
  6
CONTINUOUS
 62
     6
100
AcDbLeader
  3
STANDARD
 73
     3
 74
     1
 75
     0
 40
0.0
 76
     2
 10
610.89993
 20
593.278318
 30
0.0
 10
834.0
 20
516.171568
 30
0.0
 77
     6
1001
ACAD
1000
DSTYLE
1002
{
1070
    41
1040
35.0
1070
     5
1000
_EX_NORM
1070
     6
1000
_EX_NORM
1070
     7
1000
_EX_NORM
1070
   341
1005
2D
1002
}
  0
DIMENSION
  5
E8
100
AcDbEntity
  8
便器
  6
CONTINUOUS
 62
     3
100
AcDbDimension
  2
*D14
 10
494.639564
 20
721.613911
 30
0.0
 11
509.447434
 21
772.965416
 31
0.0
 70
   161
  1
%%c96
  3
STANDARD
100
AcDbAlignedDimension
 13
529.664888
 23
825.270776
 33
0.0
 14
546.335113
 24
730.729231
 34
0.0
1001
ACAD
1000
DSTYLE
1002
{
1070
     6
1000
_EX_NORM
1070
     7
1000
_EX_NORM
1070
    41
1040
35.0
1070
    42
1040
7.0
1070
    44
1040
20.0
1070
    73
1070
     0
1070
    74
1070
     0
1070
    75
1070
     0
1070
    76
1070
     0
1070
    77
1070
     1
1070
    78
1070
     0
1070
   140
1040
40.0
1070
   147
1040
3.5
1070
   173
1070
     1
1070
   176
1070
     3
1070
   177
1070
     3
1070
   178
1070
     2
1070
   271
1070
     0
1070
   279
1070
     2
1070
   280
1070
     0
1070
   287
1070
     5
1070
   340
1005
E7
1002
}
  0
DIMENSION
  5
F3
100
AcDbEntity
  8
便器
  6
CONTINUOUS
 62
     3
100
AcDbDimension
  2
*D15
 10
701.337197
 20
608.000004
 30
0.0
 11
678.572426
 21
676.400091
 31
0.0
 70
   160
  1
170
  3
STANDARD
100
AcDbAlignedDimension
 13
538.0
 23
778.000004
 33
0.0
 14
664.337197
 24
608.000004
 34
0.0
 50
90.0
100
AcDbRotatedDimension
1001
ACAD
1000
DSTYLE
1002
{
1070
     6
1000
_EX_NORM
1070
     7
1000
_EX_NORM
1070
    41
1040
35.0
1070
    42
1040
1.441458
1070
    44
1040
20.0
1070
    73
1070
     0
1070
    74
1070
     0
1070
    75
1070
     0
1070
    76
1070
     1
1070
    77
1070
     1
1070
    78
1070
     0
1070
   140
1040
40.0
1070
   147
1040
3.5
1070
   173
1070
     1
1070
   176
1070
     3
1070
   177
1070
     3
1070
   178
1070
     2
1070
   271
1070
     0
1070
   279
1070
     2
1070
   280
1070
     0
1070
   287
1070
     5
1070
   340
1005
E7
1002
}
  0
DIMENSION
  5
FD
100
AcDbEntity
  8
便器
  6
CONTINUOUS
 62
     3
100
AcDbDimension
  2
*D16
 10
700.715649
 20
792.235778
 30
0.0
 11
724.126225
 21
794.283938
 31
0.0
 70
   165
  3
STANDARD
100
AcDb3PointAngularDimension
 13
701.337197
 23
778.000004
 33
0.0
 14
533.121003
 24
777.139705
 34
0.0
 15
538.0
 25
778.000004
 35
0.0
1001
ACAD
1000
DSTYLE
1002
{
1070
     6
1000
_EX_NONE
1070
     7
1000
_EX_NORM
1070
    41
1040
35.0
1070
    42
1040
0.0
1070
    44
1040
20.0
1070
    73
1070
     0
1070
    74
1070
     0
1070
    75
1070
     1
1070
    76
1070
     0
1070
    77
1070
     1
1070
    78
1070
     0
1070
   140
1040
40.0
1070
   147
1040
3.5
1070
   173
1070
     1
1070
   176
1070
     3
1070
   177
1070
     3
1070
   178
1070
     2
1070
   271
1070
     0
1070
   279
1070
     2
1070
   280
1070
     0
1070
   287
1070
     5
1070
   340
1005
FC
1002
}
  0
DIMENSION
  5
109
100
AcDbEntity
  8
便器
  6
CONTINUOUS
 62
     3
100
AcDbDimension
  2
*D17
 10
608.00015
 20
421.000004
 30
0.0
 11
470.500075
 21
444.500004
 31
0.0
 70
   160
  1
275
  3
STANDARD
100
AcDbAlignedDimension
 13
333.0
 23
457.999513
 33
0.0
 14
608.00015
 24
577.291625
 34
0.0
100
AcDbRotatedDimension
1001
ACAD
1000
DSTYLE
1002
{
1070
     6
1000
_EX_NORM
1070
     7
1000
_EX_NORM
1070
    41
1040
35.0
1070
    42
1040
7.0
1070
    44
1040
20.0
1070
    73
1070
     0
1070
    74
1070
     0
1070
    75
1070
     0
1070
    76
1070
     0
1070
    77
1070
     1
1070
    78
1070
     0
1070
   140
1040
40.0
1070
   147
1040
3.5
1070
   173
1070
     1
1070
   176
1070
     3
1070
   177
1070
     3
1070
   178
1070
     2
1070
   271
1070
     0
1070
   279
1070
     2
1070
   280
1070
     0
1070
   287
1070
     5
1070
   340
1005
FC
1002
}
  0
DIMENSION
  5
115
100
AcDbEntity
  8
便器
  6
CONTINUOUS
 62
     3
100
AcDbDimension
  2
*D18
 10
1123.0
 20
2693.0
 30
0.0
 11
773.0
 21
2716.5
 31
0.0
 70
   160
  1
700
  3
STANDARD
100
AcDbAlignedDimension
 13
423.0
 23
2437.000004
 33
0.0
 14
1123.0
 24
2437.000004
 34
0.0
100
AcDbRotatedDimension
1001
ACAD
1000
DSTYLE
1002
{
1070
     6
1000
_EX_NORM
1070
     7
1000
_EX_NORM
1070
    41
1040
35.0
1070
    42
1040
19.099996
1070
    44
1040
20.0
1070
    73
1070
     0
1070
    74
1070
     0
1070
    75
1070
     0
1070
    76
1070
     0
1070
    77
1070
     1
1070
    78
1070
     0
1070
   140
1040
40.0
1070
   147
1040
3.5
1070
   173
1070
     1
1070
   176
1070
     3
1070
   177
1070
     3
1070
   178
1070
     2
1070
   271
1070
     0
1070
   279
1070
     2
1070
   280
1070
     0
1070
   287
1070
     5
1070
   340
1005
FC
1002
}
  0
LINE
  5
116
100
AcDbEntity
  8
便器
  6
CONTINUOUS
 62
     3
100
AcDbLine
 10
1127.97351
 20
977.999314
 30
0.0
 11
1173.0
 21
977.999314
 31
0.0
  0
LINE
  5
117
100
AcDbEntity
  8
便器
  6
CONTINUOUS
 62
     3
100
AcDbLine
 10
333.0
 20
600.999513
 30
0.0
 11
333.0
 21
437.999373
 31
0.0
  0
LINE
  5
118
100
AcDbEntity
  8
便器
  6
CONTINUOUS
 62
     6
100
AcDbLine
 10
480.5
 20
939.99875
 30
0.0
 11
485.5
 21
939.99875
 31
0.0
  0
LINE
  5
119
100
AcDbEntity
  8
便器
  6
CONTINUOUS
 62
     6
100
AcDbLine
 10
479.05
 20
943.99875
 30
0.0
 11
486.95
 21
943.99875
 31
0.0
  0
LINE
  5
11A
100
AcDbEntity
  8
便器
  6
CONTINUOUS
 62
     6
100
AcDbLine
 10
479.95
 20
943.99875
 30
0.0
 11
480.5
 21
939.99875
 31
0.0
  0
LINE
  5
11B
100
AcDbEntity
  8
便器
  6
CONTINUOUS
 62
     6
100
AcDbLine
 10
486.05
 20
943.99875
 30
0.0
 11
485.5
 21
939.99875
 31
0.0
  0
LINE
  5
11C
100
AcDbEntity
  8
便器
  6
CONTINUOUS
 62
     6
100
AcDbLine
 10
479.05
 20
955.999454
 30
0.0
 11
479.05
 21
950.099454
 31
0.0
  0
LINE
  5
11D
100
AcDbEntity
  8
便器
  6
CONTINUOUS
 62
     6
100
AcDbLine
 10
475.65
 20
955.999454
 30
0.0
 11
475.65
 21
950.099454
 31
0.0
  0
ARC
  5
11E
100
AcDbEntity
  8
便器
  6
CONTINUOUS
 62
     6
100
AcDbCircle
 10
477.35
 20
952.739454
 30
0.0
 40
3.14
100
AcDbArc
 50
237.220919
 51
302.779081
  0
ARC
  5
11F
100
AcDbEntity
  8
便器
  6
CONTINUOUS
 62
     6
100
AcDbCircle
 10
483.0
 20
965.451954
 30
0.0
 40
15.8525
100
AcDbArc
 50
255.571476
 51
284.428524
  0
LINE
  5
120
100
AcDbEntity
  8
便器
  6
CONTINUOUS
 62
     6
100
AcDbLine
 10
477.35
 20
949.599454
 30
0.0
 11
488.65
 21
949.599454
 31
0.0
  0
LINE
  5
121
100
AcDbEntity
  8
便器
  6
CONTINUOUS
 62
     6
100
AcDbLine
 10
490.35
 20
955.999454
 30
0.0
 11
490.35
 21
950.099454
 31
0.0
  0
LINE
  5
122
100
AcDbEntity
  8
便器
  6
CONTINUOUS
 62
     6
100
AcDbLine
 10
486.95
 20
955.999454
 30
0.0
 11
486.95
 21
950.099454
 31
0.0
  0
ARC
  5
123
100
AcDbEntity
  8
便器
  6
CONTINUOUS
 62
     6
100
AcDbCircle
 10
488.65
 20
952.739454
 30
0.0
 40
3.14
100
AcDbArc
 50
237.220919
 51
302.779081
  0
LINE
  5
124
100
AcDbEntity
  8
便器
  6
CONTINUOUS
 62
     6
100
AcDbLine
 10
472.0
 20
955.999454
 30
0.0
 11
494.0
 21
955.999454
 31
0.0
  0
LINE
  5
125
100
AcDbEntity
  8
便器
  6
CONTINUOUS
 62
     6
100
AcDbLine
 10
475.65
 20
955.999454
 30
0.0
 11
483.0
 21
955.999454
 31
0.0
  0
LINE
  5
126
100
AcDbEntity
  8
便器
  6
CONTINUOUS
 62
     6
100
AcDbLine
 10
472.0
 20
956.999454
 30
0.0
 11
472.0
 21
955.999454
 31
0.0
  0
LINE
  5
127
100
AcDbEntity
  8
便器
  6
CONTINUOUS
 62
     6
100
AcDbLine
 10
469.5
 20
960.999454
 30
0.0
 11
469.5
 21
956.999454
 31
0.0
  0
LINE
  5
128
100
AcDbEntity
  8
便器
  6
CONTINUOUS
 62
     6
100
AcDbLine
 10
496.5
 20
960.999454
 30
0.0
 11
496.5
 21
956.999454
 31
0.0
  0
LINE
  5
129
100
AcDbEntity
  8
便器
  6
CONTINUOUS
 62
     6
100
AcDbLine
 10
469.5
 20
956.999454
 30
0.0
 11
496.5
 21
956.999454
 31
0.0
  0
LINE
  5
12A
100
AcDbEntity
  8
便器
  6
CONTINUOUS
 62
     6
100
AcDbLine
 10
494.0
 20
956.999454
 30
0.0
 11
494.0
 21
955.999454
 31
0.0
  0
LINE
  5
12B
100
AcDbEntity
  8
便器
  6
CONTINUOUS
 62
     6
100
AcDbLine
 10
472.0
 20
956.999454
 30
0.0
 11
472.0
 21
955.999454
 31
0.0
  0
LINE
  5
12C
100
AcDbEntity
  8
便器
  6
CONTINUOUS
 62
     6
100
AcDbLine
 10
479.95
 20
949.599454
 30
0.0
 11
479.95
 21
943.99875
 31
0.0
  0
LINE
  5
12D
100
AcDbEntity
  8
便器
  6
CONTINUOUS
 62
     6
100
AcDbLine
 10
479.05
 20
949.599454
 30
0.0
 11
479.05
 21
943.99875
 31
0.0
  0
LINE
  5
12E
100
AcDbEntity
  8
便器
  6
CONTINUOUS
 62
     6
100
AcDbLine
 10
486.05
 20
949.599454
 30
0.0
 11
486.05
 21
943.99875
 31
0.0
  0
LINE
  5
12F
100
AcDbEntity
  8
便器
  6
CONTINUOUS
 62
     6
100
AcDbLine
 10
486.95
 20
949.599454
 30
0.0
 11
486.95
 21
943.99875
 31
0.0
  0
CIRCLE
  5
130
100
AcDbEntity
  8
便器
  6
CONTINUOUS
 62
     7
100
AcDbCircle
 10
797.0
 20
669.0
 30
0.0
 40
3.75
  0
LINE
  5
131
100
AcDbEntity
  8
便器
  6
CONTINUOUS
 62
     6
100
AcDbLine
 10
797.0
 20
669.0
 30
0.0
 11
834.0
 21
516.171568
 31
0.0
  0
LINE
  5
132
100
AcDbEntity
  8
便器
  6
CONTINUOUS
 62
     7
100
AcDbLine
 10
1122.999366
 20
967.55519
 30
0.0
 11
1122.999366
 21
963.583524
 31
0.0
  0
ARC
  5
133
100
AcDbEntity
  8
便器
  6
CONTINUOUS
 62
     7
100
AcDbCircle
 10
563.0
 20
993.000004
 30
0.0
 40
15.0
100
AcDbArc
 50
180.0
 51
270.0
  0
LINE
  5
134
100
AcDbEntity
  8
便器
  6
CONTINUOUS
 62
     7
100
AcDbLine
 10
552.921177
 20
993.000004
 30
0.0
 11
552.921177
 21
992.999867
 31
0.0
  0
ARC
  5
135
100
AcDbEntity
  8
便器
  6
CONTINUOUS
 62
     7
100
AcDbCircle
 10
594.475079
 20
627.99993
 30
0.0
 40
10.0
100
AcDbArc
 50
89.999971
 51
178.318219
  0
ARC
  5
136
100
AcDbEntity
  8
便器
  6
CONTINUOUS
 62
     7
100
AcDbCircle
 10
563.264918
 20
836.272501
 30
0.0
 40
5.0
100
AcDbArc
 50
280.0
 51
10.0
  0
LINE
  5
137
100
AcDbEntity
  8
便器
  6
CONTINUOUS
 62
     7
100
AcDbLine
 10
564.133159
 20
831.348462
 30
0.0
 11
561.67114
 21
830.914342
 31
0.0
  0
ARC
  5
138
100
AcDbEntity
  8
便器
  6
CONTINUOUS
 62
     7
100
AcDbCircle
 10
562.10526
 20
828.452322
 30
0.0
 40
2.5
100
AcDbArc
 50
100.0
 51
166.421822
  0
ARC
  5
139
100
AcDbEntity
  8
便器
  6
CONTINUOUS
 62
     7
100
AcDbCircle
 10
557.245008
 20
829.626182
 30
0.0
 40
2.5
100
AcDbArc
 50
280.0
 51
346.421822
  0
LINE
  5
13A
100
AcDbEntity
  8
便器
  6
CONTINUOUS
 62
     7
100
AcDbLine
 10
537.160808
 20
823.546229
 30
0.0
 11
557.679128
 21
827.164162
 31
0.0
  0
ARC
  5
13B
100
AcDbEntity
  8
便器
  6
CONTINUOUS
 62
     7
100
AcDbCircle
 10
536.726687
 20
826.008248
 30
0.0
 40
2.5
100
AcDbArc
 50
213.578178
 51
280.0
  0
ARC
  5
13C
100
AcDbEntity
  8
便器
  6
CONTINUOUS
 62
     7
100
AcDbCircle
 10
532.561028
 20
823.242877
 30
0.0
 40
2.5
100
AcDbArc
 50
33.578178
 51
100.0
  0
LINE
  5
13D
100
AcDbEntity
  8
便器
  6
CONTINUOUS
 62
     7
100
AcDbLine
 10
552.789144
 20
734.913531
 30
0.0
 11
573.307464
 21
738.531465
 31
0.0
  0
ARC
  5
13E
100
AcDbEntity
  8
便器
  6
CONTINUOUS
 62
     7
100
AcDbCircle
 10
553.223264
 20
732.451512
 30
0.0
 40
2.5
100
AcDbArc
 50
100.0
 51
166.421822
  0
LINE
  5
13F
100
AcDbEntity
  8
便器
  6
CONTINUOUS
 62
     7
100
AcDbLine
 10
546.335113
 20
730.729231
 30
0.0
 11
548.797132
 21
731.163352
 31
0.0
  0
ARC
  5
140
100
AcDbEntity
  8
便器
  6
CONTINUOUS
 62
     7
100
AcDbCircle
 10
548.363012
 20
733.625371
 30
0.0
 40
2.5
100
AcDbArc
 50
280.0
 51
346.421822
  0
ARC
  5
141
100
AcDbEntity
  8
便器
  6
CONTINUOUS
 62
     7
100
AcDbCircle
 10
573.741585
 20
736.069445
 30
0.0
 40
2.5
100
AcDbArc
 50
33.578178
 51
100.0
  0
ARC
  5
142
100
AcDbEntity
  8
便器
  6
CONTINUOUS
 62
     7
100
AcDbCircle
 10
577.907244
 20
738.834817
 30
0.0
 40
2.5
100
AcDbArc
 50
213.578178
 51
280.0
  0
LINE
  5
143
100
AcDbEntity
  8
便器
  6
CONTINUOUS
 62
     7
100
AcDbLine
 10
546.335113
 20
730.729231
 30
0.0
 11
529.664888
 21
825.270776
 31
0.0
  0
LINE
  5
144
100
AcDbEntity
  8
便器
  6
CONTINUOUS
 62
     7
100
AcDbLine
 10
578.341365
 20
736.372797
 30
0.0
 11
586.184505
 21
737.755755
 31
0.0
  0
LINE
  5
145
100
AcDbEntity
  8
便器
  6
CONTINUOUS
 62
     7
100
AcDbLine
 10
529.664888
 20
825.270776
 30
0.0
 11
532.126907
 21
825.704896
 31
0.0
  0
LINE
  5
146
100
AcDbEntity
  8
便器
  6
CONTINUOUS
 62
     7
100
AcDbLine
 10
566.46438
 20
846.921304
 30
0.0
 11
568.188957
 21
837.140742
 31
0.0
  0
ARC
  5
147
100
AcDbEntity
  8
便器
  6
CONTINUOUS
 62
     7
100
AcDbCircle
 10
531.996109
 20
840.843617
 30
0.0
 40
35.0
100
AcDbArc
 50
10.0
 51
43.38934
  0
LINE
  5
148
100
AcDbEntity
  8
便器
  6
CONTINUOUS
 62
     7
100
AcDbLine
 10
589.696213
 20
734.566102
 30
0.0
 11
588.75614
 21
722.61376
 31
0.0
  0
ARC
  5
149
100
AcDbEntity
  8
便器
  6
CONTINUOUS
 62
     7
100
AcDbCircle
 10
586.70545
 20
734.801331
 30
0.0
 40
3.0
100
AcDbArc
 50
355.50284
 51
100.0
  0
LINE
  5
14A
100
AcDbEntity
  8
便器
  6
CONTINUOUS
 62
     7
100
AcDbLine
 10
552.371613
 20
737.281469
 30
0.0
 11
537.679166
 21
820.606474
 31
0.0
  0
LINE
  5
14B
100
AcDbEntity
  8
便器
  6
CONTINUOUS
 62
     7
100
AcDbLine
 10
572.889933
 20
740.899402
 30
0.0
 11
558.197486
 21
824.224407
 31
0.0
  0
ARC
  5
14C
100
AcDbEntity
  8
便器
  6
CONTINUOUS
 62
     7
100
AcDbCircle
 10
2353.716947
 20
576.346744
 30
0.0
 40
1770.0
100
AcDbArc
 50
178.318219
 51
178.975316
  0
LINE
  5
14D
100
AcDbEntity
  8
便器
  6
CONTINUOUS
 62
     7
100
AcDbLine
 10
452.566457
 20
962.000004
 30
0.0
 11
506.878008
 21
962.000004
 31
0.0
  0
ARC
  5
14E
100
AcDbEntity
  8
便器
  6
CONTINUOUS
 62
     7
100
AcDbCircle
 10
559.548907
 20
990.736329
 30
0.0
 40
60.0
100
AcDbArc
 50
208.616114
 51
263.3822
  0
ARC
  5
14F
100
AcDbEntity
  8
便器
  6
CONTINUOUS
 62
     7
100
AcDbCircle
 10
790.330767
 20
4517.793906
 30
0.0
 40
3600.0
100
AcDbArc
 50
269.741986
 51
274.794075
  0
LINE
  5
150
100
AcDbEntity
  8
便器
  6
CONTINUOUS
 62
     7
100
AcDbLine
 10
568.188957
 20
837.140742
 30
0.0
 11
585.285241
 21
740.182895
 31
0.0
  0
ARC
  5
151
100
AcDbEntity
  8
便器
  6
CONTINUOUS
 62
     7
100
AcDbCircle
 10
1113.0
 20
967.442723
 30
0.0
 40
10.0
100
AcDbArc
 50
0.645139
 51
83.62063
  0
LINE
  5
152
100
AcDbEntity
  8
便器
  6
CONTINUOUS
 62
     7
100
AcDbLine
 10
1123.0
 20
967.555318
 30
0.0
 11
1123.0
 21
966.586523
 31
0.0
  0
ARC
  5
153
100
AcDbEntity
  8
便器
  6
CONTINUOUS
 62
     7
100
AcDbCircle
 10
738.0
 20
722.999994
 30
0.0
 40
14.0
100
AcDbArc
 50
207.343729
 51
270.0
  0
ARC
  5
154
100
AcDbEntity
  8
便器
  6
CONTINUOUS
 62
     7
100
AcDbCircle
 10
1003.0
 20
966.75796
 30
0.0
 40
120.0
100
AcDbArc
 50
317.029021
 51
0.0
  0
ARC
  5
155
100
AcDbEntity
  8
便器
  6
CONTINUOUS
 62
     7
100
AcDbCircle
 10
999.786359
 20
790.88317
 30
0.0
 40
30.0
100
AcDbArc
 50
109.161993
 51
168.804284
  0
ARC
  5
156
100
AcDbEntity
  8
便器
  6
CONTINUOUS
 62
     7
100
AcDbCircle
 10
907.879124
 20
1055.369578
 30
0.0
 40
250.0
100
AcDbArc
 50
289.161993
 51
317.029021
  0
ARC
  5
157
100
AcDbEntity
  8
便器
  6
CONTINUOUS
 62
     7
100
AcDbCircle
 10
774.163334
 20
835.5402
 30
0.0
 40
200.0
100
AcDbArc
 50
334.373237
 51
348.804284
  0
ARC
  5
158
100
AcDbEntity
  8
便器
  6
CONTINUOUS
 62
     7
100
AcDbCircle
 10
738.0
 20
743.999994
 30
0.0
 40
35.0
100
AcDbArc
 50
270.0
 51
345.015127
  0
ARC
  5
159
100
AcDbEntity
  8
便器
  6
CONTINUOUS
 62
     7
100
AcDbCircle
 10
737.336
 20
798.702825
 30
0.0
 40
30.0
100
AcDbArc
 50
26.192068
 51
66.929975
  0
ARC
  5
15A
100
AcDbEntity
  8
便器
  6
CONTINUOUS
 62
     7
100
AcDbCircle
 10
665.550441
 20
763.392295
 30
0.0
 40
110.0
100
AcDbArc
 50
345.015127
 51
26.192068
  0
LINE
  5
15B
100
AcDbEntity
  8
便器
  6
CONTINUOUS
 62
     7
100
AcDbLine
 10
725.701189
 20
716.311253
 30
0.0
 11
698.377467
 21
766.552296
 31
0.0
  0
ARC
  5
15C
100
AcDbEntity
  8
便器
  6
CONTINUOUS
 62
     7
100
AcDbCircle
 10
462.234835
 20
941.524091
 30
0.0
 40
13.0
100
AcDbArc
 50
219.818232
 51
260.0
  0
ARC
  5
15D
100
AcDbEntity
  8
便器
  6
CONTINUOUS
 62
     7
100
AcDbCircle
 10
787.697098
 20
918.488654
 30
0.0
 40
100.0
100
AcDbArc
 50
198.252552
 51
247.276946
  0
ARC
  5
15E
100
AcDbEntity
  8
便器
  6
CONTINUOUS
 62
     7
100
AcDbCircle
 10
683.231729
 20
884.035982
 30
0.0
 40
10.0
100
AcDbArc
 50
18.252552
 51
81.623995
  0
ARC
  5
15F
100
AcDbEntity
  8
便器
  6
CONTINUOUS
 62
     7
100
AcDbCircle
 10
522.680167
 20
670.998862
 30
0.0
 40
200.0
100
AcDbArc
 50
28.539674
 51
39.106373
  0
LINE
  5
160
100
AcDbEntity
  8
便器
  6
CONTINUOUS
 62
     7
100
AcDbLine
 10
458.934523
 20
928.90548
 30
0.0
 11
518.627274
 21
918.380037
 31
0.0
  0
ARC
  5
161
100
AcDbEntity
  8
便器
  6
CONTINUOUS
 62
     7
100
AcDbCircle
 10
1103.0
 20
878.000004
 30
0.0
 40
100.0
100
AcDbArc
 50
83.62063
 51
90.0
  0
ARC
  5
162
100
AcDbEntity
  8
便器
  6
CONTINUOUS
 62
     7
100
AcDbCircle
 10
375.755072
 20
693.14887
 30
0.0
 40
250.0
100
AcDbArc
 50
43.38934
 51
70.802806
  0
LINE
  5
163
100
AcDbEntity
  8
便器
  6
CONTINUOUS
 62
     7
100
AcDbLine
 10
594.475079
 20
638.000004
 30
0.0
 11
619.218008
 21
638.000004
 31
0.0
  0
ARC
  5
164
100
AcDbEntity
  8
便器
  6
CONTINUOUS
 62
     7
100
AcDbCircle
 10
619.218008
 20
658.000004
 30
0.0
 40
20.0
100
AcDbArc
 50
270.0
 51
344.775517
  0
ARC
  5
165
100
AcDbEntity
  8
便器
  6
CONTINUOUS
 62
     7
100
AcDbCircle
 10
680.030951
 20
691.048841
 30
0.0
 40
30.0
100
AcDbArc
 50
42.716792
 51
164.775517
  0
ARC
  5
166
100
AcDbEntity
  8
便器
  6
CONTINUOUS
 62
     7
100
AcDbCircle
 10
818.076038
 20
721.276164
 30
0.0
 40
20.0
100
AcDbArc
 50
92.0
 51
157.621463
  0
ARC
  5
167
100
AcDbEntity
  8
便器
  6
CONTINUOUS
 62
     7
100
AcDbCircle
 10
745.245756
 20
751.262728
 30
0.0
 40
58.761945
100
AcDbArc
 50
222.716792
 51
337.621463
  0
LINE
  5
168
100
AcDbEntity
  8
便器
  6
CONTINUOUS
 62
     7
100
AcDbLine
 10
953.59153
 20
746.02066
 30
0.0
 11
817.378048
 21
741.263981
 31
0.0
  0
LINE
  5
169
100
AcDbEntity
  8
便器
  6
CONTINUOUS
 62
     7
100
AcDbLine
 10
651.08382
 20
698.926886
 30
0.0
 11
638.516095
 21
652.747973
 31
0.0
  0
ARC
  5
16A
100
AcDbEntity
  8
便器
  6
CONTINUOUS
 62
     2
100
AcDbCircle
 10
554.900711
 20
733.317959
 30
0.0
 40
50.0
100
AcDbArc
 50
328.151368
 51
10.0
  0
LINE
  5
16B
100
AcDbEntity
  8
便器
  6
CONTINUOUS
 62
     2
100
AcDbLine
 10
592.749396
 20
806.605924
 30
0.0
 11
604.141099
 21
742.000368
 31
0.0
  0
ARC
  5
16C
100
AcDbEntity
  8
便器
  6
CONTINUOUS
 62
     2
100
AcDbCircle
 10
595.70382
 20
807.126869
 30
0.0
 40
3.0
100
AcDbArc
 50
36.769864
 51
190.0
  0
LINE
  5
16D
100
AcDbEntity
  8
便器
  6
CONTINUOUS
 62
     2
100
AcDbLine
 10
591.824196
 20
840.934334
 30
0.0
 11
672.24351
 21
739.982429
 31
0.0
  0
LINE
  5
16E
100
AcDbEntity
  8
便器
  6
CONTINUOUS
 62
     2
100
AcDbLine
 10
598.106959
 20
808.922676
 30
0.0
 11
652.892843
 21
735.608509
 31
0.0
  0
ARC
  5
16F
100
AcDbEntity
  8
便器
  6
CONTINUOUS
 62
     2
100
AcDbCircle
 10
595.734998
 20
844.049719
 30
0.0
 40
5.0
100
AcDbArc
 50
52.010576
 51
218.541184
  0
ARC
  5
170
100
AcDbEntity
  8
便器
  6
CONTINUOUS
 62
     2
100
AcDbCircle
 10
-16.703425
 20
59.865954
 30
0.0
 40
1000.0
100
AcDbArc
 50
47.016906
 51
52.010576
  0
ARC
  5
171
100
AcDbEntity
  8
便器
  6
CONTINUOUS
 62
     2
100
AcDbCircle
 10
509.883863
 20
665.268428
 30
0.0
 40
200.0
100
AcDbArc
 50
28.539674
 51
39.106373
  0
LINE
  5
172
100
AcDbEntity
  8
便器
  6
CONTINUOUS
 62
     2
100
AcDbLine
 10
758.0
 20
823.000004
 30
0.0
 11
973.0
 21
814.000004
 31
0.0
  0
ARC
  5
173
100
AcDbEntity
  8
便器
  6
CONTINUOUS
 62
     2
100
AcDbCircle
 10
-9.703425
 20
73.865954
 30
0.0
 40
1000.0
100
AcDbArc
 50
48.280879
 51
53.146257
  0
ARC
  5
174
100
AcDbEntity
  8
便器
  6
CONTINUOUS
 62
     2
100
AcDbCircle
 10
522.680167
 20
670.998862
 30
0.0
 40
200.0
100
AcDbArc
 50
39.106373
 51
48.280879
  0
ARC
  5
175
100
AcDbEntity
  8
便器
  6
CONTINUOUS
 62
     2
100
AcDbCircle
 10
530.093549
 20
794.018178
 30
0.0
 40
100.0
100
AcDbArc
 50
53.146257
 51
79.803568
  0
ARC
  5
176
100
AcDbEntity
  8
便器
  6
CONTINUOUS
 62
     2
100
AcDbCircle
 10
551.917215
 20
915.352366
 30
0.0
 40
23.281213
100
AcDbArc
 50
189.865807
 51
259.803568
  0
ARC
  5
177
100
AcDbEntity
  8
便器
  6
CONTINUOUS
 62
     2
100
AcDbCircle
 10
555.545722
 20
913.741559
 30
0.0
 40
34.580063
100
AcDbArc
 50
189.865807
 51
230.818778
  0
LINE
  5
178
100
AcDbEntity
  8
便器
  6
CONTINUOUS
 62
     2
100
AcDbLine
 10
528.0
 20
917.000004
 30
0.0
 11
528.98029
 21
911.363336
 31
0.0
  0
LINE
  5
179
100
AcDbEntity
  8
便器
  6
EXLTYPE1
 62
     2
100
AcDbLine
 10
519.671948
 20
918.195833
 30
0.0
 11
521.477037
 21
907.81657
 31
0.0
  0
ARC
  5
17A
100
AcDbEntity
  8
便器
  6
CONTINUOUS
 62
     6
100
AcDbCircle
 10
607.98147
 20
648.000544
 30
0.0
 40
7.0
100
AcDbArc
 50
39.127777
 51
140.871155
  0
ARC
  5
17B
100
AcDbEntity
  8
便器
  6
CONTINUOUS
 62
     6
100
AcDbCircle
 10
621.94461
 20
636.641174
 30
0.0
 40
25.0
100
AcDbArc
 50
140.870239
 51
176.883057
  0
ARC
  5
17C
100
AcDbEntity
  8
便器
  6
CONTINUOUS
 62
     6
100
AcDbCircle
 10
594.01834
 20
636.641174
 30
0.0
 40
25.0
100
AcDbArc
 50
3.116791
 51
39.129425
  0
ARC
  5
17D
100
AcDbEntity
  8
便器
  6
CONTINUOUS
 62
     6
100
AcDbCircle
 10
590.90359
 20
587.669854
 30
0.0
 40
20.0
100
AcDbArc
 50
328.740234
 51
1.073222
  0
ARC
  5
17E
100
AcDbEntity
  8
便器
  6
CONTINUOUS
 62
     6
100
AcDbCircle
 10
625.09671
 20
587.669854
 30
0.0
 40
20.0
100
AcDbArc
 50
178.926758
 51
211.259766
  0
LINE
  5
17F
100
AcDbEntity
  8
便器
  6
CONTINUOUS
 62
     6
100
AcDbLine
 10
605.10007
 20
588.044454
 30
0.0
 11
605.10007
 21
608.000004
 31
0.0
  0
LINE
  5
180
100
AcDbEntity
  8
便器
  6
CONTINUOUS
 62
     6
100
AcDbLine
 10
610.89993
 20
588.044454
 30
0.0
 11
610.89993
 21
608.000004
 31
0.0
  0
LINE
  5
181
100
AcDbEntity
  8
便器
  6
CONTINUOUS
 62
     7
100
AcDbLine
 10
518.627274
 20
918.380037
 30
0.0
 11
639.521084
 21
900.579721
 31
0.0
  0
LINE
  5
182
100
AcDbEntity
  8
便器
  6
EXLTYPE3
 62
     1
100
AcDbLine
 10
333.0
 20
2437.000004
 30
0.0
 11
1155.0
 21
2437.000004
 31
0.0
  0
LINE
  5
183
100
AcDbEntity
  8
便器
  6
CONTINUOUS
 62
     3
100
AcDbLine
 10
880.97351
 20
2614.367174
 30
0.0
 11
1223.0
 21
2614.367174
 31
0.0
  0
LINE
  5
184
100
AcDbEntity
  8
便器
  6
CONTINUOUS
 62
     3
100
AcDbLine
 10
880.97351
 20
2259.632833
 30
0.0
 11
1223.0
 21
2259.632833
 31
0.0
  0
ARC
  5
185
100
AcDbEntity
  8
便器
  6
EXLTYPE2
 62
     2
100
AcDbCircle
 10
827.652629
 20
2809.500004
 30
0.0
 40
550.0
100
AcDbArc
 50
267.1413
 51
286.544913
  0
ARC
  5
186
100
AcDbEntity
  8
便器
  6
EXLTYPE2
 62
     2
100
AcDbCircle
 10
913.082686
 20
2521.920962
 30
0.0
 40
250.0
100
AcDbArc
 50
286.544913
 51
309.465387
  0
ARC
  5
187
100
AcDbEntity
  8
便器
  6
EXLTYPE2
 62
     2
100
AcDbCircle
 10
983.0
 20
2437.000004
 30
0.0
 40
140.0
100
AcDbArc
 50
309.465387
 51
50.534613
  0
ARC
  5
188
100
AcDbEntity
  8
便器
  6
EXLTYPE2
 62
     2
100
AcDbCircle
 10
913.082686
 20
2352.079046
 30
0.0
 40
250.0
100
AcDbArc
 50
50.534613
 51
73.455087
  0
ARC
  5
189
100
AcDbEntity
  8
便器
  6
EXLTYPE2
 62
     2
100
AcDbCircle
 10
827.652629
 20
2064.500004
 30
0.0
 40
550.0
100
AcDbArc
 50
73.455087
 51
92.8587
  0
ARC
  5
18A
100
AcDbEntity
  8
便器
  6
EXLTYPE2
 62
     2
100
AcDbCircle
 10
483.310099
 20
2550.021025
 30
0.0
 40
35.0
100
AcDbArc
 50
97.483503
 51
154.754708
  0
ARC
  5
18B
100
AcDbEntity
  8
便器
  6
EXLTYPE2
 62
     2
100
AcDbCircle
 10
483.310099
 20
2323.978982
 30
0.0
 40
35.0
100
AcDbArc
 50
205.245292
 51
262.516497
  0
ARC
  5
18C
100
AcDbEntity
  8
便器
  6
EXLTYPE2
 62
     2
100
AcDbCircle
 10
723.0
 20
2437.000004
 30
0.0
 40
300.0
100
AcDbArc
 50
154.754708
 51
176.376391
  0
ARC
  5
18D
100
AcDbEntity
  8
便器
  6
EXLTYPE2
 62
     2
100
AcDbCircle
 10
723.0
 20
2437.000004
 30
0.0
 40
300.0
100
AcDbArc
 50
183.623609
 51
205.245292
  0
ARC
  5
18E
100
AcDbEntity
  8
便器
  6
CONTINUOUS
 62
     7
100
AcDbCircle
 10
566.823873
 20
724.338772
 30
0.0
 40
22.0
100
AcDbArc
 50
301.95186
 51
355.50284
  0
CIRCLE
  5
18F
100
AcDbEntity
  8
便器
  6
EXLTYPE2
 62
     2
100
AcDbCircle
 10
608.00015
 20
2527.000004
 30
0.0
 40
5.5
  0
CIRCLE
  5
190
100
AcDbEntity
  8
便器
  6
EXLTYPE2
 62
     2
100
AcDbCircle
 10
608.00015
 20
2347.000004
 30
0.0
 40
5.5
  0
ARC
  5
191
100
AcDbEntity
  8
便器
  6
EXLTYPE2
 62
     2
100
AcDbCircle
 10
599.040933
 20
2514.397022
 30
0.0
 40
40.0
100
AcDbArc
 50
104.242988
 51
171.074084
  0
ARC
  5
192
100
AcDbEntity
  8
便器
  6
EXLTYPE2
 62
     2
100
AcDbCircle
 10
599.040933
 20
2359.602978
 30
0.0
 40
40.0
100
AcDbArc
 50
188.925916
 51
255.757012
  0
ARC
  5
193
100
AcDbEntity
  8
便器
  6
EXLTYPE2
 62
     2
100
AcDbCircle
 10
1091.829591
 20
2437.0
 30
0.0
 40
538.829591
100
AcDbArc
 50
171.074084
 51
188.925916
  0
ARC
  5
194
100
AcDbEntity
  8
便器
  6
EXLTYPE2
 62
     2
100
AcDbCircle
 10
699.915147
 20
2757.0
 30
0.0
 40
450.0
100
AcDbArc
 50
255.757012
 51
270.0
  0
ARC
  5
195
100
AcDbEntity
  8
便器
  6
EXLTYPE2
 62
     2
100
AcDbCircle
 10
699.915147
 20
2117.0
 30
0.0
 40
450.0
100
AcDbArc
 50
90.0
 51
104.242988
  0
LINE
  5
196
100
AcDbEntity
  8
便器
  6
EXLTYPE2
 62
     2
100
AcDbLine
 10
753.949681
 20
2567.0
 30
0.0
 11
699.915147
 21
2567.0
 31
0.0
  0
ARC
  5
197
100
AcDbEntity
  8
便器
  6
EXLTYPE2
 62
     2
100
AcDbCircle
 10
753.949681
 20
2117.0
 30
0.0
 40
450.0
100
AcDbArc
 50
82.810446
 51
90.0
  0
ARC
  5
198
100
AcDbEntity
  8
便器
  6
EXLTYPE2
 62
     2
100
AcDbCircle
 10
778.980151
 20
2558.572493
 30
0.0
 40
250.0
100
AcDbArc
 50
277.189554
 51
317.461467
  0
ARC
  5
199
100
AcDbEntity
  8
便器
  6
EXLTYPE2
 62
     2
100
AcDbCircle
 10
778.980151
 20
2315.427507
 30
0.0
 40
250.0
100
AcDbArc
 50
45.50046
 51
82.810446
  0
CIRCLE
  5
19A
100
AcDbEntity
  8
便器
  6
EXLTYPE2
 62
     6
100
AcDbCircle
 10
918.669955
 20
2464.75
 30
0.0
 40
11.5
  0
CIRCLE
  5
19B
100
AcDbEntity
  8
便器
  6
EXLTYPE2
 62
     6
100
AcDbCircle
 10
918.669955
 20
2464.75
 30
0.0
 40
11.5
  0
CIRCLE
  5
19C
100
AcDbEntity
  8
便器
  6
EXLTYPE2
 62
     6
100
AcDbCircle
 10
918.669955
 20
2464.75
 30
0.0
 40
11.5
  0
CIRCLE
  5
19D
100
AcDbEntity
  8
便器
  6
EXLTYPE2
 62
     6
100
AcDbCircle
 10
918.669955
 20
2409.25
 30
0.0
 40
11.5
  0
LINE
  5
19E
100
AcDbEntity
  8
便器
  6
EXLTYPE2
 62
     6
100
AcDbLine
 10
945.169955
 20
2457.0
 30
0.0
 11
926.201979
 21
2473.440145
 31
0.0
  0
LINE
  5
19F
100
AcDbEntity
  8
便器
  6
EXLTYPE2
 62
     6
100
AcDbLine
 10
945.169955
 20
2417.0
 30
0.0
 11
926.201979
 21
2400.559855
 31
0.0
  0
LINE
  5
1A0
100
AcDbEntity
  8
便器
  6
EXLTYPE2
 62
     6
100
AcDbLine
 10
945.169955
 20
2457.0
 30
0.0
 11
945.169955
 21
2417.0
 31
0.0
  0
LINE
  5
1A1
100
AcDbEntity
  8
便器
  6
EXLTYPE2
 62
     6
100
AcDbLine
 10
915.169955
 20
2453.795549
 30
0.0
 11
915.169955
 21
2420.204451
 31
0.0
  0
CIRCLE
  5
1A2
100
AcDbEntity
  8
便器
  6
EXLTYPE2
 62
     6
100
AcDbCircle
 10
918.669955
 20
2464.75
 30
0.0
 40
3.0
  0
CIRCLE
  5
1A3
100
AcDbEntity
  8
便器
  6
EXLTYPE2
 62
     6
100
AcDbCircle
 10
918.669955
 20
2409.25
 30
0.0
 40
3.0
  0
ARC
  5
1A4
100
AcDbEntity
  8
便器
  6
EXLTYPE2
 62
     2
100
AcDbCircle
 10
898.447189
 20
2437.0
 30
0.0
 40
79.552812
100
AcDbArc
 50
314.49954
 51
45.50046
  0
LINE
  5
1A5
100
AcDbEntity
  8
便器
  6
EXLTYPE2
 62
     2
100
AcDbLine
 10
753.949681
 20
2307.0
 30
0.0
 11
699.915147
 21
2307.0
 31
0.0
  0
ARC
  5
1A6
100
AcDbEntity
  8
便器
  6
EXLTYPE2
 62
     2
100
AcDbCircle
 10
753.949681
 20
2757.0
 30
0.0
 40
450.0
100
AcDbArc
 50
270.0
 51
277.189554
  0
ARC
  5
1A7
100
AcDbEntity
  8
便器
  6
CONTINUOUS
 62
     7
100
AcDbCircle
 10
963.50576
 20
744.713741
 30
0.0
 40
10.0
100
AcDbArc
 50
154.373237
 51
188.157172
  0
ARC
  5
1A8
100
AcDbEntity
  8
便器
  6
CONTINUOUS
 62
     6
100
AcDbCircle
 10
956.865067
 20
643.000359
 30
0.0
 40
19.5
100
AcDbArc
 50
338.381836
 51
21.618195
  0
LINE
  5
1A9
100
AcDbEntity
  8
便器
  6
EXLTYPE1
 62
     6
100
AcDbLine
 10
971.164877
 20
640.100339
 30
0.0
 11
974.848717
 21
636.416499
 31
0.0
  0
LINE
  5
1AA
100
AcDbEntity
  8
便器
  6
CONTINUOUS
 62
     6
100
AcDbLine
 10
973.929077
 20
648.664349
 30
0.0
 11
971.164877
 21
645.900389
 31
0.0
  0
LINE
  5
1AB
100
AcDbEntity
  8
便器
  6
CONTINUOUS
 62
     6
100
AcDbLine
 10
971.164877
 20
645.900389
 30
0.0
 11
971.164877
 21
640.100339
 31
0.0
  0
LINE
  5
1AC
100
AcDbEntity
  8
便器
  6
CONTINUOUS
 62
     6
100
AcDbLine
 10
953.365067
 20
645.900389
 30
0.0
 11
953.365067
 21
640.100339
 31
0.0
  0
LINE
  5
1AD
100
AcDbEntity
  8
便器
  6
CONTINUOUS
 62
     6
100
AcDbLine
 10
971.164877
 20
640.100339
 30
0.0
 11
967.714007
 21
640.100339
 31
0.0
  0
LINE
  5
1AE
100
AcDbEntity
  8
便器
  6
CONTINUOUS
 62
     6
100
AcDbLine
 10
957.114007
 20
640.100339
 30
0.0
 11
953.365067
 21
640.100339
 31
0.0
  0
LINE
  5
1AF
100
AcDbEntity
  8
便器
  6
CONTINUOUS
 62
     6
100
AcDbLine
 10
971.164877
 20
645.900389
 30
0.0
 11
967.714007
 21
645.900389
 31
0.0
  0
LINE
  5
1B0
100
AcDbEntity
  8
便器
  6
CONTINUOUS
 62
     6
100
AcDbLine
 10
957.114007
 20
645.900389
 30
0.0
 11
953.365067
 21
645.900389
 31
0.0
  0
LINE
  5
1B1
100
AcDbEntity
  8
便器
  6
CONTINUOUS
 62
     6
100
AcDbLine
 10
945.670205
 20
622.800007
 30
0.0
 11
945.670205
 21
647.600007
 31
0.0
  0
LINE
  5
1B2
100
AcDbEntity
  8
便器
  6
CONTINUOUS
 62
     6
100
AcDbLine
 10
915.670205
 20
627.999537
 30
0.0
 11
915.670205
 21
647.600007
 31
0.0
  0
LINE
  5
1B3
100
AcDbEntity
  8
便器
  6
CONTINUOUS
 62
     6
100
AcDbLine
 10
920.919955
 20
580.332297
 30
0.0
 11
920.920075
 21
607.999047
 31
0.0
  0
LINE
  5
1B4
100
AcDbEntity
  8
便器
  6
CONTINUOUS
 62
     6
100
AcDbLine
 10
916.419955
 20
580.332297
 30
0.0
 11
916.420075
 21
607.999047
 31
0.0
  0
LINE
  5
1B5
100
AcDbEntity
  8
便器
  6
CONTINUOUS
 62
     6
100
AcDbLine
 10
916.419955
 20
580.332297
 30
0.0
 11
918.669955
 21
574.999047
 31
0.0
  0
LINE
  5
1B6
100
AcDbEntity
  8
便器
  6
CONTINUOUS
 62
     6
100
AcDbLine
 10
918.669955
 20
574.999047
 30
0.0
 11
920.919955
 21
580.332297
 31
0.0
  0
LINE
  5
1B7
100
AcDbEntity
  8
便器
  6
CONTINUOUS
 62
     6
100
AcDbLine
 10
939.324527
 20
627.999537
 30
0.0
 11
907.488805
 21
627.999537
 31
0.0
  0
LINE
  5
1B8
100
AcDbEntity
  8
便器
  6
CONTINUOUS
 62
     6
100
AcDbLine
 10
907.488805
 20
614.700007
 30
0.0
 11
907.488805
 21
608.000167
 31
0.0
  0
LINE
  5
1B9
100
AcDbEntity
  8
便器
  6
CONTINUOUS
 62
     6
100
AcDbLine
 10
907.488805
 20
627.999537
 30
0.0
 11
907.488805
 21
622.800007
 31
0.0
  0
LINE
  5
1BA
100
AcDbEntity
  8
便器
  6
CONTINUOUS
 62
     6
100
AcDbLine
 10
945.670205
 20
608.000007
 30
0.0
 11
945.670205
 21
614.700007
 31
0.0
  0
LINE
  5
1BB
100
AcDbEntity
  8
便器
  6
CONTINUOUS
 62
     6
100
AcDbLine
 10
940.669955
 20
667.999537
 30
0.0
 11
935.670205
 21
667.999537
 31
0.0
  0
LINE
  5
1BC
100
AcDbEntity
  8
便器
  6
CONTINUOUS
 62
     6
100
AcDbLine
 10
915.670205
 20
656.700007
 30
0.0
 11
915.670205
 21
662.999537
 31
0.0
  0
LINE
  5
1BD
100
AcDbEntity
  8
便器
  6
CONTINUOUS
 62
     6
100
AcDbLine
 10
925.669955
 20
667.999537
 30
0.0
 11
920.670205
 21
667.999537
 31
0.0
  0
LINE
  5
1BE
100
AcDbEntity
  8
便器
  6
CONTINUOUS
 62
     6
100
AcDbLine
 10
920.669955
 20
667.999537
 30
0.0
 11
915.669955
 21
662.999537
 31
0.0
  0
LINE
  5
1BF
100
AcDbEntity
  8
便器
  6
CONTINUOUS
 62
     6
100
AcDbLine
 10
945.670205
 20
656.700007
 30
0.0
 11
945.670205
 21
662.999537
 31
0.0
  0
LINE
  5
1C0
100
AcDbEntity
  8
便器
  6
CONTINUOUS
 62
     6
100
AcDbLine
 10
940.669955
 20
667.999537
 30
0.0
 11
945.669955
 21
662.999537
 31
0.0
  0
LINE
  5
1C1
100
AcDbEntity
  8
便器
  6
CONTINUOUS
 62
     6
100
AcDbLine
 10
948.385087
 20
645.320429
 30
0.0
 11
945.670205
 21
645.320429
 31
0.0
  0
LINE
  5
1C2
100
AcDbEntity
  8
便器
  6
CONTINUOUS
 62
     6
100
AcDbLine
 10
948.385087
 20
640.680289
 30
0.0
 11
945.670205
 21
640.680289
 31
0.0
  0
LINE
  5
1C3
100
AcDbEntity
  8
便器
  6
CONTINUOUS
 62
     7
100
AcDbLine
 10
953.664518
 20
742.938928
 30
0.0
 11
978.0
 21
608.000004
 31
0.0
  0
LINE
  5
1C4
100
AcDbEntity
  8
便器
  6
CONTINUOUS
 62
     7
100
AcDbLine
 10
559.836812
 20
675.748396
 30
0.0
 11
553.0
 21
608.000004
 31
0.0
  0
ARC
  5
1C5
100
AcDbEntity
  8
便器
  6
CONTINUOUS
 62
     7
100
AcDbCircle
 10
599.634679
 20
671.732204
 30
0.0
 40
40.0
100
AcDbArc
 50
121.95186
 51
174.23752
  0
LINE
  5
1C6
100
AcDbEntity
  8
便器
  6
CONTINUOUS
 62
     6
100
AcDbLine
 10
834.0
 20
516.171568
 30
0.0
 11
1233.143197
 21
516.171568
 31
0.0
  0
TEXT
  5
1C7
100
AcDbEntity
  8
便器
  6
CONTINUOUS
 62
     2
100
AcDbText
 10
868.999998
 20
519.671568
 30
0.0
 40
40.0
  1
ＳＣ８１Ｐ－ＡＴ（ＢＴ）
 41
0.6475
  7
EXCADSTD
 72
     5
 11
1238.999998
 21
519.671568
 31
0.0
100
AcDbText
  0
ARC
  5
1C8
100
AcDbEntity
  8
便器
  6
EXLTYPE2
 62
     2
100
AcDbCircle
 10
999.714564
 20
-1381.2067
 30
0.0
 40
4000.0
100
AcDbArc
 50
96.193457
 51
97.483503
  0
ARC
  5
1C9
100
AcDbEntity
  8
便器
  6
EXLTYPE2
 62
     2
100
AcDbCircle
 10
999.714564
 20
6255.206708
 30
0.0
 40
4000.0
100
AcDbArc
 50
262.516497
 51
263.806543
  0
LINE
  5
1CA
100
AcDbEntity
  8
便器
  6
CONTINUOUS
 62
     3
100
AcDbLine
 10
538.0
 20
770.999394
 30
0.0
 11
538.0
 21
460.999947
 31
0.0
  0
LINE
  5
1CB
100
AcDbEntity
  8
便器
  6
CONTINUOUS
 62
     6
100
AcDbLine
 10
653.0
 20
2396.000004
 30
0.0
 11
653.0
 21
2142.632833
 31
0.0
  0
LINE
  5
1CC
100
AcDbEntity
  8
便器
  6
CONTINUOUS
 62
     3
100
AcDbLine
 10
1123.0
 20
2426.0
 30
0.0
 11
1123.0
 21
2017.632833
 31
0.0
  0
ARC
  5
1CD
100
AcDbEntity
  8
便器
  6
CONTINUOUS
 62
     7
100
AcDbCircle
 10
559.780969
 20
1022.849067
 30
0.0
 40
140.0
100
AcDbArc
 50
196.596359
 51
219.818232
  0
LINE
  5
1CE
100
AcDbEntity
  8
便器
  6
CONTINUOUS
 62
     7
100
AcDbLine
 10
666.478667
 20
896.610507
 30
0.0
 11
684.688416
 21
893.929317
 31
0.0
  0
ARC
  5
1CF
100
AcDbEntity
  8
便器
  6
CONTINUOUS
 62
     7
100
AcDbCircle
 10
815.99919
 20
909.426945
 30
0.0
 40
178.0
100
AcDbArc
 50
195.810456
 51
219.106373
  0
LINE
  5
1D0
100
AcDbEntity
  8
便器
  6
CONTINUOUS
 62
     6
100
AcDbLine
 10
1597.49982
 20
628.000532
 30
0.0
 11
1583.70002
 21
628.000532
 31
0.0
  0
LINE
  5
1D1
100
AcDbEntity
  8
便器
  6
CONTINUOUS
 62
     6
100
AcDbLine
 10
1648.50007
 20
628.000532
 30
0.0
 11
1662.30012
 21
628.000532
 31
0.0
  0
LINE
  5
1D2
100
AcDbEntity
  8
便器
  6
CONTINUOUS
 62
     6
100
AcDbLine
 10
1592.92512
 20
580.328132
 30
0.0
 11
1592.92524
 21
607.994882
 31
0.0
  0
LINE
  5
1D3
100
AcDbEntity
  8
便器
  6
CONTINUOUS
 62
     6
100
AcDbLine
 10
1597.42512
 20
580.328132
 30
0.0
 11
1597.42524
 21
607.994882
 31
0.0
  0
LINE
  5
1D4
100
AcDbEntity
  8
便器
  6
CONTINUOUS
 62
     6
100
AcDbLine
 10
1595.17512
 20
574.994882
 30
0.0
 11
1597.42512
 21
580.328132
 31
0.0
  0
LINE
  5
1D5
100
AcDbEntity
  8
便器
  6
CONTINUOUS
 62
     6
100
AcDbLine
 10
1592.92512
 20
580.328132
 30
0.0
 11
1595.17512
 21
574.994882
 31
0.0
  0
LINE
  5
1D6
100
AcDbEntity
  8
便器
  6
CONTINUOUS
 62
     6
100
AcDbLine
 10
1653.07488
 20
580.328132
 30
0.0
 11
1653.07476
 21
607.994882
 31
0.0
  0
LINE
  5
1D7
100
AcDbEntity
  8
便器
  6
CONTINUOUS
 62
     6
100
AcDbLine
 10
1648.57488
 20
580.328132
 30
0.0
 11
1648.57476
 21
607.994882
 31
0.0
  0
LINE
  5
1D8
100
AcDbEntity
  8
便器
  6
CONTINUOUS
 62
     6
100
AcDbLine
 10
1650.82488
 20
574.994882
 30
0.0
 11
1648.57488
 21
580.328132
 31
0.0
  0
LINE
  5
1D9
100
AcDbEntity
  8
便器
  6
CONTINUOUS
 62
     6
100
AcDbLine
 10
1653.07488
 20
580.328132
 30
0.0
 11
1650.82488
 21
574.994882
 31
0.0
  0
LINE
  5
1DA
100
AcDbEntity
  8
便器
  6
CONTINUOUS
 62
     6
100
AcDbLine
 10
1612.80837
 20
668.000532
 30
0.0
 11
1618.80837
 21
668.000532
 31
0.0
  0
LINE
  5
1DB
100
AcDbEntity
  8
便器
  6
CONTINUOUS
 62
     6
100
AcDbLine
 10
1628.80837
 20
668.000532
 30
0.0
 11
1634.80837
 21
668.000532
 31
0.0
  0
LINE
  5
1DC
100
AcDbEntity
  8
便器
  6
CONTINUOUS
 62
     6
100
AcDbLine
 10
1597.49982
 20
656.094552
 30
0.0
 11
1597.49982
 21
663.000532
 31
0.0
  0
LINE
  5
1DD
100
AcDbEntity
  8
便器
  6
CONTINUOUS
 62
     6
100
AcDbLine
 10
1597.49982
 20
628.000532
 30
0.0
 11
1597.49982
 21
630.094552
 31
0.0
  0
LINE
  5
1DE
100
AcDbEntity
  8
便器
  6
CONTINUOUS
 62
     6
100
AcDbLine
 10
1597.49982
 20
640.094552
 30
0.0
 11
1597.49982
 21
646.094552
 31
0.0
  0
LINE
  5
1DF
100
AcDbEntity
  8
便器
  6
CONTINUOUS
 62
     6
100
AcDbLine
 10
1583.69988
 20
628.000532
 30
0.0
 11
1583.69988
 21
624.094552
 31
0.0
  0
LINE
  5
1E0
100
AcDbEntity
  8
便器
  6
CONTINUOUS
 62
     6
100
AcDbLine
 10
1583.69988
 20
614.094552
 30
0.0
 11
1583.69988
 21
608.001172
 31
0.0
  0
LINE
  5
1E1
100
AcDbEntity
  8
便器
  6
CONTINUOUS
 62
     6
100
AcDbLine
 10
1662.30012
 20
628.000532
 30
0.0
 11
1662.30012
 21
624.094552
 31
0.0
  0
LINE
  5
1E2
100
AcDbEntity
  8
便器
  6
CONTINUOUS
 62
     6
100
AcDbLine
 10
1662.30012
 20
614.094552
 30
0.0
 11
1662.30012
 21
608.001172
 31
0.0
  0
LINE
  5
1E3
100
AcDbEntity
  8
便器
  6
CONTINUOUS
 62
     6
100
AcDbLine
 10
1648.50007
 20
628.000532
 30
0.0
 11
1648.50007
 21
630.094552
 31
0.0
  0
LINE
  5
1E4
100
AcDbEntity
  8
便器
  6
CONTINUOUS
 62
     6
100
AcDbLine
 10
1648.50007
 20
640.094552
 30
0.0
 11
1648.50007
 21
646.094552
 31
0.0
  0
LINE
  5
1E5
100
AcDbEntity
  8
便器
  6
CONTINUOUS
 62
     6
100
AcDbLine
 10
1648.50007
 20
656.094552
 30
0.0
 11
1648.50007
 21
663.000642
 31
0.0
  0
LINE
  5
1E6
100
AcDbEntity
  8
便器
  6
CONTINUOUS
 62
     6
100
AcDbLine
 10
1597.49982
 20
663.000532
 30
0.0
 11
1602.49982
 21
668.000532
 31
0.0
  0
LINE
  5
1E7
100
AcDbEntity
  8
便器
  6
CONTINUOUS
 62
     6
100
AcDbLine
 10
1648.50018
 20
663.000532
 30
0.0
 11
1643.50018
 21
668.000532
 31
0.0
  0
CIRCLE
  5
1E8
100
AcDbEntity
  8
便器
  6
CONTINUOUS
 62
     6
100
AcDbCircle
 10
1623.00007
 20
643.002972
 30
0.0
 40
7.6
  0
ARC
  5
1E9
100
AcDbEntity
  8
便器
  6
CONTINUOUS
 62
     7
100
AcDbCircle
 10
1461.968859
 20
926.96624
 30
0.0
 40
10.0
100
AcDbArc
 50
196.345398
 51
261.481977
  0
ARC
  5
1EA
100
AcDbEntity
  8
便器
  6
CONTINUOUS
 62
     7
100
AcDbCircle
 10
1456.310424
 20
967.439294
 30
0.0
 40
10.0
100
AcDbArc
 50
96.398991
 51
180.0
  0
ARC
  5
1EB
100
AcDbEntity
  8
便器
  6
CONTINUOUS
 62
     7
100
AcDbCircle
 10
1469.676336
 20
910.644565
 30
0.0
 40
5.0
100
AcDbArc
 50
5.373939
 51
81.481977
  0
ARC
  5
1EC
100
AcDbEntity
  8
便器
  6
CONTINUOUS
 62
     7
100
AcDbCircle
 10
1504.830855
 20
801.82676
 30
0.0
 40
30.0
100
AcDbArc
 50
7.654532
 51
53.465473
  0
ARC
  5
1ED
100
AcDbEntity
  8
便器
  6
CONTINUOUS
 62
     7
100
AcDbCircle
 10
1649.750833
 20
966.366036
 30
0.0
 40
150.0
100
AcDbArc
 50
343.654602
 51
0.0
  0
ARC
  5
1EE
100
AcDbEntity
  8
便器
  6
CONTINUOUS
 62
     7
100
AcDbCircle
 10
1784.092398
 20
926.96624
 30
0.0
 40
10.0
100
AcDbArc
 50
278.518023
 51
343.654602
  0
ARC
  5
1EF
100
AcDbEntity
  8
便器
  6
CONTINUOUS
 62
     7
100
AcDbCircle
 10
1789.750833
 20
967.439294
 30
0.0
 40
10.0
100
AcDbArc
 50
0.0
 51
83.601009
  0
LINE
  5
1F0
100
AcDbEntity
  8
便器
  6
CONTINUOUS
 62
     7
100
AcDbLine
 10
1799.750833
 20
966.366036
 30
0.0
 11
1799.750833
 21
967.439294
 31
0.0
  0
LINE
  5
1F1
100
AcDbEntity
  8
便器
  6
CONTINUOUS
 62
     7
100
AcDbLine
 10
1799.750833
 20
967.439294
 30
0.0
 11
1799.750833
 21
966.366036
 31
0.0
  0
ARC
  5
1F2
100
AcDbEntity
  8
便器
  6
CONTINUOUS
 62
     7
100
AcDbCircle
 10
1776.384922
 20
910.644565
 30
0.0
 40
5.0
100
AcDbArc
 50
98.518023
 51
174.626061
  0
ARC
  5
1F3
100
AcDbEntity
  8
便器
  6
CONTINUOUS
 62
     7
100
AcDbCircle
 10
1741.230403
 20
801.82676
 30
0.0
 40
30.0
100
AcDbArc
 50
126.534527
 51
172.345468
  0
ARC
  5
1F4
100
AcDbEntity
  8
便器
  6
CONTINUOUS
 62
     7
100
AcDbCircle
 10
1466.341053
 20
878.000005
 30
0.0
 40
100.0
100
AcDbArc
 50
89.982451
 51
96.398991
  0
ARC
  5
1F5
100
AcDbEntity
  8
便器
  6
CONTINUOUS
 62
     7
100
AcDbCircle
 10
1596.310424
 20
966.366036
 30
0.0
 40
150.0
100
AcDbArc
 50
179.447375
 51
196.345398
  0
LINE
  5
1F6
100
AcDbEntity
  8
便器
  6
CONTINUOUS
 62
     7
100
AcDbLine
 10
1779.689576
 20
978.0
 30
0.0
 11
1466.310424
 21
978.0
 31
0.0
  0
ARC
  5
1F7
100
AcDbEntity
  8
便器
  6
CONTINUOUS
 62
     7
100
AcDbCircle
 10
1779.720205
 20
878.000005
 30
0.0
 40
100.0
100
AcDbArc
 50
83.601009
 51
90.017549
  0
ARC
  5
1F8
100
AcDbEntity
  8
便器
  6
CONTINUOUS
 62
     7
100
AcDbCircle
 10
1683.226914
 20
825.802712
 30
0.0
 40
150.0
100
AcDbArc
 50
187.654532
 51
211.198263
  0
ARC
  5
1F9
100
AcDbEntity
  8
便器
  6
CONTINUOUS
 62
     7
100
AcDbCircle
 10
1594.126919
 20
922.351499
 30
0.0
 40
120.0
100
AcDbArc
 50
185.373939
 51
233.465473
  0
ARC
  5
1FA
100
AcDbEntity
  8
便器
  6
CONTINUOUS
 62
     7
100
AcDbCircle
 10
1651.934338
 20
922.351499
 30
0.0
 40
120.0
100
AcDbArc
 50
306.534527
 51
354.626061
  0
ARC
  5
1FB
100
AcDbEntity
  8
便器
  6
CONTINUOUS
 62
     2
100
AcDbCircle
 10
1623.030629
 20
920.940725
 30
0.0
 40
190.389141
100
AcDbArc
 50
253.494309
 51
286.949695
  0
ARC
  5
1FC
100
AcDbEntity
  8
便器
  6
CONTINUOUS
 62
     2
100
AcDbCircle
 10
1623.030629
 20
1626.5
 30
0.0
 40
812.5
100
AcDbArc
 50
264.409976
 51
275.523998
  0
ARC
  5
1FD
100
AcDbEntity
  8
便器
  6
CONTINUOUS
 62
     6
100
AcDbCircle
 10
1515.90359
 20
587.66985
 30
0.0
 40
20.0
100
AcDbArc
 50
328.740234
 51
1.073222
  0
ARC
  5
1FE
100
AcDbEntity
  8
便器
  6
CONTINUOUS
 62
     6
100
AcDbCircle
 10
1550.09671
 20
587.66985
 30
0.0
 40
20.0
100
AcDbArc
 50
178.926758
 51
211.259766
  0
LINE
  5
1FF
100
AcDbEntity
  8
便器
  6
CONTINUOUS
 62
     6
100
AcDbLine
 10
1530.10007
 20
588.04445
 30
0.0
 11
1530.10007
 21
608.0
 31
0.0
  0
LINE
  5
200
100
AcDbEntity
  8
便器
  6
CONTINUOUS
 62
     6
100
AcDbLine
 10
1535.89993
 20
588.04445
 30
0.0
 11
1535.89993
 21
608.0
 31
0.0
  0
ARC
  5
201
100
AcDbEntity
  8
便器
  6
CONTINUOUS
 62
     6
100
AcDbCircle
 10
1730.09641
 20
587.66985
 30
0.0
 40
20.0
100
AcDbArc
 50
178.926778
 51
211.259766
  0
ARC
  5
202
100
AcDbEntity
  8
便器
  6
CONTINUOUS
 62
     6
100
AcDbCircle
 10
1695.90329
 20
587.66985
 30
0.0
 40
20.0
100
AcDbArc
 50
328.740234
 51
1.073242
  0
LINE
  5
203
100
AcDbEntity
  8
便器
  6
CONTINUOUS
 62
     6
100
AcDbLine
 10
1715.89993
 20
588.04445
 30
0.0
 11
1715.89993
 21
608.0
 31
0.0
  0
LINE
  5
204
100
AcDbEntity
  8
便器
  6
CONTINUOUS
 62
     6
100
AcDbLine
 10
1710.10007
 20
588.04445
 30
0.0
 11
1710.10007
 21
608.0
 31
0.0
  0
ARC
  5
205
100
AcDbEntity
  8
便器
  6
CONTINUOUS
 62
     7
100
AcDbCircle
 10
1746.402092
 20
596.353953
 30
0.0
 40
250.0
100
AcDbArc
 50
164.048283
 51
171.353233
  0
LINE
  5
206
100
AcDbEntity
  8
便器
  6
CONTINUOUS
 62
     7
100
AcDbLine
 10
1494.605049
 20
626.345794
 30
0.0
 11
1493.0
 21
608.0
 31
0.0
  0
ARC
  5
207
100
AcDbEntity
  8
便器
  6
CONTINUOUS
 62
     7
100
AcDbCircle
 10
1504.566996
 20
625.474236
 30
0.0
 40
10.0
100
AcDbArc
 50
122.163717
 51
175.0
  0
ARC
  5
208
100
AcDbEntity
  8
便器
  6
CONTINUOUS
 62
     7
100
AcDbCircle
 10
1639.361248
 20
626.949826
 30
0.0
 40
138.672332
100
AcDbArc
 50
128.734315
 51
164.048283
  0
ARC
  5
209
100
AcDbEntity
  8
便器
  6
CONTINUOUS
 62
     7
100
AcDbCircle
 10
1546.33549
 20
742.922541
 30
0.0
 40
10.0
100
AcDbArc
 50
308.734315
 51
31.192582
  0
ARC
  5
20A
100
AcDbEntity
  8
便器
  6
CONTINUOUS
 62
     7
100
AcDbCircle
 10
1606.638752
 20
626.949826
 30
0.0
 40
138.672332
100
AcDbArc
 50
15.951717
 51
51.265685
  0
ARC
  5
20B
100
AcDbEntity
  8
便器
  6
CONTINUOUS
 62
     7
100
AcDbCircle
 10
1499.597908
 20
596.353953
 30
0.0
 40
250.0
100
AcDbArc
 50
8.646767
 51
15.951717
  0
LINE
  5
20C
100
AcDbEntity
  8
便器
  6
CONTINUOUS
 62
     7
100
AcDbLine
 10
1751.394951
 20
626.345794
 30
0.0
 11
1753.0
 21
608.0
 31
0.0
  0
ARC
  5
20D
100
AcDbEntity
  8
便器
  6
CONTINUOUS
 62
     7
100
AcDbCircle
 10
1741.433004
 20
625.474236
 30
0.0
 40
10.0
100
AcDbArc
 50
5.0
 51
57.836283
  0
LINE
  5
20E
100
AcDbEntity
  8
便器
  6
EXLTYPE3
 62
     1
100
AcDbLine
 10
1623.0
 20
578.0
 30
0.0
 11
1623.0
 21
1595.0
 31
0.0
  0
LINE
  5
20F
100
AcDbEntity
  8
便器
  6
CONTINUOUS
 62
     7
100
AcDbLine
 10
1785.573603
 20
917.076547
 30
0.0
 11
1775.644319
 21
915.589412
 31
0.0
  0
LINE
  5
210
100
AcDbEntity
  8
便器
  6
CONTINUOUS
 62
     2
100
AcDbLine
 10
1470.416939
 20
915.589412
 30
0.0
 11
1544.940387
 21
904.427841
 31
0.0
  0
LINE
  5
211
100
AcDbEntity
  8
便器
  6
CONTINUOUS
 62
     2
100
AcDbLine
 10
1775.644319
 20
915.589412
 30
0.0
 11
1692.563955
 21
903.146249
 31
0.0
  0
LINE
  5
212
100
AcDbEntity
  8
便器
  6
CONTINUOUS
 62
     7
100
AcDbLine
 10
1460.487654
 20
917.076547
 30
0.0
 11
1470.416939
 21
915.589412
 31
0.0
  0
ARC
  5
213
100
AcDbEntity
  8
便器
  6
CONTINUOUS
 62
     7
100
AcDbCircle
 10
1699.66451
 20
742.922541
 30
0.0
 40
10.0
100
AcDbArc
 50
144.779372
 51
231.265685
  0
ARC
  5
214
100
AcDbEntity
  8
便器
  6
CONTINUOUS
 62
     7
100
AcDbCircle
 10
1562.834344
 20
825.802712
 30
0.0
 40
150.0
100
AcDbArc
 50
329.063615
 51
352.345468
  0
LINE
  5
215
100
AcDbEntity
  8
便器
  6
CONTINUOUS
 62
     7
100
AcDbLine
 10
563.0
 20
978.000004
 30
0.0
 11
1103.0
 21
978.000004
 31
0.0
  0
ARC
  5
216
100
AcDbEntity
  8
便器
  6
CONTINUOUS
 62
     7
100
AcDbCircle
 10
783.125668
 20
2917.810129
 30
0.0
 40
2000.0
100
AcDbArc
 50
263.3822
 51
269.741986
  0
ARC
  5
217
100
AcDbEntity
  8
便器
  6
EXLTYPE2
 62
     2
100
AcDbCircle
 10
999.714564
 20
6255.206708
 30
0.0
 40
4000.0
100
AcDbArc
 50
266.429538
 51
267.1413
  0
ARC
  5
218
100
AcDbEntity
  8
便器
  6
EXLTYPE2
 62
     2
100
AcDbCircle
 10
999.714564
 20
-1381.2067
 30
0.0
 40
4000.0
100
AcDbArc
 50
92.8587
 51
93.570462
  0
ARC
  5
219
100
AcDbEntity
  8
便器
  6
CONTINUOUS
 62
     7
100
AcDbCircle
 10
999.714564
 20
-1381.2067
 30
0.0
 40
4000.0
100
AcDbArc
 50
93.570462
 51
96.193457
  0
ARC
  5
21A
100
AcDbEntity
  8
便器
  6
CONTINUOUS
 62
     7
100
AcDbCircle
 10
999.714564
 20
6255.206708
 30
0.0
 40
4000.0
100
AcDbArc
 50
263.806543
 51
266.429538
  0
LINE
  5
21B
100
AcDbEntity
  8
ﾀﾝｸ
  6
CONTINUOUS
 62
     3
100
AcDbLine
 10
365.0
 20
993.000962
 30
0.0
 11
212.0
 21
993.000962
 31
0.0
  0
DIMENSION
  5
227
100
AcDbEntity
  8
ﾀﾝｸ
  6
CONTINUOUS
 62
     3
100
AcDbDimension
  2
*D19
 10
573.0
 20
1604.552309
 30
0.0
 11
460.530489
 21
1630.052309
 31
0.0
 70
   160
  1
225
  3
STANDARD
100
AcDbAlignedDimension
 13
348.060978
 23
1475.968765
 33
0.0
 14
573.0
 24
1403.000732
 34
0.0
100
AcDbRotatedDimension
1001
ACAD
1000
DSTYLE
1002
{
1070
     6
1000
_EX_NORM
1070
     7
1000
_EX_NORM
1070
    41
1040
30.0
1070
    42
1040
11.06323
1070
    44
1040
15.0
1070
    73
1070
     0
1070
    74
1070
     0
1070
    75
1070
     0
1070
    76
1070
     0
1070
    77
1070
     1
1070
    78
1070
     0
1070
   140
1040
40.0
1070
   147
1040
8.0
1070
   173
1070
     1
1070
   176
1070
     3
1070
   177
1070
     3
1070
   178
1070
     2
1070
   271
1070
     0
1070
   279
1070
     2
1070
   280
1070
     0
1070
   287
1070
     5
1070
   340
1005
FC
1002
}
  0
DIMENSION
  5
233
100
AcDbEntity
  8
ﾀﾝｸ
  6
CONTINUOUS
 62
     3
100
AcDbDimension
  2
*D20
 10
1840.5
 20
1604.552305
 30
0.0
 11
1623.0
 21
1630.052305
 31
0.0
 70
   160
  1
435
  3
STANDARD
100
AcDbAlignedDimension
 13
1405.5
 23
1403.000729
 33
0.0
 14
1840.5
 24
1403.000729
 34
0.0
100
AcDbRotatedDimension
1001
ACAD
1000
DSTYLE
1002
{
1070
     6
1000
_EX_NORM
1070
     7
1000
_EX_NORM
1070
    41
1040
30.0
1070
    42
1040
60.031261
1070
    44
1040
15.0
1070
    73
1070
     0
1070
    74
1070
     0
1070
    75
1070
     0
1070
    76
1070
     0
1070
    77
1070
     1
1070
    78
1070
     0
1070
   140
1040
40.0
1070
   147
1040
8.0
1070
   173
1070
     1
1070
   176
1070
     3
1070
   177
1070
     3
1070
   178
1070
     2
1070
   271
1070
     0
1070
   279
1070
     2
1070
   280
1070
     0
1070
   287
1070
     5
1070
   340
1005
FC
1002
}
  0
LINE
  5
234
100
AcDbEntity
  8
ﾀﾝｸ
  6
CONTINUOUS
 62
     7
100
AcDbLine
 10
524.977242
 20
2654.500004
 30
0.0
 11
397.798827
 21
2654.500004
 31
0.0
  0
LINE
  5
235
100
AcDbEntity
  8
ﾀﾝｸ
  6
CONTINUOUS
 62
     7
100
AcDbLine
 10
524.977242
 20
2219.500004
 30
0.0
 11
397.798827
 21
2219.500004
 31
0.0
  0
ARC
  5
236
100
AcDbEntity
  8
ﾀﾝｸ
  6
CONTINUOUS
 62
     7
100
AcDbCircle
 10
1355.543168
 20
2437.000004
 30
0.0
 40
1007.543168
100
AcDbArc
 50
169.038434
 51
190.961566
  0
ARC
  5
237
100
AcDbEntity
  8
ﾀﾝｸ
  6
CONTINUOUS
 62
     7
100
AcDbCircle
 10
397.798827
 20
2251.500004
 30
0.0
 40
32.0
100
AcDbArc
 50
190.961566
 51
270.0
  0
ARC
  5
238
100
AcDbEntity
  8
ﾀﾝｸ
  6
CONTINUOUS
 62
     7
100
AcDbCircle
 10
397.798827
 20
2622.500004
 30
0.0
 40
32.0
100
AcDbArc
 50
90.0
 51
169.038434
  0
ARC
  5
239
100
AcDbEntity
  8
ﾀﾝｸ
  6
CONTINUOUS
 62
     7
100
AcDbCircle
 10
-2029.0
 20
2437.000004
 30
0.0
 40
2602.0
100
AcDbArc
 50
356.069023
 51
3.913289
  0
ARC
  5
23A
100
AcDbEntity
  8
ﾀﾝｸ
  6
CONTINUOUS
 62
     7
100
AcDbCircle
 10
524.977242
 20
2261.500004
 30
0.0
 40
42.0
100
AcDbArc
 50
270.0
 51
356.069023
  0
ARC
  5
23B
100
AcDbEntity
  8
ﾀﾝｸ
  6
CONTINUOUS
 62
     7
100
AcDbCircle
 10
524.977242
 20
2612.500004
 30
0.0
 40
42.0
100
AcDbArc
 50
3.930977
 51
90.0
  0
LINE
  5
23C
100
AcDbEntity
  8
ﾀﾝｸ
  6
CONTINUOUS
 62
     6
100
AcDbLine
 10
521.242337
 20
2654.500159
 30
0.0
 11
521.242337
 21
2670.044109
 31
0.0
  0
LINE
  5
23D
100
AcDbEntity
  8
ﾀﾝｸ
  6
CONTINUOUS
 62
     6
100
AcDbLine
 10
484.757477
 20
2654.499849
 30
0.0
 11
484.757477
 21
2670.043799
 31
0.0
  0
ARC
  5
23E
100
AcDbEntity
  8
ﾀﾝｸ
  6
CONTINUOUS
 62
     6
100
AcDbCircle
 10
502.997537
 20
2673.312989
 30
0.0
 40
9.1224
100
AcDbArc
 50
90.0
 51
99.33316
  0
ARC
  5
23F
100
AcDbEntity
  8
ﾀﾝｸ
  6
CONTINUOUS
 62
     6
100
AcDbCircle
 10
504.476987
 20
2664.311195
 30
0.0
 40
18.244958
100
AcDbArc
 50
99.33316
 51
122.19651
  0
ARC
  5
240
100
AcDbEntity
  8
ﾀﾝｸ
  6
CONTINUOUS
 62
     6
100
AcDbCircle
 10
480.680487
 20
2692.359889
 30
0.0
 40
19.2584
100
AcDbArc
 50
293.546326
 51
305.556152
  0
ARC
  5
241
100
AcDbEntity
  8
ﾀﾝｸ
  6
CONTINUOUS
 62
     6
100
AcDbCircle
 10
488.807137
 20
2670.044099
 30
0.0
 40
4.0544
100
AcDbArc
 50
164.010132
 51
180.0
  0
ARC
  5
242
100
AcDbEntity
  8
ﾀﾝｸ
  6
CONTINUOUS
 62
     6
100
AcDbCircle
 10
494.447917
 20
2660.766919
 30
0.0
 40
15.204
100
AcDbArc
 50
113.546326
 51
117.411407
  0
ARC
  5
243
100
AcDbEntity
  8
ﾀﾝｸ
  6
CONTINUOUS
 62
     6
100
AcDbCircle
 10
489.781547
 20
2669.764899
 30
0.0
 40
5.068
100
AcDbArc
 50
117.411407
 51
164.010132
  0
ARC
  5
244
100
AcDbEntity
  8
ﾀﾝｸ
  6
CONTINUOUS
 62
     6
100
AcDbCircle
 10
476.226017
 20
2698.598259
 30
0.0
 40
26.92688
100
AcDbArc
 50
305.556152
 51
308.724487
  0
ARC
  5
245
100
AcDbEntity
  8
ﾀﾝｸ
  6
CONTINUOUS
 62
     6
100
AcDbCircle
 10
496.915907
 20
2676.319609
 30
0.0
 40
4.0544
100
AcDbArc
 50
122.196686
 51
161.721527
  0
ARC
  5
246
100
AcDbEntity
  8
ﾀﾝｸ
  6
CONTINUOUS
 62
     6
100
AcDbCircle
 10
517.187937
 20
2670.044109
 30
0.0
 40
4.0544
100
AcDbArc
 50
0.0
 51
15.989868
  0
ARC
  5
247
100
AcDbEntity
  8
ﾀﾝｸ
  6
CONTINUOUS
 62
     6
100
AcDbCircle
 10
511.547157
 20
2660.766919
 30
0.0
 40
15.204
100
AcDbArc
 50
62.588623
 51
66.453674
  0
ARC
  5
248
100
AcDbEntity
  8
ﾀﾝｸ
  6
CONTINUOUS
 62
     6
100
AcDbCircle
 10
516.213557
 20
2669.764889
 30
0.0
 40
5.068
100
AcDbArc
 50
15.989868
 51
62.588623
  0
ARC
  5
249
100
AcDbEntity
  8
ﾀﾝｸ
  6
CONTINUOUS
 62
     6
100
AcDbCircle
 10
516.213557
 20
2669.764889
 30
0.0
 40
5.068
100
AcDbArc
 50
15.989868
 51
62.588623
  0
ARC
  5
24A
100
AcDbEntity
  8
ﾀﾝｸ
  6
CONTINUOUS
 62
     6
100
AcDbCircle
 10
509.078647
 20
2676.319929
 30
0.0
 40
4.0544
100
AcDbArc
 50
18.280151
 51
57.805664
  0
ARC
  5
24B
100
AcDbEntity
  8
ﾀﾝｸ
  6
CONTINUOUS
 62
     6
100
AcDbCircle
 10
502.997537
 20
2673.312989
 30
0.0
 40
9.1224
100
AcDbArc
 50
80.66687
 51
90.0
  0
ARC
  5
24C
100
AcDbEntity
  8
ﾀﾝｸ
  6
CONTINUOUS
 62
     6
100
AcDbCircle
 10
501.518127
 20
2664.311359
 30
0.0
 40
18.2448
100
AcDbArc
 50
57.805664
 51
80.66687
  0
ARC
  5
24D
100
AcDbEntity
  8
ﾀﾝｸ
  6
CONTINUOUS
 62
     6
100
AcDbCircle
 10
529.773797
 20
2698.598559
 30
0.0
 40
26.92688
100
AcDbArc
 50
231.274048
 51
234.443848
  0
ARC
  5
24E
100
AcDbEntity
  8
ﾀﾝｸ
  6
CONTINUOUS
 62
     6
100
AcDbCircle
 10
525.314587
 20
2692.359889
 30
0.0
 40
19.2584
100
AcDbArc
 50
234.443848
 51
246.453674
  0
LINE
  5
24F
100
AcDbEntity
  8
ﾀﾝｸ
  6
CONTINUOUS
 62
     6
100
AcDbLine
 10
471.894642
 20
2426.899803
 30
0.0
 11
381.142071
 21
2423.318107
 31
0.0
  0
LINE
  5
250
100
AcDbEntity
  8
ﾀﾝｸ
  6
CONTINUOUS
 62
     6
100
AcDbLine
 10
475.348477
 20
2422.005241
 30
0.0
 11
396.489828
 21
2420.059828
 31
0.0
  0
LINE
  5
251
100
AcDbEntity
  8
ﾀﾝｸ
  6
CONTINUOUS
 62
     6
100
AcDbLine
 10
381.876626
 20
2451.166769
 30
0.0
 11
471.894637
 21
2447.099693
 31
0.0
  0
LINE
  5
252
100
AcDbEntity
  8
ﾀﾝｸ
  6
CONTINUOUS
 62
     6
100
AcDbLine
 10
396.499447
 20
2453.938983
 30
0.0
 11
475.348477
 21
2451.994255
 31
0.0
  0
ARC
  5
253
100
AcDbEntity
  8
ﾀﾝｸ
  6
CONTINUOUS
 62
     6
100
AcDbCircle
 10
407.600048
 20
2436.999748
 30
0.0
 40
30.000048
100
AcDbArc
 50
154.903931
 51
205.095093
  0
ARC
  5
254
100
AcDbEntity
  8
ﾀﾝｸ
  6
CONTINUOUS
 62
     6
100
AcDbCircle
 10
394.600018
 20
2450.000236
 30
0.0
 40
29.999991
100
AcDbArc
 50
244.904755
 51
273.611664
  0
ARC
  5
255
100
AcDbEntity
  8
ﾀﾝｸ
  6
CONTINUOUS
 62
     6
100
AcDbCircle
 10
383.148754
 20
2425.547111
 30
0.0
 40
3.000038
100
AcDbArc
 50
205.09613
 51
244.903839
  0
ARC
  5
256
100
AcDbEntity
  8
ﾀﾝｸ
  6
CONTINUOUS
 62
     6
100
AcDbCircle
 10
394.600018
 20
2423.99926
 30
0.0
 40
29.999914
100
AcDbArc
 50
86.369919
 51
115.094574
  0
ARC
  5
257
100
AcDbEntity
  8
ﾀﾝｸ
  6
CONTINUOUS
 62
     6
100
AcDbCircle
 10
383.148907
 20
2448.449943
 30
0.0
 40
2.999973
100
AcDbArc
 50
115.093536
 51
154.90387
  0
ARC
  5
258
100
AcDbEntity
  8
ﾀﾝｸ
  6
CONTINUOUS
 62
     6
100
AcDbCircle
 10
471.894637
 20
2436.999748
 30
0.0
 40
10.099945
100
AcDbArc
 50
270.000031
 51
89.999969
  0
ARC
  5
259
100
AcDbEntity
  8
ﾀﾝｸ
  6
CONTINUOUS
 62
     6
100
AcDbCircle
 10
475.001479
 20
2436.999748
 30
0.0
 40
14.998522
100
AcDbArc
 50
271.325684
 51
88.674316
  0
ARC
  5
25A
100
AcDbEntity
  8
ﾀﾝｸ
  6
CONTINUOUS
 62
     6
100
AcDbCircle
 10
470.0
 20
2437.000004
 30
0.0
 40
19.5
100
AcDbArc
 50
232.262899
 51
337.573458
  0
ARC
  5
25B
100
AcDbEntity
  8
ﾀﾝｸ
  6
CONTINUOUS
 62
     6
100
AcDbCircle
 10
470.0
 20
2437.000004
 30
0.0
 40
19.5
100
AcDbArc
 50
22.420684
 51
127.739937
  0
ARC
  5
25C
100
AcDbEntity
  8
ﾀﾝｸ
  6
CONTINUOUS
 62
     2
100
AcDbCircle
 10
-286.0
 20
2437.000004
 30
0.0
 40
710.0
100
AcDbArc
 50
1.433744
 51
11.794222
  0
ARC
  5
25D
100
AcDbEntity
  8
ﾀﾝｸ
  6
CONTINUOUS
 62
     2
100
AcDbCircle
 10
448.166005
 20
2590.298005
 30
0.0
 40
40.0
100
AcDbArc
 50
90.894624
 51
191.794222
  0
LINE
  5
25E
100
AcDbEntity
  8
ﾀﾝｸ
  6
CONTINUOUS
 62
     2
100
AcDbLine
 10
447.541465
 20
2630.293129
 30
0.0
 11
523.538463
 21
2631.479853
 31
0.0
  0
ARC
  5
25F
100
AcDbEntity
  8
ﾀﾝｸ
  6
CONTINUOUS
 62
     2
100
AcDbCircle
 10
524.006868
 20
2601.48351
 30
0.0
 40
30.0
100
AcDbArc
 50
3.686321
 51
90.894624
  0
ARC
  5
260
100
AcDbEntity
  8
ﾀﾝｸ
  6
CONTINUOUS
 62
     2
100
AcDbCircle
 10
-2029.0
 20
2437.000004
 30
0.0
 40
2588.3
100
AcDbArc
 50
356.313679
 51
3.686321
  0
ARC
  5
261
100
AcDbEntity
  8
ﾀﾝｸ
  6
CONTINUOUS
 62
     2
100
AcDbCircle
 10
524.006868
 20
2272.516497
 30
0.0
 40
30.0
100
AcDbArc
 50
269.105376
 51
356.313679
  0
LINE
  5
262
100
AcDbEntity
  8
ﾀﾝｸ
  6
CONTINUOUS
 62
     2
100
AcDbLine
 10
447.541465
 20
2243.706878
 30
0.0
 11
524.680585
 21
2242.50232
 31
0.0
  0
ARC
  5
263
100
AcDbEntity
  8
ﾀﾝｸ
  6
CONTINUOUS
 62
     2
100
AcDbCircle
 10
448.166005
 20
2283.702002
 30
0.0
 40
40.0
100
AcDbArc
 50
168.205778
 51
269.105376
  0
ARC
  5
264
100
AcDbEntity
  8
ﾀﾝｸ
  6
CONTINUOUS
 62
     2
100
AcDbCircle
 10
-286.0
 20
2437.000004
 30
0.0
 40
710.0
100
AcDbArc
 50
348.205778
 51
358.566191
  0
ARC
  5
265
100
AcDbEntity
  8
ﾀﾝｸ
  6
CONTINUOUS
 62
     7
100
AcDbCircle
 10
-5438.998013
 20
1388.114648
 30
0.0
 40
6010.0
100
AcDbArc
 50
356.888701
 51
0.046583
  0
LINE
  5
266
100
AcDbEntity
  8
ﾀﾝｸ
  6
CONTINUOUS
 62
     7
100
AcDbLine
 10
381.658719
 20
993.000962
 30
0.0
 11
545.340296
 21
993.000962
 31
0.0
  0
ARC
  5
267
100
AcDbEntity
  8
ﾀﾝｸ
  6
CONTINUOUS
 62
     7
100
AcDbCircle
 10
381.658719
 20
1005.000962
 30
0.0
 40
12.0
100
AcDbArc
 50
181.619491
 51
270.0
  0
ARC
  5
268
100
AcDbEntity
  8
ﾀﾝｸ
  6
CONTINUOUS
 62
     7
100
AcDbCircle
 10
-436.382824
 20
1116.19321
 30
0.0
 40
1000.0
100
AcDbArc
 50
353.538085
 51
356.888701
  0
ARC
  5
269
100
AcDbEntity
  8
ﾀﾝｸ
  6
CONTINUOUS
 62
     7
100
AcDbCircle
 10
545.340296
 20
1005.000962
 30
0.0
 40
12.0
100
AcDbArc
 50
270.0
 51
353.538085
  0
LINE
  5
26A
100
AcDbEntity
  8
ﾀﾝｸ
  6
CONTINUOUS
 62
     7
100
AcDbLine
 10
353.0
 20
1393.000962
 30
0.0
 11
353.8458
 21
1354.439033
 31
0.0
  0
ARC
  5
26B
100
AcDbEntity
  8
ﾀﾝｸ
  6
CONTINUOUS
 62
     7
100
AcDbCircle
 10
355.753968
 20
1329.761158
 30
0.0
 40
10.0
100
AcDbArc
 50
359.758695
 51
25.583939
  0
LINE
  5
26C
100
AcDbEntity
  8
ﾀﾝｸ
  6
CONTINUOUS
 62
     7
100
AcDbLine
 10
358.520102
 20
1342.021846
 30
0.0
 11
363.414413
 21
1336.189034
 31
0.0
  0
ARC
  5
26D
100
AcDbEntity
  8
ﾀﾝｸ
  6
CONTINUOUS
 62
     7
100
AcDbCircle
 10
355.753968
 20
1329.761158
 30
0.0
 40
10.0
100
AcDbArc
 50
25.583939
 51
40.0
  0
ARC
  5
26E
100
AcDbEntity
  8
ﾀﾝｸ
  6
CONTINUOUS
 62
     7
100
AcDbCircle
 10
373.840991
 20
1354.877598
 30
0.0
 40
20.0
100
AcDbArc
 50
181.256498
 51
220.0
  0
LEADER
  5
26F
100
AcDbEntity
  8
ﾀﾝｸ
  6
CONTINUOUS
 62
     6
100
AcDbLeader
  3
STANDARD
 73
     3
 74
     1
 75
     0
 40
0.0
 76
     2
 10
570.311495
 20
1297.014511
 30
0.0
 10
650.09837
 20
1460.137626
 30
0.0
 77
     6
1001
ACAD
1000
DSTYLE
1002
{
1070
    41
1040
35.0
1070
     5
1000
_EX_NORM
1070
     6
1000
_EX_NORM
1070
     7
1000
_EX_NORM
1070
   341
1005
2D
1002
}
  0
ARC
  5
270
100
AcDbEntity
  8
ﾀﾝｸ
  6
CONTINUOUS
 62
     6
100
AcDbCircle
 10
465.61279
 20
1524.509442
 30
0.0
 40
40.0
100
AcDbArc
 50
90.0
 51
136.667997
  0
ARC
  5
271
100
AcDbEntity
  8
ﾀﾝｸ
  6
CONTINUOUS
 62
     6
100
AcDbCircle
 10
495.187242
 20
1489.891527
 30
0.0
 40
100.0
100
AcDbArc
 50
120.066113
 51
137.822021
  0
ARC
  5
272
100
AcDbEntity
  8
ﾀﾝｸ
  6
CONTINUOUS
 62
     6
100
AcDbCircle
 10
496.248313
 20
1490.52788
 30
0.0
 40
97.5
100
AcDbArc
 50
121.83843
 51
138.284396
  0
ARC
  5
273
100
AcDbEntity
  8
ﾀﾝｸ
  6
CONTINUOUS
 62
     6
100
AcDbCircle
 10
550.03374
 20
1452.221579
 30
0.0
 40
140.0
100
AcDbArc
 50
129.231641
 51
172.579345
  0
ARC
  5
274
100
AcDbEntity
  8
ﾀﾝｸ
  6
CONTINUOUS
 62
     6
100
AcDbCircle
 10
561.882886
 20
1429.462303
 30
0.0
 40
190.0
100
AcDbArc
 50
137.82202
 51
165.757585
  0
ARC
  5
275
100
AcDbEntity
  8
ﾀﾝｸ
  6
CONTINUOUS
 62
     6
100
AcDbCircle
 10
566.155707
 20
1428.208503
 30
0.0
 40
191.152275
100
AcDbArc
 50
138.284396
 51
165.635083
  0
LINE
  5
276
100
AcDbEntity
  8
ﾀﾝｸ
  6
CONTINUOUS
 62
     6
100
AcDbLine
 10
377.722823
 20
1476.207049
 30
0.0
 11
411.206287
 21
1470.30301
 31
0.0
  0
LINE
  5
277
100
AcDbEntity
  8
ﾀﾝｸ
  6
CONTINUOUS
 62
     6
100
AcDbLine
 10
377.867931
 20
1474.150609
 30
0.0
 11
378.215227
 21
1476.120224
 31
0.0
  0
LINE
  5
278
100
AcDbEntity
  8
ﾀﾝｸ
  6
CONTINUOUS
 62
     6
100
AcDbLine
 10
410.366587
 20
1468.420219
 30
0.0
 11
410.713883
 21
1470.389835
 31
0.0
  0
ARC
  5
279
100
AcDbEntity
  8
ﾀﾝｸ
  6
CONTINUOUS
 62
     6
100
AcDbCircle
 10
475.48651
 20
1612.008785
 30
0.0
 40
30.0
100
AcDbArc
 50
269.777871
 51
285.215346
  0
LINE
  5
27A
100
AcDbEntity
  8
ﾀﾝｸ
  6
CONTINUOUS
 62
     6
100
AcDbLine
 10
465.61279
 20
1564.509442
 30
0.0
 11
488.377259
 21
1564.509442
 31
0.0
  0
LINE
  5
27B
100
AcDbEntity
  8
ﾀﾝｸ
  6
CONTINUOUS
 62
     6
100
AcDbLine
 10
484.647284
 20
1560.009442
 30
0.0
 11
465.817259
 21
1560.009442
 31
0.0
  0
ARC
  5
27C
100
AcDbEntity
  8
ﾀﾝｸ
  6
CONTINUOUS
 62
     6
100
AcDbCircle
 10
475.147284
 20
1524.509442
 30
0.0
 40
60.0
100
AcDbArc
 50
81.76886
 51
120.066113
  0
LINE
  5
27D
100
AcDbEntity
  8
ﾀﾝｸ
  6
CONTINUOUS
 62
     6
100
AcDbLine
 10
466.881875
 20
1556.509442
 30
0.0
 11
483.412693
 21
1556.509442
 31
0.0
  0
ARC
  5
27E
100
AcDbEntity
  8
ﾀﾝｸ
  6
CONTINUOUS
 62
     6
100
AcDbCircle
 10
475.147284
 20
1524.509442
 30
0.0
 40
57.5
100
AcDbArc
 50
89.777871
 51
121.83843
  0
LINE
  5
27F
100
AcDbEntity
  8
ﾀﾝｸ
  6
CONTINUOUS
 62
     6
100
AcDbLine
 10
464.901976
 20
1558.2266
 30
0.0
 11
464.734551
 21
1559.398578
 31
0.0
  0
ARC
  5
280
100
AcDbEntity
  8
ﾀﾝｸ
  6
CONTINUOUS
 62
     6
100
AcDbCircle
 10
462.754652
 20
1559.115735
 30
0.0
 40
2.0
100
AcDbArc
 50
8.130102
 51
129.231641
  0
ARC
  5
281
100
AcDbEntity
  8
ﾀﾝｸ
  6
CONTINUOUS
 62
     6
100
AcDbCircle
 10
466.881875
 20
1558.509442
 30
0.0
 40
2.0
100
AcDbArc
 50
188.130102
 51
270.0
  0
ARC
  5
282
100
AcDbEntity
  8
ﾀﾝｸ
  6
CONTINUOUS
 62
     6
100
AcDbCircle
 10
483.307794
 20
1580.922261
 30
0.0
 40
3.0
100
AcDbArc
 50
26.333143
 51
81.768861
  0
ARC
  5
283
100
AcDbEntity
  8
ﾀﾝｸ
  6
CONTINUOUS
 62
     6
100
AcDbCircle
 10
488.475711
 20
1558.595229
 30
0.0
 40
3.0
100
AcDbArc
 50
135.0
 51
171.869898
  0
LINE
  5
284
100
AcDbEntity
  8
ﾀﾝｸ
  6
CONTINUOUS
 62
     6
100
AcDbLine
 10
485.505863
 20
1559.019493
 30
0.0
 11
485.392592
 21
1558.2266
 31
0.0
  0
ARC
  5
285
100
AcDbEntity
  8
ﾀﾝｸ
  6
CONTINUOUS
 62
     6
100
AcDbCircle
 10
483.412693
 20
1558.509442
 30
0.0
 40
2.0
100
AcDbArc
 50
270.0
 51
351.869898
  0
ARC
  5
286
100
AcDbEntity
  8
ﾀﾝｸ
  6
CONTINUOUS
 62
     6
100
AcDbCircle
 10
488.138445
 20
1565.32903
 30
0.0
 40
2.0
100
AcDbArc
 50
315.0
 51
1.235857
  0
ARC
  5
287
100
AcDbEntity
  8
ﾀﾝｸ
  6
CONTINUOUS
 62
     6
100
AcDbCircle
 10
450.147284
 20
1564.509442
 30
0.0
 40
40.0
100
AcDbArc
 50
1.235857
 51
26.33315
  0
LINE
  5
288
100
AcDbEntity
  8
ﾀﾝｸ
  6
CONTINUOUS
 62
     6
100
AcDbLine
 10
489.552658
 20
1563.914816
 30
0.0
 11
486.354391
 21
1560.716549
 31
0.0
  0
LINE
  5
289
100
AcDbEntity
  8
ﾀﾝｸ
  6
CONTINUOUS
 62
     7
100
AcDbLine
 10
573.086874
 20
1393.000962
 30
0.0
 11
353.0
 21
1393.000962
 31
0.0
  0
ARC
  5
28A
100
AcDbEntity
  8
ﾀﾝｸ
  6
CONTINUOUS
 62
     7
100
AcDbCircle
 10
353.0
 20
1395.000962
 30
0.0
 40
2.0
100
AcDbArc
 50
184.34065
 51
270.0
  0
ARC
  5
28B
100
AcDbEntity
  8
ﾀﾝｸ
  6
CONTINUOUS
 62
     7
100
AcDbCircle
 10
355.147779
 20
1476.000962
 30
0.0
 40
7.0
100
AcDbArc
 50
41.151029
 51
182.020057
  0
LINE
  5
28C
100
AcDbEntity
  8
ﾀﾝｸ
  6
CONTINUOUS
 62
     7
100
AcDbLine
 10
369.108564
 20
1475.705861
 30
0.0
 11
412.594134
 21
1468.038182
 31
0.0
  0
ARC
  5
28D
100
AcDbEntity
  8
ﾀﾝｸ
  6
CONTINUOUS
 62
     7
100
AcDbCircle
 10
371.713286
 20
1490.477977
 30
0.0
 40
15.0
100
AcDbArc
 50
221.151029
 51
260.0
  0
ARC
  5
28E
100
AcDbEntity
  8
ﾀﾝｸ
  6
CONTINUOUS
 62
     7
100
AcDbCircle
 10
1348.133054
 20
1470.593322
 30
0.0
 40
1000.0
100
AcDbArc
 50
179.687979
 51
184.343963
  0
ARC
  5
28F
100
AcDbEntity
  8
ﾀﾝｸ
  6
CONTINUOUS
 62
     7
100
AcDbCircle
 10
355.257225
 20
1465.11141
 30
0.0
 40
7.0
100
AcDbArc
 50
80.400406
 51
180.890017
  0
ARC
  5
290
100
AcDbEntity
  8
ﾀﾝｸ
  6
CONTINUOUS
 62
     7
100
AcDbCircle
 10
409.989411
 20
1453.266065
 30
0.0
 40
15.0
100
AcDbArc
 50
29.955217
 51
80.0
  0
LINE
  5
291
100
AcDbEntity
  8
ﾀﾝｸ
  6
CONTINUOUS
 62
     7
100
AcDbLine
 10
356.424558
 20
1472.013391
 30
0.0
 11
554.604245
 21
1438.495249
 31
0.0
  0
ARC
  5
292
100
AcDbEntity
  8
ﾀﾝｸ
  6
CONTINUOUS
 62
     7
100
AcDbCircle
 10
563.870023
 20
1431.000962
 30
0.0
 40
7.0
100
AcDbArc
 50
1.139224
 51
90.0
  0
ARC
  5
293
100
AcDbEntity
  8
ﾀﾝｸ
  6
CONTINUOUS
 62
     7
100
AcDbCircle
 10
73.181775
 20
1383.259738
 30
0.0
 40
500.0
100
AcDbArc
 50
1.116333
 51
5.525772
  0
LINE
  5
294
100
AcDbEntity
  8
ﾀﾝｸ
  6
CONTINUOUS
 62
     7
100
AcDbLine
 10
563.870023
 20
1438.000962
 30
0.0
 11
561.725212
 21
1438.000962
 31
0.0
  0
ARC
  5
295
100
AcDbEntity
  8
ﾀﾝｸ
  6
CONTINUOUS
 62
     7
100
AcDbCircle
 10
561.725212
 20
1488.000962
 30
0.0
 40
50.0
100
AcDbArc
 50
261.815075
 51
270.0
  0
LINE
  5
296
100
AcDbEntity
  8
ﾀﾝｸ
  6
CONTINUOUS
 62
     6
100
AcDbLine
 10
650.09837
 20
1460.137626
 30
0.0
 11
1076.143187
 21
1460.137626
 31
0.0
  0
ARC
  5
297
100
AcDbEntity
  8
ﾀﾝｸ
  6
CONTINUOUS
 62
     7
100
AcDbCircle
 10
10375.665104
 20
1287.561359
 30
0.0
 40
10010.0
100
AcDbArc
 50
179.758695
 51
181.619491
  0
ARC
  5
298
100
AcDbEntity
  8
ﾀﾝｸ
  6
CONTINUOUS
 62
     7
100
AcDbCircle
 10
11405.748931
 20
1580.132562
 30
0.0
 40
10000.0
100
AcDbArc
 50
181.072249
 51
181.63932
  0
ARC
  5
299
100
AcDbEntity
  8
ﾀﾝｸ
  6
CONTINUOUS
 62
     7
100
AcDbCircle
 10
-8159.748931
 20
1580.132562
 30
0.0
 40
10000.0
100
AcDbArc
 50
358.36068
 51
358.927751
  0
ARC
  5
29A
100
AcDbEntity
  8
ﾀﾝｸ
  6
CONTINUOUS
 62
     6
100
AcDbCircle
 10
1890.733362
 20
1347.762429
 30
0.0
 40
30.0
100
AcDbArc
 50
180.0
 51
206.603699
  0
ARC
  5
29B
100
AcDbEntity
  8
ﾀﾝｸ
  6
CONTINUOUS
 62
     6
100
AcDbCircle
 10
1829.556452
 20
1348.000729
 30
0.0
 40
36.0
100
AcDbArc
 50
9.493713
 51
25.944489
  0
LINE
  5
29C
100
AcDbEntity
  8
ﾀﾝｸ
  6
CONTINUOUS
 62
     6
100
AcDbLine
 10
1864.494212
 20
1298.000729
 30
0.0
 11
1844.556472
 21
1298.000729
 31
0.0
  0
LINE
  5
29D
100
AcDbEntity
  8
ﾀﾝｸ
  6
CONTINUOUS
 62
     6
100
AcDbLine
 10
1845.056472
 20
1321.265749
 30
0.0
 11
1845.056472
 21
1298.000729
 31
0.0
  0
LINE
  5
29E
100
AcDbEntity
  8
ﾀﾝｸ
  6
CONTINUOUS
 62
     6
100
AcDbLine
 10
1844.556472
 20
1318.116909
 30
0.0
 11
1844.556472
 21
1298.000729
 31
0.0
  0
LINE
  5
29F
100
AcDbEntity
  8
ﾀﾝｸ
  6
CONTINUOUS
 62
     6
100
AcDbLine
 10
1858.331442
 20
1366.000729
 30
0.0
 11
1839.556452
 21
1366.000729
 31
0.0
  0
ARC
  5
2A0
100
AcDbEntity
  8
ﾀﾝｸ
  6
CONTINUOUS
 62
     6
100
AcDbCircle
 10
1821.056422
 20
1321.265749
 30
0.0
 40
24.0
100
AcDbArc
 50
0.0
 51
37.658508
  0
ARC
  5
2A1
100
AcDbEntity
  8
ﾀﾝｸ
  6
CONTINUOUS
 62
     6
100
AcDbCircle
 10
1820.556472
 20
1316.890889
 30
0.0
 40
24.0
100
AcDbArc
 50
0.0
 51
35.659302
  0
LINE
  5
2A2
100
AcDbEntity
  8
ﾀﾝｸ
  6
CONTINUOUS
 62
     6
100
AcDbLine
 10
1839.556452
 20
1366.000729
 30
0.0
 11
1839.556452
 21
1330.000729
 31
0.0
  0
LINE
  5
2A3
100
AcDbEntity
  8
ﾀﾝｸ
  6
CONTINUOUS
 62
     6
100
AcDbLine
 10
1839.556452
 20
1330.000729
 30
0.0
 11
1840.659502
 21
1330.000729
 31
0.0
  0
LINE
  5
2A4
100
AcDbEntity
  8
ﾀﾝｸ
  6
CONTINUOUS
 62
     6
100
AcDbLine
 10
1839.556452
 20
1331.750729
 30
0.0
 11
1837.556452
 21
1331.750729
 31
0.0
  0
LINE
  5
2A5
100
AcDbEntity
  8
ﾀﾝｸ
  6
CONTINUOUS
 62
     6
100
AcDbLine
 10
1839.556452
 20
1364.250729
 30
0.0
 11
1837.556442
 21
1364.250729
 31
0.0
  0
LINE
  5
2A6
100
AcDbEntity
  8
ﾀﾝｸ
  6
CONTINUOUS
 62
     6
100
AcDbLine
 10
1839.556452
 20
1350.500729
 30
0.0
 11
1839.556452
 21
1345.500729
 31
0.0
  0
ARC
  5
2A7
100
AcDbEntity
  8
ﾀﾝｸ
  6
CONTINUOUS
 62
     6
100
AcDbCircle
 10
1858.331442
 20
1362.000729
 30
0.0
 40
4.0
100
AcDbArc
 50
25.944489
 51
90.0
  0
LINE
  5
2A8
100
AcDbEntity
  8
ﾀﾝｸ
  6
CONTINUOUS
 62
     6
100
AcDbLine
 10
1860.733362
 20
1365.199289
 30
0.0
 11
1860.733362
 21
1347.762429
 31
0.0
  0
LINE
  5
2A9
100
AcDbEntity
  8
ﾀﾝｸ
  6
CONTINUOUS
 62
     6
100
AcDbLine
 10
1866.556472
 20
1323.132499
 30
0.0
 11
1866.556472
 21
1298.573329
 31
0.0
  0
ARC
  5
2AA
100
AcDbEntity
  8
ﾀﾝｸ
  6
CONTINUOUS
 62
     6
100
AcDbCircle
 10
1511.251702
 20
1287.518619
 30
0.0
 40
360.0
100
AcDbArc
 50
3.653961
 51
8.72937
  0
ARC
  5
2AB
100
AcDbEntity
  8
ﾀﾝｸ
  6
CONTINUOUS
 62
     6
100
AcDbCircle
 10
1864.494212
 20
1302.000729
 30
0.0
 40
4.0
100
AcDbArc
 50
270.0
 51
328.506104
  0
ARC
  5
2AC
100
AcDbEntity
  8
ﾀﾝｸ
  6
CONTINUOUS
 62
     6
100
AcDbCircle
 10
1852.556472
 20
1309.314439
 30
0.0
 40
18.0
100
AcDbArc
 50
328.506104
 51
3.653961
  0
ARC
  5
2AD
100
AcDbEntity
  8
ﾀﾝｸ
  6
CONTINUOUS
 62
     6
100
AcDbCircle
 10
1894.166722
 20
1353.913109
 30
0.0
 40
29.24737
100
AcDbArc
 50
182.519958
 51
188.557007
  0
ARC
  5
2AE
100
AcDbEntity
  8
ﾀﾝｸ
  6
CONTINUOUS
 62
     6
100
AcDbCircle
 10
1869.942802
 20
1352.847029
 30
0.0
 40
5.0
100
AcDbArc
 50
167.391174
 51
182.519958
  0
ARC
  5
2AF
100
AcDbEntity
  8
ﾀﾝｸ
  6
CONTINUOUS
 62
     6
100
AcDbCircle
 10
1871.192952
 20
1344.997039
 30
0.0
 40
5.0
100
AcDbArc
 50
192.857056
 51
214.698669
  0
ARC
  5
2B0
100
AcDbEntity
  8
ﾀﾝｸ
  6
CONTINUOUS
 62
     6
100
AcDbCircle
 10
1511.251702
 20
1287.518619
 30
0.0
 40
360.0
100
AcDbArc
 50
8.72937
 51
10.635132
  0
ARC
  5
2B1
100
AcDbEntity
  8
ﾀﾝｸ
  6
CONTINUOUS
 62
     6
100
AcDbCircle
 10
1941.387802
 20
1361.018379
 30
0.0
 40
77.0
100
AcDbArc
 50
188.557007
 51
192.856995
  0
ARC
  5
2B2
100
AcDbEntity
  8
ﾀﾝｸ
  6
CONTINUOUS
 62
     6
100
AcDbCircle
 10
1841.556472
 20
1323.132499
 30
0.0
 40
25.0
100
AcDbArc
 50
0.0
 51
26.603699
  0
ARC
  5
2B3
100
AcDbEntity
  8
ﾀﾝｸ
  6
CONTINUOUS
 62
     6
100
AcDbCircle
 10
1623.0
 20
-954.404648
 30
0.0
 40
2432.405376
100
AcDbArc
 50
85.120057
 51
89.520954
  0
ARC
  5
2B4
100
AcDbEntity
  8
ﾀﾝｸ
  6
CONTINUOUS
 62
     7
100
AcDbCircle
 10
1623.0
 20
-74.203497
 30
0.0
 40
1557.204226
100
AcDbArc
 50
82.351512
 51
89.25521
  0
ARC
  5
2B5
100
AcDbEntity
  8
ﾀﾝｸ
  6
CONTINUOUS
 62
     6
100
AcDbCircle
 10
1623.0
 20
-954.404648
 30
0.0
 40
2432.405376
100
AcDbArc
 50
90.479046
 51
94.879943
  0
ARC
  5
2B6
100
AcDbEntity
  8
ﾀﾝｸ
  6
CONTINUOUS
 62
     7
100
AcDbCircle
 10
1623.0
 20
-74.203497
 30
0.0
 40
1557.204226
100
AcDbArc
 50
90.74479
 51
97.648488
  0
ARC
  5
2B7
100
AcDbEntity
  8
ﾀﾝｸ
  6
CONTINUOUS
 62
     6
100
AcDbCircle
 10
1465.675281
 20
1143.068279
 30
0.0
 40
322.93245
100
AcDbArc
 50
90.0
 51
95.13294
  0
ARC
  5
2B8
100
AcDbEntity
  8
ﾀﾝｸ
  6
CONTINUOUS
 62
     6
100
AcDbCircle
 10
1437.499243
 20
1456.737785
 30
0.0
 40
8.0
100
AcDbArc
 50
95.13294
 51
174.381751
  0
LINE
  5
2B9
100
AcDbEntity
  8
ﾀﾝｸ
  6
CONTINUOUS
 62
     6
100
AcDbLine
 10
1641.749996
 20
1560.360351
 30
0.0
 11
1643.471257
 21
1470.937885
 31
0.0
  0
LINE
  5
2BA
100
AcDbEntity
  8
ﾀﾝｸ
  6
CONTINUOUS
 62
     6
100
AcDbLine
 10
1604.249996
 20
1560.360351
 30
0.0
 11
1602.528743
 21
1470.937885
 31
0.0
  0
ARC
  5
2BB
100
AcDbEntity
  8
ﾀﾝｸ
  6
CONTINUOUS
 62
     6
100
AcDbCircle
 10
1623.0
 20
1552.897582
 30
0.0
 40
84.477597
100
AcDbArc
 50
255.976039
 51
284.023961
  0
ARC
  5
2BC
100
AcDbEntity
  8
ﾀﾝｸ
  6
CONTINUOUS
 62
     6
100
AcDbCircle
 10
1606.810841
 20
1566.509209
 30
0.0
 40
2.0
100
AcDbArc
 50
171.325865
 51
270.0
  0
ARC
  5
2BD
100
AcDbEntity
  8
ﾀﾝｸ
  6
CONTINUOUS
 62
     6
100
AcDbCircle
 10
1654.261808
 20
1559.270111
 30
0.0
 40
49.999988
100
AcDbArc
 50
153.518814
 51
171.325865
  0
ARC
  5
2BE
100
AcDbEntity
  8
ﾀﾝｸ
  6
CONTINUOUS
 62
     6
100
AcDbCircle
 10
1654.261808
 20
1559.270111
 30
0.0
 40
49.999988
100
AcDbArc
 50
171.325865
 51
178.75058
  0
LINE
  5
2BF
100
AcDbEntity
  8
ﾀﾝｸ
  6
CONTINUOUS
 62
     6
100
AcDbLine
 10
1629.524271
 20
1583.792136
 30
0.0
 11
1626.283296
 21
1583.866524
 31
0.0
  0
LINE
  5
2C0
100
AcDbEntity
  8
ﾀﾝｸ
  6
CONTINUOUS
 62
     6
100
AcDbLine
 10
1613.5
 20
1560.009209
 30
0.0
 11
1632.330025
 21
1560.009209
 31
0.0
  0
LINE
  5
2C1
100
AcDbEntity
  8
ﾀﾝｸ
  6
CONTINUOUS
 62
     6
100
AcDbLine
 10
1639.212864
 20
1564.509209
 30
0.0
 11
1606.810841
 21
1564.509209
 31
0.0
  0
LINE
  5
2C2
100
AcDbEntity
  8
ﾀﾝｸ
  6
CONTINUOUS
 62
     6
100
AcDbLine
 10
1631.265409
 20
1556.509209
 30
0.0
 11
1614.734591
 21
1556.509209
 31
0.0
  0
LINE
  5
2C3
100
AcDbEntity
  8
ﾀﾝｸ
  6
CONTINUOUS
 62
     6
100
AcDbLine
 10
1623.011808
 20
1583.891124
 30
0.0
 11
1619.743383
 21
1583.866324
 31
0.0
  0
LINE
  5
2C4
100
AcDbEntity
  8
ﾀﾝｸ
  6
CONTINUOUS
 62
     6
100
AcDbLine
 10
1626.283296
 20
1583.866524
 30
0.0
 11
1623.011808
 21
1583.891124
 31
0.0
  0
LINE
  5
2C5
100
AcDbEntity
  8
ﾀﾝｸ
  6
CONTINUOUS
 62
     6
100
AcDbLine
 10
1616.499358
 20
1583.792324
 30
0.0
 11
1613.307221
 21
1583.669111
 31
0.0
  0
ARC
  5
2C6
100
AcDbEntity
  8
ﾀﾝｸ
  6
CONTINUOUS
 62
     6
100
AcDbCircle
 10
1609.671573
 20
1558.594995
 30
0.0
 40
3.0
100
AcDbArc
 50
8.130102
 51
45.0
  0
LINE
  5
2C7
100
AcDbEntity
  8
ﾀﾝｸ
  6
CONTINUOUS
 62
     6
100
AcDbLine
 10
1612.641421
 20
1559.019259
 30
0.0
 11
1612.754692
 21
1558.226366
 31
0.0
  0
LINE
  5
2C8
100
AcDbEntity
  8
ﾀﾝｸ
  6
CONTINUOUS
 62
     6
100
AcDbLine
 10
1608.594626
 20
1563.914583
 30
0.0
 11
1611.792893
 21
1560.716315
 31
0.0
  0
ARC
  5
2C9
100
AcDbEntity
  8
ﾀﾝｸ
  6
CONTINUOUS
 62
     6
100
AcDbCircle
 10
1612.864721
 20
1579.893124
 30
0.0
 40
3.750088
100
AcDbArc
 50
92.845428
 51
153.521011
  0
LINE
  5
2CA
100
AcDbEntity
  8
ﾀﾝｸ
  6
CONTINUOUS
 62
     6
100
AcDbLine
 10
1613.307221
 20
1583.669111
 30
0.0
 11
1613.096658
 21
1583.659186
 31
0.0
  0
LINE
  5
2CB
100
AcDbEntity
  8
ﾀﾝｸ
  6
CONTINUOUS
 62
     6
100
AcDbLine
 10
1613.096658
 20
1583.659186
 30
0.0
 11
1612.889133
 21
1583.649086
 31
0.0
  0
LINE
  5
2CC
100
AcDbEntity
  8
ﾀﾝｸ
  6
CONTINUOUS
 62
     6
100
AcDbLine
 10
1612.889133
 20
1583.649086
 30
0.0
 11
1612.678558
 21
1583.638786
 31
0.0
  0
ARC
  5
2CD
100
AcDbEntity
  8
ﾀﾝｸ
  6
CONTINUOUS
 62
     6
100
AcDbCircle
 10
1614.734591
 20
1558.509209
 30
0.0
 40
2.0
100
AcDbArc
 50
188.130102
 51
270.0
  0
LINE
  5
2CE
100
AcDbEntity
  8
ﾀﾝｸ
  6
CONTINUOUS
 62
     6
100
AcDbLine
 10
1619.743383
 20
1583.866324
 30
0.0
 11
1616.499358
 21
1583.792324
 31
0.0
  0
ARC
  5
2CF
100
AcDbEntity
  8
ﾀﾝｸ
  6
CONTINUOUS
 62
     6
100
AcDbCircle
 10
1591.761808
 20
1559.270111
 30
0.0
 40
50.000075
100
AcDbArc
 50
8.674119
 51
26.481186
  0
LINE
  5
2D0
100
AcDbEntity
  8
ﾀﾝｸ
  6
CONTINUOUS
 62
     6
100
AcDbLine
 10
1637.405374
 20
1563.914583
 30
0.0
 11
1634.207107
 21
1560.716315
 31
0.0
  0
ARC
  5
2D1
100
AcDbEntity
  8
ﾀﾝｸ
  6
CONTINUOUS
 62
     6
100
AcDbCircle
 10
1591.761808
 20
1559.270111
 30
0.0
 40
50.000075
100
AcDbArc
 50
1.24942
 51
8.674119
  0
ARC
  5
2D2
100
AcDbEntity
  8
ﾀﾝｸ
  6
CONTINUOUS
 62
     6
100
AcDbCircle
 10
1639.212864
 20
1566.509209
 30
0.0
 40
2.0
100
AcDbArc
 50
270.0
 51
8.674119
  0
LINE
  5
2D3
100
AcDbEntity
  8
ﾀﾝｸ
  6
CONTINUOUS
 62
     6
100
AcDbLine
 10
1632.719458
 20
1583.669111
 30
0.0
 11
1629.524271
 21
1583.792136
 31
0.0
  0
LINE
  5
2D4
100
AcDbEntity
  8
ﾀﾝｸ
  6
CONTINUOUS
 62
     6
100
AcDbLine
 10
1633.245308
 20
1558.226366
 30
0.0
 11
1633.412734
 21
1559.398344
 31
0.0
  0
LINE
  5
2D5
100
AcDbEntity
  8
ﾀﾝｸ
  6
CONTINUOUS
 62
     6
100
AcDbLine
 10
1633.345071
 20
1583.638586
 30
0.0
 11
1633.134496
 21
1583.648886
 31
0.0
  0
LINE
  5
2D6
100
AcDbEntity
  8
ﾀﾝｸ
  6
CONTINUOUS
 62
     6
100
AcDbLine
 10
1633.134496
 20
1583.648886
 30
0.0
 11
1632.926971
 21
1583.658999
 31
0.0
  0
LINE
  5
2D7
100
AcDbEntity
  8
ﾀﾝｸ
  6
CONTINUOUS
 62
     6
100
AcDbLine
 10
1632.926971
 20
1583.658999
 30
0.0
 11
1632.719458
 21
1583.669111
 31
0.0
  0
ARC
  5
2D8
100
AcDbEntity
  8
ﾀﾝｸ
  6
CONTINUOUS
 62
     6
100
AcDbCircle
 10
1636.328427
 20
1558.594995
 30
0.0
 40
3.0
100
AcDbArc
 50
135.0
 51
171.869898
  0
ARC
  5
2D9
100
AcDbEntity
  8
ﾀﾝｸ
  6
CONTINUOUS
 62
     6
100
AcDbCircle
 10
1633.158908
 20
1579.893124
 30
0.0
 40
3.749925
100
AcDbArc
 50
26.479034
 51
87.154572
  0
ARC
  5
2DA
100
AcDbEntity
  8
ﾀﾝｸ
  6
CONTINUOUS
 62
     6
100
AcDbCircle
 10
1631.265409
 20
1558.509209
 30
0.0
 40
2.0
100
AcDbArc
 50
270.0
 51
351.869898
  0
ARC
  5
2DB
100
AcDbEntity
  8
ﾀﾝｸ
  6
CONTINUOUS
 62
     6
100
AcDbCircle
 10
1808.500757
 20
1456.737785
 30
0.0
 40
8.0
100
AcDbArc
 50
5.618249
 51
84.86706
  0
ARC
  5
2DC
100
AcDbEntity
  8
ﾀﾝｸ
  6
CONTINUOUS
 62
     6
100
AcDbCircle
 10
1780.324719
 20
1143.068279
 30
0.0
 40
322.93245
100
AcDbArc
 50
84.86706
 51
90.0
  0
LINE
  5
2DD
100
AcDbEntity
  8
ﾀﾝｸ
  6
CONTINUOUS
 62
     7
100
AcDbLine
 10
1832.057671
 20
1438.000729
 30
0.0
 11
1414.195174
 21
1438.000729
 31
0.0
  0
ARC
  5
2DE
100
AcDbEntity
  8
ﾀﾝｸ
  6
CONTINUOUS
 62
     7
100
AcDbCircle
 10
1414.195174
 20
1431.000729
 30
0.0
 40
7.0
100
AcDbArc
 50
90.0
 51
176.351655
  0
ARC
  5
2DF
100
AcDbEntity
  8
ﾀﾝｸ
  6
CONTINUOUS
 62
     7
100
AcDbCircle
 10
2405.182753
 20
1367.813553
 30
0.0
 40
1000.0
100
AcDbArc
 50
174.559289
 51
178.556728
  0
ARC
  5
2E0
100
AcDbEntity
  8
ﾀﾝｸ
  6
CONTINUOUS
 62
     7
100
AcDbCircle
 10
1416.67528
 20
1462.208964
 30
0.0
 40
7.0
100
AcDbArc
 50
94.879943
 51
176.558009
  0
ARC
  5
2E1
100
AcDbEntity
  8
ﾀﾝｸ
  6
CONTINUOUS
 62
     6
100
AcDbCircle
 10
2424.733941
 20
1359.621099
 30
0.0
 40
1000.0
100
AcDbArc
 50
174.381751
 51
175.504567
  0
ARC
  5
2E2
100
AcDbEntity
  8
ﾀﾝｸ
  6
CONTINUOUS
 62
     6
100
AcDbCircle
 10
821.266059
 20
1359.621099
 30
0.0
 40
1000.0
100
AcDbArc
 50
4.495433
 51
5.618249
  0
ARC
  5
2E3
100
AcDbEntity
  8
ﾀﾝｸ
  6
CONTINUOUS
 62
     7
100
AcDbCircle
 10
1831.804826
 20
1431.000729
 30
0.0
 40
7.0
100
AcDbArc
 50
3.648345
 51
90.0
  0
ARC
  5
2E4
100
AcDbEntity
  8
ﾀﾝｸ
  6
CONTINUOUS
 62
     7
100
AcDbCircle
 10
840.817247
 20
1367.813553
 30
0.0
 40
1000.0
100
AcDbArc
 50
1.443272
 51
5.440711
  0
ARC
  5
2E5
100
AcDbEntity
  8
ﾀﾝｸ
  6
CONTINUOUS
 62
     7
100
AcDbCircle
 10
1829.32472
 20
1462.208964
 30
0.0
 40
7.0
100
AcDbArc
 50
3.441991
 51
85.120057
  0
LINE
  5
2E6
100
AcDbEntity
  8
ﾀﾝｸ
  6
CONTINUOUS
 62
     7
100
AcDbLine
 10
1405.5
 20
1393.000729
 30
0.0
 11
1840.5
 21
1393.000729
 31
0.0
  0
LINE
  5
2E7
100
AcDbEntity
  8
ﾀﾝｸ
  6
CONTINUOUS
 62
     6
100
AcDbLine
 10
1783.384903
 20
1466.000729
 30
0.0
 11
1465.675281
 21
1466.000729
 31
0.0
  0
ARC
  5
2E8
100
AcDbEntity
  8
ﾀﾝｸ
  6
CONTINUOUS
 62
     7
100
AcDbCircle
 10
3109.14597
 20
1342.689287
 30
0.0
 40
1700.0
100
AcDbArc
 50
181.63932
 51
191.327768
  0
ARC
  5
2E9
100
AcDbEntity
  8
ﾀﾝｸ
  6
CONTINUOUS
 62
     7
100
AcDbCircle
 10
136.85403
 20
1342.689287
 30
0.0
 40
1700.0
100
AcDbArc
 50
348.672232
 51
358.36068
  0
TEXT
  5
2EA
100
AcDbEntity
  8
ﾀﾝｸ
  6
CONTINUOUS
 62
     2
100
AcDbText
 10
661.161433
 20
1464.153125
 30
0.0
 40
40.0
  1
ＳＴ７８ＦＵ－１ＡＥ０Ｄ
 41
0.728
  7
EXCADSTD
 72
     5
 11
1077.161409
 21
1464.153125
 31
0.0
100
AcDbText
  0
LINE
  5
2EB
100
AcDbEntity
  8
ﾀﾝｸ
  6
CONTINUOUS
 62
     6
100
AcDbLine
 10
927.015242
 20
1117.110459
 30
0.0
 11
1162.916872
 21
1117.110459
 31
0.0
  0
TEXT
  5
2EC
100
AcDbEntity
  8
ﾀﾝｸ
  6
CONTINUOUS
 62
     2
100
AcDbText
 10
934.078306
 20
1121.125958
 30
0.0
 40
40.0
  1
ＮＣ８２２Ｗ
 41
0.805
  7
EXCADSTD
 72
     5
 11
1164.078305
 21
1121.125958
 31
0.0
100
AcDbText
  0
LEADER
  5
2ED
100
AcDbEntity
  8
止水栓
  6
CONTINUOUS
 62
     6
100
AcDbLeader
  3
STANDARD
 73
     3
 74
     1
 75
     0
 40
0.0
 76
     2
 10
422.7
 20
605.160004
 30
0.0
 10
307.143187
 20
525.777151
 30
0.0
 77
     6
1001
ACAD
1000
DSTYLE
1002
{
1070
    41
1040
35.0
1070
     5
1000
_EX_NORM
1070
     6
1000
_EX_NORM
1070
     7
1000
_EX_NORM
1070
   341
1005
2D
1002
}
  0
LINE
  5
2EE
100
AcDbEntity
  8
止水栓
  6
CONTINUOUS
 62
     6
100
AcDbLine
 10
411.773296
 20
989.500732
 30
0.0
 11
426.510023
 21
724.435856
 31
0.0
  0
LINE
  5
2EF
100
AcDbEntity
  8
止水栓
  6
CONTINUOUS
 62
     6
100
AcDbLine
 10
441.283334
 20
989.500732
 30
0.0
 11
395.283334
 21
989.500732
 31
0.0
  0
LINE
  5
2F0
100
AcDbEntity
  8
止水栓
  6
CONTINUOUS
 62
     6
100
AcDbLine
 10
394.283334
 20
990.500732
 30
0.0
 11
394.283334
 21
993.000732
 31
0.0
  0
ARC
  5
2F1
100
AcDbEntity
  8
止水栓
  6
CONTINUOUS
 62
     6
100
AcDbCircle
 10
395.283334
 20
990.500732
 30
0.0
 40
1.0
100
AcDbArc
 50
180.0
 51
270.0
  0
LINE
  5
2F2
100
AcDbEntity
  8
止水栓
  6
CONTINUOUS
 62
     6
100
AcDbLine
 10
442.283334
 20
990.500732
 30
0.0
 11
442.283334
 21
993.000732
 31
0.0
  0
ARC
  5
2F3
100
AcDbEntity
  8
止水栓
  6
CONTINUOUS
 62
     6
100
AcDbCircle
 10
441.283334
 20
990.500732
 30
0.0
 40
1.0
100
AcDbArc
 50
270.0
 51
0.0
  0
TEXT
  5
2F4
100
AcDbEntity
  8
止水栓
  6
CONTINUOUS
 62
     2
100
AcDbText
 10
283.101022
 20
529.177151
 30
0.0
 40
25.0
  1
２
 41
0.84
  7
EXCADSTD
 72
     5
 11
303.101022
 21
529.177151
 31
0.0
100
AcDbText
  0
TEXT
  5
2F5
100
AcDbEntity
  8
止水栓
  6
CONTINUOUS
 62
     6
100
AcDbText
 10
262.501022
 20
529.277151
 30
0.0
 40
40.0
  1
／ 
 41
0.945
  7
EXCADSTD
 72
     5
 11
298.501022
 21
529.277151
 31
0.0
100
AcDbText
  0
TEXT
  5
2F6
100
AcDbEntity
  8
止水栓
  6
CONTINUOUS
 62
     2
100
AcDbText
 10
216.001022
 20
529.277151
 30
0.0
 40
40.0
  1
Ｒ
 41
0.945
  7
EXCADSTD
 72
     5
 11
252.001022
 21
529.277151
 31
0.0
100
AcDbText
  0
TEXT
  5
2F7
100
AcDbEntity
  8
止水栓
  6
CONTINUOUS
 62
     2
100
AcDbText
 10
252.501022
 20
544.477151
 30
0.0
 40
25.0
  1
１
 41
0.84
  7
EXCADSTD
 72
     5
 11
272.501022
 21
544.477151
 31
0.0
100
AcDbText
  0
LINE
  5
2F8
100
AcDbEntity
  8
止水栓
  6
CONTINUOUS
 62
     6
100
AcDbLine
 10
307.143187
 20
525.777151
 30
0.0
 11
220.143187
 21
525.777151
 31
0.0
  0
LINE
  5
2F9
100
AcDbEntity
  8
止水栓
  6
EXLTYPE3
 62
     1
100
AcDbLine
 10
316.0
 20
2137.000004
 30
0.0
 11
459.0
 21
2137.000004
 31
0.0
  0
LINE
  5
2FA
100
AcDbEntity
  8
止水栓
  6
CONTINUOUS
 62
     6
100
AcDbLine
 10
442.316444
 20
2157.000004
 30
0.0
 11
443.530143
 21
2154.897787
 31
0.0
  0
LINE
  5
2FB
100
AcDbEntity
  8
止水栓
  6
CONTINUOUS
 62
     6
100
AcDbLine
 10
443.478444
 20
2157.000004
 30
0.0
 11
422.523444
 21
2157.000004
 31
0.0
  0
LINE
  5
2FC
100
AcDbEntity
  8
止水栓
  6
CONTINUOUS
 62
     6
100
AcDbLine
 10
423.685444
 20
2157.000004
 30
0.0
 11
422.471746
 21
2154.897787
 31
0.0
  0
LINE
  5
2FD
100
AcDbEntity
  8
止水栓
  6
CONTINUOUS
 62
     6
100
AcDbLine
 10
422.523444
 20
2150.144185
 30
0.0
 11
422.523444
 21
2161.000004
 31
0.0
  0
LINE
  5
2FE
100
AcDbEntity
  8
止水栓
  6
CONTINUOUS
 62
     6
100
AcDbLine
 10
423.685444
 20
2161.000004
 30
0.0
 11
423.685444
 21
2157.000004
 31
0.0
  0
LINE
  5
2FF
100
AcDbEntity
  8
止水栓
  6
CONTINUOUS
 62
     6
100
AcDbLine
 10
442.316444
 20
2161.000004
 30
0.0
 11
442.316444
 21
2157.000004
 31
0.0
  0
LINE
  5
300
100
AcDbEntity
  8
止水栓
  6
CONTINUOUS
 62
     6
100
AcDbLine
 10
443.478444
 20
2150.144185
 30
0.0
 11
443.478444
 21
2160.774174
 31
0.0
  0
POLYLINE
  5
301
100
AcDbEntity
  8
止水栓
  6
CONTINUOUS
 62
     6
100
AcDb2dPolyline
 66
     1
 10
0.0
 20
0.0
 30
0.0
 70
   128
  0
VERTEX
  5
302
100
AcDbEntity
  8
止水栓
  6
CONTINUOUS
 62
     6
100
AcDbVertex
100
AcDb2dVertex
 10
438.858641
 20
2167.223148
 30
0.0
  0
VERTEX
  5
303
100
AcDbEntity
  8
止水栓
  6
CONTINUOUS
 62
     6
100
AcDbVertex
100
AcDb2dVertex
 10
438.836668
 20
2167.706547
 30
0.0
  0
VERTEX
  5
304
100
AcDbEntity
  8
止水栓
  6
CONTINUOUS
 62
     6
100
AcDbVertex
100
AcDb2dVertex
 10
438.77075
 20
2168.187504
 30
0.0
  0
VERTEX
  5
305
100
AcDbEntity
  8
止水栓
  6
CONTINUOUS
 62
     6
100
AcDbVertex
100
AcDb2dVertex
 10
438.660887
 20
2168.661136
 30
0.0
  0
VERTEX
  5
306
100
AcDbEntity
  8
止水栓
  6
CONTINUOUS
 62
     6
100
AcDbVertex
100
AcDb2dVertex
 10
438.507079
 20
2169.125004
 30
0.0
  0
VERTEX
  5
307
100
AcDbEntity
  8
止水栓
  6
CONTINUOUS
 62
     6
100
AcDbVertex
100
AcDb2dVertex
 10
438.314207
 20
2169.571781
 30
0.0
  0
VERTEX
  5
308
100
AcDbEntity
  8
止水栓
  6
CONTINUOUS
 62
     6
100
AcDbVertex
100
AcDb2dVertex
 10
438.077391
 20
2170.00391
 30
0.0
  0
VERTEX
  5
309
100
AcDbEntity
  8
止水栓
  6
CONTINUOUS
 62
     6
100
AcDbVertex
100
AcDb2dVertex
 10
437.803954
 20
2170.411625
 30
0.0
  0
VERTEX
  5
30A
100
AcDbEntity
  8
止水栓
  6
CONTINUOUS
 62
     6
100
AcDbVertex
100
AcDb2dVertex
 10
437.493895
 20
2170.797367
 30
0.0
  0
VERTEX
  5
30B
100
AcDbEntity
  8
止水栓
  6
CONTINUOUS
 62
     6
100
AcDbVertex
100
AcDb2dVertex
 10
437.152098
 20
2171.153812
 30
0.0
  0
VERTEX
  5
30C
100
AcDbEntity
  8
止水栓
  6
CONTINUOUS
 62
     6
100
AcDbVertex
100
AcDb2dVertex
 10
436.776122
 20
2171.483402
 30
0.0
  0
VERTEX
  5
30D
100
AcDbEntity
  8
止水栓
  6
CONTINUOUS
 62
     6
100
AcDbVertex
100
AcDb2dVertex
 10
436.37329
 20
2171.776371
 30
0.0
  0
VERTEX
  5
30E
100
AcDbEntity
  8
止水栓
  6
CONTINUOUS
 62
     6
100
AcDbVertex
100
AcDb2dVertex
 10
435.943602
 20
2172.040043
 30
0.0
  0
VERTEX
  5
30F
100
AcDbEntity
  8
止水栓
  6
CONTINUOUS
 62
     6
100
AcDbVertex
100
AcDb2dVertex
 10
435.491942
 20
2172.264652
 30
0.0
  0
VERTEX
  5
310
100
AcDbEntity
  8
止水栓
  6
CONTINUOUS
 62
     6
100
AcDbVertex
100
AcDb2dVertex
 10
435.023192
 20
2172.450199
 30
0.0
  0
VERTEX
  5
311
100
AcDbEntity
  8
止水栓
  6
CONTINUOUS
 62
     6
100
AcDbVertex
100
AcDb2dVertex
 10
434.537352
 20
2172.594242
 30
0.0
  0
VERTEX
  5
312
100
AcDbEntity
  8
止水栓
  6
CONTINUOUS
 62
     6
100
AcDbVertex
100
AcDb2dVertex
 10
434.041747
 20
2172.699222
 30
0.0
  0
VERTEX
  5
313
100
AcDbEntity
  8
止水栓
  6
CONTINUOUS
 62
     6
100
AcDbVertex
100
AcDb2dVertex
 10
433.536375
 20
2172.762699
 30
0.0
  0
VERTEX
  5
314
100
AcDbEntity
  8
止水栓
  6
CONTINUOUS
 62
     6
100
AcDbVertex
100
AcDb2dVertex
 10
433.028563
 20
2172.784672
 30
0.0
  0
VERTEX
  5
315
100
AcDbEntity
  8
止水栓
  6
CONTINUOUS
 62
     6
100
AcDbVertex
100
AcDb2dVertex
 10
433.018797
 20
2172.784672
 30
0.0
  0
VERTEX
  5
316
100
AcDbEntity
  8
止水栓
  6
CONTINUOUS
 62
     6
100
AcDbVertex
100
AcDb2dVertex
 10
433.011473
 20
2172.784672
 30
0.0
  0
VERTEX
  5
317
100
AcDbEntity
  8
止水栓
  6
CONTINUOUS
 62
     6
100
AcDbVertex
100
AcDb2dVertex
 10
433.001707
 20
2172.784672
 30
0.0
  0
SEQEND
  5
318
100
AcDbEntity
  8
止水栓
  6
CONTINUOUS
 62
     6
  0
LINE
  5
319
100
AcDbEntity
  8
止水栓
  6
CONTINUOUS
 62
     6
100
AcDbLine
 10
439.751707
 20
2206.999515
 30
0.0
 11
426.251707
 21
2206.999515
 31
0.0
  0
LINE
  5
31A
100
AcDbEntity
  8
止水栓
  6
CONTINUOUS
 62
     6
100
AcDbLine
 10
437.751707
 20
2182.999515
 30
0.0
 11
428.251707
 21
2182.999515
 31
0.0
  0
LINE
  5
31B
100
AcDbEntity
  8
止水栓
  6
CONTINUOUS
 62
     6
100
AcDbLine
 10
438.751707
 20
2179.999515
 30
0.0
 11
427.251707
 21
2179.999515
 31
0.0
  0
LINE
  5
31C
100
AcDbEntity
  8
止水栓
  6
CONTINUOUS
 62
     6
100
AcDbLine
 10
437.751707
 20
2190.999515
 30
0.0
 11
428.251707
 21
2190.999515
 31
0.0
  0
LINE
  5
31D
100
AcDbEntity
  8
止水栓
  6
CONTINUOUS
 62
     6
100
AcDbLine
 10
437.751707
 20
2195.999515
 30
0.0
 11
428.251707
 21
2195.999515
 31
0.0
  0
LINE
  5
31E
100
AcDbEntity
  8
止水栓
  6
CONTINUOUS
 62
     6
100
AcDbLine
 10
437.751707
 20
2187.999515
 30
0.0
 11
428.251707
 21
2187.999515
 31
0.0
  0
LINE
  5
31F
100
AcDbEntity
  8
止水栓
  6
CONTINUOUS
 62
     6
100
AcDbLine
 10
439.751707
 20
2198.999515
 30
0.0
 11
426.251707
 21
2198.999515
 31
0.0
  0
POLYLINE
  5
320
100
AcDbEntity
  8
止水栓
  6
CONTINUOUS
 62
     6
100
AcDb2dPolyline
 66
     1
 10
0.0
 20
0.0
 30
0.0
 70
   128
  0
VERTEX
  5
321
100
AcDbEntity
  8
止水栓
  6
CONTINUOUS
 62
     6
100
AcDbVertex
100
AcDb2dVertex
 10
433.001707
 20
2172.784672
 30
0.0
  0
VERTEX
  5
322
100
AcDbEntity
  8
止水栓
  6
CONTINUOUS
 62
     6
100
AcDbVertex
100
AcDb2dVertex
 10
432.503661
 20
2172.762699
 30
0.0
  0
VERTEX
  5
323
100
AcDbEntity
  8
止水栓
  6
CONTINUOUS
 62
     6
100
AcDbVertex
100
AcDb2dVertex
 10
432.008055
 20
2172.696781
 30
0.0
  0
VERTEX
  5
324
100
AcDbEntity
  8
止水栓
  6
CONTINUOUS
 62
     6
100
AcDbVertex
100
AcDb2dVertex
 10
431.519774
 20
2172.594242
 30
0.0
  0
VERTEX
  5
325
100
AcDbEntity
  8
止水栓
  6
CONTINUOUS
 62
     6
100
AcDbVertex
100
AcDb2dVertex
 10
431.033934
 20
2172.447758
 30
0.0
  0
VERTEX
  5
326
100
AcDbEntity
  8
止水栓
  6
CONTINUOUS
 62
     6
100
AcDbVertex
100
AcDb2dVertex
 10
430.565184
 20
2172.262211
 30
0.0
  0
VERTEX
  5
327
100
AcDbEntity
  8
止水栓
  6
CONTINUOUS
 62
     6
100
AcDbVertex
100
AcDb2dVertex
 10
430.113524
 20
2172.040043
 30
0.0
  0
VERTEX
  5
328
100
AcDbEntity
  8
止水栓
  6
CONTINUOUS
 62
     6
100
AcDbVertex
100
AcDb2dVertex
 10
429.683836
 20
2171.778812
 30
0.0
  0
VERTEX
  5
329
100
AcDbEntity
  8
止水栓
  6
CONTINUOUS
 62
     6
100
AcDbVertex
100
AcDb2dVertex
 10
429.281004
 20
2171.483402
 30
0.0
  0
VERTEX
  5
32A
100
AcDbEntity
  8
止水栓
  6
CONTINUOUS
 62
     6
100
AcDbVertex
100
AcDb2dVertex
 10
428.905028
 20
2171.156254
 30
0.0
  0
VERTEX
  5
32B
100
AcDbEntity
  8
止水栓
  6
CONTINUOUS
 62
     6
100
AcDbVertex
100
AcDb2dVertex
 10
428.563231
 20
2170.797367
 30
0.0
  0
VERTEX
  5
32C
100
AcDbEntity
  8
止水栓
  6
CONTINUOUS
 62
     6
100
AcDbVertex
100
AcDb2dVertex
 10
428.253172
 20
2170.411625
 30
0.0
  0
VERTEX
  5
32D
100
AcDbEntity
  8
止水栓
  6
CONTINUOUS
 62
     6
100
AcDbVertex
100
AcDb2dVertex
 10
427.979735
 20
2170.00391
 30
0.0
  0
VERTEX
  5
32E
100
AcDbEntity
  8
止水栓
  6
CONTINUOUS
 62
     6
100
AcDbVertex
100
AcDb2dVertex
 10
427.742918
 20
2169.574222
 30
0.0
  0
VERTEX
  5
32F
100
AcDbEntity
  8
止水栓
  6
CONTINUOUS
 62
     6
100
AcDbVertex
100
AcDb2dVertex
 10
427.550047
 20
2169.125004
 30
0.0
  0
VERTEX
  5
330
100
AcDbEntity
  8
止水栓
  6
CONTINUOUS
 62
     6
100
AcDbVertex
100
AcDb2dVertex
 10
427.396239
 20
2168.661136
 30
0.0
  0
VERTEX
  5
331
100
AcDbEntity
  8
止水栓
  6
CONTINUOUS
 62
     6
100
AcDbVertex
100
AcDb2dVertex
 10
427.286375
 20
2168.187504
 30
0.0
  0
VERTEX
  5
332
100
AcDbEntity
  8
止水栓
  6
CONTINUOUS
 62
     6
100
AcDbVertex
100
AcDb2dVertex
 10
427.220457
 20
2167.706547
 30
0.0
  0
VERTEX
  5
333
100
AcDbEntity
  8
止水栓
  6
CONTINUOUS
 62
     6
100
AcDbVertex
100
AcDb2dVertex
 10
427.196043
 20
2167.223148
 30
0.0
  0
VERTEX
  5
334
100
AcDbEntity
  8
止水栓
  6
CONTINUOUS
 62
     6
100
AcDbVertex
100
AcDb2dVertex
 10
427.220457
 20
2166.737308
 30
0.0
  0
VERTEX
  5
335
100
AcDbEntity
  8
止水栓
  6
CONTINUOUS
 62
     6
100
AcDbVertex
100
AcDb2dVertex
 10
427.286375
 20
2166.256351
 30
0.0
  0
VERTEX
  5
336
100
AcDbEntity
  8
止水栓
  6
CONTINUOUS
 62
     6
100
AcDbVertex
100
AcDb2dVertex
 10
427.396239
 20
2165.782718
 30
0.0
  0
VERTEX
  5
337
100
AcDbEntity
  8
止水栓
  6
CONTINUOUS
 62
     6
100
AcDbVertex
100
AcDb2dVertex
 10
427.550047
 20
2165.321293
 30
0.0
  0
VERTEX
  5
338
100
AcDbEntity
  8
止水栓
  6
CONTINUOUS
 62
     6
100
AcDbVertex
100
AcDb2dVertex
 10
427.742918
 20
2164.872074
 30
0.0
  0
VERTEX
  5
339
100
AcDbEntity
  8
止水栓
  6
CONTINUOUS
 62
     6
100
AcDbVertex
100
AcDb2dVertex
 10
427.979735
 20
2164.442386
 30
0.0
  0
VERTEX
  5
33A
100
AcDbEntity
  8
止水栓
  6
CONTINUOUS
 62
     6
100
AcDbVertex
100
AcDb2dVertex
 10
428.253172
 20
2164.03223
 30
0.0
  0
VERTEX
  5
33B
100
AcDbEntity
  8
止水栓
  6
CONTINUOUS
 62
     6
100
AcDbVertex
100
AcDb2dVertex
 10
428.563231
 20
2163.648929
 30
0.0
  0
VERTEX
  5
33C
100
AcDbEntity
  8
止水栓
  6
CONTINUOUS
 62
     6
100
AcDbVertex
100
AcDb2dVertex
 10
428.905028
 20
2163.290043
 30
0.0
  0
VERTEX
  5
33D
100
AcDbEntity
  8
止水栓
  6
CONTINUOUS
 62
     6
100
AcDbVertex
100
AcDb2dVertex
 10
429.281004
 20
2162.962894
 30
0.0
  0
VERTEX
  5
33E
100
AcDbEntity
  8
止水栓
  6
CONTINUOUS
 62
     6
100
AcDbVertex
100
AcDb2dVertex
 10
429.683836
 20
2162.667484
 30
0.0
  0
VERTEX
  5
33F
100
AcDbEntity
  8
止水栓
  6
CONTINUOUS
 62
     6
100
AcDbVertex
100
AcDb2dVertex
 10
430.113524
 20
2162.406254
 30
0.0
  0
VERTEX
  5
340
100
AcDbEntity
  8
止水栓
  6
CONTINUOUS
 62
     6
100
AcDbVertex
100
AcDb2dVertex
 10
430.565184
 20
2162.181644
 30
0.0
  0
VERTEX
  5
341
100
AcDbEntity
  8
止水栓
  6
CONTINUOUS
 62
     6
100
AcDbVertex
100
AcDb2dVertex
 10
431.033934
 20
2161.996097
 30
0.0
  0
VERTEX
  5
342
100
AcDbEntity
  8
止水栓
  6
CONTINUOUS
 62
     6
100
AcDbVertex
100
AcDb2dVertex
 10
431.519774
 20
2161.852054
 30
0.0
  0
VERTEX
  5
343
100
AcDbEntity
  8
止水栓
  6
CONTINUOUS
 62
     6
100
AcDbVertex
100
AcDb2dVertex
 10
432.015379
 20
2161.747074
 30
0.0
  0
VERTEX
  5
344
100
AcDbEntity
  8
止水栓
  6
CONTINUOUS
 62
     6
100
AcDbVertex
100
AcDb2dVertex
 10
432.52075
 20
2161.683597
 30
0.0
  0
VERTEX
  5
345
100
AcDbEntity
  8
止水栓
  6
CONTINUOUS
 62
     6
100
AcDbVertex
100
AcDb2dVertex
 10
433.028563
 20
2161.661625
 30
0.0
  0
VERTEX
  5
346
100
AcDbEntity
  8
止水栓
  6
CONTINUOUS
 62
     6
100
AcDbVertex
100
AcDb2dVertex
 10
433.536375
 20
2161.683597
 30
0.0
  0
VERTEX
  5
347
100
AcDbEntity
  8
止水栓
  6
CONTINUOUS
 62
     6
100
AcDbVertex
100
AcDb2dVertex
 10
434.041747
 20
2161.747074
 30
0.0
  0
VERTEX
  5
348
100
AcDbEntity
  8
止水栓
  6
CONTINUOUS
 62
     6
100
AcDbVertex
100
AcDb2dVertex
 10
434.537352
 20
2161.852054
 30
0.0
  0
VERTEX
  5
349
100
AcDbEntity
  8
止水栓
  6
CONTINUOUS
 62
     6
100
AcDbVertex
100
AcDb2dVertex
 10
435.023192
 20
2161.996097
 30
0.0
  0
VERTEX
  5
34A
100
AcDbEntity
  8
止水栓
  6
CONTINUOUS
 62
     6
100
AcDbVertex
100
AcDb2dVertex
 10
435.491942
 20
2162.181644
 30
0.0
  0
VERTEX
  5
34B
100
AcDbEntity
  8
止水栓
  6
CONTINUOUS
 62
     6
100
AcDbVertex
100
AcDb2dVertex
 10
435.943602
 20
2162.406254
 30
0.0
  0
VERTEX
  5
34C
100
AcDbEntity
  8
止水栓
  6
CONTINUOUS
 62
     6
100
AcDbVertex
100
AcDb2dVertex
 10
436.37329
 20
2162.667484
 30
0.0
  0
VERTEX
  5
34D
100
AcDbEntity
  8
止水栓
  6
CONTINUOUS
 62
     6
100
AcDbVertex
100
AcDb2dVertex
 10
436.776122
 20
2162.962894
 30
0.0
  0
VERTEX
  5
34E
100
AcDbEntity
  8
止水栓
  6
CONTINUOUS
 62
     6
100
AcDbVertex
100
AcDb2dVertex
 10
437.152098
 20
2163.290043
 30
0.0
  0
VERTEX
  5
34F
100
AcDbEntity
  8
止水栓
  6
CONTINUOUS
 62
     6
100
AcDbVertex
100
AcDb2dVertex
 10
437.493895
 20
2163.648929
 30
0.0
  0
VERTEX
  5
350
100
AcDbEntity
  8
止水栓
  6
CONTINUOUS
 62
     6
100
AcDbVertex
100
AcDb2dVertex
 10
437.803954
 20
2164.03223
 30
0.0
  0
VERTEX
  5
351
100
AcDbEntity
  8
止水栓
  6
CONTINUOUS
 62
     6
100
AcDbVertex
100
AcDb2dVertex
 10
438.077391
 20
2164.442386
 30
0.0
  0
VERTEX
  5
352
100
AcDbEntity
  8
止水栓
  6
CONTINUOUS
 62
     6
100
AcDbVertex
100
AcDb2dVertex
 10
438.314207
 20
2164.872074
 30
0.0
  0
VERTEX
  5
353
100
AcDbEntity
  8
止水栓
  6
CONTINUOUS
 62
     6
100
AcDbVertex
100
AcDb2dVertex
 10
438.507079
 20
2165.321293
 30
0.0
  0
VERTEX
  5
354
100
AcDbEntity
  8
止水栓
  6
CONTINUOUS
 62
     6
100
AcDbVertex
100
AcDb2dVertex
 10
438.660887
 20
2165.782718
 30
0.0
  0
VERTEX
  5
355
100
AcDbEntity
  8
止水栓
  6
CONTINUOUS
 62
     6
100
AcDbVertex
100
AcDb2dVertex
 10
438.77075
 20
2166.256351
 30
0.0
  0
VERTEX
  5
356
100
AcDbEntity
  8
止水栓
  6
CONTINUOUS
 62
     6
100
AcDbVertex
100
AcDb2dVertex
 10
438.836668
 20
2166.737308
 30
0.0
  0
VERTEX
  5
357
100
AcDbEntity
  8
止水栓
  6
CONTINUOUS
 62
     6
100
AcDbVertex
100
AcDb2dVertex
 10
438.858641
 20
2167.220707
 30
0.0
  0
SEQEND
  5
358
100
AcDbEntity
  8
止水栓
  6
CONTINUOUS
 62
     6
  0
LINE
  5
359
100
AcDbEntity
  8
止水栓
  6
CONTINUOUS
 62
     6
100
AcDbLine
 10
443.501707
 20
2177.999515
 30
0.0
 11
422.501707
 21
2177.999515
 31
0.0
  0
LINE
  5
35A
100
AcDbEntity
  8
止水栓
  6
CONTINUOUS
 62
     6
100
AcDbLine
 10
443.970946
 20
2161.000004
 30
0.0
 11
422.030943
 21
2161.000004
 31
0.0
  0
LINE
  5
35B
100
AcDbEntity
  8
止水栓
  6
CONTINUOUS
 62
     6
100
AcDbLine
 10
443.970946
 20
2172.999515
 30
0.0
 11
422.032469
 21
2172.999515
 31
0.0
  0
LINE
  5
35C
100
AcDbEntity
  8
止水栓
  6
CONTINUOUS
 62
     6
100
AcDbLine
 10
443.501707
 20
2172.999515
 30
0.0
 11
443.501707
 21
2177.999515
 31
0.0
  0
LINE
  5
35D
100
AcDbEntity
  8
止水栓
  6
CONTINUOUS
 62
     6
100
AcDbLine
 10
439.751707
 20
2198.999515
 30
0.0
 11
439.751707
 21
2206.999515
 31
0.0
  0
LINE
  5
35E
100
AcDbEntity
  8
止水栓
  6
CONTINUOUS
 62
     6
100
AcDbLine
 10
438.751707
 20
2179.999515
 30
0.0
 11
438.751707
 21
2182.999515
 31
0.0
  0
LINE
  5
35F
100
AcDbEntity
  8
止水栓
  6
CONTINUOUS
 62
     6
100
AcDbLine
 10
437.001707
 20
2177.999515
 30
0.0
 11
437.001707
 21
2179.999515
 31
0.0
  0
ARC
  5
360
100
AcDbEntity
  8
止水栓
  6
CONTINUOUS
 62
     6
100
AcDbCircle
 10
437.751707
 20
2193.499515
 30
0.0
 40
2.5
100
AcDbArc
 50
0.0
 51
90.0
  0
ARC
  5
361
100
AcDbEntity
  8
止水栓
  6
CONTINUOUS
 62
     6
100
AcDbCircle
 10
437.751707
 20
2193.499515
 30
0.0
 40
2.5
100
AcDbArc
 50
270.0
 51
0.0
  0
ARC
  5
362
100
AcDbEntity
  8
止水栓
  6
CONTINUOUS
 62
     6
100
AcDbCircle
 10
437.751707
 20
2185.499515
 30
0.0
 40
2.5
100
AcDbArc
 50
0.0
 51
90.0
  0
LINE
  5
363
100
AcDbEntity
  8
止水栓
  6
CONTINUOUS
 62
     6
100
AcDbLine
 10
438.751707
 20
2187.999515
 30
0.0
 11
438.751707
 21
2190.999515
 31
0.0
  0
LINE
  5
364
100
AcDbEntity
  8
止水栓
  6
CONTINUOUS
 62
     6
100
AcDbLine
 10
438.751707
 20
2195.999515
 30
0.0
 11
438.751707
 21
2198.999515
 31
0.0
  0
ARC
  5
365
100
AcDbEntity
  8
止水栓
  6
CONTINUOUS
 62
     6
100
AcDbCircle
 10
437.751707
 20
2185.499515
 30
0.0
 40
2.5
100
AcDbArc
 50
270.0
 51
0.0
  0
POLYLINE
  5
366
100
AcDbEntity
  8
止水栓
  6
CONTINUOUS
 62
     6
100
AcDb2dPolyline
 66
     1
 10
0.0
 20
0.0
 30
0.0
 70
   128
  0
VERTEX
  5
367
100
AcDbEntity
  8
止水栓
  6
CONTINUOUS
 62
     6
100
AcDbVertex
100
AcDb2dVertex
 10
445.413817
 20
2165.9585
 30
0.0
  0
VERTEX
  5
368
100
AcDbEntity
  8
止水栓
  6
CONTINUOUS
 62
     6
100
AcDbVertex
100
AcDb2dVertex
 10
445.460204
 20
2166.383304
 30
0.0
  0
VERTEX
  5
369
100
AcDbEntity
  8
止水栓
  6
CONTINUOUS
 62
     6
100
AcDbVertex
100
AcDb2dVertex
 10
445.487059
 20
2166.815433
 30
0.0
  0
VERTEX
  5
36A
100
AcDbEntity
  8
止水栓
  6
CONTINUOUS
 62
     6
100
AcDbVertex
100
AcDb2dVertex
 10
445.496825
 20
2167.250004
 30
0.0
  0
SEQEND
  5
36B
100
AcDbEntity
  8
止水栓
  6
CONTINUOUS
 62
     6
  0
POLYLINE
  5
36C
100
AcDbEntity
  8
止水栓
  6
CONTINUOUS
 62
     6
100
AcDb2dPolyline
 66
     1
 10
0.0
 20
0.0
 30
0.0
 70
   128
  0
VERTEX
  5
36D
100
AcDbEntity
  8
止水栓
  6
CONTINUOUS
 62
     6
100
AcDbVertex
100
AcDb2dVertex
 10
444.08325
 20
2162.728519
 30
0.0
  0
VERTEX
  5
36E
100
AcDbEntity
  8
止水栓
  6
CONTINUOUS
 62
     6
100
AcDbVertex
100
AcDb2dVertex
 10
444.271239
 20
2162.928715
 30
0.0
  0
VERTEX
  5
36F
100
AcDbEntity
  8
止水栓
  6
CONTINUOUS
 62
     6
100
AcDbVertex
100
AcDb2dVertex
 10
444.451903
 20
2163.16309
 30
0.0
  0
VERTEX
  5
370
100
AcDbEntity
  8
止水栓
  6
CONTINUOUS
 62
     6
100
AcDbVertex
100
AcDb2dVertex
 10
444.622801
 20
2163.426761
 30
0.0
  0
VERTEX
  5
371
100
AcDbEntity
  8
止水栓
  6
CONTINUOUS
 62
     6
100
AcDbVertex
100
AcDb2dVertex
 10
444.779051
 20
2163.722172
 30
0.0
  0
VERTEX
  5
372
100
AcDbEntity
  8
止水栓
  6
CONTINUOUS
 62
     6
100
AcDbVertex
100
AcDb2dVertex
 10
444.923094
 20
2164.041996
 30
0.0
  0
VERTEX
  5
373
100
AcDbEntity
  8
止水栓
  6
CONTINUOUS
 62
     6
100
AcDbVertex
100
AcDb2dVertex
 10
445.05493
 20
2164.388675
 30
0.0
  0
VERTEX
  5
374
100
AcDbEntity
  8
止水栓
  6
CONTINUOUS
 62
     6
100
AcDbVertex
100
AcDb2dVertex
 10
445.169676
 20
2164.754886
 30
0.0
  0
VERTEX
  5
375
100
AcDbEntity
  8
止水栓
  6
CONTINUOUS
 62
     6
100
AcDbVertex
100
AcDb2dVertex
 10
445.267332
 20
2165.140629
 30
0.0
  0
VERTEX
  5
376
100
AcDbEntity
  8
止水栓
  6
CONTINUOUS
 62
     6
100
AcDbVertex
100
AcDb2dVertex
 10
445.347899
 20
2165.543461
 30
0.0
  0
VERTEX
  5
377
100
AcDbEntity
  8
止水栓
  6
CONTINUOUS
 62
     6
100
AcDbVertex
100
AcDb2dVertex
 10
445.413817
 20
2165.9585
 30
0.0
  0
SEQEND
  5
378
100
AcDbEntity
  8
止水栓
  6
CONTINUOUS
 62
     6
  0
ARC
  5
379
100
AcDbEntity
  8
止水栓
  6
CONTINUOUS
 62
     6
100
AcDbCircle
 10
434.752196
 20
2166.998539
 30
0.0
 40
10.998535
100
AcDbArc
 50
326.94841
 51
33.059082
  0
POLYLINE
  5
37A
100
AcDbEntity
  8
止水栓
  6
CONTINUOUS
 62
     6
100
AcDb2dPolyline
 66
     1
 10
0.0
 20
0.0
 30
0.0
 70
   128
  0
VERTEX
  5
37B
100
AcDbEntity
  8
止水栓
  6
CONTINUOUS
 62
     6
100
AcDbVertex
100
AcDb2dVertex
 10
445.496825
 20
2167.250004
 30
0.0
  0
VERTEX
  5
37C
100
AcDbEntity
  8
止水栓
  6
CONTINUOUS
 62
     6
100
AcDbVertex
100
AcDb2dVertex
 10
445.487059
 20
2167.687015
 30
0.0
  0
VERTEX
  5
37D
100
AcDbEntity
  8
止水栓
  6
CONTINUOUS
 62
     6
100
AcDbVertex
100
AcDb2dVertex
 10
445.460204
 20
2168.119144
 30
0.0
  0
VERTEX
  5
37E
100
AcDbEntity
  8
止水栓
  6
CONTINUOUS
 62
     6
100
AcDbVertex
100
AcDb2dVertex
 10
445.413817
 20
2168.543949
 30
0.0
  0
VERTEX
  5
37F
100
AcDbEntity
  8
止水栓
  6
CONTINUOUS
 62
     6
100
AcDbVertex
100
AcDb2dVertex
 10
445.347899
 20
2168.958988
 30
0.0
  0
VERTEX
  5
380
100
AcDbEntity
  8
止水栓
  6
CONTINUOUS
 62
     6
100
AcDbVertex
100
AcDb2dVertex
 10
445.267332
 20
2169.359379
 30
0.0
  0
VERTEX
  5
381
100
AcDbEntity
  8
止水栓
  6
CONTINUOUS
 62
     6
100
AcDbVertex
100
AcDb2dVertex
 10
445.169676
 20
2169.745121
 30
0.0
  0
VERTEX
  5
382
100
AcDbEntity
  8
止水栓
  6
CONTINUOUS
 62
     6
100
AcDbVertex
100
AcDb2dVertex
 10
445.052489
 20
2170.113773
 30
0.0
  0
VERTEX
  5
383
100
AcDbEntity
  8
止水栓
  6
CONTINUOUS
 62
     6
100
AcDbVertex
100
AcDb2dVertex
 10
444.923094
 20
2170.458011
 30
0.0
  0
VERTEX
  5
384
100
AcDbEntity
  8
止水栓
  6
CONTINUOUS
 62
     6
100
AcDbVertex
100
AcDb2dVertex
 10
444.779051
 20
2170.780277
 30
0.0
  0
VERTEX
  5
385
100
AcDbEntity
  8
止水栓
  6
CONTINUOUS
 62
     6
100
AcDbVertex
100
AcDb2dVertex
 10
444.62036
 20
2171.073246
 30
0.0
  0
VERTEX
  5
386
100
AcDbEntity
  8
止水栓
  6
CONTINUOUS
 62
     6
100
AcDbVertex
100
AcDb2dVertex
 10
444.451903
 20
2171.339359
 30
0.0
  0
VERTEX
  5
387
100
AcDbEntity
  8
止水栓
  6
CONTINUOUS
 62
     6
100
AcDbVertex
100
AcDb2dVertex
 10
444.271239
 20
2171.571293
 30
0.0
  0
VERTEX
  5
388
100
AcDbEntity
  8
止水栓
  6
CONTINUOUS
 62
     6
100
AcDbVertex
100
AcDb2dVertex
 10
444.08325
 20
2171.773929
 30
0.0
  0
VERTEX
  5
389
100
AcDbEntity
  8
止水栓
  6
CONTINUOUS
 62
     6
100
AcDbVertex
100
AcDb2dVertex
 10
443.885497
 20
2171.939945
 30
0.0
  0
VERTEX
  5
38A
100
AcDbEntity
  8
止水栓
  6
CONTINUOUS
 62
     6
100
AcDbVertex
100
AcDb2dVertex
 10
443.680418
 20
2172.071781
 30
0.0
  0
VERTEX
  5
38B
100
AcDbEntity
  8
止水栓
  6
CONTINUOUS
 62
     6
100
AcDbVertex
100
AcDb2dVertex
 10
443.472899
 20
2172.164554
 30
0.0
  0
VERTEX
  5
38C
100
AcDbEntity
  8
止水栓
  6
CONTINUOUS
 62
     6
100
AcDbVertex
100
AcDb2dVertex
 10
443.260497
 20
2172.223148
 30
0.0
  0
VERTEX
  5
38D
100
AcDbEntity
  8
止水栓
  6
CONTINUOUS
 62
     6
100
AcDbVertex
100
AcDb2dVertex
 10
443.048094
 20
2172.240238
 30
0.0
  0
VERTEX
  5
38E
100
AcDbEntity
  8
止水栓
  6
CONTINUOUS
 62
     6
100
AcDbVertex
100
AcDb2dVertex
 10
442.83325
 20
2172.220707
 30
0.0
  0
VERTEX
  5
38F
100
AcDbEntity
  8
止水栓
  6
CONTINUOUS
 62
     6
100
AcDbVertex
100
AcDb2dVertex
 10
442.620848
 20
2172.164554
 30
0.0
  0
VERTEX
  5
390
100
AcDbEntity
  8
止水栓
  6
CONTINUOUS
 62
     6
100
AcDbVertex
100
AcDb2dVertex
 10
442.413329
 20
2172.071781
 30
0.0
  0
VERTEX
  5
391
100
AcDbEntity
  8
止水栓
  6
CONTINUOUS
 62
     6
100
AcDbVertex
100
AcDb2dVertex
 10
442.20825
 20
2171.939945
 30
0.0
  0
VERTEX
  5
392
100
AcDbEntity
  8
止水栓
  6
CONTINUOUS
 62
     6
100
AcDbVertex
100
AcDb2dVertex
 10
442.010497
 20
2171.773929
 30
0.0
  0
VERTEX
  5
393
100
AcDbEntity
  8
止水栓
  6
CONTINUOUS
 62
     6
100
AcDbVertex
100
AcDb2dVertex
 10
441.822508
 20
2171.571293
 30
0.0
  0
VERTEX
  5
394
100
AcDbEntity
  8
止水栓
  6
CONTINUOUS
 62
     6
100
AcDbVertex
100
AcDb2dVertex
 10
441.641844
 20
2171.336918
 30
0.0
  0
VERTEX
  5
395
100
AcDbEntity
  8
止水栓
  6
CONTINUOUS
 62
     6
100
AcDbVertex
100
AcDb2dVertex
 10
441.473387
 20
2171.073246
 30
0.0
  0
VERTEX
  5
396
100
AcDbEntity
  8
止水栓
  6
CONTINUOUS
 62
     6
100
AcDbVertex
100
AcDb2dVertex
 10
441.314696
 20
2170.780277
 30
0.0
  0
VERTEX
  5
397
100
AcDbEntity
  8
止水栓
  6
CONTINUOUS
 62
     6
100
AcDbVertex
100
AcDb2dVertex
 10
441.170653
 20
2170.458011
 30
0.0
  0
VERTEX
  5
398
100
AcDbEntity
  8
止水栓
  6
CONTINUOUS
 62
     6
100
AcDbVertex
100
AcDb2dVertex
 10
441.041258
 20
2170.113773
 30
0.0
  0
VERTEX
  5
399
100
AcDbEntity
  8
止水栓
  6
CONTINUOUS
 62
     6
100
AcDbVertex
100
AcDb2dVertex
 10
440.926512
 20
2169.745121
 30
0.0
  0
VERTEX
  5
39A
100
AcDbEntity
  8
止水栓
  6
CONTINUOUS
 62
     6
100
AcDbVertex
100
AcDb2dVertex
 10
440.826415
 20
2169.359379
 30
0.0
  0
VERTEX
  5
39B
100
AcDbEntity
  8
止水栓
  6
CONTINUOUS
 62
     6
100
AcDbVertex
100
AcDb2dVertex
 10
440.745848
 20
2168.956547
 30
0.0
  0
VERTEX
  5
39C
100
AcDbEntity
  8
止水栓
  6
CONTINUOUS
 62
     6
100
AcDbVertex
100
AcDb2dVertex
 10
440.67993
 20
2168.541508
 30
0.0
  0
VERTEX
  5
39D
100
AcDbEntity
  8
止水栓
  6
CONTINUOUS
 62
     6
100
AcDbVertex
100
AcDb2dVertex
 10
440.633543
 20
2168.116703
 30
0.0
  0
VERTEX
  5
39E
100
AcDbEntity
  8
止水栓
  6
CONTINUOUS
 62
     6
100
AcDbVertex
100
AcDb2dVertex
 10
440.606688
 20
2167.684574
 30
0.0
  0
VERTEX
  5
39F
100
AcDbEntity
  8
止水栓
  6
CONTINUOUS
 62
     6
100
AcDbVertex
100
AcDb2dVertex
 10
440.596922
 20
2167.250004
 30
0.0
  0
VERTEX
  5
3A0
100
AcDbEntity
  8
止水栓
  6
CONTINUOUS
 62
     6
100
AcDbVertex
100
AcDb2dVertex
 10
440.606688
 20
2166.815433
 30
0.0
  0
VERTEX
  5
3A1
100
AcDbEntity
  8
止水栓
  6
CONTINUOUS
 62
     6
100
AcDbVertex
100
AcDb2dVertex
 10
440.635985
 20
2166.383304
 30
0.0
  0
VERTEX
  5
3A2
100
AcDbEntity
  8
止水栓
  6
CONTINUOUS
 62
     6
100
AcDbVertex
100
AcDb2dVertex
 10
440.682372
 20
2165.9585
 30
0.0
  0
VERTEX
  5
3A3
100
AcDbEntity
  8
止水栓
  6
CONTINUOUS
 62
     6
100
AcDbVertex
100
AcDb2dVertex
 10
440.745848
 20
2165.543461
 30
0.0
  0
VERTEX
  5
3A4
100
AcDbEntity
  8
止水栓
  6
CONTINUOUS
 62
     6
100
AcDbVertex
100
AcDb2dVertex
 10
440.826415
 20
2165.140629
 30
0.0
  0
VERTEX
  5
3A5
100
AcDbEntity
  8
止水栓
  6
CONTINUOUS
 62
     6
100
AcDbVertex
100
AcDb2dVertex
 10
440.926512
 20
2164.754886
 30
0.0
  0
VERTEX
  5
3A6
100
AcDbEntity
  8
止水栓
  6
CONTINUOUS
 62
     6
100
AcDbVertex
100
AcDb2dVertex
 10
441.041258
 20
2164.388675
 30
0.0
  0
VERTEX
  5
3A7
100
AcDbEntity
  8
止水栓
  6
CONTINUOUS
 62
     6
100
AcDbVertex
100
AcDb2dVertex
 10
441.170653
 20
2164.041996
 30
0.0
  0
VERTEX
  5
3A8
100
AcDbEntity
  8
止水栓
  6
CONTINUOUS
 62
     6
100
AcDbVertex
100
AcDb2dVertex
 10
441.314696
 20
2163.722172
 30
0.0
  0
VERTEX
  5
3A9
100
AcDbEntity
  8
止水栓
  6
CONTINUOUS
 62
     6
100
AcDbVertex
100
AcDb2dVertex
 10
441.473387
 20
2163.426761
 30
0.0
  0
VERTEX
  5
3AA
100
AcDbEntity
  8
止水栓
  6
CONTINUOUS
 62
     6
100
AcDbVertex
100
AcDb2dVertex
 10
441.641844
 20
2163.16309
 30
0.0
  0
VERTEX
  5
3AB
100
AcDbEntity
  8
止水栓
  6
CONTINUOUS
 62
     6
100
AcDbVertex
100
AcDb2dVertex
 10
441.822508
 20
2162.928715
 30
0.0
  0
VERTEX
  5
3AC
100
AcDbEntity
  8
止水栓
  6
CONTINUOUS
 62
     6
100
AcDbVertex
100
AcDb2dVertex
 10
442.010497
 20
2162.728519
 30
0.0
  0
VERTEX
  5
3AD
100
AcDbEntity
  8
止水栓
  6
CONTINUOUS
 62
     6
100
AcDbVertex
100
AcDb2dVertex
 10
442.20825
 20
2162.560062
 30
0.0
  0
VERTEX
  5
3AE
100
AcDbEntity
  8
止水栓
  6
CONTINUOUS
 62
     6
100
AcDbVertex
100
AcDb2dVertex
 10
442.413329
 20
2162.430668
 30
0.0
  0
VERTEX
  5
3AF
100
AcDbEntity
  8
止水栓
  6
CONTINUOUS
 62
     6
100
AcDbVertex
100
AcDb2dVertex
 10
442.620848
 20
2162.335453
 30
0.0
  0
VERTEX
  5
3B0
100
AcDbEntity
  8
止水栓
  6
CONTINUOUS
 62
     6
100
AcDbVertex
100
AcDb2dVertex
 10
442.83325
 20
2162.2793
 30
0.0
  0
VERTEX
  5
3B1
100
AcDbEntity
  8
止水栓
  6
CONTINUOUS
 62
     6
100
AcDbVertex
100
AcDb2dVertex
 10
443.048094
 20
2162.259769
 30
0.0
  0
VERTEX
  5
3B2
100
AcDbEntity
  8
止水栓
  6
CONTINUOUS
 62
     6
100
AcDbVertex
100
AcDb2dVertex
 10
443.260497
 20
2162.2793
 30
0.0
  0
VERTEX
  5
3B3
100
AcDbEntity
  8
止水栓
  6
CONTINUOUS
 62
     6
100
AcDbVertex
100
AcDb2dVertex
 10
443.472899
 20
2162.335453
 30
0.0
  0
VERTEX
  5
3B4
100
AcDbEntity
  8
止水栓
  6
CONTINUOUS
 62
     6
100
AcDbVertex
100
AcDb2dVertex
 10
443.680418
 20
2162.430668
 30
0.0
  0
VERTEX
  5
3B5
100
AcDbEntity
  8
止水栓
  6
CONTINUOUS
 62
     6
100
AcDbVertex
100
AcDb2dVertex
 10
443.885497
 20
2162.560062
 30
0.0
  0
VERTEX
  5
3B6
100
AcDbEntity
  8
止水栓
  6
CONTINUOUS
 62
     6
100
AcDbVertex
100
AcDb2dVertex
 10
444.08325
 20
2162.728519
 30
0.0
  0
SEQEND
  5
3B7
100
AcDbEntity
  8
止水栓
  6
CONTINUOUS
 62
     6
  0
LINE
  5
3B8
100
AcDbEntity
  8
止水栓
  6
CONTINUOUS
 62
     6
100
AcDbLine
 10
422.501707
 20
2172.999515
 30
0.0
 11
422.501707
 21
2177.999515
 31
0.0
  0
LINE
  5
3B9
100
AcDbEntity
  8
止水栓
  6
CONTINUOUS
 62
     6
100
AcDbLine
 10
426.251707
 20
2198.999515
 30
0.0
 11
426.251707
 21
2206.999515
 31
0.0
  0
LINE
  5
3BA
100
AcDbEntity
  8
止水栓
  6
CONTINUOUS
 62
     6
100
AcDbLine
 10
427.251707
 20
2179.999515
 30
0.0
 11
427.251707
 21
2182.999515
 31
0.0
  0
LINE
  5
3BB
100
AcDbEntity
  8
止水栓
  6
CONTINUOUS
 62
     6
100
AcDbLine
 10
429.001707
 20
2177.999515
 30
0.0
 11
429.001707
 21
2179.999515
 31
0.0
  0
LINE
  5
3BC
100
AcDbEntity
  8
止水栓
  6
CONTINUOUS
 62
     6
100
AcDbLine
 10
427.251707
 20
2187.999515
 30
0.0
 11
427.251707
 21
2190.999515
 31
0.0
  0
ARC
  5
3BD
100
AcDbEntity
  8
止水栓
  6
CONTINUOUS
 62
     6
100
AcDbCircle
 10
428.251707
 20
2193.499515
 30
0.0
 40
2.5
100
AcDbArc
 50
90.0
 51
180.0
  0
ARC
  5
3BE
100
AcDbEntity
  8
止水栓
  6
CONTINUOUS
 62
     6
100
AcDbCircle
 10
428.251707
 20
2193.499515
 30
0.0
 40
2.5
100
AcDbArc
 50
180.0
 51
270.0
  0
LINE
  5
3BF
100
AcDbEntity
  8
止水栓
  6
CONTINUOUS
 62
     6
100
AcDbLine
 10
427.251707
 20
2195.999515
 30
0.0
 11
427.251707
 21
2198.999515
 31
0.0
  0
ARC
  5
3C0
100
AcDbEntity
  8
止水栓
  6
CONTINUOUS
 62
     6
100
AcDbCircle
 10
428.251707
 20
2185.499515
 30
0.0
 40
2.5
100
AcDbArc
 50
90.0
 51
180.0
  0
ARC
  5
3C1
100
AcDbEntity
  8
止水栓
  6
CONTINUOUS
 62
     6
100
AcDbCircle
 10
428.251707
 20
2185.499515
 30
0.0
 40
2.5
100
AcDbArc
 50
180.0
 51
270.0
  0
POLYLINE
  5
3C2
100
AcDbEntity
  8
止水栓
  6
CONTINUOUS
 62
     6
100
AcDb2dPolyline
 66
     1
 10
0.0
 20
0.0
 30
0.0
 70
   128
  0
VERTEX
  5
3C3
100
AcDbEntity
  8
止水栓
  6
CONTINUOUS
 62
     6
100
AcDbVertex
100
AcDb2dVertex
 10
425.399168
 20
2167.257328
 30
0.0
  0
VERTEX
  5
3C4
100
AcDbEntity
  8
止水栓
  6
CONTINUOUS
 62
     6
100
AcDbVertex
100
AcDb2dVertex
 10
425.389403
 20
2167.66016
 30
0.0
  0
VERTEX
  5
3C5
100
AcDbEntity
  8
止水栓
  6
CONTINUOUS
 62
     6
100
AcDbVertex
100
AcDb2dVertex
 10
425.360106
 20
2168.06055
 30
0.0
  0
VERTEX
  5
3C6
100
AcDbEntity
  8
止水栓
  6
CONTINUOUS
 62
     6
100
AcDbVertex
100
AcDb2dVertex
 10
425.313719
 20
2168.456058
 30
0.0
  0
VERTEX
  5
3C7
100
AcDbEntity
  8
止水栓
  6
CONTINUOUS
 62
     6
100
AcDbVertex
100
AcDb2dVertex
 10
425.250243
 20
2168.839359
 30
0.0
  0
VERTEX
  5
3C8
100
AcDbEntity
  8
止水栓
  6
CONTINUOUS
 62
     6
100
AcDbVertex
100
AcDb2dVertex
 10
425.169676
 20
2169.212894
 30
0.0
  0
VERTEX
  5
3C9
100
AcDbEntity
  8
止水栓
  6
CONTINUOUS
 62
     6
100
AcDbVertex
100
AcDb2dVertex
 10
425.069579
 20
2169.571781
 30
0.0
  0
VERTEX
  5
3CA
100
AcDbEntity
  8
止水栓
  6
CONTINUOUS
 62
     6
100
AcDbVertex
100
AcDb2dVertex
 10
424.954832
 20
2169.911136
 30
0.0
  0
VERTEX
  5
3CB
100
AcDbEntity
  8
止水栓
  6
CONTINUOUS
 62
     6
100
AcDbVertex
100
AcDb2dVertex
 10
424.825438
 20
2170.233402
 30
0.0
  0
VERTEX
  5
3CC
100
AcDbEntity
  8
止水栓
  6
CONTINUOUS
 62
     6
100
AcDbVertex
100
AcDb2dVertex
 10
424.681395
 20
2170.531254
 30
0.0
  0
VERTEX
  5
3CD
100
AcDbEntity
  8
止水栓
  6
CONTINUOUS
 62
     6
100
AcDbVertex
100
AcDb2dVertex
 10
424.522704
 20
2170.80225
 30
0.0
  0
VERTEX
  5
3CE
100
AcDbEntity
  8
止水栓
  6
CONTINUOUS
 62
     6
100
AcDbVertex
100
AcDb2dVertex
 10
424.354247
 20
2171.048832
 30
0.0
  0
VERTEX
  5
3CF
100
AcDbEntity
  8
止水栓
  6
CONTINUOUS
 62
     6
100
AcDbVertex
100
AcDb2dVertex
 10
424.173582
 20
2171.266117
 30
0.0
  0
VERTEX
  5
3D0
100
AcDbEntity
  8
止水栓
  6
CONTINUOUS
 62
     6
100
AcDbVertex
100
AcDb2dVertex
 10
423.983153
 20
2171.454105
 30
0.0
  0
VERTEX
  5
3D1
100
AcDbEntity
  8
止水栓
  6
CONTINUOUS
 62
     6
100
AcDbVertex
100
AcDb2dVertex
 10
423.785399
 20
2171.607914
 30
0.0
  0
VERTEX
  5
3D2
100
AcDbEntity
  8
止水栓
  6
CONTINUOUS
 62
     6
100
AcDbVertex
100
AcDb2dVertex
 10
423.582762
 20
2171.727543
 30
0.0
  0
VERTEX
  5
3D3
100
AcDbEntity
  8
止水栓
  6
CONTINUOUS
 62
     6
100
AcDbVertex
100
AcDb2dVertex
 10
423.372801
 20
2171.815433
 30
0.0
  0
VERTEX
  5
3D4
100
AcDbEntity
  8
止水栓
  6
CONTINUOUS
 62
     6
100
AcDbVertex
100
AcDb2dVertex
 10
423.16284
 20
2171.869144
 30
0.0
  0
VERTEX
  5
3D5
100
AcDbEntity
  8
止水栓
  6
CONTINUOUS
 62
     6
100
AcDbVertex
100
AcDb2dVertex
 10
422.947997
 20
2171.886234
 30
0.0
  0
VERTEX
  5
3D6
100
AcDbEntity
  8
止水栓
  6
CONTINUOUS
 62
     6
100
AcDbVertex
100
AcDb2dVertex
 10
422.735594
 20
2171.869144
 30
0.0
  0
VERTEX
  5
3D7
100
AcDbEntity
  8
止水栓
  6
CONTINUOUS
 62
     6
100
AcDbVertex
100
AcDb2dVertex
 10
422.523192
 20
2171.815433
 30
0.0
  0
VERTEX
  5
3D8
100
AcDbEntity
  8
止水栓
  6
CONTINUOUS
 62
     6
100
AcDbVertex
100
AcDb2dVertex
 10
422.313231
 20
2171.727543
 30
0.0
  0
VERTEX
  5
3D9
100
AcDbEntity
  8
止水栓
  6
CONTINUOUS
 62
     6
100
AcDbVertex
100
AcDb2dVertex
 10
422.110594
 20
2171.607914
 30
0.0
  0
VERTEX
  5
3DA
100
AcDbEntity
  8
止水栓
  6
CONTINUOUS
 62
     6
100
AcDbVertex
100
AcDb2dVertex
 10
421.91284
 20
2171.451664
 30
0.0
  0
VERTEX
  5
3DB
100
AcDbEntity
  8
止水栓
  6
CONTINUOUS
 62
     6
100
AcDbVertex
100
AcDb2dVertex
 10
421.724852
 20
2171.266117
 30
0.0
  0
VERTEX
  5
3DC
100
AcDbEntity
  8
止水栓
  6
CONTINUOUS
 62
     6
100
AcDbVertex
100
AcDb2dVertex
 10
421.544188
 20
2171.048832
 30
0.0
  0
VERTEX
  5
3DD
100
AcDbEntity
  8
止水栓
  6
CONTINUOUS
 62
     6
100
AcDbVertex
100
AcDb2dVertex
 10
421.37329
 20
2170.804691
 30
0.0
  0
VERTEX
  5
3DE
100
AcDbEntity
  8
止水栓
  6
CONTINUOUS
 62
     6
100
AcDbVertex
100
AcDb2dVertex
 10
421.21704
 20
2170.531254
 30
0.0
  0
VERTEX
  5
3DF
100
AcDbEntity
  8
止水栓
  6
CONTINUOUS
 62
     6
100
AcDbVertex
100
AcDb2dVertex
 10
421.072997
 20
2170.233402
 30
0.0
  0
VERTEX
  5
3E0
100
AcDbEntity
  8
止水栓
  6
CONTINUOUS
 62
     6
100
AcDbVertex
100
AcDb2dVertex
 10
420.941161
 20
2169.911136
 30
0.0
  0
VERTEX
  5
3E1
100
AcDbEntity
  8
止水栓
  6
CONTINUOUS
 62
     6
100
AcDbVertex
100
AcDb2dVertex
 10
420.826415
 20
2169.571781
 30
0.0
  0
VERTEX
  5
3E2
100
AcDbEntity
  8
止水栓
  6
CONTINUOUS
 62
     6
100
AcDbVertex
100
AcDb2dVertex
 10
420.728758
 20
2169.212894
 30
0.0
  0
VERTEX
  5
3E3
100
AcDbEntity
  8
止水栓
  6
CONTINUOUS
 62
     6
100
AcDbVertex
100
AcDb2dVertex
 10
420.648192
 20
2168.8418
 30
0.0
  0
VERTEX
  5
3E4
100
AcDbEntity
  8
止水栓
  6
CONTINUOUS
 62
     6
100
AcDbVertex
100
AcDb2dVertex
 10
420.582274
 20
2168.456058
 30
0.0
  0
VERTEX
  5
3E5
100
AcDbEntity
  8
止水栓
  6
CONTINUOUS
 62
     6
100
AcDbVertex
100
AcDb2dVertex
 10
420.535887
 20
2168.06055
 30
0.0
  0
VERTEX
  5
3E6
100
AcDbEntity
  8
止水栓
  6
CONTINUOUS
 62
     6
100
AcDbVertex
100
AcDb2dVertex
 10
420.509032
 20
2167.66016
 30
0.0
  0
VERTEX
  5
3E7
100
AcDbEntity
  8
止水栓
  6
CONTINUOUS
 62
     6
100
AcDbVertex
100
AcDb2dVertex
 10
420.499266
 20
2167.257328
 30
0.0
  0
VERTEX
  5
3E8
100
AcDbEntity
  8
止水栓
  6
CONTINUOUS
 62
     6
100
AcDbVertex
100
AcDb2dVertex
 10
420.509032
 20
2166.854496
 30
0.0
  0
VERTEX
  5
3E9
100
AcDbEntity
  8
止水栓
  6
CONTINUOUS
 62
     6
100
AcDbVertex
100
AcDb2dVertex
 10
420.535887
 20
2166.454105
 30
0.0
  0
VERTEX
  5
3EA
100
AcDbEntity
  8
止水栓
  6
CONTINUOUS
 62
     6
100
AcDbVertex
100
AcDb2dVertex
 10
420.582274
 20
2166.058597
 30
0.0
  0
VERTEX
  5
3EB
100
AcDbEntity
  8
止水栓
  6
CONTINUOUS
 62
     6
100
AcDbVertex
100
AcDb2dVertex
 10
420.64575
 20
2165.672855
 30
0.0
  0
VERTEX
  5
3EC
100
AcDbEntity
  8
止水栓
  6
CONTINUOUS
 62
     6
100
AcDbVertex
100
AcDb2dVertex
 10
420.728758
 20
2165.29932
 30
0.0
  0
VERTEX
  5
3ED
100
AcDbEntity
  8
止水栓
  6
CONTINUOUS
 62
     6
100
AcDbVertex
100
AcDb2dVertex
 10
420.826415
 20
2164.940433
 30
0.0
  0
VERTEX
  5
3EE
100
AcDbEntity
  8
止水栓
  6
CONTINUOUS
 62
     6
100
AcDbVertex
100
AcDb2dVertex
 10
420.941161
 20
2164.601078
 30
0.0
  0
VERTEX
  5
3EF
100
AcDbEntity
  8
止水栓
  6
CONTINUOUS
 62
     6
100
AcDbVertex
100
AcDb2dVertex
 10
421.072997
 20
2164.278812
 30
0.0
  0
VERTEX
  5
3F0
100
AcDbEntity
  8
止水栓
  6
CONTINUOUS
 62
     6
100
AcDbVertex
100
AcDb2dVertex
 10
421.21704
 20
2163.983402
 30
0.0
  0
VERTEX
  5
3F1
100
AcDbEntity
  8
止水栓
  6
CONTINUOUS
 62
     6
100
AcDbVertex
100
AcDb2dVertex
 10
421.37329
 20
2163.709965
 30
0.0
  0
VERTEX
  5
3F2
100
AcDbEntity
  8
止水栓
  6
CONTINUOUS
 62
     6
100
AcDbVertex
100
AcDb2dVertex
 10
421.544188
 20
2163.463383
 30
0.0
  0
VERTEX
  5
3F3
100
AcDbEntity
  8
止水栓
  6
CONTINUOUS
 62
     6
100
AcDbVertex
100
AcDb2dVertex
 10
421.722411
 20
2163.246097
 30
0.0
  0
VERTEX
  5
3F4
100
AcDbEntity
  8
止水栓
  6
CONTINUOUS
 62
     6
100
AcDbVertex
100
AcDb2dVertex
 10
421.91284
 20
2163.06055
 30
0.0
  0
VERTEX
  5
3F5
100
AcDbEntity
  8
止水栓
  6
CONTINUOUS
 62
     6
100
AcDbVertex
100
AcDb2dVertex
 10
422.110594
 20
2162.906742
 30
0.0
  0
VERTEX
  5
3F6
100
AcDbEntity
  8
止水栓
  6
CONTINUOUS
 62
     6
100
AcDbVertex
100
AcDb2dVertex
 10
422.313231
 20
2162.784672
 30
0.0
  0
VERTEX
  5
3F7
100
AcDbEntity
  8
止水栓
  6
CONTINUOUS
 62
     6
100
AcDbVertex
100
AcDb2dVertex
 10
422.523192
 20
2162.696781
 30
0.0
  0
VERTEX
  5
3F8
100
AcDbEntity
  8
止水栓
  6
CONTINUOUS
 62
     6
100
AcDbVertex
100
AcDb2dVertex
 10
422.735594
 20
2162.64307
 30
0.0
  0
VERTEX
  5
3F9
100
AcDbEntity
  8
止水栓
  6
CONTINUOUS
 62
     6
100
AcDbVertex
100
AcDb2dVertex
 10
422.947997
 20
2162.62598
 30
0.0
  0
VERTEX
  5
3FA
100
AcDbEntity
  8
止水栓
  6
CONTINUOUS
 62
     6
100
AcDbVertex
100
AcDb2dVertex
 10
423.16284
 20
2162.645511
 30
0.0
  0
VERTEX
  5
3FB
100
AcDbEntity
  8
止水栓
  6
CONTINUOUS
 62
     6
100
AcDbVertex
100
AcDb2dVertex
 10
423.372801
 20
2162.696781
 30
0.0
  0
VERTEX
  5
3FC
100
AcDbEntity
  8
止水栓
  6
CONTINUOUS
 62
     6
100
AcDbVertex
100
AcDb2dVertex
 10
423.582762
 20
2162.784672
 30
0.0
  0
VERTEX
  5
3FD
100
AcDbEntity
  8
止水栓
  6
CONTINUOUS
 62
     6
100
AcDbVertex
100
AcDb2dVertex
 10
423.785399
 20
2162.906742
 30
0.0
  0
VERTEX
  5
3FE
100
AcDbEntity
  8
止水栓
  6
CONTINUOUS
 62
     6
100
AcDbVertex
100
AcDb2dVertex
 10
423.983153
 20
2163.06055
 30
0.0
  0
SEQEND
  5
3FF
100
AcDbEntity
  8
止水栓
  6
CONTINUOUS
 62
     6
  0
POLYLINE
  5
400
100
AcDbEntity
  8
止水栓
  6
CONTINUOUS
 62
     6
100
AcDb2dPolyline
 66
     1
 10
0.0
 20
0.0
 30
0.0
 70
   128
  0
VERTEX
  5
401
100
AcDbEntity
  8
止水栓
  6
CONTINUOUS
 62
     6
100
AcDbVertex
100
AcDb2dVertex
 10
425.313719
 20
2166.058597
 30
0.0
  0
VERTEX
  5
402
100
AcDbEntity
  8
止水栓
  6
CONTINUOUS
 62
     6
100
AcDbVertex
100
AcDb2dVertex
 10
425.360106
 20
2166.451664
 30
0.0
  0
VERTEX
  5
403
100
AcDbEntity
  8
止水栓
  6
CONTINUOUS
 62
     6
100
AcDbVertex
100
AcDb2dVertex
 10
425.389403
 20
2166.852054
 30
0.0
  0
VERTEX
  5
404
100
AcDbEntity
  8
止水栓
  6
CONTINUOUS
 62
     6
100
AcDbVertex
100
AcDb2dVertex
 10
425.399168
 20
2167.254886
 30
0.0
  0
SEQEND
  5
405
100
AcDbEntity
  8
止水栓
  6
CONTINUOUS
 62
     6
  0
POLYLINE
  5
406
100
AcDbEntity
  8
止水栓
  6
CONTINUOUS
 62
     6
100
AcDb2dPolyline
 66
     1
 10
0.0
 20
0.0
 30
0.0
 70
   128
  0
VERTEX
  5
407
100
AcDbEntity
  8
止水栓
  6
CONTINUOUS
 62
     6
100
AcDbVertex
100
AcDb2dVertex
 10
423.983153
 20
2163.06055
 30
0.0
  0
VERTEX
  5
408
100
AcDbEntity
  8
止水栓
  6
CONTINUOUS
 62
     6
100
AcDbVertex
100
AcDb2dVertex
 10
424.173582
 20
2163.246097
 30
0.0
  0
VERTEX
  5
409
100
AcDbEntity
  8
止水栓
  6
CONTINUOUS
 62
     6
100
AcDbVertex
100
AcDb2dVertex
 10
424.354247
 20
2163.463383
 30
0.0
  0
VERTEX
  5
40A
100
AcDbEntity
  8
止水栓
  6
CONTINUOUS
 62
     6
100
AcDbVertex
100
AcDb2dVertex
 10
424.522704
 20
2163.709965
 30
0.0
  0
VERTEX
  5
40B
100
AcDbEntity
  8
止水栓
  6
CONTINUOUS
 62
     6
100
AcDbVertex
100
AcDb2dVertex
 10
424.681395
 20
2163.983402
 30
0.0
  0
VERTEX
  5
40C
100
AcDbEntity
  8
止水栓
  6
CONTINUOUS
 62
     6
100
AcDbVertex
100
AcDb2dVertex
 10
424.825438
 20
2164.281254
 30
0.0
  0
VERTEX
  5
40D
100
AcDbEntity
  8
止水栓
  6
CONTINUOUS
 62
     6
100
AcDbVertex
100
AcDb2dVertex
 10
424.954832
 20
2164.601078
 30
0.0
  0
VERTEX
  5
40E
100
AcDbEntity
  8
止水栓
  6
CONTINUOUS
 62
     6
100
AcDbVertex
100
AcDb2dVertex
 10
425.069579
 20
2164.940433
 30
0.0
  0
VERTEX
  5
40F
100
AcDbEntity
  8
止水栓
  6
CONTINUOUS
 62
     6
100
AcDbVertex
100
AcDb2dVertex
 10
425.169676
 20
2165.29932
 30
0.0
  0
VERTEX
  5
410
100
AcDbEntity
  8
止水栓
  6
CONTINUOUS
 62
     6
100
AcDbVertex
100
AcDb2dVertex
 10
425.250243
 20
2165.672855
 30
0.0
  0
VERTEX
  5
411
100
AcDbEntity
  8
止水栓
  6
CONTINUOUS
 62
     6
100
AcDbVertex
100
AcDb2dVertex
 10
425.313719
 20
2166.058597
 30
0.0
  0
SEQEND
  5
412
100
AcDbEntity
  8
止水栓
  6
CONTINUOUS
 62
     6
  0
ARC
  5
413
100
AcDbEntity
  8
止水栓
  6
CONTINUOUS
 62
     6
100
AcDbCircle
 10
431.251219
 20
2166.998539
 30
0.0
 40
10.99987
100
AcDbArc
 50
146.937744
 51
213.054688
  0
LINE
  5
414
100
AcDbEntity
  8
止水栓
  6
CONTINUOUS
 62
     6
100
AcDbLine
 10
426.500944
 20
2206.773685
 30
0.0
 11
426.500944
 21
2219.500004
 31
0.0
  0
LINE
  5
415
100
AcDbEntity
  8
止水栓
  6
CONTINUOUS
 62
     6
100
AcDbLine
 10
439.500944
 20
2206.773685
 30
0.0
 11
439.500944
 21
2219.500004
 31
0.0
  0
LINE
  5
416
100
AcDbEntity
  8
止水栓
  6
EXLTYPE3
 62
     6
100
AcDbLine
 10
387.999997
 20
867.000492
 30
0.0
 11
387.999997
 21
737.880984
 31
0.0
  0
ARC
  5
417
100
AcDbEntity
  8
止水栓
  6
EXLTYPE3
 62
     6
100
AcDbCircle
 10
403.141665
 20
737.880984
 30
0.0
 40
15.141669
100
AcDbArc
 50
180.0
 51
0.0
  0
LINE
  5
418
100
AcDbEntity
  8
止水栓
  6
EXLTYPE2
 62
     6
100
AcDbLine
 10
397.149045
 20
892.00235
 30
0.0
 11
397.149045
 21
885.519926
 31
0.0
  0
LINE
  5
419
100
AcDbEntity
  8
止水栓
  6
EXLTYPE2
 62
     6
100
AcDbLine
 10
376.199045
 20
891.000004
 30
0.0
 11
376.199045
 21
885.519926
 31
0.0
  0
ARC
  5
41A
100
AcDbEntity
  8
止水栓
  6
EXLTYPE2
 62
     6
100
AcDbCircle
 10
388.42377
 20
879.521391
 30
0.0
 40
10.99987
100
AcDbArc
 50
326.937744
 51
33.054687
  0
POLYLINE
  5
41B
100
AcDbEntity
  8
止水栓
  6
EXLTYPE2
 62
     6
100
AcDb2dPolyline
 66
     1
 10
0.0
 20
0.0
 30
0.0
 70
   128
  0
VERTEX
  5
41C
100
AcDbEntity
  8
止水栓
  6
EXLTYPE2
 62
     6
100
AcDbVertex
100
AcDb2dVertex
 10
394.275821
 20
879.262602
 30
0.0
  0
VERTEX
  5
41D
100
AcDbEntity
  8
止水栓
  6
EXLTYPE2
 62
     6
100
AcDbVertex
100
AcDb2dVertex
 10
394.285587
 20
878.85977
 30
0.0
  0
VERTEX
  5
41E
100
AcDbEntity
  8
止水栓
  6
EXLTYPE2
 62
     6
100
AcDbVertex
100
AcDb2dVertex
 10
394.314883
 20
878.459379
 30
0.0
  0
VERTEX
  5
41F
100
AcDbEntity
  8
止水栓
  6
EXLTYPE2
 62
     6
100
AcDbVertex
100
AcDb2dVertex
 10
394.36127
 20
878.063871
 30
0.0
  0
VERTEX
  5
420
100
AcDbEntity
  8
止水栓
  6
EXLTYPE2
 62
     6
100
AcDbVertex
100
AcDb2dVertex
 10
394.424747
 20
877.680571
 30
0.0
  0
VERTEX
  5
421
100
AcDbEntity
  8
止水栓
  6
EXLTYPE2
 62
     6
100
AcDbVertex
100
AcDb2dVertex
 10
394.505313
 20
877.307035
 30
0.0
  0
VERTEX
  5
422
100
AcDbEntity
  8
止水栓
  6
EXLTYPE2
 62
     6
100
AcDbVertex
100
AcDb2dVertex
 10
394.605411
 20
876.948149
 30
0.0
  0
VERTEX
  5
423
100
AcDbEntity
  8
止水栓
  6
EXLTYPE2
 62
     6
100
AcDbVertex
100
AcDb2dVertex
 10
394.720157
 20
876.608793
 30
0.0
  0
VERTEX
  5
424
100
AcDbEntity
  8
止水栓
  6
EXLTYPE2
 62
     6
100
AcDbVertex
100
AcDb2dVertex
 10
394.849551
 20
876.286528
 30
0.0
  0
VERTEX
  5
425
100
AcDbEntity
  8
止水栓
  6
EXLTYPE2
 62
     6
100
AcDbVertex
100
AcDb2dVertex
 10
394.993594
 20
875.988676
 30
0.0
  0
VERTEX
  5
426
100
AcDbEntity
  8
止水栓
  6
EXLTYPE2
 62
     6
100
AcDbVertex
100
AcDb2dVertex
 10
395.152286
 20
875.71768
 30
0.0
  0
VERTEX
  5
427
100
AcDbEntity
  8
止水栓
  6
EXLTYPE2
 62
     6
100
AcDbVertex
100
AcDb2dVertex
 10
395.320743
 20
875.471098
 30
0.0
  0
VERTEX
  5
428
100
AcDbEntity
  8
止水栓
  6
EXLTYPE2
 62
     6
100
AcDbVertex
100
AcDb2dVertex
 10
395.501407
 20
875.253813
 30
0.0
  0
VERTEX
  5
429
100
AcDbEntity
  8
止水栓
  6
EXLTYPE2
 62
     6
100
AcDbVertex
100
AcDb2dVertex
 10
395.691837
 20
875.065824
 30
0.0
  0
VERTEX
  5
42A
100
AcDbEntity
  8
止水栓
  6
EXLTYPE2
 62
     6
100
AcDbVertex
100
AcDb2dVertex
 10
395.88959
 20
874.912016
 30
0.0
  0
VERTEX
  5
42B
100
AcDbEntity
  8
止水栓
  6
EXLTYPE2
 62
     6
100
AcDbVertex
100
AcDb2dVertex
 10
396.092227
 20
874.792387
 30
0.0
  0
VERTEX
  5
42C
100
AcDbEntity
  8
止水栓
  6
EXLTYPE2
 62
     6
100
AcDbVertex
100
AcDb2dVertex
 10
396.302188
 20
874.704496
 30
0.0
  0
VERTEX
  5
42D
100
AcDbEntity
  8
止水栓
  6
EXLTYPE2
 62
     6
100
AcDbVertex
100
AcDb2dVertex
 10
396.512149
 20
874.650785
 30
0.0
  0
VERTEX
  5
42E
100
AcDbEntity
  8
止水栓
  6
EXLTYPE2
 62
     6
100
AcDbVertex
100
AcDb2dVertex
 10
396.726993
 20
874.633696
 30
0.0
  0
VERTEX
  5
42F
100
AcDbEntity
  8
止水栓
  6
EXLTYPE2
 62
     6
100
AcDbVertex
100
AcDb2dVertex
 10
396.939395
 20
874.650785
 30
0.0
  0
VERTEX
  5
430
100
AcDbEntity
  8
止水栓
  6
EXLTYPE2
 62
     6
100
AcDbVertex
100
AcDb2dVertex
 10
397.151798
 20
874.704496
 30
0.0
  0
VERTEX
  5
431
100
AcDbEntity
  8
止水栓
  6
EXLTYPE2
 62
     6
100
AcDbVertex
100
AcDb2dVertex
 10
397.361758
 20
874.792387
 30
0.0
  0
VERTEX
  5
432
100
AcDbEntity
  8
止水栓
  6
EXLTYPE2
 62
     6
100
AcDbVertex
100
AcDb2dVertex
 10
397.564395
 20
874.912016
 30
0.0
  0
VERTEX
  5
433
100
AcDbEntity
  8
止水栓
  6
EXLTYPE2
 62
     6
100
AcDbVertex
100
AcDb2dVertex
 10
397.762149
 20
875.068266
 30
0.0
  0
VERTEX
  5
434
100
AcDbEntity
  8
止水栓
  6
EXLTYPE2
 62
     6
100
AcDbVertex
100
AcDb2dVertex
 10
397.950137
 20
875.253813
 30
0.0
  0
VERTEX
  5
435
100
AcDbEntity
  8
止水栓
  6
EXLTYPE2
 62
     6
100
AcDbVertex
100
AcDb2dVertex
 10
398.130801
 20
875.471098
 30
0.0
  0
VERTEX
  5
436
100
AcDbEntity
  8
止水栓
  6
EXLTYPE2
 62
     6
100
AcDbVertex
100
AcDb2dVertex
 10
398.3017
 20
875.715238
 30
0.0
  0
VERTEX
  5
437
100
AcDbEntity
  8
止水栓
  6
EXLTYPE2
 62
     6
100
AcDbVertex
100
AcDb2dVertex
 10
398.45795
 20
875.988676
 30
0.0
  0
VERTEX
  5
438
100
AcDbEntity
  8
止水栓
  6
EXLTYPE2
 62
     6
100
AcDbVertex
100
AcDb2dVertex
 10
398.601993
 20
876.286528
 30
0.0
  0
VERTEX
  5
439
100
AcDbEntity
  8
止水栓
  6
EXLTYPE2
 62
     6
100
AcDbVertex
100
AcDb2dVertex
 10
398.733829
 20
876.608793
 30
0.0
  0
VERTEX
  5
43A
100
AcDbEntity
  8
止水栓
  6
EXLTYPE2
 62
     6
100
AcDbVertex
100
AcDb2dVertex
 10
398.848575
 20
876.948149
 30
0.0
  0
VERTEX
  5
43B
100
AcDbEntity
  8
止水栓
  6
EXLTYPE2
 62
     6
100
AcDbVertex
100
AcDb2dVertex
 10
398.946231
 20
877.307035
 30
0.0
  0
VERTEX
  5
43C
100
AcDbEntity
  8
止水栓
  6
EXLTYPE2
 62
     6
100
AcDbVertex
100
AcDb2dVertex
 10
399.026798
 20
877.678129
 30
0.0
  0
VERTEX
  5
43D
100
AcDbEntity
  8
止水栓
  6
EXLTYPE2
 62
     6
100
AcDbVertex
100
AcDb2dVertex
 10
399.092715
 20
878.063871
 30
0.0
  0
VERTEX
  5
43E
100
AcDbEntity
  8
止水栓
  6
EXLTYPE2
 62
     6
100
AcDbVertex
100
AcDb2dVertex
 10
399.139102
 20
878.459379
 30
0.0
  0
VERTEX
  5
43F
100
AcDbEntity
  8
止水栓
  6
EXLTYPE2
 62
     6
100
AcDbVertex
100
AcDb2dVertex
 10
399.165958
 20
878.85977
 30
0.0
  0
VERTEX
  5
440
100
AcDbEntity
  8
止水栓
  6
EXLTYPE2
 62
     6
100
AcDbVertex
100
AcDb2dVertex
 10
399.175723
 20
879.262602
 30
0.0
  0
VERTEX
  5
441
100
AcDbEntity
  8
止水栓
  6
EXLTYPE2
 62
     6
100
AcDbVertex
100
AcDb2dVertex
 10
399.165958
 20
879.665434
 30
0.0
  0
VERTEX
  5
442
100
AcDbEntity
  8
止水栓
  6
EXLTYPE2
 62
     6
100
AcDbVertex
100
AcDb2dVertex
 10
399.139102
 20
880.065824
 30
0.0
  0
VERTEX
  5
443
100
AcDbEntity
  8
止水栓
  6
EXLTYPE2
 62
     6
100
AcDbVertex
100
AcDb2dVertex
 10
399.092715
 20
880.461332
 30
0.0
  0
VERTEX
  5
444
100
AcDbEntity
  8
止水栓
  6
EXLTYPE2
 62
     6
100
AcDbVertex
100
AcDb2dVertex
 10
399.029239
 20
880.847074
 30
0.0
  0
VERTEX
  5
445
100
AcDbEntity
  8
止水栓
  6
EXLTYPE2
 62
     6
100
AcDbVertex
100
AcDb2dVertex
 10
398.946231
 20
881.22061
 30
0.0
  0
VERTEX
  5
446
100
AcDbEntity
  8
止水栓
  6
EXLTYPE2
 62
     6
100
AcDbVertex
100
AcDb2dVertex
 10
398.848575
 20
881.579496
 30
0.0
  0
VERTEX
  5
447
100
AcDbEntity
  8
止水栓
  6
EXLTYPE2
 62
     6
100
AcDbVertex
100
AcDb2dVertex
 10
398.733829
 20
881.918852
 30
0.0
  0
VERTEX
  5
448
100
AcDbEntity
  8
止水栓
  6
EXLTYPE2
 62
     6
100
AcDbVertex
100
AcDb2dVertex
 10
398.601993
 20
882.241117
 30
0.0
  0
VERTEX
  5
449
100
AcDbEntity
  8
止水栓
  6
EXLTYPE2
 62
     6
100
AcDbVertex
100
AcDb2dVertex
 10
398.45795
 20
882.536528
 30
0.0
  0
VERTEX
  5
44A
100
AcDbEntity
  8
止水栓
  6
EXLTYPE2
 62
     6
100
AcDbVertex
100
AcDb2dVertex
 10
398.3017
 20
882.809965
 30
0.0
  0
VERTEX
  5
44B
100
AcDbEntity
  8
止水栓
  6
EXLTYPE2
 62
     6
100
AcDbVertex
100
AcDb2dVertex
 10
398.130801
 20
883.056547
 30
0.0
  0
VERTEX
  5
44C
100
AcDbEntity
  8
止水栓
  6
EXLTYPE2
 62
     6
100
AcDbVertex
100
AcDb2dVertex
 10
397.952579
 20
883.273832
 30
0.0
  0
VERTEX
  5
44D
100
AcDbEntity
  8
止水栓
  6
EXLTYPE2
 62
     6
100
AcDbVertex
100
AcDb2dVertex
 10
397.762149
 20
883.459379
 30
0.0
  0
VERTEX
  5
44E
100
AcDbEntity
  8
止水栓
  6
EXLTYPE2
 62
     6
100
AcDbVertex
100
AcDb2dVertex
 10
397.564395
 20
883.613188
 30
0.0
  0
VERTEX
  5
44F
100
AcDbEntity
  8
止水栓
  6
EXLTYPE2
 62
     6
100
AcDbVertex
100
AcDb2dVertex
 10
397.361758
 20
883.735258
 30
0.0
  0
VERTEX
  5
450
100
AcDbEntity
  8
止水栓
  6
EXLTYPE2
 62
     6
100
AcDbVertex
100
AcDb2dVertex
 10
397.151798
 20
883.823149
 30
0.0
  0
VERTEX
  5
451
100
AcDbEntity
  8
止水栓
  6
EXLTYPE2
 62
     6
100
AcDbVertex
100
AcDb2dVertex
 10
396.939395
 20
883.87686
 30
0.0
  0
VERTEX
  5
452
100
AcDbEntity
  8
止水栓
  6
EXLTYPE2
 62
     6
100
AcDbVertex
100
AcDb2dVertex
 10
396.726993
 20
883.893949
 30
0.0
  0
VERTEX
  5
453
100
AcDbEntity
  8
止水栓
  6
EXLTYPE2
 62
     6
100
AcDbVertex
100
AcDb2dVertex
 10
396.512149
 20
883.874418
 30
0.0
  0
VERTEX
  5
454
100
AcDbEntity
  8
止水栓
  6
EXLTYPE2
 62
     6
100
AcDbVertex
100
AcDb2dVertex
 10
396.302188
 20
883.823149
 30
0.0
  0
VERTEX
  5
455
100
AcDbEntity
  8
止水栓
  6
EXLTYPE2
 62
     6
100
AcDbVertex
100
AcDb2dVertex
 10
396.092227
 20
883.735258
 30
0.0
  0
VERTEX
  5
456
100
AcDbEntity
  8
止水栓
  6
EXLTYPE2
 62
     6
100
AcDbVertex
100
AcDb2dVertex
 10
395.88959
 20
883.613188
 30
0.0
  0
VERTEX
  5
457
100
AcDbEntity
  8
止水栓
  6
EXLTYPE2
 62
     6
100
AcDbVertex
100
AcDb2dVertex
 10
395.691837
 20
883.459379
 30
0.0
  0
SEQEND
  5
458
100
AcDbEntity
  8
止水栓
  6
EXLTYPE2
 62
     6
  0
LINE
  5
459
100
AcDbEntity
  8
止水栓
  6
EXLTYPE2
 62
     6
100
AcDbLine
 10
397.173282
 20
873.520414
 30
0.0
 11
397.173282
 21
868.520414
 31
0.0
  0
POLYLINE
  5
45A
100
AcDbEntity
  8
止水栓
  6
EXLTYPE2
 62
     6
100
AcDb2dPolyline
 66
     1
 10
0.0
 20
0.0
 30
0.0
 70
   128
  0
VERTEX
  5
45B
100
AcDbEntity
  8
止水栓
  6
EXLTYPE2
 62
     6
100
AcDbVertex
100
AcDb2dVertex
 10
374.178165
 20
879.269926
 30
0.0
  0
VERTEX
  5
45C
100
AcDbEntity
  8
止水栓
  6
EXLTYPE2
 62
     6
100
AcDbVertex
100
AcDb2dVertex
 10
374.18793
 20
878.832914
 30
0.0
  0
VERTEX
  5
45D
100
AcDbEntity
  8
止水栓
  6
EXLTYPE2
 62
     6
100
AcDbVertex
100
AcDb2dVertex
 10
374.214786
 20
878.400785
 30
0.0
  0
VERTEX
  5
45E
100
AcDbEntity
  8
止水栓
  6
EXLTYPE2
 62
     6
100
AcDbVertex
100
AcDb2dVertex
 10
374.261173
 20
877.975981
 30
0.0
  0
VERTEX
  5
45F
100
AcDbEntity
  8
止水栓
  6
EXLTYPE2
 62
     6
100
AcDbVertex
100
AcDb2dVertex
 10
374.32709
 20
877.560942
 30
0.0
  0
VERTEX
  5
460
100
AcDbEntity
  8
止水栓
  6
EXLTYPE2
 62
     6
100
AcDbVertex
100
AcDb2dVertex
 10
374.407657
 20
877.160551
 30
0.0
  0
VERTEX
  5
461
100
AcDbEntity
  8
止水栓
  6
EXLTYPE2
 62
     6
100
AcDbVertex
100
AcDb2dVertex
 10
374.505313
 20
876.774809
 30
0.0
  0
VERTEX
  5
462
100
AcDbEntity
  8
止水栓
  6
EXLTYPE2
 62
     6
100
AcDbVertex
100
AcDb2dVertex
 10
374.622501
 20
876.406156
 30
0.0
  0
VERTEX
  5
463
100
AcDbEntity
  8
止水栓
  6
EXLTYPE2
 62
     6
100
AcDbVertex
100
AcDb2dVertex
 10
374.751895
 20
876.061918
 30
0.0
  0
VERTEX
  5
464
100
AcDbEntity
  8
止水栓
  6
EXLTYPE2
 62
     6
100
AcDbVertex
100
AcDb2dVertex
 10
374.895938
 20
875.739653
 30
0.0
  0
VERTEX
  5
465
100
AcDbEntity
  8
止水栓
  6
EXLTYPE2
 62
     6
100
AcDbVertex
100
AcDb2dVertex
 10
375.05463
 20
875.446684
 30
0.0
  0
VERTEX
  5
466
100
AcDbEntity
  8
止水栓
  6
EXLTYPE2
 62
     6
100
AcDbVertex
100
AcDb2dVertex
 10
375.223087
 20
875.180571
 30
0.0
  0
VERTEX
  5
467
100
AcDbEntity
  8
止水栓
  6
EXLTYPE2
 62
     6
100
AcDbVertex
100
AcDb2dVertex
 10
375.403751
 20
874.948637
 30
0.0
  0
VERTEX
  5
468
100
AcDbEntity
  8
止水栓
  6
EXLTYPE2
 62
     6
100
AcDbVertex
100
AcDb2dVertex
 10
375.591739
 20
874.746
 30
0.0
  0
VERTEX
  5
469
100
AcDbEntity
  8
止水栓
  6
EXLTYPE2
 62
     6
100
AcDbVertex
100
AcDb2dVertex
 10
375.789493
 20
874.579985
 30
0.0
  0
VERTEX
  5
46A
100
AcDbEntity
  8
止水栓
  6
EXLTYPE2
 62
     6
100
AcDbVertex
100
AcDb2dVertex
 10
375.994571
 20
874.448149
 30
0.0
  0
VERTEX
  5
46B
100
AcDbEntity
  8
止水栓
  6
EXLTYPE2
 62
     6
100
AcDbVertex
100
AcDb2dVertex
 10
376.20209
 20
874.355375
 30
0.0
  0
VERTEX
  5
46C
100
AcDbEntity
  8
止水栓
  6
EXLTYPE2
 62
     6
100
AcDbVertex
100
AcDb2dVertex
 10
376.414493
 20
874.296781
 30
0.0
  0
VERTEX
  5
46D
100
AcDbEntity
  8
止水栓
  6
EXLTYPE2
 62
     6
100
AcDbVertex
100
AcDb2dVertex
 10
376.626895
 20
874.279692
 30
0.0
  0
VERTEX
  5
46E
100
AcDbEntity
  8
止水栓
  6
EXLTYPE2
 62
     6
100
AcDbVertex
100
AcDb2dVertex
 10
376.841739
 20
874.299223
 30
0.0
  0
VERTEX
  5
46F
100
AcDbEntity
  8
止水栓
  6
EXLTYPE2
 62
     6
100
AcDbVertex
100
AcDb2dVertex
 10
377.054141
 20
874.355375
 30
0.0
  0
VERTEX
  5
470
100
AcDbEntity
  8
止水栓
  6
EXLTYPE2
 62
     6
100
AcDbVertex
100
AcDb2dVertex
 10
377.261661
 20
874.448149
 30
0.0
  0
VERTEX
  5
471
100
AcDbEntity
  8
止水栓
  6
EXLTYPE2
 62
     6
100
AcDbVertex
100
AcDb2dVertex
 10
377.466739
 20
874.579985
 30
0.0
  0
VERTEX
  5
472
100
AcDbEntity
  8
止水栓
  6
EXLTYPE2
 62
     6
100
AcDbVertex
100
AcDb2dVertex
 10
377.664493
 20
874.746
 30
0.0
  0
VERTEX
  5
473
100
AcDbEntity
  8
止水栓
  6
EXLTYPE2
 62
     6
100
AcDbVertex
100
AcDb2dVertex
 10
377.852481
 20
874.948637
 30
0.0
  0
VERTEX
  5
474
100
AcDbEntity
  8
止水栓
  6
EXLTYPE2
 62
     6
100
AcDbVertex
100
AcDb2dVertex
 10
378.033145
 20
875.183012
 30
0.0
  0
VERTEX
  5
475
100
AcDbEntity
  8
止水栓
  6
EXLTYPE2
 62
     6
100
AcDbVertex
100
AcDb2dVertex
 10
378.201602
 20
875.446684
 30
0.0
  0
VERTEX
  5
476
100
AcDbEntity
  8
止水栓
  6
EXLTYPE2
 62
     6
100
AcDbVertex
100
AcDb2dVertex
 10
378.360294
 20
875.739653
 30
0.0
  0
VERTEX
  5
477
100
AcDbEntity
  8
止水栓
  6
EXLTYPE2
 62
     6
100
AcDbVertex
100
AcDb2dVertex
 10
378.504337
 20
876.061918
 30
0.0
  0
VERTEX
  5
478
100
AcDbEntity
  8
止水栓
  6
EXLTYPE2
 62
     6
100
AcDbVertex
100
AcDb2dVertex
 10
378.633731
 20
876.406156
 30
0.0
  0
VERTEX
  5
479
100
AcDbEntity
  8
止水栓
  6
EXLTYPE2
 62
     6
100
AcDbVertex
100
AcDb2dVertex
 10
378.748477
 20
876.774809
 30
0.0
  0
VERTEX
  5
47A
100
AcDbEntity
  8
止水栓
  6
EXLTYPE2
 62
     6
100
AcDbVertex
100
AcDb2dVertex
 10
378.848575
 20
877.160551
 30
0.0
  0
VERTEX
  5
47B
100
AcDbEntity
  8
止水栓
  6
EXLTYPE2
 62
     6
100
AcDbVertex
100
AcDb2dVertex
 10
378.929141
 20
877.563383
 30
0.0
  0
VERTEX
  5
47C
100
AcDbEntity
  8
止水栓
  6
EXLTYPE2
 62
     6
100
AcDbVertex
100
AcDb2dVertex
 10
378.995059
 20
877.978422
 30
0.0
  0
VERTEX
  5
47D
100
AcDbEntity
  8
止水栓
  6
EXLTYPE2
 62
     6
100
AcDbVertex
100
AcDb2dVertex
 10
379.041446
 20
878.403227
 30
0.0
  0
VERTEX
  5
47E
100
AcDbEntity
  8
止水栓
  6
EXLTYPE2
 62
     6
100
AcDbVertex
100
AcDb2dVertex
 10
379.068301
 20
878.835356
 30
0.0
  0
VERTEX
  5
47F
100
AcDbEntity
  8
止水栓
  6
EXLTYPE2
 62
     6
100
AcDbVertex
100
AcDb2dVertex
 10
379.078067
 20
879.269926
 30
0.0
  0
VERTEX
  5
480
100
AcDbEntity
  8
止水栓
  6
EXLTYPE2
 62
     6
100
AcDbVertex
100
AcDb2dVertex
 10
379.068301
 20
879.704496
 30
0.0
  0
VERTEX
  5
481
100
AcDbEntity
  8
止水栓
  6
EXLTYPE2
 62
     6
100
AcDbVertex
100
AcDb2dVertex
 10
379.039005
 20
880.136625
 30
0.0
  0
VERTEX
  5
482
100
AcDbEntity
  8
止水栓
  6
EXLTYPE2
 62
     6
100
AcDbVertex
100
AcDb2dVertex
 10
378.992618
 20
880.56143
 30
0.0
  0
VERTEX
  5
483
100
AcDbEntity
  8
止水栓
  6
EXLTYPE2
 62
     6
100
AcDbVertex
100
AcDb2dVertex
 10
378.929141
 20
880.976469
 30
0.0
  0
VERTEX
  5
484
100
AcDbEntity
  8
止水栓
  6
EXLTYPE2
 62
     6
100
AcDbVertex
100
AcDb2dVertex
 10
378.848575
 20
881.379301
 30
0.0
  0
VERTEX
  5
485
100
AcDbEntity
  8
止水栓
  6
EXLTYPE2
 62
     6
100
AcDbVertex
100
AcDb2dVertex
 10
378.748477
 20
881.765043
 30
0.0
  0
VERTEX
  5
486
100
AcDbEntity
  8
止水栓
  6
EXLTYPE2
 62
     6
100
AcDbVertex
100
AcDb2dVertex
 10
378.633731
 20
882.131254
 30
0.0
  0
VERTEX
  5
487
100
AcDbEntity
  8
止水栓
  6
EXLTYPE2
 62
     6
100
AcDbVertex
100
AcDb2dVertex
 10
378.504337
 20
882.477934
 30
0.0
  0
VERTEX
  5
488
100
AcDbEntity
  8
止水栓
  6
EXLTYPE2
 62
     6
100
AcDbVertex
100
AcDb2dVertex
 10
378.360294
 20
882.797758
 30
0.0
  0
VERTEX
  5
489
100
AcDbEntity
  8
止水栓
  6
EXLTYPE2
 62
     6
100
AcDbVertex
100
AcDb2dVertex
 10
378.201602
 20
883.093168
 30
0.0
  0
VERTEX
  5
48A
100
AcDbEntity
  8
止水栓
  6
EXLTYPE2
 62
     6
100
AcDbVertex
100
AcDb2dVertex
 10
378.033145
 20
883.35684
 30
0.0
  0
VERTEX
  5
48B
100
AcDbEntity
  8
止水栓
  6
EXLTYPE2
 62
     6
100
AcDbVertex
100
AcDb2dVertex
 10
377.852481
 20
883.591215
 30
0.0
  0
VERTEX
  5
48C
100
AcDbEntity
  8
止水栓
  6
EXLTYPE2
 62
     6
100
AcDbVertex
100
AcDb2dVertex
 10
377.664493
 20
883.79141
 30
0.0
  0
VERTEX
  5
48D
100
AcDbEntity
  8
止水栓
  6
EXLTYPE2
 62
     6
100
AcDbVertex
100
AcDb2dVertex
 10
377.466739
 20
883.959867
 30
0.0
  0
VERTEX
  5
48E
100
AcDbEntity
  8
止水栓
  6
EXLTYPE2
 62
     6
100
AcDbVertex
100
AcDb2dVertex
 10
377.261661
 20
884.089262
 30
0.0
  0
VERTEX
  5
48F
100
AcDbEntity
  8
止水栓
  6
EXLTYPE2
 62
     6
100
AcDbVertex
100
AcDb2dVertex
 10
377.054141
 20
884.184477
 30
0.0
  0
VERTEX
  5
490
100
AcDbEntity
  8
止水栓
  6
EXLTYPE2
 62
     6
100
AcDbVertex
100
AcDb2dVertex
 10
376.841739
 20
884.240629
 30
0.0
  0
VERTEX
  5
491
100
AcDbEntity
  8
止水栓
  6
EXLTYPE2
 62
     6
100
AcDbVertex
100
AcDb2dVertex
 10
376.626895
 20
884.26016
 30
0.0
  0
VERTEX
  5
492
100
AcDbEntity
  8
止水栓
  6
EXLTYPE2
 62
     6
100
AcDbVertex
100
AcDb2dVertex
 10
376.414493
 20
884.240629
 30
0.0
  0
VERTEX
  5
493
100
AcDbEntity
  8
止水栓
  6
EXLTYPE2
 62
     6
100
AcDbVertex
100
AcDb2dVertex
 10
376.20209
 20
884.184477
 30
0.0
  0
VERTEX
  5
494
100
AcDbEntity
  8
止水栓
  6
EXLTYPE2
 62
     6
100
AcDbVertex
100
AcDb2dVertex
 10
375.994571
 20
884.089262
 30
0.0
  0
VERTEX
  5
495
100
AcDbEntity
  8
止水栓
  6
EXLTYPE2
 62
     6
100
AcDbVertex
100
AcDb2dVertex
 10
375.789493
 20
883.959867
 30
0.0
  0
VERTEX
  5
496
100
AcDbEntity
  8
止水栓
  6
EXLTYPE2
 62
     6
100
AcDbVertex
100
AcDb2dVertex
 10
375.591739
 20
883.79141
 30
0.0
  0
SEQEND
  5
497
100
AcDbEntity
  8
止水栓
  6
EXLTYPE2
 62
     6
  0
ARC
  5
498
100
AcDbEntity
  8
止水栓
  6
EXLTYPE2
 62
     6
100
AcDbCircle
 10
384.922794
 20
879.521391
 30
0.0
 40
10.998535
100
AcDbArc
 50
146.94841
 51
213.059082
  0
LINE
  5
499
100
AcDbEntity
  8
止水栓
  6
EXLTYPE2
 62
     6
100
AcDbLine
 10
376.173282
 20
873.520414
 30
0.0
 11
376.173282
 21
868.520414
 31
0.0
  0
LINE
  5
49A
100
AcDbEntity
  8
止水栓
  6
EXLTYPE2
 62
     6
100
AcDbLine
 10
375.704044
 20
873.520414
 30
0.0
 11
397.64252
 21
873.520414
 31
0.0
  0
LINE
  5
49B
100
AcDbEntity
  8
止水栓
  6
EXLTYPE2
 62
     6
100
AcDbLine
 10
376.173282
 20
868.520414
 30
0.0
 11
397.173282
 21
868.520414
 31
0.0
  0
POLYLINE
  5
49C
100
AcDbEntity
  8
止水栓
  6
EXLTYPE2
 62
     6
100
AcDb2dPolyline
 66
     1
 10
0.0
 20
0.0
 30
0.0
 70
   128
  0
VERTEX
  5
49D
100
AcDbEntity
  8
止水栓
  6
EXLTYPE2
 62
     6
100
AcDbVertex
100
AcDb2dVertex
 10
386.673282
 20
873.735258
 30
0.0
  0
VERTEX
  5
49E
100
AcDbEntity
  8
止水栓
  6
EXLTYPE2
 62
     6
100
AcDbVertex
100
AcDb2dVertex
 10
387.171329
 20
873.757231
 30
0.0
  0
VERTEX
  5
49F
100
AcDbEntity
  8
止水栓
  6
EXLTYPE2
 62
     6
100
AcDbVertex
100
AcDb2dVertex
 10
387.666934
 20
873.823149
 30
0.0
  0
VERTEX
  5
4A0
100
AcDbEntity
  8
止水栓
  6
EXLTYPE2
 62
     6
100
AcDbVertex
100
AcDb2dVertex
 10
388.155215
 20
873.925688
 30
0.0
  0
VERTEX
  5
4A1
100
AcDbEntity
  8
止水栓
  6
EXLTYPE2
 62
     6
100
AcDbVertex
100
AcDb2dVertex
 10
388.641055
 20
874.072172
 30
0.0
  0
VERTEX
  5
4A2
100
AcDbEntity
  8
止水栓
  6
EXLTYPE2
 62
     6
100
AcDbVertex
100
AcDb2dVertex
 10
389.109805
 20
874.257719
 30
0.0
  0
VERTEX
  5
4A3
100
AcDbEntity
  8
止水栓
  6
EXLTYPE2
 62
     6
100
AcDbVertex
100
AcDb2dVertex
 10
389.561465
 20
874.479887
 30
0.0
  0
VERTEX
  5
4A4
100
AcDbEntity
  8
止水栓
  6
EXLTYPE2
 62
     6
100
AcDbVertex
100
AcDb2dVertex
 10
389.991153
 20
874.741117
 30
0.0
  0
VERTEX
  5
4A5
100
AcDbEntity
  8
止水栓
  6
EXLTYPE2
 62
     6
100
AcDbVertex
100
AcDb2dVertex
 10
390.393985
 20
875.036528
 30
0.0
  0
VERTEX
  5
4A6
100
AcDbEntity
  8
止水栓
  6
EXLTYPE2
 62
     6
100
AcDbVertex
100
AcDb2dVertex
 10
390.769962
 20
875.363676
 30
0.0
  0
VERTEX
  5
4A7
100
AcDbEntity
  8
止水栓
  6
EXLTYPE2
 62
     6
100
AcDbVertex
100
AcDb2dVertex
 10
391.111758
 20
875.722563
 30
0.0
  0
VERTEX
  5
4A8
100
AcDbEntity
  8
止水栓
  6
EXLTYPE2
 62
     6
100
AcDbVertex
100
AcDb2dVertex
 10
391.421817
 20
876.108305
 30
0.0
  0
VERTEX
  5
4A9
100
AcDbEntity
  8
止水栓
  6
EXLTYPE2
 62
     6
100
AcDbVertex
100
AcDb2dVertex
 10
391.695255
 20
876.51602
 30
0.0
  0
VERTEX
  5
4AA
100
AcDbEntity
  8
止水栓
  6
EXLTYPE2
 62
     6
100
AcDbVertex
100
AcDb2dVertex
 10
391.932071
 20
876.945707
 30
0.0
  0
VERTEX
  5
4AB
100
AcDbEntity
  8
止水栓
  6
EXLTYPE2
 62
     6
100
AcDbVertex
100
AcDb2dVertex
 10
392.124942
 20
877.394926
 30
0.0
  0
VERTEX
  5
4AC
100
AcDbEntity
  8
止水栓
  6
EXLTYPE2
 62
     6
100
AcDbVertex
100
AcDb2dVertex
 10
392.278751
 20
877.858793
 30
0.0
  0
VERTEX
  5
4AD
100
AcDbEntity
  8
止水栓
  6
EXLTYPE2
 62
     6
100
AcDbVertex
100
AcDb2dVertex
 10
392.388614
 20
878.332426
 30
0.0
  0
VERTEX
  5
4AE
100
AcDbEntity
  8
止水栓
  6
EXLTYPE2
 62
     6
100
AcDbVertex
100
AcDb2dVertex
 10
392.454532
 20
878.813383
 30
0.0
  0
VERTEX
  5
4AF
100
AcDbEntity
  8
止水栓
  6
EXLTYPE2
 62
     6
100
AcDbVertex
100
AcDb2dVertex
 10
392.478946
 20
879.296781
 30
0.0
  0
VERTEX
  5
4B0
100
AcDbEntity
  8
止水栓
  6
EXLTYPE2
 62
     6
100
AcDbVertex
100
AcDb2dVertex
 10
392.454532
 20
879.782621
 30
0.0
  0
VERTEX
  5
4B1
100
AcDbEntity
  8
止水栓
  6
EXLTYPE2
 62
     6
100
AcDbVertex
100
AcDb2dVertex
 10
392.388614
 20
880.263578
 30
0.0
  0
VERTEX
  5
4B2
100
AcDbEntity
  8
止水栓
  6
EXLTYPE2
 62
     6
100
AcDbVertex
100
AcDb2dVertex
 10
392.278751
 20
880.737211
 30
0.0
  0
VERTEX
  5
4B3
100
AcDbEntity
  8
止水栓
  6
EXLTYPE2
 62
     6
100
AcDbVertex
100
AcDb2dVertex
 10
392.124942
 20
881.198637
 30
0.0
  0
VERTEX
  5
4B4
100
AcDbEntity
  8
止水栓
  6
EXLTYPE2
 62
     6
100
AcDbVertex
100
AcDb2dVertex
 10
391.932071
 20
881.647856
 30
0.0
  0
VERTEX
  5
4B5
100
AcDbEntity
  8
止水栓
  6
EXLTYPE2
 62
     6
100
AcDbVertex
100
AcDb2dVertex
 10
391.695255
 20
882.077543
 30
0.0
  0
VERTEX
  5
4B6
100
AcDbEntity
  8
止水栓
  6
EXLTYPE2
 62
     6
100
AcDbVertex
100
AcDb2dVertex
 10
391.421817
 20
882.487699
 30
0.0
  0
VERTEX
  5
4B7
100
AcDbEntity
  8
止水栓
  6
EXLTYPE2
 62
     6
100
AcDbVertex
100
AcDb2dVertex
 10
391.111758
 20
882.871
 30
0.0
  0
VERTEX
  5
4B8
100
AcDbEntity
  8
止水栓
  6
EXLTYPE2
 62
     6
100
AcDbVertex
100
AcDb2dVertex
 10
390.769962
 20
883.229887
 30
0.0
  0
VERTEX
  5
4B9
100
AcDbEntity
  8
止水栓
  6
EXLTYPE2
 62
     6
100
AcDbVertex
100
AcDb2dVertex
 10
390.393985
 20
883.557035
 30
0.0
  0
VERTEX
  5
4BA
100
AcDbEntity
  8
止水栓
  6
EXLTYPE2
 62
     6
100
AcDbVertex
100
AcDb2dVertex
 10
389.991153
 20
883.852446
 30
0.0
  0
VERTEX
  5
4BB
100
AcDbEntity
  8
止水栓
  6
EXLTYPE2
 62
     6
100
AcDbVertex
100
AcDb2dVertex
 10
389.561465
 20
884.113676
 30
0.0
  0
VERTEX
  5
4BC
100
AcDbEntity
  8
止水栓
  6
EXLTYPE2
 62
     6
100
AcDbVertex
100
AcDb2dVertex
 10
389.109805
 20
884.338285
 30
0.0
  0
VERTEX
  5
4BD
100
AcDbEntity
  8
止水栓
  6
EXLTYPE2
 62
     6
100
AcDbVertex
100
AcDb2dVertex
 10
388.641055
 20
884.523832
 30
0.0
  0
VERTEX
  5
4BE
100
AcDbEntity
  8
止水栓
  6
EXLTYPE2
 62
     6
100
AcDbVertex
100
AcDb2dVertex
 10
388.155215
 20
884.667875
 30
0.0
  0
VERTEX
  5
4BF
100
AcDbEntity
  8
止水栓
  6
EXLTYPE2
 62
     6
100
AcDbVertex
100
AcDb2dVertex
 10
387.65961
 20
884.772856
 30
0.0
  0
VERTEX
  5
4C0
100
AcDbEntity
  8
止水栓
  6
EXLTYPE2
 62
     6
100
AcDbVertex
100
AcDb2dVertex
 10
387.154239
 20
884.836332
 30
0.0
  0
VERTEX
  5
4C1
100
AcDbEntity
  8
止水栓
  6
EXLTYPE2
 62
     6
100
AcDbVertex
100
AcDb2dVertex
 10
386.646426
 20
884.858305
 30
0.0
  0
VERTEX
  5
4C2
100
AcDbEntity
  8
止水栓
  6
EXLTYPE2
 62
     6
100
AcDbVertex
100
AcDb2dVertex
 10
386.138614
 20
884.836332
 30
0.0
  0
VERTEX
  5
4C3
100
AcDbEntity
  8
止水栓
  6
EXLTYPE2
 62
     6
100
AcDbVertex
100
AcDb2dVertex
 10
385.633243
 20
884.772856
 30
0.0
  0
VERTEX
  5
4C4
100
AcDbEntity
  8
止水栓
  6
EXLTYPE2
 62
     6
100
AcDbVertex
100
AcDb2dVertex
 10
385.137637
 20
884.667875
 30
0.0
  0
VERTEX
  5
4C5
100
AcDbEntity
  8
止水栓
  6
EXLTYPE2
 62
     6
100
AcDbVertex
100
AcDb2dVertex
 10
384.651798
 20
884.523832
 30
0.0
  0
VERTEX
  5
4C6
100
AcDbEntity
  8
止水栓
  6
EXLTYPE2
 62
     6
100
AcDbVertex
100
AcDb2dVertex
 10
384.183048
 20
884.338285
 30
0.0
  0
VERTEX
  5
4C7
100
AcDbEntity
  8
止水栓
  6
EXLTYPE2
 62
     6
100
AcDbVertex
100
AcDb2dVertex
 10
383.731387
 20
884.113676
 30
0.0
  0
VERTEX
  5
4C8
100
AcDbEntity
  8
止水栓
  6
EXLTYPE2
 62
     6
100
AcDbVertex
100
AcDb2dVertex
 10
383.3017
 20
883.852446
 30
0.0
  0
VERTEX
  5
4C9
100
AcDbEntity
  8
止水栓
  6
EXLTYPE2
 62
     6
100
AcDbVertex
100
AcDb2dVertex
 10
382.898868
 20
883.557035
 30
0.0
  0
VERTEX
  5
4CA
100
AcDbEntity
  8
止水栓
  6
EXLTYPE2
 62
     6
100
AcDbVertex
100
AcDb2dVertex
 10
382.522891
 20
883.229887
 30
0.0
  0
VERTEX
  5
4CB
100
AcDbEntity
  8
止水栓
  6
EXLTYPE2
 62
     6
100
AcDbVertex
100
AcDb2dVertex
 10
382.181094
 20
882.871
 30
0.0
  0
VERTEX
  5
4CC
100
AcDbEntity
  8
止水栓
  6
EXLTYPE2
 62
     6
100
AcDbVertex
100
AcDb2dVertex
 10
381.871036
 20
882.487699
 30
0.0
  0
VERTEX
  5
4CD
100
AcDbEntity
  8
止水栓
  6
EXLTYPE2
 62
     6
100
AcDbVertex
100
AcDb2dVertex
 10
381.597598
 20
882.077543
 30
0.0
  0
VERTEX
  5
4CE
100
AcDbEntity
  8
止水栓
  6
EXLTYPE2
 62
     6
100
AcDbVertex
100
AcDb2dVertex
 10
381.360782
 20
881.647856
 30
0.0
  0
VERTEX
  5
4CF
100
AcDbEntity
  8
止水栓
  6
EXLTYPE2
 62
     6
100
AcDbVertex
100
AcDb2dVertex
 10
381.167911
 20
881.198637
 30
0.0
  0
VERTEX
  5
4D0
100
AcDbEntity
  8
止水栓
  6
EXLTYPE2
 62
     6
100
AcDbVertex
100
AcDb2dVertex
 10
381.014102
 20
880.737211
 30
0.0
  0
VERTEX
  5
4D1
100
AcDbEntity
  8
止水栓
  6
EXLTYPE2
 62
     6
100
AcDbVertex
100
AcDb2dVertex
 10
380.904239
 20
880.263578
 30
0.0
  0
VERTEX
  5
4D2
100
AcDbEntity
  8
止水栓
  6
EXLTYPE2
 62
     6
100
AcDbVertex
100
AcDb2dVertex
 10
380.838321
 20
879.782621
 30
0.0
  0
VERTEX
  5
4D3
100
AcDbEntity
  8
止水栓
  6
EXLTYPE2
 62
     6
100
AcDbVertex
100
AcDb2dVertex
 10
380.816348
 20
879.299223
 30
0.0
  0
SEQEND
  5
4D4
100
AcDbEntity
  8
止水栓
  6
EXLTYPE2
 62
     6
  0
POLYLINE
  5
4D5
100
AcDbEntity
  8
止水栓
  6
EXLTYPE2
 62
     6
100
AcDb2dPolyline
 66
     1
 10
0.0
 20
0.0
 30
0.0
 70
   128
  0
VERTEX
  5
4D6
100
AcDbEntity
  8
止水栓
  6
EXLTYPE2
 62
     6
100
AcDbVertex
100
AcDb2dVertex
 10
380.816348
 20
879.296781
 30
0.0
  0
VERTEX
  5
4D7
100
AcDbEntity
  8
止水栓
  6
EXLTYPE2
 62
     6
100
AcDbVertex
100
AcDb2dVertex
 10
380.838321
 20
878.813383
 30
0.0
  0
VERTEX
  5
4D8
100
AcDbEntity
  8
止水栓
  6
EXLTYPE2
 62
     6
100
AcDbVertex
100
AcDb2dVertex
 10
380.904239
 20
878.332426
 30
0.0
  0
VERTEX
  5
4D9
100
AcDbEntity
  8
止水栓
  6
EXLTYPE2
 62
     6
100
AcDbVertex
100
AcDb2dVertex
 10
381.014102
 20
877.858793
 30
0.0
  0
VERTEX
  5
4DA
100
AcDbEntity
  8
止水栓
  6
EXLTYPE2
 62
     6
100
AcDbVertex
100
AcDb2dVertex
 10
381.167911
 20
877.394926
 30
0.0
  0
VERTEX
  5
4DB
100
AcDbEntity
  8
止水栓
  6
EXLTYPE2
 62
     6
100
AcDbVertex
100
AcDb2dVertex
 10
381.360782
 20
876.948149
 30
0.0
  0
VERTEX
  5
4DC
100
AcDbEntity
  8
止水栓
  6
EXLTYPE2
 62
     6
100
AcDbVertex
100
AcDb2dVertex
 10
381.597598
 20
876.51602
 30
0.0
  0
VERTEX
  5
4DD
100
AcDbEntity
  8
止水栓
  6
EXLTYPE2
 62
     6
100
AcDbVertex
100
AcDb2dVertex
 10
381.871036
 20
876.108305
 30
0.0
  0
VERTEX
  5
4DE
100
AcDbEntity
  8
止水栓
  6
EXLTYPE2
 62
     6
100
AcDbVertex
100
AcDb2dVertex
 10
382.181094
 20
875.722563
 30
0.0
  0
VERTEX
  5
4DF
100
AcDbEntity
  8
止水栓
  6
EXLTYPE2
 62
     6
100
AcDbVertex
100
AcDb2dVertex
 10
382.522891
 20
875.366117
 30
0.0
  0
VERTEX
  5
4E0
100
AcDbEntity
  8
止水栓
  6
EXLTYPE2
 62
     6
100
AcDbVertex
100
AcDb2dVertex
 10
382.898868
 20
875.036528
 30
0.0
  0
VERTEX
  5
4E1
100
AcDbEntity
  8
止水栓
  6
EXLTYPE2
 62
     6
100
AcDbVertex
100
AcDb2dVertex
 10
383.3017
 20
874.743559
 30
0.0
  0
VERTEX
  5
4E2
100
AcDbEntity
  8
止水栓
  6
EXLTYPE2
 62
     6
100
AcDbVertex
100
AcDb2dVertex
 10
383.731387
 20
874.479887
 30
0.0
  0
VERTEX
  5
4E3
100
AcDbEntity
  8
止水栓
  6
EXLTYPE2
 62
     6
100
AcDbVertex
100
AcDb2dVertex
 10
384.183048
 20
874.255278
 30
0.0
  0
VERTEX
  5
4E4
100
AcDbEntity
  8
止水栓
  6
EXLTYPE2
 62
     6
100
AcDbVertex
100
AcDb2dVertex
 10
384.651798
 20
874.069731
 30
0.0
  0
VERTEX
  5
4E5
100
AcDbEntity
  8
止水栓
  6
EXLTYPE2
 62
     6
100
AcDbVertex
100
AcDb2dVertex
 10
385.137637
 20
873.925688
 30
0.0
  0
VERTEX
  5
4E6
100
AcDbEntity
  8
止水栓
  6
EXLTYPE2
 62
     6
100
AcDbVertex
100
AcDb2dVertex
 10
385.633243
 20
873.820707
 30
0.0
  0
VERTEX
  5
4E7
100
AcDbEntity
  8
止水栓
  6
EXLTYPE2
 62
     6
100
AcDbVertex
100
AcDb2dVertex
 10
386.138614
 20
873.757231
 30
0.0
  0
VERTEX
  5
4E8
100
AcDbEntity
  8
止水栓
  6
EXLTYPE2
 62
     6
100
AcDbVertex
100
AcDb2dVertex
 10
386.646426
 20
873.735258
 30
0.0
  0
VERTEX
  5
4E9
100
AcDbEntity
  8
止水栓
  6
EXLTYPE2
 62
     6
100
AcDbVertex
100
AcDb2dVertex
 10
386.656192
 20
873.735258
 30
0.0
  0
VERTEX
  5
4EA
100
AcDbEntity
  8
止水栓
  6
EXLTYPE2
 62
     6
100
AcDbVertex
100
AcDb2dVertex
 10
386.663516
 20
873.735258
 30
0.0
  0
VERTEX
  5
4EB
100
AcDbEntity
  8
止水栓
  6
EXLTYPE2
 62
     6
100
AcDbVertex
100
AcDb2dVertex
 10
386.673282
 20
873.735258
 30
0.0
  0
SEQEND
  5
4EC
100
AcDbEntity
  8
止水栓
  6
EXLTYPE2
 62
     6
  0
POLYLINE
  5
4ED
100
AcDbEntity
  8
止水栓
  6
EXLTYPE2
 62
     6
100
AcDb2dPolyline
 66
     1
 10
0.0
 20
0.0
 30
0.0
 70
   128
  0
VERTEX
  5
4EE
100
AcDbEntity
  8
止水栓
  6
EXLTYPE2
 62
     6
100
AcDbVertex
100
AcDb2dVertex
 10
394.36127
 20
880.461332
 30
0.0
  0
VERTEX
  5
4EF
100
AcDbEntity
  8
止水栓
  6
EXLTYPE2
 62
     6
100
AcDbVertex
100
AcDb2dVertex
 10
394.314883
 20
880.068266
 30
0.0
  0
VERTEX
  5
4F0
100
AcDbEntity
  8
止水栓
  6
EXLTYPE2
 62
     6
100
AcDbVertex
100
AcDb2dVertex
 10
394.285587
 20
879.667875
 30
0.0
  0
VERTEX
  5
4F1
100
AcDbEntity
  8
止水栓
  6
EXLTYPE2
 62
     6
100
AcDbVertex
100
AcDb2dVertex
 10
394.275821
 20
879.265043
 30
0.0
  0
SEQEND
  5
4F2
100
AcDbEntity
  8
止水栓
  6
EXLTYPE2
 62
     6
  0
POLYLINE
  5
4F3
100
AcDbEntity
  8
止水栓
  6
EXLTYPE2
 62
     6
100
AcDb2dPolyline
 66
     1
 10
0.0
 20
0.0
 30
0.0
 70
   128
  0
VERTEX
  5
4F4
100
AcDbEntity
  8
止水栓
  6
EXLTYPE2
 62
     6
100
AcDbVertex
100
AcDb2dVertex
 10
374.261173
 20
880.56143
 30
0.0
  0
VERTEX
  5
4F5
100
AcDbEntity
  8
止水栓
  6
EXLTYPE2
 62
     6
100
AcDbVertex
100
AcDb2dVertex
 10
374.214786
 20
880.136625
 30
0.0
  0
VERTEX
  5
4F6
100
AcDbEntity
  8
止水栓
  6
EXLTYPE2
 62
     6
100
AcDbVertex
100
AcDb2dVertex
 10
374.18793
 20
879.704496
 30
0.0
  0
VERTEX
  5
4F7
100
AcDbEntity
  8
止水栓
  6
EXLTYPE2
 62
     6
100
AcDbVertex
100
AcDb2dVertex
 10
374.178165
 20
879.269926
 30
0.0
  0
SEQEND
  5
4F8
100
AcDbEntity
  8
止水栓
  6
EXLTYPE2
 62
     6
  0
POLYLINE
  5
4F9
100
AcDbEntity
  8
止水栓
  6
EXLTYPE2
 62
     6
100
AcDb2dPolyline
 66
     1
 10
0.0
 20
0.0
 30
0.0
 70
   128
  0
VERTEX
  5
4FA
100
AcDbEntity
  8
止水栓
  6
EXLTYPE2
 62
     6
100
AcDbVertex
100
AcDb2dVertex
 10
395.691837
 20
883.459379
 30
0.0
  0
VERTEX
  5
4FB
100
AcDbEntity
  8
止水栓
  6
EXLTYPE2
 62
     6
100
AcDbVertex
100
AcDb2dVertex
 10
395.501407
 20
883.273832
 30
0.0
  0
VERTEX
  5
4FC
100
AcDbEntity
  8
止水栓
  6
EXLTYPE2
 62
     6
100
AcDbVertex
100
AcDb2dVertex
 10
395.320743
 20
883.056547
 30
0.0
  0
VERTEX
  5
4FD
100
AcDbEntity
  8
止水栓
  6
EXLTYPE2
 62
     6
100
AcDbVertex
100
AcDb2dVertex
 10
395.152286
 20
882.809965
 30
0.0
  0
VERTEX
  5
4FE
100
AcDbEntity
  8
止水栓
  6
EXLTYPE2
 62
     6
100
AcDbVertex
100
AcDb2dVertex
 10
394.993594
 20
882.536528
 30
0.0
  0
VERTEX
  5
4FF
100
AcDbEntity
  8
止水栓
  6
EXLTYPE2
 62
     6
100
AcDbVertex
100
AcDb2dVertex
 10
394.849551
 20
882.238676
 30
0.0
  0
VERTEX
  5
500
100
AcDbEntity
  8
止水栓
  6
EXLTYPE2
 62
     6
100
AcDbVertex
100
AcDb2dVertex
 10
394.720157
 20
881.918852
 30
0.0
  0
VERTEX
  5
501
100
AcDbEntity
  8
止水栓
  6
EXLTYPE2
 62
     6
100
AcDbVertex
100
AcDb2dVertex
 10
394.605411
 20
881.579496
 30
0.0
  0
VERTEX
  5
502
100
AcDbEntity
  8
止水栓
  6
EXLTYPE2
 62
     6
100
AcDbVertex
100
AcDb2dVertex
 10
394.505313
 20
881.22061
 30
0.0
  0
VERTEX
  5
503
100
AcDbEntity
  8
止水栓
  6
EXLTYPE2
 62
     6
100
AcDbVertex
100
AcDb2dVertex
 10
394.424747
 20
880.847074
 30
0.0
  0
VERTEX
  5
504
100
AcDbEntity
  8
止水栓
  6
EXLTYPE2
 62
     6
100
AcDbVertex
100
AcDb2dVertex
 10
394.36127
 20
880.461332
 30
0.0
  0
SEQEND
  5
505
100
AcDbEntity
  8
止水栓
  6
EXLTYPE2
 62
     6
  0
POLYLINE
  5
506
100
AcDbEntity
  8
止水栓
  6
EXLTYPE2
 62
     6
100
AcDb2dPolyline
 66
     1
 10
0.0
 20
0.0
 30
0.0
 70
   128
  0
VERTEX
  5
507
100
AcDbEntity
  8
止水栓
  6
EXLTYPE2
 62
     6
100
AcDbVertex
100
AcDb2dVertex
 10
375.591739
 20
883.79141
 30
0.0
  0
VERTEX
  5
508
100
AcDbEntity
  8
止水栓
  6
EXLTYPE2
 62
     6
100
AcDbVertex
100
AcDb2dVertex
 10
375.403751
 20
883.591215
 30
0.0
  0
VERTEX
  5
509
100
AcDbEntity
  8
止水栓
  6
EXLTYPE2
 62
     6
100
AcDbVertex
100
AcDb2dVertex
 10
375.223087
 20
883.35684
 30
0.0
  0
VERTEX
  5
50A
100
AcDbEntity
  8
止水栓
  6
EXLTYPE2
 62
     6
100
AcDbVertex
100
AcDb2dVertex
 10
375.052188
 20
883.093168
 30
0.0
  0
VERTEX
  5
50B
100
AcDbEntity
  8
止水栓
  6
EXLTYPE2
 62
     6
100
AcDbVertex
100
AcDb2dVertex
 10
374.895938
 20
882.797758
 30
0.0
  0
VERTEX
  5
50C
100
AcDbEntity
  8
止水栓
  6
EXLTYPE2
 62
     6
100
AcDbVertex
100
AcDb2dVertex
 10
374.751895
 20
882.477934
 30
0.0
  0
VERTEX
  5
50D
100
AcDbEntity
  8
止水栓
  6
EXLTYPE2
 62
     6
100
AcDbVertex
100
AcDb2dVertex
 10
374.620059
 20
882.131254
 30
0.0
  0
VERTEX
  5
50E
100
AcDbEntity
  8
止水栓
  6
EXLTYPE2
 62
     6
100
AcDbVertex
100
AcDb2dVertex
 10
374.505313
 20
881.765043
 30
0.0
  0
VERTEX
  5
50F
100
AcDbEntity
  8
止水栓
  6
EXLTYPE2
 62
     6
100
AcDbVertex
100
AcDb2dVertex
 10
374.407657
 20
881.379301
 30
0.0
  0
VERTEX
  5
510
100
AcDbEntity
  8
止水栓
  6
EXLTYPE2
 62
     6
100
AcDbVertex
100
AcDb2dVertex
 10
374.32709
 20
880.976469
 30
0.0
  0
VERTEX
  5
511
100
AcDbEntity
  8
止水栓
  6
EXLTYPE2
 62
     6
100
AcDbVertex
100
AcDb2dVertex
 10
374.261173
 20
880.56143
 30
0.0
  0
SEQEND
  5
512
100
AcDbEntity
  8
止水栓
  6
EXLTYPE2
 62
     6
  0
LINE
  5
513
100
AcDbEntity
  8
止水栓
  6
EXLTYPE2
 62
     6
100
AcDbLine
 10
375.704044
 20
885.519926
 30
0.0
 11
397.644046
 21
885.519926
 31
0.0
  0
LINE
  5
514
100
AcDbEntity
  8
止水栓
  6
EXLTYPE3
 62
     6
100
AcDbLine
 10
324.84
 20
908.000004
 30
0.0
 11
408.499999
 21
908.000004
 31
0.0
  0
LINE
  5
515
100
AcDbEntity
  8
止水栓
  6
EXLTYPE3
 62
     6
100
AcDbLine
 10
418.283334
 20
989.500732
 30
0.0
 11
418.283334
 21
737.880984
 31
0.0
  0
LINE
  5
516
100
AcDbEntity
  8
止水栓
  6
CONTINUOUS
 62
     6
100
AcDbLine
 10
424.793372
 20
989.500732
 30
0.0
 11
439.5
 21
724.977226
 31
0.0
  0
LINE
  5
517
100
AcDbEntity
  8
止水栓
  6
CONTINUOUS
 62
     6
100
AcDbLine
 10
1343.019922
 20
671.149044
 30
0.0
 11
1345.5
 21
671.149044
 31
0.0
  0
LINE
  5
518
100
AcDbEntity
  8
止水栓
  6
CONTINUOUS
 62
     6
100
AcDbLine
 10
1339.017576
 20
672.149044
 30
0.0
 11
1345.5
 21
672.149044
 31
0.0
  0
LINE
  5
519
100
AcDbEntity
  8
止水栓
  6
CONTINUOUS
 62
     6
100
AcDbLine
 10
1343.019922
 20
652.199044
 30
0.0
 11
1345.5
 21
652.199044
 31
0.0
  0
LINE
  5
51A
100
AcDbEntity
  8
止水栓
  6
CONTINUOUS
 62
     6
100
AcDbLine
 10
1340.019922
 20
651.199044
 30
0.0
 11
1345.5
 21
651.199044
 31
0.0
  0
LINE
  5
51B
100
AcDbEntity
  8
止水栓
  6
CONTINUOUS
 62
     6
100
AcDbLine
 10
1383.499512
 20
668.423282
 30
0.0
 11
1391.499512
 21
668.423282
 31
0.0
  0
LINE
  5
51C
100
AcDbEntity
  8
止水栓
  6
CONTINUOUS
 62
     6
100
AcDbLine
 10
1383.499512
 20
654.923282
 30
0.0
 11
1391.499512
 21
654.923282
 31
0.0
  0
ARC
  5
51D
100
AcDbEntity
  8
止水栓
  6
CONTINUOUS
 62
     6
100
AcDbCircle
 10
1369.999512
 20
666.423282
 30
0.0
 40
2.5
100
AcDbArc
 50
90.0
 51
180.0
  0
ARC
  5
51E
100
AcDbEntity
  8
止水栓
  6
CONTINUOUS
 62
     6
100
AcDbCircle
 10
1369.999512
 20
666.423282
 30
0.0
 40
2.5
100
AcDbArc
 50
0.0
 51
90.0
  0
LINE
  5
51F
100
AcDbEntity
  8
止水栓
  6
CONTINUOUS
 62
     6
100
AcDbLine
 10
1380.499512
 20
667.423282
 30
0.0
 11
1383.499512
 21
667.423282
 31
0.0
  0
ARC
  5
520
100
AcDbEntity
  8
止水栓
  6
CONTINUOUS
 62
     6
100
AcDbCircle
 10
1377.999512
 20
666.423282
 30
0.0
 40
2.5
100
AcDbArc
 50
90.0
 51
180.0
  0
ARC
  5
521
100
AcDbEntity
  8
止水栓
  6
CONTINUOUS
 62
     6
100
AcDbCircle
 10
1377.999512
 20
666.423282
 30
0.0
 40
2.5
100
AcDbArc
 50
0.0
 51
90.0
  0
LINE
  5
522
100
AcDbEntity
  8
止水栓
  6
CONTINUOUS
 62
     6
100
AcDbLine
 10
1372.499512
 20
667.423282
 30
0.0
 11
1375.499512
 21
667.423282
 31
0.0
  0
ARC
  5
523
100
AcDbEntity
  8
止水栓
  6
CONTINUOUS
 62
     6
100
AcDbCircle
 10
1369.999512
 20
656.923282
 30
0.0
 40
2.5
100
AcDbArc
 50
180.0
 51
270.0
  0
LINE
  5
524
100
AcDbEntity
  8
止水栓
  6
CONTINUOUS
 62
     6
100
AcDbLine
 10
1380.499512
 20
655.923282
 30
0.0
 11
1383.499512
 21
655.923282
 31
0.0
  0
LINE
  5
525
100
AcDbEntity
  8
止水栓
  6
CONTINUOUS
 62
     6
100
AcDbLine
 10
1372.499512
 20
655.923282
 30
0.0
 11
1375.499512
 21
655.923282
 31
0.0
  0
ARC
  5
526
100
AcDbEntity
  8
止水栓
  6
CONTINUOUS
 62
     6
100
AcDbCircle
 10
1369.999512
 20
656.923282
 30
0.0
 40
2.5
100
AcDbArc
 50
270.0
 51
0.0
  0
ARC
  5
527
100
AcDbEntity
  8
止水栓
  6
CONTINUOUS
 62
     6
100
AcDbCircle
 10
1377.999512
 20
656.923282
 30
0.0
 40
2.5
100
AcDbArc
 50
180.0
 51
270.0
  0
ARC
  5
528
100
AcDbEntity
  8
止水栓
  6
CONTINUOUS
 62
     6
100
AcDbCircle
 10
1377.999512
 20
656.923282
 30
0.0
 40
2.5
100
AcDbArc
 50
270.0
 51
0.0
  0
LINE
  5
529
100
AcDbEntity
  8
止水栓
  6
CONTINUOUS
 62
     6
100
AcDbLine
 10
1383.499512
 20
654.923282
 30
0.0
 11
1383.499512
 21
668.423282
 31
0.0
  0
LINE
  5
52A
100
AcDbEntity
  8
止水栓
  6
CONTINUOUS
 62
     6
100
AcDbLine
 10
1372.499512
 20
656.923282
 30
0.0
 11
1372.499512
 21
666.423282
 31
0.0
  0
LINE
  5
52B
100
AcDbEntity
  8
止水栓
  6
CONTINUOUS
 62
     6
100
AcDbLine
 10
1380.499512
 20
656.923282
 30
0.0
 11
1380.499512
 21
666.423282
 31
0.0
  0
LINE
  5
52C
100
AcDbEntity
  8
止水栓
  6
CONTINUOUS
 62
     6
100
AcDbLine
 10
1375.499512
 20
656.923282
 30
0.0
 11
1375.499512
 21
666.423282
 31
0.0
  0
LINE
  5
52D
100
AcDbEntity
  8
止水栓
  6
CONTINUOUS
 62
     6
100
AcDbLine
 10
1391.499512
 20
654.923282
 30
0.0
 11
1391.499512
 21
668.423282
 31
0.0
  0
ARC
  5
52E
100
AcDbEntity
  8
止水栓
  6
CONTINUOUS
 62
     6
100
AcDbCircle
 10
1351.498535
 20
663.42377
 30
0.0
 40
10.99987
100
AcDbArc
 50
56.937744
 51
123.054687
  0
POLYLINE
  5
52F
100
AcDbEntity
  8
止水栓
  6
CONTINUOUS
 62
     6
100
AcDb2dPolyline
 66
     1
 10
0.0
 20
0.0
 30
0.0
 70
   128
  0
VERTEX
  5
530
100
AcDbEntity
  8
止水栓
  6
CONTINUOUS
 62
     6
100
AcDbVertex
100
AcDb2dVertex
 10
1351.757324
 20
669.275821
 30
0.0
  0
VERTEX
  5
531
100
AcDbEntity
  8
止水栓
  6
CONTINUOUS
 62
     6
100
AcDbVertex
100
AcDb2dVertex
 10
1352.160156
 20
669.285586
 30
0.0
  0
VERTEX
  5
532
100
AcDbEntity
  8
止水栓
  6
CONTINUOUS
 62
     6
100
AcDbVertex
100
AcDb2dVertex
 10
1352.560547
 20
669.314883
 30
0.0
  0
VERTEX
  5
533
100
AcDbEntity
  8
止水栓
  6
CONTINUOUS
 62
     6
100
AcDbVertex
100
AcDb2dVertex
 10
1352.956055
 20
669.36127
 30
0.0
  0
VERTEX
  5
534
100
AcDbEntity
  8
止水栓
  6
CONTINUOUS
 62
     6
100
AcDbVertex
100
AcDb2dVertex
 10
1353.339355
 20
669.424746
 30
0.0
  0
VERTEX
  5
535
100
AcDbEntity
  8
止水栓
  6
CONTINUOUS
 62
     6
100
AcDbVertex
100
AcDb2dVertex
 10
1353.712891
 20
669.505313
 30
0.0
  0
VERTEX
  5
536
100
AcDbEntity
  8
止水栓
  6
CONTINUOUS
 62
     6
100
AcDbVertex
100
AcDb2dVertex
 10
1354.071777
 20
669.60541
 30
0.0
  0
VERTEX
  5
537
100
AcDbEntity
  8
止水栓
  6
CONTINUOUS
 62
     6
100
AcDbVertex
100
AcDb2dVertex
 10
1354.411133
 20
669.720157
 30
0.0
  0
VERTEX
  5
538
100
AcDbEntity
  8
止水栓
  6
CONTINUOUS
 62
     6
100
AcDbVertex
100
AcDb2dVertex
 10
1354.733398
 20
669.849551
 30
0.0
  0
VERTEX
  5
539
100
AcDbEntity
  8
止水栓
  6
CONTINUOUS
 62
     6
100
AcDbVertex
100
AcDb2dVertex
 10
1355.03125
 20
669.993594
 30
0.0
  0
VERTEX
  5
53A
100
AcDbEntity
  8
止水栓
  6
CONTINUOUS
 62
     6
100
AcDbVertex
100
AcDb2dVertex
 10
1355.302246
 20
670.152285
 30
0.0
  0
VERTEX
  5
53B
100
AcDbEntity
  8
止水栓
  6
CONTINUOUS
 62
     6
100
AcDbVertex
100
AcDb2dVertex
 10
1355.548828
 20
670.320742
 30
0.0
  0
VERTEX
  5
53C
100
AcDbEntity
  8
止水栓
  6
CONTINUOUS
 62
     6
100
AcDbVertex
100
AcDb2dVertex
 10
1355.766113
 20
670.501407
 30
0.0
  0
VERTEX
  5
53D
100
AcDbEntity
  8
止水栓
  6
CONTINUOUS
 62
     6
100
AcDbVertex
100
AcDb2dVertex
 10
1355.954101
 20
670.691836
 30
0.0
  0
VERTEX
  5
53E
100
AcDbEntity
  8
止水栓
  6
CONTINUOUS
 62
     6
100
AcDbVertex
100
AcDb2dVertex
 10
1356.10791
 20
670.88959
 30
0.0
  0
VERTEX
  5
53F
100
AcDbEntity
  8
止水栓
  6
CONTINUOUS
 62
     6
100
AcDbVertex
100
AcDb2dVertex
 10
1356.227539
 20
671.092227
 30
0.0
  0
VERTEX
  5
540
100
AcDbEntity
  8
止水栓
  6
CONTINUOUS
 62
     6
100
AcDbVertex
100
AcDb2dVertex
 10
1356.31543
 20
671.302188
 30
0.0
  0
VERTEX
  5
541
100
AcDbEntity
  8
止水栓
  6
CONTINUOUS
 62
     6
100
AcDbVertex
100
AcDb2dVertex
 10
1356.369141
 20
671.512149
 30
0.0
  0
VERTEX
  5
542
100
AcDbEntity
  8
止水栓
  6
CONTINUOUS
 62
     6
100
AcDbVertex
100
AcDb2dVertex
 10
1356.38623
 20
671.726992
 30
0.0
  0
VERTEX
  5
543
100
AcDbEntity
  8
止水栓
  6
CONTINUOUS
 62
     6
100
AcDbVertex
100
AcDb2dVertex
 10
1356.369141
 20
671.939395
 30
0.0
  0
VERTEX
  5
544
100
AcDbEntity
  8
止水栓
  6
CONTINUOUS
 62
     6
100
AcDbVertex
100
AcDb2dVertex
 10
1356.31543
 20
672.151797
 30
0.0
  0
VERTEX
  5
545
100
AcDbEntity
  8
止水栓
  6
CONTINUOUS
 62
     6
100
AcDbVertex
100
AcDb2dVertex
 10
1356.227539
 20
672.361758
 30
0.0
  0
VERTEX
  5
546
100
AcDbEntity
  8
止水栓
  6
CONTINUOUS
 62
     6
100
AcDbVertex
100
AcDb2dVertex
 10
1356.10791
 20
672.564395
 30
0.0
  0
VERTEX
  5
547
100
AcDbEntity
  8
止水栓
  6
CONTINUOUS
 62
     6
100
AcDbVertex
100
AcDb2dVertex
 10
1355.95166
 20
672.762149
 30
0.0
  0
VERTEX
  5
548
100
AcDbEntity
  8
止水栓
  6
CONTINUOUS
 62
     6
100
AcDbVertex
100
AcDb2dVertex
 10
1355.766113
 20
672.950137
 30
0.0
  0
VERTEX
  5
549
100
AcDbEntity
  8
止水栓
  6
CONTINUOUS
 62
     6
100
AcDbVertex
100
AcDb2dVertex
 10
1355.548828
 20
673.130801
 30
0.0
  0
VERTEX
  5
54A
100
AcDbEntity
  8
止水栓
  6
CONTINUOUS
 62
     6
100
AcDbVertex
100
AcDb2dVertex
 10
1355.304687
 20
673.301699
 30
0.0
  0
VERTEX
  5
54B
100
AcDbEntity
  8
止水栓
  6
CONTINUOUS
 62
     6
100
AcDbVertex
100
AcDb2dVertex
 10
1355.03125
 20
673.457949
 30
0.0
  0
VERTEX
  5
54C
100
AcDbEntity
  8
止水栓
  6
CONTINUOUS
 62
     6
100
AcDbVertex
100
AcDb2dVertex
 10
1354.733398
 20
673.601992
 30
0.0
  0
VERTEX
  5
54D
100
AcDbEntity
  8
止水栓
  6
CONTINUOUS
 62
     6
100
AcDbVertex
100
AcDb2dVertex
 10
1354.411133
 20
673.733828
 30
0.0
  0
VERTEX
  5
54E
100
AcDbEntity
  8
止水栓
  6
CONTINUOUS
 62
     6
100
AcDbVertex
100
AcDb2dVertex
 10
1354.071777
 20
673.848574
 30
0.0
  0
VERTEX
  5
54F
100
AcDbEntity
  8
止水栓
  6
CONTINUOUS
 62
     6
100
AcDbVertex
100
AcDb2dVertex
 10
1353.712891
 20
673.946231
 30
0.0
  0
VERTEX
  5
550
100
AcDbEntity
  8
止水栓
  6
CONTINUOUS
 62
     6
100
AcDbVertex
100
AcDb2dVertex
 10
1353.341797
 20
674.026797
 30
0.0
  0
VERTEX
  5
551
100
AcDbEntity
  8
止水栓
  6
CONTINUOUS
 62
     6
100
AcDbVertex
100
AcDb2dVertex
 10
1352.956055
 20
674.092715
 30
0.0
  0
VERTEX
  5
552
100
AcDbEntity
  8
止水栓
  6
CONTINUOUS
 62
     6
100
AcDbVertex
100
AcDb2dVertex
 10
1352.560547
 20
674.139102
 30
0.0
  0
VERTEX
  5
553
100
AcDbEntity
  8
止水栓
  6
CONTINUOUS
 62
     6
100
AcDbVertex
100
AcDb2dVertex
 10
1352.160156
 20
674.165957
 30
0.0
  0
VERTEX
  5
554
100
AcDbEntity
  8
止水栓
  6
CONTINUOUS
 62
     6
100
AcDbVertex
100
AcDb2dVertex
 10
1351.757324
 20
674.175723
 30
0.0
  0
VERTEX
  5
555
100
AcDbEntity
  8
止水栓
  6
CONTINUOUS
 62
     6
100
AcDbVertex
100
AcDb2dVertex
 10
1351.354492
 20
674.165957
 30
0.0
  0
VERTEX
  5
556
100
AcDbEntity
  8
止水栓
  6
CONTINUOUS
 62
     6
100
AcDbVertex
100
AcDb2dVertex
 10
1350.954101
 20
674.139102
 30
0.0
  0
VERTEX
  5
557
100
AcDbEntity
  8
止水栓
  6
CONTINUOUS
 62
     6
100
AcDbVertex
100
AcDb2dVertex
 10
1350.558594
 20
674.092715
 30
0.0
  0
VERTEX
  5
558
100
AcDbEntity
  8
止水栓
  6
CONTINUOUS
 62
     6
100
AcDbVertex
100
AcDb2dVertex
 10
1350.172851
 20
674.029239
 30
0.0
  0
VERTEX
  5
559
100
AcDbEntity
  8
止水栓
  6
CONTINUOUS
 62
     6
100
AcDbVertex
100
AcDb2dVertex
 10
1349.799316
 20
673.946231
 30
0.0
  0
VERTEX
  5
55A
100
AcDbEntity
  8
止水栓
  6
CONTINUOUS
 62
     6
100
AcDbVertex
100
AcDb2dVertex
 10
1349.44043
 20
673.848574
 30
0.0
  0
VERTEX
  5
55B
100
AcDbEntity
  8
止水栓
  6
CONTINUOUS
 62
     6
100
AcDbVertex
100
AcDb2dVertex
 10
1349.101074
 20
673.733828
 30
0.0
  0
VERTEX
  5
55C
100
AcDbEntity
  8
止水栓
  6
CONTINUOUS
 62
     6
100
AcDbVertex
100
AcDb2dVertex
 10
1348.778808
 20
673.601992
 30
0.0
  0
VERTEX
  5
55D
100
AcDbEntity
  8
止水栓
  6
CONTINUOUS
 62
     6
100
AcDbVertex
100
AcDb2dVertex
 10
1348.483398
 20
673.457949
 30
0.0
  0
VERTEX
  5
55E
100
AcDbEntity
  8
止水栓
  6
CONTINUOUS
 62
     6
100
AcDbVertex
100
AcDb2dVertex
 10
1348.209961
 20
673.301699
 30
0.0
  0
VERTEX
  5
55F
100
AcDbEntity
  8
止水栓
  6
CONTINUOUS
 62
     6
100
AcDbVertex
100
AcDb2dVertex
 10
1347.963379
 20
673.130801
 30
0.0
  0
VERTEX
  5
560
100
AcDbEntity
  8
止水栓
  6
CONTINUOUS
 62
     6
100
AcDbVertex
100
AcDb2dVertex
 10
1347.746094
 20
672.952578
 30
0.0
  0
VERTEX
  5
561
100
AcDbEntity
  8
止水栓
  6
CONTINUOUS
 62
     6
100
AcDbVertex
100
AcDb2dVertex
 10
1347.560547
 20
672.762149
 30
0.0
  0
VERTEX
  5
562
100
AcDbEntity
  8
止水栓
  6
CONTINUOUS
 62
     6
100
AcDbVertex
100
AcDb2dVertex
 10
1347.406738
 20
672.564395
 30
0.0
  0
VERTEX
  5
563
100
AcDbEntity
  8
止水栓
  6
CONTINUOUS
 62
     6
100
AcDbVertex
100
AcDb2dVertex
 10
1347.284668
 20
672.361758
 30
0.0
  0
VERTEX
  5
564
100
AcDbEntity
  8
止水栓
  6
CONTINUOUS
 62
     6
100
AcDbVertex
100
AcDb2dVertex
 10
1347.196777
 20
672.151797
 30
0.0
  0
VERTEX
  5
565
100
AcDbEntity
  8
止水栓
  6
CONTINUOUS
 62
     6
100
AcDbVertex
100
AcDb2dVertex
 10
1347.143066
 20
671.939395
 30
0.0
  0
VERTEX
  5
566
100
AcDbEntity
  8
止水栓
  6
CONTINUOUS
 62
     6
100
AcDbVertex
100
AcDb2dVertex
 10
1347.125976
 20
671.726992
 30
0.0
  0
VERTEX
  5
567
100
AcDbEntity
  8
止水栓
  6
CONTINUOUS
 62
     6
100
AcDbVertex
100
AcDb2dVertex
 10
1347.145508
 20
671.512149
 30
0.0
  0
VERTEX
  5
568
100
AcDbEntity
  8
止水栓
  6
CONTINUOUS
 62
     6
100
AcDbVertex
100
AcDb2dVertex
 10
1347.196777
 20
671.302188
 30
0.0
  0
VERTEX
  5
569
100
AcDbEntity
  8
止水栓
  6
CONTINUOUS
 62
     6
100
AcDbVertex
100
AcDb2dVertex
 10
1347.284668
 20
671.092227
 30
0.0
  0
VERTEX
  5
56A
100
AcDbEntity
  8
止水栓
  6
CONTINUOUS
 62
     6
100
AcDbVertex
100
AcDb2dVertex
 10
1347.406738
 20
670.88959
 30
0.0
  0
VERTEX
  5
56B
100
AcDbEntity
  8
止水栓
  6
CONTINUOUS
 62
     6
100
AcDbVertex
100
AcDb2dVertex
 10
1347.560547
 20
670.691836
 30
0.0
  0
SEQEND
  5
56C
100
AcDbEntity
  8
止水栓
  6
CONTINUOUS
 62
     6
  0
LINE
  5
56D
100
AcDbEntity
  8
止水栓
  6
CONTINUOUS
 62
     6
100
AcDbLine
 10
1362.499512
 20
665.673282
 30
0.0
 11
1364.499512
 21
665.673282
 31
0.0
  0
LINE
  5
56E
100
AcDbEntity
  8
止水栓
  6
CONTINUOUS
 62
     6
100
AcDbLine
 10
1364.499512
 20
667.423282
 30
0.0
 11
1367.499512
 21
667.423282
 31
0.0
  0
LINE
  5
56F
100
AcDbEntity
  8
止水栓
  6
CONTINUOUS
 62
     6
100
AcDbLine
 10
1357.499512
 20
672.173282
 30
0.0
 11
1362.499512
 21
672.173282
 31
0.0
  0
POLYLINE
  5
570
100
AcDbEntity
  8
止水栓
  6
CONTINUOUS
 62
     6
100
AcDb2dPolyline
 66
     1
 10
0.0
 20
0.0
 30
0.0
 70
   128
  0
VERTEX
  5
571
100
AcDbEntity
  8
止水栓
  6
CONTINUOUS
 62
     6
100
AcDbVertex
100
AcDb2dVertex
 10
1351.75
 20
649.178164
 30
0.0
  0
VERTEX
  5
572
100
AcDbEntity
  8
止水栓
  6
CONTINUOUS
 62
     6
100
AcDbVertex
100
AcDb2dVertex
 10
1352.187012
 20
649.18793
 30
0.0
  0
VERTEX
  5
573
100
AcDbEntity
  8
止水栓
  6
CONTINUOUS
 62
     6
100
AcDbVertex
100
AcDb2dVertex
 10
1352.619141
 20
649.214785
 30
0.0
  0
VERTEX
  5
574
100
AcDbEntity
  8
止水栓
  6
CONTINUOUS
 62
     6
100
AcDbVertex
100
AcDb2dVertex
 10
1353.043945
 20
649.261172
 30
0.0
  0
VERTEX
  5
575
100
AcDbEntity
  8
止水栓
  6
CONTINUOUS
 62
     6
100
AcDbVertex
100
AcDb2dVertex
 10
1353.458984
 20
649.32709
 30
0.0
  0
VERTEX
  5
576
100
AcDbEntity
  8
止水栓
  6
CONTINUOUS
 62
     6
100
AcDbVertex
100
AcDb2dVertex
 10
1353.859375
 20
649.407657
 30
0.0
  0
VERTEX
  5
577
100
AcDbEntity
  8
止水栓
  6
CONTINUOUS
 62
     6
100
AcDbVertex
100
AcDb2dVertex
 10
1354.245117
 20
649.505313
 30
0.0
  0
VERTEX
  5
578
100
AcDbEntity
  8
止水栓
  6
CONTINUOUS
 62
     6
100
AcDbVertex
100
AcDb2dVertex
 10
1354.613769
 20
649.6225
 30
0.0
  0
VERTEX
  5
579
100
AcDbEntity
  8
止水栓
  6
CONTINUOUS
 62
     6
100
AcDbVertex
100
AcDb2dVertex
 10
1354.958008
 20
649.751895
 30
0.0
  0
VERTEX
  5
57A
100
AcDbEntity
  8
止水栓
  6
CONTINUOUS
 62
     6
100
AcDbVertex
100
AcDb2dVertex
 10
1355.280273
 20
649.895938
 30
0.0
  0
VERTEX
  5
57B
100
AcDbEntity
  8
止水栓
  6
CONTINUOUS
 62
     6
100
AcDbVertex
100
AcDb2dVertex
 10
1355.573242
 20
650.054629
 30
0.0
  0
VERTEX
  5
57C
100
AcDbEntity
  8
止水栓
  6
CONTINUOUS
 62
     6
100
AcDbVertex
100
AcDb2dVertex
 10
1355.839355
 20
650.223086
 30
0.0
  0
VERTEX
  5
57D
100
AcDbEntity
  8
止水栓
  6
CONTINUOUS
 62
     6
100
AcDbVertex
100
AcDb2dVertex
 10
1356.071289
 20
650.40375
 30
0.0
  0
VERTEX
  5
57E
100
AcDbEntity
  8
止水栓
  6
CONTINUOUS
 62
     6
100
AcDbVertex
100
AcDb2dVertex
 10
1356.273926
 20
650.591739
 30
0.0
  0
VERTEX
  5
57F
100
AcDbEntity
  8
止水栓
  6
CONTINUOUS
 62
     6
100
AcDbVertex
100
AcDb2dVertex
 10
1356.439941
 20
650.789492
 30
0.0
  0
VERTEX
  5
580
100
AcDbEntity
  8
止水栓
  6
CONTINUOUS
 62
     6
100
AcDbVertex
100
AcDb2dVertex
 10
1356.571777
 20
650.994571
 30
0.0
  0
VERTEX
  5
581
100
AcDbEntity
  8
止水栓
  6
CONTINUOUS
 62
     6
100
AcDbVertex
100
AcDb2dVertex
 10
1356.664551
 20
651.20209
 30
0.0
  0
VERTEX
  5
582
100
AcDbEntity
  8
止水栓
  6
CONTINUOUS
 62
     6
100
AcDbVertex
100
AcDb2dVertex
 10
1356.723144
 20
651.414492
 30
0.0
  0
VERTEX
  5
583
100
AcDbEntity
  8
止水栓
  6
CONTINUOUS
 62
     6
100
AcDbVertex
100
AcDb2dVertex
 10
1356.740234
 20
651.626895
 30
0.0
  0
VERTEX
  5
584
100
AcDbEntity
  8
止水栓
  6
CONTINUOUS
 62
     6
100
AcDbVertex
100
AcDb2dVertex
 10
1356.720703
 20
651.841739
 30
0.0
  0
VERTEX
  5
585
100
AcDbEntity
  8
止水栓
  6
CONTINUOUS
 62
     6
100
AcDbVertex
100
AcDb2dVertex
 10
1356.664551
 20
652.054141
 30
0.0
  0
VERTEX
  5
586
100
AcDbEntity
  8
止水栓
  6
CONTINUOUS
 62
     6
100
AcDbVertex
100
AcDb2dVertex
 10
1356.571777
 20
652.26166
 30
0.0
  0
VERTEX
  5
587
100
AcDbEntity
  8
止水栓
  6
CONTINUOUS
 62
     6
100
AcDbVertex
100
AcDb2dVertex
 10
1356.439941
 20
652.466739
 30
0.0
  0
VERTEX
  5
588
100
AcDbEntity
  8
止水栓
  6
CONTINUOUS
 62
     6
100
AcDbVertex
100
AcDb2dVertex
 10
1356.273926
 20
652.664492
 30
0.0
  0
VERTEX
  5
589
100
AcDbEntity
  8
止水栓
  6
CONTINUOUS
 62
     6
100
AcDbVertex
100
AcDb2dVertex
 10
1356.071289
 20
652.852481
 30
0.0
  0
VERTEX
  5
58A
100
AcDbEntity
  8
止水栓
  6
CONTINUOUS
 62
     6
100
AcDbVertex
100
AcDb2dVertex
 10
1355.836914
 20
653.033145
 30
0.0
  0
VERTEX
  5
58B
100
AcDbEntity
  8
止水栓
  6
CONTINUOUS
 62
     6
100
AcDbVertex
100
AcDb2dVertex
 10
1355.573242
 20
653.201602
 30
0.0
  0
VERTEX
  5
58C
100
AcDbEntity
  8
止水栓
  6
CONTINUOUS
 62
     6
100
AcDbVertex
100
AcDb2dVertex
 10
1355.280273
 20
653.360293
 30
0.0
  0
VERTEX
  5
58D
100
AcDbEntity
  8
止水栓
  6
CONTINUOUS
 62
     6
100
AcDbVertex
100
AcDb2dVertex
 10
1354.958008
 20
653.504336
 30
0.0
  0
VERTEX
  5
58E
100
AcDbEntity
  8
止水栓
  6
CONTINUOUS
 62
     6
100
AcDbVertex
100
AcDb2dVertex
 10
1354.613769
 20
653.633731
 30
0.0
  0
VERTEX
  5
58F
100
AcDbEntity
  8
止水栓
  6
CONTINUOUS
 62
     6
100
AcDbVertex
100
AcDb2dVertex
 10
1354.245117
 20
653.748477
 30
0.0
  0
VERTEX
  5
590
100
AcDbEntity
  8
止水栓
  6
CONTINUOUS
 62
     6
100
AcDbVertex
100
AcDb2dVertex
 10
1353.859375
 20
653.848574
 30
0.0
  0
VERTEX
  5
591
100
AcDbEntity
  8
止水栓
  6
CONTINUOUS
 62
     6
100
AcDbVertex
100
AcDb2dVertex
 10
1353.456543
 20
653.929141
 30
0.0
  0
VERTEX
  5
592
100
AcDbEntity
  8
止水栓
  6
CONTINUOUS
 62
     6
100
AcDbVertex
100
AcDb2dVertex
 10
1353.041504
 20
653.995059
 30
0.0
  0
VERTEX
  5
593
100
AcDbEntity
  8
止水栓
  6
CONTINUOUS
 62
     6
100
AcDbVertex
100
AcDb2dVertex
 10
1352.616699
 20
654.041446
 30
0.0
  0
VERTEX
  5
594
100
AcDbEntity
  8
止水栓
  6
CONTINUOUS
 62
     6
100
AcDbVertex
100
AcDb2dVertex
 10
1352.18457
 20
654.068301
 30
0.0
  0
VERTEX
  5
595
100
AcDbEntity
  8
止水栓
  6
CONTINUOUS
 62
     6
100
AcDbVertex
100
AcDb2dVertex
 10
1351.75
 20
654.078067
 30
0.0
  0
VERTEX
  5
596
100
AcDbEntity
  8
止水栓
  6
CONTINUOUS
 62
     6
100
AcDbVertex
100
AcDb2dVertex
 10
1351.31543
 20
654.068301
 30
0.0
  0
VERTEX
  5
597
100
AcDbEntity
  8
止水栓
  6
CONTINUOUS
 62
     6
100
AcDbVertex
100
AcDb2dVertex
 10
1350.883301
 20
654.039004
 30
0.0
  0
VERTEX
  5
598
100
AcDbEntity
  8
止水栓
  6
CONTINUOUS
 62
     6
100
AcDbVertex
100
AcDb2dVertex
 10
1350.458496
 20
653.992617
 30
0.0
  0
VERTEX
  5
599
100
AcDbEntity
  8
止水栓
  6
CONTINUOUS
 62
     6
100
AcDbVertex
100
AcDb2dVertex
 10
1350.043457
 20
653.929141
 30
0.0
  0
VERTEX
  5
59A
100
AcDbEntity
  8
止水栓
  6
CONTINUOUS
 62
     6
100
AcDbVertex
100
AcDb2dVertex
 10
1349.640625
 20
653.848574
 30
0.0
  0
VERTEX
  5
59B
100
AcDbEntity
  8
止水栓
  6
CONTINUOUS
 62
     6
100
AcDbVertex
100
AcDb2dVertex
 10
1349.254883
 20
653.748477
 30
0.0
  0
VERTEX
  5
59C
100
AcDbEntity
  8
止水栓
  6
CONTINUOUS
 62
     6
100
AcDbVertex
100
AcDb2dVertex
 10
1348.888672
 20
653.633731
 30
0.0
  0
VERTEX
  5
59D
100
AcDbEntity
  8
止水栓
  6
CONTINUOUS
 62
     6
100
AcDbVertex
100
AcDb2dVertex
 10
1348.541992
 20
653.504336
 30
0.0
  0
VERTEX
  5
59E
100
AcDbEntity
  8
止水栓
  6
CONTINUOUS
 62
     6
100
AcDbVertex
100
AcDb2dVertex
 10
1348.222168
 20
653.360293
 30
0.0
  0
VERTEX
  5
59F
100
AcDbEntity
  8
止水栓
  6
CONTINUOUS
 62
     6
100
AcDbVertex
100
AcDb2dVertex
 10
1347.926758
 20
653.201602
 30
0.0
  0
VERTEX
  5
5A0
100
AcDbEntity
  8
止水栓
  6
CONTINUOUS
 62
     6
100
AcDbVertex
100
AcDb2dVertex
 10
1347.663086
 20
653.033145
 30
0.0
  0
VERTEX
  5
5A1
100
AcDbEntity
  8
止水栓
  6
CONTINUOUS
 62
     6
100
AcDbVertex
100
AcDb2dVertex
 10
1347.428711
 20
652.852481
 30
0.0
  0
VERTEX
  5
5A2
100
AcDbEntity
  8
止水栓
  6
CONTINUOUS
 62
     6
100
AcDbVertex
100
AcDb2dVertex
 10
1347.228516
 20
652.664492
 30
0.0
  0
VERTEX
  5
5A3
100
AcDbEntity
  8
止水栓
  6
CONTINUOUS
 62
     6
100
AcDbVertex
100
AcDb2dVertex
 10
1347.060058
 20
652.466739
 30
0.0
  0
VERTEX
  5
5A4
100
AcDbEntity
  8
止水栓
  6
CONTINUOUS
 62
     6
100
AcDbVertex
100
AcDb2dVertex
 10
1346.930664
 20
652.26166
 30
0.0
  0
VERTEX
  5
5A5
100
AcDbEntity
  8
止水栓
  6
CONTINUOUS
 62
     6
100
AcDbVertex
100
AcDb2dVertex
 10
1346.835449
 20
652.054141
 30
0.0
  0
VERTEX
  5
5A6
100
AcDbEntity
  8
止水栓
  6
CONTINUOUS
 62
     6
100
AcDbVertex
100
AcDb2dVertex
 10
1346.779297
 20
651.841739
 30
0.0
  0
VERTEX
  5
5A7
100
AcDbEntity
  8
止水栓
  6
CONTINUOUS
 62
     6
100
AcDbVertex
100
AcDb2dVertex
 10
1346.759766
 20
651.626895
 30
0.0
  0
VERTEX
  5
5A8
100
AcDbEntity
  8
止水栓
  6
CONTINUOUS
 62
     6
100
AcDbVertex
100
AcDb2dVertex
 10
1346.779297
 20
651.414492
 30
0.0
  0
VERTEX
  5
5A9
100
AcDbEntity
  8
止水栓
  6
CONTINUOUS
 62
     6
100
AcDbVertex
100
AcDb2dVertex
 10
1346.835449
 20
651.20209
 30
0.0
  0
VERTEX
  5
5AA
100
AcDbEntity
  8
止水栓
  6
CONTINUOUS
 62
     6
100
AcDbVertex
100
AcDb2dVertex
 10
1346.930664
 20
650.994571
 30
0.0
  0
VERTEX
  5
5AB
100
AcDbEntity
  8
止水栓
  6
CONTINUOUS
 62
     6
100
AcDbVertex
100
AcDb2dVertex
 10
1347.060058
 20
650.789492
 30
0.0
  0
VERTEX
  5
5AC
100
AcDbEntity
  8
止水栓
  6
CONTINUOUS
 62
     6
100
AcDbVertex
100
AcDb2dVertex
 10
1347.228516
 20
650.591739
 30
0.0
  0
SEQEND
  5
5AD
100
AcDbEntity
  8
止水栓
  6
CONTINUOUS
 62
     6
  0
ARC
  5
5AE
100
AcDbEntity
  8
止水栓
  6
CONTINUOUS
 62
     6
100
AcDbCircle
 10
1351.498535
 20
659.922793
 30
0.0
 40
10.998535
100
AcDbArc
 50
236.94841
 51
303.059082
  0
LINE
  5
5AF
100
AcDbEntity
  8
止水栓
  6
CONTINUOUS
 62
     6
100
AcDbLine
 10
1362.499512
 20
657.673282
 30
0.0
 11
1364.499512
 21
657.673282
 31
0.0
  0
LINE
  5
5B0
100
AcDbEntity
  8
止水栓
  6
CONTINUOUS
 62
     6
100
AcDbLine
 10
1364.499512
 20
655.923282
 30
0.0
 11
1367.499512
 21
655.923282
 31
0.0
  0
LINE
  5
5B1
100
AcDbEntity
  8
止水栓
  6
CONTINUOUS
 62
     6
100
AcDbLine
 10
1357.499512
 20
651.173282
 30
0.0
 11
1362.499512
 21
651.173282
 31
0.0
  0
LINE
  5
5B2
100
AcDbEntity
  8
止水栓
  6
CONTINUOUS
 62
     6
100
AcDbLine
 10
1357.499512
 20
650.704043
 30
0.0
 11
1357.499512
 21
672.64252
 31
0.0
  0
LINE
  5
5B3
100
AcDbEntity
  8
止水栓
  6
CONTINUOUS
 62
     6
100
AcDbLine
 10
1362.499512
 20
651.173282
 30
0.0
 11
1362.499512
 21
672.173282
 31
0.0
  0
POLYLINE
  5
5B4
100
AcDbEntity
  8
止水栓
  6
CONTINUOUS
 62
     6
100
AcDb2dPolyline
 66
     1
 10
0.0
 20
0.0
 30
0.0
 70
   128
  0
VERTEX
  5
5B5
100
AcDbEntity
  8
止水栓
  6
CONTINUOUS
 62
     6
100
AcDbVertex
100
AcDb2dVertex
 10
1357.284668
 20
661.673282
 30
0.0
  0
VERTEX
  5
5B6
100
AcDbEntity
  8
止水栓
  6
CONTINUOUS
 62
     6
100
AcDbVertex
100
AcDb2dVertex
 10
1357.262695
 20
662.171328
 30
0.0
  0
VERTEX
  5
5B7
100
AcDbEntity
  8
止水栓
  6
CONTINUOUS
 62
     6
100
AcDbVertex
100
AcDb2dVertex
 10
1357.196777
 20
662.666934
 30
0.0
  0
VERTEX
  5
5B8
100
AcDbEntity
  8
止水栓
  6
CONTINUOUS
 62
     6
100
AcDbVertex
100
AcDb2dVertex
 10
1357.094238
 20
663.155215
 30
0.0
  0
VERTEX
  5
5B9
100
AcDbEntity
  8
止水栓
  6
CONTINUOUS
 62
     6
100
AcDbVertex
100
AcDb2dVertex
 10
1356.947754
 20
663.641055
 30
0.0
  0
VERTEX
  5
5BA
100
AcDbEntity
  8
止水栓
  6
CONTINUOUS
 62
     6
100
AcDbVertex
100
AcDb2dVertex
 10
1356.762207
 20
664.109805
 30
0.0
  0
VERTEX
  5
5BB
100
AcDbEntity
  8
止水栓
  6
CONTINUOUS
 62
     6
100
AcDbVertex
100
AcDb2dVertex
 10
1356.540039
 20
664.561465
 30
0.0
  0
VERTEX
  5
5BC
100
AcDbEntity
  8
止水栓
  6
CONTINUOUS
 62
     6
100
AcDbVertex
100
AcDb2dVertex
 10
1356.278808
 20
664.991153
 30
0.0
  0
VERTEX
  5
5BD
100
AcDbEntity
  8
止水栓
  6
CONTINUOUS
 62
     6
100
AcDbVertex
100
AcDb2dVertex
 10
1355.983398
 20
665.393985
 30
0.0
  0
VERTEX
  5
5BE
100
AcDbEntity
  8
止水栓
  6
CONTINUOUS
 62
     6
100
AcDbVertex
100
AcDb2dVertex
 10
1355.65625
 20
665.769961
 30
0.0
  0
VERTEX
  5
5BF
100
AcDbEntity
  8
止水栓
  6
CONTINUOUS
 62
     6
100
AcDbVertex
100
AcDb2dVertex
 10
1355.297363
 20
666.111758
 30
0.0
  0
VERTEX
  5
5C0
100
AcDbEntity
  8
止水栓
  6
CONTINUOUS
 62
     6
100
AcDbVertex
100
AcDb2dVertex
 10
1354.911621
 20
666.421817
 30
0.0
  0
VERTEX
  5
5C1
100
AcDbEntity
  8
止水栓
  6
CONTINUOUS
 62
     6
100
AcDbVertex
100
AcDb2dVertex
 10
1354.503906
 20
666.695254
 30
0.0
  0
VERTEX
  5
5C2
100
AcDbEntity
  8
止水栓
  6
CONTINUOUS
 62
     6
100
AcDbVertex
100
AcDb2dVertex
 10
1354.074219
 20
666.932071
 30
0.0
  0
VERTEX
  5
5C3
100
AcDbEntity
  8
止水栓
  6
CONTINUOUS
 62
     6
100
AcDbVertex
100
AcDb2dVertex
 10
1353.625
 20
667.124942
 30
0.0
  0
VERTEX
  5
5C4
100
AcDbEntity
  8
止水栓
  6
CONTINUOUS
 62
     6
100
AcDbVertex
100
AcDb2dVertex
 10
1353.161133
 20
667.27875
 30
0.0
  0
VERTEX
  5
5C5
100
AcDbEntity
  8
止水栓
  6
CONTINUOUS
 62
     6
100
AcDbVertex
100
AcDb2dVertex
 10
1352.6875
 20
667.388614
 30
0.0
  0
VERTEX
  5
5C6
100
AcDbEntity
  8
止水栓
  6
CONTINUOUS
 62
     6
100
AcDbVertex
100
AcDb2dVertex
 10
1352.206543
 20
667.454532
 30
0.0
  0
VERTEX
  5
5C7
100
AcDbEntity
  8
止水栓
  6
CONTINUOUS
 62
     6
100
AcDbVertex
100
AcDb2dVertex
 10
1351.723144
 20
667.478946
 30
0.0
  0
VERTEX
  5
5C8
100
AcDbEntity
  8
止水栓
  6
CONTINUOUS
 62
     6
100
AcDbVertex
100
AcDb2dVertex
 10
1351.237305
 20
667.454532
 30
0.0
  0
VERTEX
  5
5C9
100
AcDbEntity
  8
止水栓
  6
CONTINUOUS
 62
     6
100
AcDbVertex
100
AcDb2dVertex
 10
1350.756348
 20
667.388614
 30
0.0
  0
VERTEX
  5
5CA
100
AcDbEntity
  8
止水栓
  6
CONTINUOUS
 62
     6
100
AcDbVertex
100
AcDb2dVertex
 10
1350.282715
 20
667.27875
 30
0.0
  0
VERTEX
  5
5CB
100
AcDbEntity
  8
止水栓
  6
CONTINUOUS
 62
     6
100
AcDbVertex
100
AcDb2dVertex
 10
1349.821289
 20
667.124942
 30
0.0
  0
VERTEX
  5
5CC
100
AcDbEntity
  8
止水栓
  6
CONTINUOUS
 62
     6
100
AcDbVertex
100
AcDb2dVertex
 10
1349.37207
 20
666.932071
 30
0.0
  0
VERTEX
  5
5CD
100
AcDbEntity
  8
止水栓
  6
CONTINUOUS
 62
     6
100
AcDbVertex
100
AcDb2dVertex
 10
1348.942383
 20
666.695254
 30
0.0
  0
VERTEX
  5
5CE
100
AcDbEntity
  8
止水栓
  6
CONTINUOUS
 62
     6
100
AcDbVertex
100
AcDb2dVertex
 10
1348.532226
 20
666.421817
 30
0.0
  0
VERTEX
  5
5CF
100
AcDbEntity
  8
止水栓
  6
CONTINUOUS
 62
     6
100
AcDbVertex
100
AcDb2dVertex
 10
1348.148926
 20
666.111758
 30
0.0
  0
VERTEX
  5
5D0
100
AcDbEntity
  8
止水栓
  6
CONTINUOUS
 62
     6
100
AcDbVertex
100
AcDb2dVertex
 10
1347.790039
 20
665.769961
 30
0.0
  0
VERTEX
  5
5D1
100
AcDbEntity
  8
止水栓
  6
CONTINUOUS
 62
     6
100
AcDbVertex
100
AcDb2dVertex
 10
1347.462891
 20
665.393985
 30
0.0
  0
VERTEX
  5
5D2
100
AcDbEntity
  8
止水栓
  6
CONTINUOUS
 62
     6
100
AcDbVertex
100
AcDb2dVertex
 10
1347.16748
 20
664.991153
 30
0.0
  0
VERTEX
  5
5D3
100
AcDbEntity
  8
止水栓
  6
CONTINUOUS
 62
     6
100
AcDbVertex
100
AcDb2dVertex
 10
1346.90625
 20
664.561465
 30
0.0
  0
VERTEX
  5
5D4
100
AcDbEntity
  8
止水栓
  6
CONTINUOUS
 62
     6
100
AcDbVertex
100
AcDb2dVertex
 10
1346.681641
 20
664.109805
 30
0.0
  0
VERTEX
  5
5D5
100
AcDbEntity
  8
止水栓
  6
CONTINUOUS
 62
     6
100
AcDbVertex
100
AcDb2dVertex
 10
1346.496094
 20
663.641055
 30
0.0
  0
VERTEX
  5
5D6
100
AcDbEntity
  8
止水栓
  6
CONTINUOUS
 62
     6
100
AcDbVertex
100
AcDb2dVertex
 10
1346.352051
 20
663.155215
 30
0.0
  0
VERTEX
  5
5D7
100
AcDbEntity
  8
止水栓
  6
CONTINUOUS
 62
     6
100
AcDbVertex
100
AcDb2dVertex
 10
1346.24707
 20
662.65961
 30
0.0
  0
VERTEX
  5
5D8
100
AcDbEntity
  8
止水栓
  6
CONTINUOUS
 62
     6
100
AcDbVertex
100
AcDb2dVertex
 10
1346.183594
 20
662.154239
 30
0.0
  0
VERTEX
  5
5D9
100
AcDbEntity
  8
止水栓
  6
CONTINUOUS
 62
     6
100
AcDbVertex
100
AcDb2dVertex
 10
1346.161621
 20
661.646426
 30
0.0
  0
VERTEX
  5
5DA
100
AcDbEntity
  8
止水栓
  6
CONTINUOUS
 62
     6
100
AcDbVertex
100
AcDb2dVertex
 10
1346.183594
 20
661.138614
 30
0.0
  0
VERTEX
  5
5DB
100
AcDbEntity
  8
止水栓
  6
CONTINUOUS
 62
     6
100
AcDbVertex
100
AcDb2dVertex
 10
1346.24707
 20
660.633242
 30
0.0
  0
VERTEX
  5
5DC
100
AcDbEntity
  8
止水栓
  6
CONTINUOUS
 62
     6
100
AcDbVertex
100
AcDb2dVertex
 10
1346.352051
 20
660.137637
 30
0.0
  0
VERTEX
  5
5DD
100
AcDbEntity
  8
止水栓
  6
CONTINUOUS
 62
     6
100
AcDbVertex
100
AcDb2dVertex
 10
1346.496094
 20
659.651797
 30
0.0
  0
VERTEX
  5
5DE
100
AcDbEntity
  8
止水栓
  6
CONTINUOUS
 62
     6
100
AcDbVertex
100
AcDb2dVertex
 10
1346.681641
 20
659.183047
 30
0.0
  0
VERTEX
  5
5DF
100
AcDbEntity
  8
止水栓
  6
CONTINUOUS
 62
     6
100
AcDbVertex
100
AcDb2dVertex
 10
1346.90625
 20
658.731387
 30
0.0
  0
VERTEX
  5
5E0
100
AcDbEntity
  8
止水栓
  6
CONTINUOUS
 62
     6
100
AcDbVertex
100
AcDb2dVertex
 10
1347.16748
 20
658.301699
 30
0.0
  0
VERTEX
  5
5E1
100
AcDbEntity
  8
止水栓
  6
CONTINUOUS
 62
     6
100
AcDbVertex
100
AcDb2dVertex
 10
1347.462891
 20
657.898867
 30
0.0
  0
VERTEX
  5
5E2
100
AcDbEntity
  8
止水栓
  6
CONTINUOUS
 62
     6
100
AcDbVertex
100
AcDb2dVertex
 10
1347.790039
 20
657.522891
 30
0.0
  0
VERTEX
  5
5E3
100
AcDbEntity
  8
止水栓
  6
CONTINUOUS
 62
     6
100
AcDbVertex
100
AcDb2dVertex
 10
1348.148926
 20
657.181094
 30
0.0
  0
VERTEX
  5
5E4
100
AcDbEntity
  8
止水栓
  6
CONTINUOUS
 62
     6
100
AcDbVertex
100
AcDb2dVertex
 10
1348.532226
 20
656.871035
 30
0.0
  0
VERTEX
  5
5E5
100
AcDbEntity
  8
止水栓
  6
CONTINUOUS
 62
     6
100
AcDbVertex
100
AcDb2dVertex
 10
1348.942383
 20
656.597598
 30
0.0
  0
VERTEX
  5
5E6
100
AcDbEntity
  8
止水栓
  6
CONTINUOUS
 62
     6
100
AcDbVertex
100
AcDb2dVertex
 10
1349.37207
 20
656.360782
 30
0.0
  0
VERTEX
  5
5E7
100
AcDbEntity
  8
止水栓
  6
CONTINUOUS
 62
     6
100
AcDbVertex
100
AcDb2dVertex
 10
1349.821289
 20
656.16791
 30
0.0
  0
VERTEX
  5
5E8
100
AcDbEntity
  8
止水栓
  6
CONTINUOUS
 62
     6
100
AcDbVertex
100
AcDb2dVertex
 10
1350.282715
 20
656.014102
 30
0.0
  0
VERTEX
  5
5E9
100
AcDbEntity
  8
止水栓
  6
CONTINUOUS
 62
     6
100
AcDbVertex
100
AcDb2dVertex
 10
1350.756348
 20
655.904239
 30
0.0
  0
VERTEX
  5
5EA
100
AcDbEntity
  8
止水栓
  6
CONTINUOUS
 62
     6
100
AcDbVertex
100
AcDb2dVertex
 10
1351.237305
 20
655.838321
 30
0.0
  0
VERTEX
  5
5EB
100
AcDbEntity
  8
止水栓
  6
CONTINUOUS
 62
     6
100
AcDbVertex
100
AcDb2dVertex
 10
1351.720703
 20
655.816348
 30
0.0
  0
SEQEND
  5
5EC
100
AcDbEntity
  8
止水栓
  6
CONTINUOUS
 62
     6
  0
LINE
  5
5ED
100
AcDbEntity
  8
止水栓
  6
CONTINUOUS
 62
     6
100
AcDbLine
 10
1364.499512
 20
655.923282
 30
0.0
 11
1364.499512
 21
667.423282
 31
0.0
  0
LINE
  5
5EE
100
AcDbEntity
  8
止水栓
  6
CONTINUOUS
 62
     6
100
AcDbLine
 10
1367.499512
 20
656.923282
 30
0.0
 11
1367.499512
 21
666.423282
 31
0.0
  0
POLYLINE
  5
5EF
100
AcDbEntity
  8
止水栓
  6
CONTINUOUS
 62
     6
100
AcDb2dPolyline
 66
     1
 10
0.0
 20
0.0
 30
0.0
 70
   128
  0
VERTEX
  5
5F0
100
AcDbEntity
  8
止水栓
  6
CONTINUOUS
 62
     6
100
AcDbVertex
100
AcDb2dVertex
 10
1351.723144
 20
655.816348
 30
0.0
  0
VERTEX
  5
5F1
100
AcDbEntity
  8
止水栓
  6
CONTINUOUS
 62
     6
100
AcDbVertex
100
AcDb2dVertex
 10
1352.206543
 20
655.838321
 30
0.0
  0
VERTEX
  5
5F2
100
AcDbEntity
  8
止水栓
  6
CONTINUOUS
 62
     6
100
AcDbVertex
100
AcDb2dVertex
 10
1352.6875
 20
655.904239
 30
0.0
  0
VERTEX
  5
5F3
100
AcDbEntity
  8
止水栓
  6
CONTINUOUS
 62
     6
100
AcDbVertex
100
AcDb2dVertex
 10
1353.161133
 20
656.014102
 30
0.0
  0
VERTEX
  5
5F4
100
AcDbEntity
  8
止水栓
  6
CONTINUOUS
 62
     6
100
AcDbVertex
100
AcDb2dVertex
 10
1353.625
 20
656.16791
 30
0.0
  0
VERTEX
  5
5F5
100
AcDbEntity
  8
止水栓
  6
CONTINUOUS
 62
     6
100
AcDbVertex
100
AcDb2dVertex
 10
1354.071777
 20
656.360782
 30
0.0
  0
VERTEX
  5
5F6
100
AcDbEntity
  8
止水栓
  6
CONTINUOUS
 62
     6
100
AcDbVertex
100
AcDb2dVertex
 10
1354.503906
 20
656.597598
 30
0.0
  0
VERTEX
  5
5F7
100
AcDbEntity
  8
止水栓
  6
CONTINUOUS
 62
     6
100
AcDbVertex
100
AcDb2dVertex
 10
1354.911621
 20
656.871035
 30
0.0
  0
VERTEX
  5
5F8
100
AcDbEntity
  8
止水栓
  6
CONTINUOUS
 62
     6
100
AcDbVertex
100
AcDb2dVertex
 10
1355.297363
 20
657.181094
 30
0.0
  0
VERTEX
  5
5F9
100
AcDbEntity
  8
止水栓
  6
CONTINUOUS
 62
     6
100
AcDbVertex
100
AcDb2dVertex
 10
1355.653808
 20
657.522891
 30
0.0
  0
VERTEX
  5
5FA
100
AcDbEntity
  8
止水栓
  6
CONTINUOUS
 62
     6
100
AcDbVertex
100
AcDb2dVertex
 10
1355.983398
 20
657.898867
 30
0.0
  0
VERTEX
  5
5FB
100
AcDbEntity
  8
止水栓
  6
CONTINUOUS
 62
     6
100
AcDbVertex
100
AcDb2dVertex
 10
1356.276367
 20
658.301699
 30
0.0
  0
VERTEX
  5
5FC
100
AcDbEntity
  8
止水栓
  6
CONTINUOUS
 62
     6
100
AcDbVertex
100
AcDb2dVertex
 10
1356.540039
 20
658.731387
 30
0.0
  0
VERTEX
  5
5FD
100
AcDbEntity
  8
止水栓
  6
CONTINUOUS
 62
     6
100
AcDbVertex
100
AcDb2dVertex
 10
1356.764648
 20
659.183047
 30
0.0
  0
VERTEX
  5
5FE
100
AcDbEntity
  8
止水栓
  6
CONTINUOUS
 62
     6
100
AcDbVertex
100
AcDb2dVertex
 10
1356.950195
 20
659.651797
 30
0.0
  0
VERTEX
  5
5FF
100
AcDbEntity
  8
止水栓
  6
CONTINUOUS
 62
     6
100
AcDbVertex
100
AcDb2dVertex
 10
1357.094238
 20
660.137637
 30
0.0
  0
VERTEX
  5
600
100
AcDbEntity
  8
止水栓
  6
CONTINUOUS
 62
     6
100
AcDbVertex
100
AcDb2dVertex
 10
1357.199219
 20
660.633242
 30
0.0
  0
VERTEX
  5
601
100
AcDbEntity
  8
止水栓
  6
CONTINUOUS
 62
     6
100
AcDbVertex
100
AcDb2dVertex
 10
1357.262695
 20
661.138614
 30
0.0
  0
VERTEX
  5
602
100
AcDbEntity
  8
止水栓
  6
CONTINUOUS
 62
     6
100
AcDbVertex
100
AcDb2dVertex
 10
1357.284668
 20
661.646426
 30
0.0
  0
VERTEX
  5
603
100
AcDbEntity
  8
止水栓
  6
CONTINUOUS
 62
     6
100
AcDbVertex
100
AcDb2dVertex
 10
1357.284668
 20
661.656192
 30
0.0
  0
VERTEX
  5
604
100
AcDbEntity
  8
止水栓
  6
CONTINUOUS
 62
     6
100
AcDbVertex
100
AcDb2dVertex
 10
1357.284668
 20
661.663516
 30
0.0
  0
VERTEX
  5
605
100
AcDbEntity
  8
止水栓
  6
CONTINUOUS
 62
     6
100
AcDbVertex
100
AcDb2dVertex
 10
1357.284668
 20
661.673282
 30
0.0
  0
SEQEND
  5
606
100
AcDbEntity
  8
止水栓
  6
CONTINUOUS
 62
     6
  0
POLYLINE
  5
607
100
AcDbEntity
  8
止水栓
  6
CONTINUOUS
 62
     6
100
AcDb2dPolyline
 66
     1
 10
0.0
 20
0.0
 30
0.0
 70
   128
  0
VERTEX
  5
608
100
AcDbEntity
  8
止水栓
  6
CONTINUOUS
 62
     6
100
AcDbVertex
100
AcDb2dVertex
 10
1350.558594
 20
669.36127
 30
0.0
  0
VERTEX
  5
609
100
AcDbEntity
  8
止水栓
  6
CONTINUOUS
 62
     6
100
AcDbVertex
100
AcDb2dVertex
 10
1350.95166
 20
669.314883
 30
0.0
  0
VERTEX
  5
60A
100
AcDbEntity
  8
止水栓
  6
CONTINUOUS
 62
     6
100
AcDbVertex
100
AcDb2dVertex
 10
1351.352051
 20
669.285586
 30
0.0
  0
VERTEX
  5
60B
100
AcDbEntity
  8
止水栓
  6
CONTINUOUS
 62
     6
100
AcDbVertex
100
AcDb2dVertex
 10
1351.754883
 20
669.275821
 30
0.0
  0
SEQEND
  5
60C
100
AcDbEntity
  8
止水栓
  6
CONTINUOUS
 62
     6
  0
POLYLINE
  5
60D
100
AcDbEntity
  8
止水栓
  6
CONTINUOUS
 62
     6
100
AcDb2dPolyline
 66
     1
 10
0.0
 20
0.0
 30
0.0
 70
   128
  0
VERTEX
  5
60E
100
AcDbEntity
  8
止水栓
  6
CONTINUOUS
 62
     6
100
AcDbVertex
100
AcDb2dVertex
 10
1350.458496
 20
649.261172
 30
0.0
  0
VERTEX
  5
60F
100
AcDbEntity
  8
止水栓
  6
CONTINUOUS
 62
     6
100
AcDbVertex
100
AcDb2dVertex
 10
1350.883301
 20
649.214785
 30
0.0
  0
VERTEX
  5
610
100
AcDbEntity
  8
止水栓
  6
CONTINUOUS
 62
     6
100
AcDbVertex
100
AcDb2dVertex
 10
1351.31543
 20
649.18793
 30
0.0
  0
VERTEX
  5
611
100
AcDbEntity
  8
止水栓
  6
CONTINUOUS
 62
     6
100
AcDbVertex
100
AcDb2dVertex
 10
1351.75
 20
649.178164
 30
0.0
  0
SEQEND
  5
612
100
AcDbEntity
  8
止水栓
  6
CONTINUOUS
 62
     6
  0
POLYLINE
  5
613
100
AcDbEntity
  8
止水栓
  6
CONTINUOUS
 62
     6
100
AcDb2dPolyline
 66
     1
 10
0.0
 20
0.0
 30
0.0
 70
   128
  0
VERTEX
  5
614
100
AcDbEntity
  8
止水栓
  6
CONTINUOUS
 62
     6
100
AcDbVertex
100
AcDb2dVertex
 10
1347.560547
 20
670.691836
 30
0.0
  0
VERTEX
  5
615
100
AcDbEntity
  8
止水栓
  6
CONTINUOUS
 62
     6
100
AcDbVertex
100
AcDb2dVertex
 10
1347.746094
 20
670.501407
 30
0.0
  0
VERTEX
  5
616
100
AcDbEntity
  8
止水栓
  6
CONTINUOUS
 62
     6
100
AcDbVertex
100
AcDb2dVertex
 10
1347.963379
 20
670.320742
 30
0.0
  0
VERTEX
  5
617
100
AcDbEntity
  8
止水栓
  6
CONTINUOUS
 62
     6
100
AcDbVertex
100
AcDb2dVertex
 10
1348.209961
 20
670.152285
 30
0.0
  0
VERTEX
  5
618
100
AcDbEntity
  8
止水栓
  6
CONTINUOUS
 62
     6
100
AcDbVertex
100
AcDb2dVertex
 10
1348.483398
 20
669.993594
 30
0.0
  0
VERTEX
  5
619
100
AcDbEntity
  8
止水栓
  6
CONTINUOUS
 62
     6
100
AcDbVertex
100
AcDb2dVertex
 10
1348.78125
 20
669.849551
 30
0.0
  0
VERTEX
  5
61A
100
AcDbEntity
  8
止水栓
  6
CONTINUOUS
 62
     6
100
AcDbVertex
100
AcDb2dVertex
 10
1349.101074
 20
669.720157
 30
0.0
  0
VERTEX
  5
61B
100
AcDbEntity
  8
止水栓
  6
CONTINUOUS
 62
     6
100
AcDbVertex
100
AcDb2dVertex
 10
1349.44043
 20
669.60541
 30
0.0
  0
VERTEX
  5
61C
100
AcDbEntity
  8
止水栓
  6
CONTINUOUS
 62
     6
100
AcDbVertex
100
AcDb2dVertex
 10
1349.799316
 20
669.505313
 30
0.0
  0
VERTEX
  5
61D
100
AcDbEntity
  8
止水栓
  6
CONTINUOUS
 62
     6
100
AcDbVertex
100
AcDb2dVertex
 10
1350.172851
 20
669.424746
 30
0.0
  0
VERTEX
  5
61E
100
AcDbEntity
  8
止水栓
  6
CONTINUOUS
 62
     6
100
AcDbVertex
100
AcDb2dVertex
 10
1350.558594
 20
669.36127
 30
0.0
  0
SEQEND
  5
61F
100
AcDbEntity
  8
止水栓
  6
CONTINUOUS
 62
     6
  0
POLYLINE
  5
620
100
AcDbEntity
  8
止水栓
  6
CONTINUOUS
 62
     6
100
AcDb2dPolyline
 66
     1
 10
0.0
 20
0.0
 30
0.0
 70
   128
  0
VERTEX
  5
621
100
AcDbEntity
  8
止水栓
  6
CONTINUOUS
 62
     6
100
AcDbVertex
100
AcDb2dVertex
 10
1347.228516
 20
650.591739
 30
0.0
  0
VERTEX
  5
622
100
AcDbEntity
  8
止水栓
  6
CONTINUOUS
 62
     6
100
AcDbVertex
100
AcDb2dVertex
 10
1347.428711
 20
650.40375
 30
0.0
  0
VERTEX
  5
623
100
AcDbEntity
  8
止水栓
  6
CONTINUOUS
 62
     6
100
AcDbVertex
100
AcDb2dVertex
 10
1347.663086
 20
650.223086
 30
0.0
  0
VERTEX
  5
624
100
AcDbEntity
  8
止水栓
  6
CONTINUOUS
 62
     6
100
AcDbVertex
100
AcDb2dVertex
 10
1347.926758
 20
650.052188
 30
0.0
  0
VERTEX
  5
625
100
AcDbEntity
  8
止水栓
  6
CONTINUOUS
 62
     6
100
AcDbVertex
100
AcDb2dVertex
 10
1348.222168
 20
649.895938
 30
0.0
  0
VERTEX
  5
626
100
AcDbEntity
  8
止水栓
  6
CONTINUOUS
 62
     6
100
AcDbVertex
100
AcDb2dVertex
 10
1348.541992
 20
649.751895
 30
0.0
  0
VERTEX
  5
627
100
AcDbEntity
  8
止水栓
  6
CONTINUOUS
 62
     6
100
AcDbVertex
100
AcDb2dVertex
 10
1348.888672
 20
649.620059
 30
0.0
  0
VERTEX
  5
628
100
AcDbEntity
  8
止水栓
  6
CONTINUOUS
 62
     6
100
AcDbVertex
100
AcDb2dVertex
 10
1349.254883
 20
649.505313
 30
0.0
  0
VERTEX
  5
629
100
AcDbEntity
  8
止水栓
  6
CONTINUOUS
 62
     6
100
AcDbVertex
100
AcDb2dVertex
 10
1349.640625
 20
649.407657
 30
0.0
  0
VERTEX
  5
62A
100
AcDbEntity
  8
止水栓
  6
CONTINUOUS
 62
     6
100
AcDbVertex
100
AcDb2dVertex
 10
1350.043457
 20
649.32709
 30
0.0
  0
VERTEX
  5
62B
100
AcDbEntity
  8
止水栓
  6
CONTINUOUS
 62
     6
100
AcDbVertex
100
AcDb2dVertex
 10
1350.458496
 20
649.261172
 30
0.0
  0
SEQEND
  5
62C
100
AcDbEntity
  8
止水栓
  6
CONTINUOUS
 62
     6
  0
LINE
  5
62D
100
AcDbEntity
  8
止水栓
  6
CONTINUOUS
 62
     6
100
AcDbLine
 10
1345.5
 20
650.704043
 30
0.0
 11
1345.5
 21
672.644046
 31
0.0
  0
LINE
  5
62E
100
AcDbEntity
  8
止水栓
  6
EXLTYPE3
 62
     6
100
AcDbLine
 10
1323.0
 20
865.232219
 30
0.0
 11
1323.0
 21
807.689543
 31
0.0
  0
ARC
  5
62F
100
AcDbEntity
  8
止水栓
  6
EXLTYPE4
 62
     6
100
AcDbCircle
 10
1323.0
 20
908.00023
 30
0.0
 40
27.5
100
AcDbArc
 50
294.79044
 51
245.209515
  0
LINE
  5
630
100
AcDbEntity
  8
止水栓
  6
EXLTYPE2
 62
     6
100
AcDbLine
 10
1313.6845
 20
888.00023
 30
0.0
 11
1312.470802
 21
890.102447
 31
0.0
  0
LINE
  5
631
100
AcDbEntity
  8
止水栓
  6
EXLTYPE2
 62
     6
100
AcDbLine
 10
1312.5225
 20
888.00023
 30
0.0
 11
1333.4775
 21
888.00023
 31
0.0
  0
LINE
  5
632
100
AcDbEntity
  8
止水栓
  6
EXLTYPE2
 62
     6
100
AcDbLine
 10
1332.3155
 20
888.00023
 30
0.0
 11
1333.529198
 21
890.102447
 31
0.0
  0
POLYLINE
  5
633
100
AcDbEntity
  8
止水栓
  6
EXLTYPE2
 62
     6
100
AcDb2dPolyline
 66
     1
 10
0.0
 20
0.0
 30
0.0
 70
   128
  0
VERTEX
  5
634
100
AcDbEntity
  8
止水栓
  6
EXLTYPE2
 62
     6
100
AcDbVertex
100
AcDb2dVertex
 10
1310.504883
 20
879.219926
 30
0.0
  0
VERTEX
  5
635
100
AcDbEntity
  8
止水栓
  6
EXLTYPE2
 62
     6
100
AcDbVertex
100
AcDb2dVertex
 10
1310.514648
 20
878.782914
 30
0.0
  0
VERTEX
  5
636
100
AcDbEntity
  8
止水栓
  6
EXLTYPE2
 62
     6
100
AcDbVertex
100
AcDb2dVertex
 10
1310.541504
 20
878.350785
 30
0.0
  0
VERTEX
  5
637
100
AcDbEntity
  8
止水栓
  6
EXLTYPE2
 62
     6
100
AcDbVertex
100
AcDb2dVertex
 10
1310.587891
 20
877.925981
 30
0.0
  0
VERTEX
  5
638
100
AcDbEntity
  8
止水栓
  6
EXLTYPE2
 62
     6
100
AcDbVertex
100
AcDb2dVertex
 10
1310.653809
 20
877.510942
 30
0.0
  0
VERTEX
  5
639
100
AcDbEntity
  8
止水栓
  6
EXLTYPE2
 62
     6
100
AcDbVertex
100
AcDb2dVertex
 10
1310.734375
 20
877.110551
 30
0.0
  0
VERTEX
  5
63A
100
AcDbEntity
  8
止水栓
  6
EXLTYPE2
 62
     6
100
AcDbVertex
100
AcDb2dVertex
 10
1310.832031
 20
876.724809
 30
0.0
  0
VERTEX
  5
63B
100
AcDbEntity
  8
止水栓
  6
EXLTYPE2
 62
     6
100
AcDbVertex
100
AcDb2dVertex
 10
1310.949219
 20
876.356156
 30
0.0
  0
VERTEX
  5
63C
100
AcDbEntity
  8
止水栓
  6
EXLTYPE2
 62
     6
100
AcDbVertex
100
AcDb2dVertex
 10
1311.078613
 20
876.011918
 30
0.0
  0
VERTEX
  5
63D
100
AcDbEntity
  8
止水栓
  6
EXLTYPE2
 62
     6
100
AcDbVertex
100
AcDb2dVertex
 10
1311.222656
 20
875.689653
 30
0.0
  0
VERTEX
  5
63E
100
AcDbEntity
  8
止水栓
  6
EXLTYPE2
 62
     6
100
AcDbVertex
100
AcDb2dVertex
 10
1311.381348
 20
875.396684
 30
0.0
  0
VERTEX
  5
63F
100
AcDbEntity
  8
止水栓
  6
EXLTYPE2
 62
     6
100
AcDbVertex
100
AcDb2dVertex
 10
1311.549805
 20
875.130571
 30
0.0
  0
VERTEX
  5
640
100
AcDbEntity
  8
止水栓
  6
EXLTYPE2
 62
     6
100
AcDbVertex
100
AcDb2dVertex
 10
1311.730469
 20
874.898637
 30
0.0
  0
VERTEX
  5
641
100
AcDbEntity
  8
止水栓
  6
EXLTYPE2
 62
     6
100
AcDbVertex
100
AcDb2dVertex
 10
1311.918457
 20
874.696
 30
0.0
  0
VERTEX
  5
642
100
AcDbEntity
  8
止水栓
  6
EXLTYPE2
 62
     6
100
AcDbVertex
100
AcDb2dVertex
 10
1312.116211
 20
874.529985
 30
0.0
  0
VERTEX
  5
643
100
AcDbEntity
  8
止水栓
  6
EXLTYPE2
 62
     6
100
AcDbVertex
100
AcDb2dVertex
 10
1312.321289
 20
874.398149
 30
0.0
  0
VERTEX
  5
644
100
AcDbEntity
  8
止水栓
  6
EXLTYPE2
 62
     6
100
AcDbVertex
100
AcDb2dVertex
 10
1312.528809
 20
874.305375
 30
0.0
  0
VERTEX
  5
645
100
AcDbEntity
  8
止水栓
  6
EXLTYPE2
 62
     6
100
AcDbVertex
100
AcDb2dVertex
 10
1312.741211
 20
874.246781
 30
0.0
  0
VERTEX
  5
646
100
AcDbEntity
  8
止水栓
  6
EXLTYPE2
 62
     6
100
AcDbVertex
100
AcDb2dVertex
 10
1312.953613
 20
874.229692
 30
0.0
  0
VERTEX
  5
647
100
AcDbEntity
  8
止水栓
  6
EXLTYPE2
 62
     6
100
AcDbVertex
100
AcDb2dVertex
 10
1313.168457
 20
874.249223
 30
0.0
  0
VERTEX
  5
648
100
AcDbEntity
  8
止水栓
  6
EXLTYPE2
 62
     6
100
AcDbVertex
100
AcDb2dVertex
 10
1313.380859
 20
874.305375
 30
0.0
  0
VERTEX
  5
649
100
AcDbEntity
  8
止水栓
  6
EXLTYPE2
 62
     6
100
AcDbVertex
100
AcDb2dVertex
 10
1313.588379
 20
874.398149
 30
0.0
  0
VERTEX
  5
64A
100
AcDbEntity
  8
止水栓
  6
EXLTYPE2
 62
     6
100
AcDbVertex
100
AcDb2dVertex
 10
1313.793457
 20
874.529985
 30
0.0
  0
VERTEX
  5
64B
100
AcDbEntity
  8
止水栓
  6
EXLTYPE2
 62
     6
100
AcDbVertex
100
AcDb2dVertex
 10
1313.991211
 20
874.696
 30
0.0
  0
VERTEX
  5
64C
100
AcDbEntity
  8
止水栓
  6
EXLTYPE2
 62
     6
100
AcDbVertex
100
AcDb2dVertex
 10
1314.179199
 20
874.898637
 30
0.0
  0
VERTEX
  5
64D
100
AcDbEntity
  8
止水栓
  6
EXLTYPE2
 62
     6
100
AcDbVertex
100
AcDb2dVertex
 10
1314.359863
 20
875.133012
 30
0.0
  0
VERTEX
  5
64E
100
AcDbEntity
  8
止水栓
  6
EXLTYPE2
 62
     6
100
AcDbVertex
100
AcDb2dVertex
 10
1314.52832
 20
875.396684
 30
0.0
  0
VERTEX
  5
64F
100
AcDbEntity
  8
止水栓
  6
EXLTYPE2
 62
     6
100
AcDbVertex
100
AcDb2dVertex
 10
1314.687012
 20
875.689653
 30
0.0
  0
VERTEX
  5
650
100
AcDbEntity
  8
止水栓
  6
EXLTYPE2
 62
     6
100
AcDbVertex
100
AcDb2dVertex
 10
1314.831055
 20
876.011918
 30
0.0
  0
VERTEX
  5
651
100
AcDbEntity
  8
止水栓
  6
EXLTYPE2
 62
     6
100
AcDbVertex
100
AcDb2dVertex
 10
1314.960449
 20
876.356156
 30
0.0
  0
VERTEX
  5
652
100
AcDbEntity
  8
止水栓
  6
EXLTYPE2
 62
     6
100
AcDbVertex
100
AcDb2dVertex
 10
1315.075195
 20
876.724809
 30
0.0
  0
VERTEX
  5
653
100
AcDbEntity
  8
止水栓
  6
EXLTYPE2
 62
     6
100
AcDbVertex
100
AcDb2dVertex
 10
1315.175293
 20
877.110551
 30
0.0
  0
VERTEX
  5
654
100
AcDbEntity
  8
止水栓
  6
EXLTYPE2
 62
     6
100
AcDbVertex
100
AcDb2dVertex
 10
1315.255859
 20
877.513383
 30
0.0
  0
VERTEX
  5
655
100
AcDbEntity
  8
止水栓
  6
EXLTYPE2
 62
     6
100
AcDbVertex
100
AcDb2dVertex
 10
1315.321777
 20
877.928422
 30
0.0
  0
VERTEX
  5
656
100
AcDbEntity
  8
止水栓
  6
EXLTYPE2
 62
     6
100
AcDbVertex
100
AcDb2dVertex
 10
1315.368164
 20
878.353227
 30
0.0
  0
VERTEX
  5
657
100
AcDbEntity
  8
止水栓
  6
EXLTYPE2
 62
     6
100
AcDbVertex
100
AcDb2dVertex
 10
1315.39502
 20
878.785356
 30
0.0
  0
VERTEX
  5
658
100
AcDbEntity
  8
止水栓
  6
EXLTYPE2
 62
     6
100
AcDbVertex
100
AcDb2dVertex
 10
1315.404785
 20
879.219926
 30
0.0
  0
VERTEX
  5
659
100
AcDbEntity
  8
止水栓
  6
EXLTYPE2
 62
     6
100
AcDbVertex
100
AcDb2dVertex
 10
1315.39502
 20
879.654496
 30
0.0
  0
VERTEX
  5
65A
100
AcDbEntity
  8
止水栓
  6
EXLTYPE2
 62
     6
100
AcDbVertex
100
AcDb2dVertex
 10
1315.365723
 20
880.086625
 30
0.0
  0
VERTEX
  5
65B
100
AcDbEntity
  8
止水栓
  6
EXLTYPE2
 62
     6
100
AcDbVertex
100
AcDb2dVertex
 10
1315.319336
 20
880.51143
 30
0.0
  0
VERTEX
  5
65C
100
AcDbEntity
  8
止水栓
  6
EXLTYPE2
 62
     6
100
AcDbVertex
100
AcDb2dVertex
 10
1315.255859
 20
880.926469
 30
0.0
  0
VERTEX
  5
65D
100
AcDbEntity
  8
止水栓
  6
EXLTYPE2
 62
     6
100
AcDbVertex
100
AcDb2dVertex
 10
1315.175293
 20
881.329301
 30
0.0
  0
VERTEX
  5
65E
100
AcDbEntity
  8
止水栓
  6
EXLTYPE2
 62
     6
100
AcDbVertex
100
AcDb2dVertex
 10
1315.075195
 20
881.715043
 30
0.0
  0
VERTEX
  5
65F
100
AcDbEntity
  8
止水栓
  6
EXLTYPE2
 62
     6
100
AcDbVertex
100
AcDb2dVertex
 10
1314.960449
 20
882.081254
 30
0.0
  0
VERTEX
  5
660
100
AcDbEntity
  8
止水栓
  6
EXLTYPE2
 62
     6
100
AcDbVertex
100
AcDb2dVertex
 10
1314.831055
 20
882.427934
 30
0.0
  0
VERTEX
  5
661
100
AcDbEntity
  8
止水栓
  6
EXLTYPE2
 62
     6
100
AcDbVertex
100
AcDb2dVertex
 10
1314.687012
 20
882.747758
 30
0.0
  0
VERTEX
  5
662
100
AcDbEntity
  8
止水栓
  6
EXLTYPE2
 62
     6
100
AcDbVertex
100
AcDb2dVertex
 10
1314.52832
 20
883.043168
 30
0.0
  0
VERTEX
  5
663
100
AcDbEntity
  8
止水栓
  6
EXLTYPE2
 62
     6
100
AcDbVertex
100
AcDb2dVertex
 10
1314.359863
 20
883.30684
 30
0.0
  0
VERTEX
  5
664
100
AcDbEntity
  8
止水栓
  6
EXLTYPE2
 62
     6
100
AcDbVertex
100
AcDb2dVertex
 10
1314.179199
 20
883.541215
 30
0.0
  0
VERTEX
  5
665
100
AcDbEntity
  8
止水栓
  6
EXLTYPE2
 62
     6
100
AcDbVertex
100
AcDb2dVertex
 10
1313.991211
 20
883.74141
 30
0.0
  0
VERTEX
  5
666
100
AcDbEntity
  8
止水栓
  6
EXLTYPE2
 62
     6
100
AcDbVertex
100
AcDb2dVertex
 10
1313.793457
 20
883.909867
 30
0.0
  0
VERTEX
  5
667
100
AcDbEntity
  8
止水栓
  6
EXLTYPE2
 62
     6
100
AcDbVertex
100
AcDb2dVertex
 10
1313.588379
 20
884.039262
 30
0.0
  0
VERTEX
  5
668
100
AcDbEntity
  8
止水栓
  6
EXLTYPE2
 62
     6
100
AcDbVertex
100
AcDb2dVertex
 10
1313.380859
 20
884.134477
 30
0.0
  0
VERTEX
  5
669
100
AcDbEntity
  8
止水栓
  6
EXLTYPE2
 62
     6
100
AcDbVertex
100
AcDb2dVertex
 10
1313.168457
 20
884.190629
 30
0.0
  0
VERTEX
  5
66A
100
AcDbEntity
  8
止水栓
  6
EXLTYPE2
 62
     6
100
AcDbVertex
100
AcDb2dVertex
 10
1312.953613
 20
884.21016
 30
0.0
  0
VERTEX
  5
66B
100
AcDbEntity
  8
止水栓
  6
EXLTYPE2
 62
     6
100
AcDbVertex
100
AcDb2dVertex
 10
1312.741211
 20
884.190629
 30
0.0
  0
VERTEX
  5
66C
100
AcDbEntity
  8
止水栓
  6
EXLTYPE2
 62
     6
100
AcDbVertex
100
AcDb2dVertex
 10
1312.528809
 20
884.134477
 30
0.0
  0
VERTEX
  5
66D
100
AcDbEntity
  8
止水栓
  6
EXLTYPE2
 62
     6
100
AcDbVertex
100
AcDb2dVertex
 10
1312.321289
 20
884.039262
 30
0.0
  0
VERTEX
  5
66E
100
AcDbEntity
  8
止水栓
  6
EXLTYPE2
 62
     6
100
AcDbVertex
100
AcDb2dVertex
 10
1312.116211
 20
883.909867
 30
0.0
  0
VERTEX
  5
66F
100
AcDbEntity
  8
止水栓
  6
EXLTYPE2
 62
     6
100
AcDbVertex
100
AcDb2dVertex
 10
1311.918457
 20
883.74141
 30
0.0
  0
SEQEND
  5
670
100
AcDbEntity
  8
止水栓
  6
EXLTYPE2
 62
     6
  0
LINE
  5
671
100
AcDbEntity
  8
止水栓
  6
EXLTYPE2
 62
     6
100
AcDbLine
 10
1312.030762
 20
873.470414
 30
0.0
 11
1333.969238
 21
873.470414
 31
0.0
  0
LINE
  5
672
100
AcDbEntity
  8
止水栓
  6
EXLTYPE2
 62
     6
100
AcDbLine
 10
1312.5
 20
868.470414
 30
0.0
 11
1333.5
 21
868.470414
 31
0.0
  0
ARC
  5
673
100
AcDbEntity
  8
止水栓
  6
EXLTYPE2
 62
     6
100
AcDbCircle
 10
1321.249512
 20
879.471391
 30
0.0
 40
10.998535
100
AcDbArc
 50
146.94841
 51
213.059082
  0
POLYLINE
  5
674
100
AcDbEntity
  8
止水栓
  6
EXLTYPE2
 62
     6
100
AcDb2dPolyline
 66
     1
 10
0.0
 20
0.0
 30
0.0
 70
   128
  0
VERTEX
  5
675
100
AcDbEntity
  8
止水栓
  6
EXLTYPE2
 62
     6
100
AcDbVertex
100
AcDb2dVertex
 10
1311.918457
 20
883.74141
 30
0.0
  0
VERTEX
  5
676
100
AcDbEntity
  8
止水栓
  6
EXLTYPE2
 62
     6
100
AcDbVertex
100
AcDb2dVertex
 10
1311.730469
 20
883.541215
 30
0.0
  0
VERTEX
  5
677
100
AcDbEntity
  8
止水栓
  6
EXLTYPE2
 62
     6
100
AcDbVertex
100
AcDb2dVertex
 10
1311.549805
 20
883.30684
 30
0.0
  0
VERTEX
  5
678
100
AcDbEntity
  8
止水栓
  6
EXLTYPE2
 62
     6
100
AcDbVertex
100
AcDb2dVertex
 10
1311.378906
 20
883.043168
 30
0.0
  0
VERTEX
  5
679
100
AcDbEntity
  8
止水栓
  6
EXLTYPE2
 62
     6
100
AcDbVertex
100
AcDb2dVertex
 10
1311.222656
 20
882.747758
 30
0.0
  0
VERTEX
  5
67A
100
AcDbEntity
  8
止水栓
  6
EXLTYPE2
 62
     6
100
AcDbVertex
100
AcDb2dVertex
 10
1311.078613
 20
882.427934
 30
0.0
  0
VERTEX
  5
67B
100
AcDbEntity
  8
止水栓
  6
EXLTYPE2
 62
     6
100
AcDbVertex
100
AcDb2dVertex
 10
1310.946777
 20
882.081254
 30
0.0
  0
VERTEX
  5
67C
100
AcDbEntity
  8
止水栓
  6
EXLTYPE2
 62
     6
100
AcDbVertex
100
AcDb2dVertex
 10
1310.832031
 20
881.715043
 30
0.0
  0
VERTEX
  5
67D
100
AcDbEntity
  8
止水栓
  6
EXLTYPE2
 62
     6
100
AcDbVertex
100
AcDb2dVertex
 10
1310.734375
 20
881.329301
 30
0.0
  0
VERTEX
  5
67E
100
AcDbEntity
  8
止水栓
  6
EXLTYPE2
 62
     6
100
AcDbVertex
100
AcDb2dVertex
 10
1310.653809
 20
880.926469
 30
0.0
  0
VERTEX
  5
67F
100
AcDbEntity
  8
止水栓
  6
EXLTYPE2
 62
     6
100
AcDbVertex
100
AcDb2dVertex
 10
1310.587891
 20
880.51143
 30
0.0
  0
SEQEND
  5
680
100
AcDbEntity
  8
止水栓
  6
EXLTYPE2
 62
     6
  0
POLYLINE
  5
681
100
AcDbEntity
  8
止水栓
  6
EXLTYPE2
 62
     6
100
AcDb2dPolyline
 66
     1
 10
0.0
 20
0.0
 30
0.0
 70
   128
  0
VERTEX
  5
682
100
AcDbEntity
  8
止水栓
  6
EXLTYPE2
 62
     6
100
AcDbVertex
100
AcDb2dVertex
 10
1310.587891
 20
880.51143
 30
0.0
  0
VERTEX
  5
683
100
AcDbEntity
  8
止水栓
  6
EXLTYPE2
 62
     6
100
AcDbVertex
100
AcDb2dVertex
 10
1310.541504
 20
880.086625
 30
0.0
  0
VERTEX
  5
684
100
AcDbEntity
  8
止水栓
  6
EXLTYPE2
 62
     6
100
AcDbVertex
100
AcDb2dVertex
 10
1310.514648
 20
879.654496
 30
0.0
  0
VERTEX
  5
685
100
AcDbEntity
  8
止水栓
  6
EXLTYPE2
 62
     6
100
AcDbVertex
100
AcDb2dVertex
 10
1310.504883
 20
879.219926
 30
0.0
  0
SEQEND
  5
686
100
AcDbEntity
  8
止水栓
  6
EXLTYPE2
 62
     6
  0
LINE
  5
687
100
AcDbEntity
  8
止水栓
  6
EXLTYPE2
 62
     6
100
AcDbLine
 10
1312.5
 20
873.470414
 30
0.0
 11
1312.5
 21
868.470414
 31
0.0
  0
POLYLINE
  5
688
100
AcDbEntity
  8
止水栓
  6
EXLTYPE2
 62
     6
100
AcDb2dPolyline
 66
     1
 10
0.0
 20
0.0
 30
0.0
 70
   128
  0
VERTEX
  5
689
100
AcDbEntity
  8
止水栓
  6
EXLTYPE2
 62
     6
100
AcDbVertex
100
AcDb2dVertex
 10
1332.018555
 20
883.409379
 30
0.0
  0
VERTEX
  5
68A
100
AcDbEntity
  8
止水栓
  6
EXLTYPE2
 62
     6
100
AcDbVertex
100
AcDb2dVertex
 10
1331.828125
 20
883.223832
 30
0.0
  0
VERTEX
  5
68B
100
AcDbEntity
  8
止水栓
  6
EXLTYPE2
 62
     6
100
AcDbVertex
100
AcDb2dVertex
 10
1331.647461
 20
883.006547
 30
0.0
  0
VERTEX
  5
68C
100
AcDbEntity
  8
止水栓
  6
EXLTYPE2
 62
     6
100
AcDbVertex
100
AcDb2dVertex
 10
1331.479004
 20
882.759965
 30
0.0
  0
VERTEX
  5
68D
100
AcDbEntity
  8
止水栓
  6
EXLTYPE2
 62
     6
100
AcDbVertex
100
AcDb2dVertex
 10
1331.320313
 20
882.486528
 30
0.0
  0
VERTEX
  5
68E
100
AcDbEntity
  8
止水栓
  6
EXLTYPE2
 62
     6
100
AcDbVertex
100
AcDb2dVertex
 10
1331.17627
 20
882.188676
 30
0.0
  0
VERTEX
  5
68F
100
AcDbEntity
  8
止水栓
  6
EXLTYPE2
 62
     6
100
AcDbVertex
100
AcDb2dVertex
 10
1331.046875
 20
881.868852
 30
0.0
  0
VERTEX
  5
690
100
AcDbEntity
  8
止水栓
  6
EXLTYPE2
 62
     6
100
AcDbVertex
100
AcDb2dVertex
 10
1330.932129
 20
881.529496
 30
0.0
  0
VERTEX
  5
691
100
AcDbEntity
  8
止水栓
  6
EXLTYPE2
 62
     6
100
AcDbVertex
100
AcDb2dVertex
 10
1330.832031
 20
881.17061
 30
0.0
  0
VERTEX
  5
692
100
AcDbEntity
  8
止水栓
  6
EXLTYPE2
 62
     6
100
AcDbVertex
100
AcDb2dVertex
 10
1330.751465
 20
880.797074
 30
0.0
  0
VERTEX
  5
693
100
AcDbEntity
  8
止水栓
  6
EXLTYPE2
 62
     6
100
AcDbVertex
100
AcDb2dVertex
 10
1330.687988
 20
880.411332
 30
0.0
  0
SEQEND
  5
694
100
AcDbEntity
  8
止水栓
  6
EXLTYPE2
 62
     6
  0
POLYLINE
  5
695
100
AcDbEntity
  8
止水栓
  6
EXLTYPE2
 62
     6
100
AcDb2dPolyline
 66
     1
 10
0.0
 20
0.0
 30
0.0
 70
   128
  0
VERTEX
  5
696
100
AcDbEntity
  8
止水栓
  6
EXLTYPE2
 62
     6
100
AcDbVertex
100
AcDb2dVertex
 10
1330.687988
 20
880.411332
 30
0.0
  0
VERTEX
  5
697
100
AcDbEntity
  8
止水栓
  6
EXLTYPE2
 62
     6
100
AcDbVertex
100
AcDb2dVertex
 10
1330.641602
 20
880.018266
 30
0.0
  0
VERTEX
  5
698
100
AcDbEntity
  8
止水栓
  6
EXLTYPE2
 62
     6
100
AcDbVertex
100
AcDb2dVertex
 10
1330.612305
 20
879.617875
 30
0.0
  0
VERTEX
  5
699
100
AcDbEntity
  8
止水栓
  6
EXLTYPE2
 62
     6
100
AcDbVertex
100
AcDb2dVertex
 10
1330.602539
 20
879.215043
 30
0.0
  0
SEQEND
  5
69A
100
AcDbEntity
  8
止水栓
  6
EXLTYPE2
 62
     6
  0
POLYLINE
  5
69B
100
AcDbEntity
  8
止水栓
  6
EXLTYPE2
 62
     6
100
AcDb2dPolyline
 66
     1
 10
0.0
 20
0.0
 30
0.0
 70
   128
  0
VERTEX
  5
69C
100
AcDbEntity
  8
止水栓
  6
EXLTYPE2
 62
     6
100
AcDbVertex
100
AcDb2dVertex
 10
1330.602539
 20
879.212602
 30
0.0
  0
VERTEX
  5
69D
100
AcDbEntity
  8
止水栓
  6
EXLTYPE2
 62
     6
100
AcDbVertex
100
AcDb2dVertex
 10
1330.612305
 20
878.80977
 30
0.0
  0
VERTEX
  5
69E
100
AcDbEntity
  8
止水栓
  6
EXLTYPE2
 62
     6
100
AcDbVertex
100
AcDb2dVertex
 10
1330.641602
 20
878.409379
 30
0.0
  0
VERTEX
  5
69F
100
AcDbEntity
  8
止水栓
  6
EXLTYPE2
 62
     6
100
AcDbVertex
100
AcDb2dVertex
 10
1330.687988
 20
878.013871
 30
0.0
  0
VERTEX
  5
6A0
100
AcDbEntity
  8
止水栓
  6
EXLTYPE2
 62
     6
100
AcDbVertex
100
AcDb2dVertex
 10
1330.751465
 20
877.630571
 30
0.0
  0
VERTEX
  5
6A1
100
AcDbEntity
  8
止水栓
  6
EXLTYPE2
 62
     6
100
AcDbVertex
100
AcDb2dVertex
 10
1330.832031
 20
877.257035
 30
0.0
  0
VERTEX
  5
6A2
100
AcDbEntity
  8
止水栓
  6
EXLTYPE2
 62
     6
100
AcDbVertex
100
AcDb2dVertex
 10
1330.932129
 20
876.898149
 30
0.0
  0
VERTEX
  5
6A3
100
AcDbEntity
  8
止水栓
  6
EXLTYPE2
 62
     6
100
AcDbVertex
100
AcDb2dVertex
 10
1331.046875
 20
876.558793
 30
0.0
  0
VERTEX
  5
6A4
100
AcDbEntity
  8
止水栓
  6
EXLTYPE2
 62
     6
100
AcDbVertex
100
AcDb2dVertex
 10
1331.17627
 20
876.236528
 30
0.0
  0
VERTEX
  5
6A5
100
AcDbEntity
  8
止水栓
  6
EXLTYPE2
 62
     6
100
AcDbVertex
100
AcDb2dVertex
 10
1331.320313
 20
875.938676
 30
0.0
  0
VERTEX
  5
6A6
100
AcDbEntity
  8
止水栓
  6
EXLTYPE2
 62
     6
100
AcDbVertex
100
AcDb2dVertex
 10
1331.479004
 20
875.66768
 30
0.0
  0
VERTEX
  5
6A7
100
AcDbEntity
  8
止水栓
  6
EXLTYPE2
 62
     6
100
AcDbVertex
100
AcDb2dVertex
 10
1331.647461
 20
875.421098
 30
0.0
  0
VERTEX
  5
6A8
100
AcDbEntity
  8
止水栓
  6
EXLTYPE2
 62
     6
100
AcDbVertex
100
AcDb2dVertex
 10
1331.828125
 20
875.203813
 30
0.0
  0
VERTEX
  5
6A9
100
AcDbEntity
  8
止水栓
  6
EXLTYPE2
 62
     6
100
AcDbVertex
100
AcDb2dVertex
 10
1332.018555
 20
875.015824
 30
0.0
  0
VERTEX
  5
6AA
100
AcDbEntity
  8
止水栓
  6
EXLTYPE2
 62
     6
100
AcDbVertex
100
AcDb2dVertex
 10
1332.216309
 20
874.862016
 30
0.0
  0
VERTEX
  5
6AB
100
AcDbEntity
  8
止水栓
  6
EXLTYPE2
 62
     6
100
AcDbVertex
100
AcDb2dVertex
 10
1332.418945
 20
874.742387
 30
0.0
  0
VERTEX
  5
6AC
100
AcDbEntity
  8
止水栓
  6
EXLTYPE2
 62
     6
100
AcDbVertex
100
AcDb2dVertex
 10
1332.628906
 20
874.654496
 30
0.0
  0
VERTEX
  5
6AD
100
AcDbEntity
  8
止水栓
  6
EXLTYPE2
 62
     6
100
AcDbVertex
100
AcDb2dVertex
 10
1332.838867
 20
874.600785
 30
0.0
  0
VERTEX
  5
6AE
100
AcDbEntity
  8
止水栓
  6
EXLTYPE2
 62
     6
100
AcDbVertex
100
AcDb2dVertex
 10
1333.053711
 20
874.583696
 30
0.0
  0
VERTEX
  5
6AF
100
AcDbEntity
  8
止水栓
  6
EXLTYPE2
 62
     6
100
AcDbVertex
100
AcDb2dVertex
 10
1333.266113
 20
874.600785
 30
0.0
  0
VERTEX
  5
6B0
100
AcDbEntity
  8
止水栓
  6
EXLTYPE2
 62
     6
100
AcDbVertex
100
AcDb2dVertex
 10
1333.478516
 20
874.654496
 30
0.0
  0
VERTEX
  5
6B1
100
AcDbEntity
  8
止水栓
  6
EXLTYPE2
 62
     6
100
AcDbVertex
100
AcDb2dVertex
 10
1333.688477
 20
874.742387
 30
0.0
  0
VERTEX
  5
6B2
100
AcDbEntity
  8
止水栓
  6
EXLTYPE2
 62
     6
100
AcDbVertex
100
AcDb2dVertex
 10
1333.891113
 20
874.862016
 30
0.0
  0
VERTEX
  5
6B3
100
AcDbEntity
  8
止水栓
  6
EXLTYPE2
 62
     6
100
AcDbVertex
100
AcDb2dVertex
 10
1334.088867
 20
875.018266
 30
0.0
  0
VERTEX
  5
6B4
100
AcDbEntity
  8
止水栓
  6
EXLTYPE2
 62
     6
100
AcDbVertex
100
AcDb2dVertex
 10
1334.276855
 20
875.203813
 30
0.0
  0
VERTEX
  5
6B5
100
AcDbEntity
  8
止水栓
  6
EXLTYPE2
 62
     6
100
AcDbVertex
100
AcDb2dVertex
 10
1334.45752
 20
875.421098
 30
0.0
  0
VERTEX
  5
6B6
100
AcDbEntity
  8
止水栓
  6
EXLTYPE2
 62
     6
100
AcDbVertex
100
AcDb2dVertex
 10
1334.628418
 20
875.665238
 30
0.0
  0
VERTEX
  5
6B7
100
AcDbEntity
  8
止水栓
  6
EXLTYPE2
 62
     6
100
AcDbVertex
100
AcDb2dVertex
 10
1334.784668
 20
875.938676
 30
0.0
  0
VERTEX
  5
6B8
100
AcDbEntity
  8
止水栓
  6
EXLTYPE2
 62
     6
100
AcDbVertex
100
AcDb2dVertex
 10
1334.928711
 20
876.236528
 30
0.0
  0
VERTEX
  5
6B9
100
AcDbEntity
  8
止水栓
  6
EXLTYPE2
 62
     6
100
AcDbVertex
100
AcDb2dVertex
 10
1335.060547
 20
876.558793
 30
0.0
  0
VERTEX
  5
6BA
100
AcDbEntity
  8
止水栓
  6
EXLTYPE2
 62
     6
100
AcDbVertex
100
AcDb2dVertex
 10
1335.175293
 20
876.898149
 30
0.0
  0
VERTEX
  5
6BB
100
AcDbEntity
  8
止水栓
  6
EXLTYPE2
 62
     6
100
AcDbVertex
100
AcDb2dVertex
 10
1335.272949
 20
877.257035
 30
0.0
  0
VERTEX
  5
6BC
100
AcDbEntity
  8
止水栓
  6
EXLTYPE2
 62
     6
100
AcDbVertex
100
AcDb2dVertex
 10
1335.353516
 20
877.628129
 30
0.0
  0
VERTEX
  5
6BD
100
AcDbEntity
  8
止水栓
  6
EXLTYPE2
 62
     6
100
AcDbVertex
100
AcDb2dVertex
 10
1335.419434
 20
878.013871
 30
0.0
  0
VERTEX
  5
6BE
100
AcDbEntity
  8
止水栓
  6
EXLTYPE2
 62
     6
100
AcDbVertex
100
AcDb2dVertex
 10
1335.46582
 20
878.409379
 30
0.0
  0
VERTEX
  5
6BF
100
AcDbEntity
  8
止水栓
  6
EXLTYPE2
 62
     6
100
AcDbVertex
100
AcDb2dVertex
 10
1335.492676
 20
878.80977
 30
0.0
  0
VERTEX
  5
6C0
100
AcDbEntity
  8
止水栓
  6
EXLTYPE2
 62
     6
100
AcDbVertex
100
AcDb2dVertex
 10
1335.502441
 20
879.212602
 30
0.0
  0
VERTEX
  5
6C1
100
AcDbEntity
  8
止水栓
  6
EXLTYPE2
 62
     6
100
AcDbVertex
100
AcDb2dVertex
 10
1335.492676
 20
879.615434
 30
0.0
  0
VERTEX
  5
6C2
100
AcDbEntity
  8
止水栓
  6
EXLTYPE2
 62
     6
100
AcDbVertex
100
AcDb2dVertex
 10
1335.46582
 20
880.015824
 30
0.0
  0
VERTEX
  5
6C3
100
AcDbEntity
  8
止水栓
  6
EXLTYPE2
 62
     6
100
AcDbVertex
100
AcDb2dVertex
 10
1335.419434
 20
880.411332
 30
0.0
  0
VERTEX
  5
6C4
100
AcDbEntity
  8
止水栓
  6
EXLTYPE2
 62
     6
100
AcDbVertex
100
AcDb2dVertex
 10
1335.355957
 20
880.797074
 30
0.0
  0
VERTEX
  5
6C5
100
AcDbEntity
  8
止水栓
  6
EXLTYPE2
 62
     6
100
AcDbVertex
100
AcDb2dVertex
 10
1335.272949
 20
881.17061
 30
0.0
  0
VERTEX
  5
6C6
100
AcDbEntity
  8
止水栓
  6
EXLTYPE2
 62
     6
100
AcDbVertex
100
AcDb2dVertex
 10
1335.175293
 20
881.529496
 30
0.0
  0
VERTEX
  5
6C7
100
AcDbEntity
  8
止水栓
  6
EXLTYPE2
 62
     6
100
AcDbVertex
100
AcDb2dVertex
 10
1335.060547
 20
881.868852
 30
0.0
  0
VERTEX
  5
6C8
100
AcDbEntity
  8
止水栓
  6
EXLTYPE2
 62
     6
100
AcDbVertex
100
AcDb2dVertex
 10
1334.928711
 20
882.191117
 30
0.0
  0
VERTEX
  5
6C9
100
AcDbEntity
  8
止水栓
  6
EXLTYPE2
 62
     6
100
AcDbVertex
100
AcDb2dVertex
 10
1334.784668
 20
882.486528
 30
0.0
  0
VERTEX
  5
6CA
100
AcDbEntity
  8
止水栓
  6
EXLTYPE2
 62
     6
100
AcDbVertex
100
AcDb2dVertex
 10
1334.628418
 20
882.759965
 30
0.0
  0
VERTEX
  5
6CB
100
AcDbEntity
  8
止水栓
  6
EXLTYPE2
 62
     6
100
AcDbVertex
100
AcDb2dVertex
 10
1334.45752
 20
883.006547
 30
0.0
  0
VERTEX
  5
6CC
100
AcDbEntity
  8
止水栓
  6
EXLTYPE2
 62
     6
100
AcDbVertex
100
AcDb2dVertex
 10
1334.279297
 20
883.223832
 30
0.0
  0
VERTEX
  5
6CD
100
AcDbEntity
  8
止水栓
  6
EXLTYPE2
 62
     6
100
AcDbVertex
100
AcDb2dVertex
 10
1334.088867
 20
883.409379
 30
0.0
  0
VERTEX
  5
6CE
100
AcDbEntity
  8
止水栓
  6
EXLTYPE2
 62
     6
100
AcDbVertex
100
AcDb2dVertex
 10
1333.891113
 20
883.563188
 30
0.0
  0
VERTEX
  5
6CF
100
AcDbEntity
  8
止水栓
  6
EXLTYPE2
 62
     6
100
AcDbVertex
100
AcDb2dVertex
 10
1333.688477
 20
883.685258
 30
0.0
  0
VERTEX
  5
6D0
100
AcDbEntity
  8
止水栓
  6
EXLTYPE2
 62
     6
100
AcDbVertex
100
AcDb2dVertex
 10
1333.478516
 20
883.773149
 30
0.0
  0
VERTEX
  5
6D1
100
AcDbEntity
  8
止水栓
  6
EXLTYPE2
 62
     6
100
AcDbVertex
100
AcDb2dVertex
 10
1333.266113
 20
883.82686
 30
0.0
  0
VERTEX
  5
6D2
100
AcDbEntity
  8
止水栓
  6
EXLTYPE2
 62
     6
100
AcDbVertex
100
AcDb2dVertex
 10
1333.053711
 20
883.843949
 30
0.0
  0
VERTEX
  5
6D3
100
AcDbEntity
  8
止水栓
  6
EXLTYPE2
 62
     6
100
AcDbVertex
100
AcDb2dVertex
 10
1332.838867
 20
883.824418
 30
0.0
  0
VERTEX
  5
6D4
100
AcDbEntity
  8
止水栓
  6
EXLTYPE2
 62
     6
100
AcDbVertex
100
AcDb2dVertex
 10
1332.628906
 20
883.773149
 30
0.0
  0
VERTEX
  5
6D5
100
AcDbEntity
  8
止水栓
  6
EXLTYPE2
 62
     6
100
AcDbVertex
100
AcDb2dVertex
 10
1332.418945
 20
883.685258
 30
0.0
  0
VERTEX
  5
6D6
100
AcDbEntity
  8
止水栓
  6
EXLTYPE2
 62
     6
100
AcDbVertex
100
AcDb2dVertex
 10
1332.216309
 20
883.563188
 30
0.0
  0
VERTEX
  5
6D7
100
AcDbEntity
  8
止水栓
  6
EXLTYPE2
 62
     6
100
AcDbVertex
100
AcDb2dVertex
 10
1332.018555
 20
883.409379
 30
0.0
  0
SEQEND
  5
6D8
100
AcDbEntity
  8
止水栓
  6
EXLTYPE2
 62
     6
  0
LINE
  5
6D9
100
AcDbEntity
  8
止水栓
  6
EXLTYPE2
 62
     6
100
AcDbLine
 10
1333.5
 20
873.470414
 30
0.0
 11
1333.5
 21
868.470414
 31
0.0
  0
POLYLINE
  5
6DA
100
AcDbEntity
  8
止水栓
  6
EXLTYPE2
 62
     6
100
AcDb2dPolyline
 66
     1
 10
0.0
 20
0.0
 30
0.0
 70
   128
  0
VERTEX
  5
6DB
100
AcDbEntity
  8
止水栓
  6
EXLTYPE2
 62
     6
100
AcDbVertex
100
AcDb2dVertex
 10
1323.0
 20
873.685258
 30
0.0
  0
VERTEX
  5
6DC
100
AcDbEntity
  8
止水栓
  6
EXLTYPE2
 62
     6
100
AcDbVertex
100
AcDb2dVertex
 10
1323.498047
 20
873.707231
 30
0.0
  0
VERTEX
  5
6DD
100
AcDbEntity
  8
止水栓
  6
EXLTYPE2
 62
     6
100
AcDbVertex
100
AcDb2dVertex
 10
1323.993652
 20
873.773149
 30
0.0
  0
VERTEX
  5
6DE
100
AcDbEntity
  8
止水栓
  6
EXLTYPE2
 62
     6
100
AcDbVertex
100
AcDb2dVertex
 10
1324.481934
 20
873.875688
 30
0.0
  0
VERTEX
  5
6DF
100
AcDbEntity
  8
止水栓
  6
EXLTYPE2
 62
     6
100
AcDbVertex
100
AcDb2dVertex
 10
1324.967773
 20
874.022172
 30
0.0
  0
VERTEX
  5
6E0
100
AcDbEntity
  8
止水栓
  6
EXLTYPE2
 62
     6
100
AcDbVertex
100
AcDb2dVertex
 10
1325.436523
 20
874.207719
 30
0.0
  0
VERTEX
  5
6E1
100
AcDbEntity
  8
止水栓
  6
EXLTYPE2
 62
     6
100
AcDbVertex
100
AcDb2dVertex
 10
1325.888184
 20
874.429887
 30
0.0
  0
VERTEX
  5
6E2
100
AcDbEntity
  8
止水栓
  6
EXLTYPE2
 62
     6
100
AcDbVertex
100
AcDb2dVertex
 10
1326.317871
 20
874.691117
 30
0.0
  0
VERTEX
  5
6E3
100
AcDbEntity
  8
止水栓
  6
EXLTYPE2
 62
     6
100
AcDbVertex
100
AcDb2dVertex
 10
1326.720703
 20
874.986528
 30
0.0
  0
VERTEX
  5
6E4
100
AcDbEntity
  8
止水栓
  6
EXLTYPE2
 62
     6
100
AcDbVertex
100
AcDb2dVertex
 10
1327.09668
 20
875.313676
 30
0.0
  0
VERTEX
  5
6E5
100
AcDbEntity
  8
止水栓
  6
EXLTYPE2
 62
     6
100
AcDbVertex
100
AcDb2dVertex
 10
1327.438477
 20
875.672563
 30
0.0
  0
VERTEX
  5
6E6
100
AcDbEntity
  8
止水栓
  6
EXLTYPE2
 62
     6
100
AcDbVertex
100
AcDb2dVertex
 10
1327.748535
 20
876.058305
 30
0.0
  0
VERTEX
  5
6E7
100
AcDbEntity
  8
止水栓
  6
EXLTYPE2
 62
     6
100
AcDbVertex
100
AcDb2dVertex
 10
1328.021973
 20
876.46602
 30
0.0
  0
VERTEX
  5
6E8
100
AcDbEntity
  8
止水栓
  6
EXLTYPE2
 62
     6
100
AcDbVertex
100
AcDb2dVertex
 10
1328.258789
 20
876.895707
 30
0.0
  0
VERTEX
  5
6E9
100
AcDbEntity
  8
止水栓
  6
EXLTYPE2
 62
     6
100
AcDbVertex
100
AcDb2dVertex
 10
1328.45166
 20
877.344926
 30
0.0
  0
VERTEX
  5
6EA
100
AcDbEntity
  8
止水栓
  6
EXLTYPE2
 62
     6
100
AcDbVertex
100
AcDb2dVertex
 10
1328.605469
 20
877.808793
 30
0.0
  0
VERTEX
  5
6EB
100
AcDbEntity
  8
止水栓
  6
EXLTYPE2
 62
     6
100
AcDbVertex
100
AcDb2dVertex
 10
1328.715332
 20
878.282426
 30
0.0
  0
VERTEX
  5
6EC
100
AcDbEntity
  8
止水栓
  6
EXLTYPE2
 62
     6
100
AcDbVertex
100
AcDb2dVertex
 10
1328.78125
 20
878.763383
 30
0.0
  0
VERTEX
  5
6ED
100
AcDbEntity
  8
止水栓
  6
EXLTYPE2
 62
     6
100
AcDbVertex
100
AcDb2dVertex
 10
1328.805664
 20
879.246781
 30
0.0
  0
VERTEX
  5
6EE
100
AcDbEntity
  8
止水栓
  6
EXLTYPE2
 62
     6
100
AcDbVertex
100
AcDb2dVertex
 10
1328.78125
 20
879.732621
 30
0.0
  0
VERTEX
  5
6EF
100
AcDbEntity
  8
止水栓
  6
EXLTYPE2
 62
     6
100
AcDbVertex
100
AcDb2dVertex
 10
1328.715332
 20
880.213578
 30
0.0
  0
VERTEX
  5
6F0
100
AcDbEntity
  8
止水栓
  6
EXLTYPE2
 62
     6
100
AcDbVertex
100
AcDb2dVertex
 10
1328.605469
 20
880.687211
 30
0.0
  0
VERTEX
  5
6F1
100
AcDbEntity
  8
止水栓
  6
EXLTYPE2
 62
     6
100
AcDbVertex
100
AcDb2dVertex
 10
1328.45166
 20
881.148637
 30
0.0
  0
VERTEX
  5
6F2
100
AcDbEntity
  8
止水栓
  6
EXLTYPE2
 62
     6
100
AcDbVertex
100
AcDb2dVertex
 10
1328.258789
 20
881.597856
 30
0.0
  0
VERTEX
  5
6F3
100
AcDbEntity
  8
止水栓
  6
EXLTYPE2
 62
     6
100
AcDbVertex
100
AcDb2dVertex
 10
1328.021973
 20
882.027543
 30
0.0
  0
VERTEX
  5
6F4
100
AcDbEntity
  8
止水栓
  6
EXLTYPE2
 62
     6
100
AcDbVertex
100
AcDb2dVertex
 10
1327.748535
 20
882.437699
 30
0.0
  0
VERTEX
  5
6F5
100
AcDbEntity
  8
止水栓
  6
EXLTYPE2
 62
     6
100
AcDbVertex
100
AcDb2dVertex
 10
1327.438477
 20
882.821
 30
0.0
  0
VERTEX
  5
6F6
100
AcDbEntity
  8
止水栓
  6
EXLTYPE2
 62
     6
100
AcDbVertex
100
AcDb2dVertex
 10
1327.09668
 20
883.179887
 30
0.0
  0
VERTEX
  5
6F7
100
AcDbEntity
  8
止水栓
  6
EXLTYPE2
 62
     6
100
AcDbVertex
100
AcDb2dVertex
 10
1326.720703
 20
883.507035
 30
0.0
  0
VERTEX
  5
6F8
100
AcDbEntity
  8
止水栓
  6
EXLTYPE2
 62
     6
100
AcDbVertex
100
AcDb2dVertex
 10
1326.317871
 20
883.802446
 30
0.0
  0
VERTEX
  5
6F9
100
AcDbEntity
  8
止水栓
  6
EXLTYPE2
 62
     6
100
AcDbVertex
100
AcDb2dVertex
 10
1325.888184
 20
884.063676
 30
0.0
  0
VERTEX
  5
6FA
100
AcDbEntity
  8
止水栓
  6
EXLTYPE2
 62
     6
100
AcDbVertex
100
AcDb2dVertex
 10
1325.436523
 20
884.288285
 30
0.0
  0
VERTEX
  5
6FB
100
AcDbEntity
  8
止水栓
  6
EXLTYPE2
 62
     6
100
AcDbVertex
100
AcDb2dVertex
 10
1324.967773
 20
884.473832
 30
0.0
  0
VERTEX
  5
6FC
100
AcDbEntity
  8
止水栓
  6
EXLTYPE2
 62
     6
100
AcDbVertex
100
AcDb2dVertex
 10
1324.481934
 20
884.617875
 30
0.0
  0
VERTEX
  5
6FD
100
AcDbEntity
  8
止水栓
  6
EXLTYPE2
 62
     6
100
AcDbVertex
100
AcDb2dVertex
 10
1323.986328
 20
884.722856
 30
0.0
  0
VERTEX
  5
6FE
100
AcDbEntity
  8
止水栓
  6
EXLTYPE2
 62
     6
100
AcDbVertex
100
AcDb2dVertex
 10
1323.480957
 20
884.786332
 30
0.0
  0
VERTEX
  5
6FF
100
AcDbEntity
  8
止水栓
  6
EXLTYPE2
 62
     6
100
AcDbVertex
100
AcDb2dVertex
 10
1322.973145
 20
884.808305
 30
0.0
  0
VERTEX
  5
700
100
AcDbEntity
  8
止水栓
  6
EXLTYPE2
 62
     6
100
AcDbVertex
100
AcDb2dVertex
 10
1322.465332
 20
884.786332
 30
0.0
  0
VERTEX
  5
701
100
AcDbEntity
  8
止水栓
  6
EXLTYPE2
 62
     6
100
AcDbVertex
100
AcDb2dVertex
 10
1321.959961
 20
884.722856
 30
0.0
  0
VERTEX
  5
702
100
AcDbEntity
  8
止水栓
  6
EXLTYPE2
 62
     6
100
AcDbVertex
100
AcDb2dVertex
 10
1321.464355
 20
884.617875
 30
0.0
  0
VERTEX
  5
703
100
AcDbEntity
  8
止水栓
  6
EXLTYPE2
 62
     6
100
AcDbVertex
100
AcDb2dVertex
 10
1320.978516
 20
884.473832
 30
0.0
  0
VERTEX
  5
704
100
AcDbEntity
  8
止水栓
  6
EXLTYPE2
 62
     6
100
AcDbVertex
100
AcDb2dVertex
 10
1320.509766
 20
884.288285
 30
0.0
  0
VERTEX
  5
705
100
AcDbEntity
  8
止水栓
  6
EXLTYPE2
 62
     6
100
AcDbVertex
100
AcDb2dVertex
 10
1320.058105
 20
884.063676
 30
0.0
  0
VERTEX
  5
706
100
AcDbEntity
  8
止水栓
  6
EXLTYPE2
 62
     6
100
AcDbVertex
100
AcDb2dVertex
 10
1319.628418
 20
883.802446
 30
0.0
  0
VERTEX
  5
707
100
AcDbEntity
  8
止水栓
  6
EXLTYPE2
 62
     6
100
AcDbVertex
100
AcDb2dVertex
 10
1319.225586
 20
883.507035
 30
0.0
  0
VERTEX
  5
708
100
AcDbEntity
  8
止水栓
  6
EXLTYPE2
 62
     6
100
AcDbVertex
100
AcDb2dVertex
 10
1318.849609
 20
883.179887
 30
0.0
  0
VERTEX
  5
709
100
AcDbEntity
  8
止水栓
  6
EXLTYPE2
 62
     6
100
AcDbVertex
100
AcDb2dVertex
 10
1318.507813
 20
882.821
 30
0.0
  0
VERTEX
  5
70A
100
AcDbEntity
  8
止水栓
  6
EXLTYPE2
 62
     6
100
AcDbVertex
100
AcDb2dVertex
 10
1318.197754
 20
882.437699
 30
0.0
  0
VERTEX
  5
70B
100
AcDbEntity
  8
止水栓
  6
EXLTYPE2
 62
     6
100
AcDbVertex
100
AcDb2dVertex
 10
1317.924316
 20
882.027543
 30
0.0
  0
VERTEX
  5
70C
100
AcDbEntity
  8
止水栓
  6
EXLTYPE2
 62
     6
100
AcDbVertex
100
AcDb2dVertex
 10
1317.6875
 20
881.597856
 30
0.0
  0
VERTEX
  5
70D
100
AcDbEntity
  8
止水栓
  6
EXLTYPE2
 62
     6
100
AcDbVertex
100
AcDb2dVertex
 10
1317.494629
 20
881.148637
 30
0.0
  0
VERTEX
  5
70E
100
AcDbEntity
  8
止水栓
  6
EXLTYPE2
 62
     6
100
AcDbVertex
100
AcDb2dVertex
 10
1317.34082
 20
880.687211
 30
0.0
  0
VERTEX
  5
70F
100
AcDbEntity
  8
止水栓
  6
EXLTYPE2
 62
     6
100
AcDbVertex
100
AcDb2dVertex
 10
1317.230957
 20
880.213578
 30
0.0
  0
VERTEX
  5
710
100
AcDbEntity
  8
止水栓
  6
EXLTYPE2
 62
     6
100
AcDbVertex
100
AcDb2dVertex
 10
1317.165039
 20
879.732621
 30
0.0
  0
VERTEX
  5
711
100
AcDbEntity
  8
止水栓
  6
EXLTYPE2
 62
     6
100
AcDbVertex
100
AcDb2dVertex
 10
1317.143066
 20
879.249223
 30
0.0
  0
SEQEND
  5
712
100
AcDbEntity
  8
止水栓
  6
EXLTYPE2
 62
     6
  0
POLYLINE
  5
713
100
AcDbEntity
  8
止水栓
  6
EXLTYPE2
 62
     6
100
AcDb2dPolyline
 66
     1
 10
0.0
 20
0.0
 30
0.0
 70
   128
  0
VERTEX
  5
714
100
AcDbEntity
  8
止水栓
  6
EXLTYPE2
 62
     6
100
AcDbVertex
100
AcDb2dVertex
 10
1317.143066
 20
879.246781
 30
0.0
  0
VERTEX
  5
715
100
AcDbEntity
  8
止水栓
  6
EXLTYPE2
 62
     6
100
AcDbVertex
100
AcDb2dVertex
 10
1317.165039
 20
878.763383
 30
0.0
  0
VERTEX
  5
716
100
AcDbEntity
  8
止水栓
  6
EXLTYPE2
 62
     6
100
AcDbVertex
100
AcDb2dVertex
 10
1317.230957
 20
878.282426
 30
0.0
  0
VERTEX
  5
717
100
AcDbEntity
  8
止水栓
  6
EXLTYPE2
 62
     6
100
AcDbVertex
100
AcDb2dVertex
 10
1317.34082
 20
877.808793
 30
0.0
  0
VERTEX
  5
718
100
AcDbEntity
  8
止水栓
  6
EXLTYPE2
 62
     6
100
AcDbVertex
100
AcDb2dVertex
 10
1317.494629
 20
877.344926
 30
0.0
  0
VERTEX
  5
719
100
AcDbEntity
  8
止水栓
  6
EXLTYPE2
 62
     6
100
AcDbVertex
100
AcDb2dVertex
 10
1317.6875
 20
876.898149
 30
0.0
  0
VERTEX
  5
71A
100
AcDbEntity
  8
止水栓
  6
EXLTYPE2
 62
     6
100
AcDbVertex
100
AcDb2dVertex
 10
1317.924316
 20
876.46602
 30
0.0
  0
VERTEX
  5
71B
100
AcDbEntity
  8
止水栓
  6
EXLTYPE2
 62
     6
100
AcDbVertex
100
AcDb2dVertex
 10
1318.197754
 20
876.058305
 30
0.0
  0
VERTEX
  5
71C
100
AcDbEntity
  8
止水栓
  6
EXLTYPE2
 62
     6
100
AcDbVertex
100
AcDb2dVertex
 10
1318.507813
 20
875.672563
 30
0.0
  0
VERTEX
  5
71D
100
AcDbEntity
  8
止水栓
  6
EXLTYPE2
 62
     6
100
AcDbVertex
100
AcDb2dVertex
 10
1318.849609
 20
875.316117
 30
0.0
  0
VERTEX
  5
71E
100
AcDbEntity
  8
止水栓
  6
EXLTYPE2
 62
     6
100
AcDbVertex
100
AcDb2dVertex
 10
1319.225586
 20
874.986528
 30
0.0
  0
VERTEX
  5
71F
100
AcDbEntity
  8
止水栓
  6
EXLTYPE2
 62
     6
100
AcDbVertex
100
AcDb2dVertex
 10
1319.628418
 20
874.693559
 30
0.0
  0
VERTEX
  5
720
100
AcDbEntity
  8
止水栓
  6
EXLTYPE2
 62
     6
100
AcDbVertex
100
AcDb2dVertex
 10
1320.058105
 20
874.429887
 30
0.0
  0
VERTEX
  5
721
100
AcDbEntity
  8
止水栓
  6
EXLTYPE2
 62
     6
100
AcDbVertex
100
AcDb2dVertex
 10
1320.509766
 20
874.205278
 30
0.0
  0
VERTEX
  5
722
100
AcDbEntity
  8
止水栓
  6
EXLTYPE2
 62
     6
100
AcDbVertex
100
AcDb2dVertex
 10
1320.978516
 20
874.019731
 30
0.0
  0
VERTEX
  5
723
100
AcDbEntity
  8
止水栓
  6
EXLTYPE2
 62
     6
100
AcDbVertex
100
AcDb2dVertex
 10
1321.464355
 20
873.875688
 30
0.0
  0
VERTEX
  5
724
100
AcDbEntity
  8
止水栓
  6
EXLTYPE2
 62
     6
100
AcDbVertex
100
AcDb2dVertex
 10
1321.959961
 20
873.770707
 30
0.0
  0
VERTEX
  5
725
100
AcDbEntity
  8
止水栓
  6
EXLTYPE2
 62
     6
100
AcDbVertex
100
AcDb2dVertex
 10
1322.465332
 20
873.707231
 30
0.0
  0
VERTEX
  5
726
100
AcDbEntity
  8
止水栓
  6
EXLTYPE2
 62
     6
100
AcDbVertex
100
AcDb2dVertex
 10
1322.973145
 20
873.685258
 30
0.0
  0
VERTEX
  5
727
100
AcDbEntity
  8
止水栓
  6
EXLTYPE2
 62
     6
100
AcDbVertex
100
AcDb2dVertex
 10
1322.98291
 20
873.685258
 30
0.0
  0
VERTEX
  5
728
100
AcDbEntity
  8
止水栓
  6
EXLTYPE2
 62
     6
100
AcDbVertex
100
AcDb2dVertex
 10
1322.990234
 20
873.685258
 30
0.0
  0
VERTEX
  5
729
100
AcDbEntity
  8
止水栓
  6
EXLTYPE2
 62
     6
100
AcDbVertex
100
AcDb2dVertex
 10
1323.0
 20
873.685258
 30
0.0
  0
SEQEND
  5
72A
100
AcDbEntity
  8
止水栓
  6
EXLTYPE2
 62
     6
  0
LINE
  5
72B
100
AcDbEntity
  8
止水栓
  6
EXLTYPE2
 62
     6
100
AcDbLine
 10
1312.5225
 20
894.856049
 30
0.0
 11
1312.5225
 21
885.469926
 31
0.0
  0
LINE
  5
72C
100
AcDbEntity
  8
止水栓
  6
EXLTYPE2
 62
     6
100
AcDbLine
 10
1313.6845
 20
885.469926
 30
0.0
 11
1313.6845
 21
888.00023
 31
0.0
  0
LINE
  5
72D
100
AcDbEntity
  8
止水栓
  6
EXLTYPE2
 62
     6
100
AcDbLine
 10
1332.3155
 20
885.469926
 30
0.0
 11
1332.3155
 21
888.00023
 31
0.0
  0
LINE
  5
72E
100
AcDbEntity
  8
止水栓
  6
EXLTYPE2
 62
     6
100
AcDbLine
 10
1333.4775
 20
894.856049
 30
0.0
 11
1333.4775
 21
885.469926
 31
0.0
  0
LINE
  5
72F
100
AcDbEntity
  8
止水栓
  6
EXLTYPE2
 62
     6
100
AcDbLine
 10
1312.030762
 20
885.469926
 30
0.0
 11
1333.970831
 21
885.469926
 31
0.0
  0
ARC
  5
730
100
AcDbEntity
  8
止水栓
  6
EXLTYPE2
 62
     6
100
AcDbCircle
 10
1324.750488
 20
879.471391
 30
0.0
 40
10.99987
100
AcDbArc
 50
326.937744
 51
33.047067
  0
ARC
  5
731
100
AcDbEntity
  8
止水栓
  6
CONTINUOUS
 62
     6
100
AcDbCircle
 10
1401.2
 20
753.473283
 30
0.0
 40
98.300002
100
AcDbArc
 50
270.0
 51
0.0
  0
ARC
  5
732
100
AcDbEntity
  8
止水栓
  6
CONTINUOUS
 62
     6
100
AcDbCircle
 10
1401.2
 20
753.473283
 30
0.0
 40
85.300002
100
AcDbArc
 50
270.0
 51
0.0
  0
ARC
  5
733
100
AcDbEntity
  8
止水栓
  6
EXLTYPE3
 62
     6
100
AcDbCircle
 10
1408.000001
 20
807.689543
 30
0.0
 40
85.000001
100
AcDbArc
 50
180.0
 51
0.0
  0
LINE
  5
734
100
AcDbEntity
  8
止水栓
  6
CONTINUOUS
 62
     6
100
AcDbLine
 10
1391.499512
 20
668.173282
 30
0.0
 11
1401.2
 21
668.173282
 31
0.0
  0
LINE
  5
735
100
AcDbEntity
  8
止水栓
  6
CONTINUOUS
 62
     6
100
AcDbLine
 10
1391.499512
 20
655.173282
 30
0.0
 11
1401.2
 21
655.173282
 31
0.0
  0
LINE
  5
736
100
AcDbEntity
  8
止水栓
  6
CONTINUOUS
 62
     6
100
AcDbLine
 10
1486.500002
 20
869.281295
 30
0.0
 11
1486.500002
 21
753.473283
 31
0.0
  0
LINE
  5
737
100
AcDbEntity
  8
止水栓
  6
EXLTYPE3
 62
     6
100
AcDbLine
 10
1493.000002
 20
857.750056
 30
0.0
 11
1493.000002
 21
807.689543
 31
0.0
  0
LINE
  5
738
100
AcDbEntity
  8
止水栓
  6
CONTINUOUS
 62
     6
100
AcDbLine
 10
1499.500002
 20
848.556198
 30
0.0
 11
1499.500002
 21
753.473283
 31
0.0
  0
LINE
  5
739
100
AcDbEntity
  8
止水栓
  6
EXLTYPE2
 62
     6
100
AcDbLine
 10
333.0
 20
2126.700004
 30
0.0
 11
327.32
 21
2126.700004
 31
0.0
  0
LINE
  5
73A
100
AcDbEntity
  8
止水栓
  6
EXLTYPE2
 62
     6
100
AcDbLine
 10
325.160516
 20
2127.929488
 30
0.0
 11
333.0
 21
2127.684504
 31
0.0
  0
LINE
  5
73B
100
AcDbEntity
  8
止水栓
  6
EXLTYPE2
 62
     6
100
AcDbLine
 10
327.32
 20
2126.700004
 30
0.0
 11
326.34
 21
2126.730629
 31
0.0
  0
LINE
  5
73C
100
AcDbEntity
  8
止水栓
  6
EXLTYPE2
 62
     6
100
AcDbLine
 10
326.339
 20
2126.731629
 30
0.0
 11
324.84
 21
2128.230629
 31
0.0
  0
LINE
  5
73D
100
AcDbEntity
  8
止水栓
  6
EXLTYPE2
 62
     6
100
AcDbLine
 10
324.84
 20
2128.230629
 30
0.0
 11
324.84
 21
2145.769379
 31
0.0
  0
LINE
  5
73E
100
AcDbEntity
  8
止水栓
  6
EXLTYPE2
 62
     6
100
AcDbLine
 10
325.160516
 20
2146.07052
 30
0.0
 11
333.0
 21
2146.315504
 31
0.0
  0
LINE
  5
73F
100
AcDbEntity
  8
止水栓
  6
EXLTYPE2
 62
     6
100
AcDbLine
 10
326.339
 20
2147.268379
 30
0.0
 11
324.84
 21
2145.769379
 31
0.0
  0
LINE
  5
740
100
AcDbEntity
  8
止水栓
  6
EXLTYPE2
 62
     6
100
AcDbLine
 10
333.0
 20
2147.300004
 30
0.0
 11
327.32
 21
2147.300004
 31
0.0
  0
LINE
  5
741
100
AcDbEntity
  8
止水栓
  6
EXLTYPE2
 62
     6
100
AcDbLine
 10
327.32
 20
2147.300004
 30
0.0
 11
326.34
 21
2147.269379
 31
0.0
  0
LINE
  5
742
100
AcDbEntity
  8
止水栓
  6
EXLTYPE2
 62
     6
100
AcDbLine
 10
349.0
 20
2150.500004
 30
0.0
 11
349.0
 21
2123.500004
 31
0.0
  0
ARC
  5
743
100
AcDbEntity
  8
止水栓
  6
EXLTYPE2
 62
     6
100
AcDbCircle
 10
335.0
 20
2150.500004
 30
0.0
 40
14.0
100
AcDbArc
 50
0.0
 51
90.0
  0
LINE
  5
744
100
AcDbEntity
  8
止水栓
  6
EXLTYPE2
 62
     6
100
AcDbLine
 10
333.0
 20
2164.500004
 30
0.0
 11
335.0
 21
2164.500004
 31
0.0
  0
LINE
  5
745
100
AcDbEntity
  8
止水栓
  6
EXLTYPE2
 62
     6
100
AcDbLine
 10
357.467323
 20
2127.533254
 30
0.0
 11
356.024092
 21
2126.700004
 31
0.0
  0
LINE
  5
746
100
AcDbEntity
  8
止水栓
  6
EXLTYPE2
 62
     6
100
AcDbLine
 10
357.467323
 20
2126.700004
 30
0.0
 11
357.467323
 21
2147.300004
 31
0.0
  0
LINE
  5
747
100
AcDbEntity
  8
止水栓
  6
EXLTYPE2
 62
     6
100
AcDbLine
 10
357.467323
 20
2146.466754
 30
0.0
 11
356.024092
 21
2147.300004
 31
0.0
  0
LINE
  5
748
100
AcDbEntity
  8
止水栓
  6
EXLTYPE2
 62
     6
100
AcDbLine
 10
326.34
 20
2126.730629
 30
0.0
 11
326.34
 21
2136.998783
 31
0.0
  0
LINE
  5
749
100
AcDbEntity
  8
止水栓
  6
EXLTYPE2
 62
     6
100
AcDbLine
 10
408.361253
 20
2137.900019
 30
0.0
 11
407.661253
 21
2137.900019
 31
0.0
  0
LINE
  5
74A
100
AcDbEntity
  8
止水栓
  6
EXLTYPE2
 62
     6
100
AcDbLine
 10
408.361253
 20
2136.100019
 30
0.0
 11
407.661253
 21
2136.100019
 31
0.0
  0
LINE
  5
74B
100
AcDbEntity
  8
止水栓
  6
EXLTYPE2
 62
     6
100
AcDbLine
 10
408.361253
 20
2146.000019
 30
0.0
 11
407.661253
 21
2146.000019
 31
0.0
  0
LINE
  5
74C
100
AcDbEntity
  8
止水栓
  6
EXLTYPE2
 62
     6
100
AcDbLine
 10
408.361253
 20
2128.000019
 30
0.0
 11
407.661253
 21
2128.000019
 31
0.0
  0
LINE
  5
74D
100
AcDbEntity
  8
止水栓
  6
EXLTYPE2
 62
     6
100
AcDbLine
 10
407.661253
 20
2149.000019
 30
0.0
 11
407.661253
 21
2125.000019
 31
0.0
  0
LINE
  5
74E
100
AcDbEntity
  8
止水栓
  6
EXLTYPE2
 62
     6
100
AcDbLine
 10
407.661253
 20
2149.000019
 30
0.0
 11
371.187016
 21
2149.000019
 31
0.0
  0
LINE
  5
74F
100
AcDbEntity
  8
止水栓
  6
EXLTYPE2
 62
     6
100
AcDbLine
 10
407.661253
 20
2125.000019
 30
0.0
 11
370.150021
 21
2125.000019
 31
0.0
  0
LINE
  5
750
100
AcDbEntity
  8
止水栓
  6
EXLTYPE2
 62
     6
100
AcDbLine
 10
358.662016
 20
2124.000019
 30
0.0
 11
358.662016
 21
2150.000019
 31
0.0
  0
ARC
  5
751
100
AcDbEntity
  8
止水栓
  6
EXLTYPE2
 62
     6
100
AcDbCircle
 10
342.586451
 20
2137.000019
 30
0.0
 40
25.78689
100
AcDbArc
 50
343.078523
 51
16.828962
  0
LINE
  5
752
100
AcDbEntity
  8
止水栓
  6
EXLTYPE2
 62
     6
100
AcDbLine
 10
359.778471
 20
2144.465728
 30
0.0
 11
367.256886
 21
2144.465728
 31
0.0
  0
ARC
  5
753
100
AcDbEntity
  8
止水栓
  6
EXLTYPE2
 62
     6
100
AcDbCircle
 10
384.448906
 20
2137.000019
 30
0.0
 40
25.78689
100
AcDbArc
 50
163.141624
 51
196.921477
  0
ARC
  5
754
100
AcDbEntity
  8
止水栓
  6
EXLTYPE2
 62
     6
100
AcDbCircle
 10
365.527254
 20
2148.218479
 30
0.0
 40
6.865249
100
AcDbArc
 50
156.844796
 51
213.136123
  0
ARC
  5
755
100
AcDbEntity
  8
止水栓
  6
EXLTYPE2
 62
     6
100
AcDbCircle
 10
361.508103
 20
2148.218479
 30
0.0
 40
6.865249
100
AcDbArc
 50
326.863877
 51
33.136123
  0
ARC
  5
756
100
AcDbEntity
  8
止水栓
  6
EXLTYPE2
 62
     6
100
AcDbCircle
 10
361.508103
 20
2125.741714
 30
0.0
 40
6.865249
100
AcDbArc
 50
326.863877
 51
33.136123
  0
LINE
  5
757
100
AcDbEntity
  8
止水栓
  6
EXLTYPE2
 62
     6
100
AcDbLine
 10
359.778471
 20
2129.494465
 30
0.0
 11
367.256886
 21
2129.494465
 31
0.0
  0
ARC
  5
758
100
AcDbEntity
  8
止水栓
  6
EXLTYPE2
 62
     6
100
AcDbCircle
 10
365.527254
 20
2125.741714
 30
0.0
 40
6.865249
100
AcDbArc
 50
146.863877
 51
203.155204
  0
LINE
  5
759
100
AcDbEntity
  8
止水栓
  6
EXLTYPE2
 62
     6
100
AcDbLine
 10
359.778471
 20
2122.066262
 30
0.0
 11
358.662016
 21
2124.000019
 31
0.0
  0
LINE
  5
75A
100
AcDbEntity
  8
止水栓
  6
EXLTYPE2
 62
     6
100
AcDbLine
 10
359.8231
 20
2152.011076
 30
0.0
 11
358.662016
 21
2150.000019
 31
0.0
  0
LINE
  5
75B
100
AcDbEntity
  8
止水栓
  6
EXLTYPE2
 62
     6
100
AcDbLine
 10
367.256886
 20
2121.988962
 30
0.0
 11
368.41797
 21
2124.000019
 31
0.0
  0
LINE
  5
75C
100
AcDbEntity
  8
止水栓
  6
EXLTYPE2
 62
     6
100
AcDbLine
 10
359.778471
 20
2121.988962
 30
0.0
 11
367.256886
 21
2121.988962
 31
0.0
  0
ARC
  5
75D
100
AcDbEntity
  8
止水栓
  6
EXLTYPE2
 62
     6
100
AcDbCircle
 10
370.150021
 20
2123.000019
 30
0.0
 40
2.0
100
AcDbArc
 50
90.0
 51
150.0
  0
ARC
  5
75E
100
AcDbEntity
  8
止水栓
  6
EXLTYPE2
 62
     6
100
AcDbCircle
 10
370.150021
 20
2151.000019
 30
0.0
 40
2.0
100
AcDbArc
 50
210.0
 51
270.0
  0
LINE
  5
75F
100
AcDbEntity
  8
止水栓
  6
EXLTYPE2
 62
     6
100
AcDbLine
 10
371.187016
 20
2149.000019
 30
0.0
 11
370.150021
 21
2149.000019
 31
0.0
  0
LINE
  5
760
100
AcDbEntity
  8
止水栓
  6
EXLTYPE2
 62
     6
100
AcDbLine
 10
367.256886
 20
2152.011076
 30
0.0
 11
368.41797
 21
2150.000019
 31
0.0
  0
LINE
  5
761
100
AcDbEntity
  8
止水栓
  6
EXLTYPE2
 62
     6
100
AcDbLine
 10
359.8231
 20
2152.011076
 30
0.0
 11
367.256886
 21
2152.011076
 31
0.0
  0
LINE
  5
762
100
AcDbEntity
  8
止水栓
  6
EXLTYPE2
 62
     6
100
AcDbLine
 10
358.662016
 20
2147.300004
 30
0.0
 11
349.0
 21
2147.300004
 31
0.0
  0
LINE
  5
763
100
AcDbEntity
  8
止水栓
  6
EXLTYPE2
 62
     6
100
AcDbLine
 10
358.662016
 20
2126.700004
 30
0.0
 11
349.0
 21
2126.700004
 31
0.0
  0
LINE
  5
764
100
AcDbEntity
  8
止水栓
  6
EXLTYPE2
 62
     6
100
AcDbLine
 10
358.662016
 20
2146.429419
 30
0.0
 11
357.467323
 21
2146.466754
 31
0.0
  0
LINE
  5
765
100
AcDbEntity
  8
止水栓
  6
EXLTYPE2
 62
     6
100
AcDbLine
 10
358.662016
 20
2127.570588
 30
0.0
 11
357.467323
 21
2127.533254
 31
0.0
  0
ARC
  5
766
100
AcDbEntity
  8
止水栓
  6
EXLTYPE2
 62
     6
100
AcDbCircle
 10
335.0
 20
2123.500004
 30
0.0
 40
14.0
100
AcDbArc
 50
270.0
 51
0.0
  0
LINE
  5
767
100
AcDbEntity
  8
止水栓
  6
EXLTYPE2
 62
     6
100
AcDbLine
 10
333.0
 20
2109.500004
 30
0.0
 11
335.0
 21
2109.500004
 31
0.0
  0
LINE
  5
768
100
AcDbEntity
  8
止水栓
  6
EXLTYPE2
 62
     6
100
AcDbLine
 10
408.361253
 20
2137.900019
 30
0.0
 11
408.361253
 21
2146.000019
 31
0.0
  0
LINE
  5
769
100
AcDbEntity
  8
止水栓
  6
EXLTYPE2
 62
     6
100
AcDbLine
 10
408.361253
 20
2136.100019
 30
0.0
 11
408.361253
 21
2128.000019
 31
0.0
  0
LINE
  5
76A
100
AcDbEntity
  8
止水栓
  6
CONTINUOUS
 62
     6
100
AcDbLine
 10
442.21945
 20
2136.000248
 30
0.0
 11
423.78055
 21
2136.000248
 31
0.0
  0
LINE
  5
76B
100
AcDbEntity
  8
止水栓
  6
CONTINUOUS
 62
     6
100
AcDbLine
 10
423.780815
 20
2137.99976
 30
0.0
 11
442.219186
 21
2137.99976
 31
0.0
  0
ARC
  5
76C
100
AcDbEntity
  8
止水栓
  6
CONTINUOUS
 62
     6
100
AcDbCircle
 10
488.9775
 20
2150.142964
 30
0.0
 40
45.5
100
AcDbArc
 50
180.0
 51
193.214335
  0
ARC
  5
76D
100
AcDbEntity
  8
止水栓
  6
CONTINUOUS
 62
     6
100
AcDbCircle
 10
377.0225
 20
2150.142964
 30
0.0
 40
45.5
100
AcDbArc
 50
346.785665
 51
0.0
  0
CIRCLE
  5
76E
100
AcDbEntity
  8
止水栓
  6
CONTINUOUS
 62
     6
100
AcDbCircle
 10
433.0
 20
2136.998783
 30
0.0
 40
9.273367
  0
CIRCLE
  5
76F
100
AcDbEntity
  8
止水栓
  6
CONTINUOUS
 62
     6
100
AcDbCircle
 10
433.0
 20
2136.998783
 30
0.0
 40
9.959438
  0
CIRCLE
  5
770
100
AcDbEntity
  8
止水栓
  6
CONTINUOUS
 62
     6
100
AcDbCircle
 10
433.0
 20
2136.998783
 30
0.0
 40
12.0
  0
LINE
  5
771
100
AcDbEntity
  8
止水栓
  6
CONTINUOUS
 62
     6
100
AcDbLine
 10
1322.1
 20
683.361252
 30
0.0
 11
1314.0
 21
683.361252
 31
0.0
  0
LINE
  5
772
100
AcDbEntity
  8
止水栓
  6
CONTINUOUS
 62
     6
100
AcDbLine
 10
1323.9
 20
683.361252
 30
0.0
 11
1332.0
 21
683.361252
 31
0.0
  0
LINE
  5
773
100
AcDbEntity
  8
止水栓
  6
CONTINUOUS
 62
     6
100
AcDbLine
 10
1323.9
 20
683.361252
 30
0.0
 11
1323.9
 21
682.661252
 31
0.0
  0
LINE
  5
774
100
AcDbEntity
  8
止水栓
  6
CONTINUOUS
 62
     6
100
AcDbLine
 10
1322.1
 20
683.361252
 30
0.0
 11
1322.1
 21
682.661252
 31
0.0
  0
LINE
  5
775
100
AcDbEntity
  8
止水栓
  6
CONTINUOUS
 62
     6
100
AcDbLine
 10
1332.0
 20
683.361252
 30
0.0
 11
1332.0
 21
682.661252
 31
0.0
  0
LINE
  5
776
100
AcDbEntity
  8
止水栓
  6
CONTINUOUS
 62
     6
100
AcDbLine
 10
1314.0
 20
683.361252
 30
0.0
 11
1314.0
 21
682.661252
 31
0.0
  0
LINE
  5
777
100
AcDbEntity
  8
止水栓
  6
CONTINUOUS
 62
     6
100
AcDbLine
 10
1335.0
 20
682.661252
 30
0.0
 11
1311.0
 21
682.661252
 31
0.0
  0
LINE
  5
778
100
AcDbEntity
  8
止水栓
  6
CONTINUOUS
 62
     6
100
AcDbLine
 10
1335.0
 20
682.661252
 30
0.0
 11
1335.0
 21
674.914749
 31
0.0
  0
ARC
  5
779
100
AcDbEntity
  8
止水栓
  6
CONTINUOUS
 62
     6
100
AcDbCircle
 10
1339.498827
 20
677.096619
 30
0.0
 40
5.0
100
AcDbArc
 50
205.872755
 51
262.555023
  0
LINE
  5
77A
100
AcDbEntity
  8
止水栓
  6
CONTINUOUS
 62
     6
100
AcDbLine
 10
1340.873911
 20
672.138767
 30
0.0
 11
1343.00004
 21
670.911243
 31
0.0
  0
LINE
  5
77B
100
AcDbEntity
  8
止水栓
  6
CONTINUOUS
 62
     6
100
AcDbLine
 10
1311.0
 20
646.051217
 30
0.0
 11
1311.0
 21
682.661252
 31
0.0
  0
ARC
  5
77C
100
AcDbEntity
  8
止水栓
  6
CONTINUOUS
 62
     6
100
AcDbCircle
 10
1340.0
 20
646.183762
 30
0.0
 40
5.0
100
AcDbArc
 50
90.0
 51
180.0
  0
LINE
  5
77D
100
AcDbEntity
  8
止水栓
  6
CONTINUOUS
 62
     6
100
AcDbLine
 10
1335.0
 20
646.1718
 30
0.0
 11
1335.0
 21
646.051217
 31
0.0
  0
LINE
  5
77E
100
AcDbEntity
  8
止水栓
  6
CONTINUOUS
 62
     6
100
AcDbLine
 10
1336.5
 20
623.984784
 30
0.0
 11
1309.5
 21
623.984784
 31
0.0
  0
LINE
  5
77F
100
AcDbEntity
  8
止水栓
  6
CONTINUOUS
 62
     6
100
AcDbLine
 10
1333.3
 20
607.984784
 30
0.0
 11
1333.3
 21
602.304784
 31
0.0
  0
LINE
  5
780
100
AcDbEntity
  8
止水栓
  6
CONTINUOUS
 62
     6
100
AcDbLine
 10
1332.070516
 20
600.1453
 30
0.0
 11
1332.3155
 21
607.984784
 31
0.0
  0
LINE
  5
781
100
AcDbEntity
  8
止水栓
  6
CONTINUOUS
 62
     6
100
AcDbLine
 10
1333.269375
 20
601.324784
 30
0.0
 11
1312.730625
 21
601.324784
 31
0.0
  0
LINE
  5
782
100
AcDbEntity
  8
止水栓
  6
CONTINUOUS
 62
     6
100
AcDbLine
 10
1333.3
 20
602.304784
 30
0.0
 11
1333.269375
 21
601.324784
 31
0.0
  0
LINE
  5
783
100
AcDbEntity
  8
止水栓
  6
CONTINUOUS
 62
     6
100
AcDbLine
 10
1333.268375
 20
601.323784
 30
0.0
 11
1331.769375
 21
599.824784
 31
0.0
  0
LINE
  5
784
100
AcDbEntity
  8
止水栓
  6
CONTINUOUS
 62
     6
100
AcDbLine
 10
1331.769375
 20
599.824784
 30
0.0
 11
1314.230625
 21
599.824784
 31
0.0
  0
LINE
  5
785
100
AcDbEntity
  8
止水栓
  6
CONTINUOUS
 62
     6
100
AcDbLine
 10
1313.929484
 20
600.1453
 30
0.0
 11
1313.6845
 21
607.984784
 31
0.0
  0
LINE
  5
786
100
AcDbEntity
  8
止水栓
  6
CONTINUOUS
 62
     6
100
AcDbLine
 10
1312.731625
 20
601.323784
 30
0.0
 11
1314.230625
 21
599.824784
 31
0.0
  0
LINE
  5
787
100
AcDbEntity
  8
止水栓
  6
CONTINUOUS
 62
     6
100
AcDbLine
 10
1312.7
 20
607.984784
 30
0.0
 11
1312.7
 21
602.304784
 31
0.0
  0
LINE
  5
788
100
AcDbEntity
  8
止水栓
  6
CONTINUOUS
 62
     6
100
AcDbLine
 10
1312.7
 20
602.304784
 30
0.0
 11
1312.730625
 21
601.324784
 31
0.0
  0
LINE
  5
789
100
AcDbEntity
  8
止水栓
  6
CONTINUOUS
 62
     6
100
AcDbLine
 10
1312.730078
 20
630.647985
 30
0.0
 11
1312.730078
 21
623.984784
 31
0.0
  0
LINE
  5
78A
100
AcDbEntity
  8
止水栓
  6
CONTINUOUS
 62
     6
100
AcDbLine
 10
1312.730078
 20
630.647985
 30
0.0
 11
1313.784246
 21
632.455307
 31
0.0
  0
LINE
  5
78B
100
AcDbEntity
  8
止水栓
  6
CONTINUOUS
 62
     6
100
AcDbLine
 10
1313.820118
 20
633.662029
 30
0.0
 11
1313.784246
 21
632.455307
 31
0.0
  0
LINE
  5
78C
100
AcDbEntity
  8
止水栓
  6
CONTINUOUS
 62
     6
100
AcDbLine
 10
1312.819676
 20
633.662029
 30
0.0
 11
1312.730078
 21
630.647985
 31
0.0
  0
LINE
  5
78D
100
AcDbEntity
  8
止水栓
  6
CONTINUOUS
 62
     6
100
AcDbLine
 10
1333.230078
 20
630.647985
 30
0.0
 11
1333.230078
 21
623.984784
 31
0.0
  0
LINE
  5
78E
100
AcDbEntity
  8
止水栓
  6
CONTINUOUS
 62
     6
100
AcDbLine
 10
1333.230078
 20
630.647985
 30
0.0
 11
1332.17591
 21
632.455307
 31
0.0
  0
LINE
  5
78F
100
AcDbEntity
  8
止水栓
  6
CONTINUOUS
 62
     6
100
AcDbLine
 10
1332.140037
 20
633.662029
 30
0.0
 11
1332.17591
 21
632.455307
 31
0.0
  0
LINE
  5
790
100
AcDbEntity
  8
止水栓
  6
CONTINUOUS
 62
     6
100
AcDbLine
 10
1333.140479
 20
633.662029
 30
0.0
 11
1333.230078
 21
630.647985
 31
0.0
  0
LINE
  5
791
100
AcDbEntity
  8
止水栓
  6
CONTINUOUS
 62
     6
100
AcDbLine
 10
1333.176351
 20
632.455307
 30
0.0
 11
1312.783804
 21
632.455307
 31
0.0
  0
LINE
  5
792
100
AcDbEntity
  8
止水栓
  6
CONTINUOUS
 62
     6
100
AcDbLine
 10
1310.75
 20
633.658829
 30
0.0
 11
1335.25
 21
633.658829
 31
0.0
  0
LINE
  5
793
100
AcDbEntity
  8
止水栓
  6
CONTINUOUS
 62
     6
100
AcDbLine
 10
1310.25
 20
643.020128
 30
0.0
 11
1310.25
 21
633.947504
 31
0.0
  0
LINE
  5
794
100
AcDbEntity
  8
止水栓
  6
CONTINUOUS
 62
     6
100
AcDbLine
 10
1335.75
 20
643.020128
 30
0.0
 11
1335.75
 21
633.947504
 31
0.0
  0
LINE
  5
795
100
AcDbEntity
  8
止水栓
  6
CONTINUOUS
 62
     6
100
AcDbLine
 10
1335.25
 20
633.658829
 30
0.0
 11
1335.75
 21
633.947504
 31
0.0
  0
LINE
  5
796
100
AcDbEntity
  8
止水栓
  6
CONTINUOUS
 62
     6
100
AcDbLine
 10
1310.75
 20
633.658829
 30
0.0
 11
1310.25
 21
633.947504
 31
0.0
  0
ARC
  5
797
100
AcDbEntity
  8
止水栓
  6
CONTINUOUS
 62
     6
100
AcDbCircle
 10
1316.625
 20
632.837175
 30
0.0
 40
10.182953
100
AcDbArc
 50
51.240977
 51
128.759023
  0
ARC
  5
798
100
AcDbEntity
  8
止水栓
  6
CONTINUOUS
 62
     6
100
AcDbCircle
 10
1329.375
 20
632.837175
 30
0.0
 40
10.182953
100
AcDbArc
 50
51.240977
 51
128.759023
  0
ARC
  5
799
100
AcDbEntity
  8
止水栓
  6
CONTINUOUS
 62
     6
100
AcDbCircle
 10
1316.625
 20
652.559556
 30
0.0
 40
18.612052
100
AcDbArc
 50
249.969519
 51
290.030481
  0
ARC
  5
79A
100
AcDbEntity
  8
止水栓
  6
CONTINUOUS
 62
     6
100
AcDbCircle
 10
1329.375
 20
652.559556
 30
0.0
 40
18.612052
100
AcDbArc
 50
249.969519
 51
290.030481
  0
ARC
  5
79B
100
AcDbEntity
  8
止水栓
  6
CONTINUOUS
 62
     6
100
AcDbCircle
 10
1341.5
 20
646.051217
 30
0.0
 40
6.5
100
AcDbArc
 50
180.0
 51
207.795772
  0
ARC
  5
79C
100
AcDbEntity
  8
止水栓
  6
CONTINUOUS
 62
     6
100
AcDbCircle
 10
1304.5
 20
646.051217
 30
0.0
 40
6.5
100
AcDbArc
 50
332.204228
 51
0.0
  0
LINE
  5
79D
100
AcDbEntity
  8
止水栓
  6
CONTINUOUS
 62
     6
100
AcDbLine
 10
1340.873909
 20
651.183762
 30
0.0
 11
1343.000038
 21
652.411286
 31
0.0
  0
LINE
  5
79E
100
AcDbEntity
  8
止水栓
  6
CONTINUOUS
 62
     6
100
AcDbLine
 10
1343.00004
 20
672.138751
 30
0.0
 11
1343.00004
 21
651.183762
 31
0.0
  0
ARC
  5
79F
100
AcDbEntity
  8
止水栓
  6
CONTINUOUS
 62
     6
100
AcDbCircle
 10
1309.5
 20
609.984784
 30
0.0
 40
14.0
100
AcDbArc
 50
90.0
 51
180.0
  0
LINE
  5
7A0
100
AcDbEntity
  8
止水栓
  6
CONTINUOUS
 62
     6
100
AcDbLine
 10
1295.5
 20
607.984784
 30
0.0
 11
1295.5
 21
609.984784
 31
0.0
  0
LINE
  5
7A1
100
AcDbEntity
  8
止水栓
  6
CONTINUOUS
 62
     6
100
AcDbLine
 10
1295.519922
 20
610.503105
 30
0.0
 11
1295.519922
 21
608.0
 31
0.0
  0
LINE
  5
7A2
100
AcDbEntity
  8
止水栓
  6
CONTINUOUS
 62
     6
100
AcDbLine
 10
1350.5
 20
607.984784
 30
0.0
 11
1350.5
 21
609.984784
 31
0.0
  0
ARC
  5
7A3
100
AcDbEntity
  8
止水栓
  6
CONTINUOUS
 62
     6
100
AcDbCircle
 10
1336.5
 20
609.984784
 30
0.0
 40
14.0
100
AcDbArc
 50
0.0
 51
90.0
  0
LINE
  5
7A4
100
AcDbEntity
  8
止水栓
  6
CONTINUOUS
 62
     6
100
AcDbLine
 10
1313.78055
 20
908.998765
 30
0.0
 11
1332.21945
 21
908.998765
 31
0.0
  0
LINE
  5
7A5
100
AcDbEntity
  8
止水栓
  6
CONTINUOUS
 62
     6
100
AcDbLine
 10
1332.219185
 20
906.999253
 30
0.0
 11
1313.780815
 21
906.999253
 31
0.0
  0
ARC
  5
7A6
100
AcDbEntity
  8
止水栓
  6
CONTINUOUS
 62
     6
100
AcDbCircle
 10
1267.0225
 20
894.856049
 30
0.0
 40
45.5
100
AcDbArc
 50
0.0
 51
13.214335
  0
ARC
  5
7A7
100
AcDbEntity
  8
止水栓
  6
CONTINUOUS
 62
     6
100
AcDbCircle
 10
1378.9775
 20
894.856049
 30
0.0
 40
45.5
100
AcDbArc
 50
166.785665
 51
180.0
  0
CIRCLE
  5
7A8
100
AcDbEntity
  8
止水栓
  6
CONTINUOUS
 62
     6
100
AcDbCircle
 10
1323.0
 20
908.00023
 30
0.0
 40
9.273367
  0
CIRCLE
  5
7A9
100
AcDbEntity
  8
止水栓
  6
CONTINUOUS
 62
     6
100
AcDbCircle
 10
1323.0
 20
908.00023
 30
0.0
 40
9.959438
  0
CIRCLE
  5
7AA
100
AcDbEntity
  8
止水栓
  6
CONTINUOUS
 62
     6
100
AcDbCircle
 10
1323.0
 20
908.00023
 30
0.0
 40
12.0
  0
LINE
  5
7AB
100
AcDbEntity
  8
止水栓
  6
CONTINUOUS
 62
     6
100
AcDbLine
 10
441.749996
 20
599.699229
 30
0.0
 11
443.288082
 21
601.239756
 31
0.0
  0
LINE
  5
7AC
100
AcDbEntity
  8
止水栓
  6
CONTINUOUS
 62
     6
100
AcDbLine
 10
442.313961
 20
608.00001
 30
0.0
 11
442.064938
 21
600.01417
 31
0.0
  0
LINE
  5
7AD
100
AcDbEntity
  8
止水栓
  6
CONTINUOUS
 62
     6
100
AcDbLine
 10
443.498043
 20
608.00001
 30
0.0
 11
443.288082
 21
601.239756
 31
0.0
  0
LINE
  5
7AE
100
AcDbEntity
  8
止水栓
  6
CONTINUOUS
 62
     6
100
AcDbLine
 10
422.499508
 20
608.00001
 30
0.0
 11
422.709469
 21
601.237315
 31
0.0
  0
LINE
  5
7AF
100
AcDbEntity
  8
止水栓
  6
CONTINUOUS
 62
     6
100
AcDbLine
 10
423.68359
 20
608.00001
 30
0.0
 11
423.935055
 21
600.01417
 31
0.0
  0
LINE
  5
7B0
100
AcDbEntity
  8
止水栓
  6
CONTINUOUS
 62
     6
100
AcDbLine
 10
443.288082
 20
601.239756
 30
0.0
 11
422.709469
 21
601.237315
 31
0.0
  0
LINE
  5
7B1
100
AcDbEntity
  8
止水栓
  6
CONTINUOUS
 62
     6
100
AcDbLine
 10
424.249996
 20
599.699229
 30
0.0
 11
441.749996
 21
599.699229
 31
0.0
  0
LINE
  5
7B2
100
AcDbEntity
  8
止水栓
  6
CONTINUOUS
 62
     6
100
AcDbLine
 10
422.709469
 20
601.237315
 30
0.0
 11
424.250625
 21
599.699229
 31
0.0
  0
ARC
  5
7B3
100
AcDbEntity
  8
止水栓
  6
CONTINUOUS
 62
     6
100
AcDbCircle
 10
423.356442
 20
598.700694
 30
0.0
 40
25.30016
100
AcDbArc
 50
90.0
 51
113.202393
  0
ARC
  5
7B4
100
AcDbEntity
  8
止水栓
  6
CONTINUOUS
 62
     6
100
AcDbCircle
 10
442.64111
 20
598.700694
 30
0.0
 40
25.298605
100
AcDbArc
 50
66.794876
 51
90.0
  0
ARC
  5
7B5
100
AcDbEntity
  8
止水栓
  6
CONTINUOUS
 62
     6
100
AcDbCircle
 10
447.499508
 20
609.999522
 30
0.0
 40
13.000488
100
AcDbArc
 50
0.000031
 51
66.852539
  0
LINE
  5
7B6
100
AcDbEntity
  8
止水栓
  6
CONTINUOUS
 62
     6
100
AcDbLine
 10
460.499996
 20
609.999522
 30
0.0
 11
460.499996
 21
608.00001
 31
0.0
  0
LINE
  5
7B7
100
AcDbEntity
  8
止水栓
  6
CONTINUOUS
 62
     6
100
AcDbLine
 10
405.499996
 20
609.999522
 30
0.0
 11
405.499996
 21
608.00001
 31
0.0
  0
ARC
  5
7B8
100
AcDbEntity
  8
止水栓
  6
CONTINUOUS
 62
     6
100
AcDbCircle
 10
418.498043
 20
609.999522
 30
0.0
 40
12.999535
100
AcDbArc
 50
113.146301
 51
180.866833
  0
ARC
  5
7B9
100
AcDbEntity
  8
止水栓
  6
CONTINUOUS
 62
     6
100
AcDbCircle
 10
418.498043
 20
609.999522
 30
0.0
 40
12.999535
100
AcDbArc
 50
188.848054
 51
188.848084
  0
LINE
  5
7BA
100
AcDbEntity
  8
止水栓
  6
CONTINUOUS
 62
     6
100
AcDbLine
 10
422.82363
 20
632.455298
 30
0.0
 11
443.216177
 21
632.455298
 31
0.0
  0
LINE
  5
7BB
100
AcDbEntity
  8
止水栓
  6
CONTINUOUS
 62
     6
100
AcDbLine
 10
445.999981
 20
633.662019
 30
0.0
 11
419.999981
 21
633.662019
 31
0.0
  0
ARC
  5
7BC
100
AcDbEntity
  8
止水栓
  6
CONTINUOUS
 62
     6
100
AcDbCircle
 10
432.999981
 20
617.586454
 30
0.0
 40
25.78689
100
AcDbArc
 50
73.078523
 51
106.828962
  0
LINE
  5
7BD
100
AcDbEntity
  8
止水栓
  6
CONTINUOUS
 62
     6
100
AcDbLine
 10
425.534272
 20
634.778474
 30
0.0
 11
425.534272
 21
642.256889
 31
0.0
  0
ARC
  5
7BE
100
AcDbEntity
  8
止水栓
  6
CONTINUOUS
 62
     6
100
AcDbCircle
 10
432.999981
 20
659.44891
 30
0.0
 40
25.78689
100
AcDbArc
 50
253.141624
 51
286.921477
  0
LINE
  5
7BF
100
AcDbEntity
  8
止水栓
  6
CONTINUOUS
 62
     6
100
AcDbLine
 10
422.859502
 20
633.662019
 30
0.0
 11
422.769903
 21
630.647975
 31
0.0
  0
LINE
  5
7C0
100
AcDbEntity
  8
止水栓
  6
CONTINUOUS
 62
     6
100
AcDbLine
 10
423.859944
 20
633.662019
 30
0.0
 11
423.824071
 21
632.455298
 31
0.0
  0
LINE
  5
7C1
100
AcDbEntity
  8
止水栓
  6
CONTINUOUS
 62
     6
100
AcDbLine
 10
422.769903
 20
630.647975
 30
0.0
 11
423.824071
 21
632.455298
 31
0.0
  0
ARC
  5
7C2
100
AcDbEntity
  8
止水栓
  6
CONTINUOUS
 62
     6
100
AcDbCircle
 10
421.781521
 20
640.527257
 30
0.0
 40
6.865249
100
AcDbArc
 50
246.844796
 51
303.136123
  0
ARC
  5
7C3
100
AcDbEntity
  8
止水栓
  6
CONTINUOUS
 62
     6
100
AcDbCircle
 10
421.781521
 20
636.508106
 30
0.0
 40
6.865249
100
AcDbArc
 50
56.863877
 51
123.136123
  0
LINE
  5
7C4
100
AcDbEntity
  8
止水栓
  6
CONTINUOUS
 62
     6
100
AcDbLine
 10
440.505535
 20
634.778474
 30
0.0
 11
440.505535
 21
642.256889
 31
0.0
  0
ARC
  5
7C5
100
AcDbEntity
  8
止水栓
  6
CONTINUOUS
 62
     6
100
AcDbCircle
 10
444.258286
 20
640.527257
 30
0.0
 40
6.865249
100
AcDbArc
 50
236.863877
 51
293.155204
  0
LINE
  5
7C6
100
AcDbEntity
  8
止水栓
  6
CONTINUOUS
 62
     6
100
AcDbLine
 10
443.180305
 20
633.662019
 30
0.0
 11
443.269903
 21
630.647975
 31
0.0
  0
LINE
  5
7C7
100
AcDbEntity
  8
止水栓
  6
CONTINUOUS
 62
     6
100
AcDbLine
 10
417.988924
 20
634.823104
 30
0.0
 11
419.999981
 21
633.662019
 31
0.0
  0
ARC
  5
7C8
100
AcDbEntity
  8
止水栓
  6
CONTINUOUS
 62
     6
100
AcDbCircle
 10
446.999981
 20
645.150024
 30
0.0
 40
2.0
100
AcDbArc
 50
180.0
 51
240.0
  0
ARC
  5
7C9
100
AcDbEntity
  8
止水栓
  6
CONTINUOUS
 62
     6
100
AcDbCircle
 10
418.999981
 20
645.150024
 30
0.0
 40
2.0
100
AcDbArc
 50
300.0
 51
0.0
  0
LINE
  5
7CA
100
AcDbEntity
  8
止水栓
  6
CONTINUOUS
 62
     6
100
AcDbLine
 10
420.999981
 20
646.187019
 30
0.0
 11
420.999981
 21
645.150024
 31
0.0
  0
LINE
  5
7CB
100
AcDbEntity
  8
止水栓
  6
CONTINUOUS
 62
     6
100
AcDbLine
 10
417.988924
 20
642.256889
 30
0.0
 11
419.999981
 21
643.417974
 31
0.0
  0
LINE
  5
7CC
100
AcDbEntity
  8
止水栓
  6
CONTINUOUS
 62
     6
100
AcDbLine
 10
417.988924
 20
634.823104
 30
0.0
 11
417.988924
 21
642.256889
 31
0.0
  0
LINE
  5
7CD
100
AcDbEntity
  8
止水栓
  6
CONTINUOUS
 62
     6
100
AcDbLine
 10
442.179863
 20
633.662019
 30
0.0
 11
442.215735
 21
632.455298
 31
0.0
  0
LINE
  5
7CE
100
AcDbEntity
  8
止水栓
  6
CONTINUOUS
 62
     6
100
AcDbLine
 10
443.269903
 20
630.647975
 30
0.0
 11
442.215735
 21
632.455298
 31
0.0
  0
LINE
  5
7CF
100
AcDbEntity
  8
止水栓
  6
CONTINUOUS
 62
     6
100
AcDbLine
 10
422.769903
 20
630.647975
 30
0.0
 11
422.769903
 21
623.984775
 31
0.0
  0
LINE
  5
7D0
100
AcDbEntity
  8
止水栓
  6
CONTINUOUS
 62
     6
100
AcDbLine
 10
443.269903
 20
630.647975
 30
0.0
 11
443.269903
 21
623.984775
 31
0.0
  0
ARC
  5
7D1
100
AcDbEntity
  8
止水栓
  6
CONTINUOUS
 62
     6
100
AcDbCircle
 10
444.258286
 20
636.508106
 30
0.0
 40
6.865249
100
AcDbArc
 50
56.863877
 51
123.136123
  0
LINE
  5
7D2
100
AcDbEntity
  8
止水栓
  6
CONTINUOUS
 62
     6
100
AcDbLine
 10
448.011038
 20
642.256889
 30
0.0
 11
445.999981
 21
643.417974
 31
0.0
  0
LINE
  5
7D3
100
AcDbEntity
  8
止水栓
  6
CONTINUOUS
 62
     6
100
AcDbLine
 10
448.011038
 20
634.823104
 30
0.0
 11
445.999981
 21
633.662019
 31
0.0
  0
LINE
  5
7D4
100
AcDbEntity
  8
止水栓
  6
CONTINUOUS
 62
     6
100
AcDbLine
 10
448.011038
 20
634.823104
 30
0.0
 11
448.011038
 21
642.256889
 31
0.0
  0
LINE
  5
7D5
100
AcDbEntity
  8
止水栓
  6
CONTINUOUS
 62
     6
100
AcDbLine
 10
423.356442
 20
624.000987
 30
0.0
 11
442.64111
 21
624.000987
 31
0.0
  0
LINE
  5
7D6
100
AcDbEntity
  8
止水栓
  6
CONTINUOUS
 62
     6
100
AcDbLine
 10
420.999981
 20
682.661256
 30
0.0
 11
420.999981
 21
646.187019
 31
0.0
  0
LINE
  5
7D7
100
AcDbEntity
  8
止水栓
  6
CONTINUOUS
 62
     6
100
AcDbLine
 10
444.999981
 20
682.661256
 30
0.0
 11
444.999981
 21
645.150024
 31
0.0
  0
LINE
  5
7D8
100
AcDbEntity
  8
止水栓
  6
CONTINUOUS
 62
     6
100
AcDbLine
 10
433.899981
 20
683.361256
 30
0.0
 11
441.999981
 21
683.361256
 31
0.0
  0
LINE
  5
7D9
100
AcDbEntity
  8
止水栓
  6
CONTINUOUS
 62
     6
100
AcDbLine
 10
432.099981
 20
683.361256
 30
0.0
 11
423.999981
 21
683.361256
 31
0.0
  0
LINE
  5
7DA
100
AcDbEntity
  8
止水栓
  6
CONTINUOUS
 62
     6
100
AcDbLine
 10
432.099981
 20
683.361256
 30
0.0
 11
432.099981
 21
682.661256
 31
0.0
  0
LINE
  5
7DB
100
AcDbEntity
  8
止水栓
  6
CONTINUOUS
 62
     6
100
AcDbLine
 10
433.899981
 20
683.361256
 30
0.0
 11
433.899981
 21
682.661256
 31
0.0
  0
LINE
  5
7DC
100
AcDbEntity
  8
止水栓
  6
CONTINUOUS
 62
     6
100
AcDbLine
 10
423.999981
 20
683.361256
 30
0.0
 11
423.999981
 21
682.661256
 31
0.0
  0
LINE
  5
7DD
100
AcDbEntity
  8
止水栓
  6
CONTINUOUS
 62
     6
100
AcDbLine
 10
441.999981
 20
683.361256
 30
0.0
 11
441.999981
 21
682.661256
 31
0.0
  0
LINE
  5
7DE
100
AcDbEntity
  8
止水栓
  6
CONTINUOUS
 62
     6
100
AcDbLine
 10
420.999981
 20
682.661256
 30
0.0
 11
444.999981
 21
682.661256
 31
0.0
  0
LINE
  5
7DF
100
AcDbEntity
  8
止水栓
  6
CONTINUOUS
 62
     6
100
AcDbLine
 10
426.5
 20
724.616126
 30
0.0
 11
426.5
 21
683.361256
 31
0.0
  0
LINE
  5
7E0
100
AcDbEntity
  8
止水栓
  6
CONTINUOUS
 62
     6
100
AcDbLine
 10
439.5
 20
724.977226
 30
0.0
 11
439.5
 21
683.361256
 31
0.0
  0
LINE
  5
7E1
100
AcDbEntity
  8
止水栓
  6
EXLTYPE3
 62
     6
100
AcDbLine
 10
432.999996
 20
696.7
 30
0.0
 11
432.999996
 21
583.0
 31
0.0
  0
LINE
  5
7E2
100
AcDbEntity
  8
止水栓
  6
EXLTYPE2
 62
     6
100
AcDbLine
 10
397.15153
 20
887.001137
 30
0.0
 11
376.19654
 21
887.001137
 31
0.0
  0
LINE
  5
7E3
100
AcDbEntity
  8
止水栓
  6
EXLTYPE2
 62
     6
100
AcDbLine
 10
408.361253
 20
908.900004
 30
0.0
 11
408.361253
 21
917.000004
 31
0.0
  0
LINE
  5
7E4
100
AcDbEntity
  8
止水栓
  6
EXLTYPE2
 62
     6
100
AcDbLine
 10
408.361253
 20
907.100004
 30
0.0
 11
408.361253
 21
899.000004
 31
0.0
  0
LINE
  5
7E5
100
AcDbEntity
  8
止水栓
  6
EXLTYPE2
 62
     6
100
AcDbLine
 10
408.361253
 20
907.100004
 30
0.0
 11
407.661253
 21
907.100004
 31
0.0
  0
LINE
  5
7E6
100
AcDbEntity
  8
止水栓
  6
EXLTYPE2
 62
     6
100
AcDbLine
 10
408.361253
 20
908.900004
 30
0.0
 11
407.661253
 21
908.900004
 31
0.0
  0
LINE
  5
7E7
100
AcDbEntity
  8
止水栓
  6
EXLTYPE2
 62
     6
100
AcDbLine
 10
408.361253
 20
899.000004
 30
0.0
 11
407.661253
 21
899.000004
 31
0.0
  0
LINE
  5
7E8
100
AcDbEntity
  8
止水栓
  6
EXLTYPE2
 62
     6
100
AcDbLine
 10
408.361253
 20
917.000004
 30
0.0
 11
407.661253
 21
917.000004
 31
0.0
  0
LINE
  5
7E9
100
AcDbEntity
  8
止水栓
  6
EXLTYPE2
 62
     6
100
AcDbLine
 10
407.661253
 20
896.000004
 30
0.0
 11
407.661253
 21
920.000004
 31
0.0
  0
LINE
  5
7EA
100
AcDbEntity
  8
止水栓
  6
EXLTYPE2
 62
     6
100
AcDbLine
 10
407.661253
 20
896.000004
 30
0.0
 11
399.91475
 21
896.000004
 31
0.0
  0
LINE
  5
7EB
100
AcDbEntity
  8
止水栓
  6
EXLTYPE2
 62
     6
100
AcDbLine
 10
371.051217
 20
920.000004
 30
0.0
 11
407.661253
 21
920.000004
 31
0.0
  0
LINE
  5
7EC
100
AcDbEntity
  8
止水栓
  6
EXLTYPE2
 62
     6
100
AcDbLine
 10
371.171801
 20
896.000004
 30
0.0
 11
371.051217
 21
896.000004
 31
0.0
  0
LINE
  5
7ED
100
AcDbEntity
  8
止水栓
  6
EXLTYPE2
 62
     6
100
AcDbLine
 10
355.647985
 20
918.269926
 30
0.0
 11
357.455308
 21
917.215758
 31
0.0
  0
LINE
  5
7EE
100
AcDbEntity
  8
止水栓
  6
EXLTYPE2
 62
     6
100
AcDbLine
 10
358.662029
 20
917.179886
 30
0.0
 11
357.455308
 21
917.215758
 31
0.0
  0
LINE
  5
7EF
100
AcDbEntity
  8
止水栓
  6
EXLTYPE2
 62
     6
100
AcDbLine
 10
358.662029
 20
918.180327
 30
0.0
 11
355.647985
 21
918.269926
 31
0.0
  0
LINE
  5
7F0
100
AcDbEntity
  8
止水栓
  6
EXLTYPE2
 62
     6
100
AcDbLine
 10
355.647985
 20
897.769926
 30
0.0
 11
357.455308
 21
898.824094
 31
0.0
  0
LINE
  5
7F1
100
AcDbEntity
  8
止水栓
  6
EXLTYPE2
 62
     6
100
AcDbLine
 10
358.662029
 20
898.859966
 30
0.0
 11
357.455308
 21
898.824094
 31
0.0
  0
LINE
  5
7F2
100
AcDbEntity
  8
止水栓
  6
EXLTYPE2
 62
     6
100
AcDbLine
 10
358.662029
 20
897.859524
 30
0.0
 11
355.647985
 21
897.769926
 31
0.0
  0
LINE
  5
7F3
100
AcDbEntity
  8
止水栓
  6
EXLTYPE2
 62
     6
100
AcDbLine
 10
357.455308
 20
897.823652
 30
0.0
 11
357.455308
 21
918.2162
 31
0.0
  0
LINE
  5
7F4
100
AcDbEntity
  8
止水栓
  6
EXLTYPE2
 62
     6
100
AcDbLine
 10
358.658829
 20
920.250004
 30
0.0
 11
358.658829
 21
895.750004
 31
0.0
  0
LINE
  5
7F5
100
AcDbEntity
  8
止水栓
  6
EXLTYPE2
 62
     6
100
AcDbLine
 10
368.020128
 20
920.750004
 30
0.0
 11
358.947504
 21
920.750004
 31
0.0
  0
LINE
  5
7F6
100
AcDbEntity
  8
止水栓
  6
EXLTYPE2
 62
     6
100
AcDbLine
 10
368.020128
 20
895.250004
 30
0.0
 11
358.947504
 21
895.250004
 31
0.0
  0
LINE
  5
7F7
100
AcDbEntity
  8
止水栓
  6
EXLTYPE2
 62
     6
100
AcDbLine
 10
358.658829
 20
895.750004
 30
0.0
 11
358.947504
 21
895.250004
 31
0.0
  0
LINE
  5
7F8
100
AcDbEntity
  8
止水栓
  6
EXLTYPE2
 62
     6
100
AcDbLine
 10
358.658829
 20
920.250004
 30
0.0
 11
358.947504
 21
920.750004
 31
0.0
  0
ARC
  5
7F9
100
AcDbEntity
  8
止水栓
  6
EXLTYPE2
 62
     6
100
AcDbCircle
 10
357.837175
 20
914.375004
 30
0.0
 40
10.182953
100
AcDbArc
 50
321.240977
 51
38.759023
  0
ARC
  5
7FA
100
AcDbEntity
  8
止水栓
  6
EXLTYPE2
 62
     6
100
AcDbCircle
 10
357.837175
 20
901.625004
 30
0.0
 40
10.182953
100
AcDbArc
 50
321.240977
 51
38.759023
  0
ARC
  5
7FB
100
AcDbEntity
  8
止水栓
  6
EXLTYPE2
 62
     6
100
AcDbCircle
 10
377.559556
 20
914.375004
 30
0.0
 40
18.612052
100
AcDbArc
 50
159.969519
 51
200.030481
  0
ARC
  5
7FC
100
AcDbEntity
  8
止水栓
  6
EXLTYPE2
 62
     6
100
AcDbCircle
 10
377.559556
 20
901.625004
 30
0.0
 40
18.612052
100
AcDbArc
 50
159.969519
 51
200.030481
  0
ARC
  5
7FD
100
AcDbEntity
  8
止水栓
  6
EXLTYPE2
 62
     6
100
AcDbCircle
 10
371.051217
 20
889.500004
 30
0.0
 40
6.5
100
AcDbArc
 50
90.0
 51
117.795772
  0
ARC
  5
7FE
100
AcDbEntity
  8
止水栓
  6
EXLTYPE2
 62
     6
100
AcDbCircle
 10
371.051217
 20
926.500004
 30
0.0
 40
6.5
100
AcDbArc
 50
242.204228
 51
270.0
  0
LINE
  5
7FF
100
AcDbEntity
  8
止水栓
  6
EXLTYPE2
 62
     6
100
AcDbLine
 10
355.66
 20
918.269926
 30
0.0
 11
348.9968
 21
918.269926
 31
0.0
  0
LINE
  5
800
100
AcDbEntity
  8
止水栓
  6
EXLTYPE2
 62
     6
100
AcDbLine
 10
355.66
 20
897.769926
 30
0.0
 11
348.9968
 21
897.769926
 31
0.0
  0
ARC
  5
801
100
AcDbEntity
  8
止水栓
  6
EXLTYPE2
 62
     6
100
AcDbCircle
 10
402.09662
 20
891.501177
 30
0.0
 40
5.0
100
AcDbArc
 50
115.872755
 51
171.499305
  0
ARC
  5
802
100
AcDbEntity
  8
止水栓
  6
EXLTYPE2
 62
     6
100
AcDbCircle
 10
371.185631
 20
890.989083
 30
0.0
 40
5.010921
100
AcDbArc
 50
0.124869
 51
90.021374
  0
LINE
  5
803
100
AcDbEntity
  8
止水栓
  6
EXLTYPE2
 62
     6
100
AcDbLine
 10
323.294769
 20
916.901903
 30
0.0
 11
333.0
 21
917.19041
 31
0.0
  0
LINE
  5
804
100
AcDbEntity
  8
止水栓
  6
EXLTYPE2
 62
     6
100
AcDbLine
 10
323.294769
 20
899.137949
 30
0.0
 11
333.0
 21
898.849442
 31
0.0
  0
LINE
  5
805
100
AcDbEntity
  8
止水栓
  6
EXLTYPE2
 62
     6
100
AcDbLine
 10
323.886194
 20
917.919926
 30
0.0
 11
333.0
 21
918.190852
 31
0.0
  0
LINE
  5
806
100
AcDbEntity
  8
止水栓
  6
EXLTYPE2
 62
     6
100
AcDbLine
 10
323.886194
 20
898.119926
 30
0.0
 11
333.0
 21
897.849
 31
0.0
  0
LINE
  5
807
100
AcDbEntity
  8
止水栓
  6
EXLTYPE2
 62
     6
100
AcDbLine
 10
323.16
 20
899.369926
 30
0.0
 11
323.886194
 21
898.119926
 31
0.0
  0
LINE
  5
808
100
AcDbEntity
  8
止水栓
  6
EXLTYPE2
 62
     6
100
AcDbLine
 10
323.16
 20
899.369926
 30
0.0
 11
323.16
 21
916.669926
 31
0.0
  0
LINE
  5
809
100
AcDbEntity
  8
止水栓
  6
EXLTYPE2
 62
     6
100
AcDbLine
 10
323.16
 20
916.669926
 30
0.0
 11
323.886194
 21
917.919926
 31
0.0
  0
LINE
  5
80A
100
AcDbEntity
  8
止水栓
  6
EXLTYPE2
 62
     6
100
AcDbLine
 10
323.886194
 20
898.119926
 30
0.0
 11
323.886194
 21
917.919926
 31
0.0
  0
ARC
  5
80B
100
AcDbEntity
  8
止水栓
  6
EXLTYPE2
 62
     6
100
AcDbCircle
 10
335.503105
 20
922.800004
 30
0.0
 40
12.7
100
AcDbArc
 50
31.438859
 51
90.0
  0
LINE
  5
80C
100
AcDbEntity
  8
止水栓
  6
EXLTYPE2
 62
     6
100
AcDbLine
 10
335.503105
 20
935.500004
 30
0.0
 11
333.0
 21
935.500004
 31
0.0
  0
ARC
  5
80D
100
AcDbEntity
  8
止水栓
  6
EXLTYPE2
 62
     6
100
AcDbCircle
 10
324.0
 20
918.200004
 30
0.0
 40
25.0
100
AcDbArc
 50
0.916772
 51
26.677421
  0
LINE
  5
80E
100
AcDbEntity
  8
止水栓
  6
EXLTYPE2
 62
     6
100
AcDbLine
 10
348.9968
 20
897.400004
 30
0.0
 11
348.9968
 21
918.600004
 31
0.0
  0
LINE
  5
80F
100
AcDbEntity
  8
止水栓
  6
EXLTYPE2
 62
     6
100
AcDbLine
 10
397.151546
 20
889.127266
 30
0.0
 11
396.149045
 21
887.001137
 31
0.0
  0
LINE
  5
810
100
AcDbEntity
  8
止水栓
  6
EXLTYPE2
 62
     6
100
AcDbLine
 10
376.196541
 20
889.127268
 30
0.0
 11
377.199045
 21
887.001137
 31
0.0
  0
ARC
  5
811
100
AcDbEntity
  8
止水栓
  6
EXLTYPE2
 62
     6
100
AcDbCircle
 10
335.503105
 20
893.200004
 30
0.0
 40
12.7
100
AcDbArc
 50
270.0
 51
328.561141
  0
POLYLINE
  5
812
100
AcDbEntity
  8
止水栓
  6
EXLTYPE2
 62
     6
100
AcDb2dPolyline
 66
     1
 10
0.0
 20
0.0
 30
0.0
 70
   128
  0
VERTEX
  5
813
100
AcDbEntity
  8
止水栓
  6
EXLTYPE2
 62
     6
100
AcDbVertex
100
AcDb2dVertex
 10
335.503105
 20
880.500004
 30
0.0
  0
VERTEX
  5
814
100
AcDbEntity
  8
止水栓
  6
EXLTYPE2
 62
     6
100
AcDbVertex
100
AcDb2dVertex
 10
333.0
 20
880.500004
 30
0.0
  0
SEQEND
  5
815
100
AcDbEntity
  8
止水栓
  6
EXLTYPE2
 62
     6
  0
LINE
  5
816
100
AcDbEntity
  8
止水栓
  6
EXLTYPE2
 62
     6
100
AcDbLine
 10
377.199045
 20
887.001137
 30
0.0
 11
377.199045
 21
885.519926
 31
0.0
  0
LINE
  5
817
100
AcDbEntity
  8
止水栓
  6
EXLTYPE2
 62
     6
100
AcDbLine
 10
396.149045
 20
887.001137
 30
0.0
 11
396.149045
 21
885.519926
 31
0.0
  0
ARC
  5
818
100
AcDbEntity
  8
止水栓
  6
CONTINUOUS
 62
     6
100
AcDbCircle
 10
433.000944
 20
2137.000004
 30
0.0
 40
27.5
100
AcDbArc
 50
114.79044
 51
157.138008
  0
ARC
  5
819
100
AcDbEntity
  8
止水栓
  6
CONTINUOUS
 62
     6
100
AcDbCircle
 10
433.000944
 20
2137.000004
 30
0.0
 40
27.5
100
AcDbArc
 50
202.861992
 51
64.998019
  0
LINE
  5
81A
100
AcDbEntity
  8
便座
  6
CONTINUOUS
 62
     6
100
AcDbLine
 10
648.49975
 20
882.999314
 30
0.0
 11
657.49975
 21
882.999314
 31
0.0
  0
LINE
  5
81B
100
AcDbEntity
  8
便座
  6
CONTINUOUS
 62
     6
100
AcDbLine
 10
646.99975
 20
886.499314
 30
0.0
 11
648.49975
 21
884.999314
 31
0.0
  0
LINE
  5
81C
100
AcDbEntity
  8
便座
  6
CONTINUOUS
 62
     6
100
AcDbLine
 10
648.49975
 20
882.999314
 30
0.0
 11
648.49975
 21
884.999314
 31
0.0
  0
LINE
  5
81D
100
AcDbEntity
  8
便座
  6
CONTINUOUS
 62
     6
100
AcDbLine
 10
657.49975
 20
882.999314
 30
0.0
 11
657.49975
 21
884.999314
 31
0.0
  0
LINE
  5
81E
100
AcDbEntity
  8
便座
  6
CONTINUOUS
 62
     6
100
AcDbLine
 10
658.99975
 20
886.499314
 30
0.0
 11
657.49975
 21
884.999314
 31
0.0
  0
LINE
  5
81F
100
AcDbEntity
  8
便座
  6
CONTINUOUS
 62
     6
100
AcDbLine
 10
643.040464
 20
891.1
 30
0.0
 11
643.040464
 21
907.6
 31
0.0
  0
LINE
  5
820
100
AcDbEntity
  8
便座
  6
CONTINUOUS
 62
     6
100
AcDbLine
 10
645.607693
 20
891.1
 30
0.0
 11
645.607693
 21
907.6
 31
0.0
  0
LINE
  5
821
100
AcDbEntity
  8
便座
  6
CONTINUOUS
 62
     6
100
AcDbLine
 10
649.24975
 20
906.6
 30
0.0
 11
649.24975
 21
891.1
 31
0.0
  0
LINE
  5
822
100
AcDbEntity
  8
便座
  6
CONTINUOUS
 62
     6
100
AcDbLine
 10
641.49975
 20
907.6
 30
0.0
 11
641.49975
 21
891.1
 31
0.0
  0
LINE
  5
823
100
AcDbEntity
  8
便座
  6
CONTINUOUS
 62
     6
100
AcDbLine
 10
650.49975
 20
890.1
 30
0.0
 11
650.49975
 21
896.1
 31
0.0
  0
LINE
  5
824
100
AcDbEntity
  8
便座
  6
CONTINUOUS
 62
     6
100
AcDbLine
 10
655.49975
 20
890.1
 30
0.0
 11
655.49975
 21
896.1
 31
0.0
  0
LINE
  5
825
100
AcDbEntity
  8
便座
  6
CONTINUOUS
 62
     6
100
AcDbLine
 10
664.49975
 20
907.6
 30
0.0
 11
664.49975
 21
891.1
 31
0.0
  0
LINE
  5
826
100
AcDbEntity
  8
便座
  6
CONTINUOUS
 62
     6
100
AcDbLine
 10
656.74975
 20
906.6
 30
0.0
 11
656.74975
 21
891.1
 31
0.0
  0
LINE
  5
827
100
AcDbEntity
  8
便座
  6
CONTINUOUS
 62
     6
100
AcDbLine
 10
660.391807
 20
891.1
 30
0.0
 11
660.391807
 21
907.6
 31
0.0
  0
LINE
  5
828
100
AcDbEntity
  8
便座
  6
CONTINUOUS
 62
     6
100
AcDbLine
 10
662.959036
 20
891.1
 30
0.0
 11
662.959036
 21
907.6
 31
0.0
  0
LINE
  5
829
100
AcDbEntity
  8
便座
  6
CONTINUOUS
 62
     6
100
AcDbLine
 10
642.49975
 20
890.1
 30
0.0
 11
663.49975
 21
890.1
 31
0.0
  0
LINE
  5
82A
100
AcDbEntity
  8
便座
  6
CONTINUOUS
 62
     6
100
AcDbLine
 10
656.74975
 20
892.1
 30
0.0
 11
664.49975
 21
892.1
 31
0.0
  0
LINE
  5
82B
100
AcDbEntity
  8
便座
  6
CONTINUOUS
 62
     6
100
AcDbLine
 10
656.74975
 20
894.6
 30
0.0
 11
664.49975
 21
894.6
 31
0.0
  0
ARC
  5
82C
100
AcDbEntity
  8
便座
  6
CONTINUOUS
 62
     6
100
AcDbCircle
 10
642.49975
 20
891.1
 30
0.0
 40
1.0
100
AcDbArc
 50
180.0
 51
270.0
  0
ARC
  5
82D
100
AcDbEntity
  8
便座
  6
CONTINUOUS
 62
     6
100
AcDbCircle
 10
650.24975
 20
891.1
 30
0.0
 40
1.0
100
AcDbArc
 50
180.0
 51
270.0
  0
LINE
  5
82E
100
AcDbEntity
  8
便座
  6
CONTINUOUS
 62
     6
100
AcDbLine
 10
649.24975
 20
894.6
 30
0.0
 11
641.49975
 21
894.6
 31
0.0
  0
LINE
  5
82F
100
AcDbEntity
  8
便座
  6
CONTINUOUS
 62
     6
100
AcDbLine
 10
649.24975
 20
892.1
 30
0.0
 11
641.49975
 21
892.1
 31
0.0
  0
ARC
  5
830
100
AcDbEntity
  8
便座
  6
CONTINUOUS
 62
     6
100
AcDbCircle
 10
655.74975
 20
891.1
 30
0.0
 40
1.0
100
AcDbArc
 50
270.0
 51
0.0
  0
ARC
  5
831
100
AcDbEntity
  8
便座
  6
CONTINUOUS
 62
     6
100
AcDbCircle
 10
663.49975
 20
891.1
 30
0.0
 40
1.0
100
AcDbArc
 50
270.0
 51
0.0
  0
ARC
  5
832
100
AcDbEntity
  8
便座
  6
CONTINUOUS
 62
     6
100
AcDbCircle
 10
652.99975
 20
911.6
 30
0.0
 40
12.5
100
AcDbArc
 50
118.685402
 51
180.0
  0
LINE
  5
833
100
AcDbEntity
  8
便座
  6
CONTINUOUS
 62
     6
100
AcDbLine
 10
640.29975
 20
910.6
 30
0.0
 11
665.69975
 21
910.6
 31
0.0
  0
LINE
  5
834
100
AcDbEntity
  8
便座
  6
CONTINUOUS
 62
     6
100
AcDbLine
 10
640.29975
 20
911.6
 30
0.0
 11
665.69975
 21
911.6
 31
0.0
  0
LINE
  5
835
100
AcDbEntity
  8
便座
  6
CONTINUOUS
 62
     6
100
AcDbLine
 10
640.49975
 20
911.6
 30
0.0
 11
665.49975
 21
911.6
 31
0.0
  0
LINE
  5
836
100
AcDbEntity
  8
便座
  6
CONTINUOUS
 62
     6
100
AcDbLine
 10
640.99975
 20
910.6
 30
0.0
 11
664.99975
 21
910.6
 31
0.0
  0
LINE
  5
837
100
AcDbEntity
  8
便座
  6
CONTINUOUS
 62
     6
100
AcDbLine
 10
664.99975
 20
907.6
 30
0.0
 11
657.74975
 21
907.6
 31
0.0
  0
LINE
  5
838
100
AcDbEntity
  8
便座
  6
CONTINUOUS
 62
     6
100
AcDbLine
 10
656.74975
 20
897.1
 30
0.0
 11
664.49975
 21
897.1
 31
0.0
  0
LINE
  5
839
100
AcDbEntity
  8
便座
  6
CONTINUOUS
 62
     6
100
AcDbLine
 10
656.74975
 20
899.6
 30
0.0
 11
664.49975
 21
899.6
 31
0.0
  0
LINE
  5
83A
100
AcDbEntity
  8
便座
  6
CONTINUOUS
 62
     6
100
AcDbLine
 10
656.74975
 20
902.1
 30
0.0
 11
664.49975
 21
902.1
 31
0.0
  0
LINE
  5
83B
100
AcDbEntity
  8
便座
  6
CONTINUOUS
 62
     6
100
AcDbLine
 10
656.74975
 20
904.6
 30
0.0
 11
664.49975
 21
904.6
 31
0.0
  0
LINE
  5
83C
100
AcDbEntity
  8
便座
  6
CONTINUOUS
 62
     6
100
AcDbLine
 10
650.99975
 20
896.6
 30
0.0
 11
654.99975
 21
896.6
 31
0.0
  0
ARC
  5
83D
100
AcDbEntity
  8
便座
  6
CONTINUOUS
 62
     6
100
AcDbCircle
 10
640.99975
 20
908.6
 30
0.0
 40
1.0
100
AcDbArc
 50
180.0
 51
270.0
  0
ARC
  5
83E
100
AcDbEntity
  8
便座
  6
CONTINUOUS
 62
     6
100
AcDbCircle
 10
640.99975
 20
909.6
 30
0.0
 40
1.0
100
AcDbArc
 50
90.0
 51
180.0
  0
ARC
  5
83F
100
AcDbEntity
  8
便座
  6
CONTINUOUS
 62
     6
100
AcDbCircle
 10
648.24975
 20
906.6
 30
0.0
 40
1.0
100
AcDbArc
 50
0.0
 51
90.0
  0
LINE
  5
840
100
AcDbEntity
  8
便座
  6
CONTINUOUS
 62
     6
100
AcDbLine
 10
649.24975
 20
904.6
 30
0.0
 11
641.49975
 21
904.6
 31
0.0
  0
LINE
  5
841
100
AcDbEntity
  8
便座
  6
CONTINUOUS
 62
     6
100
AcDbLine
 10
649.24975
 20
902.1
 30
0.0
 11
641.49975
 21
902.1
 31
0.0
  0
LINE
  5
842
100
AcDbEntity
  8
便座
  6
CONTINUOUS
 62
     6
100
AcDbLine
 10
649.24975
 20
899.6
 30
0.0
 11
641.49975
 21
899.6
 31
0.0
  0
LINE
  5
843
100
AcDbEntity
  8
便座
  6
CONTINUOUS
 62
     6
100
AcDbLine
 10
649.24975
 20
897.1
 30
0.0
 11
641.49975
 21
897.1
 31
0.0
  0
LINE
  5
844
100
AcDbEntity
  8
便座
  6
CONTINUOUS
 62
     6
100
AcDbLine
 10
640.99975
 20
907.6
 30
0.0
 11
648.24975
 21
907.6
 31
0.0
  0
LINE
  5
845
100
AcDbEntity
  8
便座
  6
CONTINUOUS
 62
     6
100
AcDbLine
 10
639.99975
 20
909.6
 30
0.0
 11
639.99975
 21
908.6
 31
0.0
  0
ARC
  5
846
100
AcDbEntity
  8
便座
  6
CONTINUOUS
 62
     6
100
AcDbCircle
 10
650.99975
 20
896.1
 30
0.0
 40
0.5
100
AcDbArc
 50
90.0
 51
180.0
  0
ARC
  5
847
100
AcDbEntity
  8
便座
  6
CONTINUOUS
 62
     6
100
AcDbCircle
 10
640.29975
 20
911.3
 30
0.0
 40
0.3
100
AcDbArc
 50
90.0
 51
180.0
  0
ARC
  5
848
100
AcDbEntity
  8
便座
  6
CONTINUOUS
 62
     6
100
AcDbCircle
 10
640.29975
 20
910.9
 30
0.0
 40
0.3
100
AcDbArc
 50
180.0
 51
270.0
  0
LINE
  5
849
100
AcDbEntity
  8
便座
  6
CONTINUOUS
 62
     6
100
AcDbLine
 10
639.99975
 20
910.9
 30
0.0
 11
639.99975
 21
911.3
 31
0.0
  0
ARC
  5
84A
100
AcDbEntity
  8
便座
  6
CONTINUOUS
 62
     6
100
AcDbCircle
 10
654.99975
 20
896.1
 30
0.0
 40
0.5
100
AcDbArc
 50
0.0
 51
90.0
  0
ARC
  5
84B
100
AcDbEntity
  8
便座
  6
CONTINUOUS
 62
     6
100
AcDbCircle
 10
657.74975
 20
906.6
 30
0.0
 40
1.0
100
AcDbArc
 50
90.0
 51
180.0
  0
LINE
  5
84C
100
AcDbEntity
  8
便座
  6
CONTINUOUS
 62
     6
100
AcDbLine
 10
665.99975
 20
910.9
 30
0.0
 11
665.99975
 21
911.3
 31
0.0
  0
ARC
  5
84D
100
AcDbEntity
  8
便座
  6
CONTINUOUS
 62
     6
100
AcDbCircle
 10
665.69975
 20
910.9
 30
0.0
 40
0.3
100
AcDbArc
 50
270.0
 51
0.0
  0
ARC
  5
84E
100
AcDbEntity
  8
便座
  6
CONTINUOUS
 62
     6
100
AcDbCircle
 10
665.69975
 20
911.3
 30
0.0
 40
0.3
100
AcDbArc
 50
0.0
 51
90.0
  0
LINE
  5
84F
100
AcDbEntity
  8
便座
  6
CONTINUOUS
 62
     6
100
AcDbLine
 10
665.99975
 20
909.6
 30
0.0
 11
665.99975
 21
908.6
 31
0.0
  0
ARC
  5
850
100
AcDbEntity
  8
便座
  6
CONTINUOUS
 62
     6
100
AcDbCircle
 10
664.99975
 20
909.6
 30
0.0
 40
1.0
100
AcDbArc
 50
0.0
 51
90.0
  0
ARC
  5
851
100
AcDbEntity
  8
便座
  6
CONTINUOUS
 62
     6
100
AcDbCircle
 10
664.99975
 20
908.6
 30
0.0
 40
1.0
100
AcDbArc
 50
270.0
 51
0.0
  0
LINE
  5
852
100
AcDbEntity
  8
便座
  6
CONTINUOUS
 62
     6
100
AcDbLine
 10
646.99975
 20
890.1
 30
0.0
 11
646.99975
 21
886.499314
 31
0.0
  0
LINE
  5
853
100
AcDbEntity
  8
便座
  6
CONTINUOUS
 62
     6
100
AcDbLine
 10
658.99975
 20
890.1
 30
0.0
 11
658.99975
 21
886.499314
 31
0.0
  0
ARC
  5
854
100
AcDbEntity
  8
便座
  6
CONTINUOUS
 62
     6
100
AcDbCircle
 10
652.99975
 20
911.6
 30
0.0
 40
12.5
100
AcDbArc
 50
0.0
 51
52.905675
  0
LINE
  5
855
100
AcDbEntity
  8
便座
  6
CONTINUOUS
 62
     6
100
AcDbLine
 10
652.999981
 20
2349.50002
 30
0.0
 11
675.598054
 21
2349.500006
 31
0.0
  0
LINE
  5
856
100
AcDbEntity
  8
便座
  6
CONTINUOUS
 62
     6
100
AcDbLine
 10
672.36731
 20
2384.500021
 30
0.0
 11
653.000005
 21
2384.50002
 31
0.0
  0
LINE
  5
857
100
AcDbEntity
  8
便座
  6
CONTINUOUS
 62
     6
100
AcDbLine
 10
672.36731
 20
2489.499986
 30
0.0
 11
653.000005
 21
2489.499988
 31
0.0
  0
LINE
  5
858
100
AcDbEntity
  8
便座
  6
CONTINUOUS
 62
     6
100
AcDbLine
 10
652.999981
 20
2524.499988
 30
0.0
 11
675.598054
 21
2524.500002
 31
0.0
  0
ARC
  5
859
100
AcDbEntity
  8
便座
  6
CONTINUOUS
 62
     6
100
AcDbCircle
 10
652.999985
 20
2506.998936
 30
0.0
 40
16.0
100
AcDbArc
 50
202.024313
 51
157.975687
  0
ARC
  5
85A
100
AcDbEntity
  8
便座
  6
CONTINUOUS
 62
     6
100
AcDbCircle
 10
652.999985
 20
2367.001072
 30
0.0
 40
16.0
100
AcDbArc
 50
202.024313
 51
157.975687
  0
LINE
  5
85B
100
AcDbEntity
  8
便座
  6
CONTINUOUS
 62
     6
100
AcDbLine
 10
644.0
 20
2500.998936
 30
0.0
 11
634.0
 21
2500.998936
 31
0.0
  0
LINE
  5
85C
100
AcDbEntity
  8
便座
  6
CONTINUOUS
 62
     6
100
AcDbLine
 10
644.0
 20
2373.001072
 30
0.0
 11
634.0
 21
2373.001072
 31
0.0
  0
LINE
  5
85D
100
AcDbEntity
  8
便座
  6
CONTINUOUS
 62
     6
100
AcDbLine
 10
644.0
 20
2361.001072
 30
0.0
 11
634.0
 21
2361.001072
 31
0.0
  0
ARC
  5
85E
100
AcDbEntity
  8
便座
  6
CONTINUOUS
 62
     6
100
AcDbCircle
 10
634.0
 20
2506.998936
 30
0.0
 40
6.0
100
AcDbArc
 50
90.0
 51
270.0
  0
ARC
  5
85F
100
AcDbEntity
  8
便座
  6
CONTINUOUS
 62
     6
100
AcDbCircle
 10
634.0
 20
2367.001072
 30
0.0
 40
6.0
100
AcDbArc
 50
90.0
 51
270.0
  0
ARC
  5
860
100
AcDbEntity
  8
便座
  6
CONTINUOUS
 62
     6
100
AcDbCircle
 10
652.999985
 20
2506.998936
 30
0.0
 40
17.5
100
AcDbArc
 50
89.999939
 51
159.948957
  0
ARC
  5
861
100
AcDbEntity
  8
便座
  6
CONTINUOUS
 62
     6
100
AcDbCircle
 10
652.999985
 20
2506.998936
 30
0.0
 40
17.5
100
AcDbArc
 50
200.051043
 51
270.000076
  0
ARC
  5
862
100
AcDbEntity
  8
便座
  6
CONTINUOUS
 62
     6
100
AcDbCircle
 10
652.999985
 20
2367.001072
 30
0.0
 40
17.5
100
AcDbArc
 50
89.999924
 51
159.948957
  0
ARC
  5
863
100
AcDbEntity
  8
便座
  6
CONTINUOUS
 62
     6
100
AcDbCircle
 10
652.999985
 20
2367.001072
 30
0.0
 40
17.5
100
AcDbArc
 50
200.051043
 51
270.000061
  0
LINE
  5
864
100
AcDbEntity
  8
便座
  6
CONTINUOUS
 62
     6
100
AcDbLine
 10
644.0
 20
2512.998936
 30
0.0
 11
634.0
 21
2512.998936
 31
0.0
  0
ARC
  5
865
100
AcDbEntity
  8
便座
  6
CONTINUOUS
 62
     6
100
AcDbCircle
 10
988.0
 20
2436.999211
 30
0.0
 40
145.0
100
AcDbArc
 50
310.746826
 51
0.000313
  0
ARC
  5
866
100
AcDbEntity
  8
便座
  6
CONTINUOUS
 62
     6
100
AcDbCircle
 10
988.0
 20
2437.000797
 30
0.0
 40
145.0
100
AcDbArc
 50
359.999687
 51
49.253174
  0
ARC
  5
867
100
AcDbEntity
  8
便座
  6
CONTINUOUS
 62
     6
100
AcDbCircle
 10
912.554797
 20
2350.207817
 30
0.0
 40
260.0
100
AcDbArc
 50
49.001046
 51
74.521925
  0
ARC
  5
868
100
AcDbEntity
  8
便座
  6
CONTINUOUS
 62
     6
100
AcDbCircle
 10
715.445445
 20
2561.854668
 30
0.0
 40
40.0
100
AcDbArc
 50
106.511925
 51
176.456611
  0
ARC
  5
869
100
AcDbEntity
  8
便座
  6
CONTINUOUS
 62
     6
100
AcDbCircle
 10
840.5
 20
2734.000004
 30
0.0
 40
480.0
100
AcDbArc
 50
253.488075
 51
270.0
  0
ARC
  5
86A
100
AcDbEntity
  8
便座
  6
CONTINUOUS
 62
     6
100
AcDbCircle
 10
715.445445
 20
2312.145339
 30
0.0
 40
40.0
100
AcDbArc
 50
183.543389
 51
253.488075
  0
ARC
  5
86B
100
AcDbEntity
  8
便座
  6
CONTINUOUS
 62
     6
100
AcDbCircle
 10
840.5
 20
2784.000004
 30
0.0
 40
530.0
100
AcDbArc
 50
270.0
 51
285.478075
  0
ARC
  5
86C
100
AcDbEntity
  8
便座
  6
CONTINUOUS
 62
     6
100
AcDbCircle
 10
912.554797
 20
2523.79219
 30
0.0
 40
260.0
100
AcDbArc
 50
285.478075
 51
310.998954
  0
ARC
  5
86D
100
AcDbEntity
  8
便座
  6
CONTINUOUS
 62
     6
100
AcDbCircle
 10
840.5
 20
2140.000004
 30
0.0
 40
480.0
100
AcDbArc
 50
90.0
 51
106.511925
  0
ARC
  5
86E
100
AcDbEntity
  8
便座
  6
CONTINUOUS
 62
     6
100
AcDbCircle
 10
840.5
 20
2090.000004
 30
0.0
 40
530.0
100
AcDbArc
 50
74.521925
 51
90.0
  0
ARC
  5
86F
100
AcDbEntity
  8
便座
  6
CONTINUOUS
 62
     6
100
AcDbCircle
 10
2571.889601
 20
2427.101525
 30
0.0
 40
1900.0
100
AcDbArc
 50
180.700195
 51
183.535244
  0
ARC
  5
870
100
AcDbEntity
  8
便座
  6
CONTINUOUS
 62
     6
100
AcDbCircle
 10
1671.477953
 20
2437.000004
 30
0.0
 40
1000.0
100
AcDbArc
 50
178.088381
 51
181.911438
  0
ARC
  5
871
100
AcDbEntity
  8
便座
  6
CONTINUOUS
 62
     6
100
AcDbCircle
 10
2571.889601
 20
2446.898483
 30
0.0
 40
1900.0
100
AcDbArc
 50
176.464756
 51
179.299805
  0
LINE
  5
872
100
AcDbEntity
  8
便座
  6
CONTINUOUS
 62
     6
100
AcDbLine
 10
653.0
 20
2483.8
 30
0.0
 11
653.0
 21
2529.89895
 31
0.0
  0
LINE
  5
873
100
AcDbEntity
  8
便座
  6
CONTINUOUS
 62
     6
100
AcDbLine
 10
667.5
 20
979.000004
 30
0.0
 11
667.5
 21
978.000004
 31
0.0
  0
LINE
  5
874
100
AcDbEntity
  8
便座
  6
CONTINUOUS
 62
     6
100
AcDbLine
 10
638.5
 20
979.000004
 30
0.0
 11
638.5
 21
978.000004
 31
0.0
  0
LINE
  5
875
100
AcDbEntity
  8
便座
  6
CONTINUOUS
 62
     6
100
AcDbLine
 10
669.454639
 20
989.000004
 30
0.0
 11
637.0
 21
989.000004
 31
0.0
  0
ARC
  5
876
100
AcDbEntity
  8
便座
  6
CONTINUOUS
 62
     6
100
AcDbCircle
 10
637.0
 20
987.500004
 30
0.0
 40
1.5
100
AcDbArc
 50
90.0
 51
180.0
  0
LINE
  5
877
100
AcDbEntity
  8
便座
  6
CONTINUOUS
 62
     6
100
AcDbLine
 10
635.5
 20
979.000004
 30
0.0
 11
635.5
 21
987.500004
 31
0.0
  0
LINE
  5
878
100
AcDbEntity
  8
便座
  6
CONTINUOUS
 62
     6
100
AcDbLine
 10
692.429432
 20
979.000004
 30
0.0
 11
626.552214
 21
979.000004
 31
0.0
  0
LINE
  5
879
100
AcDbEntity
  8
便座
  6
CONTINUOUS
 62
     6
100
AcDbLine
 10
626.552214
 20
994.000004
 30
0.0
 11
626.552214
 21
979.000004
 31
0.0
  0
LINE
  5
87A
100
AcDbEntity
  8
便座
  6
CONTINUOUS
 62
     6
100
AcDbLine
 10
635.5
 20
994.000004
 30
0.0
 11
645.552214
 21
989.000004
 31
0.0
  0
LINE
  5
87B
100
AcDbEntity
  8
便座
  6
CONTINUOUS
 62
     6
100
AcDbLine
 10
635.5
 20
994.000004
 30
0.0
 11
626.552214
 21
994.000004
 31
0.0
  0
ARC
  5
87C
100
AcDbEntity
  8
便座
  6
CONTINUOUS
 62
     6
100
AcDbCircle
 10
1343.984802
 20
14003.956059
 30
0.0
 40
13000.0
100
AcDbArc
 50
267.439697
 51
268.225281
  0
ARC
  5
87D
100
AcDbEntity
  8
便座
  6
CONTINUOUS
 62
     6
100
AcDbCircle
 10
138.425415
 20
881.219486
 30
0.0
 40
1000.0
100
AcDbArc
 50
5.999908
 51
6.375183
  0
ARC
  5
87E
100
AcDbEntity
  8
便座
  6
CONTINUOUS
 62
     6
100
AcDbCircle
 10
1130.90918
 20
985.245976
 30
0.0
 40
2.0
100
AcDbArc
 50
282.906372
 51
0.007874
  0
LINE
  5
87F
100
AcDbEntity
  8
便座
  6
CONTINUOUS
 62
     6
100
AcDbLine
 10
812.495728
 20
984.487965
 30
0.0
 11
977.575287
 21
982.127644
 31
0.0
  0
LINE
  5
880
100
AcDbEntity
  8
便座
  6
CONTINUOUS
 62
     6
100
AcDbLine
 10
1007.32431
 20
981.70229
 30
0.0
 11
1066.47934
 21
980.85648
 31
0.0
  0
LINE
  5
881
100
AcDbEntity
  8
便座
  6
CONTINUOUS
 62
     6
100
AcDbLine
 10
1131.355896
 20
983.296513
 30
0.0
 11
782.610901
 21
993.951603
 31
0.0
  0
LINE
  5
882
100
AcDbEntity
  8
便座
  6
CONTINUOUS
 62
     6
100
AcDbLine
 10
1132.94751
 20
985.746281
 30
0.0
 11
1133.0
 21
985.24622
 31
0.0
  0
LINE
  5
883
100
AcDbEntity
  8
便座
  6
CONTINUOUS
 62
     6
100
AcDbLine
 10
1007.495667
 20
987.080754
 30
0.0
 11
1007.495667
 21
983.000004
 31
0.0
  0
LINE
  5
884
100
AcDbEntity
  8
便座
  6
CONTINUOUS
 62
     6
100
AcDbLine
 10
977.498596
 20
987.997257
 30
0.0
 11
977.498596
 21
983.000004
 31
0.0
  0
LINE
  5
885
100
AcDbEntity
  8
便座
  6
CONTINUOUS
 62
     6
100
AcDbLine
 10
977.498596
 20
983.000004
 30
0.0
 11
1007.495667
 21
983.000004
 31
0.0
  0
LINE
  5
886
100
AcDbEntity
  8
便座
  6
CONTINUOUS
 62
     6
100
AcDbLine
 10
1118.761719
 20
1004.696415
 30
0.0
 11
941.380096
 21
1010.192509
 31
0.0
  0
LINE
  5
887
100
AcDbEntity
  8
便座
  6
CONTINUOUS
 62
     6
100
AcDbLine
 10
1133.0
 20
985.24622
 30
0.0
 11
1132.90918
 21
985.24622
 31
0.0
  0
ARC
  5
888
100
AcDbEntity
  8
便座
  6
CONTINUOUS
 62
     6
100
AcDbCircle
 10
1030.999451
 20
1001.393467
 30
0.0
 40
100.0
100
AcDbArc
 50
5.995056
 51
6.167908
  0
ARC
  5
889
100
AcDbEntity
  8
便座
  6
CONTINUOUS
 62
     6
100
AcDbCircle
 10
1128.405029
 20
1011.338001
 30
0.0
 40
2.0
100
AcDbArc
 50
270.0
 51
0.0
  0
ARC
  5
88A
100
AcDbEntity
  8
便座
  6
CONTINUOUS
 62
     6
100
AcDbCircle
 10
1114.508545
 20
1010.46674
 30
0.0
 40
16.0
100
AcDbArc
 50
5.994843
 51
65.145721
  0
ARC
  5
88B
100
AcDbEntity
  8
便座
  6
CONTINUOUS
 62
     6
100
AcDbCircle
 10
1098.116333
 20
975.078938
 30
0.0
 40
55.0
100
AcDbArc
 50
65.145721
 51
77.491241
  0
ARC
  5
88C
100
AcDbEntity
  8
便座
  6
CONTINUOUS
 62
     6
100
AcDbCircle
 10
1034.222809
 20
687.081852
 30
0.0
 40
350.0
100
AcDbArc
 50
77.491272
 51
81.432617
  0
ARC
  5
88D
100
AcDbEntity
  8
便座
  6
CONTINUOUS
 62
     6
100
AcDbCircle
 10
2645.268311
 20
50986.312504
 30
0.0
 40
50000.0
100
AcDbArc
 50
267.869141
 51
268.261108
  0
ARC
  5
88E
100
AcDbEntity
  8
便座
  6
CONTINUOUS
 62
     6
100
AcDbCircle
 10
788.418472
 20
-944.506344
 30
0.0
 40
2000.0
100
AcDbArc
 50
81.432617
 51
90.042389
  0
LINE
  5
88F
100
AcDbEntity
  8
便座
  6
CONTINUOUS
 62
     6
100
AcDbLine
 10
1130.452515
 20
1011.83765
 30
0.0
 11
1130.505005
 21
1011.338001
 31
0.0
  0
LINE
  5
890
100
AcDbEntity
  8
便座
  6
CONTINUOUS
 62
     6
100
AcDbLine
 10
1128.048218
 20
1009.338001
 30
0.0
 11
1128.405029
 21
1009.338001
 31
0.0
  0
LINE
  5
891
100
AcDbEntity
  8
便座
  6
CONTINUOUS
 62
     6
100
AcDbLine
 10
1130.405029
 20
1011.338001
 30
0.0
 11
1130.505005
 21
1011.338001
 31
0.0
  0
ARC
  5
892
100
AcDbEntity
  8
便座
  6
CONTINUOUS
 62
     6
100
AcDbCircle
 10
807.495714
 20
984.499994
 30
0.0
 40
5.0
100
AcDbArc
 50
270.0
 51
0.0
  0
ARC
  5
893
100
AcDbEntity
  8
便座
  6
CONTINUOUS
 62
     6
100
AcDbCircle
 10
798.495741
 20
984.499994
 30
0.0
 40
5.0
100
AcDbArc
 50
180.0
 51
270.0
  0
ARC
  5
894
100
AcDbEntity
  8
便座
  6
CONTINUOUS
 62
     6
100
AcDbCircle
 10
982.498596
 20
983.000004
 30
0.0
 40
5.0
100
AcDbArc
 50
180.0
 51
270.0
  0
ARC
  5
895
100
AcDbEntity
  8
便座
  6
CONTINUOUS
 62
     6
100
AcDbCircle
 10
1002.49568
 20
983.000004
 30
0.0
 40
5.0
100
AcDbArc
 50
270.0
 51
0.0
  0
LINE
  5
896
100
AcDbEntity
  8
便座
  6
CONTINUOUS
 62
     6
100
AcDbLine
 10
807.495714
 20
979.499994
 30
0.0
 11
798.495741
 21
979.499994
 31
0.0
  0
ARC
  5
897
100
AcDbEntity
  8
便座
  6
CONTINUOUS
 62
     6
100
AcDbCircle
 10
1118.328125
 20
990.703129
 30
0.0
 40
14.0
100
AcDbArc
 50
6.375153
 51
92.909413
  0
ARC
  5
898
100
AcDbEntity
  8
便座
  6
EXLTYPE2
 62
     6
100
AcDbCircle
 10
1065.515173
 20
983.370521
 30
0.0
 40
2.5
100
AcDbArc
 50
178.810746
 51
269.18083
  0
ARC
  5
899
100
AcDbEntity
  8
便座
  6
EXLTYPE2
 62
     6
100
AcDbCircle
 10
1077.012695
 20
983.13184
 30
0.0
 40
14.0
100
AcDbArc
 50
171.310969
 51
178.810746
  0
ARC
  5
89A
100
AcDbEntity
  8
便座
  6
CONTINUOUS
 62
     6
100
AcDbCircle
 10
1066.515106
 20
983.356266
 30
0.0
 40
2.5
100
AcDbArc
 50
269.180298
 51
352.607427
  0
ARC
  5
89B
100
AcDbEntity
  8
便座
  6
CONTINUOUS
 62
     6
100
AcDbCircle
 10
1076.938588
 20
982.003866
 30
0.0
 40
8.0
100
AcDbArc
 50
156.581694
 51
172.607427
  0
ARC
  5
89C
100
AcDbEntity
  8
便座
  6
CONTINUOUS
 62
     6
100
AcDbCircle
 10
993.000034
 20
1017.847526
 30
0.0
 40
9.25
100
AcDbArc
 50
205.281893
 51
330.930377
  0
ARC
  5
89D
100
AcDbEntity
  8
便座
  6
CONTINUOUS
 62
     6
100
AcDbCircle
 10
668.049683
 20
944.034947
 30
0.0
 40
75.0
100
AcDbArc
 50
63.787048
 51
80.909973
  0
ARC
  5
89E
100
AcDbEntity
  8
便座
  6
CONTINUOUS
 62
     6
100
AcDbCircle
 10
674.369141
 20
983.532597
 30
0.0
 40
35.0
100
AcDbArc
 50
80.909973
 51
90.0
  0
ARC
  5
89F
100
AcDbEntity
  8
便座
  6
CONTINUOUS
 62
     6
100
AcDbCircle
 10
771.851212
 20
1154.867207
 30
0.0
 40
160.0
100
AcDbArc
 50
243.787048
 51
264.506714
  0
ARC
  5
8A0
100
AcDbEntity
  8
便座
  6
CONTINUOUS
 62
     6
100
AcDbCircle
 10
783.363495
 20
1466.48386
 30
0.0
 40
450.0
100
AcDbArc
 50
257.444275
 51
267.439697
  0
ARC
  5
8A1
100
AcDbEntity
  8
便座
  6
CONTINUOUS
 62
     6
100
AcDbCircle
 10
674.120926
 20
1020.532597
 30
0.0
 40
2.0
100
AcDbArc
 50
180.0
 51
270.0
  0
ARC
  5
8A2
100
AcDbEntity
  8
便座
  6
CONTINUOUS
 62
     6
100
AcDbCircle
 10
682.929749
 20
1015.532597
 30
0.0
 40
12.0
100
AcDbArc
 50
77.444244
 51
155.376892
  0
LINE
  5
8A3
100
AcDbEntity
  8
便座
  6
CONTINUOUS
 62
     6
100
AcDbLine
 10
672.142609
 20
1020.238896
 30
0.0
 11
672.606415
 21
1007.034916
 31
0.0
  0
LINE
  5
8A4
100
AcDbEntity
  8
便座
  6
CONTINUOUS
 62
     6
100
AcDbLine
 10
672.424118
 20
1019.473896
 30
0.0
 11
672.601089
 21
1007.249455
 31
0.0
  0
LINE
  5
8A5
100
AcDbEntity
  8
便座
  6
CONTINUOUS
 62
     6
100
AcDbLine
 10
674.120926
 20
1018.532597
 30
0.0
 11
674.369141
 21
1018.532597
 31
0.0
  0
LINE
  5
8A6
100
AcDbEntity
  8
便座
  6
CONTINUOUS
 62
     6
100
AcDbLine
 10
672.020935
 20
1020.532353
 30
0.0
 11
672.120926
 21
1020.532353
 31
0.0
  0
ARC
  5
8A7
100
AcDbEntity
  8
便座
  6
CONTINUOUS
 62
     6
100
AcDbCircle
 10
695.6185
 20
1079.359921
 30
0.0
 40
50.0
100
AcDbArc
 50
242.001892
 51
261.610718
  0
ARC
  5
8A8
100
AcDbEntity
  8
便座
  6
CONTINUOUS
 62
     6
100
AcDbCircle
 10
787.575089
 20
195.493412
 30
0.0
 40
860.0
100
AcDbArc
 50
90.042389
 51
96.243958
  0
ARC
  5
8A9
100
AcDbEntity
  8
便座
  6
CONTINUOUS
 62
     6
100
AcDbCircle
 10
819.632416
 20
1920.26453
 30
0.0
 40
900.0
100
AcDbArc
 50
261.610657
 51
267.881714
  0
LINE
  5
8AA
100
AcDbEntity
  8
便座
  6
CONTINUOUS
 62
     6
100
AcDbLine
 10
693.669159
 20
1029.12302
 30
0.0
 11
693.6063
 21
1025.526196
 31
0.0
  0
LINE
  5
8AB
100
AcDbEntity
  8
便座
  6
CONTINUOUS
 62
     6
100
AcDbLine
 10
695.599597
 20
1025.125164
 30
0.0
 11
695.402883
 21
1013.869054
 31
0.0
  0
LINE
  5
8AC
100
AcDbEntity
  8
便座
  6
CONTINUOUS
 62
     6
100
AcDbLine
 10
672.128616
 20
1033.769724
 30
0.0
 11
672.405212
 21
1021.297497
 31
0.0
  0
ARC
  5
8AD
100
AcDbEntity
  8
便座
  6
CONTINUOUS
 62
     6
100
AcDbCircle
 10
687.124928
 20
1034.102297
 30
0.0
 40
15.0
100
AcDbArc
 50
102.081549
 51
181.270441
  0
ARC
  5
8AE
100
AcDbEntity
  8
便座
  6
CONTINUOUS
 62
     6
100
AcDbCircle
 10
704.915741
 20
950.984989
 30
0.0
 40
100.0
100
AcDbArc
 50
96.243958
 51
102.081549
  0
LINE
  5
8AF
100
AcDbEntity
  8
便座
  6
CONTINUOUS
 62
     6
100
AcDbLine
 10
697.959137
 20
1003.965153
 30
0.0
 11
698.263443
 21
1012.679875
 31
0.0
  0
LINE
  5
8B0
100
AcDbEntity
  8
便座
  6
CONTINUOUS
 62
     6
100
AcDbLine
 10
693.996651
 20
1007.808048
 30
0.0
 11
694.111023
 21
1014.361378
 31
0.0
  0
ARC
  5
8B1
100
AcDbEntity
  8
便座
  6
CONTINUOUS
 62
     6
100
AcDbCircle
 10
683.9
 20
1008.000004
 30
0.0
 40
7.0
100
AcDbArc
 50
3.0
 51
90.0
  0
LINE
  5
8B2
100
AcDbEntity
  8
便座
  6
CONTINUOUS
 62
     6
100
AcDbLine
 10
683.9
 20
1015.000004
 30
0.0
 11
682.1
 21
1015.000004
 31
0.0
  0
ARC
  5
8B3
100
AcDbEntity
  8
便座
  6
CONTINUOUS
 62
     6
100
AcDbCircle
 10
683.0
 20
1008.000004
 30
0.0
 40
11.0
100
AcDbArc
 50
318.89534
 51
0.0
  0
ARC
  5
8B4
100
AcDbEntity
  8
便座
  6
CONTINUOUS
 62
     6
100
AcDbCircle
 10
682.1
 20
1008.000004
 30
0.0
 40
7.0
100
AcDbArc
 50
90.0
 51
177.410775
  0
LINE
  5
8B5
100
AcDbEntity
  8
便座
  6
CONTINUOUS
 62
     6
100
AcDbLine
 10
675.107147
 20
1008.316229
 30
0.0
 11
674.449534
 21
993.774128
 31
0.0
  0
ARC
  5
8B6
100
AcDbEntity
  8
便座
  6
CONTINUOUS
 62
     6
100
AcDbCircle
 10
683.0
 20
1007.399998
 30
0.0
 40
10.4
100
AcDbArc
 50
182.011902
 51
217.758146
  0
ARC
  5
8B7
100
AcDbEntity
  8
便座
  6
CONTINUOUS
 62
     6
100
AcDbCircle
 10
696.959717
 20
1004.000004
 30
0.0
 40
1.0
100
AcDbArc
 50
270.0
 51
358.001953
  0
LINE
  5
8B8
100
AcDbEntity
  8
便座
  6
CONTINUOUS
 62
     6
100
AcDbLine
 10
692.797958
 20
1003.000004
 30
0.0
 11
696.959717
 21
1003.000004
 31
0.0
  0
ARC
  5
8B9
100
AcDbEntity
  8
便座
  6
CONTINUOUS
 62
     6
100
AcDbCircle
 10
669.454639
 20
994.000004
 30
0.0
 40
5.0
100
AcDbArc
 50
270.0
 51
357.410775
  0
ARC
  5
8BA
100
AcDbEntity
  8
便座
  6
CONTINUOUS
 62
     6
100
AcDbCircle
 10
794.826294
 20
1393.765019
 30
0.0
 40
400.0
100
AcDbArc
 50
264.506714
 51
268.25
  0
LINE
  5
8BB
100
AcDbEntity
  8
便座
  6
CONTINUOUS
 62
     6
100
AcDbLine
 10
793.495728
 20
984.500004
 30
0.0
 11
812.495728
 21
984.500004
 31
0.0
  0
LINE
  5
8BC
100
AcDbEntity
  8
便座
  6
CONTINUOUS
 62
     6
100
AcDbLine
 10
812.495728
 20
993.038517
 30
0.0
 11
812.495728
 21
984.500004
 31
0.0
  0
LINE
  5
8BD
100
AcDbEntity
  8
便座
  6
CONTINUOUS
 62
     6
100
AcDbLine
 10
793.495728
 20
993.619023
 30
0.0
 11
793.495728
 21
984.500004
 31
0.0
  0
LINE
  5
8BE
100
AcDbEntity
  8
便座
  6
CONTINUOUS
 62
     6
100
AcDbLine
 10
754.062744
 20
985.323429
 30
0.0
 11
793.495728
 21
984.759617
 31
0.0
  0
ARC
  5
8BF
100
AcDbEntity
  8
便座
  6
CONTINUOUS
 62
     6
100
AcDbCircle
 10
754.09848
 20
987.823185
 30
0.0
 40
2.5
100
AcDbArc
 50
202.670105
 51
269.180908
  0
ARC
  5
8C0
100
AcDbEntity
  8
便座
  6
CONTINUOUS
 62
     6
100
AcDbCircle
 10
560.593445
 20
692.690373
 30
0.0
 40
353.0
100
AcDbArc
 50
58.114288
 51
60.155516
  0
ARC
  5
8C1
100
AcDbEntity
  8
便座
  6
CONTINUOUS
 62
     6
100
AcDbCircle
 10
740.71875
 20
982.234562
 30
0.0
 40
12.0
100
AcDbArc
 50
28.196236
 51
51.672324
  0
LINE
  5
8C2
100
AcDbEntity
  8
便座
  6
CONTINUOUS
 62
     6
100
AcDbLine
 10
692.429432
 20
979.000004
 30
0.0
 11
690.890407
 21
1008.366355
 31
0.0
  0
LINE
  5
8C3
100
AcDbEntity
  8
便座
  6
CONTINUOUS
 62
     6
100
AcDbLine
 10
747.057438
 20
992.423887
 30
0.0
 11
748.160647
 21
991.648284
 31
0.0
  0
LINE
  5
8C4
100
AcDbEntity
  8
便座
  6
CONTINUOUS
 62
     6
100
AcDbLine
 10
751.294764
 20
987.904476
 30
0.0
 11
751.791632
 21
986.859623
 31
0.0
  0
ARC
  5
8C5
100
AcDbEntity
  8
便座
  6
CONTINUOUS
 62
     6
100
AcDbCircle
 10
1460.297552
 20
1043.508664
 30
0.0
 40
30.0
100
AcDbArc
 50
233.946045
 51
261.287033
  0
ARC
  5
8C6
100
AcDbEntity
  8
便座
  6
CONTINUOUS
 62
     6
100
AcDbCircle
 10
1623.001047
 20
4439.402832
 30
0.0
 40
3430.064941
100
AcDbArc
 50
267.345932
 51
269.999985
  0
ARC
  5
8C7
100
AcDbEntity
  8
便座
  6
CONTINUOUS
 62
     6
100
AcDbCircle
 10
1467.871753
 20
1092.931636
 30
0.0
 40
80.0
100
AcDbArc
 50
261.287033
 51
267.345932
  0
ARC
  5
8C8
100
AcDbEntity
  8
便座
  6
CONTINUOUS
 62
     6
100
AcDbCircle
 10
1803.932003
 20
993.651976
 30
0.0
 40
2.0
100
AcDbArc
 50
307.317505
 51
0.0
  0
ARC
  5
8C9
100
AcDbEntity
  8
便座
  6
CONTINUOUS
 62
     6
100
AcDbCircle
 10
1797.869383
 20
1001.605224
 30
0.0
 40
12.0
100
AcDbArc
 50
276.214051
 51
307.317505
  0
ARC
  5
8CA
100
AcDbEntity
  8
便座
  6
CONTINUOUS
 62
     6
100
AcDbCircle
 10
1723.397943
 20
1685.56284
 30
0.0
 40
700.0
100
AcDbArc
 50
273.987213
 51
276.214112
  0
ARC
  5
8CB
100
AcDbEntity
  8
便座
  6
CONTINUOUS
 62
     6
100
AcDbCircle
 10
1726.78985
 20
986.265018
 30
0.0
 40
2.5
100
AcDbArc
 50
312.39917
 51
321.627472
  0
ARC
  5
8CC
100
AcDbEntity
  8
便座
  6
CONTINUOUS
 62
     6
100
AcDbCircle
 10
1725.441218
 20
987.741947
 30
0.0
 40
4.5
100
AcDbArc
 50
276.756409
 51
312.399658
  0
ARC
  5
8CD
100
AcDbEntity
  8
便座
  6
CONTINUOUS
 62
     6
100
AcDbCircle
 10
1705.382424
 20
1157.0579
 30
0.0
 40
175.0
100
AcDbArc
 50
271.671082
 51
276.756348
  0
ARC
  5
8CE
100
AcDbEntity
  8
便座
  6
CONTINUOUS
 62
     6
100
AcDbCircle
 10
1623.0009
 20
3980.856445
 30
0.0
 40
3000.0
100
AcDbArc
 50
268.326229
 51
271.671082
  0
LINE
  5
8CF
100
AcDbEntity
  8
便座
  6
CONTINUOUS
 62
     6
100
AcDbLine
 10
1806.031978
 20
993.651975
 30
0.0
 11
1805.352171
 21
1001.839597
 31
0.0
  0
LINE
  5
8D0
100
AcDbEntity
  8
便座
  6
CONTINUOUS
 62
     6
100
AcDbLine
 10
1805.932003
 20
993.651975
 30
0.0
 11
1806.031978
 21
993.651975
 31
0.0
  0
LINE
  5
8D1
100
AcDbEntity
  8
便座
  6
EXLTYPE1
 62
     6
100
AcDbLine
 10
1805.940853
 20
994.516477
 30
0.0
 11
1806.031978
 21
993.651975
 31
0.0
  0
ARC
  5
8D2
100
AcDbEntity
  8
便座
  6
CONTINUOUS
 62
     6
100
AcDbCircle
 10
1512.250183
 20
983.0
 30
0.0
 40
5.0
100
AcDbArc
 50
270.0
 51
0.0
  0
ARC
  5
8D3
100
AcDbEntity
  8
便座
  6
CONTINUOUS
 62
     6
100
AcDbCircle
 10
1473.199178
 20
983.0
 30
0.0
 40
5.0
100
AcDbArc
 50
180.0
 51
270.0
  0
ARC
  5
8D4
100
AcDbEntity
  8
便座
  6
CONTINUOUS
 62
     6
100
AcDbCircle
 10
1536.508911
 20
1885.078721
 30
0.0
 40
900.0
100
AcDbArc
 50
266.012817
 51
267.639526
  0
ARC
  5
8D5
100
AcDbEntity
  8
便座
  6
CONTINUOUS
 62
     6
100
AcDbCircle
 10
1519.210191
 20
986.264973
 30
0.0
 40
2.5
100
AcDbArc
 50
218.372742
 51
227.601257
  0
ARC
  5
8D6
100
AcDbEntity
  8
便座
  6
CONTINUOUS
 62
     6
100
AcDbCircle
 10
1520.558797
 20
987.741957
 30
0.0
 40
4.5
100
AcDbArc
 50
227.60022
 51
263.243591
  0
ARC
  5
8D7
100
AcDbEntity
  8
便座
  6
CONTINUOUS
 62
     6
100
AcDbCircle
 10
1467.871776
 20
1092.93164
 30
0.0
 40
80.0
100
AcDbArc
 50
261.286987
 51
267.345947
  0
ARC
  5
8D8
100
AcDbEntity
  8
便座
  6
CONTINUOUS
 62
     6
100
AcDbCircle
 10
1733.749817
 20
983.0
 30
0.0
 40
5.0
100
AcDbArc
 50
180.0
 51
270.0
  0
ARC
  5
8D9
100
AcDbEntity
  8
便座
  6
CONTINUOUS
 62
     6
100
AcDbCircle
 10
1772.800856
 20
983.0
 30
0.0
 40
5.0
100
AcDbArc
 50
270.0
 51
0.0
  0
ARC
  5
8DA
100
AcDbEntity
  8
便座
  6
CONTINUOUS
 62
     6
100
AcDbCircle
 10
1796.487006
 20
984.499972
 30
0.0
 40
5.0
100
AcDbArc
 50
270.0
 51
0.0
  0
ARC
  5
8DB
100
AcDbEntity
  8
便座
  6
CONTINUOUS
 62
     6
100
AcDbCircle
 10
1473.199178
 20
983.0
 30
0.0
 40
5.0
100
AcDbArc
 50
180.0
 51
270.0
  0
ARC
  5
8DC
100
AcDbEntity
  8
便座
  6
CONTINUOUS
 62
     6
100
AcDbCircle
 10
1512.250183
 20
983.0
 30
0.0
 40
5.0
100
AcDbArc
 50
270.0
 51
0.0
  0
ARC
  5
8DD
100
AcDbEntity
  8
便座
  6
CONTINUOUS
 62
     6
100
AcDbCircle
 10
1449.51301
 20
984.499972
 30
0.0
 40
5.0
100
AcDbArc
 50
180.0
 51
270.0
  0
ARC
  5
8DE
100
AcDbEntity
  8
便座
  6
CONTINUOUS
 62
     6
100
AcDbCircle
 10
1522.602084
 20
1685.562807
 30
0.0
 40
700.0
100
AcDbArc
 50
263.785889
 51
266.012817
  0
ARC
  5
8DF
100
AcDbEntity
  8
便座
  6
CONTINUOUS
 62
     6
100
AcDbCircle
 10
1442.068043
 20
993.651991
 30
0.0
 40
2.0
100
AcDbArc
 50
180.0
 51
232.682495
  0
ARC
  5
8E0
100
AcDbEntity
  8
便座
  6
CONTINUOUS
 62
     6
100
AcDbCircle
 10
1448.130632
 20
1001.605211
 30
0.0
 40
11.999999
100
AcDbArc
 50
232.682495
 51
263.78595
  0
ARC
  5
8E1
100
AcDbEntity
  8
便座
  6
CONTINUOUS
 62
     6
100
AcDbCircle
 10
1536.508911
 20
1885.078721
 30
0.0
 40
900.0
100
AcDbArc
 50
266.012817
 51
267.639526
  0
ARC
  5
8E2
100
AcDbEntity
  8
便座
  6
CONTINUOUS
 62
     6
100
AcDbCircle
 10
1540.617628
 20
1157.057888
 30
0.0
 40
175.0
100
AcDbArc
 50
263.243652
 51
268.328918
  0
ARC
  5
8E3
100
AcDbEntity
  8
便座
  6
CONTINUOUS
 62
     6
100
AcDbCircle
 10
1520.558797
 20
987.741957
 30
0.0
 40
4.5
100
AcDbArc
 50
222.67218
 51
263.243591
  0
ARC
  5
8E4
100
AcDbEntity
  8
便座
  6
CONTINUOUS
 62
     6
100
AcDbCircle
 10
1623.0
 20
3983.296767
 30
0.0
 40
3000.0
100
AcDbArc
 50
267.639526
 51
270.0
  0
ARC
  5
8E5
100
AcDbEntity
  8
便座
  6
CONTINUOUS
 62
     6
100
AcDbCircle
 10
1709.491122
 20
1885.078721
 30
0.0
 40
900.0
100
AcDbArc
 50
272.360474
 51
273.987213
  0
ARC
  5
8E6
100
AcDbEntity
  8
便座
  6
CONTINUOUS
 62
     6
100
AcDbCircle
 10
1623.0
 20
3983.296767
 30
0.0
 40
3000.0
100
AcDbArc
 50
270.0
 51
272.360474
  0
ARC
  5
8E7
100
AcDbEntity
  8
便座
  6
CONTINUOUS
 62
     6
100
AcDbCircle
 10
1785.702433
 20
1043.508626
 30
0.0
 40
30.0
100
AcDbArc
 50
278.713013
 51
306.053986
  0
ARC
  5
8E8
100
AcDbEntity
  8
便座
  6
CONTINUOUS
 62
     6
100
AcDbCircle
 10
1622.998949
 20
4439.402859
 30
0.0
 40
3430.064833
100
AcDbArc
 50
270.000031
 51
272.654053
  0
ARC
  5
8E9
100
AcDbEntity
  8
便座
  6
CONTINUOUS
 62
     6
100
AcDbCircle
 10
1778.128241
 20
1092.93164
 30
0.0
 40
80.0
100
AcDbArc
 50
272.654083
 51
278.712982
  0
ARC
  5
8EA
100
AcDbEntity
  8
便座
  6
CONTINUOUS
 62
     6
100
AcDbCircle
 10
1802.18179
 20
1020.871703
 30
0.0
 40
2.0
100
AcDbArc
 50
306.05365
 51
0.0
  0
ARC
  5
8EB
100
AcDbEntity
  8
便座
  6
CONTINUOUS
 62
     6
100
AcDbCircle
 10
1752.493272
 20
944.95543
 30
0.0
 40
100.0
100
AcDbArc
 50
65.644104
 51
75.639404
  0
ARC
  5
8EC
100
AcDbEntity
  8
便座
  6
CONTINUOUS
 62
     6
100
AcDbCircle
 10
1715.2897
 20
799.64232
 30
0.0
 40
250.0
100
AcDbArc
 50
75.639404
 51
82.744019
  0
ARC
  5
8ED
100
AcDbEntity
  8
便座
  6
CONTINUOUS
 62
     6
100
AcDbCircle
 10
1786.310343
 20
1019.657579
 30
0.0
 40
17.999999
100
AcDbArc
 50
6.117493
 51
65.644104
  0
ARC
  5
8EE
100
AcDbEntity
  8
便座
  6
CONTINUOUS
 62
     6
100
AcDbCircle
 10
1704.777276
 20
1010.918904
 30
0.0
 40
100.0
100
AcDbArc
 50
5.999878
 51
6.117554
  0
LINE
  5
8EF
100
AcDbEntity
  8
便座
  6
CONTINUOUS
 62
     6
100
AcDbLine
 10
1517.250183
 20
985.16139
 30
0.0
 11
1517.250183
 21
983.0
 31
0.0
  0
LINE
  5
8F0
100
AcDbEntity
  8
便座
  6
CONTINUOUS
 62
     6
100
AcDbLine
 10
1468.199178
 20
983.0
 30
0.0
 11
1517.250183
 21
983.0
 31
0.0
  0
LINE
  5
8F1
100
AcDbEntity
  8
便座
  6
CONTINUOUS
 62
     6
100
AcDbLine
 10
1468.199178
 20
987.68004
 30
0.0
 11
1468.199178
 21
983.0
 31
0.0
  0
LINE
  5
8F2
100
AcDbEntity
  8
便座
  6
CONTINUOUS
 62
     6
100
AcDbLine
 10
1728.749817
 20
985.16139
 30
0.0
 11
1728.749817
 21
983.0
 31
0.0
  0
LINE
  5
8F3
100
AcDbEntity
  8
便座
  6
CONTINUOUS
 62
     6
100
AcDbLine
 10
1777.800822
 20
983.0
 30
0.0
 11
1728.749817
 21
983.0
 31
0.0
  0
LINE
  5
8F4
100
AcDbEntity
  8
便座
  6
CONTINUOUS
 62
     6
100
AcDbLine
 10
1777.800822
 20
987.68004
 30
0.0
 11
1777.800822
 21
983.0
 31
0.0
  0
LINE
  5
8F5
100
AcDbEntity
  8
便座
  6
CONTINUOUS
 62
     6
100
AcDbLine
 10
1776.371582
 20
979.499972
 30
0.0
 11
1796.487006
 21
979.499972
 31
0.0
  0
LINE
  5
8F6
100
AcDbEntity
  8
便座
  6
CONTINUOUS
 62
     6
100
AcDbLine
 10
1777.800822
 20
984.499972
 30
0.0
 11
1801.487006
 21
984.499972
 31
0.0
  0
LINE
  5
8F7
100
AcDbEntity
  8
便座
  6
CONTINUOUS
 62
     6
100
AcDbLine
 10
1801.487006
 20
989.932101
 30
0.0
 11
1801.487006
 21
984.499972
 31
0.0
  0
LINE
  5
8F8
100
AcDbEntity
  8
便座
  6
CONTINUOUS
 62
     6
100
AcDbLine
 10
1468.199178
 20
983.0
 30
0.0
 11
1517.250217
 21
983.0
 31
0.0
  0
LINE
  5
8F9
100
AcDbEntity
  8
便座
  6
CONTINUOUS
 62
     6
100
AcDbLine
 10
1468.199178
 20
987.68004
 30
0.0
 11
1468.199178
 21
983.0
 31
0.0
  0
LINE
  5
8FA
100
AcDbEntity
  8
便座
  6
CONTINUOUS
 62
     6
100
AcDbLine
 10
1517.250183
 20
985.16139
 30
0.0
 11
1517.250183
 21
983.0
 31
0.0
  0
LINE
  5
8FB
100
AcDbEntity
  8
便座
  6
CONTINUOUS
 62
     6
100
AcDbLine
 10
1468.199178
 20
984.499972
 30
0.0
 11
1444.51301
 21
984.499972
 31
0.0
  0
LINE
  5
8FC
100
AcDbEntity
  8
便座
  6
CONTINUOUS
 62
     6
100
AcDbLine
 10
1469.628469
 20
979.499972
 30
0.0
 11
1449.51301
 21
979.499972
 31
0.0
  0
LINE
  5
8FD
100
AcDbEntity
  8
便座
  6
CONTINUOUS
 62
     6
100
AcDbLine
 10
1444.51301
 20
989.932101
 30
0.0
 11
1444.51301
 21
984.499972
 31
0.0
  0
LINE
  5
8FE
100
AcDbEntity
  8
便座
  6
CONTINUOUS
 62
     6
100
AcDbLine
 10
1439.968028
 20
993.651991
 30
0.0
 11
1440.647874
 21
1001.839586
 31
0.0
  0
LINE
  5
8FF
100
AcDbEntity
  8
便座
  6
CONTINUOUS
 62
     6
100
AcDbLine
 10
1440.06804
 20
993.651991
 30
0.0
 11
1439.968028
 21
993.651991
 31
0.0
  0
LINE
  5
900
100
AcDbEntity
  8
便座
  6
EXLTYPE1
 62
     6
100
AcDbLine
 10
1440.05919
 20
994.516452
 30
0.0
 11
1439.968028
 21
993.651991
 31
0.0
  0
LINE
  5
901
100
AcDbEntity
  8
便座
  6
CONTINUOUS
 62
     6
100
AcDbLine
 10
1804.282077
 20
1020.871703
 30
0.0
 11
1804.182048
 21
1020.871703
 31
0.0
  0
LINE
  5
902
100
AcDbEntity
  8
便座
  6
CONTINUOUS
 62
     6
100
AcDbLine
 10
1804.282077
 20
1020.871703
 30
0.0
 11
1804.229519
 21
1021.371718
 31
0.0
  0
ARC
  5
903
100
AcDbEntity
  8
便座
  6
CONTINUOUS
 62
     6
100
AcDbCircle
 10
1793.393309
 20
1000.846558
 30
0.0
 40
12.0
100
AcDbArc
 50
4.000061
 51
43.447065
  0
ARC
  5
904
100
AcDbEntity
  8
便座
  6
CONTINUOUS
 62
     6
100
AcDbCircle
 10
1783.955196
 20
991.906681
 30
0.0
 40
25.0
100
AcDbArc
 50
43.447065
 51
65.896475
  0
LINE
  5
905
100
AcDbEntity
  8
便座
  6
CONTINUOUS
 62
     6
100
AcDbLine
 10
1710.499984
 20
982.132743
 30
0.0
 11
1710.499984
 21
980.5
 31
0.0
  0
LINE
  5
906
100
AcDbEntity
  8
便座
  6
CONTINUOUS
 62
     6
100
AcDbLine
 10
1675.499984
 20
981.315839
 30
0.0
 11
1675.499984
 21
980.5
 31
0.0
  0
LINE
  5
907
100
AcDbEntity
  8
便座
  6
CONTINUOUS
 62
     6
100
AcDbLine
 10
1675.499984
 20
980.5
 30
0.0
 11
1710.499984
 21
980.5
 31
0.0
  0
LINE
  5
908
100
AcDbEntity
  8
便座
  6
CONTINUOUS
 62
     6
100
AcDbLine
 10
1708.499984
 20
978.0
 30
0.0
 11
1708.499984
 21
980.5
 31
0.0
  0
LINE
  5
909
100
AcDbEntity
  8
便座
  6
CONTINUOUS
 62
     6
100
AcDbLine
 10
1677.499984
 20
978.0
 30
0.0
 11
1677.499984
 21
980.5
 31
0.0
  0
LINE
  5
90A
100
AcDbEntity
  8
便座
  6
CONTINUOUS
 62
     6
100
AcDbLine
 10
1535.500016
 20
982.132743
 30
0.0
 11
1535.500016
 21
980.5
 31
0.0
  0
LINE
  5
90B
100
AcDbEntity
  8
便座
  6
CONTINUOUS
 62
     6
100
AcDbLine
 10
1570.500016
 20
981.315839
 30
0.0
 11
1570.500016
 21
980.5
 31
0.0
  0
LINE
  5
90C
100
AcDbEntity
  8
便座
  6
CONTINUOUS
 62
     6
100
AcDbLine
 10
1570.500016
 20
980.5
 30
0.0
 11
1535.500016
 21
980.5
 31
0.0
  0
LINE
  5
90D
100
AcDbEntity
  8
便座
  6
CONTINUOUS
 62
     6
100
AcDbLine
 10
1537.500016
 20
978.0
 30
0.0
 11
1537.500016
 21
980.5
 31
0.0
  0
LINE
  5
90E
100
AcDbEntity
  8
便座
  6
CONTINUOUS
 62
     6
100
AcDbLine
 10
1568.500016
 20
978.0
 30
0.0
 11
1568.500016
 21
980.5
 31
0.0
  0
ARC
  5
90F
100
AcDbEntity
  8
便座
  6
CONTINUOUS
 62
     6
100
AcDbCircle
 10
1622.99966
 20
74.790039
 30
0.0
 40
980.703979
100
AcDbArc
 50
82.744002
 51
97.255982
  0
ARC
  5
910
100
AcDbEntity
  8
便座
  6
CONTINUOUS
 62
     6
100
AcDbCircle
 10
1530.710299
 20
799.642327
 30
0.0
 40
250.0
100
AcDbArc
 50
97.255982
 51
104.360601
  0
ARC
  5
911
100
AcDbEntity
  8
便座
  6
CONTINUOUS
 62
     6
100
AcDbCircle
 10
1443.818237
 20
1020.871705
 30
0.0
 40
2.0
100
AcDbArc
 50
180.0
 51
233.946045
  0
ARC
  5
912
100
AcDbEntity
  8
便座
  6
CONTINUOUS
 62
     6
100
AcDbCircle
 10
1459.689697
 20
1019.65759
 30
0.0
 40
18.0
100
AcDbArc
 50
114.355896
 51
173.882447
  0
ARC
  5
913
100
AcDbEntity
  8
便座
  6
CONTINUOUS
 62
     6
100
AcDbCircle
 10
1541.222744
 20
1010.918951
 30
0.0
 40
100.0
100
AcDbArc
 50
173.882447
 51
174.000122
  0
LINE
  5
914
100
AcDbEntity
  8
便座
  6
CONTINUOUS
 62
     6
100
AcDbLine
 10
1441.717987
 20
1020.871705
 30
0.0
 11
1441.817993
 21
1020.871705
 31
0.0
  0
LINE
  5
915
100
AcDbEntity
  8
便座
  6
CONTINUOUS
 62
     6
100
AcDbLine
 10
1441.717987
 20
1020.871705
 30
0.0
 11
1441.770538
 21
1021.371705
 31
0.0
  0
ARC
  5
916
100
AcDbEntity
  8
便座
  6
CONTINUOUS
 62
     6
100
AcDbCircle
 10
1493.506724
 20
944.95544
 30
0.0
 40
100.0
100
AcDbArc
 50
104.360601
 51
114.355896
  0
ARC
  5
917
100
AcDbEntity
  8
便座
  6
CONTINUOUS
 62
     6
100
AcDbCircle
 10
1766.0
 20
1017.070028
 30
0.0
 40
8.75
100
AcDbArc
 50
215.175899
 51
329.609488
  0
ARC
  5
918
100
AcDbEntity
  8
便座
  6
CONTINUOUS
 62
     6
100
AcDbCircle
 10
1480.0
 20
1017.070028
 30
0.0
 40
8.75
100
AcDbArc
 50
210.391563
 51
324.82305
  0
ARC
  5
919
100
AcDbEntity
  8
便座
  6
CONTINUOUS
 62
     6
100
AcDbCircle
 10
1452.60673
 20
1000.846543
 30
0.0
 40
11.999999
100
AcDbArc
 50
133.725278
 51
175.999878
  0
ARC
  5
91A
100
AcDbEntity
  8
便座
  6
CONTINUOUS
 62
     6
100
AcDbCircle
 10
1462.044817
 20
991.906657
 30
0.0
 40
25.0
100
AcDbArc
 50
114.103088
 51
136.552825
  0
LEADER
  5
91B
100
AcDbEntity
  8
便座
  6
CONTINUOUS
 62
     6
100
AcDbLeader
  3
STANDARD
 73
     3
 74
     1
 75
     0
 40
0.0
 76
     2
 10
879.019455
 20
1053.439757
 30
0.0
 10
927.015242
 20
1117.110459
 30
0.0
 77
     6
1001
ACAD
1000
DSTYLE
1002
{
1070
    41
1040
35.0
1070
     5
1000
_EX_NORM
1070
     6
1000
_EX_NORM
1070
     7
1000
_EX_NORM
1070
   341
1005
2D
1002
}
  0
LINE
  5
91C
100
AcDbEntity
  8
紙巻器
  6
CONTINUOUS
 62
     6
100
AcDbLine
 10
1245.285878
 20
1275.999698
 30
0.0
 11
1225.0
 21
1275.999698
 31
0.0
  0
LINE
  5
91D
100
AcDbEntity
  8
紙巻器
  6
CONTINUOUS
 62
     6
100
AcDbLine
 10
1121.0
 20
1275.999698
 30
0.0
 11
1100.714123
 21
1275.999698
 31
0.0
  0
LINE
  5
91E
100
AcDbEntity
  8
紙巻器
  6
CONTINUOUS
 62
     6
100
AcDbLine
 10
1173.0
 20
1330.999698
 30
0.0
 11
1173.0
 21
1384.000004
 31
0.0
  0
LINE
  5
91F
100
AcDbEntity
  8
紙巻器
  6
CONTINUOUS
 62
     6
100
AcDbLine
 10
1173.0
 20
1314.999698
 30
0.0
 11
1173.0
 21
1320.999698
 31
0.0
  0
LINE
  5
920
100
AcDbEntity
  8
紙巻器
  6
CONTINUOUS
 62
     6
100
AcDbLine
 10
1061.0
 20
1317.999698
 30
0.0
 11
1160.0
 21
1317.999698
 31
0.0
  0
LINE
  5
921
100
AcDbEntity
  8
紙巻器
  6
CONTINUOUS
 62
     6
100
AcDbLine
 10
1170.0
 20
1317.999698
 30
0.0
 11
1176.0
 21
1317.999698
 31
0.0
  0
ARC
  5
922
100
AcDbEntity
  8
紙巻器
  6
CONTINUOUS
 62
     6
100
AcDbCircle
 10
1100.714123
 20
1349.999698
 30
0.0
 40
10.0
100
AcDbArc
 50
90.0
 51
170.303972
  0
ARC
  5
923
100
AcDbEntity
  8
紙巻器
  6
CONTINUOUS
 62
     6
100
AcDbCircle
 10
1288.0
 20
1317.999698
 30
0.0
 40
200.0
100
AcDbArc
 50
170.303972
 51
189.696028
  0
ARC
  5
924
100
AcDbEntity
  8
紙巻器
  6
CONTINUOUS
 62
     6
100
AcDbCircle
 10
1108.0
 20
1357.999698
 30
0.0
 40
2.0
100
AcDbArc
 50
0.0
 51
90.0
  0
ARC
  5
925
100
AcDbEntity
  8
紙巻器
  6
CONTINUOUS
 62
     6
100
AcDbCircle
 10
1108.0
 20
1277.999698
 30
0.0
 40
2.0
100
AcDbArc
 50
270.0
 51
0.0
  0
ARC
  5
926
100
AcDbEntity
  8
紙巻器
  6
CONTINUOUS
 62
     6
100
AcDbCircle
 10
1113.5
 20
1330.817987
 30
0.0
 40
2.0
100
AcDbArc
 50
180.0
 51
270.0
  0
ARC
  5
927
100
AcDbEntity
  8
紙巻器
  6
CONTINUOUS
 62
     6
100
AcDbCircle
 10
1113.5
 20
1334.985948
 30
0.0
 40
2.0
100
AcDbArc
 50
180.0
 51
270.0
  0
LINE
  5
928
100
AcDbEntity
  8
紙巻器
  6
CONTINUOUS
 62
     6
100
AcDbLine
 10
1111.5
 20
1359.499698
 30
0.0
 11
1111.5
 21
1330.817987
 31
0.0
  0
LINE
  5
929
100
AcDbEntity
  8
紙巻器
  6
CONTINUOUS
 62
     6
100
AcDbLine
 10
1111.5
 20
1357.499698
 30
0.0
 11
1110.0
 21
1357.499698
 31
0.0
  0
LINE
  5
92A
100
AcDbEntity
  8
紙巻器
  6
CONTINUOUS
 62
     6
100
AcDbLine
 10
1111.5
 20
1349.499698
 30
0.0
 11
1110.0
 21
1349.499698
 31
0.0
  0
LINE
  5
92B
100
AcDbEntity
  8
紙巻器
  6
CONTINUOUS
 62
     6
100
AcDbLine
 10
1114.0
 20
1293.399698
 30
0.0
 11
1114.0
 21
1293.39572
 31
0.0
  0
ARC
  5
92C
100
AcDbEntity
  8
紙巻器
  6
CONTINUOUS
 62
     6
100
AcDbCircle
 10
1113.0
 20
1293.399698
 30
0.0
 40
1.0
100
AcDbArc
 50
270.0
 51
0.0
  0
LINE
  5
92D
100
AcDbEntity
  8
紙巻器
  6
CONTINUOUS
 62
     6
100
AcDbLine
 10
1113.0
 20
1292.399698
 30
0.0
 11
1110.0
 21
1292.399698
 31
0.0
  0
LINE
  5
92E
100
AcDbEntity
  8
紙巻器
  6
CONTINUOUS
 62
     6
100
AcDbLine
 10
1110.0
 20
1277.999698
 30
0.0
 11
1110.0
 21
1357.999698
 31
0.0
  0
LINE
  5
92F
100
AcDbEntity
  8
紙巻器
  6
CONTINUOUS
 62
     6
100
AcDbLine
 10
1110.0
 20
1293.403677
 30
0.0
 11
1114.011935
 21
1293.403677
 31
0.0
  0
LINE
  5
930
100
AcDbEntity
  8
紙巻器
  6
EXLTYPE4
 62
     6
100
AcDbLine
 10
1121.0
 20
1241.399698
 30
0.0
 11
1121.0
 21
1328.817987
 31
0.0
  0
ARC
  5
931
100
AcDbEntity
  8
紙巻器
  6
CONTINUOUS
 62
     6
100
AcDbCircle
 10
1100.714123
 20
1285.999698
 30
0.0
 40
10.0
100
AcDbArc
 50
189.696028
 51
270.0
  0
LINE
  5
932
100
AcDbEntity
  8
紙巻器
  6
CONTINUOUS
 62
     6
100
AcDbLine
 10
1110.0
 20
1309.399698
 30
0.0
 11
1121.0
 21
1309.399698
 31
0.0
  0
LINE
  5
933
100
AcDbEntity
  8
紙巻器
  6
CONTINUOUS
 62
     6
100
AcDbLine
 10
1121.0
 20
1295.733032
 30
0.0
 11
1114.0
 21
1293.399698
 31
0.0
  0
LINE
  5
934
100
AcDbEntity
  8
紙巻器
  6
CONTINUOUS
 62
     6
100
AcDbLine
 10
1173.0
 20
1380.499698
 30
0.0
 11
1173.0
 21
1333.999698
 31
0.0
  0
ARC
  5
935
100
AcDbEntity
  8
紙巻器
  6
CONTINUOUS
 62
     6
100
AcDbCircle
 10
1238.0
 20
1357.999698
 30
0.0
 40
2.0
100
AcDbArc
 50
90.0
 51
180.0
  0
LINE
  5
936
100
AcDbEntity
  8
紙巻器
  6
CONTINUOUS
 62
     6
100
AcDbLine
 10
1232.5
 20
1328.817987
 30
0.0
 11
1113.5
 21
1328.817987
 31
0.0
  0
ARC
  5
937
100
AcDbEntity
  8
紙巻器
  6
CONTINUOUS
 62
     6
100
AcDbCircle
 10
1232.5
 20
1330.817987
 30
0.0
 40
2.0
100
AcDbArc
 50
270.0
 51
0.0
  0
LINE
  5
938
100
AcDbEntity
  8
紙巻器
  6
CONTINUOUS
 62
     6
100
AcDbLine
 10
1113.5
 20
1332.985948
 30
0.0
 11
1232.5
 21
1332.985948
 31
0.0
  0
ARC
  5
939
100
AcDbEntity
  8
紙巻器
  6
CONTINUOUS
 62
     6
100
AcDbCircle
 10
1232.5
 20
1334.985948
 30
0.0
 40
2.0
100
AcDbArc
 50
270.0
 51
0.0
  0
LINE
  5
93A
100
AcDbEntity
  8
紙巻器
  6
CONTINUOUS
 62
     6
100
AcDbLine
 10
1234.5
 20
1359.499698
 30
0.0
 11
1234.5
 21
1330.817987
 31
0.0
  0
LINE
  5
93B
100
AcDbEntity
  8
紙巻器
  6
CONTINUOUS
 62
     6
100
AcDbLine
 10
1234.5
 20
1357.499698
 30
0.0
 11
1236.0
 21
1357.499698
 31
0.0
  0
LINE
  5
93C
100
AcDbEntity
  8
紙巻器
  6
CONTINUOUS
 62
     6
100
AcDbLine
 10
1234.5
 20
1349.499698
 30
0.0
 11
1236.0
 21
1349.499698
 31
0.0
  0
LINE
  5
93D
100
AcDbEntity
  8
紙巻器
  6
CONTINUOUS
 62
     6
100
AcDbLine
 10
1234.5
 20
1359.499698
 30
0.0
 11
1111.5
 21
1359.499698
 31
0.0
  0
LINE
  5
93E
100
AcDbEntity
  8
紙巻器
  6
CONTINUOUS
 62
     6
100
AcDbLine
 10
1100.714123
 20
1359.999698
 30
0.0
 11
1245.285878
 21
1359.999698
 31
0.0
  0
ARC
  5
93F
100
AcDbEntity
  8
紙巻器
  6
CONTINUOUS
 62
     6
100
AcDbCircle
 10
1245.285878
 20
1285.999698
 30
0.0
 40
10.0
100
AcDbArc
 50
270.0
 51
350.303972
  0
ARC
  5
940
100
AcDbEntity
  8
紙巻器
  6
CONTINUOUS
 62
     6
100
AcDbCircle
 10
1245.285878
 20
1349.999698
 30
0.0
 40
10.0
100
AcDbArc
 50
9.696028
 51
90.0
  0
ARC
  5
941
100
AcDbEntity
  8
紙巻器
  6
CONTINUOUS
 62
     6
100
AcDbCircle
 10
1058.0
 20
1317.999698
 30
0.0
 40
200.0
100
AcDbArc
 50
350.303972
 51
9.696028
  0
LINE
  5
942
100
AcDbEntity
  8
紙巻器
  6
CONTINUOUS
 62
     6
100
AcDbLine
 10
1236.0
 20
1357.999698
 30
0.0
 11
1236.0
 21
1277.999698
 31
0.0
  0
ARC
  5
943
100
AcDbEntity
  8
紙巻器
  6
CONTINUOUS
 62
     6
100
AcDbCircle
 10
1238.0
 20
1277.999698
 30
0.0
 40
2.0
100
AcDbArc
 50
180.0
 51
270.0
  0
LINE
  5
944
100
AcDbEntity
  8
紙巻器
  6
CONTINUOUS
 62
     6
100
AcDbLine
 10
1232.0
 20
1293.403677
 30
0.0
 11
1232.0
 21
1293.399698
 31
0.0
  0
ARC
  5
945
100
AcDbEntity
  8
紙巻器
  6
CONTINUOUS
 62
     6
100
AcDbCircle
 10
1233.0
 20
1293.403677
 30
0.0
 40
1.0
100
AcDbArc
 50
180.0
 51
270.0
  0
LINE
  5
946
100
AcDbEntity
  8
紙巻器
  6
CONTINUOUS
 62
     6
100
AcDbLine
 10
1233.0
 20
1292.403677
 30
0.0
 11
1236.0
 21
1292.403677
 31
0.0
  0
LINE
  5
947
100
AcDbEntity
  8
紙巻器
  6
CONTINUOUS
 62
     6
100
AcDbLine
 10
1232.0
 20
1293.403677
 30
0.0
 11
1236.0
 21
1293.403677
 31
0.0
  0
LINE
  5
948
100
AcDbEntity
  8
紙巻器
  6
CONTINUOUS
 62
     6
100
AcDbLine
 10
1225.0
 20
1295.73701
 30
0.0
 11
1232.0
 21
1293.403677
 31
0.0
  0
LINE
  5
949
100
AcDbEntity
  8
紙巻器
  6
CONTINUOUS
 62
     6
100
AcDbLine
 10
1236.0
 20
1309.403677
 30
0.0
 11
1225.0
 21
1309.403677
 31
0.0
  0
LINE
  5
94A
100
AcDbEntity
  8
紙巻器
  6
EXLTYPE4
 62
     6
100
AcDbLine
 10
1225.0
 20
1241.399698
 30
0.0
 11
1225.0
 21
1328.817987
 31
0.0
  0
LINE
  5
94B
100
AcDbEntity
  8
紙巻器
  6
EXLTYPE4
 62
     6
100
AcDbLine
 10
1225.0
 20
1241.399698
 30
0.0
 11
1121.0
 21
1241.399698
 31
0.0
  0
LINE
  5
94C
100
AcDbEntity
  8
紙巻器
  6
CONTINUOUS
 62
     6
100
AcDbLine
 10
1112.978566
 20
2828.000004
 30
0.0
 11
1233.023258
 21
2828.000004
 31
0.0
  0
LINE
  5
94D
100
AcDbEntity
  8
紙巻器
  6
CONTINUOUS
 62
     6
100
AcDbLine
 10
1235.023131
 20
2826.022474
 30
0.0
 11
1235.978692
 21
2740.977533
 31
0.0
  0
ARC
  5
94E
100
AcDbEntity
  8
紙巻器
  6
CONTINUOUS
 62
     6
100
AcDbCircle
 10
1237.978566
 20
2741.000004
 30
0.0
 40
2.0
100
AcDbArc
 50
180.643746
 51
270.0
  0
LINE
  5
94F
100
AcDbEntity
  8
紙巻器
  6
CONTINUOUS
 62
     6
100
AcDbLine
 10
1237.978566
 20
2739.000004
 30
0.0
 11
1244.611551
 21
2739.000004
 31
0.0
  0
ARC
  5
950
100
AcDbEntity
  8
紙巻器
  6
CONTINUOUS
 62
     6
100
AcDbCircle
 10
1244.611551
 20
2749.000004
 30
0.0
 40
10.0
100
AcDbArc
 50
270.0
 51
356.527299
  0
ARC
  5
951
100
AcDbEntity
  8
紙巻器
  6
CONTINUOUS
 62
     6
100
AcDbCircle
 10
-741.734354
 20
2869.540219
 30
0.0
 40
2000.0
100
AcDbArc
 50
356.527299
 51
359.06775
  0
LINE
  5
952
100
AcDbEntity
  8
紙巻器
  6
CONTINUOUS
 62
     6
100
AcDbLine
 10
1110.978692
 20
2826.022474
 30
0.0
 11
1110.023131
 21
2740.977533
 31
0.0
  0
ARC
  5
953
100
AcDbEntity
  8
紙巻器
  6
CONTINUOUS
 62
     6
100
AcDbCircle
 10
1108.023258
 20
2741.000004
 30
0.0
 40
2.0
100
AcDbArc
 50
270.0
 51
359.356254
  0
LINE
  5
954
100
AcDbEntity
  8
紙巻器
  6
CONTINUOUS
 62
     6
100
AcDbLine
 10
1108.023258
 20
2739.000004
 30
0.0
 11
1101.390272
 21
2739.000004
 31
0.0
  0
ARC
  5
955
100
AcDbEntity
  8
紙巻器
  6
CONTINUOUS
 62
     6
100
AcDbCircle
 10
1101.390272
 20
2749.000004
 30
0.0
 40
10.0
100
AcDbArc
 50
183.472701
 51
270.0
  0
ARC
  5
956
100
AcDbEntity
  8
紙巻器
  6
CONTINUOUS
 62
     6
100
AcDbCircle
 10
3087.736178
 20
2869.540219
 30
0.0
 40
2000.0
100
AcDbArc
 50
180.93225
 51
183.472701
  0
ARC
  5
957
100
AcDbEntity
  8
紙巻器
  6
CONTINUOUS
 62
     6
100
AcDbCircle
 10
1233.023258
 20
2826.000004
 30
0.0
 40
2.0
100
AcDbArc
 50
0.643746
 51
90.0
  0
LINE
  5
958
100
AcDbEntity
  8
紙巻器
  6
CONTINUOUS
 62
     6
100
AcDbLine
 10
1233.865712
 20
2815.000004
 30
0.0
 11
1235.000912
 21
2815.000004
 31
0.0
  0
LINE
  5
959
100
AcDbEntity
  8
紙巻器
  6
CONTINUOUS
 62
     6
100
AcDbLine
 10
1112.136112
 20
2815.000004
 30
0.0
 11
1111.000912
 21
2815.000004
 31
0.0
  0
ARC
  5
95A
100
AcDbEntity
  8
紙巻器
  6
CONTINUOUS
 62
     6
100
AcDbCircle
 10
1113.239739
 20
2824.000004
 30
0.0
 40
1.0
100
AcDbArc
 50
90.0
 51
179.356254
  0
LINE
  5
95B
100
AcDbEntity
  8
紙巻器
  6
CONTINUOUS
 62
     6
100
AcDbLine
 10
1112.22844
 20
2823.000004
 30
0.0
 11
1111.000912
 21
2823.000004
 31
0.0
  0
ARC
  5
95C
100
AcDbEntity
  8
紙巻器
  6
CONTINUOUS
 62
     6
100
AcDbCircle
 10
1112.978566
 20
2826.000004
 30
0.0
 40
2.0
100
AcDbArc
 50
90.0
 51
179.356254
  0
LINE
  5
95D
100
AcDbEntity
  8
紙巻器
  6
CONTINUOUS
 62
     6
100
AcDbLine
 10
1113.239739
 20
2825.000004
 30
0.0
 11
1232.762085
 21
2825.000004
 31
0.0
  0
ARC
  5
95E
100
AcDbEntity
  8
紙巻器
  6
CONTINUOUS
 62
     6
100
AcDbCircle
 10
1232.762085
 20
2824.000004
 30
0.0
 40
1.0
100
AcDbArc
 50
0.643746
 51
90.0
  0
LINE
  5
95F
100
AcDbEntity
  8
紙巻器
  6
CONTINUOUS
 62
     6
100
AcDbLine
 10
1233.773658
 20
2823.000004
 30
0.0
 11
1235.000912
 21
2823.000004
 31
0.0
  0
ARC
  5
960
100
AcDbEntity
  8
紙巻器
  6
CONTINUOUS
 62
     6
100
AcDbCircle
 10
1114.284809
 20
2741.000004
 30
0.0
 40
3.0
100
AcDbArc
 50
179.356254
 51
270.0
  0
LINE
  5
961
100
AcDbEntity
  8
紙巻器
  6
CONTINUOUS
 62
     6
100
AcDbLine
 10
1112.239802
 20
2824.011239
 30
0.0
 11
1111.284998
 21
2741.033709
 31
0.0
  0
ARC
  5
962
100
AcDbEntity
  8
紙巻器
  6
CONTINUOUS
 62
     6
100
AcDbCircle
 10
1231.717015
 20
2741.000004
 30
0.0
 40
3.0
100
AcDbArc
 50
270.0
 51
0.643746
  0
LINE
  5
963
100
AcDbEntity
  8
紙巻器
  6
CONTINUOUS
 62
     6
100
AcDbLine
 10
1233.762022
 20
2824.011239
 30
0.0
 11
1234.716825
 21
2741.033709
 31
0.0
  0
LINE
  5
964
100
AcDbEntity
  8
紙巻器
  6
CONTINUOUS
 62
     6
100
AcDbLine
 10
1231.717015
 20
2738.000004
 30
0.0
 11
1114.284809
 21
2738.000004
 31
0.0
  0
LINE
  5
965
100
AcDbEntity
  8
紙巻器
  6
CONTINUOUS
 62
     6
100
AcDbLine
 10
1111.000912
 20
2823.000004
 30
0.0
 11
1111.000912
 21
2815.000004
 31
0.0
  0
LINE
  5
966
100
AcDbEntity
  8
紙巻器
  6
CONTINUOUS
 62
     6
100
AcDbLine
 10
1235.000912
 20
2823.000004
 30
0.0
 11
1235.000912
 21
2815.000004
 31
0.0
  0
LINE
  5
967
100
AcDbEntity
  8
紙巻器
  6
CONTINUOUS
 62
     6
100
AcDbLine
 10
1111.000912
 20
2822.000004
 30
0.0
 11
1110.933496
 21
2822.000004
 31
0.0
  0
LINE
  5
968
100
AcDbEntity
  8
紙巻器
  6
CONTINUOUS
 62
     6
100
AcDbLine
 10
1111.000912
 20
2816.000004
 30
0.0
 11
1110.86608
 21
2816.000004
 31
0.0
  0
LINE
  5
969
100
AcDbEntity
  8
紙巻器
  6
CONTINUOUS
 62
     6
100
AcDbLine
 10
1235.000912
 20
2822.000004
 30
0.0
 11
1235.068328
 21
2822.000004
 31
0.0
  0
LINE
  5
96A
100
AcDbEntity
  8
紙巻器
  6
CONTINUOUS
 62
     6
100
AcDbLine
 10
1235.000912
 20
2816.000004
 30
0.0
 11
1235.135743
 21
2816.000004
 31
0.0
  0
LINE
  5
96B
100
AcDbEntity
  8
紙巻器
  6
CONTINUOUS
 62
     6
100
AcDbLine
 10
1110.382934
 20
2773.000004
 30
0.0
 11
1111.652827
 21
2773.000004
 31
0.0
  0
LINE
  5
96C
100
AcDbEntity
  8
紙巻器
  6
CONTINUOUS
 62
     6
100
AcDbLine
 10
1110.158215
 20
2753.000004
 30
0.0
 11
1111.422692
 21
2753.000004
 31
0.0
  0
LINE
  5
96D
100
AcDbEntity
  8
紙巻器
  6
CONTINUOUS
 62
     6
100
AcDbLine
 10
1235.618889
 20
2773.000004
 30
0.0
 11
1234.348996
 21
2773.000004
 31
0.0
  0
LINE
  5
96E
100
AcDbEntity
  8
紙巻器
  6
CONTINUOUS
 62
     6
100
AcDbLine
 10
1235.843609
 20
2753.000004
 30
0.0
 11
1234.579132
 21
2753.000004
 31
0.0
  0
LINE
  5
96F
100
AcDbEntity
  8
紙巻器
  6
CONTINUOUS
 62
     6
100
AcDbLine
 10
1126.500912
 20
2837.000004
 30
0.0
 11
1126.500912
 21
2859.378683
 31
0.0
  0
LINE
  5
970
100
AcDbEntity
  8
紙巻器
  6
CONTINUOUS
 62
     6
100
AcDbLine
 10
1129.500912
 20
2837.000004
 30
0.0
 11
1129.500912
 21
2859.378683
 31
0.0
  0
LINE
  5
971
100
AcDbEntity
  8
紙巻器
  6
CONTINUOUS
 62
     6
100
AcDbLine
 10
1126.500912
 20
2859.378683
 30
0.0
 11
1128.000912
 21
2863.000004
 31
0.0
  0
LINE
  5
972
100
AcDbEntity
  8
紙巻器
  6
CONTINUOUS
 62
     6
100
AcDbLine
 10
1129.500912
 20
2859.378683
 30
0.0
 11
1128.000912
 21
2863.000004
 31
0.0
  0
LINE
  5
973
100
AcDbEntity
  8
紙巻器
  6
CONTINUOUS
 62
     6
100
AcDbLine
 10
1171.500912
 20
2837.000004
 30
0.0
 11
1171.500912
 21
2859.378683
 31
0.0
  0
LINE
  5
974
100
AcDbEntity
  8
紙巻器
  6
CONTINUOUS
 62
     6
100
AcDbLine
 10
1174.500912
 20
2837.000004
 30
0.0
 11
1174.500912
 21
2859.378683
 31
0.0
  0
LINE
  5
975
100
AcDbEntity
  8
紙巻器
  6
CONTINUOUS
 62
     6
100
AcDbLine
 10
1171.500912
 20
2859.378683
 30
0.0
 11
1173.000912
 21
2863.000004
 31
0.0
  0
LINE
  5
976
100
AcDbEntity
  8
紙巻器
  6
CONTINUOUS
 62
     6
100
AcDbLine
 10
1174.500912
 20
2859.378683
 30
0.0
 11
1173.000912
 21
2863.000004
 31
0.0
  0
LINE
  5
977
100
AcDbEntity
  8
紙巻器
  6
CONTINUOUS
 62
     6
100
AcDbLine
 10
1221.500912
 20
2837.000004
 30
0.0
 11
1221.500912
 21
2859.378683
 31
0.0
  0
LINE
  5
978
100
AcDbEntity
  8
紙巻器
  6
CONTINUOUS
 62
     6
100
AcDbLine
 10
1224.500912
 20
2837.000004
 30
0.0
 11
1224.500912
 21
2859.378683
 31
0.0
  0
LINE
  5
979
100
AcDbEntity
  8
紙巻器
  6
CONTINUOUS
 62
     6
100
AcDbLine
 10
1221.500912
 20
2859.378683
 30
0.0
 11
1223.000912
 21
2863.000004
 31
0.0
  0
LINE
  5
97A
100
AcDbEntity
  8
紙巻器
  6
CONTINUOUS
 62
     6
100
AcDbLine
 10
1224.500912
 20
2859.378683
 30
0.0
 11
1223.000912
 21
2863.000004
 31
0.0
  0
CIRCLE
  5
97B
100
AcDbEntity
  8
紙巻器
  6
EXLTYPE2
 62
     6
100
AcDbCircle
 10
1173.0
 20
1295.999698
 30
0.0
 40
4.0
  0
CIRCLE
  5
97C
100
AcDbEntity
  8
紙巻器
  6
EXLTYPE2
 62
     6
100
AcDbCircle
 10
1128.0
 20
1339.999698
 30
0.0
 40
4.0
  0
CIRCLE
  5
97D
100
AcDbEntity
  8
紙巻器
  6
EXLTYPE2
 62
     6
100
AcDbCircle
 10
1218.0
 20
1339.999698
 30
0.0
 40
4.0
  0
LINE
  5
97E
100
AcDbEntity
  8
紙巻器
  6
CONTINUOUS
 62
     6
100
AcDbLine
 10
1186.0
 20
1317.999698
 30
0.0
 11
1278.0
 21
1317.999698
 31
0.0
  0
LINE
  5
97F
100
AcDbEntity
  8
紙巻器
  6
CONTINUOUS
 62
     6
100
AcDbLine
 10
1173.0
 20
1202.0
 30
0.0
 11
1173.0
 21
1304.999698
 31
0.0
  0
TEXT
  5
980
100
AcDbEntity
  8
紙巻器
  6
CONTINUOUS
 62
     2
100
AcDbText
 10
838.583636
 20
1373.876885
 30
0.0
 40
40.0
  1
ＮＣ７１ＶＪ
 41
0.805
  7
EXCADSTD
 72
     5
 11
1068.583635
 21
1373.876885
 31
0.0
100
AcDbText
  0
POLYLINE
  5
981
100
AcDbEntity
  8
紙巻器
  6
CONTINUOUS
 62
     6
100
AcDb2dPolyline
 66
     1
 10
0.0
 20
0.0
 30
0.0
 70
   128
  0
VERTEX
  5
982
100
AcDbEntity
  8
紙巻器
  6
CONTINUOUS
 62
     6
100
AcDbVertex
100
AcDb2dVertex
 10
1087.385187
 20
1333.971983
 30
0.0
  0
VERTEX
  5
983
100
AcDbEntity
  8
紙巻器
  6
CONTINUOUS
 62
     6
100
AcDbVertex
100
AcDb2dVertex
 10
1061.143187
 20
1368.915066
 30
0.0
  0
VERTEX
  5
984
100
AcDbEntity
  8
紙巻器
  6
CONTINUOUS
 62
     6
100
AcDbVertex
100
AcDb2dVertex
 10
842.0
 20
1368.915066
 30
0.0
  0
SEQEND
  5
985
100
AcDbEntity
  8
紙巻器
  6
CONTINUOUS
 62
     6
  0
LINE
  5
986
100
AcDbEntity
  8
紙巻器
  6
CONTINUOUS
 62
     6
100
AcDbLine
 10
1061.702968
 20
1358.455679
 30
0.0
 11
1087.385187
 21
1333.971983
 31
0.0
  0
LINE
  5
987
100
AcDbEntity
  8
紙巻器
  6
CONTINUOUS
 62
     6
100
AcDbLine
 10
1087.385187
 20
1333.971983
 30
0.0
 11
1071.031854
 21
1365.461604
 31
0.0
  0
LINE
  5
988
100
AcDbEntity
  8
寸法
  6
CONTINUOUS
 62
     3
100
AcDbLine
 10
333.0
 20
2037.632833
 30
0.0
 11
1123.0
 21
2037.632833
 31
0.0
  0
LINE
  5
989
100
AcDbEntity
  8
寸法
  6
CONTINUOUS
 62
     3
100
AcDbLine
 10
368.0
 20
2043.466167
 30
0.0
 11
333.0
 21
2037.632833
 31
0.0
  0
LINE
  5
98A
100
AcDbEntity
  8
寸法
  6
CONTINUOUS
 62
     3
100
AcDbLine
 10
333.0
 20
2037.632833
 30
0.0
 11
368.0
 21
2031.7995
 31
0.0
  0
LINE
  5
98B
100
AcDbEntity
  8
寸法
  6
CONTINUOUS
 62
     3
100
AcDbLine
 10
1088.0
 20
2031.7995
 30
0.0
 11
1123.0
 21
2037.632833
 31
0.0
  0
LINE
  5
98C
100
AcDbEntity
  8
寸法
  6
CONTINUOUS
 62
     3
100
AcDbLine
 10
1123.0
 20
2037.632833
 30
0.0
 11
1088.0
 21
2043.466167
 31
0.0
  0
TEXT
  5
98D
100
AcDbEntity
  8
寸法
  6
CONTINUOUS
 62
     2
100
AcDbText
 10
668.5
 20
2041.132833
 30
0.0
 40
40.0
  1
７９０
 41
0.833
  7
EXCADSTD
 72
     5
 11
787.5
 21
2041.132833
 31
0.0
100
AcDbText
  0
TEXT
  5
98E
100
AcDbEntity
  8
寸法
  6
CONTINUOUS
 62
     2
100
AcDbText
 10
234.500799
 20
740.99934
 30
0.0
 40
40.0
  1
３８５
 50
90.0
 41
0.833
  7
EXCADSTD
 72
     5
 11
234.500799
 21
859.99934
 31
0.0
100
AcDbText
  0
LINE
  5
98F
100
AcDbEntity
  8
寸法
  6
CONTINUOUS
 62
     3
100
AcDbLine
 10
238.000799
 20
608.0
 30
0.0
 11
238.000799
 21
992.99868
 31
0.0
  0
LINE
  5
990
100
AcDbEntity
  8
寸法
  6
CONTINUOUS
 62
     3
100
AcDbLine
 10
232.167466
 20
643.0
 30
0.0
 11
238.000799
 21
608.0
 31
0.0
  0
LINE
  5
991
100
AcDbEntity
  8
寸法
  6
CONTINUOUS
 62
     3
100
AcDbLine
 10
238.000799
 20
608.0
 30
0.0
 11
243.834132
 21
643.0
 31
0.0
  0
LINE
  5
992
100
AcDbEntity
  8
寸法
  6
CONTINUOUS
 62
     3
100
AcDbLine
 10
243.834132
 20
957.99868
 30
0.0
 11
238.000799
 21
992.99868
 31
0.0
  0
LINE
  5
993
100
AcDbEntity
  8
寸法
  6
CONTINUOUS
 62
     3
100
AcDbLine
 10
238.000799
 20
992.99868
 30
0.0
 11
232.167466
 21
957.99868
 31
0.0
  0
LINE
  5
994
100
AcDbEntity
  8
寸法
  6
CONTINUOUS
 62
     3
100
AcDbLine
 10
1212.5
 20
608.000004
 30
0.0
 11
1212.5
 21
1317.999698
 31
0.0
  0
LINE
  5
995
100
AcDbEntity
  8
寸法
  6
CONTINUOUS
 62
     3
100
AcDbLine
 10
1206.666667
 20
643.000004
 30
0.0
 11
1212.5
 21
608.000004
 31
0.0
  0
LINE
  5
996
100
AcDbEntity
  8
寸法
  6
CONTINUOUS
 62
     3
100
AcDbLine
 10
1212.5
 20
608.000004
 30
0.0
 11
1218.333334
 21
643.000004
 31
0.0
  0
LINE
  5
997
100
AcDbEntity
  8
寸法
  6
CONTINUOUS
 62
     3
100
AcDbLine
 10
1218.333334
 20
1282.999698
 30
0.0
 11
1212.5
 21
1317.999698
 31
0.0
  0
LINE
  5
998
100
AcDbEntity
  8
寸法
  6
CONTINUOUS
 62
     3
100
AcDbLine
 10
1212.5
 20
1317.999698
 30
0.0
 11
1206.666667
 21
1282.999698
 31
0.0
  0
TEXT
  5
999
100
AcDbEntity
  8
寸法
  6
CONTINUOUS
 62
     2
100
AcDbText
 10
1209.0
 20
866.499851
 30
0.0
 40
40.0
  1
（７１０）
 50
90.0
 41
0.8106
  7
EXCADSTD
 72
     5
 11
1209.0
 21
1059.499851
 31
0.0
100
AcDbText
  0
TEXT
  5
99A
100
AcDbEntity
  8
寸法
  6
CONTINUOUS
 62
     2
100
AcDbText
 10
656.499545
 20
1225.5
 30
0.0
 40
40.0
  1
（８４０）
 41
0.8106
  7
EXCADSTD
 72
     5
 11
849.499544
 21
1225.5
 31
0.0
100
AcDbText
  0
LINE
  5
99B
100
AcDbEntity
  8
寸法
  6
CONTINUOUS
 62
     3
100
AcDbLine
 10
332.999089
 20
1222.0
 30
0.0
 11
1173.0
 21
1222.0
 31
0.0
  0
LINE
  5
99C
100
AcDbEntity
  8
寸法
  6
CONTINUOUS
 62
     3
100
AcDbLine
 10
367.999089
 20
1227.833333
 30
0.0
 11
332.999089
 21
1222.0
 31
0.0
  0
LINE
  5
99D
100
AcDbEntity
  8
寸法
  6
CONTINUOUS
 62
     3
100
AcDbLine
 10
332.999089
 20
1222.0
 30
0.0
 11
367.999089
 21
1216.166667
 31
0.0
  0
LINE
  5
99E
100
AcDbEntity
  8
寸法
  6
CONTINUOUS
 62
     3
100
AcDbLine
 10
1138.0
 20
1216.166667
 30
0.0
 11
1173.0
 21
1222.0
 31
0.0
  0
LINE
  5
99F
100
AcDbEntity
  8
寸法
  6
CONTINUOUS
 62
     3
100
AcDbLine
 10
1173.0
 20
1222.0
 30
0.0
 11
1138.0
 21
1227.833333
 31
0.0
  0
DIMENSION
  5
9AB
100
AcDbEntity
  8
寸法
  6
CONTINUOUS
 62
     3
100
AcDbDimension
  2
*D21
 10
1712.99985
 20
516.171568
 30
0.0
 11
1623.0
 21
539.671568
 31
0.0
 70
   160
  1
180
  3
STANDARD
100
AcDbAlignedDimension
 13
1533.00015
 23
577.291621
 33
0.0
 14
1712.99985
 24
577.291621
 34
0.0
100
AcDbRotatedDimension
1001
ACAD
1000
DSTYLE
1002
{
1070
     6
1000
_EX_NORM
1070
     7
1000
_EX_NORM
1070
    41
1040
35.0
1070
    42
1040
3.291621
1070
    44
1040
20.0
1070
    73
1070
     0
1070
    74
1070
     0
1070
    75
1070
     0
1070
    76
1070
     0
1070
    77
1070
     1
1070
    78
1070
     0
1070
   140
1040
40.0
1070
   147
1040
3.5
1070
   173
1070
     1
1070
   176
1070
     3
1070
   177
1070
     3
1070
   178
1070
     2
1070
   271
1070
     0
1070
   279
1070
     2
1070
   280
1070
     0
1070
   287
1070
     5
1070
   340
1005
FC
1002
}
  0
LINE
  5
9AC
100
AcDbEntity
  8
寸法
  6
CONTINUOUS
 62
     3
100
AcDbLine
 10
326.0
 20
608.0
 30
0.0
 11
218.000799
 21
608.0
 31
0.0
  0
DIMENSION
  5
9B7
100
AcDbEntity
  8
寸法
  6
CONTINUOUS
 62
     3
100
AcDbDimension
  2
*D22
 10
238.000799
 20
1483.000962
 30
0.0
 11
214.500799
 21
1237.999821
 31
0.0
 70
   160
  3
STANDARD
100
AcDbAlignedDimension
 13
238.000799
 23
992.99868
 33
0.0
 14
355.147779
 24
1483.000962
 34
0.0
 50
90.0
100
AcDbRotatedDimension
1001
ACAD
1000
DSTYLE
1002
{
1070
     6
1000
_EX_NORM
1070
     7
1000
_EX_NORM
1070
    41
1040
35.0
1070
    42
1040
7.0
1070
    44
1040
20.0
1070
    73
1070
     0
1070
    74
1070
     0
1070
    75
1070
     1
1070
    76
1070
     0
1070
    77
1070
     1
1070
    78
1070
     0
1070
   140
1040
40.0
1070
   147
1040
3.5
1070
   173
1070
     1
1070
   176
1070
     3
1070
   177
1070
     3
1070
   178
1070
     2
1070
   271
1070
     0
1070
   279
1070
     2
1070
   280
1070
     0
1070
   287
1070
     5
1070
   340
1005
FC
1002
}
  0
DIMENSION
  5
9C2
100
AcDbEntity
  8
寸法
  6
CONTINUOUS
 62
     3
100
AcDbDimension
  2
*D23
 10
1123.0
 20
2097.632833
 30
0.0
 11
735.5
 21
2121.132833
 31
0.0
 70
   160
  3
STANDARD
100
AcDbAlignedDimension
 13
348.0
 23
2437.000004
 33
0.0
 14
1123.0
 24
2114.632833
 34
0.0
100
AcDbRotatedDimension
1001
ACAD
1000
DSTYLE
1002
{
1070
     6
1000
_EX_NORM
1070
     7
1000
_EX_NORM
1070
    41
1040
35.0
1070
    42
1040
7.0
1070
    44
1040
20.0
1070
    73
1070
     0
1070
    74
1070
     0
1070
    75
1070
     0
1070
    76
1070
     1
1070
    77
1070
     1
1070
    78
1070
     0
1070
   140
1040
40.0
1070
   147
1040
3.5
1070
   173
1070
     1
1070
   176
1070
     3
1070
   177
1070
     3
1070
   178
1070
     2
1070
   271
1070
     0
1070
   279
1070
     2
1070
   280
1070
     0
1070
   287
1070
     5
1070
   340
1005
FC
1002
}
  0
DIMENSION
  5
9CE
100
AcDbEntity
  8
寸法
  6
CONTINUOUS
 62
     3
100
AcDbDimension
  2
*D24
 10
264.000743
 20
2137.000004
 30
0.0
 11
240.500743
 21
2287.000004
 31
0.0
 70
   160
  3
STANDARD
100
AcDbAlignedDimension
 13
333.0
 23
2437.000004
 33
0.0
 14
433.000944
 24
2137.000004
 34
0.0
 50
90.0
100
AcDbRotatedDimension
1001
ACAD
1000
DSTYLE
1002
{
1070
     6
1000
_EX_NORM
1070
     7
1000
_EX_NORM
1070
    41
1040
35.0
1070
    42
1040
0.0
1070
    44
1040
20.0
1070
    73
1070
     0
1070
    74
1070
     0
1070
    75
1070
     0
1070
    76
1070
     0
1070
    77
1070
     1
1070
    78
1070
     0
1070
   140
1040
40.0
1070
   147
1040
3.5
1070
   173
1070
     1
1070
   176
1070
     3
1070
   177
1070
     3
1070
   178
1070
     2
1070
   271
1070
     0
1070
   279
1070
     2
1070
   280
1070
     0
1070
   287
1070
     5
1070
   340
1005
FC
1002
}
  0
DIMENSION
  5
9D9
100
AcDbEntity
  8
寸法
  6
CONTINUOUS
 62
     2
100
AcDbDimension
  2
*D25
 10
290.000687
 20
608.0
 30
0.0
 11
266.500687
 21
764.975002
 31
0.0
 70
   160
  1
300（壁給水）
  3
STANDARD
100
AcDbAlignedDimension
 13
324.84
 23
907.950004
 33
0.0
 14
290.000687
 24
608.0
 34
0.0
 50
90.0
100
AcDbRotatedDimension
1001
ACAD
1000
DSTYLE
1002
{
1070
     6
1000
_EX_NORM
1070
     7
1000
_EX_NORM
1070
    41
1040
35.0
1070
    42
1040
7.0
1070
    44
1040
20.0
1070
    73
1070
     0
1070
    74
1070
     0
1070
    75
1070
     0
1070
    76
1070
     1
1070
    77
1070
     1
1070
    78
1070
     0
1070
   140
1040
40.0
1070
   147
1040
3.5
1070
   173
1070
     1
1070
   176
1070
     3
1070
   177
1070
     3
1070
   178
1070
     2
1070
   271
1070
     0
1070
   279
1070
     2
1070
   280
1070
     0
1070
   287
1070
     5
1070
   340
1005
E7
1002
}
  0
DIMENSION
  5
9E3
100
AcDbEntity
  8
寸法
  6
CONTINUOUS
 62
     3
100
AcDbDimension
  2
*D26
 10
433.0
 20
662.0
 30
0.0
 11
383.0
 21
685.5
 31
0.0
 70
   160
  3
STANDARD
100
AcDbAlignedDimension
 13
333.0
 23
608.000004
 33
0.0
 14
433.0
 24
642.118873
 34
0.0
100
AcDbRotatedDimension
1001
ACAD
1000
DSTYLE
1002
{
1070
     6
1000
_EX_NORM
1070
     7
1000
_EX_NORM
1070
    41
1040
30.0
1070
    42
1040
0.0
1070
    44
1040
0.0
1070
    73
1070
     0
1070
    74
1070
     0
1070
    75
1070
     1
1070
    76
1070
     1
1070
    77
1070
     1
1070
    78
1070
     0
1070
   140
1040
40.0
1070
   147
1040
3.5
1070
   173
1070
     1
1070
   176
1070
     3
1070
   177
1070
     3
1070
   178
1070
     2
1070
   271
1070
     0
1070
   279
1070
     2
1070
   280
1070
     0
1070
   287
1070
     5
1070
   340
1005
E7
1002
}
  0
TEXT
  5
9E4
100
AcDbEntity
  8
器具明細表
  6
CONTINUOUS
 62
     2
100
AcDbText
 10
1362.0
 20
2713.0
 30
0.0
 40
48.0
  1
品番
 41
1.75
  7
EXCADSTD
 72
     5
 11
1545.32
 21
2713.0
 31
0.0
100
AcDbText
  0
TEXT
  5
9E5
100
AcDbEntity
  8
器具明細表
  6
CONTINUOUS
 62
     2
100
AcDbText
 10
1912.549241
 20
2661.315994
 30
0.0
 40
45.0
  1
１
 41
0.84
  7
EXCADSTD
 72
     5
 11
1948.549241
 21
2661.315994
 31
0.0
100
AcDbText
  0
TEXT
  5
9E6
100
AcDbEntity
  8
器具明細表
  6
CONTINUOUS
 62
     2
100
AcDbText
 10
1912.549241
 20
2609.315994
 30
0.0
 40
45.0
  1
１
 41
0.84
  7
EXCADSTD
 72
     5
 11
1948.549241
 21
2609.315994
 31
0.0
100
AcDbText
  0
TEXT
  5
9E7
100
AcDbEntity
  8
器具明細表
  6
CONTINUOUS
 62
     2
100
AcDbText
 10
1912.549241
 20
2557.315994
 30
0.0
 40
45.0
  1
１
 41
0.84
  7
EXCADSTD
 72
     5
 11
1948.549241
 21
2557.315994
 31
0.0
100
AcDbText
  0
TEXT
  5
9E8
100
AcDbEntity
  8
器具明細表
  6
CONTINUOUS
 62
     2
100
AcDbText
 10
1912.549241
 20
2505.315994
 30
0.0
 40
45.0
  1
１
 41
0.84
  7
EXCADSTD
 72
     5
 11
1948.549241
 21
2505.315994
 31
0.0
100
AcDbText
  0
TEXT
  5
9E9
100
AcDbEntity
  8
器具明細表
  6
CONTINUOUS
 62
     2
100
AcDbText
 10
1658.0
 20
2713.0
 30
0.0
 40
48.0
  1
品名
 41
1.575
  7
EXCADSTD
 72
     5
 11
1822.988
 21
2713.0
 31
0.0
100
AcDbText
  0
TEXT
  5
9EA
100
AcDbEntity
  8
器具明細表
  6
CONTINUOUS
 62
     2
100
AcDbText
 10
1889.5
 20
2713.0
 30
0.0
 40
48.0
  1
個数
 41
0.76125
  7
EXCADSTD
 72
     5
 11
1969.2442
 21
2713.0
 31
0.0
100
AcDbText
  0
TEXT
  5
9EB
100
AcDbEntity
  8
器具明細表
  6
CONTINUOUS
 62
     2
100
AcDbText
 10
1611.0
 20
2559.5
 30
0.0
 40
43.0
  1
ワンタッチ式紙巻器
 41
0.607752
  7
EXCADSTD
 72
     5
 11
1891.0
 21
2559.5
 31
0.0
100
AcDbText
  0
TEXT
  5
9EC
100
AcDbEntity
  8
器具明細表
  6
CONTINUOUS
 62
     2
100
AcDbText
 10
1611.0
 20
2608.0
 30
0.0
 40
50.0
  1
タンクセット
 41
0.5824
  7
EXCADSTD
 72
     5
 11
1819.000011
 21
2608.0
 31
0.0
100
AcDbText
  0
TEXT
  5
9ED
100
AcDbEntity
  8
器具明細表
  6
CONTINUOUS
 62
     2
100
AcDbText
 10
1611.0
 20
2660.0
 30
0.0
 40
50.0
  1
便器セット
 41
0.588
  7
EXCADSTD
 72
     5
 11
1786.00001
 21
2660.0
 31
0.0
100
AcDbText
  0
LINE
  5
9EE
100
AcDbEntity
  8
器具明細表
  6
CONTINUOUS
 62
     6
100
AcDbLine
 10
1297.0
 20
2763.0
 30
0.0
 11
1978.0
 21
2763.0
 31
0.0
  0
LINE
  5
9EF
100
AcDbEntity
  8
器具明細表
  6
CONTINUOUS
 62
     6
100
AcDbLine
 10
1297.0
 20
2711.0
 30
0.0
 11
1978.0
 21
2711.0
 31
0.0
  0
LINE
  5
9F0
100
AcDbEntity
  8
器具明細表
  6
CONTINUOUS
 62
     6
100
AcDbLine
 10
1297.0
 20
2659.0
 30
0.0
 11
1978.0
 21
2659.0
 31
0.0
  0
LINE
  5
9F1
100
AcDbEntity
  8
器具明細表
  6
CONTINUOUS
 62
     6
100
AcDbLine
 10
1297.0
 20
2555.0
 30
0.0
 11
1978.0
 21
2555.0
 31
0.0
  0
LINE
  5
9F2
100
AcDbEntity
  8
器具明細表
  6
CONTINUOUS
 62
     6
100
AcDbLine
 10
1297.0
 20
2607.0
 30
0.0
 11
1978.0
 21
2607.0
 31
0.0
  0
LINE
  5
9F3
100
AcDbEntity
  8
器具明細表
  6
CONTINUOUS
 62
     6
100
AcDbLine
 10
1297.0
 20
2503.0
 30
0.0
 11
1978.0
 21
2503.0
 31
0.0
  0
LINE
  5
9F4
100
AcDbEntity
  8
器具明細表
  6
CONTINUOUS
 62
     6
100
AcDbLine
 10
1297.0
 20
2763.0
 30
0.0
 11
1297.0
 21
2503.0
 31
0.0
  0
LINE
  5
9F5
100
AcDbEntity
  8
器具明細表
  6
CONTINUOUS
 62
     6
100
AcDbLine
 10
1608.0
 20
2503.0
 30
0.0
 11
1608.0
 21
2763.0
 31
0.0
  0
LINE
  5
9F6
100
AcDbEntity
  8
器具明細表
  6
CONTINUOUS
 62
     6
100
AcDbLine
 10
1888.0
 20
2763.0
 30
0.0
 11
1888.0
 21
2503.0
 31
0.0
  0
LINE
  5
9F7
100
AcDbEntity
  8
器具明細表
  6
CONTINUOUS
 62
     6
100
AcDbLine
 10
1978.0
 20
2503.0
 30
0.0
 11
1978.0
 21
2763.0
 31
0.0
  0
TEXT
  5
9F8
100
AcDbEntity
  8
器具明細表
  6
CONTINUOUS
 62
     2
100
AcDbText
 10
1317.0
 20
2766.0
 30
0.0
 40
50.0
  1
器具明細
 41
1.8144
  7
EXCADSTD
 72
     5
 11
1749.000008
 21
2766.0
 31
0.0
100
AcDbText
  0
TEXT
  5
9F9
100
AcDbEntity
  8
器具明細表
  6
CONTINUOUS
 62
     2
100
AcDbText
 10
1297.0
 20
2663.5
 30
0.0
 40
43.0
  1
ＳＣ８１Ｐ－ＡＴ（ＢＴ）
 41
0.524186
  7
EXCADSTD
 72
     5
 11
1618.999989
 21
2663.5
 31
0.0
100
AcDbText
  0
TEXT
  5
9FA
100
AcDbEntity
  8
器具明細表
  6
CONTINUOUS
 62
     2
100
AcDbText
 10
1611.0
 20
2507.5
 30
0.0
 40
43.0
  1
前丸便座
 41
0.693488
  7
EXCADSTD
 72
     5
 11
1753.000008
 21
2507.5
 31
0.0
100
AcDbText
  0
TEXT
  5
9FB
100
AcDbEntity
  8
器具明細表
  6
CONTINUOUS
 62
     2
100
AcDbText
 10
1290.30001
 20
2449.477127
 30
0.0
 40
40.0
  1
・排水接続管・接続パッキンは別途
 41
0.6825
  7
EXCADSTD
 72
     5
 11
1810.300008
 21
2449.477127
 31
0.0
100
AcDbText
  0
TEXT
  5
9FC
100
AcDbEntity
  8
器具明細表
  6
CONTINUOUS
 62
     2
100
AcDbText
 10
1297.0
 20
2507.5
 30
0.0
 40
43.0
  1
ＮＣ８２２Ｗ
 41
0.716279
  7
EXCADSTD
 72
     5
 11
1517.0
 21
2507.5
 31
0.0
100
AcDbText
  0
TEXT
  5
9FD
100
AcDbEntity
  8
器具明細表
  6
CONTINUOUS
 62
     2
100
AcDbText
 10
1297.0
 20
2559.5
 30
0.0
 40
43.0
  1
ＮＣ７１ＶＪ
 41
0.716279
  7
EXCADSTD
 72
     5
 11
1517.0
 21
2559.5
 31
0.0
100
AcDbText
  0
TEXT
  5
9FE
100
AcDbEntity
  8
器具明細表
  6
CONTINUOUS
 62
     2
100
AcDbText
 10
1297.0
 20
2611.5
 30
0.0
 40
43.0
  1
ＳＴ７８ＦＵ－１ＡＥ０Ｄ
 41
0.504651
  7
EXCADSTD
 72
     5
 11
1607.0
 21
2611.5
 31
0.0
100
AcDbText
  0
ENDSEC
  0
SECTION
  2
OBJECTS
  0
DICTIONARY
  5
19
100
AcDbDictionary
  3
ACAD_GROUP
350
1A
  3
ACAD_MLINESTYLE
350
1B
  0
DICTIONARY
  5
1A
102
{ACAD_REACTORS
330
19
102
}
100
AcDbDictionary
  0
DICTIONARY
  5
1B
102
{ACAD_REACTORS
330
19
102
}
100
AcDbDictionary
  3
STANDARD
350
1C
  0
MLINESTYLE
  5
1C
102
{ACAD_REACTORS
330
1B
102
}
100
AcDbMlineStyle
  2
Standard
 70
     0
  3

 62
     0
 51
90.0
 52
90.0
 71
     2
 49
0.5
 62
   256
  6
ByLayer
 49
-0.5
 62
   256
  6
ByLayer
  0
ENDSEC
  0
EOF
