  0
SECTION
  2
HEADER
  9
$ACADVER
  1
AC1014
  9
$ACADMAINTVER
 70
     0
  9
$DWGCODEPAGE
  3
ANSI_932
  9
$INSBASE
 10
0.0
 20
0.0
 30
0.0
  9
$EXTMIN
 10
1.0
 20
10.5
 30
0.0
  9
$EXTMAX
 10
201.0
 20
290.5
 30
0.0
  9
$LIMMIN
 10
0.0
 20
0.0
  9
$LIMMAX
 10
210.0
 20
297.0
  9
$ORTHOMODE
 70
     0
  9
$REGENMODE
 70
     1
  9
$FILLMODE
 70
     1
  9
$QTEXTMODE
 70
     0
  9
$MIRRTEXT
 70
     1
  9
$DRAGMODE
 70
     2
  9
$LTSCALE
 40
1.0
  9
$OSMODE
 70
     0
  9
$ATTMODE
 70
     1
  9
$TEXTSIZE
 40
0.2
  9
$TRACEWID
 40
0.05
  9
$TEXTSTYLE
  7
STANDARD
  9
$CLAYER
  8
便器
  9
$CELTYPE
  6
CONTINUOUS
  9
$CECOLOR
 62
   256
  9
$CELTSCALE
 40
1.0
  9
$DELOBJ
 70
     1
  9
$DISPSILH
 70
     0
  9
$DIMSCALE
 40
1.0
  9
$DIMASZ
 40
0.18
  9
$DIMEXO
 40
0.0625
  9
$DIMDLI
 40
0.38
  9
$DIMRND
 40
0.0
  9
$DIMDLE
 40
0.0
  9
$DIMEXE
 40
0.18
  9
$DIMTP
 40
0.0
  9
$DIMTM
 40
0.0
  9
$DIMTXT
 40
0.18
  9
$DIMCEN
 40
0.09
  9
$DIMTSZ
 40
0.0
  9
$DIMTOL
 70
     0
  9
$DIMLIM
 70
     0
  9
$DIMTIH
 70
     1
  9
$DIMTOH
 70
     1
  9
$DIMSE1
 70
     0
  9
$DIMSE2
 70
     0
  9
$DIMTAD
 70
     0
  9
$DIMZIN
 70
     0
  9
$DIMBLK
  1

  9
$DIMASO
 70
     1
  9
$DIMSHO
 70
     1
  9
$DIMPOST
  1

  9
$DIMAPOST
  1

  9
$DIMALT
 70
     0
  9
$DIMALTD
 70
     2
  9
$DIMALTF
 40
25.4
  9
$DIMLFAC
 40
1.0
  9
$DIMTOFL
 70
     0
  9
$DIMTVP
 40
0.0
  9
$DIMTIX
 70
     0
  9
$DIMSOXD
 70
     0
  9
$DIMSAH
 70
     0
  9
$DIMBLK1
  1

  9
$DIMBLK2
  1

  9
$DIMSTYLE
  2
STANDARD
  9
$DIMCLRD
 70
     0
  9
$DIMCLRE
 70
     0
  9
$DIMCLRT
 70
     0
  9
$DIMTFAC
 40
1.0
  9
$DIMGAP
 40
0.09
  9
$DIMJUST
 70
     0
  9
$DIMSD1
 70
     0
  9
$DIMSD2
 70
     0
  9
$DIMTOLJ
 70
     1
  9
$DIMTZIN
 70
     0
  9
$DIMALTZ
 70
     0
  9
$DIMALTTZ
 70
     0
  9
$DIMFIT
 70
     3
  9
$DIMUPT
 70
     0
  9
$DIMUNIT
 70
     2
  9
$DIMDEC
 70
     4
  9
$DIMTDEC
 70
     4
  9
$DIMALTU
 70
     2
  9
$DIMALTTD
 70
     2
  9
$DIMTXSTY
  7
STANDARD
  9
$DIMAUNIT
 70
     0
  9
$LUNITS
 70
     2
  9
$LUPREC
 70
     4
  9
$SKETCHINC
 40
0.1
  9
$FILLETRAD
 40
0.0
  9
$AUNITS
 70
     0
  9
$AUPREC
 70
     0
  9
$MENU
  1
acad
  9
$ELEVATION
 40
0.0
  9
$PELEVATION
 40
0.0
  9
$THICKNESS
 40
0.0
  9
$LIMCHECK
 70
     0
  9
$BLIPMODE
 70
     1
  9
$CHAMFERA
 40
0.0
  9
$CHAMFERB
 40
0.0
  9
$CHAMFERC
 40
0.0
  9
$CHAMFERD
 40
0.0
  9
$SKPOLY
 70
     0
  9
$TDCREATE
 40
2455326.744369734
  9
$TDUPDATE
 40
2455326.744369734
  9
$TDINDWG
 40
0.0000000000
  9
$TDUSRTIMER
 40
0.0000000000
  9
$USRTIMER
 70
     1
  9
$ANGBASE
 50
0.0
  9
$ANGDIR
 70
     0
  9
$PDMODE
 70
     0
  9
$PDSIZE
 40
0.0
  9
$PLINEWID
 40
0.0
  9
$COORDS
 70
     1
  9
$SPLFRAME
 70
     0
  9
$SPLINETYPE
 70
     6
  9
$SPLINESEGS
 70
     8
  9
$ATTDIA
 70
     0
  9
$ATTREQ
 70
     1
  9
$HANDLING
 70
     1
  9
$HANDSEED
  5
962
  9
$SURFTAB1
 70
     6
  9
$SURFTAB2
 70
     6
  9
$SURFTYPE
 70
     6
  9
$SURFU
 70
     6
  9
$SURFV
 70
     6
  9
$UCSNAME
  2

  9
$UCSORG
 10
0.0
 20
0.0
 30
0.0
  9
$UCSXDIR
 10
1.0
 20
0.0
 30
0.0
  9
$UCSYDIR
 10
0.0
 20
1.0
 30
0.0
  9
$PUCSNAME
  2

  9
$PUCSORG
 10
0.0
 20
0.0
 30
0.0
  9
$PUCSXDIR
 10
1.0
 20
0.0
 30
0.0
  9
$PUCSYDIR
 10
0.0
 20
1.0
 30
0.0
  9
$USERI1
 70
     0
  9
$USERI2
 70
     0
  9
$USERI3
 70
     0
  9
$USERI4
 70
     0
  9
$USERI5
 70
     0
  9
$USERR1
 40
0.0
  9
$USERR2
 40
0.0
  9
$USERR3
 40
0.0
  9
$USERR4
 40
0.0
  9
$USERR5
 40
0.0
  9
$WORLDVIEW
 70
     1
  9
$SHADEDGE
 70
     3
  9
$SHADEDIF
 70
    70
  9
$TILEMODE
 70
     1
  9
$MAXACTVP
 70
    16
  9
$PINSBASE
 10
0.0
 20
0.0
 30
0.0
  9
$PLIMCHECK
 70
     0
  9
$PEXTMIN
 10
1.000000E+20
 20
1.000000E+20
 30
1.000000E+20
  9
$PEXTMAX
 10
-1.000000E+20
 20
-1.000000E+20
 30
-1.000000E+20
  9
$PLIMMIN
 10
0.0
 20
0.0
  9
$PLIMMAX
 10
12.0
 20
9.0
  9
$UNITMODE
 70
     0
  9
$VISRETAIN
 70
     0
  9
$PLINEGEN
 70
     1
  9
$PSLTSCALE
 70
     0
  9
$TREEDEPTH
 70
  3020
  9
$PICKSTYLE
 70
     1
  9
$CMLSTYLE
  2
Standard
  9
$CMLJUST
 70
     0
  9
$CMLSCALE
 40
1.0
  9
$PROXYGRAPHICS
 70
     0
  9
$MEASUREMENT
 70
     0
  0
ENDSEC
  0
SECTION
  2
CLASSES
  0
CLASS
  1
LWPOLYLINE
  2
AcDbPolyline
  3
"AutoCAD"
 90
        0
280
     0
281
     1
  0
CLASS
  1
IMAGE
  2
AcDbRasterImage
  3
ISM
 90
      127
280
     0
281
     1
  0
CLASS
  1
OLE2FRAME
  2
AcDbOle2Frame
  3
""
 90
        0
280
     0
281
     1
  0
CLASS
  1
HATCH
  2
AcDbHatch
  3
"ACAD_SEDONA"
 90
        0
280
     0
281
     1
  0
CLASS
  1
DICTIONARYVAR
  2
AcDbDictionaryVar
  3
"AutoCAD"
 90
        0
280
     0
281
     0
  0
CLASS
  1
RASTERVARIABLES
  2
AcDbRasterVariables
  3
ISM
 90
        0
280
     0
281
     0
  0
CLASS
  1
IMAGEDEF
  2
AcDbRasterImageDef
  3
ISM
 90
        0
280
     0
281
     0
  0
CLASS
  1
IMAGEDEF_REACTOR
  2
AcDbRasterImageDefReactor
  3
ISM
 90
        1
280
     0
281
     0
  0
CLASS
  1
IDBUFFER
  2
AcDbIdBuffer
  3
"Acad"
 90
        0
280
     0
281
     0
  0
CLASS
  1
SPATIAL_FILTER
  2
AcDbSpatialFilter
  3
"Acad"
 90
        0
280
     0
281
     0
  0
CLASS
  1
XRECORD
  2
AcDbXrecord
  3
"<Built In>"
 90
        0
280
     0
281
     0
  0
CLASS
  1
SORTENTSTABLE
  2
AcDbSortentsTable
  3
"AutoCAD"
 90
        0
280
     0
281
     0
  0
CLASS
  1
LAYER_INDEX
  2
AcDbLayerIndex
  3
"Acad"
 90
        0
280
     0
281
     0
  0
CLASS
  1
SPATIAL_INDEX
  2
AcDbSpatialIndex
  3
"Acad"
 90
        0
280
     0
281
     0
  0
CLASS
  1
OBJECT_PTR
  2
CAseDLPNTableRecord
  3
"ASE-LPNTableRecord"
 90
        1
280
     0
281
     0
  0
CLASS
  1
LAYOUT
  2
AcDbLayout
  3
"AutoCAD 2000"
 90
        1
280
     0
281
     0
  0
CLASS
  1
PLOTSETTINGS
  2
AcDbPlotSettings
  3
"AutoCAD 2000"
 90
        1
280
     0
281
     0
  0
CLASS
  1
ACDBDICTIONARYWDFLT
  2
AcDbDictionaryWithDefault
  3
"AutoCAD 2000"
 90
        1
280
     0
281
     0
  0
CLASS
  1
ACDBPLACEHOLDER
  2
AcDbPlaceHolder
  3
"AutoCAD 2000"
 90
        1
280
     0
281
     0
  0
CLASS
  1
VBA_PROJECT
  2
AcDbVbaProject
  3
"acadvba"
 90
        1
280
     0
281
     0
  0
CLASS
  1
WIPEOUT
  2
AcDbWipeout
  3
WipeOut|AutoCAD Express Tool|expresstools@autodesk.com
 90
      127
280
     0
281
     1
  0
CLASS
  1
WIPEOUTVARIABLES
  2
AcDbWipeoutVariables
  3
WipeOut|AutoCAD Express Tool|expresstools@autodesk.com
 90
        0
280
     0
281
     0
  0
CLASS
  1
RTEXT
  2
RText
  3
RText|AutoCAD Express Tool|expresstools@autodesk.com
 90
        0
280
     0
281
     1
  0
CLASS
  1
ARCALIGNEDTEXT
  2
AcDbArcAlignedText
  3
ATEXT|AutoCAD Express Tool|expresstools@autodesk.com
 90
        0
280
     0
281
     1
  0
ENDSEC
  0
SECTION
  2
TABLES
  0
TABLE
  2
VPORT
  5
7
100
AcDbSymbolTable
 70
     1
  0
VPORT
  5
15
100
AcDbSymbolTableRecord
100
AcDbViewportTableRecord
  2
*ACTIVE
 70
     0
 10
0.0
 20
0.0
 11
1.0
 21
1.0
 12
1010.0
 22
1505.0
 13
0.0
 23
0.0
 14
1.0
 24
1.0
 15
0.0
 25
0.0
 16
0.0
 26
0.0
 36
1.0
 17
0.0
 27
0.0
 37
0.0
 40
2800.0
 41
1.722533
 42
50.0
 43
0.0
 44
0.0
 50
0.0
 51
0.0
 71
     0
 72
   100
 73
     1
 74
     1
 75
     0
 76
     0
 77
     0
 78
     0
  0
ENDTAB
  0
TABLE
  2
LTYPE
  5
4
100
AcDbSymbolTable
 70
    14
  0
LTYPE
  5
11
100
AcDbSymbolTableRecord
100
AcDbLinetypeTableRecord
  2
BYBLOCK
 70
    64
  3

 72
    65
 73
     0
 40
0.0
  0
LTYPE
  5
12
100
AcDbSymbolTableRecord
100
AcDbLinetypeTableRecord
  2
BYLAYER
 70
    64
  3

 72
    65
 73
     0
 40
0.0
  0
LTYPE
  5
13
100
AcDbSymbolTableRecord
100
AcDbLinetypeTableRecord
  2
CONTINUOUS
 70
    64
  3
実線
 72
    65
 73
     0
 40
0.0
  0
LTYPE
  5
1D
100
AcDbSymbolTableRecord
100
AcDbLinetypeTableRecord
  2
EXLTYPE1
 70
    64
  3
破線
 72
    65
 73
     2
 40
3.0
 49
2.0
 74
     0
 49
-1.0
 74
     0
  0
LTYPE
  5
1E
100
AcDbSymbolTableRecord
100
AcDbLinetypeTableRecord
  2
EXLTYPE2
 70
    64
  3
点線
 72
    65
 73
     2
 40
2.0
 49
1.0
 74
     0
 49
-1.0
 74
     0
  0
LTYPE
  5
1F
100
AcDbSymbolTableRecord
100
AcDbLinetypeTableRecord
  2
EXLTYPE3
 70
    64
  3
一点鎖線
 72
    65
 73
     4
 40
10.0
 49
7.0
 74
     0
 49
-1.0
 74
     0
 49
1.0
 74
     0
 49
-1.0
 74
     0
  0
LTYPE
  5
20
100
AcDbSymbolTableRecord
100
AcDbLinetypeTableRecord
  2
EXLTYPE4
 70
    64
  3
二点鎖線
 72
    65
 73
     6
 40
12.0
 49
7.0
 74
     0
 49
-1.0
 74
     0
 49
1.0
 74
     0
 49
-1.0
 74
     0
 49
1.0
 74
     0
 49
-1.0
 74
     0
  0
LTYPE
  5
21
100
AcDbSymbolTableRecord
100
AcDbLinetypeTableRecord
  2
EXLTYPE5
 70
    64
  3
三点鎖線
 72
    65
 73
     8
 40
37.0
 49
30.0
 74
     0
 49
-1.0
 74
     0
 49
1.0
 74
     0
 49
-1.0
 74
     0
 49
1.0
 74
     0
 49
-1.0
 74
     0
 49
1.0
 74
     0
 49
-1.0
 74
     0
  0
LTYPE
  5
22
100
AcDbSymbolTableRecord
100
AcDbLinetypeTableRecord
  2
EXLTYPE6
 70
    64
  3
四点鎖線
 72
    65
 73
    10
 40
39.0
 49
30.0
 74
     0
 49
-1.0
 74
     0
 49
1.0
 74
     0
 49
-1.0
 74
     0
 49
1.0
 74
     0
 49
-1.0
 74
     0
 49
1.0
 74
     0
 49
-1.0
 74
     0
 49
1.0
 74
     0
 49
-1.0
 74
     0
  0
LTYPE
  5
23
100
AcDbSymbolTableRecord
100
AcDbLinetypeTableRecord
  2
EXLTYPE7
 70
    64
  3
二点鎖線3
 72
    65
 73
     6
 40
1.25
 49
0.625
 74
     0
 49
-0.125
 74
     0
 49
0.125
 74
     0
 49
-0.125
 74
     0
 49
0.125
 74
     0
 49
-0.125
 74
     0
  0
LTYPE
  5
24
100
AcDbSymbolTableRecord
100
AcDbLinetypeTableRecord
  2
EXLTYPE8
 70
    64
  3
破線3
 72
    65
 73
     2
 40
0.375
 49
0.25
 74
     0
 49
-0.125
 74
     0
  0
LTYPE
  5
25
100
AcDbSymbolTableRecord
100
AcDbLinetypeTableRecord
  2
EXLTYPE9
 70
    64
  3
破線2
 72
    65
 73
     2
 40
2.0
 49
1.0
 74
     0
 49
-1.0
 74
     0
  0
LTYPE
  5
26
100
AcDbSymbolTableRecord
100
AcDbLinetypeTableRecord
  2
EXLTYPE10
 70
    64
  3
一点鎖線3
 72
    65
 73
     4
 40
28.575
 49
19.05
 74
     0
 49
-3.175
 74
     0
 49
3.175
 74
     0
 49
-3.175
 74
     0
  0
LTYPE
  5
27
100
AcDbSymbolTableRecord
100
AcDbLinetypeTableRecord
  2
EXLTYPE11
 70
    64
  3
一点鎖線2
 72
    65
 73
     4
 40
1.25
 49
0.5
 74
     0
 49
-0.25
 74
     0
 49
0.25
 74
     0
 49
-0.25
 74
     0
  0
ENDTAB
  0
TABLE
  2
LAYER
  5
2
100
AcDbSymbolTable
 70
     9
  0
LAYER
  5
14
100
AcDbSymbolTableRecord
100
AcDbLayerTableRecord
  2
0
 70
     0
 62
     7
  6
CONTINUOUS
  0
LAYER
  5
2A
100
AcDbSymbolTableRecord
100
AcDbLayerTableRecord
  2
枠
 70
    64
 62
     7
  6
CONTINUOUS
  0
LAYER
  5
2B
100
AcDbSymbolTableRecord
100
AcDbLayerTableRecord
  2
便器
 70
    64
 62
     7
  6
CONTINUOUS
  0
LAYER
  5
2C
100
AcDbSymbolTableRecord
100
AcDbLayerTableRecord
  2
タンク
 70
    64
 62
     7
  6
CONTINUOUS
  0
LAYER
  5
2D
100
AcDbSymbolTableRecord
100
AcDbLayerTableRecord
  2
止水栓
 70
    64
 62
     7
  6
CONTINUOUS
  0
LAYER
  5
2E
100
AcDbSymbolTableRecord
100
AcDbLayerTableRecord
  2
便座
 70
    64
 62
     7
  6
CONTINUOUS
  0
LAYER
  5
2F
100
AcDbSymbolTableRecord
100
AcDbLayerTableRecord
  2
紙巻器
 70
    64
 62
     7
  6
CONTINUOUS
  0
LAYER
  5
30
100
AcDbSymbolTableRecord
100
AcDbLayerTableRecord
  2
寸法
 70
    64
 62
     7
  6
CONTINUOUS
  0
LAYER
  5
31
100
AcDbSymbolTableRecord
100
AcDbLayerTableRecord
  2
器具明細表
 70
    64
 62
     7
  6
CONTINUOUS
  0
ENDTAB
  0
TABLE
  2
STYLE
  5
3
100
AcDbSymbolTable
 70
     6
  0
STYLE
  5
17
100
AcDbSymbolTableRecord
100
AcDbTextStyleTableRecord
  2
STANDARD
 70
     0
 40
0.0
 41
1.0
 50
0.0
 71
     0
 42
0.0
  3
monotxt
  4
extfont
  0
STYLE
  5
28
100
AcDbSymbolTableRecord
100
AcDbTextStyleTableRecord
  2
EXCADSTD
 70
    64
 40
0.0
 41
1.0
 50
0.0
 71
     0
 42
0.2
  3
monotxt
  4
extfont
  0
STYLE
  5
29
100
AcDbSymbolTableRecord
100
AcDbTextStyleTableRecord
  2
EXCADVERT
 70
    68
 40
0.0
 41
1.0
 50
0.0
 71
     0
 42
0.286885
  3
monotxt
  4
extfont
  0
STYLE
  5
B7
100
AcDbSymbolTableRecord
100
AcDbTextStyleTableRecord
  2
EXCADTTF1
 70
    64
 40
0.0
 41
1.0
 50
0.0
 71
     0
 42
0.2
  3
MS Gothic.ttf
  4

1001
ACAD
1000
MS Gothic
1071
    32817
  0
STYLE
  5
CD
100
AcDbSymbolTableRecord
100
AcDbTextStyleTableRecord
  2
EXCADDIM1
 70
    64
 40
0.0
 41
0.95
 50
0.0
 71
     0
 42
0.2
  3
monotxt
  4
extfont
  0
STYLE
  5
18A
100
AcDbSymbolTableRecord
100
AcDbTextStyleTableRecord
  2
EXCADDIM2
 70
    64
 40
0.0
 41
0.84
 50
0.0
 71
     0
 42
0.2
  3
monotxt
  4
extfont
  0
ENDTAB
  0
TABLE
  2
VIEW
  5
5
100
AcDbSymbolTable
 70
     0
  0
ENDTAB
  0
TABLE
  2
UCS
  5
6
100
AcDbSymbolTable
 70
     0
  0
ENDTAB
  0
TABLE
  2
APPID
  5
8
100
AcDbSymbolTable
 70
     1
  0
APPID
  5
16
100
AcDbSymbolTableRecord
100
AcDbRegAppTableRecord
  2
ACAD
 70
     0
  0
ENDTAB
  0
TABLE
  2
DIMSTYLE
  5
9
100
AcDbSymbolTable
 70
     1
  0
DIMSTYLE
105
18
100
AcDbSymbolTableRecord
100
AcDbDimStyleTableRecord
  2
STANDARD
 70
     0
  3

  4

  5

  6

  7

 40
1.0
 41
0.18
 42
0.0625
 43
0.38
 44
0.18
 45
0.0
 46
0.0
 47
0.0
 48
0.0
 71
     0
 72
     0
 73
     1
 74
     1
 75
     0
 76
     0
 77
     0
 78
     0
140
0.18
141
0.09
142
0.0
143
25.4
144
1.0
145
0.0
146
1.0
147
0.09
170
     0
171
     2
172
     1
173
     0
174
     0
175
     0
176
     0
177
     0
178
     0
270
     2
271
     4
272
     4
273
     2
274
     2
275
     0
280
     0
281
     0
282
     0
283
     1
284
     0
285
     0
286
     0
287
     0
288
     0
340
17
  0
ENDTAB
  0
TABLE
  2
BLOCK_RECORD
  5
1
100
AcDbSymbolTable
 70
    30
  0
BLOCK_RECORD
  5
A
100
AcDbSymbolTableRecord
100
AcDbBlockTableRecord
  2
*MODEL_SPACE
  0
BLOCK_RECORD
  5
B
100
AcDbSymbolTableRecord
100
AcDbBlockTableRecord
  2
*PAPER_SPACE
  0
BLOCK_RECORD
  5
32
100
AcDbSymbolTableRecord
100
AcDbBlockTableRecord
  2
_EX_NORM
  0
BLOCK_RECORD
  5
33
100
AcDbSymbolTableRecord
100
AcDbBlockTableRecord
  2
_EX_BNORM
  0
BLOCK_RECORD
  5
34
100
AcDbSymbolTableRecord
100
AcDbBlockTableRecord
  2
_EX_BCIR
  0
BLOCK_RECORD
  5
35
100
AcDbSymbolTableRecord
100
AcDbBlockTableRecord
  2
_EX_RCIVIL
  0
BLOCK_RECORD
  5
36
100
AcDbSymbolTableRecord
100
AcDbBlockTableRecord
  2
_EX_SLANT
  0
BLOCK_RECORD
  5
37
100
AcDbSymbolTableRecord
100
AcDbBlockTableRecord
  2
_EX_NONE
  0
BLOCK_RECORD
  5
38
100
AcDbSymbolTableRecord
100
AcDbBlockTableRecord
  2
_EX_CIVIL
  0
BLOCK_RECORD
  5
39
100
AcDbSymbolTableRecord
100
AcDbBlockTableRecord
  2
_EX_WCIR
  0
BLOCK_RECORD
  5
3A
100
AcDbSymbolTableRecord
100
AcDbBlockTableRecord
  2
_EX_WCIR2
  0
BLOCK_RECORD
  5
3B
100
AcDbSymbolTableRecord
100
AcDbBlockTableRecord
  2
_EX_WNORM
  0
BLOCK_RECORD
  5
3C
100
AcDbSymbolTableRecord
100
AcDbBlockTableRecord
  2
_EX_NNORM
  0
BLOCK_RECORD
  5
3D
100
AcDbSymbolTableRecord
100
AcDbBlockTableRecord
  2
_EX_BBOX
  0
BLOCK_RECORD
  5
3E
100
AcDbSymbolTableRecord
100
AcDbBlockTableRecord
  2
_EX_WBOX
  0
BLOCK_RECORD
  5
3F
100
AcDbSymbolTableRecord
100
AcDbBlockTableRecord
  2
_EX_INTEGRAL
  0
BLOCK_RECORD
  5
C2
100
AcDbSymbolTableRecord
100
AcDbBlockTableRecord
  2
*D14
  0
BLOCK_RECORD
  5
17F
100
AcDbSymbolTableRecord
100
AcDbBlockTableRecord
  2
*D15
  0
BLOCK_RECORD
  5
196
100
AcDbSymbolTableRecord
100
AcDbBlockTableRecord
  2
*D16
  0
BLOCK_RECORD
  5
8B0
100
AcDbSymbolTableRecord
100
AcDbBlockTableRecord
  2
*D17
  0
BLOCK_RECORD
  5
8C0
100
AcDbSymbolTableRecord
100
AcDbBlockTableRecord
  2
*D18
  0
BLOCK_RECORD
  5
8CC
100
AcDbSymbolTableRecord
100
AcDbBlockTableRecord
  2
*D19
  0
BLOCK_RECORD
  5
8D8
100
AcDbSymbolTableRecord
100
AcDbBlockTableRecord
  2
*D20
  0
BLOCK_RECORD
  5
8E3
100
AcDbSymbolTableRecord
100
AcDbBlockTableRecord
  2
*D21
  0
BLOCK_RECORD
  5
8EF
100
AcDbSymbolTableRecord
100
AcDbBlockTableRecord
  2
*D22
  0
BLOCK_RECORD
  5
8FB
100
AcDbSymbolTableRecord
100
AcDbBlockTableRecord
  2
*D23
  0
BLOCK_RECORD
  5
906
100
AcDbSymbolTableRecord
100
AcDbBlockTableRecord
  2
*D24
  0
BLOCK_RECORD
  5
912
100
AcDbSymbolTableRecord
100
AcDbBlockTableRecord
  2
*D25
  0
BLOCK_RECORD
  5
91E
100
AcDbSymbolTableRecord
100
AcDbBlockTableRecord
  2
*D26
  0
BLOCK_RECORD
  5
92A
100
AcDbSymbolTableRecord
100
AcDbBlockTableRecord
  2
*D27
  0
BLOCK_RECORD
  5
935
100
AcDbSymbolTableRecord
100
AcDbBlockTableRecord
  2
*D28
  0
BLOCK_RECORD
  5
940
100
AcDbSymbolTableRecord
100
AcDbBlockTableRecord
  2
*D29
  0
ENDTAB
  0
ENDSEC
  0
SECTION
  2
BLOCKS
  0
BLOCK
  5
D
100
AcDbEntity
  8
0
100
AcDbBlockBegin
  2
*MODEL_SPACE
 70
     0
 10
0.0
 20
0.0
 30
0.0
  3
*MODEL_SPACE
  1

  0
ENDBLK
  5
E
100
AcDbEntity
  8
0
100
AcDbBlockEnd
  0
BLOCK
  5
F
100
AcDbEntity
 67
     1
  8
0
100
AcDbBlockBegin
  2
*PAPER_SPACE
 70
     0
 10
0.0
 20
0.0
 30
0.0
  3
*PAPER_SPACE
  1

  0
ENDBLK
  5
10
100
AcDbEntity
 67
     1
  8
0
100
AcDbBlockEnd
  0
BLOCK
  5
40
100
AcDbEntity
  8
0
100
AcDbBlockBegin
  2
_EX_NORM
 70
     0
 10
0.0
 20
0.0
 30
0.0
  3
_EX_NORM
  1

  0
LINE
  5
41
100
AcDbEntity
  8
0
  6
CONTINUOUS
 62
     0
100
AcDbLine
 10
0.0
 20
0.0
 30
0.0
 11
-1.0
 21
0.0
 31
0.0
  0
LINE
  5
42
100
AcDbEntity
  8
0
  6
CONTINUOUS
 62
     0
100
AcDbLine
 10
0.0
 20
0.0
 30
0.0
 11
-1.0
 21
0.166667
 31
0.0
  0
LINE
  5
43
100
AcDbEntity
  8
0
  6
CONTINUOUS
 62
     0
100
AcDbLine
 10
0.0
 20
0.0
 30
0.0
 11
-1.0
 21
-0.166667
 31
0.0
  0
ENDBLK
  5
44
100
AcDbEntity
  8
0
100
AcDbBlockEnd
  0
BLOCK
  5
45
100
AcDbEntity
  8
0
100
AcDbBlockBegin
  2
_EX_BNORM
 70
     0
 10
0.0
 20
0.0
 30
0.0
  3
_EX_BNORM
  1

  0
LINE
  5
46
100
AcDbEntity
  8
0
  6
CONTINUOUS
 62
     0
100
AcDbLine
 10
0.0
 20
0.0
 30
0.0
 11
-1.0
 21
0.0
 31
0.0
  0
LINE
  5
47
100
AcDbEntity
  8
0
  6
CONTINUOUS
 62
     0
100
AcDbLine
 10
0.0
 20
0.0
 30
0.0
 11
-1.0
 21
0.166667
 31
0.0
  0
LINE
  5
48
100
AcDbEntity
  8
0
  6
CONTINUOUS
 62
     0
100
AcDbLine
 10
0.0
 20
0.0
 30
0.0
 11
-1.0
 21
-0.166667
 31
0.0
  0
LINE
  5
49
100
AcDbEntity
  8
0
  6
CONTINUOUS
 62
     0
100
AcDbLine
 10
0.0
 20
0.0
 30
0.0
 11
-1.0
 21
0.083333
 31
0.0
  0
LINE
  5
4A
100
AcDbEntity
  8
0
  6
CONTINUOUS
 62
     0
100
AcDbLine
 10
0.0
 20
0.0
 30
0.0
 11
-1.0
 21
-0.083333
 31
0.0
  0
LINE
  5
4B
100
AcDbEntity
  8
0
  6
CONTINUOUS
 62
     0
100
AcDbLine
 10
-1.0
 20
0.166667
 30
0.0
 11
-1.0
 21
-0.166667
 31
0.0
  0
ENDBLK
  5
4C
100
AcDbEntity
  8
0
100
AcDbBlockEnd
  0
BLOCK
  5
4D
100
AcDbEntity
  8
0
100
AcDbBlockBegin
  2
_EX_BCIR
 70
     0
 10
0.0
 20
0.0
 30
0.0
  3
_EX_BCIR
  1

  0
LINE
  5
4E
100
AcDbEntity
  8
0
  6
CONTINUOUS
 62
     0
100
AcDbLine
 10
0.0
 20
0.0
 30
0.0
 11
-1.0
 21
0.0
 31
0.0
  0
CIRCLE
  5
4F
100
AcDbEntity
  8
0
  6
CONTINUOUS
 62
     0
100
AcDbCircle
 10
0.0
 20
0.0
 30
0.0
 40
0.5
  0
CIRCLE
  5
50
100
AcDbEntity
  8
0
  6
CONTINUOUS
 62
     0
100
AcDbCircle
 10
0.0
 20
0.0
 30
0.0
 40
0.25
  0
ENDBLK
  5
51
100
AcDbEntity
  8
0
100
AcDbBlockEnd
  0
BLOCK
  5
52
100
AcDbEntity
  8
0
100
AcDbBlockBegin
  2
_EX_RCIVIL
 70
     0
 10
0.0
 20
0.0
 30
0.0
  3
_EX_RCIVIL
  1

  0
LINE
  5
53
100
AcDbEntity
  8
0
  6
CONTINUOUS
 62
     0
100
AcDbLine
 10
0.0
 20
0.0
 30
0.0
 11
-1.0
 21
0.0
 31
0.0
  0
LINE
  5
54
100
AcDbEntity
  8
0
  6
CONTINUOUS
 62
     0
100
AcDbLine
 10
-1.0
 20
-0.25
 30
0.0
 11
0.0
 21
-0.25
 31
0.0
  0
LINE
  5
55
100
AcDbEntity
  8
0
  6
CONTINUOUS
 62
     0
100
AcDbLine
 10
-1.0
 20
-0.125
 30
0.0
 11
0.0
 21
-0.125
 31
0.0
  0
ENDBLK
  5
56
100
AcDbEntity
  8
0
100
AcDbBlockEnd
  0
BLOCK
  5
57
100
AcDbEntity
  8
0
100
AcDbBlockBegin
  2
_EX_SLANT
 70
     0
 10
0.0
 20
0.0
 30
0.0
  3
_EX_SLANT
  1

  0
LINE
  5
58
100
AcDbEntity
  8
0
  6
CONTINUOUS
 62
     0
100
AcDbLine
 10
0.0
 20
0.0
 30
0.0
 11
-1.0
 21
0.0
 31
0.0
  0
LINE
  5
59
100
AcDbEntity
  8
0
  6
CONTINUOUS
 62
     0
100
AcDbLine
 10
0.707107
 20
0.707107
 30
0.0
 11
-0.707107
 21
-0.707107
 31
0.0
  0
ENDBLK
  5
5A
100
AcDbEntity
  8
0
100
AcDbBlockEnd
  0
BLOCK
  5
5B
100
AcDbEntity
  8
0
100
AcDbBlockBegin
  2
_EX_NONE
 70
     0
 10
0.0
 20
0.0
 30
0.0
  3
_EX_NONE
  1

  0
LINE
  5
5C
100
AcDbEntity
  8
0
  6
CONTINUOUS
 62
     0
100
AcDbLine
 10
0.0
 20
0.0
 30
0.0
 11
-1.0
 21
0.0
 31
0.0
  0
ENDBLK
  5
5D
100
AcDbEntity
  8
0
100
AcDbBlockEnd
  0
BLOCK
  5
5E
100
AcDbEntity
  8
0
100
AcDbBlockBegin
  2
_EX_CIVIL
 70
     0
 10
0.0
 20
0.0
 30
0.0
  3
_EX_CIVIL
  1

  0
LINE
  5
5F
100
AcDbEntity
  8
0
  6
CONTINUOUS
 62
     0
100
AcDbLine
 10
0.0
 20
0.0
 30
0.0
 11
-1.0
 21
0.0
 31
0.0
  0
LINE
  5
60
100
AcDbEntity
  8
0
  6
CONTINUOUS
 62
     0
100
AcDbLine
 10
-1.0
 20
0.25
 30
0.0
 11
0.0
 21
0.25
 31
0.0
  0
LINE
  5
61
100
AcDbEntity
  8
0
  6
CONTINUOUS
 62
     0
100
AcDbLine
 10
-1.0
 20
0.125
 30
0.0
 11
0.0
 21
0.125
 31
0.0
  0
ENDBLK
  5
62
100
AcDbEntity
  8
0
100
AcDbBlockEnd
  0
BLOCK
  5
63
100
AcDbEntity
  8
0
100
AcDbBlockBegin
  2
_EX_WCIR
 70
     0
 10
0.0
 20
0.0
 30
0.0
  3
_EX_WCIR
  1

  0
LINE
  5
64
100
AcDbEntity
  8
0
  6
CONTINUOUS
 62
     0
100
AcDbLine
 10
0.0
 20
0.0
 30
0.0
 11
-1.0
 21
0.0
 31
0.0
  0
CIRCLE
  5
65
100
AcDbEntity
  8
0
  6
CONTINUOUS
 62
     0
100
AcDbCircle
 10
0.0
 20
0.0
 30
0.0
 40
0.5
  0
ENDBLK
  5
66
100
AcDbEntity
  8
0
100
AcDbBlockEnd
  0
BLOCK
  5
67
100
AcDbEntity
  8
0
100
AcDbBlockBegin
  2
_EX_WCIR2
 70
     0
 10
0.0
 20
0.0
 30
0.0
  3
_EX_WCIR2
  1

  0
LINE
  5
68
100
AcDbEntity
  8
0
  6
CONTINUOUS
 62
     0
100
AcDbLine
 10
-0.5
 20
0.0
 30
0.0
 11
-1.0
 21
0.0
 31
0.0
  0
CIRCLE
  5
69
100
AcDbEntity
  8
0
  6
CONTINUOUS
 62
     0
100
AcDbCircle
 10
0.0
 20
0.0
 30
0.0
 40
0.5
  0
ENDBLK
  5
6A
100
AcDbEntity
  8
0
100
AcDbBlockEnd
  0
BLOCK
  5
6B
100
AcDbEntity
  8
0
100
AcDbBlockBegin
  2
_EX_WNORM
 70
     0
 10
0.0
 20
0.0
 30
0.0
  3
_EX_WNORM
  1

  0
LINE
  5
6C
100
AcDbEntity
  8
0
  6
CONTINUOUS
 62
     0
100
AcDbLine
 10
-1.0
 20
0.0
 30
0.0
 11
-1.0
 21
0.0
 31
0.0
  0
LINE
  5
6D
100
AcDbEntity
  8
0
  6
CONTINUOUS
 62
     0
100
AcDbLine
 10
0.0
 20
0.0
 30
0.0
 11
-1.0
 21
0.166667
 31
0.0
  0
LINE
  5
6E
100
AcDbEntity
  8
0
  6
CONTINUOUS
 62
     0
100
AcDbLine
 10
0.0
 20
0.0
 30
0.0
 11
-1.0
 21
-0.166667
 31
0.0
  0
LINE
  5
6F
100
AcDbEntity
  8
0
  6
CONTINUOUS
 62
     0
100
AcDbLine
 10
-1.0
 20
0.166667
 30
0.0
 11
-1.0
 21
-0.166667
 31
0.0
  0
ENDBLK
  5
70
100
AcDbEntity
  8
0
100
AcDbBlockEnd
  0
BLOCK
  5
71
100
AcDbEntity
  8
0
100
AcDbBlockBegin
  2
_EX_NNORM
 70
     0
 10
0.0
 20
0.0
 30
0.0
  3
_EX_NNORM
  1

  0
LINE
  5
72
100
AcDbEntity
  8
0
  6
CONTINUOUS
 62
     0
100
AcDbLine
 10
0.0
 20
0.0
 30
0.0
 11
-1.0
 21
0.0
 31
0.0
  0
LINE
  5
73
100
AcDbEntity
  8
0
  6
CONTINUOUS
 62
     0
100
AcDbLine
 10
0.0
 20
0.0
 30
0.0
 11
-1.0
 21
0.166667
 31
0.0
  0
LINE
  5
74
100
AcDbEntity
  8
0
  6
CONTINUOUS
 62
     0
100
AcDbLine
 10
0.0
 20
0.0
 30
0.0
 11
-1.0
 21
-0.166667
 31
0.0
  0
LINE
  5
75
100
AcDbEntity
  8
0
  6
CONTINUOUS
 62
     0
100
AcDbLine
 10
-1.0
 20
0.166667
 30
0.0
 11
-1.0
 21
-0.166667
 31
0.0
  0
ENDBLK
  5
76
100
AcDbEntity
  8
0
100
AcDbBlockEnd
  0
BLOCK
  5
77
100
AcDbEntity
  8
0
100
AcDbBlockBegin
  2
_EX_BBOX
 70
     0
 10
0.0
 20
0.0
 30
0.0
  3
_EX_BBOX
  1

  0
LINE
  5
78
100
AcDbEntity
  8
0
  6
CONTINUOUS
 62
     0
100
AcDbLine
 10
0.0
 20
0.0
 30
0.0
 11
-1.0
 21
0.0
 31
0.0
  0
LINE
  5
79
100
AcDbEntity
  8
0
  6
CONTINUOUS
 62
     0
100
AcDbLine
 10
-0.5
 20
0.5
 30
0.0
 11
0.5
 21
0.5
 31
0.0
  0
LINE
  5
7A
100
AcDbEntity
  8
0
  6
CONTINUOUS
 62
     0
100
AcDbLine
 10
0.5
 20
0.5
 30
0.0
 11
0.5
 21
-0.5
 31
0.0
  0
LINE
  5
7B
100
AcDbEntity
  8
0
  6
CONTINUOUS
 62
     0
100
AcDbLine
 10
0.5
 20
-0.5
 30
0.0
 11
-0.5
 21
-0.5
 31
0.0
  0
LINE
  5
7C
100
AcDbEntity
  8
0
  6
CONTINUOUS
 62
     0
100
AcDbLine
 10
-0.5
 20
-0.5
 30
0.0
 11
-0.5
 21
0.5
 31
0.0
  0
LINE
  5
7D
100
AcDbEntity
  8
0
  6
CONTINUOUS
 62
     0
100
AcDbLine
 10
-0.25
 20
0.25
 30
0.0
 11
0.25
 21
0.25
 31
0.0
  0
LINE
  5
7E
100
AcDbEntity
  8
0
  6
CONTINUOUS
 62
     0
100
AcDbLine
 10
0.25
 20
0.25
 30
0.0
 11
0.25
 21
-0.25
 31
0.0
  0
LINE
  5
7F
100
AcDbEntity
  8
0
  6
CONTINUOUS
 62
     0
100
AcDbLine
 10
0.25
 20
-0.25
 30
0.0
 11
-0.25
 21
-0.25
 31
0.0
  0
LINE
  5
80
100
AcDbEntity
  8
0
  6
CONTINUOUS
 62
     0
100
AcDbLine
 10
-0.25
 20
-0.25
 30
0.0
 11
-0.25
 21
0.25
 31
0.0
  0
ENDBLK
  5
81
100
AcDbEntity
  8
0
100
AcDbBlockEnd
  0
BLOCK
  5
82
100
AcDbEntity
  8
0
100
AcDbBlockBegin
  2
_EX_WBOX
 70
     0
 10
0.0
 20
0.0
 30
0.0
  3
_EX_WBOX
  1

  0
LINE
  5
83
100
AcDbEntity
  8
0
  6
CONTINUOUS
 62
     0
100
AcDbLine
 10
-0.5
 20
0.0
 30
0.0
 11
-1.0
 21
0.0
 31
0.0
  0
LINE
  5
84
100
AcDbEntity
  8
0
  6
CONTINUOUS
 62
     0
100
AcDbLine
 10
-0.5
 20
0.5
 30
0.0
 11
0.5
 21
0.5
 31
0.0
  0
LINE
  5
85
100
AcDbEntity
  8
0
  6
CONTINUOUS
 62
     0
100
AcDbLine
 10
0.5
 20
0.5
 30
0.0
 11
0.5
 21
-0.5
 31
0.0
  0
LINE
  5
86
100
AcDbEntity
  8
0
  6
CONTINUOUS
 62
     0
100
AcDbLine
 10
0.5
 20
-0.5
 30
0.0
 11
-0.5
 21
-0.5
 31
0.0
  0
LINE
  5
87
100
AcDbEntity
  8
0
  6
CONTINUOUS
 62
     0
100
AcDbLine
 10
-0.5
 20
-0.5
 30
0.0
 11
-0.5
 21
0.5
 31
0.0
  0
ENDBLK
  5
88
100
AcDbEntity
  8
0
100
AcDbBlockEnd
  0
BLOCK
  5
89
100
AcDbEntity
  8
0
100
AcDbBlockBegin
  2
_EX_INTEGRAL
 70
     0
 10
0.0
 20
0.0
 30
0.0
  3
_EX_INTEGRAL
  1

  0
LINE
  5
8A
100
AcDbEntity
  8
0
  6
CONTINUOUS
 62
     0
100
AcDbLine
 10
0.0
 20
0.0
 30
0.0
 11
-1.0
 21
0.0
 31
0.0
  0
ARC
  5
8B
100
AcDbEntity
  8
0
  6
CONTINUOUS
 62
     0
100
AcDbCircle
 10
0.542115
 20
0.164992
 30
0.0
 40
0.56667
100
AcDbArc
 50
73.07249
 51
196.927513
  0
ARC
  5
8C
100
AcDbEntity
  8
0
  6
CONTINUOUS
 62
     0
100
AcDbCircle
 10
-0.542115
 20
-0.164992
 30
0.0
 40
0.56667
100
AcDbArc
 50
253.072487
 51
16.927513
  0
ENDBLK
  5
8D
100
AcDbEntity
  8
0
100
AcDbBlockEnd
  0
BLOCK
  5
C3
100
AcDbEntity
  8
0
100
AcDbBlockBegin
  2
*D14
 70
    65
 10
0.0
 20
0.0
 30
0.0
  3
*D14
  1

  0
LINE
  5
C4
100
AcDbEntity
  8
便器
  6
CONTINUOUS
 62
     3
100
AcDbLine
 10
1181.0
 20
2724.50005
 30
0.0
 11
1181.0
 21
2369.49995
 31
0.0
  0
LINE
  5
C5
100
AcDbEntity
  8
便器
  6
CONTINUOUS
 62
     3
100
AcDbLine
 10
1186.0
 20
2694.50005
 30
0.0
 11
1181.0
 21
2724.50005
 31
0.0
  0
LINE
  5
C6
100
AcDbEntity
  8
便器
  6
CONTINUOUS
 62
     3
100
AcDbLine
 10
1181.0
 20
2724.50005
 30
0.0
 11
1176.0
 21
2694.50005
 31
0.0
  0
LINE
  5
C7
100
AcDbEntity
  8
便器
  6
CONTINUOUS
 62
     3
100
AcDbLine
 10
1176.0
 20
2399.49995
 30
0.0
 11
1181.0
 21
2369.49995
 31
0.0
  0
LINE
  5
C8
100
AcDbEntity
  8
便器
  6
CONTINUOUS
 62
     3
100
AcDbLine
 10
1181.0
 20
2369.49995
 30
0.0
 11
1186.0
 21
2399.49995
 31
0.0
  0
TEXT
  5
C9
100
AcDbEntity
  8
便器
  6
CONTINUOUS
 62
     2
100
AcDbText
 10
1177.5
 20
2498.7
 30
0.0
 40
40.0
  1
355
 50
90.0
 41
0.945
  7
EXCADSTD
 72
     1
 11
1177.5
 21
2547.0
 31
0.0
100
AcDbText
  0
LINE
  5
CA
100
AcDbEntity
  8
便器
  6
CONTINUOUS
 62
     3
100
AcDbLine
 10
809.427395
 20
2724.50005
 30
0.0
 11
1191.0
 21
2724.50005
 31
0.0
  0
LINE
  5
CB
100
AcDbEntity
  8
便器
  6
CONTINUOUS
 62
     3
100
AcDbLine
 10
809.427395
 20
2369.49995
 30
0.0
 11
1191.0
 21
2369.49995
 31
0.0
  0
ENDBLK
  5
CC
100
AcDbEntity
  8
0
100
AcDbBlockEnd
  0
BLOCK
  5
180
100
AcDbEntity
  8
0
100
AcDbBlockBegin
  2
*D15
 70
    65
 10
0.0
 20
0.0
 30
0.0
  3
*D15
  1

  0
LINE
  5
181
100
AcDbEntity
  8
便器
  6
CONTINUOUS
 62
     3
100
AcDbLine
 10
1583.482971
 20
445.0
 30
0.0
 11
1793.482971
 21
445.0
 31
0.0
  0
LINE
  5
182
100
AcDbEntity
  8
便器
  6
CONTINUOUS
 62
     3
100
AcDbLine
 10
1613.482971
 20
450.0
 30
0.0
 11
1583.482971
 21
445.0
 31
0.0
  0
LINE
  5
183
100
AcDbEntity
  8
便器
  6
CONTINUOUS
 62
     3
100
AcDbLine
 10
1583.482971
 20
445.0
 30
0.0
 11
1613.482971
 21
440.0
 31
0.0
  0
LINE
  5
184
100
AcDbEntity
  8
便器
  6
CONTINUOUS
 62
     3
100
AcDbLine
 10
1763.482971
 20
440.0
 30
0.0
 11
1793.482971
 21
445.0
 31
0.0
  0
LINE
  5
185
100
AcDbEntity
  8
便器
  6
CONTINUOUS
 62
     3
100
AcDbLine
 10
1793.482971
 20
445.0
 30
0.0
 11
1763.482971
 21
450.0
 31
0.0
  0
TEXT
  5
186
100
AcDbEntity
  8
便器
  6
CONTINUOUS
 62
     2
100
AcDbText
 10
1646.482971
 20
448.5
 30
0.0
 40
40.0
  1
210
 41
0.84
  7
EXCADSTD
 72
     1
 11
1688.482971
 21
448.5
 31
0.0
100
AcDbText
  0
LINE
  5
187
100
AcDbEntity
  8
便器
  6
CONTINUOUS
 62
     3
100
AcDbLine
 10
1583.482971
 20
564.291666
 30
0.0
 11
1583.482971
 21
435.0
 31
0.0
  0
LINE
  5
188
100
AcDbEntity
  8
便器
  6
CONTINUOUS
 62
     3
100
AcDbLine
 10
1793.482971
 20
564.291666
 30
0.0
 11
1793.482971
 21
435.0
 31
0.0
  0
ENDBLK
  5
189
100
AcDbEntity
  8
0
100
AcDbBlockEnd
  0
BLOCK
  5
197
100
AcDbEntity
  8
0
100
AcDbBlockBegin
  2
*D16
 70
    65
 10
0.0
 20
0.0
 30
0.0
  3
*D16
  1

  0
LINE
  5
198
100
AcDbEntity
  8
便器
  6
CONTINUOUS
 62
     3
100
AcDbLine
 10
1646.0
 20
2132.0
 30
0.0
 11
1598.0
 21
2132.0
 31
0.0
  0
LINE
  5
199
100
AcDbEntity
  8
便器
  6
CONTINUOUS
 62
     3
100
AcDbLine
 10
1646.0
 20
2092.0
 30
0.0
 11
1598.0
 21
2092.0
 31
0.0
  0
TEXT
  5
19A
100
AcDbEntity
  8
便器
  6
CONTINUOUS
 62
     2
100
AcDbText
 10
1604.5
 20
2168.4
 30
0.0
 40
40.0
  1
40
 50
90.0
 41
0.945
  7
EXCADSTD
 72
     1
 11
1604.5
 21
2202.0
 31
0.0
100
AcDbText
  0
LINE
  5
19B
100
AcDbEntity
  8
便器
  6
CONTINUOUS
 62
     3
100
AcDbLine
 10
1608.0
 20
2245.500004
 30
0.0
 11
1608.0
 21
2062.0
 31
0.0
  0
LINE
  5
19C
100
AcDbEntity
  8
便器
  6
CONTINUOUS
 62
     3
100
AcDbLine
 10
1603.0
 20
2162.0
 30
0.0
 11
1608.0
 21
2132.0
 31
0.0
  0
LINE
  5
19D
100
AcDbEntity
  8
便器
  6
CONTINUOUS
 62
     3
100
AcDbLine
 10
1608.0
 20
2132.0
 30
0.0
 11
1613.0
 21
2162.0
 31
0.0
  0
LINE
  5
19E
100
AcDbEntity
  8
便器
  6
CONTINUOUS
 62
     3
100
AcDbLine
 10
1613.0
 20
2062.0
 30
0.0
 11
1608.0
 21
2092.0
 31
0.0
  0
LINE
  5
19F
100
AcDbEntity
  8
便器
  6
CONTINUOUS
 62
     3
100
AcDbLine
 10
1608.0
 20
2092.0
 30
0.0
 11
1603.0
 21
2062.0
 31
0.0
  0
ENDBLK
  5
1A0
100
AcDbEntity
  8
0
100
AcDbBlockEnd
  0
BLOCK
  5
8B1
100
AcDbEntity
  8
0
100
AcDbBlockBegin
  2
*D17
 70
    65
 10
0.0
 20
0.0
 30
0.0
  3
*D17
  1

  0
LINE
  5
8B2
100
AcDbEntity
  8
寸法
  6
CONTINUOUS
 62
     3
100
AcDbLine
 10
331.5
 20
600.000324
 30
0.0
 11
233.0
 21
600.000324
 31
0.0
  0
TEXT
  5
8B3
100
AcDbEntity
  8
寸法
  6
CONTINUOUS
 62
     2
100
AcDbText
 10
239.5
 20
763.000324
 30
0.0
 40
40.0
  1
410
 50
90.0
 41
0.84
  7
EXCADSTD
 72
     1
 11
239.5
 21
805.000324
 31
0.0
100
AcDbText
  0
LINE
  5
8B4
100
AcDbEntity
  8
寸法
  6
CONTINUOUS
 62
     3
100
AcDbLine
 10
243.0
 20
1010.000324
 30
0.0
 11
243.0
 21
600.000324
 31
0.0
  0
LINE
  5
8B5
100
AcDbEntity
  8
寸法
  6
CONTINUOUS
 62
     3
100
AcDbLine
 10
248.0
 20
980.000324
 30
0.0
 11
243.0
 21
1010.000324
 31
0.0
  0
LINE
  5
8B6
100
AcDbEntity
  8
寸法
  6
CONTINUOUS
 62
     3
100
AcDbLine
 10
243.0
 20
1010.000324
 30
0.0
 11
238.0
 21
980.000324
 31
0.0
  0
LINE
  5
8B7
100
AcDbEntity
  8
寸法
  6
CONTINUOUS
 62
     3
100
AcDbLine
 10
238.0
 20
630.000324
 30
0.0
 11
243.0
 21
600.000324
 31
0.0
  0
LINE
  5
8B8
100
AcDbEntity
  8
寸法
  6
CONTINUOUS
 62
     3
100
AcDbLine
 10
243.0
 20
600.000324
 30
0.0
 11
248.0
 21
630.000324
 31
0.0
  0
ENDBLK
  5
8B9
100
AcDbEntity
  8
0
100
AcDbBlockEnd
  0
BLOCK
  5
8C1
100
AcDbEntity
  8
0
100
AcDbBlockBegin
  2
*D18
 70
    65
 10
0.0
 20
0.0
 30
0.0
  3
*D18
  1

  0
LINE
  5
8C2
100
AcDbEntity
  8
寸法
  6
CONTINUOUS
 62
     3
100
AcDbLine
 10
331.5
 20
2546.999984
 30
0.0
 11
267.0
 21
2546.999984
 31
0.0
  0
LINE
  5
8C3
100
AcDbEntity
  8
寸法
  6
CONTINUOUS
 62
     3
100
AcDbLine
 10
331.5
 20
2246.999984
 30
0.0
 11
267.0
 21
2246.999984
 31
0.0
  0
TEXT
  5
8C4
100
AcDbEntity
  8
寸法
  6
CONTINUOUS
 62
     2
100
AcDbText
 10
273.5
 20
2354.999984
 30
0.0
 40
40.0
  1
300
 50
90.0
 41
0.84
  7
EXCADSTD
 72
     1
 11
273.5
 21
2396.999984
 31
0.0
100
AcDbText
  0
LINE
  5
8C5
100
AcDbEntity
  8
寸法
  6
CONTINUOUS
 62
     3
100
AcDbLine
 10
277.0
 20
2546.999984
 30
0.0
 11
277.0
 21
2246.999984
 31
0.0
  0
LINE
  5
8C6
100
AcDbEntity
  8
寸法
  6
CONTINUOUS
 62
     3
100
AcDbLine
 10
282.0
 20
2516.999984
 30
0.0
 11
277.0
 21
2546.999984
 31
0.0
  0
LINE
  5
8C7
100
AcDbEntity
  8
寸法
  6
CONTINUOUS
 62
     3
100
AcDbLine
 10
277.0
 20
2546.999984
 30
0.0
 11
272.0
 21
2516.999984
 31
0.0
  0
LINE
  5
8C8
100
AcDbEntity
  8
寸法
  6
CONTINUOUS
 62
     3
100
AcDbLine
 10
272.0
 20
2276.999984
 30
0.0
 11
277.0
 21
2246.999984
 31
0.0
  0
LINE
  5
8C9
100
AcDbEntity
  8
寸法
  6
CONTINUOUS
 62
     3
100
AcDbLine
 10
277.0
 20
2246.999984
 30
0.0
 11
282.0
 21
2276.999984
 31
0.0
  0
ENDBLK
  5
8CA
100
AcDbEntity
  8
0
100
AcDbBlockEnd
  0
BLOCK
  5
8CD
100
AcDbEntity
  8
0
100
AcDbBlockBegin
  2
*D19
 70
    65
 10
0.0
 20
0.0
 30
0.0
  3
*D19
  1

  0
LINE
  5
8CE
100
AcDbEntity
  8
寸法
  6
CONTINUOUS
 62
     3
100
AcDbLine
 10
619.49992
 20
2436.001052
 30
0.0
 11
619.49992
 21
2239.0
 31
0.0
  0
LINE
  5
8CF
100
AcDbEntity
  8
寸法
  6
CONTINUOUS
 62
     3
100
AcDbLine
 10
1089.427395
 20
2267.0
 30
0.0
 11
1089.427395
 21
2239.0
 31
0.0
  0
TEXT
  5
8D0
100
AcDbEntity
  8
寸法
  6
CONTINUOUS
 62
     2
100
AcDbText
 10
812.463658
 20
2252.5
 30
0.0
 40
40.0
  1
470
 41
0.84
  7
EXCADSTD
 72
     1
 11
854.463658
 21
2252.5
 31
0.0
100
AcDbText
  0
LINE
  5
8D1
100
AcDbEntity
  8
寸法
  6
CONTINUOUS
 62
     3
100
AcDbLine
 10
619.49992
 20
2249.0
 30
0.0
 11
1089.427395
 21
2249.0
 31
0.0
  0
LINE
  5
8D2
100
AcDbEntity
  8
寸法
  6
CONTINUOUS
 62
     3
100
AcDbLine
 10
649.49992
 20
2254.0
 30
0.0
 11
619.49992
 21
2249.0
 31
0.0
  0
LINE
  5
8D3
100
AcDbEntity
  8
寸法
  6
CONTINUOUS
 62
     3
100
AcDbLine
 10
619.49992
 20
2249.0
 30
0.0
 11
649.49992
 21
2244.0
 31
0.0
  0
LINE
  5
8D4
100
AcDbEntity
  8
寸法
  6
CONTINUOUS
 62
     3
100
AcDbLine
 10
1059.427395
 20
2244.0
 30
0.0
 11
1089.427395
 21
2249.0
 31
0.0
  0
LINE
  5
8D5
100
AcDbEntity
  8
寸法
  6
CONTINUOUS
 62
     3
100
AcDbLine
 10
1089.427395
 20
2249.0
 30
0.0
 11
1059.427395
 21
2254.0
 31
0.0
  0
ENDBLK
  5
8D6
100
AcDbEntity
  8
0
100
AcDbBlockEnd
  0
BLOCK
  5
8D9
100
AcDbEntity
  8
0
100
AcDbBlockBegin
  2
*D20
 70
    65
 10
0.0
 20
0.0
 30
0.0
  3
*D20
  1

  0
LINE
  5
8DA
100
AcDbEntity
  8
寸法
  6
CONTINUOUS
 62
     3
100
AcDbLine
 10
1089.427395
 20
2542.0
 30
0.0
 11
1089.427395
 21
2117.0
 31
0.0
  0
TEXT
  5
8DB
100
AcDbEntity
  8
寸法
  6
CONTINUOUS
 62
     2
100
AcDbText
 10
670.963698
 20
2130.5
 30
0.0
 40
40.0
  1
755
 41
0.84
  7
EXCADSTD
 72
     1
 11
712.963698
 21
2130.5
 31
0.0
100
AcDbText
  0
LINE
  5
8DC
100
AcDbEntity
  8
寸法
  6
CONTINUOUS
 62
     3
100
AcDbLine
 10
1089.427395
 20
2127.0
 30
0.0
 11
336.5
 21
2127.0
 31
0.0
  0
LINE
  5
8DD
100
AcDbEntity
  8
寸法
  6
CONTINUOUS
 62
     3
100
AcDbLine
 10
1059.427395
 20
2122.0
 30
0.0
 11
1089.427395
 21
2127.0
 31
0.0
  0
LINE
  5
8DE
100
AcDbEntity
  8
寸法
  6
CONTINUOUS
 62
     3
100
AcDbLine
 10
1089.427395
 20
2127.0
 30
0.0
 11
1059.427395
 21
2132.0
 31
0.0
  0
LINE
  5
8DF
100
AcDbEntity
  8
寸法
  6
CONTINUOUS
 62
     3
100
AcDbLine
 10
366.5
 20
2132.0
 30
0.0
 11
336.5
 21
2127.0
 31
0.0
  0
LINE
  5
8E0
100
AcDbEntity
  8
寸法
  6
CONTINUOUS
 62
     3
100
AcDbLine
 10
336.5
 20
2127.0
 30
0.0
 11
366.5
 21
2122.0
 31
0.0
  0
ENDBLK
  5
8E1
100
AcDbEntity
  8
0
100
AcDbBlockEnd
  0
BLOCK
  5
8E4
100
AcDbEntity
  8
0
100
AcDbBlockBegin
  2
*D21
 70
    65
 10
0.0
 20
0.0
 30
0.0
  3
*D21
  1

  0
LINE
  5
8E5
100
AcDbEntity
  8
寸法
  6
CONTINUOUS
 62
     3
100
AcDbLine
 10
1089.427395
 20
2541.999984
 30
0.0
 11
1089.427395
 21
2181.0
 31
0.0
  0
TEXT
  5
8E6
100
AcDbEntity
  8
寸法
  6
CONTINUOUS
 62
     2
100
AcDbText
 10
678.463698
 20
2194.5
 30
0.0
 40
40.0
  1
740
 41
0.84
  7
EXCADSTD
 72
     1
 11
720.463698
 21
2194.5
 31
0.0
100
AcDbText
  0
LINE
  5
8E7
100
AcDbEntity
  8
寸法
  6
CONTINUOUS
 62
     3
100
AcDbLine
 10
351.5
 20
2191.0
 30
0.0
 11
1089.427395
 21
2191.0
 31
0.0
  0
LINE
  5
8E8
100
AcDbEntity
  8
寸法
  6
CONTINUOUS
 62
     3
100
AcDbLine
 10
381.5
 20
2196.0
 30
0.0
 11
351.5
 21
2191.0
 31
0.0
  0
LINE
  5
8E9
100
AcDbEntity
  8
寸法
  6
CONTINUOUS
 62
     3
100
AcDbLine
 10
351.5
 20
2191.0
 30
0.0
 11
381.5
 21
2186.0
 31
0.0
  0
LINE
  5
8EA
100
AcDbEntity
  8
寸法
  6
CONTINUOUS
 62
     3
100
AcDbLine
 10
1059.427395
 20
2186.0
 30
0.0
 11
1089.427395
 21
2191.0
 31
0.0
  0
LINE
  5
8EB
100
AcDbEntity
  8
寸法
  6
CONTINUOUS
 62
     3
100
AcDbLine
 10
1089.427395
 20
2191.0
 30
0.0
 11
1059.427395
 21
2196.0
 31
0.0
  0
LINE
  5
8EC
100
AcDbEntity
  8
寸法
  6
CONTINUOUS
 62
     3
100
AcDbLine
 10
351.5
 20
2358.0
 30
0.0
 11
351.5
 21
2181.0
 31
0.0
  0
ENDBLK
  5
8ED
100
AcDbEntity
  8
0
100
AcDbBlockEnd
  0
BLOCK
  5
8F0
100
AcDbEntity
  8
0
100
AcDbBlockBegin
  2
*D22
 70
    65
 10
0.0
 20
0.0
 30
0.0
  3
*D22
  1

  0
LINE
  5
8F1
100
AcDbEntity
  8
寸法
  6
CONTINUOUS
 62
     3
100
AcDbLine
 10
1089.427395
 20
2552.0
 30
0.0
 11
1089.427395
 21
2813.0
 31
0.0
  0
LINE
  5
8F2
100
AcDbEntity
  8
寸法
  6
CONTINUOUS
 62
     3
100
AcDbLine
 10
389.427395
 20
2551.999984
 30
0.0
 11
389.427395
 21
2813.0
 31
0.0
  0
TEXT
  5
8F3
100
AcDbEntity
  8
寸法
  6
CONTINUOUS
 62
     2
100
AcDbText
 10
697.427395
 20
2806.5
 30
0.0
 40
40.0
  1
700
 41
0.84
  7
EXCADSTD
 72
     1
 11
739.427395
 21
2806.5
 31
0.0
100
AcDbText
  0
LINE
  5
8F4
100
AcDbEntity
  8
寸法
  6
CONTINUOUS
 62
     3
100
AcDbLine
 10
1089.427395
 20
2803.0
 30
0.0
 11
389.427395
 21
2803.0
 31
0.0
  0
LINE
  5
8F5
100
AcDbEntity
  8
寸法
  6
CONTINUOUS
 62
     3
100
AcDbLine
 10
1059.427395
 20
2798.0
 30
0.0
 11
1089.427395
 21
2803.0
 31
0.0
  0
LINE
  5
8F6
100
AcDbEntity
  8
寸法
  6
CONTINUOUS
 62
     3
100
AcDbLine
 10
1089.427395
 20
2803.0
 30
0.0
 11
1059.427395
 21
2808.0
 31
0.0
  0
LINE
  5
8F7
100
AcDbEntity
  8
寸法
  6
CONTINUOUS
 62
     3
100
AcDbLine
 10
419.427395
 20
2808.0
 30
0.0
 11
389.427395
 21
2803.0
 31
0.0
  0
LINE
  5
8F8
100
AcDbEntity
  8
寸法
  6
CONTINUOUS
 62
     3
100
AcDbLine
 10
389.427395
 20
2803.0
 30
0.0
 11
419.427395
 21
2798.0
 31
0.0
  0
ENDBLK
  5
8F9
100
AcDbEntity
  8
0
100
AcDbBlockEnd
  0
BLOCK
  5
8FC
100
AcDbEntity
  8
0
100
AcDbBlockBegin
  2
*D23
 70
    65
 10
0.0
 20
0.0
 30
0.0
  3
*D23
  1

  0
LINE
  5
8FD
100
AcDbEntity
  8
寸法
  6
CONTINUOUS
 62
     3
100
AcDbLine
 10
316.8
 20
900.000324
 30
0.0
 11
280.0
 21
900.000324
 31
0.0
  0
LINE
  5
8FE
100
AcDbEntity
  8
寸法
  6
CONTINUOUS
 62
     3
100
AcDbLine
 10
290.0
 20
900.000324
 30
0.0
 11
290.0
 21
600.000324
 31
0.0
  0
LINE
  5
8FF
100
AcDbEntity
  8
寸法
  6
CONTINUOUS
 62
     3
100
AcDbLine
 10
295.0
 20
870.000324
 30
0.0
 11
290.0
 21
900.000324
 31
0.0
  0
LINE
  5
900
100
AcDbEntity
  8
寸法
  6
CONTINUOUS
 62
     3
100
AcDbLine
 10
290.0
 20
900.000324
 30
0.0
 11
285.0
 21
870.000324
 31
0.0
  0
LINE
  5
901
100
AcDbEntity
  8
寸法
  6
CONTINUOUS
 62
     3
100
AcDbLine
 10
285.0
 20
630.000324
 30
0.0
 11
290.0
 21
600.000324
 31
0.0
  0
LINE
  5
902
100
AcDbEntity
  8
寸法
  6
CONTINUOUS
 62
     3
100
AcDbLine
 10
290.0
 20
600.000324
 30
0.0
 11
295.0
 21
630.000324
 31
0.0
  0
TEXT
  5
903
100
AcDbEntity
  8
寸法
  6
CONTINUOUS
 62
     2
100
AcDbText
 10
286.5
 20
645.000324
 30
0.0
 40
40.0
  1
300（壁給水）
 50
90.0
 41
0.84
  7
EXCADSTD
 72
     1
 11
286.5
 21
750.000324
 31
0.0
100
AcDbText
  0
ENDBLK
  5
904
100
AcDbEntity
  8
0
100
AcDbBlockEnd
  0
BLOCK
  5
907
100
AcDbEntity
  8
0
100
AcDbBlockBegin
  2
*D24
 70
    65
 10
0.0
 20
0.0
 30
0.0
  3
*D24
  1

  0
LINE
  5
908
100
AcDbEntity
  8
寸法
  6
CONTINUOUS
 62
     3
100
AcDbLine
 10
1090.427397
 20
995.000004
 30
0.0
 11
1163.0
 21
995.000004
 31
0.0
  0
TEXT
  5
909
100
AcDbEntity
  8
寸法
  6
CONTINUOUS
 62
     2
100
AcDbText
 10
1149.5
 20
755.500164
 30
0.0
 40
40.0
  1
395
 50
90.0
 41
0.84
  7
EXCADSTD
 72
     1
 11
1149.5
 21
797.500164
 31
0.0
100
AcDbText
  0
LINE
  5
90A
100
AcDbEntity
  8
寸法
  6
CONTINUOUS
 62
     3
100
AcDbLine
 10
1153.0
 20
995.000004
 30
0.0
 11
1153.0
 21
600.000324
 31
0.0
  0
LINE
  5
90B
100
AcDbEntity
  8
寸法
  6
CONTINUOUS
 62
     3
100
AcDbLine
 10
1158.0
 20
965.000004
 30
0.0
 11
1153.0
 21
995.000004
 31
0.0
  0
LINE
  5
90C
100
AcDbEntity
  8
寸法
  6
CONTINUOUS
 62
     3
100
AcDbLine
 10
1153.0
 20
995.000004
 30
0.0
 11
1148.0
 21
965.000004
 31
0.0
  0
LINE
  5
90D
100
AcDbEntity
  8
寸法
  6
CONTINUOUS
 62
     3
100
AcDbLine
 10
1148.0
 20
630.000324
 30
0.0
 11
1153.0
 21
600.000324
 31
0.0
  0
LINE
  5
90E
100
AcDbEntity
  8
寸法
  6
CONTINUOUS
 62
     3
100
AcDbLine
 10
1153.0
 20
600.000324
 30
0.0
 11
1158.0
 21
630.000324
 31
0.0
  0
ENDBLK
  5
90F
100
AcDbEntity
  8
0
100
AcDbBlockEnd
  0
BLOCK
  5
913
100
AcDbEntity
  8
0
100
AcDbBlockBegin
  2
*D25
 70
    65
 10
0.0
 20
0.0
 30
0.0
  3
*D25
  1

  0
LINE
  5
914
100
AcDbEntity
  8
寸法
  6
CONTINUOUS
 62
     3
100
AcDbLine
 10
536.5
 20
513.1
 30
0.0
 11
536.5
 21
447.0
 31
0.0
  0
LINE
  5
915
100
AcDbEntity
  8
寸法
  6
CONTINUOUS
 62
     3
100
AcDbLine
 10
336.5
 20
595.000324
 30
0.0
 11
336.5
 21
447.0
 31
0.0
  0
TEXT
  5
916
100
AcDbEntity
  8
寸法
  6
CONTINUOUS
 62
     2
100
AcDbText
 10
388.2
 20
460.5
 30
0.0
 40
40.0
  1
200
 41
0.945
  7
EXCADSTD
 72
     1
 11
436.5
 21
460.5
 31
0.0
100
AcDbText
  0
LINE
  5
917
100
AcDbEntity
  8
寸法
  6
CONTINUOUS
 62
     3
100
AcDbLine
 10
536.5
 20
457.0
 30
0.0
 11
336.5
 21
457.0
 31
0.0
  0
LINE
  5
918
100
AcDbEntity
  8
寸法
  6
CONTINUOUS
 62
     3
100
AcDbLine
 10
506.5
 20
452.0
 30
0.0
 11
536.5
 21
457.0
 31
0.0
  0
LINE
  5
919
100
AcDbEntity
  8
寸法
  6
CONTINUOUS
 62
     3
100
AcDbLine
 10
536.5
 20
457.0
 30
0.0
 11
506.5
 21
462.0
 31
0.0
  0
LINE
  5
91A
100
AcDbEntity
  8
寸法
  6
CONTINUOUS
 62
     3
100
AcDbLine
 10
366.5
 20
462.0
 30
0.0
 11
336.5
 21
457.0
 31
0.0
  0
LINE
  5
91B
100
AcDbEntity
  8
寸法
  6
CONTINUOUS
 62
     3
100
AcDbLine
 10
336.5
 20
457.0
 30
0.0
 11
366.5
 21
452.0
 31
0.0
  0
ENDBLK
  5
91C
100
AcDbEntity
  8
0
100
AcDbBlockEnd
  0
BLOCK
  5
91F
100
AcDbEntity
  8
0
100
AcDbBlockBegin
  2
*D26
 70
    65
 10
0.0
 20
0.0
 30
0.0
  3
*D26
  1

  0
LINE
  5
920
100
AcDbEntity
  8
寸法
  6
CONTINUOUS
 62
     3
100
AcDbLine
 10
551.543623
 20
1407.360442
 30
0.0
 11
551.543623
 21
1502.987122
 31
0.0
  0
LINE
  5
921
100
AcDbEntity
  8
寸法
  6
CONTINUOUS
 62
     3
100
AcDbLine
 10
351.500029
 20
1381.987026
 30
0.0
 11
351.500029
 21
1502.987122
 31
0.0
  0
TEXT
  5
922
100
AcDbEntity
  8
寸法
  6
CONTINUOUS
 62
     2
100
AcDbText
 10
403.221826
 20
1496.487122
 30
0.0
 40
40.0
  1
200
 41
0.945
  7
EXCADSTD
 72
     1
 11
451.521826
 21
1496.487122
 31
0.0
100
AcDbText
  0
LINE
  5
923
100
AcDbEntity
  8
寸法
  6
CONTINUOUS
 62
     3
100
AcDbLine
 10
551.543623
 20
1492.987122
 30
0.0
 11
351.500029
 21
1492.987122
 31
0.0
  0
LINE
  5
924
100
AcDbEntity
  8
寸法
  6
CONTINUOUS
 62
     3
100
AcDbLine
 10
521.543623
 20
1487.987122
 30
0.0
 11
551.543623
 21
1492.987122
 31
0.0
  0
LINE
  5
925
100
AcDbEntity
  8
寸法
  6
CONTINUOUS
 62
     3
100
AcDbLine
 10
551.543623
 20
1492.987122
 30
0.0
 11
521.543623
 21
1497.987122
 31
0.0
  0
LINE
  5
926
100
AcDbEntity
  8
寸法
  6
CONTINUOUS
 62
     3
100
AcDbLine
 10
381.500029
 20
1497.987122
 30
0.0
 11
351.500029
 21
1492.987122
 31
0.0
  0
LINE
  5
927
100
AcDbEntity
  8
寸法
  6
CONTINUOUS
 62
     3
100
AcDbLine
 10
351.500029
 20
1492.987122
 30
0.0
 11
381.500029
 21
1487.987122
 31
0.0
  0
ENDBLK
  5
928
100
AcDbEntity
  8
0
100
AcDbBlockEnd
  0
BLOCK
  5
92B
100
AcDbEntity
  8
0
100
AcDbBlockBegin
  2
*D27
 70
    65
 10
0.0
 20
0.0
 30
0.0
  3
*D27
  1

  0
LINE
  5
92C
100
AcDbEntity
  8
寸法
  6
CONTINUOUS
 62
     3
100
AcDbLine
 10
351.500029
 20
1381.987026
 30
0.0
 11
351.500029
 21
1502.987122
 31
0.0
  0
TEXT
  5
92D
100
AcDbEntity
  8
寸法
  6
CONTINUOUS
 62
     2
100
AcDbText
 10
232.9
 20
1496.487122
 30
0.0
 40
40.0
  1
15
 41
0.945
  7
EXCADSTD
 72
     1
 11
266.5
 21
1496.487122
 31
0.0
100
AcDbText
  0
LINE
  5
92E
100
AcDbEntity
  8
寸法
  6
CONTINUOUS
 62
     3
100
AcDbLine
 10
381.500029
 20
1492.987122
 30
0.0
 11
222.999996
 21
1492.987122
 31
0.0
  0
LINE
  5
92F
100
AcDbEntity
  8
寸法
  6
CONTINUOUS
 62
     3
100
AcDbLine
 10
381.500029
 20
1497.987122
 30
0.0
 11
351.500029
 21
1492.987122
 31
0.0
  0
LINE
  5
930
100
AcDbEntity
  8
寸法
  6
CONTINUOUS
 62
     3
100
AcDbLine
 10
351.500029
 20
1492.987122
 30
0.0
 11
381.500029
 21
1487.987122
 31
0.0
  0
LINE
  5
931
100
AcDbEntity
  8
寸法
  6
CONTINUOUS
 62
     3
100
AcDbLine
 10
306.5
 20
1487.987122
 30
0.0
 11
336.5
 21
1492.987122
 31
0.0
  0
LINE
  5
932
100
AcDbEntity
  8
寸法
  6
CONTINUOUS
 62
     3
100
AcDbLine
 10
336.5
 20
1492.987122
 30
0.0
 11
306.5
 21
1497.987122
 31
0.0
  0
ENDBLK
  5
933
100
AcDbEntity
  8
0
100
AcDbBlockEnd
  0
BLOCK
  5
936
100
AcDbEntity
  8
0
100
AcDbBlockBegin
  2
*D28
 70
    65
 10
0.0
 20
0.0
 30
0.0
  3
*D28
  1

  0
LINE
  5
937
100
AcDbEntity
  8
寸法
  6
CONTINUOUS
 62
     3
100
AcDbLine
 10
243.0
 20
1414.987056
 30
0.0
 11
243.0
 21
1010.000324
 31
0.0
  0
LINE
  5
938
100
AcDbEntity
  8
寸法
  6
CONTINUOUS
 62
     3
100
AcDbLine
 10
248.0
 20
1384.987056
 30
0.0
 11
243.0
 21
1414.987056
 31
0.0
  0
LINE
  5
939
100
AcDbEntity
  8
寸法
  6
CONTINUOUS
 62
     3
100
AcDbLine
 10
243.0
 20
1414.987056
 30
0.0
 11
238.0
 21
1384.987056
 31
0.0
  0
LINE
  5
93A
100
AcDbEntity
  8
寸法
  6
CONTINUOUS
 62
     3
100
AcDbLine
 10
238.0
 20
1040.000324
 30
0.0
 11
243.0
 21
1010.000324
 31
0.0
  0
LINE
  5
93B
100
AcDbEntity
  8
寸法
  6
CONTINUOUS
 62
     3
100
AcDbLine
 10
243.0
 20
1010.000324
 30
0.0
 11
248.0
 21
1040.000324
 31
0.0
  0
TEXT
  5
93C
100
AcDbEntity
  8
寸法
  6
CONTINUOUS
 62
     2
100
AcDbText
 10
239.5
 20
1164.19369
 30
0.0
 40
40.0
  1
405
 50
90.0
 41
0.945
  7
EXCADSTD
 72
     1
 11
239.5
 21
1212.49369
 31
0.0
100
AcDbText
  0
LINE
  5
93D
100
AcDbEntity
  8
寸法
  6
CONTINUOUS
 62
     3
100
AcDbLine
 10
449.043623
 20
1414.987056
 30
0.0
 11
233.0
 21
1414.987056
 31
0.0
  0
ENDBLK
  5
93E
100
AcDbEntity
  8
0
100
AcDbBlockEnd
  0
BLOCK
  5
941
100
AcDbEntity
  8
0
100
AcDbBlockBegin
  2
*D29
 70
    65
 10
0.0
 20
0.0
 30
0.0
  3
*D29
  1

  0
LINE
  5
942
100
AcDbEntity
  8
寸法
  6
CONTINUOUS
 62
     3
100
AcDbLine
 10
1478.482971
 20
1407.924909
 30
0.0
 11
1478.482971
 21
1503.00032
 31
0.0
  0
LINE
  5
943
100
AcDbEntity
  8
寸法
  6
CONTINUOUS
 62
     3
100
AcDbLine
 10
1898.482971
 20
1407.924909
 30
0.0
 11
1898.482971
 21
1503.00032
 31
0.0
  0
TEXT
  5
944
100
AcDbEntity
  8
寸法
  6
CONTINUOUS
 62
     2
100
AcDbText
 10
1640.182971
 20
1496.50032
 30
0.0
 40
40.0
  1
420
 41
0.945
  7
EXCADSTD
 72
     1
 11
1688.482971
 21
1496.50032
 31
0.0
100
AcDbText
  0
LINE
  5
945
100
AcDbEntity
  8
寸法
  6
CONTINUOUS
 62
     3
100
AcDbLine
 10
1478.482971
 20
1493.00032
 30
0.0
 11
1898.482971
 21
1493.00032
 31
0.0
  0
LINE
  5
946
100
AcDbEntity
  8
寸法
  6
CONTINUOUS
 62
     3
100
AcDbLine
 10
1508.482971
 20
1498.00032
 30
0.0
 11
1478.482971
 21
1493.00032
 31
0.0
  0
LINE
  5
947
100
AcDbEntity
  8
寸法
  6
CONTINUOUS
 62
     3
100
AcDbLine
 10
1478.482971
 20
1493.00032
 30
0.0
 11
1508.482971
 21
1488.00032
 31
0.0
  0
LINE
  5
948
100
AcDbEntity
  8
寸法
  6
CONTINUOUS
 62
     3
100
AcDbLine
 10
1868.482971
 20
1488.00032
 30
0.0
 11
1898.482971
 21
1493.00032
 31
0.0
  0
LINE
  5
949
100
AcDbEntity
  8
寸法
  6
CONTINUOUS
 62
     3
100
AcDbLine
 10
1898.482971
 20
1493.00032
 30
0.0
 11
1868.482971
 21
1498.00032
 31
0.0
  0
ENDBLK
  5
94A
100
AcDbEntity
  8
0
100
AcDbBlockEnd
  0
ENDSEC
  0
SECTION
  2
ENTITIES
  0
LINE
  5
8E
100
AcDbEntity
  8
枠
  6
CONTINUOUS
 62
     7
100
AcDbLine
 10
190.0
 20
105.0
 30
0.0
 11
2010.0
 21
105.0
 31
0.0
  0
LINE
  5
8F
100
AcDbEntity
  8
枠
  6
CONTINUOUS
 62
     7
100
AcDbLine
 10
2010.0
 20
105.0
 30
0.0
 11
2010.0
 21
2905.0
 31
0.0
  0
LINE
  5
90
100
AcDbEntity
  8
枠
  6
CONTINUOUS
 62
     7
100
AcDbLine
 10
190.0
 20
105.0
 30
0.0
 11
190.0
 21
2905.0
 31
0.0
  0
LINE
  5
91
100
AcDbEntity
  8
枠
  6
CONTINUOUS
 62
     7
100
AcDbLine
 10
190.0
 20
2905.0
 30
0.0
 11
2010.0
 21
2905.0
 31
0.0
  0
LINE
  5
92
100
AcDbEntity
  8
枠
  6
CONTINUOUS
 62
     7
100
AcDbLine
 10
190.0
 20
325.0
 30
0.0
 11
2010.0
 21
325.0
 31
0.0
  0
LINE
  5
93
100
AcDbEntity
  8
枠
  6
CONTINUOUS
 62
     6
100
AcDbLine
 10
2010.0
 20
205.0
 30
0.0
 11
760.0
 21
205.0
 31
0.0
  0
LINE
  5
94
100
AcDbEntity
  8
枠
  6
CONTINUOUS
 62
     6
100
AcDbLine
 10
1870.0
 20
325.0
 30
0.0
 11
1870.0
 21
205.0
 31
0.0
  0
LINE
  5
95
100
AcDbEntity
  8
枠
  6
CONTINUOUS
 62
     6
100
AcDbLine
 10
1820.0
 20
325.0
 30
0.0
 11
1820.0
 21
205.0
 31
0.0
  0
LINE
  5
96
100
AcDbEntity
  8
枠
  6
CONTINUOUS
 62
     6
100
AcDbLine
 10
1450.0
 20
325.0
 30
0.0
 11
1450.0
 21
105.0
 31
0.0
  0
LINE
  5
97
100
AcDbEntity
  8
枠
  6
CONTINUOUS
 62
     6
100
AcDbLine
 10
1400.0
 20
325.0
 30
0.0
 11
1400.0
 21
105.0
 31
0.0
  0
LINE
  5
98
100
AcDbEntity
  8
枠
  6
CONTINUOUS
 62
     6
100
AcDbLine
 10
810.0
 20
325.0
 30
0.0
 11
810.0
 21
205.0
 31
0.0
  0
LINE
  5
99
100
AcDbEntity
  8
枠
  6
CONTINUOUS
 62
     6
100
AcDbLine
 10
760.0
 20
325.0
 30
0.0
 11
760.0
 21
105.0
 31
0.0
  0
LINE
  5
9A
100
AcDbEntity
  8
枠
  6
CONTINUOUS
 62
     6
100
AcDbLine
 10
630.0
 20
325.0
 30
0.0
 11
630.0
 21
105.0
 31
0.0
  0
LINE
  5
9B
100
AcDbEntity
  8
枠
  6
CONTINUOUS
 62
     6
100
AcDbLine
 10
500.0
 20
325.0
 30
0.0
 11
500.0
 21
105.0
 31
0.0
  0
LINE
  5
9C
100
AcDbEntity
  8
枠
  6
CONTINUOUS
 62
     6
100
AcDbLine
 10
345.0
 20
325.0
 30
0.0
 11
345.0
 21
105.0
 31
0.0
  0
LINE
  5
9D
100
AcDbEntity
  8
枠
  6
CONTINUOUS
 62
     6
100
AcDbLine
 10
190.0
 20
275.0
 30
0.0
 11
760.0
 21
275.0
 31
0.0
  0
LINE
  5
9E
100
AcDbEntity
  8
枠
  6
CONTINUOUS
 62
     6
100
AcDbLine
 10
1902.653809
 20
228.00293
 30
0.0
 11
1979.993897
 21
306.699829
 31
0.0
  0
TEXT
  5
9F
100
AcDbEntity
  8
枠
  6
CONTINUOUS
 62
     2
100
AcDbText
 10
1900.537109
 20
272.722778
 30
0.0
 40
30.0
  1
１
 41
0.826
  7
EXCADSTD
 72
     5
 11
1924.13711
 21
272.722778
 31
0.0
100
AcDbText
  0
TEXT
  5
A0
100
AcDbEntity
  8
枠
  6
CONTINUOUS
 62
     2
100
AcDbText
 10
1941.279297
 20
228.348846
 30
0.0
 40
30.0
  1
１０
 41
0.791
  7
EXCADSTD
 72
     5
 11
1993.067198
 21
228.348846
 31
0.0
100
AcDbText
  0
TEXT
  5
A1
100
AcDbEntity
  8
枠
  6
CONTINUOUS
 62
     2
100
AcDbText
 10
212.5
 20
278.75
 30
0.0
 40
42.5
  1
製図
 41
1.087059
  7
EXCADSTD
 72
     5
 11
313.326
 21
278.75
 31
0.0
100
AcDbText
  0
TEXT
  5
A2
100
AcDbEntity
  8
枠
  6
CONTINUOUS
 62
     2
100
AcDbText
 10
367.5
 20
278.75
 30
0.0
 40
42.5
  1
写図
 41
1.087059
  7
EXCADSTD
 72
     5
 11
468.326
 21
278.75
 31
0.0
100
AcDbText
  0
TEXT
  5
A3
100
AcDbEntity
  8
枠
  6
CONTINUOUS
 62
     2
100
AcDbText
 10
517.5
 20
278.75
 30
0.0
 40
42.5
  1
検図
 41
0.938824
  7
EXCADSTD
 72
     5
 11
604.577
 21
278.75
 31
0.0
100
AcDbText
  0
TEXT
  5
A4
100
AcDbEntity
  8
枠
  6
CONTINUOUS
 62
     2
100
AcDbText
 10
647.5
 20
278.75
 30
0.0
 40
42.5
  1
承認
 41
0.938824
  7
EXCADSTD
 72
     5
 11
734.577
 21
278.75
 31
0.0
100
AcDbText
  0
TEXT
  5
A5
100
AcDbEntity
  8
枠
  6
CONTINUOUS
 62
     2
100
AcDbText
 10
765.75
 20
268.75
 30
0.0
 40
42.5
  1
品
 41
0.84
  7
EXCADSTD
 72
     5
 11
799.75
 21
268.75
 31
0.0
100
AcDbText
  0
TEXT
  5
A6
100
AcDbEntity
  8
枠
  6
CONTINUOUS
 62
     2
100
AcDbText
 10
765.75
 20
218.75
 30
0.0
 40
42.5
  1
名
 41
0.84
  7
EXCADSTD
 72
     5
 11
799.75
 21
218.75
 31
0.0
100
AcDbText
  0
TEXT
  5
A7
100
AcDbEntity
  8
枠
  6
CONTINUOUS
 62
     2
100
AcDbText
 10
1405.75
 20
268.75
 30
0.0
 40
42.5
  1
品
 41
0.84
  7
EXCADSTD
 72
     5
 11
1439.75
 21
268.75
 31
0.0
100
AcDbText
  0
TEXT
  5
A8
100
AcDbEntity
  8
枠
  6
CONTINUOUS
 62
     2
100
AcDbText
 10
1405.75
 20
218.75
 30
0.0
 40
42.5
  1
番
 41
0.84
  7
EXCADSTD
 72
     5
 11
1439.75
 21
218.75
 31
0.0
100
AcDbText
  0
TEXT
  5
A9
100
AcDbEntity
  8
枠
  6
CONTINUOUS
 62
     2
100
AcDbText
 10
1826.75
 20
268.75
 30
0.0
 40
42.5
  1
尺
 41
0.84
  7
EXCADSTD
 72
     5
 11
1860.75
 21
268.75
 31
0.0
100
AcDbText
  0
TEXT
  5
AA
100
AcDbEntity
  8
枠
  6
CONTINUOUS
 62
     2
100
AcDbText
 10
1826.75
 20
218.75
 30
0.0
 40
42.5
  1
度
 41
0.84
  7
EXCADSTD
 72
     5
 11
1860.75
 21
218.75
 31
0.0
100
AcDbText
  0
TEXT
  5
AB
100
AcDbEntity
  8
枠
  6
CONTINUOUS
 62
     2
100
AcDbText
 10
1405.75
 20
155.75
 30
0.0
 40
42.5
  1
図
 41
0.84
  7
EXCADSTD
 72
     5
 11
1439.75
 21
155.75
 31
0.0
100
AcDbText
  0
TEXT
  5
AC
100
AcDbEntity
  8
枠
  6
CONTINUOUS
 62
     2
100
AcDbText
 10
1405.75
 20
112.75
 30
0.0
 40
42.5
  1
番
 41
0.84
  7
EXCADSTD
 72
     5
 11
1439.75
 21
112.75
 31
0.0
100
AcDbText
  0
LINE
  5
AD
100
AcDbEntity
  8
枠
  6
EXLTYPE2
 62
     6
100
AcDbLine
 10
10.0
 20
1505.0
 30
0.0
 11
190.0
 21
1505.0
 31
0.0
  0
CIRCLE
  5
AE
100
AcDbEntity
  8
枠
  6
CONTINUOUS
 62
     6
100
AcDbCircle
 10
240.0
 20
130.0
 30
0.0
 40
1.0
  0
CIRCLE
  5
AF
100
AcDbEntity
  8
枠
  6
CONTINUOUS
 62
     6
100
AcDbCircle
 10
290.0
 20
130.0
 30
0.0
 40
1.0
  0
CIRCLE
  5
B0
100
AcDbEntity
  8
枠
  6
CONTINUOUS
 62
     6
100
AcDbCircle
 10
395.0
 20
130.0
 30
0.0
 40
1.0
  0
CIRCLE
  5
B1
100
AcDbEntity
  8
枠
  6
CONTINUOUS
 62
     6
100
AcDbCircle
 10
445.0
 20
130.0
 30
0.0
 40
1.0
  0
LINE
  5
B2
100
AcDbEntity
  8
枠
  6
EXLTYPE2
 62
     6
100
AcDbLine
 10
190.0
 20
155.0
 30
0.0
 11
500.0
 21
155.0
 31
0.0
  0
TEXT
  5
B3
100
AcDbEntity
  8
枠
  6
CONTINUOUS
 62
     2
100
AcDbText
 10
819.746328
 20
269.398318
 30
0.0
 40
48.0
  1
洋風タンク密結サイホン防露便器セット
 41
0.569722
  7
EXCADSTD
 72
     5
 11
1405.746294
 21
269.398318
 31
0.0
100
AcDbText
  0
TEXT
  5
B4
100
AcDbEntity
  8
枠
  6
CONTINUOUS
 62
     6
100
AcDbText
 10
220.5
 20
186.0
 30
0.0
 40
50.0
  1
間瀬
 41
0.8568
  7
EXCADSTD
 72
     5
 11
313.9932
 21
186.0
 31
0.0
100
AcDbText
  0
TEXT
  5
B5
100
AcDbEntity
  8
枠
  6
CONTINUOUS
 62
     6
100
AcDbText
 10
501.5
 20
190.0
 30
0.0
 40
50.0
  1
地名坊
 41
0.7504
  7
EXCADSTD
 72
     5
 11
635.5
 21
190.0
 31
0.0
100
AcDbText
  0
TEXT
  5
B6
100
AcDbEntity
  8
枠
  6
CONTINUOUS
 62
     6
100
AcDbText
 10
647.5
 20
190.0
 30
0.0
 40
50.0
  1
古林
 41
0.8568
  7
EXCADSTD
 72
     5
 11
740.9932
 21
190.0
 31
0.0
100
AcDbText
  0
TEXT
  5
B8
100
AcDbEntity
  8
枠
  6
CONTINUOUS
 62
     2
100
AcDbText
 10
780.0
 20
125.0
 30
0.0
 40
45.0
  1
ジャニス工業株式会社
  7
EXCADTTF1
 72
     5
 11
1380.0
 21
125.0
 31
0.0
100
AcDbText
  0
TEXT
  5
B9
100
AcDbEntity
  8
枠
  6
CONTINUOUS
 62
     2
100
AcDbText
 10
1179.182927
 20
603.500324
 30
0.0
 40
40.0
  1
Ｆ．Ｌ
 41
0.833
  7
EXCADSTD
 72
     5
 11
1298.182927
 21
603.500324
 31
0.0
100
AcDbText
  0
TEXT
  5
BA
100
AcDbEntity
  8
枠
  6
CONTINUOUS
 62
     6
100
AcDbText
 10
192.044116
 20
116.950073
 30
0.0
 40
25.0
  1
２２
 41
0.75768
  7
EXCADSTD
 72
     5
 11
233.382775
 21
116.950073
 31
0.0
100
AcDbText
  0
TEXT
  5
BB
100
AcDbEntity
  8
枠
  6
CONTINUOUS
 62
     6
100
AcDbText
 10
251.544116
 20
116.950073
 30
0.0
 40
25.0
  1
４
 41
0.89208
  7
EXCADSTD
 72
     5
 11
272.784116
 21
116.950073
 31
0.0
100
AcDbText
  0
TEXT
  5
BC
100
AcDbEntity
  8
枠
  6
CONTINUOUS
 62
     6
100
AcDbText
 10
296.844116
 20
116.950073
 30
0.0
 40
25.0
  1
２１
 41
0.75768
  7
EXCADSTD
 72
     5
 11
338.182775
 21
116.950073
 31
0.0
100
AcDbText
  0
TEXT
  5
BD
100
AcDbEntity
  8
枠
  6
CONTINUOUS
 62
     2
100
AcDbText
 10
1458.090395
 20
266.884501
 30
0.0
 40
50.0
  1
ＳＣ８４ＳＧ－ＢＴ（ＣＴ）＃
 41
0.432
  7
EXCADSTD
 72
     5
 11
1818.090395
 21
266.884501
 31
0.0
100
AcDbText
  0
TEXT
  5
BE
100
AcDbEntity
  8
枠
  6
CONTINUOUS
 62
     7
100
AcDbText
 10
1463.325
 20
119.575
 30
0.0
 40
70.0
  1
Ｃ８４ＳＶ１００
 41
0.795
  7
EXCADSTD
 72
     5
 11
1993.325
 21
119.575
 31
0.0
100
AcDbText
  0
TEXT
  5
BF
100
AcDbEntity
  8
枠
  6
CONTINUOUS
 62
     2
100
AcDbText
 10
818.61084
 20
208.271332
 30
0.0
 40
57.5
  1
樹脂製防露型手洗無密結ロータンクセット
 41
0.447487
  7
EXCADSTD
 72
     5
 11
1400.610795
 21
208.271332
 31
0.0
100
AcDbText
  0
TEXT
  5
C0
100
AcDbEntity
  8
枠
  6
CONTINUOUS
 62
     2
100
AcDbText
 10
1458.090395
 20
214.0
 30
0.0
 40
50.0
  1
ＳＴＶ１９０ＲＵ－０ＡＥ（Ｙ）０Ｆ＃
 41
0.3304
  7
EXCADSTD
 72
     5
 11
1812.09037
 21
214.0
 31
0.0
100
AcDbText
  0
TEXT
  5
C1
100
AcDbEntity
  8
枠
  6
CONTINUOUS
 62
     2
100
AcDbText
 10
379.454101
 20
1613.104328
 30
0.0
 40
40.0
  1
Ｗ．Ｌ
 50
90.0
 41
0.833
  7
EXCADSTD
 72
     5
 11
379.454101
 21
1732.104328
 31
0.0
100
AcDbText
  0
DIMENSION
  5
CE
100
AcDbEntity
  8
便器
  6
CONTINUOUS
 62
     3
100
AcDbDimension
  2
*D14
 10
1181.0
 20
2369.49995
 30
0.0
 11
1157.5
 21
2547.0
 31
0.0
 70
   160
  3
STANDARD
100
AcDbAlignedDimension
 13
804.427395
 23
2724.50005
 33
0.0
 14
804.427395
 24
2369.49995
 34
0.0
 50
90.0
100
AcDbRotatedDimension
1001
ACAD
1000
DSTYLE
1002
{
1070
     6
1000
_EX_NORM
1070
     7
1000
_EX_NORM
1070
    41
1040
30.0
1070
    42
1040
5.0
1070
    44
1040
10.0
1070
    73
1070
     0
1070
    74
1070
     0
1070
    75
1070
     0
1070
    76
1070
     0
1070
    77
1070
     1
1070
    78
1070
     8
1070
   140
1040
40.0
1070
   147
1040
3.5
1070
   173
1070
     1
1070
   176
1070
     3
1070
   177
1070
     3
1070
   178
1070
     2
1070
   271
1070
     2
1070
   279
1070
     2
1070
   280
1070
     0
1070
   287
1070
     5
1070
   340
1005
CD
1002
}
  0
CIRCLE
  5
CF
100
AcDbEntity
  8
便器
  6
EXLTYPE2
 62
     6
100
AcDbCircle
 10
536.5
 20
2546.999984
 30
0.0
 40
42.0
  0
ARC
  5
D0
100
AcDbEntity
  8
便器
  6
EXLTYPE2
 62
     2
100
AcDbCircle
 10
804.427395
 20
624.14664
 30
0.0
 40
2100.35341
100
AcDbArc
 50
90.0
 51
92.156379
  0
ARC
  5
D1
100
AcDbEntity
  8
便器
  6
EXLTYPE2
 62
     2
100
AcDbCircle
 10
804.427395
 20
1224.50005
 30
0.0
 40
1500.0
100
AcDbArc
 50
87.225532
 51
90.0
  0
ARC
  5
D2
100
AcDbEntity
  8
便器
  6
EXLTYPE2
 62
     2
100
AcDbCircle
 10
864.933253
 20
2473.034758
 30
0.0
 40
250.0
100
AcDbArc
 50
38.052045
 51
87.225532
  0
ARC
  5
D3
100
AcDbEntity
  8
便器
  6
EXLTYPE2
 62
     2
100
AcDbCircle
 10
959.427395
 20
2547.0
 30
0.0
 40
130.0
100
AcDbArc
 50
0.0
 51
38.052045
  0
ARC
  5
D4
100
AcDbEntity
  8
便器
  6
EXLTYPE2
 62
     2
100
AcDbCircle
 10
959.427395
 20
2547.0
 30
0.0
 40
130.0
100
AcDbArc
 50
321.947955
 51
0.0
  0
ARC
  5
D5
100
AcDbEntity
  8
便器
  6
EXLTYPE2
 62
     2
100
AcDbCircle
 10
864.933253
 20
2620.965242
 30
0.0
 40
250.0
100
AcDbArc
 50
272.774468
 51
321.947955
  0
ARC
  5
D6
100
AcDbEntity
  8
便器
  6
EXLTYPE2
 62
     2
100
AcDbCircle
 10
804.427395
 20
3869.49995
 30
0.0
 40
1500.0
100
AcDbArc
 50
270.0
 51
272.774468
  0
ARC
  5
D7
100
AcDbEntity
  8
便器
  6
EXLTYPE2
 62
     2
100
AcDbCircle
 10
804.427395
 20
4469.85336
 30
0.0
 40
2100.35341
100
AcDbArc
 50
267.843615
 51
270.0
  0
ARC
  5
D8
100
AcDbEntity
  8
便器
  6
CONTINUOUS
 62
     7
100
AcDbCircle
 10
804.427395
 20
4469.85336
 30
0.0
 40
2100.35341
100
AcDbArc
 50
263.094001
 51
267.843615
  0
ARC
  5
D9
100
AcDbEntity
  8
便器
  6
CONTINUOUS
 62
     7
100
AcDbCircle
 10
804.427395
 20
624.14664
 30
0.0
 40
2100.35341
100
AcDbArc
 50
92.156379
 51
96.905999
  0
ARC
  5
DA
100
AcDbEntity
  8
便器
  6
EXLTYPE2
 62
     6
100
AcDbCircle
 10
677.537218
 20
2446.999984
 30
0.0
 40
1.0
100
AcDbArc
 50
0.0
 51
90.0
  0
ARC
  5
DB
100
AcDbEntity
  8
便器
  6
EXLTYPE2
 62
     6
100
AcDbCircle
 10
677.537218
 20
2428.999984
 30
0.0
 40
1.0
100
AcDbArc
 50
270.0
 51
0.0
  0
ARC
  5
DC
100
AcDbEntity
  8
便器
  6
EXLTYPE2
 62
     6
100
AcDbCircle
 10
639.537218
 20
2446.999984
 30
0.0
 40
1.0
100
AcDbArc
 50
90.0
 51
180.0
  0
ARC
  5
DD
100
AcDbEntity
  8
便器
  6
EXLTYPE2
 62
     6
100
AcDbCircle
 10
639.537218
 20
2428.999984
 30
0.0
 40
1.0
100
AcDbArc
 50
180.0
 51
270.0
  0
ARC
  5
DE
100
AcDbEntity
  8
便器
  6
EXLTYPE2
 62
     6
100
AcDbCircle
 10
633.799684
 20
2444.999984
 30
0.0
 40
3.0
100
AcDbArc
 50
90.0
 51
100.0
  0
ARC
  5
DF
100
AcDbEntity
  8
便器
  6
EXLTYPE2
 62
     6
100
AcDbCircle
 10
623.915218
 20
2443.257086
 30
0.0
 40
3.0
100
AcDbArc
 50
100.0
 51
131.321659
  0
ARC
  5
E0
100
AcDbEntity
  8
便器
  6
EXLTYPE2
 62
     6
100
AcDbCircle
 10
623.915218
 20
2432.742882
 30
0.0
 40
3.0
100
AcDbArc
 50
228.678341
 51
260.0
  0
ARC
  5
E1
100
AcDbEntity
  8
便器
  6
EXLTYPE2
 62
     6
100
AcDbCircle
 10
633.799684
 20
2430.999984
 30
0.0
 40
3.0
100
AcDbArc
 50
260.0
 51
270.0
  0
ARC
  5
E2
100
AcDbEntity
  8
便器
  6
EXLTYPE2
 62
     6
100
AcDbCircle
 10
683.274752
 20
2430.999984
 30
0.0
 40
3.0
100
AcDbArc
 50
270.0
 51
280.0
  0
ARC
  5
E3
100
AcDbEntity
  8
便器
  6
EXLTYPE2
 62
     6
100
AcDbCircle
 10
693.159217
 20
2432.742882
 30
0.0
 40
3.0
100
AcDbArc
 50
280.0
 51
311.321659
  0
ARC
  5
E4
100
AcDbEntity
  8
便器
  6
EXLTYPE2
 62
     6
100
AcDbCircle
 10
693.159217
 20
2443.257086
 30
0.0
 40
3.0
100
AcDbArc
 50
48.678341
 51
80.0
  0
ARC
  5
E5
100
AcDbEntity
  8
便器
  6
EXLTYPE2
 62
     6
100
AcDbCircle
 10
683.274752
 20
2444.999984
 30
0.0
 40
3.0
100
AcDbArc
 50
80.0
 51
90.0
  0
LINE
  5
E6
100
AcDbEntity
  8
便器
  6
EXLTYPE2
 62
     6
100
AcDbLine
 10
678.537218
 20
2443.567749
 30
0.0
 11
678.537218
 21
2446.999984
 31
0.0
  0
LINE
  5
E7
100
AcDbEntity
  8
便器
  6
EXLTYPE2
 62
     6
100
AcDbLine
 10
678.537218
 20
2428.999984
 30
0.0
 11
678.537218
 21
2432.43222
 31
0.0
  0
LINE
  5
E8
100
AcDbEntity
  8
便器
  6
EXLTYPE2
 62
     6
100
AcDbLine
 10
638.537218
 20
2443.567749
 30
0.0
 11
638.537218
 21
2446.999984
 31
0.0
  0
LINE
  5
E9
100
AcDbEntity
  8
便器
  6
EXLTYPE2
 62
     6
100
AcDbLine
 10
638.537218
 20
2428.999984
 30
0.0
 11
638.537218
 21
2432.43222
 31
0.0
  0
LINE
  5
EA
100
AcDbEntity
  8
便器
  6
EXLTYPE2
 62
     6
100
AcDbLine
 10
633.799684
 20
2447.999984
 30
0.0
 11
683.274752
 21
2447.999984
 31
0.0
  0
LINE
  5
EB
100
AcDbEntity
  8
便器
  6
EXLTYPE2
 62
     6
100
AcDbLine
 10
623.394274
 20
2446.21151
 30
0.0
 11
633.278739
 21
2447.954408
 31
0.0
  0
ARC
  5
EC
100
AcDbEntity
  8
便器
  6
EXLTYPE2
 62
     6
100
AcDbCircle
 10
628.537218
 20
2437.999984
 30
0.0
 40
10.0
100
AcDbArc
 50
131.321659
 51
228.678341
  0
LINE
  5
ED
100
AcDbEntity
  8
便器
  6
EXLTYPE2
 62
     6
100
AcDbLine
 10
623.394274
 20
2429.788459
 30
0.0
 11
633.278739
 21
2428.045561
 31
0.0
  0
LINE
  5
EE
100
AcDbEntity
  8
便器
  6
EXLTYPE2
 62
     6
100
AcDbLine
 10
633.799684
 20
2427.999984
 30
0.0
 11
683.274752
 21
2427.999984
 31
0.0
  0
LINE
  5
EF
100
AcDbEntity
  8
便器
  6
EXLTYPE2
 62
     6
100
AcDbLine
 10
693.680162
 20
2429.788459
 30
0.0
 11
683.795696
 21
2428.045561
 31
0.0
  0
ARC
  5
F0
100
AcDbEntity
  8
便器
  6
EXLTYPE2
 62
     6
100
AcDbCircle
 10
688.537218
 20
2437.999984
 30
0.0
 40
10.0
100
AcDbArc
 50
311.321659
 51
48.678341
  0
LINE
  5
F1
100
AcDbEntity
  8
便器
  6
EXLTYPE2
 62
     6
100
AcDbLine
 10
693.680162
 20
2446.21151
 30
0.0
 11
683.795696
 21
2447.954408
 31
0.0
  0
ARC
  5
F2
100
AcDbEntity
  8
便器
  6
EXLTYPE2
 62
     6
100
AcDbCircle
 10
641.656734
 20
2447.699984
 30
0.0
 40
0.3
100
AcDbArc
 50
14.931417
 51
90.0
  0
LINE
  5
F3
100
AcDbEntity
  8
便器
  6
EXLTYPE2
 62
     6
100
AcDbLine
 10
639.537218
 20
2442.999984
 30
0.0
 11
677.537218
 21
2442.999984
 31
0.0
  0
LINE
  5
F4
100
AcDbEntity
  8
便器
  6
EXLTYPE2
 62
     6
100
AcDbLine
 10
639.537218
 20
2432.999984
 30
0.0
 11
677.537218
 21
2432.999984
 31
0.0
  0
ARC
  5
F5
100
AcDbEntity
  8
便器
  6
EXLTYPE2
 62
     6
100
AcDbCircle
 10
693.537218
 20
2437.999984
 30
0.0
 40
16.0
100
AcDbArc
 50
159.635865
 51
200.364135
  0
ARC
  5
F6
100
AcDbEntity
  8
便器
  6
EXLTYPE2
 62
     6
100
AcDbCircle
 10
623.537218
 20
2437.999984
 30
0.0
 40
16.0
100
AcDbArc
 50
339.635865
 51
20.364135
  0
CIRCLE
  5
F7
100
AcDbEntity
  8
便器
  6
EXLTYPE2
 62
     6
100
AcDbCircle
 10
688.537218
 20
2437.999984
 30
0.0
 40
4.0
  0
CIRCLE
  5
F8
100
AcDbEntity
  8
便器
  6
EXLTYPE2
 62
     6
100
AcDbCircle
 10
628.537218
 20
2437.999984
 30
0.0
 40
4.0
  0
ARC
  5
F9
100
AcDbEntity
  8
便器
  6
EXLTYPE2
 62
     6
100
AcDbCircle
 10
677.537218
 20
2646.999984
 30
0.0
 40
1.0
100
AcDbArc
 50
270.0
 51
0.0
  0
ARC
  5
FA
100
AcDbEntity
  8
便器
  6
EXLTYPE2
 62
     6
100
AcDbCircle
 10
677.537218
 20
2664.999984
 30
0.0
 40
1.0
100
AcDbArc
 50
0.0
 51
90.0
  0
ARC
  5
FB
100
AcDbEntity
  8
便器
  6
EXLTYPE2
 62
     6
100
AcDbCircle
 10
639.537218
 20
2646.999984
 30
0.0
 40
1.0
100
AcDbArc
 50
180.0
 51
270.0
  0
ARC
  5
FC
100
AcDbEntity
  8
便器
  6
EXLTYPE2
 62
     6
100
AcDbCircle
 10
639.537218
 20
2664.999984
 30
0.0
 40
1.0
100
AcDbArc
 50
90.0
 51
180.0
  0
ARC
  5
FD
100
AcDbEntity
  8
便器
  6
EXLTYPE2
 62
     6
100
AcDbCircle
 10
633.799684
 20
2648.999984
 30
0.0
 40
3.0
100
AcDbArc
 50
260.0
 51
270.0
  0
ARC
  5
FE
100
AcDbEntity
  8
便器
  6
EXLTYPE2
 62
     6
100
AcDbCircle
 10
623.915218
 20
2650.742882
 30
0.0
 40
3.0
100
AcDbArc
 50
228.678341
 51
260.0
  0
ARC
  5
FF
100
AcDbEntity
  8
便器
  6
EXLTYPE2
 62
     6
100
AcDbCircle
 10
623.915218
 20
2661.257086
 30
0.0
 40
3.0
100
AcDbArc
 50
100.0
 51
131.321659
  0
ARC
  5
100
100
AcDbEntity
  8
便器
  6
EXLTYPE2
 62
     6
100
AcDbCircle
 10
633.799684
 20
2662.999984
 30
0.0
 40
3.0
100
AcDbArc
 50
90.0
 51
100.0
  0
ARC
  5
101
100
AcDbEntity
  8
便器
  6
EXLTYPE2
 62
     6
100
AcDbCircle
 10
683.274752
 20
2662.999984
 30
0.0
 40
3.0
100
AcDbArc
 50
80.0
 51
90.0
  0
ARC
  5
102
100
AcDbEntity
  8
便器
  6
EXLTYPE2
 62
     6
100
AcDbCircle
 10
693.159217
 20
2661.257086
 30
0.0
 40
3.0
100
AcDbArc
 50
48.678341
 51
80.0
  0
ARC
  5
103
100
AcDbEntity
  8
便器
  6
EXLTYPE2
 62
     6
100
AcDbCircle
 10
693.159217
 20
2650.742882
 30
0.0
 40
3.0
100
AcDbArc
 50
280.0
 51
311.321659
  0
ARC
  5
104
100
AcDbEntity
  8
便器
  6
EXLTYPE2
 62
     6
100
AcDbCircle
 10
683.274752
 20
2648.999984
 30
0.0
 40
3.0
100
AcDbArc
 50
270.0
 51
280.0
  0
LINE
  5
105
100
AcDbEntity
  8
便器
  6
EXLTYPE2
 62
     6
100
AcDbLine
 10
678.537218
 20
2650.43222
 30
0.0
 11
678.537218
 21
2646.999984
 31
0.0
  0
LINE
  5
106
100
AcDbEntity
  8
便器
  6
EXLTYPE2
 62
     6
100
AcDbLine
 10
678.537218
 20
2664.999984
 30
0.0
 11
678.537218
 21
2661.567749
 31
0.0
  0
LINE
  5
107
100
AcDbEntity
  8
便器
  6
EXLTYPE2
 62
     6
100
AcDbLine
 10
638.537218
 20
2650.43222
 30
0.0
 11
638.537218
 21
2646.999984
 31
0.0
  0
LINE
  5
108
100
AcDbEntity
  8
便器
  6
EXLTYPE2
 62
     6
100
AcDbLine
 10
638.537218
 20
2664.999984
 30
0.0
 11
638.537218
 21
2661.567749
 31
0.0
  0
LINE
  5
109
100
AcDbEntity
  8
便器
  6
EXLTYPE2
 62
     6
100
AcDbLine
 10
633.799684
 20
2645.999984
 30
0.0
 11
683.274752
 21
2645.999984
 31
0.0
  0
LINE
  5
10A
100
AcDbEntity
  8
便器
  6
EXLTYPE2
 62
     6
100
AcDbLine
 10
623.394274
 20
2647.788459
 30
0.0
 11
633.278739
 21
2646.045561
 31
0.0
  0
ARC
  5
10B
100
AcDbEntity
  8
便器
  6
EXLTYPE2
 62
     6
100
AcDbCircle
 10
628.537218
 20
2655.999984
 30
0.0
 40
10.0
100
AcDbArc
 50
131.321659
 51
228.678341
  0
LINE
  5
10C
100
AcDbEntity
  8
便器
  6
EXLTYPE2
 62
     6
100
AcDbLine
 10
623.394274
 20
2664.21151
 30
0.0
 11
633.278739
 21
2665.954408
 31
0.0
  0
LINE
  5
10D
100
AcDbEntity
  8
便器
  6
EXLTYPE2
 62
     6
100
AcDbLine
 10
633.799684
 20
2665.999984
 30
0.0
 11
683.274752
 21
2665.999984
 31
0.0
  0
LINE
  5
10E
100
AcDbEntity
  8
便器
  6
EXLTYPE2
 62
     6
100
AcDbLine
 10
693.680162
 20
2664.21151
 30
0.0
 11
683.795696
 21
2665.954408
 31
0.0
  0
ARC
  5
10F
100
AcDbEntity
  8
便器
  6
EXLTYPE2
 62
     6
100
AcDbCircle
 10
688.537218
 20
2655.999984
 30
0.0
 40
10.0
100
AcDbArc
 50
311.321659
 51
48.678341
  0
LINE
  5
110
100
AcDbEntity
  8
便器
  6
EXLTYPE2
 62
     6
100
AcDbLine
 10
693.680162
 20
2647.788459
 30
0.0
 11
683.795696
 21
2646.045561
 31
0.0
  0
ARC
  5
111
100
AcDbEntity
  8
便器
  6
EXLTYPE2
 62
     6
100
AcDbCircle
 10
641.656734
 20
2646.299984
 30
0.0
 40
0.3
100
AcDbArc
 50
270.0
 51
345.068583
  0
LINE
  5
112
100
AcDbEntity
  8
便器
  6
EXLTYPE2
 62
     6
100
AcDbLine
 10
639.537218
 20
2650.999984
 30
0.0
 11
677.537218
 21
2650.999984
 31
0.0
  0
LINE
  5
113
100
AcDbEntity
  8
便器
  6
EXLTYPE2
 62
     6
100
AcDbLine
 10
639.537218
 20
2660.999984
 30
0.0
 11
677.537218
 21
2660.999984
 31
0.0
  0
ARC
  5
114
100
AcDbEntity
  8
便器
  6
EXLTYPE2
 62
     6
100
AcDbCircle
 10
693.537218
 20
2655.999984
 30
0.0
 40
16.0
100
AcDbArc
 50
159.635865
 51
200.364135
  0
ARC
  5
115
100
AcDbEntity
  8
便器
  6
EXLTYPE2
 62
     6
100
AcDbCircle
 10
623.537218
 20
2655.999984
 30
0.0
 40
16.0
100
AcDbArc
 50
339.635865
 51
20.364135
  0
CIRCLE
  5
116
100
AcDbEntity
  8
便器
  6
EXLTYPE2
 62
     6
100
AcDbCircle
 10
688.537218
 20
2655.999984
 30
0.0
 40
4.0
  0
CIRCLE
  5
117
100
AcDbEntity
  8
便器
  6
EXLTYPE2
 62
     6
100
AcDbCircle
 10
628.537218
 20
2655.999984
 30
0.0
 40
4.0
  0
ARC
  5
118
100
AcDbEntity
  8
便器
  6
EXLTYPE2
 62
     2
100
AcDbCircle
 10
852.481213
 20
227.399582
 30
0.0
 40
2500.0
100
AcDbArc
 50
97.099484
 51
99.411257
  0
ARC
  5
119
100
AcDbEntity
  8
便器
  6
EXLTYPE2
 62
     2
100
AcDbCircle
 10
449.111637
 20
2661.199489
 30
0.0
 40
33.0
100
AcDbArc
 50
99.410462
 51
154.198268
  0
ARC
  5
11A
100
AcDbEntity
  8
便器
  6
EXLTYPE2
 62
     2
100
AcDbCircle
 10
449.111637
 20
2432.800511
 30
0.0
 40
33.0
100
AcDbArc
 50
205.801732
 51
260.589538
  0
ARC
  5
11B
100
AcDbEntity
  8
便器
  6
EXLTYPE2
 62
     2
100
AcDbCircle
 10
852.481213
 20
4866.600418
 30
0.0
 40
2500.0
100
AcDbArc
 50
260.588743
 51
262.900515
  0
ARC
  5
11C
100
AcDbEntity
  8
便器
  6
CONTINUOUS
 62
     7
100
AcDbCircle
 10
852.481213
 20
4866.600418
 30
0.0
 40
2500.0
100
AcDbArc
 50
262.900515
 51
263.094001
  0
ARC
  5
11D
100
AcDbEntity
  8
便器
  6
CONTINUOUS
 62
     7
100
AcDbCircle
 10
852.481213
 20
227.399582
 30
0.0
 40
2500.0
100
AcDbArc
 50
96.905999
 51
97.099484
  0
ARC
  5
11E
100
AcDbEntity
  8
便器
  6
CONTINUOUS
 62
     6
100
AcDbCircle
 10
327.404578
 20
2829.534549
 30
0.0
 40
443.698439
100
AcDbArc
 50
335.41222
 51
335.445155
  0
ARC
  5
11F
100
AcDbEntity
  8
便器
  6
CONTINUOUS
 62
     7
100
AcDbCircle
 10
869.499889
 20
2547.0
 30
0.0
 40
200.0
100
AcDbArc
 50
180.0
 51
180.000132
  0
ARC
  5
120
100
AcDbEntity
  8
便器
  6
CONTINUOUS
 62
     7
100
AcDbCircle
 10
869.499889
 20
2547.0
 30
0.0
 40
200.0
100
AcDbArc
 50
179.999868
 51
180.0
  0
ARC
  5
121
100
AcDbEntity
  8
便器
  6
CONTINUOUS
 62
     4
100
AcDbCircle
 10
824.077741
 20
2546.999887
 30
0.0
 40
145.292051
100
AcDbArc
 50
179.999955
 51
180.0
  0
ELLIPSE
  5
122
100
AcDbEntity
  8
便器
  6
CONTINUOUS
 62
     4
100
AcDbEllipse
 10
504.653889
 20
2546.999836
 30
0.0
 11
-0.0000111097055222
 21
13.999999999998822
 31
0.0
210
0.0
220
0.0
230
1.0
 40
0.107692
 41
4.7123665800704231
 42
4.7123889803846923
  0
ARC
  5
123
100
AcDbEntity
  8
便器
  6
CONTINUOUS
 62
     4
100
AcDbCircle
 10
809.499889
 20
2546.999862
 30
0.0
 40
140.0
100
AcDbArc
 50
179.999984
 51
180.000132
  0
LINE
  5
124
100
AcDbEntity
  8
便器
  6
CONTINUOUS
 62
     4
100
AcDbLine
 10
475.362713
 20
2409.549149
 30
0.0
 11
475.500042
 21
2409.549149
 31
0.0
  0
ARC
  5
125
100
AcDbEntity
  8
便器
  6
CONTINUOUS
 62
     4
100
AcDbCircle
 10
824.077741
 20
2547.000113
 30
0.0
 40
145.292051
100
AcDbArc
 50
180.0
 51
180.000045
  0
ELLIPSE
  5
126
100
AcDbEntity
  8
便器
  6
CONTINUOUS
 62
     4
100
AcDbEllipse
 10
504.653889
 20
2547.000164
 30
0.0
 11
0.0000111097054621
 21
13.999999999998822
 31
0.0
210
0.0
220
0.0
230
1.0
 40
0.107692
 41
4.7123889803846932
 42
4.7124113806989563
  0
ARC
  5
127
100
AcDbEntity
  8
便器
  6
CONTINUOUS
 62
     4
100
AcDbCircle
 10
809.499889
 20
2547.000138
 30
0.0
 40
140.0
100
AcDbArc
 50
179.999868
 51
180.000016
  0
ARC
  5
128
100
AcDbEntity
  8
便器
  6
EXLTYPE2
 62
     2
100
AcDbCircle
 10
517.898514
 20
2546.999984
 30
0.0
 40
500.0
100
AcDbArc
 50
347.098592
 51
11.315011
  0
ARC
  5
129
100
AcDbEntity
  8
便器
  6
EXLTYPE2
 62
     2
100
AcDbCircle
 10
978.76326
 20
2639.215414
 30
0.0
 40
30.0
100
AcDbArc
 50
11.315011
 51
82.789562
  0
ARC
  5
12A
100
AcDbEntity
  8
便器
  6
EXLTYPE2
 62
     2
100
AcDbCircle
 10
731.500735
 20
684.794466
 30
0.0
 40
2000.0
100
AcDbArc
 50
82.758127
 51
98.672848
  0
ARC
  5
12B
100
AcDbEntity
  8
便器
  6
EXLTYPE2
 62
     2
100
AcDbCircle
 10
433.685825
 20
2637.211245
 30
0.0
 40
25.0
100
AcDbArc
 50
98.672848
 51
173.315525
  0
ARC
  5
12C
100
AcDbEntity
  8
便器
  6
EXLTYPE2
 62
     2
100
AcDbCircle
 10
978.76326
 20
2454.784555
 30
0.0
 40
30.0
100
AcDbArc
 50
277.210438
 51
348.684989
  0
ARC
  5
12D
100
AcDbEntity
  8
便器
  6
EXLTYPE2
 62
     2
100
AcDbCircle
 10
731.500735
 20
4409.205503
 30
0.0
 40
2000.0
100
AcDbArc
 50
261.327152
 51
277.241873
  0
ARC
  5
12E
100
AcDbEntity
  8
便器
  6
EXLTYPE2
 62
     2
100
AcDbCircle
 10
433.685825
 20
2456.788724
 30
0.0
 40
25.0
100
AcDbArc
 50
186.684475
 51
261.327152
  0
LINE
  5
12F
100
AcDbEntity
  8
便器
  6
EXLTYPE3
 62
     6
100
AcDbLine
 10
448.499996
 20
647.000002
 30
0.0
 11
448.499996
 21
661.636939
 31
0.0
  0
ARC
  5
130
100
AcDbEntity
  8
便器
  6
CONTINUOUS
 62
     7
100
AcDbCircle
 10
2401.315231
 20
508.322317
 30
0.0
 40
2000.0
100
AcDbArc
 50
172.279216
 51
174.759276
  0
ARC
  5
131
100
AcDbEntity
  8
便器
  6
CONTINUOUS
 62
     7
100
AcDbCircle
 10
2401.315231
 20
508.322317
 30
0.0
 40
2000.0
100
AcDbArc
 50
170.447304
 51
170.678427
  0
ARC
  5
132
100
AcDbEntity
  8
便器
  6
CONTINUOUS
 62
     7
100
AcDbCircle
 10
328.462849
 20
857.158956
 30
0.0
 40
102.0
100
AcDbArc
 50
350.392956
 51
23.385397
  0
ARC
  5
133
100
AcDbEntity
  8
便器
  6
CONTINUOUS
 62
     7
100
AcDbCircle
 10
866.345518
 20
1123.020261
 30
0.0
 40
498.0
100
AcDbArc
 50
201.225572
 51
202.41592
  0
LINE
  5
134
100
AcDbEntity
  8
便器
  6
CONTINUOUS
 62
     2
100
AcDbLine
 10
401.687528
 20
982.793037
 30
0.0
 11
394.1
 21
982.900004
 31
0.0
  0
LINE
  5
135
100
AcDbEntity
  8
便器
  6
CONTINUOUS
 62
     2
100
AcDbLine
 10
485.57224
 20
981.610461
 30
0.0
 11
414.751742
 21
982.608863
 31
0.0
  0
ARC
  5
136
100
AcDbEntity
  8
便器
  6
CONTINUOUS
 62
     7
100
AcDbCircle
 10
2401.315231
 20
508.322317
 30
0.0
 40
2000.0
100
AcDbArc
 50
175.79704
 51
177.372698
  0
LINE
  5
137
100
AcDbEntity
  8
便器
  6
CONTINUOUS
 62
     2
100
AcDbLine
 10
451.511041
 20
630.000004
 30
0.0
 11
477.019117
 21
630.000004
 31
0.0
  0
LINE
  5
138
100
AcDbEntity
  8
便器
  6
CONTINUOUS
 62
     2
100
AcDbLine
 10
414.412922
 20
630.000004
 30
0.0
 11
421.488928
 21
630.000004
 31
0.0
  0
LINE
  5
139
100
AcDbEntity
  8
便器
  6
CONTINUOUS
 62
     2
100
AcDbLine
 10
510.669883
 20
856.232243
 30
0.0
 11
713.770323
 21
856.232243
 31
0.0
  0
LINE
  5
13A
100
AcDbEntity
  8
便器
  6
CONTINUOUS
 62
     7
100
AcDbLine
 10
998.769145
 20
878.563206
 30
0.0
 11
1017.898514
 21
600.000324
 31
0.0
  0
ARC
  5
13B
100
AcDbEntity
  8
便器
  6
CONTINUOUS
 62
     2
100
AcDbCircle
 10
414.492971
 20
620.000324
 30
0.0
 40
10.0
100
AcDbArc
 50
90.0
 51
176.004953
  0
LINE
  5
13C
100
AcDbEntity
  8
便器
  6
CONTINUOUS
 62
     2
100
AcDbLine
 10
481.798759
 20
828.325926
 30
0.0
 11
475.384996
 21
639.660246
 31
0.0
  0
LINE
  5
13D
100
AcDbEntity
  8
便器
  6
CONTINUOUS
 62
     2
100
AcDbLine
 10
487.01334
 20
639.660158
 30
0.0
 11
493.490868
 21
830.151839
 31
0.0
  0
ARC
  5
13E
100
AcDbEntity
  8
便器
  6
CONTINUOUS
 62
     2
100
AcDbCircle
 10
465.390769
 20
640.000004
 30
0.0
 40
10.0
100
AcDbArc
 50
270.0
 51
358.0
  0
ARC
  5
13F
100
AcDbEntity
  8
便器
  6
CONTINUOUS
 62
     2
100
AcDbCircle
 10
477.019117
 20
640.000004
 30
0.0
 40
10.0
100
AcDbArc
 50
270.0
 51
358.0
  0
ARC
  5
140
100
AcDbEntity
  8
便器
  6
CONTINUOUS
 62
     7
100
AcDbCircle
 10
1057.627149
 20
967.383617
 30
0.0
 40
30.0
100
AcDbArc
 50
320.112729
 51
355.0
  0
LINE
  5
141
100
AcDbEntity
  8
便器
  6
CONTINUOUS
 62
     7
100
AcDbLine
 10
1089.427397
 20
986.650716
 30
0.0
 11
1087.51299
 21
964.768945
 31
0.0
  0
LINE
  5
142
100
AcDbEntity
  8
便器
  6
CONTINUOUS
 62
     7
100
AcDbLine
 10
1089.427397
 20
991.000004
 30
0.0
 11
1089.427397
 21
986.650716
 31
0.0
  0
ARC
  5
143
100
AcDbEntity
  8
便器
  6
CONTINUOUS
 62
     7
100
AcDbCircle
 10
886.634903
 20
1058.181179
 30
0.0
 40
500.0
100
AcDbArc
 50
186.167575
 51
192.278783
  0
ARC
  5
144
100
AcDbEntity
  8
便器
  6
CONTINUOUS
 62
     7
100
AcDbCircle
 10
402.958328
 20
952.910237
 30
0.0
 40
5.0
100
AcDbArc
 50
192.278783
 51
229.308541
  0
ARC
  5
145
100
AcDbEntity
  8
便器
  6
CONTINUOUS
 62
     7
100
AcDbCircle
 10
887.561054
 20
1053.990757
 30
0.0
 40
498.0
100
AcDbArc
 50
192.475932
 51
192.943002
  0
ARC
  5
146
100
AcDbEntity
  8
便器
  6
CONTINUOUS
 62
     7
100
AcDbCircle
 10
396.438474
 20
945.327922
 30
0.0
 40
5.0
100
AcDbArc
 50
12.475932
 51
49.308541
  0
LINE
  5
147
100
AcDbEntity
  8
便器
  6
CONTINUOUS
 62
     7
100
AcDbLine
 10
519.5
 20
1008.000004
 30
0.0
 11
519.5
 21
1010.000004
 31
0.0
  0
LINE
  5
148
100
AcDbEntity
  8
便器
  6
CONTINUOUS
 62
     7
100
AcDbLine
 10
519.5
 20
1008.000004
 30
0.0
 11
519.789767
 21
1004.233039
 31
0.0
  0
ARC
  5
149
100
AcDbEntity
  8
便器
  6
CONTINUOUS
 62
     7
100
AcDbCircle
 10
529.760311
 20
1005.000004
 30
0.0
 40
10.0
100
AcDbArc
 50
184.398705
 51
270.0
  0
ARC
  5
14A
100
AcDbEntity
  8
便器
  6
CONTINUOUS
 62
     7
100
AcDbCircle
 10
1013.733902
 20
879.59086
 30
0.0
 40
15.0
100
AcDbArc
 50
113.737921
 51
184.0
  0
ARC
  5
14B
100
AcDbEntity
  8
便器
  6
CONTINUOUS
 62
     7
100
AcDbCircle
 10
927.184851
 20
1076.401078
 30
0.0
 40
200.0
100
AcDbArc
 50
293.737921
 51
320.112729
  0
ARC
  5
14C
100
AcDbEntity
  8
便器
  6
CONTINUOUS
 62
     7
100
AcDbCircle
 10
1085.427397
 20
991.000004
 30
0.0
 40
4.0
100
AcDbArc
 50
0.0
 51
90.0
  0
ARC
  5
14D
100
AcDbEntity
  8
便器
  6
CONTINUOUS
 62
     7
100
AcDbCircle
 10
394.5
 20
1005.000004
 30
0.0
 40
5.0
100
AcDbArc
 50
90.0
 51
183.614812
  0
LINE
  5
14E
100
AcDbEntity
  8
便器
  6
CONTINUOUS
 62
     2
100
AcDbLine
 10
478.286089
 20
922.191011
 30
0.0
 11
451.847765
 21
962.639042
 31
0.0
  0
ARC
  5
14F
100
AcDbEntity
  8
便器
  6
CONTINUOUS
 62
     2
100
AcDbCircle
 10
683.057129
 20
869.224324
 30
0.0
 40
13.0
100
AcDbArc
 50
206.918076
 51
272.0
  0
ARC
  5
150
100
AcDbEntity
  8
便器
  6
CONTINUOUS
 62
     2
100
AcDbCircle
 10
713.770323
 20
861.232243
 30
0.0
 40
5.0
100
AcDbArc
 50
270.0
 51
40.444207
  0
ARC
  5
151
100
AcDbEntity
  8
便器
  6
CONTINUOUS
 62
     2
100
AcDbCircle
 10
875.87142
 20
999.406894
 30
0.0
 40
208.0
100
AcDbArc
 50
209.455065
 51
220.444207
  0
ARC
  5
152
100
AcDbEntity
  8
便器
  6
CONTINUOUS
 62
     2
100
AcDbCircle
 10
675.600848
 20
886.306506
 30
0.0
 40
22.0
100
AcDbArc
 50
29.455065
 51
79.0
  0
ARC
  5
153
100
AcDbEntity
  8
便器
  6
CONTINUOUS
 62
     2
100
AcDbCircle
 10
641.884616
 20
908.532138
 30
0.0
 40
6.616076
100
AcDbArc
 50
79.0
 51
232.614885
  0
LINE
  5
154
100
AcDbEntity
  8
便器
  6
CONTINUOUS
 62
     2
100
AcDbLine
 10
643.147023
 20
915.026658
 30
0.0
 11
679.798646
 21
907.902304
 31
0.0
  0
ARC
  5
155
100
AcDbEntity
  8
便器
  6
CONTINUOUS
 62
     2
100
AcDbCircle
 10
520.47319
 20
829.234326
 30
0.0
 40
26.997917
100
AcDbArc
 50
90.0
 51
178.0
  0
ARC
  5
156
100
AcDbEntity
  8
便器
  6
CONTINUOUS
 62
     2
100
AcDbCircle
 10
510.669883
 20
827.344441
 30
0.0
 40
28.887802
100
AcDbArc
 50
90.0
 51
178.0
  0
LINE
  5
157
100
AcDbEntity
  8
便器
  6
CONTINUOUS
 62
     2
100
AcDbLine
 10
521.602295
 20
955.00768
 30
0.0
 11
875.5
 21
947.000004
 31
0.0
  0
ARC
  5
158
100
AcDbEntity
  8
便器
  6
CONTINUOUS
 62
     2
100
AcDbCircle
 10
485.448254
 20
972.815657
 30
0.0
 40
8.795678
100
AcDbArc
 50
18.30435
 51
87.040428
  0
ARC
  5
159
100
AcDbEntity
  8
便器
  6
CONTINUOUS
 62
     2
100
AcDbCircle
 10
522.280934
 20
985.000004
 30
0.0
 40
30.0
100
AcDbArc
 50
198.30435
 51
270.0
  0
ARC
  5
15A
100
AcDbEntity
  8
便器
  6
CONTINUOUS
 62
     2
100
AcDbCircle
 10
497.944181
 20
935.040265
 30
0.0
 40
23.484971
100
AcDbArc
 50
213.170111
 51
297.668899
  0
ARC
  5
15B
100
AcDbEntity
  8
便器
  6
CONTINUOUS
 62
     2
100
AcDbCircle
 10
564.761201
 20
807.604567
 30
0.0
 40
120.405165
100
AcDbArc
 50
27.168724
 51
117.668899
  0
LINE
  5
15C
100
AcDbEntity
  8
便器
  6
CONTINUOUS
 62
     7
100
AcDbLine
 10
529.760311
 20
995.000004
 30
0.0
 11
1085.427397
 21
995.000004
 31
0.0
  0
LINE
  5
15D
100
AcDbEntity
  8
便器
  6
CONTINUOUS
 62
     2
100
AcDbLine
 10
795.5
 20
871.000004
 30
0.0
 11
951.016229
 21
871.000004
 31
0.0
  0
ARC
  5
15E
100
AcDbEntity
  8
便器
  6
CONTINUOUS
 62
     2
100
AcDbCircle
 10
951.016229
 20
951.164732
 30
0.0
 40
80.164728
100
AcDbArc
 50
270.0
 51
307.724839
  0
LINE
  5
15F
100
AcDbEntity
  8
便器
  6
EXLTYPE4
 62
     6
100
AcDbLine
 10
1732.983879
 20
525.885054
 30
0.0
 11
1732.983879
 21
600.000324
 31
0.0
  0
ARC
  5
160
100
AcDbEntity
  8
便器
  6
EXLTYPE4
 62
     6
100
AcDbCircle
 10
1710.733879
 20
556.070937
 30
0.0
 40
37.5
100
AcDbArc
 50
233.60609
 51
306.39391
  0
ARC
  5
161
100
AcDbEntity
  8
便器
  6
EXLTYPE4
 62
     6
100
AcDbCircle
 10
1666.233879
 20
495.699172
 30
0.0
 40
37.5
100
AcDbArc
 50
53.60609
 51
126.39391
  0
ARC
  5
162
100
AcDbEntity
  8
便器
  6
EXLTYPE4
 62
     6
100
AcDbCircle
 10
1666.233879
 20
556.070937
 30
0.0
 40
37.5
100
AcDbArc
 50
233.60609
 51
306.39391
  0
LINE
  5
163
100
AcDbEntity
  8
便器
  6
EXLTYPE4
 62
     6
100
AcDbLine
 10
1643.983879
 20
525.885054
 30
0.0
 11
1643.983879
 21
600.000324
 31
0.0
  0
ARC
  5
164
100
AcDbEntity
  8
便器
  6
CONTINUOUS
 62
     2
100
AcDbCircle
 10
1688.482971
 20
1150.000324
 30
0.0
 40
270.0
100
AcDbArc
 50
258.627822
 51
281.372178
  0
ARC
  5
165
100
AcDbEntity
  8
便器
  6
CONTINUOUS
 62
     2
100
AcDbCircle
 10
1664.821214
 20
1032.356279
 30
0.0
 40
150.0
100
AcDbArc
 50
239.187439
 51
258.627822
  0
ARC
  5
166
100
AcDbEntity
  8
便器
  6
CONTINUOUS
 62
     2
100
AcDbCircle
 10
1582.864228
 20
894.94066
 30
0.0
 40
10.0
100
AcDbArc
 50
59.187439
 51
171.997592
  0
ARC
  5
167
100
AcDbEntity
  8
便器
  6
CONTINUOUS
 62
     2
100
AcDbCircle
 10
1712.144727
 20
1032.356279
 30
0.0
 40
150.0
100
AcDbArc
 50
281.372178
 51
300.812561
  0
ARC
  5
168
100
AcDbEntity
  8
便器
  6
CONTINUOUS
 62
     2
100
AcDbCircle
 10
1794.101713
 20
894.94066
 30
0.0
 40
10.0
100
AcDbArc
 50
8.002408
 51
120.812561
  0
LINE
  5
169
100
AcDbEntity
  8
便器
  6
CONTINUOUS
 62
     2
100
AcDbLine
 10
1716.044489
 20
955.79439
 30
0.0
 11
1660.921453
 21
955.79439
 31
0.0
  0
ARC
  5
16A
100
AcDbEntity
  8
便器
  6
CONTINUOUS
 62
     2
100
AcDbCircle
 10
1716.044489
 20
455.79439
 30
0.0
 40
500.0
100
AcDbArc
 50
75.149298
 51
90.0
  0
ARC
  5
16B
100
AcDbEntity
  8
便器
  6
CONTINUOUS
 62
     2
100
AcDbCircle
 10
1660.921453
 20
455.79439
 30
0.0
 40
500.0
100
AcDbArc
 50
90.0
 51
104.850702
  0
LINE
  5
16C
100
AcDbEntity
  8
便器
  6
CONTINUOUS
 62
     7
100
AcDbLine
 10
1860.982971
 20
995.00032
 30
0.0
 11
1688.482971
 21
995.00032
 31
0.0
  0
LINE
  5
16D
100
AcDbEntity
  8
便器
  6
CONTINUOUS
 62
     7
100
AcDbLine
 10
1515.982971
 20
995.00032
 30
0.0
 11
1688.482971
 21
995.00032
 31
0.0
  0
ARC
  5
16E
100
AcDbEntity
  8
便器
  6
CONTINUOUS
 62
     7
100
AcDbCircle
 10
1820.038895
 20
874.794724
 30
0.0
 40
13.0
100
AcDbArc
 50
138.77607
 51
187.418773
  0
ARC
  5
16F
100
AcDbEntity
  8
便器
  6
CONTINUOUS
 62
     7
100
AcDbCircle
 10
1556.927046
 20
874.794724
 30
0.0
 40
13.0
100
AcDbArc
 50
352.581227
 51
41.22393
  0
ARC
  5
170
100
AcDbEntity
  8
便器
  6
CONTINUOUS
 62
     7
100
AcDbCircle
 10
1667.35453
 20
1008.572466
 30
0.0
 40
190.0
100
AcDbArc
 50
318.77607
 51
337.418015
  0
ARC
  5
171
100
AcDbEntity
  8
便器
  6
CONTINUOUS
 62
     7
100
AcDbCircle
 10
1709.611412
 20
1008.572466
 30
0.0
 40
190.0
100
AcDbArc
 50
202.581985
 51
221.22393
  0
LINE
  5
172
100
AcDbEntity
  8
便器
  6
CONTINUOUS
 62
     7
100
AcDbLine
 10
1860.982971
 20
995.000324
 30
0.0
 11
1515.982971
 21
995.000324
 31
0.0
  0
ARC
  5
173
100
AcDbEntity
  8
便器
  6
CONTINUOUS
 62
     7
100
AcDbCircle
 10
1521.209748
 20
945.726555
 30
0.0
 40
6.0
100
AcDbArc
 50
188.031889
 51
266.905942
  0
ARC
  5
174
100
AcDbEntity
  8
便器
  6
CONTINUOUS
 62
     7
100
AcDbCircle
 10
2010.363834
 20
1014.750324
 30
0.0
 40
500.0
100
AcDbArc
 50
182.865984
 51
188.031889
  0
LINE
  5
175
100
AcDbEntity
  8
便器
  6
CONTINUOUS
 62
     7
100
AcDbLine
 10
1520.885897
 20
939.735301
 30
0.0
 11
1528.962388
 21
939.298734
 31
0.0
  0
ARC
  5
176
100
AcDbEntity
  8
便器
  6
CONTINUOUS
 62
     7
100
AcDbCircle
 10
1528.638536
 20
933.30748
 30
0.0
 40
6.0
100
AcDbArc
 50
22.581985
 51
86.905942
  0
ARC
  5
177
100
AcDbEntity
  8
便器
  6
CONTINUOUS
 62
     7
100
AcDbCircle
 10
1515.982971
 20
990.000324
 30
0.0
 40
5.0
100
AcDbArc
 50
90.0
 51
182.865984
  0
ARC
  5
178
100
AcDbEntity
  8
便器
  6
CONTINUOUS
 62
     7
100
AcDbCircle
 10
1855.756193
 20
945.726555
 30
0.0
 40
6.0
100
AcDbArc
 50
273.094058
 51
351.968111
  0
ARC
  5
179
100
AcDbEntity
  8
便器
  6
CONTINUOUS
 62
     7
100
AcDbCircle
 10
1366.602108
 20
1014.750324
 30
0.0
 40
500.0
100
AcDbArc
 50
351.968111
 51
357.134016
  0
LINE
  5
17A
100
AcDbEntity
  8
便器
  6
CONTINUOUS
 62
     7
100
AcDbLine
 10
1856.080045
 20
939.735301
 30
0.0
 11
1848.003554
 21
939.298734
 31
0.0
  0
ARC
  5
17B
100
AcDbEntity
  8
便器
  6
CONTINUOUS
 62
     7
100
AcDbCircle
 10
1848.327406
 20
933.30748
 30
0.0
 40
6.0
100
AcDbArc
 50
93.094058
 51
157.418015
  0
ARC
  5
17C
100
AcDbEntity
  8
便器
  6
CONTINUOUS
 62
     7
100
AcDbCircle
 10
1860.982971
 20
990.000324
 30
0.0
 40
5.0
100
AcDbArc
 50
357.134016
 51
90.0
  0
LINE
  5
17D
100
AcDbEntity
  8
便器
  6
CONTINUOUS
 62
     7
100
AcDbLine
 10
1346.0
 20
600.000324
 30
0.0
 11
1973.0
 21
600.000324
 31
0.0
  0
LINE
  5
17E
100
AcDbEntity
  8
便器
  6
CONTINUOUS
 62
     7
100
AcDbLine
 10
336.5
 20
600.000324
 30
0.0
 11
1303.0
 21
600.000324
 31
0.0
  0
DIMENSION
  5
18B
100
AcDbEntity
  8
便器
  6
CONTINUOUS
 62
     3
100
AcDbDimension
  2
*D15
 10
1793.482971
 20
445.0
 30
0.0
 11
1688.482971
 21
468.5
 31
0.0
 70
   160
  3
STANDARD
100
AcDbAlignedDimension
 13
1583.482971
 23
569.291666
 33
0.0
 14
1793.482971
 24
569.291666
 34
0.0
100
AcDbRotatedDimension
1001
ACAD
1000
DSTYLE
1002
{
1070
     6
1000
_EX_NORM
1070
     7
1000
_EX_NORM
1070
    41
1040
30.0
1070
    42
1040
5.0
1070
    44
1040
10.0
1070
    73
1070
     0
1070
    74
1070
     0
1070
    75
1070
     0
1070
    76
1070
     0
1070
    77
1070
     1
1070
    78
1070
     8
1070
   140
1040
40.0
1070
   147
1040
3.5
1070
   173
1070
     1
1070
   176
1070
     3
1070
   177
1070
     3
1070
   178
1070
     2
1070
   271
1070
     2
1070
   279
1070
     2
1070
   280
1070
     0
1070
   287
1070
     5
1070
   340
1005
18A
1002
}
  0
CIRCLE
  5
18C
100
AcDbEntity
  8
便器
  6
EXLTYPE2
 62
     2
100
AcDbCircle
 10
438.037592
 20
2651.999897
 30
0.0
 40
8.0
  0
CIRCLE
  5
18D
100
AcDbEntity
  8
便器
  6
EXLTYPE2
 62
     2
100
AcDbCircle
 10
438.037592
 20
2442.000072
 30
0.0
 40
8.0
  0
LINE
  5
18E
100
AcDbEntity
  8
便器
  6
CONTINUOUS
 62
     7
100
AcDbLine
 10
336.5
 20
2845.0
 30
0.0
 11
336.5
 21
2072.0
 31
0.0
  0
LINE
  5
18F
100
AcDbEntity
  8
便器
  6
EXLTYPE3
 62
     6
100
AcDbLine
 10
1119.0
 20
2546.999984
 30
0.0
 11
336.5
 21
2546.999984
 31
0.0
  0
TEXT
  5
190
100
AcDbEntity
  8
便器
  6
CONTINUOUS
 62
     2
100
AcDbText
 10
1309.30001
 20
2493.477127
 30
0.0
 40
35.0
  1
・便器セットＣＴの場合はヒーター仕様
 41
0.730667
  7
EXCADSTD
 72
     5
 11
1857.299999
 21
2493.477127
 31
0.0
100
AcDbText
  0
TEXT
  5
191
100
AcDbEntity
  8
便器
  6
CONTINUOUS
 62
     2
100
AcDbText
 10
1309.30001
 20
2458.477127
 30
0.0
 40
35.0
  1
　ヒ－タ－便器の仕様（ＣＴ・コード長さ１ｍ）
 41
0.728727
  7
EXCADSTD
 72
     5
 11
1977.299997
 21
2458.477127
 31
0.0
100
AcDbText
  0
TEXT
  5
192
100
AcDbEntity
  8
便器
  6
CONTINUOUS
 62
     2
100
AcDbText
 10
1309.30001
 20
2423.477127
 30
0.0
 40
35.0
  1
　電源  　　　　 ＡＣ１００Ｖ  ５０／ ６０Ｈｚ
 41
0.660727
  7
EXCADSTD
 72
     5
 11
1972.299996
 21
2423.477127
 31
0.0
100
AcDbText
  0
TEXT
  5
193
100
AcDbEntity
  8
便器
  6
CONTINUOUS
 62
     2
100
AcDbText
 10
1309.30001
 20
2388.477127
 30
0.0
 40
35.0
  1
　消費電力　  　    　　　 　 　     ２０.５Ｗ
 41
0.559253
  7
EXCADSTD
 72
     5
 11
1951.299996
 21
2388.477127
 31
0.0
100
AcDbText
  0
TEXT
  5
194
100
AcDbEntity
  8
便器
  6
CONTINUOUS
 62
     2
100
AcDbText
 10
1309.30001
 20
2353.477127
 30
0.0
 40
35.0
  1
・タンクセットＹの場合水抜方式を示します。
 41
0.729143
  7
EXCADSTD
 72
     5
 11
1947.299998
 21
2353.477127
 31
0.0
100
AcDbText
  0
TEXT
  5
195
100
AcDbEntity
  8
便器
  6
CONTINUOUS
 62
     2
100
AcDbText
 10
1309.30001
 20
2318.477127
 30
0.0
 40
35.0
  1
（別途配管用水抜栓を設置してください）
 41
0.730105
  7
EXCADSTD
 72
     5
 11
1887.299999
 21
2318.477127
 31
0.0
100
AcDbText
  0
DIMENSION
  5
1A1
100
AcDbEntity
  8
便器
  6
CONTINUOUS
 62
     3
100
AcDbDimension
  2
*D16
 10
1608.0
 20
2092.0
 30
0.0
 11
1584.5
 21
2202.0
 31
0.0
 70
   160
  1
40
  3
STANDARD
100
AcDbAlignedDimension
 13
1651.0
 23
2132.0
 33
0.0
 14
1651.0
 24
2092.0
 34
0.0
 50
90.0
100
AcDbRotatedDimension
1001
ACAD
1000
DSTYLE
1002
{
1070
     6
1000
_EX_NORM
1070
     7
1000
_EX_NORM
1070
    41
1040
30.0
1070
    42
1040
5.0
1070
    44
1040
10.0
1070
    73
1070
     0
1070
    74
1070
     0
1070
    75
1070
     0
1070
    76
1070
     0
1070
    77
1070
     1
1070
    78
1070
     8
1070
   140
1040
40.0
1070
   147
1040
3.5
1070
   173
1070
     1
1070
   176
1070
     3
1070
   177
1070
     3
1070
   178
1070
     2
1070
   271
1070
     2
1070
   279
1070
     2
1070
   280
1070
     1
1070
   287
1070
     5
1070
   340
1005
CD
1002
}
  0
TEXT
  5
1A2
100
AcDbEntity
  8
便器
  6
CONTINUOUS
 62
     2
100
AcDbText
 10
1585.891216
 20
1876.5
 30
0.0
 40
40.0
  1
床上４０mmカット
 41
0.583704
  7
EXCADSTD
 72
     5
 11
1825.891216
 21
1876.5
 31
0.0
100
AcDbText
  0
ARC
  5
1A3
100
AcDbEntity
  8
便器
  6
CONTINUOUS
 62
     6
100
AcDbCircle
 10
1679.5
 20
2073.336934
 30
0.0
 40
50.0
100
AcDbArc
 50
235.249774
 51
304.750226
  0
ARC
  5
1A4
100
AcDbEntity
  8
便器
  6
CONTINUOUS
 62
     6
100
AcDbCircle
 10
1679.5
 20
1991.172465
 30
0.0
 40
50.0
100
AcDbArc
 50
55.249774
 51
124.750226
  0
ARC
  5
1A5
100
AcDbEntity
  8
便器
  6
CONTINUOUS
 62
     6
100
AcDbCircle
 10
1736.5
 20
2073.336934
 30
0.0
 40
50.0
100
AcDbArc
 50
235.249774
 51
304.750226
  0
LINE
  5
1A6
100
AcDbEntity
  8
便器
  6
CONTINUOUS
 62
     6
100
AcDbLine
 10
1765.0
 20
2132.0
 30
0.0
 11
1765.0
 21
2032.2547
 31
0.0
  0
LINE
  5
1A7
100
AcDbEntity
  8
便器
  6
EXLTYPE3
 62
     6
100
AcDbLine
 10
1708.0
 20
2012.2547
 30
0.0
 11
1708.0
 21
2152.0
 31
0.0
  0
LINE
  5
1A8
100
AcDbEntity
  8
便器
  6
CONTINUOUS
 62
     6
100
AcDbLine
 10
1651.0
 20
2102.0
 30
0.0
 11
1651.0
 21
2032.2547
 31
0.0
  0
LINE
  5
1A9
100
AcDbEntity
  8
便器
  6
CONTINUOUS
 62
     6
100
AcDbLine
 10
1651.0
 20
2132.0
 30
0.0
 11
1651.0
 21
2092.0
 31
0.0
  0
LINE
  5
1AA
100
AcDbEntity
  8
便器
  6
CONTINUOUS
 62
     6
100
AcDbLine
 10
1651.0
 20
2132.0
 30
0.0
 11
1765.0
 21
2132.0
 31
0.0
  0
LINE
  5
1AB
100
AcDbEntity
  8
便器
  6
CONTINUOUS
 62
     2
100
AcDbLine
 10
1651.0
 20
2092.0
 30
0.0
 11
1708.0
 21
2092.0
 31
0.0
  0
TEXT
  5
1AC
100
AcDbEntity
  8
便器
  6
CONTINUOUS
 62
     2
100
AcDbText
 10
1204.391216
 20
1876.5
 30
0.0
 40
40.0
  1
床面カット
 41
0.672
  7
EXCADSTD
 72
     5
 11
1364.391216
 21
1876.5
 31
0.0
100
AcDbText
  0
LINE
  5
1AD
100
AcDbEntity
  8
便器
  6
CONTINUOUS
 62
     6
100
AcDbLine
 10
1322.0
 20
2092.0
 30
0.0
 11
1322.0
 21
2032.2547
 31
0.0
  0
LINE
  5
1AE
100
AcDbEntity
  8
便器
  6
CONTINUOUS
 62
     6
100
AcDbLine
 10
1233.0
 20
2092.0
 30
0.0
 11
1233.0
 21
2032.2547
 31
0.0
  0
ARC
  5
1AF
100
AcDbEntity
  8
便器
  6
CONTINUOUS
 62
     6
100
AcDbCircle
 10
1255.25
 20
2001.278409
 30
0.0
 40
38.139128
100
AcDbArc
 50
54.310642
 51
125.689358
  0
ARC
  5
1B0
100
AcDbEntity
  8
便器
  6
CONTINUOUS
 62
     6
100
AcDbCircle
 10
1255.25
 20
2063.23099
 30
0.0
 40
38.139128
100
AcDbArc
 50
234.310642
 51
305.689358
  0
ARC
  5
1B1
100
AcDbEntity
  8
便器
  6
CONTINUOUS
 62
     6
100
AcDbCircle
 10
1299.75
 20
2063.23099
 30
0.0
 40
38.139128
100
AcDbArc
 50
234.310642
 51
305.689358
  0
LINE
  5
1B2
100
AcDbEntity
  8
便器
  6
CONTINUOUS
 62
     6
100
AcDbLine
 10
1322.0
 20
2092.0
 30
0.0
 11
1233.0
 21
2092.0
 31
0.0
  0
TEXT
  5
1B3
100
AcDbEntity
  8
便器
  6
CONTINUOUS
 62
     2
100
AcDbText
 10
1168.391216
 20
1925.5
 30
0.0
 40
40.0
  1
ＶＰ７５の場合
 41
0.66
  7
EXCADSTD
 72
     5
 11
1388.391216
 21
1925.5
 31
0.0
100
AcDbText
  0
TEXT
  5
1B4
100
AcDbEntity
  8
便器
  6
CONTINUOUS
 62
     2
100
AcDbText
 10
1460.891216
 20
1923.5
 30
0.0
 40
40.0
  1
ＶＵ７５、ＶＵ、ＶＰ１００の場合
 41
0.60375
  7
EXCADSTD
 72
     5
 11
1920.891208
 21
1923.5
 31
0.0
100
AcDbText
  0
LINE
  5
1B5
100
AcDbEntity
  8
便器
  6
CONTINUOUS
 62
     6
100
AcDbLine
 10
1461.0
 20
1920.0
 30
0.0
 11
1924.0
 21
1920.0
 31
0.0
  0
TEXT
  5
1B6
100
AcDbEntity
  8
便器
  6
CONTINUOUS
 62
     2
100
AcDbText
 10
1393.0
 20
2095.5
 30
0.0
 40
40.0
  1
Ｆ．Ｌ
 41
0.833
  7
EXCADSTD
 72
     5
 11
1512.0
 21
2095.5
 31
0.0
100
AcDbText
  0
LINE
  5
1B7
100
AcDbEntity
  8
便器
  6
CONTINUOUS
 62
     6
100
AcDbLine
 10
1143.0
 20
1920.0
 30
0.0
 11
1414.0
 21
1920.0
 31
0.0
  0
LINE
  5
1B8
100
AcDbEntity
  8
便器
  6
CONTINUOUS
 62
     7
100
AcDbLine
 10
1128.5
 20
2092.0
 30
0.0
 11
1881.0
 21
2092.0
 31
0.0
  0
LINE
  5
1B9
100
AcDbEntity
  8
便器
  6
EXLTYPE3
 62
     6
100
AcDbLine
 10
1277.5
 20
2106.0
 30
0.0
 11
1277.5
 21
2012.2547
 31
0.0
  0
LEADER
  5
1BA
100
AcDbEntity
  8
便器
  6
CONTINUOUS
 62
     6
100
AcDbLeader
  3
STANDARD
 73
     3
 74
     1
 75
     0
 40
0.0
 76
     2
 10
581.0
 20
524.308177
 30
0.0
 10
644.555583
 20
405.071155
 30
0.0
 77
     6
1001
ACAD
1000
DSTYLE
1002
{
1070
    41
1040
35.0
1070
     5
1000
_EX_NORM
1070
     6
1000
_EX_NORM
1070
     7
1000
_EX_NORM
1070
   341
1005
32
1002
}
  0
TEXT
  5
1BB
100
AcDbEntity
  8
便器
  6
CONTINUOUS
 62
     2
100
AcDbText
 10
616.139645
 20
461.882471
 30
0.0
 40
40.0
  1
ＶＵ 、ＶＰ７５
 41
0.584531
  7
EXCADSTD
 72
     5
 11
833.639659
 21
461.882471
 31
0.0
100
AcDbText
  0
LINE
  5
1BC
100
AcDbEntity
  8
便器
  6
CONTINUOUS
 62
     6
100
AcDbLine
 10
616.139645
 20
458.382471
 30
0.0
 11
831.499988
 21
458.382471
 31
0.0
  0
TEXT
  5
1BD
100
AcDbEntity
  8
便器
  6
CONTINUOUS
 62
     2
100
AcDbText
 10
644.555583
 20
408.571155
 30
0.0
 40
40.0
  1
ＶＵ 、ＶＰ１００
 41
0.584957
  7
EXCADSTD
 72
     5
 11
890.055599
 21
408.571155
 31
0.0
100
AcDbText
  0
LINE
  5
1BE
100
AcDbEntity
  8
便器
  6
CONTINUOUS
 62
     6
100
AcDbLine
 10
644.555583
 20
405.071155
 30
0.0
 11
887.499988
 21
405.071155
 31
0.0
  0
LINE
  5
1BF
100
AcDbEntity
  8
便器
  6
CONTINUOUS
 62
     6
100
AcDbLine
 10
574.924973
 20
600.000324
 30
0.0
 11
574.51232
 21
567.000231
 31
0.0
  0
LINE
  5
1C0
100
AcDbEntity
  8
便器
  6
CONTINUOUS
 62
     6
100
AcDbLine
 10
573.499847
 20
566.000339
 30
0.0
 11
499.500153
 21
566.000309
 31
0.0
  0
LINE
  5
1C1
100
AcDbEntity
  8
便器
  6
CONTINUOUS
 62
     6
100
AcDbLine
 10
498.482643
 20
567.005176
 30
0.0
 11
499.500153
 21
566.000309
 31
0.0
  0
LINE
  5
1C2
100
AcDbEntity
  8
便器
  6
CONTINUOUS
 62
     6
100
AcDbLine
 10
497.90671
 20
600.000324
 30
0.0
 11
498.482643
 21
567.005176
 31
0.0
  0
LINE
  5
1C3
100
AcDbEntity
  8
便器
  6
EXLTYPE4
 62
     6
100
AcDbLine
 10
492.0
 20
524.308177
 30
0.0
 11
492.0
 21
600.000377
 31
0.0
  0
LINE
  5
1C4
100
AcDbEntity
  8
便器
  6
EXLTYPE4
 62
     6
100
AcDbLine
 10
581.0
 20
524.308177
 30
0.0
 11
581.0
 21
600.000377
 31
0.0
  0
ARC
  5
1C5
100
AcDbEntity
  8
便器
  6
EXLTYPE4
 62
     6
100
AcDbCircle
 10
514.25
 20
554.494059
 30
0.0
 40
37.5
100
AcDbArc
 50
233.60609
 51
306.39391
  0
ARC
  5
1C6
100
AcDbEntity
  8
便器
  6
EXLTYPE4
 62
     6
100
AcDbCircle
 10
514.25
 20
494.122294
 30
0.0
 40
37.5
100
AcDbArc
 50
53.60609
 51
126.39391
  0
ARC
  5
1C7
100
AcDbEntity
  8
便器
  6
EXLTYPE4
 62
     6
100
AcDbCircle
 10
558.75
 20
554.494059
 30
0.0
 40
37.5
100
AcDbArc
 50
233.60609
 51
306.39391
  0
LINE
  5
1C8
100
AcDbEntity
  8
便器
  6
EXLTYPE3
 62
     1
100
AcDbLine
 10
536.5
 20
516.1
 30
0.0
 11
536.5
 21
613.0
 31
0.0
  0
ARC
  5
1C9
100
AcDbEntity
  8
便器
  6
EXLTYPE2
 62
     2
100
AcDbCircle
 10
1203.41755
 20
2546.999984
 30
0.0
 40
800.0
100
AcDbArc
 50
173.315525
 51
180.0
  0
ARC
  5
1CA
100
AcDbEntity
  8
便器
  6
EXLTYPE2
 62
     2
100
AcDbCircle
 10
689.493236
 20
2544.985519
 30
0.0
 40
300.0
100
AcDbArc
 50
154.198268
 51
179.615263
  0
ARC
  5
1CB
100
AcDbEntity
  8
便器
  6
EXLTYPE2
 62
     2
100
AcDbCircle
 10
1203.41755
 20
2546.999984
 30
0.0
 40
800.0
100
AcDbArc
 50
180.0
 51
187.624141
  0
ARC
  5
1CC
100
AcDbEntity
  8
便器
  6
EXLTYPE2
 62
     2
100
AcDbCircle
 10
689.493236
 20
2549.014481
 30
0.0
 40
300.0
100
AcDbArc
 50
180.384743
 51
205.801732
  0
LINE
  5
1CD
100
AcDbEntity
  8
便器
  6
CONTINUOUS
 62
     7
100
AcDbLine
 10
336.5
 20
1729.0
 30
0.0
 11
336.5
 21
600.000324
 31
0.0
  0
LINE
  5
1CE
100
AcDbEntity
  8
便器
  6
EXLTYPE3
 62
     6
100
AcDbLine
 10
1688.482971
 20
516.0
 30
0.0
 11
1688.482971
 21
1427.0
 31
0.0
  0
LINE
  5
1CF
100
AcDbEntity
  8
タンク
  6
CONTINUOUS
 62
     6
100
AcDbLine
 10
509.788814
 20
2756.999984
 30
0.0
 11
509.788813
 21
2772.54394
 31
0.0
  0
LINE
  5
1D0
100
AcDbEntity
  8
タンク
  6
CONTINUOUS
 62
     6
100
AcDbLine
 10
473.299212
 20
2756.999984
 30
0.0
 11
473.299213
 21
2772.543931
 31
0.0
  0
ARC
  5
1D1
100
AcDbEntity
  8
タンク
  6
CONTINUOUS
 62
     6
100
AcDbCircle
 10
485.462382
 20
2778.819435
 30
0.0
 40
4.0544
100
AcDbArc
 50
122.196686
 51
161.721527
  0
ARC
  5
1D2
100
AcDbEntity
  8
タンク
  6
CONTINUOUS
 62
     6
100
AcDbCircle
 10
497.625119
 20
2778.81976
 30
0.0
 40
4.0544
100
AcDbArc
 50
18.280151
 51
57.805664
  0
ARC
  5
1D3
100
AcDbEntity
  8
タンク
  6
CONTINUOUS
 62
     6
100
AcDbCircle
 10
490.064599
 20
2766.811194
 30
0.0
 40
18.2448
100
AcDbArc
 50
57.805664
 51
80.66687
  0
ARC
  5
1D4
100
AcDbEntity
  8
タンク
  6
CONTINUOUS
 62
     6
100
AcDbCircle
 10
493.023427
 20
2766.811189
 30
0.0
 40
18.2448
100
AcDbArc
 50
99.33316
 51
122.196716
  0
ARC
  5
1D5
100
AcDbEntity
  8
タンク
  6
CONTINUOUS
 62
     6
100
AcDbCircle
 10
504.760034
 20
2772.264718
 30
0.0
 40
5.068
100
AcDbArc
 50
15.989868
 51
62.588623
  0
ARC
  5
1D6
100
AcDbEntity
  8
タンク
  6
CONTINUOUS
 62
     6
100
AcDbCircle
 10
504.760034
 20
2772.264718
 30
0.0
 40
5.068
100
AcDbArc
 50
15.989868
 51
62.588623
  0
ARC
  5
1D7
100
AcDbEntity
  8
タンク
  6
CONTINUOUS
 62
     6
100
AcDbCircle
 10
500.093634
 20
2763.266753
 30
0.0
 40
15.204
100
AcDbArc
 50
62.588623
 51
66.453674
  0
ARC
  5
1D8
100
AcDbEntity
  8
タンク
  6
CONTINUOUS
 62
     6
100
AcDbCircle
 10
518.320275
 20
2801.098386
 30
0.0
 40
26.926876
100
AcDbArc
 50
231.274048
 51
234.443848
  0
ARC
  5
1D9
100
AcDbEntity
  8
タンク
  6
CONTINUOUS
 62
     6
100
AcDbCircle
 10
513.861062
 20
2794.859722
 30
0.0
 40
19.2584
100
AcDbArc
 50
234.443848
 51
246.453674
  0
ARC
  5
1DA
100
AcDbEntity
  8
タンク
  6
CONTINUOUS
 62
     6
100
AcDbCircle
 10
477.353613
 20
2772.543934
 30
0.0
 40
4.0544
100
AcDbArc
 50
164.010132
 51
180.0
  0
ARC
  5
1DB
100
AcDbEntity
  8
タンク
  6
CONTINUOUS
 62
     6
100
AcDbCircle
 10
478.328022
 20
2772.264729
 30
0.0
 40
5.068
100
AcDbArc
 50
117.411407
 51
164.010132
  0
ARC
  5
1DC
100
AcDbEntity
  8
タンク
  6
CONTINUOUS
 62
     6
100
AcDbCircle
 10
482.994393
 20
2763.266752
 30
0.0
 40
15.204
100
AcDbArc
 50
113.546326
 51
117.411407
  0
ARC
  5
1DD
100
AcDbEntity
  8
タンク
  6
CONTINUOUS
 62
     6
100
AcDbCircle
 10
469.226966
 20
2794.85972
 30
0.0
 40
19.2584
100
AcDbArc
 50
293.546326
 51
305.556152
  0
ARC
  5
1DE
100
AcDbEntity
  8
タンク
  6
CONTINUOUS
 62
     6
100
AcDbCircle
 10
464.767749
 20
2801.098396
 30
0.0
 40
26.926876
100
AcDbArc
 50
305.556152
 51
308.724487
  0
ARC
  5
1DF
100
AcDbEntity
  8
タンク
  6
CONTINUOUS
 62
     6
100
AcDbCircle
 10
505.734413
 20
2772.543937
 30
0.0
 40
4.0544
100
AcDbArc
 50
0.0
 51
15.989868
  0
ARC
  5
1E0
100
AcDbEntity
  8
タンク
  6
CONTINUOUS
 62
     6
100
AcDbCircle
 10
491.544019
 20
2775.812832
 30
0.0
 40
9.1224
100
AcDbArc
 50
80.66687
 51
90.0
  0
ARC
  5
1E1
100
AcDbEntity
  8
タンク
  6
CONTINUOUS
 62
     6
100
AcDbCircle
 10
491.544019
 20
2775.812832
 30
0.0
 40
9.1224
100
AcDbArc
 50
90.0
 51
99.33316
  0
LINE
  5
1E2
100
AcDbEntity
  8
タンク
  6
CONTINUOUS
 62
     6
100
AcDbLine
 10
435.599915
 20
580.044502
 30
0.0
 11
435.599915
 21
591.699549
 31
0.0
  0
LINE
  5
1E3
100
AcDbEntity
  8
タンク
  6
CONTINUOUS
 62
     6
100
AcDbLine
 10
441.39978
 20
580.044502
 30
0.0
 11
441.39978
 21
591.699549
 31
0.0
  0
LINE
  5
1E4
100
AcDbEntity
  8
タンク
  6
CONTINUOUS
 62
     6
100
AcDbLine
 10
412.387875
 20
1010.000324
 30
0.0
 11
441.266995
 21
675.361576
 31
0.0
  0
LINE
  5
1E5
100
AcDbEntity
  8
タンク
  6
CONTINUOUS
 62
     6
100
AcDbLine
 10
399.339556
 20
1010.000324
 30
0.0
 11
407.6301
 21
913.933081
 31
0.0
  0
LINE
  5
1E6
100
AcDbEntity
  8
タンク
  6
CONTINUOUS
 62
     6
100
AcDbLine
 10
410.057803
 20
885.80191
 30
0.0
 11
428.218676
 21
675.361576
 31
0.0
  0
ARC
  5
1E7
100
AcDbEntity
  8
タンク
  6
CONTINUOUS
 62
     6
100
AcDbCircle
 10
421.403442
 20
579.669899
 30
0.0
 40
20.0
100
AcDbArc
 50
328.740234
 51
1.073222
  0
ARC
  5
1E8
100
AcDbEntity
  8
タンク
  6
CONTINUOUS
 62
     6
100
AcDbCircle
 10
455.596558
 20
579.669899
 30
0.0
 40
20.0
100
AcDbArc
 50
178.926758
 51
211.259766
  0
LINE
  5
1E9
100
AcDbEntity
  8
タンク
  6
EXLTYPE2
 62
     6
100
AcDbLine
 10
697.5
 20
612.000324
 30
0.0
 11
681.5
 21
612.000324
 31
0.0
  0
LINE
  5
1EA
100
AcDbEntity
  8
タンク
  6
EXLTYPE2
 62
     6
100
AcDbLine
 10
618.5
 20
611.000324
 30
0.0
 11
618.5
 21
600.000324
 31
0.0
  0
ARC
  5
1EB
100
AcDbEntity
  8
タンク
  6
EXLTYPE2
 62
     6
100
AcDbCircle
 10
677.5
 20
649.000324
 30
0.0
 40
1.0
100
AcDbArc
 50
0.0
 51
90.0
  0
ARC
  5
1EC
100
AcDbEntity
  8
タンク
  6
EXLTYPE2
 62
     6
100
AcDbCircle
 10
639.5
 20
649.000324
 30
0.0
 40
1.0
100
AcDbArc
 50
90.0
 51
180.0
  0
ARC
  5
1ED
100
AcDbEntity
  8
タンク
  6
EXLTYPE2
 62
     6
100
AcDbCircle
 10
697.5
 20
611.000324
 30
0.0
 40
1.0
100
AcDbArc
 50
0.0
 51
90.0
  0
ARC
  5
1EE
100
AcDbEntity
  8
タンク
  6
EXLTYPE2
 62
     6
100
AcDbCircle
 10
619.5
 20
611.000324
 30
0.0
 40
1.0
100
AcDbArc
 50
90.0
 51
180.0
  0
LINE
  5
1EF
100
AcDbEntity
  8
タンク
  6
EXLTYPE2
 62
     6
100
AcDbLine
 10
678.5
 20
649.000324
 30
0.0
 11
678.5
 21
615.000324
 31
0.0
  0
LINE
  5
1F0
100
AcDbEntity
  8
タンク
  6
EXLTYPE2
 62
     6
100
AcDbLine
 10
639.5
 20
650.000324
 30
0.0
 11
677.5
 21
650.000324
 31
0.0
  0
LINE
  5
1F1
100
AcDbEntity
  8
タンク
  6
EXLTYPE2
 62
     6
100
AcDbLine
 10
638.5
 20
649.000324
 30
0.0
 11
638.5
 21
615.000324
 31
0.0
  0
LINE
  5
1F2
100
AcDbEntity
  8
タンク
  6
EXLTYPE2
 62
     6
100
AcDbLine
 10
698.5
 20
611.000324
 30
0.0
 11
698.5
 21
600.000324
 31
0.0
  0
LINE
  5
1F3
100
AcDbEntity
  8
タンク
  6
EXLTYPE2
 62
     6
100
AcDbLine
 10
619.5
 20
612.000324
 30
0.0
 11
635.5
 21
612.000324
 31
0.0
  0
ARC
  5
1F4
100
AcDbEntity
  8
タンク
  6
EXLTYPE2
 62
     6
100
AcDbCircle
 10
635.5
 20
615.000324
 30
0.0
 40
3.0
100
AcDbArc
 50
270.0
 51
0.0
  0
ARC
  5
1F5
100
AcDbEntity
  8
タンク
  6
EXLTYPE2
 62
     6
100
AcDbCircle
 10
681.5
 20
615.000324
 30
0.0
 40
3.0
100
AcDbArc
 50
180.0
 51
270.0
  0
CIRCLE
  5
1F6
100
AcDbEntity
  8
タンク
  6
CONTINUOUS
 62
     6
100
AcDbCircle
 10
658.5
 20
635.000324
 30
0.0
 40
8.0
  0
ARC
  5
1F7
100
AcDbEntity
  8
タンク
  6
CONTINUOUS
 62
     6
100
AcDbCircle
 10
671.44066
 20
579.669899
 30
0.0
 40
20.0
100
AcDbArc
 50
328.740234
 51
1.073222
  0
ARC
  5
1F8
100
AcDbEntity
  8
タンク
  6
CONTINUOUS
 62
     6
100
AcDbCircle
 10
705.633775
 20
579.669899
 30
0.0
 40
20.0
100
AcDbArc
 50
178.926758
 51
211.259766
  0
LINE
  5
1F9
100
AcDbEntity
  8
タンク
  6
CONTINUOUS
 62
     6
100
AcDbLine
 10
685.637132
 20
580.044502
 30
0.0
 11
685.637132
 21
600.000052
 31
0.0
  0
LINE
  5
1FA
100
AcDbEntity
  8
タンク
  6
CONTINUOUS
 62
     6
100
AcDbLine
 10
691.436998
 20
580.044502
 30
0.0
 11
691.436998
 21
600.000052
 31
0.0
  0
ARC
  5
1FB
100
AcDbEntity
  8
タンク
  6
CONTINUOUS
 62
     6
100
AcDbCircle
 10
611.44066
 20
579.669899
 30
0.0
 40
20.0
100
AcDbArc
 50
328.740234
 51
1.073222
  0
ARC
  5
1FC
100
AcDbEntity
  8
タンク
  6
CONTINUOUS
 62
     6
100
AcDbCircle
 10
645.633775
 20
579.669899
 30
0.0
 40
20.0
100
AcDbArc
 50
178.926758
 51
211.259766
  0
LINE
  5
1FD
100
AcDbEntity
  8
タンク
  6
CONTINUOUS
 62
     6
100
AcDbLine
 10
625.637132
 20
580.044502
 30
0.0
 11
625.637132
 21
600.000052
 31
0.0
  0
LINE
  5
1FE
100
AcDbEntity
  8
タンク
  6
CONTINUOUS
 62
     6
100
AcDbLine
 10
631.436998
 20
580.044502
 30
0.0
 11
631.436998
 21
600.000052
 31
0.0
  0
ARC
  5
1FF
100
AcDbEntity
  8
タンク
  6
CONTINUOUS
 62
     7
100
AcDbCircle
 10
371.835711
 20
1352.472102
 30
0.0
 40
20.000019
100
AcDbArc
 50
180.780273
 51
209.999924
  0
LINE
  5
200
100
AcDbEntity
  8
タンク
  6
CONTINUOUS
 62
     7
100
AcDbLine
 10
361.63811
 20
1330.134914
 30
0.0
 11
354.515155
 21
1342.472102
 31
0.0
  0
LINE
  5
201
100
AcDbEntity
  8
タンク
  6
CONTINUOUS
 62
     7
100
AcDbLine
 10
544.766162
 20
1267.01739
 30
0.0
 11
546.825335
 21
1384.987056
 31
0.0
  0
LINE
  5
202
100
AcDbEntity
  8
タンク
  6
CONTINUOUS
 62
     7
100
AcDbLine
 10
360.890887
 20
1384.987056
 30
0.0
 11
365.946124
 21
1013.932523
 31
0.0
  0
LINE
  5
203
100
AcDbEntity
  8
タンク
  6
CONTINUOUS
 62
     7
100
AcDbLine
 10
351.499865
 20
1376.987025
 30
0.0
 11
356.446154
 21
1013.932523
 31
0.0
  0
ARC
  5
204
100
AcDbEntity
  8
タンク
  6
CONTINUOUS
 62
     7
100
AcDbCircle
 10
-3454.626691
 20
1336.828029
 30
0.0
 40
4000.0
100
AcDbArc
 50
355.366
 51
359.000043
  0
LINE
  5
205
100
AcDbEntity
  8
タンク
  6
CONTINUOUS
 62
     2
100
AcDbLine
 10
356.159306
 20
1034.987056
 30
0.0
 11
533.968554
 21
1034.987056
 31
0.0
  0
ARC
  5
206
100
AcDbEntity
  8
タンク
  6
CONTINUOUS
 62
     7
100
AcDbCircle
 10
369.945758
 20
1013.986995
 30
0.0
 40
4.000005
100
AcDbArc
 50
180.780273
 51
270.000031
  0
ARC
  5
207
100
AcDbEntity
  8
タンク
  6
CONTINUOUS
 62
     7
100
AcDbCircle
 10
360.445788
 20
1013.986995
 30
0.0
 40
4.000005
100
AcDbArc
 50
180.780273
 51
270.000031
  0
ARC
  5
208
100
AcDbEntity
  8
タンク
  6
CONTINUOUS
 62
     7
100
AcDbCircle
 10
528.31261
 20
1013.986995
 30
0.0
 40
3.999939
100
AcDbArc
 50
270.000031
 51
355.36795
  0
LINE
  5
209
100
AcDbEntity
  8
タンク
  6
CONTINUOUS
 62
     7
100
AcDbLine
 10
360.468784
 20
1009.987056
 30
0.0
 11
528.312612
 21
1009.987056
 31
0.0
  0
LINE
  5
20A
100
AcDbEntity
  8
タンク
  6
CONTINUOUS
 62
     6
100
AcDbLine
 10
1551.567159
 20
903.111506
 30
0.0
 11
1551.567159
 21
705.160818
 31
0.0
  0
LINE
  5
20B
100
AcDbEntity
  8
タンク
  6
CONTINUOUS
 62
     6
100
AcDbLine
 10
1564.567159
 20
885.844456
 30
0.0
 11
1564.567159
 21
824.577538
 31
0.0
  0
ARC
  5
20C
100
AcDbEntity
  8
タンク
  6
CONTINUOUS
 62
     6
100
AcDbCircle
 10
1506.567159
 20
705.160818
 30
0.0
 40
58.0
100
AcDbArc
 50
268.796815
 51
322.317108
  0
ARC
  5
20D
100
AcDbEntity
  8
タンク
  6
CONTINUOUS
 62
     6
100
AcDbCircle
 10
1506.567159
 20
705.160818
 30
0.0
 40
45.0
100
AcDbArc
 50
270.0
 51
0.0
  0
ARC
  5
20E
100
AcDbEntity
  8
タンク
  6
CONTINUOUS
 62
     2
100
AcDbCircle
 10
-473.59877
 20
576.138967
 30
0.0
 40
2300.0
100
AcDbArc
 50
7.418773
 51
8.002408
  0
ARC
  5
20F
100
AcDbEntity
  8
タンク
  6
CONTINUOUS
 62
     2
100
AcDbCircle
 10
3850.564711
 20
576.138967
 30
0.0
 40
2300.0
100
AcDbArc
 50
171.997592
 51
172.581227
  0
ARC
  5
210
100
AcDbEntity
  8
タンク
  6
CONTINUOUS
 62
     7
100
AcDbCircle
 10
-473.59877
 20
576.138967
 30
0.0
 40
2300.0
100
AcDbArc
 50
0.594426
 51
7.418773
  0
ARC
  5
211
100
AcDbEntity
  8
タンク
  6
CONTINUOUS
 62
     7
100
AcDbCircle
 10
3850.564711
 20
576.138967
 30
0.0
 40
2300.0
100
AcDbArc
 50
172.581227
 51
179.405574
  0
ARC
  5
212
100
AcDbEntity
  8
タンク
  6
CONTINUOUS
 62
     6
100
AcDbCircle
 10
1810.579528
 20
579.669899
 30
0.0
 40
20.0
100
AcDbArc
 50
178.926778
 51
211.259766
  0
ARC
  5
213
100
AcDbEntity
  8
タンク
  6
CONTINUOUS
 62
     6
100
AcDbCircle
 10
1776.386413
 20
579.669899
 30
0.0
 40
20.0
100
AcDbArc
 50
328.740234
 51
342.534423
  0
LINE
  5
214
100
AcDbEntity
  8
タンク
  6
CONTINUOUS
 62
     6
100
AcDbLine
 10
1790.583037
 20
580.044502
 30
0.0
 11
1790.583037
 21
600.000052
 31
0.0
  0
LINE
  5
215
100
AcDbEntity
  8
タンク
  6
CONTINUOUS
 62
     6
100
AcDbLine
 10
1586.382905
 20
580.044502
 30
0.0
 11
1586.382905
 21
600.000052
 31
0.0
  0
ARC
  5
216
100
AcDbEntity
  8
タンク
  6
CONTINUOUS
 62
     6
100
AcDbCircle
 10
1600.579528
 20
579.669899
 30
0.0
 40
20.0
100
AcDbArc
 50
197.465577
 51
211.259766
  0
ARC
  5
217
100
AcDbEntity
  8
タンク
  6
CONTINUOUS
 62
     6
100
AcDbCircle
 10
1566.386413
 20
579.669899
 30
0.0
 40
20.0
100
AcDbArc
 50
328.740234
 51
1.073222
  0
ARC
  5
218
100
AcDbEntity
  8
タンク
  6
CONTINUOUS
 62
     6
100
AcDbCircle
 10
1780.423631
 20
579.669899
 30
0.0
 40
20.0
100
AcDbArc
 50
328.740234
 51
1.073222
  0
ARC
  5
219
100
AcDbEntity
  8
タンク
  6
CONTINUOUS
 62
     6
100
AcDbCircle
 10
1814.616746
 20
579.669899
 30
0.0
 40
20.0
100
AcDbArc
 50
178.926758
 51
211.259766
  0
LINE
  5
21A
100
AcDbEntity
  8
タンク
  6
CONTINUOUS
 62
     6
100
AcDbLine
 10
1794.620103
 20
580.044502
 30
0.0
 11
1794.620103
 21
600.000052
 31
0.0
  0
LINE
  5
21B
100
AcDbEntity
  8
タンク
  6
CONTINUOUS
 62
     6
100
AcDbLine
 10
1800.419969
 20
580.044502
 30
0.0
 11
1800.419969
 21
600.000052
 31
0.0
  0
LINE
  5
21C
100
AcDbEntity
  8
タンク
  6
EXLTYPE2
 62
     6
100
AcDbLine
 10
1787.482971
 20
600.000324
 30
0.0
 11
1807.482971
 21
600.000324
 31
0.0
  0
LINE
  5
21D
100
AcDbEntity
  8
タンク
  6
EXLTYPE2
 62
     6
100
AcDbLine
 10
1787.482971
 20
644.58611
 30
0.0
 11
1787.482971
 21
600.000324
 31
0.0
  0
ARC
  5
21E
100
AcDbEntity
  8
タンク
  6
EXLTYPE2
 62
     6
100
AcDbCircle
 10
1788.482971
 20
644.58611
 30
0.0
 40
1.0
100
AcDbArc
 50
135.0
 51
180.0
  0
LINE
  5
21F
100
AcDbEntity
  8
タンク
  6
EXLTYPE2
 62
     6
100
AcDbLine
 10
1807.482971
 20
644.58611
 30
0.0
 11
1807.482971
 21
600.000324
 31
0.0
  0
ARC
  5
220
100
AcDbEntity
  8
タンク
  6
EXLTYPE2
 62
     6
100
AcDbCircle
 10
1806.482971
 20
644.58611
 30
0.0
 40
1.0
100
AcDbArc
 50
0.0
 51
45.0
  0
LINE
  5
221
100
AcDbEntity
  8
タンク
  6
EXLTYPE2
 62
     6
100
AcDbLine
 10
1802.775864
 20
649.707431
 30
0.0
 11
1807.190078
 21
645.293217
 31
0.0
  0
LINE
  5
222
100
AcDbEntity
  8
タンク
  6
EXLTYPE2
 62
     6
100
AcDbLine
 10
1792.190078
 20
649.707431
 30
0.0
 11
1787.775864
 21
645.293217
 31
0.0
  0
LINE
  5
223
100
AcDbEntity
  8
タンク
  6
EXLTYPE2
 62
     6
100
AcDbLine
 10
1792.897184
 20
650.000324
 30
0.0
 11
1802.068757
 21
650.000324
 31
0.0
  0
LINE
  5
224
100
AcDbEntity
  8
タンク
  6
EXLTYPE2
 62
     6
100
AcDbLine
 10
1788.482971
 20
612.000324
 30
0.0
 11
1806.482971
 21
612.000324
 31
0.0
  0
ARC
  5
225
100
AcDbEntity
  8
タンク
  6
EXLTYPE2
 62
     6
100
AcDbCircle
 10
1802.068757
 20
649.000324
 30
0.0
 40
1.0
100
AcDbArc
 50
45.0
 51
90.0
  0
ARC
  5
226
100
AcDbEntity
  8
タンク
  6
EXLTYPE2
 62
     6
100
AcDbCircle
 10
1792.897184
 20
649.000324
 30
0.0
 40
1.0
100
AcDbArc
 50
90.0
 51
135.0
  0
ARC
  5
227
100
AcDbEntity
  8
タンク
  6
EXLTYPE2
 62
     6
100
AcDbCircle
 10
1788.482971
 20
611.000324
 30
0.0
 40
1.0
100
AcDbArc
 50
90.0
 51
180.0
  0
ARC
  5
228
100
AcDbEntity
  8
タンク
  6
EXLTYPE2
 62
     6
100
AcDbCircle
 10
1806.482971
 20
611.000324
 30
0.0
 40
1.0
100
AcDbArc
 50
0.0
 51
90.0
  0
LINE
  5
229
100
AcDbEntity
  8
タンク
  6
EXLTYPE2
 62
     6
100
AcDbLine
 10
1790.982971
 20
612.000324
 30
0.0
 11
1803.982971
 21
612.000324
 31
0.0
  0
ARC
  5
22A
100
AcDbEntity
  8
タンク
  6
CONTINUOUS
 62
     6
100
AcDbCircle
 10
1562.423631
 20
579.669899
 30
0.0
 40
20.0
100
AcDbArc
 50
328.740234
 51
1.073222
  0
ARC
  5
22B
100
AcDbEntity
  8
タンク
  6
CONTINUOUS
 62
     6
100
AcDbCircle
 10
1596.616746
 20
579.669899
 30
0.0
 40
20.0
100
AcDbArc
 50
178.926758
 51
211.259766
  0
LINE
  5
22C
100
AcDbEntity
  8
タンク
  6
CONTINUOUS
 62
     6
100
AcDbLine
 10
1576.620103
 20
580.044502
 30
0.0
 11
1576.620103
 21
600.000052
 31
0.0
  0
LINE
  5
22D
100
AcDbEntity
  8
タンク
  6
CONTINUOUS
 62
     6
100
AcDbLine
 10
1582.419969
 20
580.044502
 30
0.0
 11
1582.419969
 21
600.000052
 31
0.0
  0
LINE
  5
22E
100
AcDbEntity
  8
タンク
  6
EXLTYPE2
 62
     6
100
AcDbLine
 10
1569.482971
 20
600.000324
 30
0.0
 11
1589.482971
 21
600.000324
 31
0.0
  0
LINE
  5
22F
100
AcDbEntity
  8
タンク
  6
EXLTYPE2
 62
     6
100
AcDbLine
 10
1569.482971
 20
644.58611
 30
0.0
 11
1569.482971
 21
600.000324
 31
0.0
  0
ARC
  5
230
100
AcDbEntity
  8
タンク
  6
EXLTYPE2
 62
     6
100
AcDbCircle
 10
1570.482971
 20
644.58611
 30
0.0
 40
1.0
100
AcDbArc
 50
135.0
 51
180.0
  0
LINE
  5
231
100
AcDbEntity
  8
タンク
  6
EXLTYPE2
 62
     6
100
AcDbLine
 10
1589.482971
 20
644.58611
 30
0.0
 11
1589.482971
 21
600.000324
 31
0.0
  0
ARC
  5
232
100
AcDbEntity
  8
タンク
  6
EXLTYPE2
 62
     6
100
AcDbCircle
 10
1588.482971
 20
644.58611
 30
0.0
 40
1.0
100
AcDbArc
 50
0.0
 51
45.0
  0
LINE
  5
233
100
AcDbEntity
  8
タンク
  6
EXLTYPE2
 62
     6
100
AcDbLine
 10
1584.775864
 20
649.707431
 30
0.0
 11
1589.190078
 21
645.293217
 31
0.0
  0
LINE
  5
234
100
AcDbEntity
  8
タンク
  6
EXLTYPE2
 62
     6
100
AcDbLine
 10
1574.190078
 20
649.707431
 30
0.0
 11
1569.775864
 21
645.293217
 31
0.0
  0
LINE
  5
235
100
AcDbEntity
  8
タンク
  6
EXLTYPE2
 62
     6
100
AcDbLine
 10
1574.897184
 20
650.000324
 30
0.0
 11
1584.068757
 21
650.000324
 31
0.0
  0
LINE
  5
236
100
AcDbEntity
  8
タンク
  6
EXLTYPE2
 62
     6
100
AcDbLine
 10
1570.482971
 20
612.000324
 30
0.0
 11
1588.482971
 21
612.000324
 31
0.0
  0
ARC
  5
237
100
AcDbEntity
  8
タンク
  6
EXLTYPE2
 62
     6
100
AcDbCircle
 10
1584.068757
 20
649.000324
 30
0.0
 40
1.0
100
AcDbArc
 50
45.0
 51
90.0
  0
ARC
  5
238
100
AcDbEntity
  8
タンク
  6
EXLTYPE2
 62
     6
100
AcDbCircle
 10
1574.897184
 20
649.000324
 30
0.0
 40
1.0
100
AcDbArc
 50
90.0
 51
135.0
  0
ARC
  5
239
100
AcDbEntity
  8
タンク
  6
EXLTYPE2
 62
     6
100
AcDbCircle
 10
1570.482971
 20
611.000324
 30
0.0
 40
1.0
100
AcDbArc
 50
90.0
 51
180.0
  0
ARC
  5
23A
100
AcDbEntity
  8
タンク
  6
EXLTYPE2
 62
     6
100
AcDbCircle
 10
1588.482971
 20
611.000324
 30
0.0
 40
1.0
100
AcDbArc
 50
0.0
 51
90.0
  0
LINE
  5
23B
100
AcDbEntity
  8
タンク
  6
EXLTYPE2
 62
     6
100
AcDbLine
 10
1572.982971
 20
612.000324
 30
0.0
 11
1585.982971
 21
612.000324
 31
0.0
  0
LINE
  5
23C
100
AcDbEntity
  8
タンク
  6
CONTINUOUS
 62
     7
100
AcDbLine
 10
1484.323013
 20
1318.228016
 30
0.0
 11
1483.157546
 21
1385.000477
 31
0.0
  0
LINE
  5
23D
100
AcDbEntity
  8
タンク
  6
CONTINUOUS
 62
     7
100
AcDbLine
 10
1892.642868
 20
1318.226642
 30
0.0
 11
1893.808486
 21
1385.000477
 31
0.0
  0
LINE
  5
23E
100
AcDbEntity
  8
タンク
  6
CONTINUOUS
 62
     6
100
AcDbLine
 10
1894.61873
 20
1332.055014
 30
0.0
 11
1894.61873
 21
1367.936463
 31
0.0
  0
LINE
  5
23F
100
AcDbEntity
  8
タンク
  6
CONTINUOUS
 62
     6
100
AcDbLine
 10
1919.895628
 20
1299.315746
 30
0.0
 11
1899.68673
 21
1299.315746
 31
0.0
  0
LINE
  5
240
100
AcDbEntity
  8
タンク
  6
CONTINUOUS
 62
     6
100
AcDbLine
 10
1913.649033
 20
1368.240546
 30
0.0
 11
1894.922798
 21
1368.240546
 31
0.0
  0
LINE
  5
241
100
AcDbEntity
  8
タンク
  6
CONTINUOUS
 62
     6
100
AcDbLine
 10
1899.68673
 20
1316.516818
 30
0.0
 11
1899.68673
 21
1299.315746
 31
0.0
  0
ARC
  5
242
100
AcDbEntity
  8
タンク
  6
CONTINUOUS
 62
     6
100
AcDbCircle
 10
1899.990798
 20
1299.619752
 30
0.0
 40
0.30408
100
AcDbArc
 50
180.005127
 51
270.056458
  0
ARC
  5
243
100
AcDbEntity
  8
タンク
  6
CONTINUOUS
 62
     6
100
AcDbCircle
 10
1884.48273
 20
1349.995746
 30
0.0
 40
36.4896
100
AcDbArc
 50
10.758698
 51
25.944489
  0
ARC
  5
244
100
AcDbEntity
  8
タンク
  6
CONTINUOUS
 62
     6
100
AcDbCircle
 10
1913.649033
 20
1364.186146
 30
0.0
 40
4.0544
100
AcDbArc
 50
25.944489
 51
90.0
  0
ARC
  5
245
100
AcDbEntity
  8
タンク
  6
CONTINUOUS
 62
     6
100
AcDbCircle
 10
1919.895628
 20
1303.370146
 30
0.0
 40
4.0544
100
AcDbArc
 50
270.0
 51
328.506104
  0
ARC
  5
246
100
AcDbEntity
  8
タンク
  6
CONTINUOUS
 62
     6
100
AcDbCircle
 10
1907.79553
 20
1310.783334
 30
0.0
 40
18.2448
100
AcDbArc
 50
328.506104
 51
3.653961
  0
ARC
  5
247
100
AcDbEntity
  8
タンク
  6
CONTINUOUS
 62
     6
100
AcDbCircle
 10
1561.849037
 20
1288.691073
 30
0.0
 40
364.896
100
AcDbArc
 50
3.653961
 51
10.758698
  0
ARC
  5
248
100
AcDbEntity
  8
タンク
  6
CONTINUOUS
 62
     6
100
AcDbCircle
 10
1873.333162
 20
1316.516818
 30
0.0
 40
26.353569
100
AcDbArc
 50
0.0
 51
36.128998
  0
ARC
  5
249
100
AcDbEntity
  8
タンク
  6
CONTINUOUS
 62
     7
100
AcDbCircle
 10
192.901809
 20
1347.896137
 30
0.0
 40
1700.0
100
AcDbArc
 50
349.822091
 51
359.0
  0
ARC
  5
24A
100
AcDbEntity
  8
タンク
  6
CONTINUOUS
 62
     7
100
AcDbCircle
 10
3184.064071
 20
1347.896442
 30
0.0
 40
1700.0
100
AcDbArc
 50
180.999985
 51
190.177921
  0
LINE
  5
24B
100
AcDbEntity
  8
タンク
  6
CONTINUOUS
 62
     7
100
AcDbLine
 10
358.543678
 20
2426.999984
 30
0.0
 11
351.544166
 21
2426.999984
 31
0.0
  0
LINE
  5
24C
100
AcDbEntity
  8
タンク
  6
CONTINUOUS
 62
     7
100
AcDbLine
 10
351.544014
 20
2366.999984
 30
0.0
 11
351.544166
 21
2426.999984
 31
0.0
  0
LINE
  5
24D
100
AcDbEntity
  8
タンク
  6
CONTINUOUS
 62
     7
100
AcDbLine
 10
358.543525
 20
2366.999984
 30
0.0
 11
351.544014
 21
2366.999984
 31
0.0
  0
LINE
  5
24E
100
AcDbEntity
  8
タンク
  6
CONTINUOUS
 62
     7
100
AcDbLine
 10
358.543831
 20
2726.999984
 30
0.0
 11
351.544319
 21
2726.999984
 31
0.0
  0
LINE
  5
24F
100
AcDbEntity
  8
タンク
  6
CONTINUOUS
 62
     7
100
AcDbLine
 10
351.544166
 20
2666.999984
 30
0.0
 11
351.544319
 21
2726.999984
 31
0.0
  0
LINE
  5
250
100
AcDbEntity
  8
タンク
  6
CONTINUOUS
 62
     7
100
AcDbLine
 10
358.543678
 20
2666.999984
 30
0.0
 11
351.544166
 21
2666.999984
 31
0.0
  0
ARC
  5
251
100
AcDbEntity
  8
タンク
  6
CONTINUOUS
 62
     7
100
AcDbCircle
 10
354.044166
 20
2606.999984
 30
0.0
 40
2.5
100
AcDbArc
 50
90.0
 51
270.0
  0
ARC
  5
252
100
AcDbEntity
  8
タンク
  6
CONTINUOUS
 62
     7
100
AcDbCircle
 10
354.044166
 20
2546.999984
 30
0.0
 40
2.5
100
AcDbArc
 50
90.0
 51
270.0
  0
ARC
  5
253
100
AcDbEntity
  8
タンク
  6
CONTINUOUS
 62
     7
100
AcDbCircle
 10
354.044166
 20
2486.999984
 30
0.0
 40
2.5
100
AcDbArc
 50
90.0
 51
270.0
  0
LINE
  5
254
100
AcDbEntity
  8
タンク
  6
CONTINUOUS
 62
     7
100
AcDbLine
 10
358.543678
 20
2609.499984
 30
0.0
 11
354.044166
 21
2609.499984
 31
0.0
  0
LINE
  5
255
100
AcDbEntity
  8
タンク
  6
CONTINUOUS
 62
     7
100
AcDbLine
 10
358.543678
 20
2604.499984
 30
0.0
 11
354.044166
 21
2604.499984
 31
0.0
  0
LINE
  5
256
100
AcDbEntity
  8
タンク
  6
CONTINUOUS
 62
     7
100
AcDbLine
 10
358.543678
 20
2549.499984
 30
0.0
 11
354.044166
 21
2549.499984
 31
0.0
  0
LINE
  5
257
100
AcDbEntity
  8
タンク
  6
CONTINUOUS
 62
     7
100
AcDbLine
 10
358.543678
 20
2544.499984
 30
0.0
 11
354.044166
 21
2544.499984
 31
0.0
  0
LINE
  5
258
100
AcDbEntity
  8
タンク
  6
CONTINUOUS
 62
     7
100
AcDbLine
 10
358.543678
 20
2489.499984
 30
0.0
 11
354.044166
 21
2489.499984
 31
0.0
  0
LINE
  5
259
100
AcDbEntity
  8
タンク
  6
CONTINUOUS
 62
     7
100
AcDbLine
 10
358.543678
 20
2484.499984
 30
0.0
 11
354.044166
 21
2484.499984
 31
0.0
  0
LINE
  5
25A
100
AcDbEntity
  8
タンク
  6
CONTINUOUS
 62
     7
100
AcDbLine
 10
358.543527
 20
2362.000005
 30
0.0
 11
358.543829
 21
2732.000005
 31
0.0
  0
ARC
  5
25B
100
AcDbEntity
  8
タンク
  6
CONTINUOUS
 62
     7
100
AcDbCircle
 10
383.543527
 20
2361.999984
 30
0.0
 40
25.0
100
AcDbArc
 50
179.999953
 51
270.0
  0
ARC
  5
25C
100
AcDbEntity
  8
タンク
  6
CONTINUOUS
 62
     7
100
AcDbCircle
 10
383.543829
 20
2731.999984
 30
0.0
 40
25.0
100
AcDbArc
 50
90.0
 51
179.999953
  0
LINE
  5
25D
100
AcDbEntity
  8
タンク
  6
CONTINUOUS
 62
     7
100
AcDbLine
 10
512.142966
 20
2336.999984
 30
0.0
 11
383.543527
 21
2336.999984
 31
0.0
  0
ARC
  5
25E
100
AcDbEntity
  8
タンク
  6
CONTINUOUS
 62
     7
100
AcDbCircle
 10
512.142966
 20
2370.000015
 30
0.0
 40
33.000031
100
AcDbArc
 50
270.000031
 51
355.885559
  0
ARC
  5
25F
100
AcDbEntity
  8
タンク
  6
CONTINUOUS
 62
     7
100
AcDbCircle
 10
-1948.499429
 20
2546.998458
 30
0.0
 40
2500.0
100
AcDbArc
 50
355.885805
 51
4.114318
  0
ARC
  5
260
100
AcDbEntity
  8
タンク
  6
CONTINUOUS
 62
     7
100
AcDbCircle
 10
512.142661
 20
2723.999954
 30
0.0
 40
33.000088
100
AcDbArc
 50
4.114417
 51
89.999969
  0
LINE
  5
261
100
AcDbEntity
  8
タンク
  6
CONTINUOUS
 62
     7
100
AcDbLine
 10
512.142661
 20
2756.999984
 30
0.0
 11
383.543829
 21
2756.999984
 31
0.0
  0
LINE
  5
262
100
AcDbEntity
  8
タンク
  6
EXLTYPE2
 62
     2
100
AcDbLine
 10
360.999998
 20
1394.987122
 30
0.0
 11
547.000059
 21
1394.987122
 31
0.0
  0
LINE
  5
263
100
AcDbEntity
  8
タンク
  6
EXLTYPE2
 62
     2
100
AcDbLine
 10
546.825498
 20
1384.987122
 30
0.0
 11
547.000059
 21
1394.987122
 31
0.0
  0
LINE
  5
264
100
AcDbEntity
  8
タンク
  6
CONTINUOUS
 62
     7
100
AcDbLine
 10
551.543623
 20
1376.987026
 30
0.0
 11
351.500029
 21
1376.987026
 31
0.0
  0
LINE
  5
265
100
AcDbEntity
  8
タンク
  6
CONTINUOUS
 62
     7
100
AcDbLine
 10
551.543623
 20
1376.987026
 30
0.0
 11
551.543623
 21
1403.313179
 31
0.0
  0
ARC
  5
266
100
AcDbEntity
  8
タンク
  6
CONTINUOUS
 62
     7
100
AcDbCircle
 10
543.543623
 20
1403.313179
 30
0.0
 40
8.0
100
AcDbArc
 50
0.0
 51
85.298781
  0
ARC
  5
267
100
AcDbEntity
  8
タンク
  6
CONTINUOUS
 62
     7
100
AcDbCircle
 10
454.043623
 20
314.987056
 30
0.0
 40
1100.0
100
AcDbArc
 50
85.298781
 51
94.701219
  0
LINE
  5
268
100
AcDbEntity
  8
タンク
  6
CONTINUOUS
 62
     7
100
AcDbLine
 10
356.543623
 20
1376.987026
 30
0.0
 11
356.543623
 21
1403.313179
 31
0.0
  0
ARC
  5
269
100
AcDbEntity
  8
タンク
  6
CONTINUOUS
 62
     7
100
AcDbCircle
 10
364.543623
 20
1403.313179
 30
0.0
 40
8.0
100
AcDbArc
 50
94.701219
 51
180.0
  0
LINE
  5
26A
100
AcDbEntity
  8
タンク
  6
CONTINUOUS
 62
     7
100
AcDbLine
 10
367.0
 20
1376.987092
 30
0.0
 11
351.500028
 21
1376.987092
 31
0.0
  0
LINE
  5
26B
100
AcDbEntity
  8
タンク
  6
EXLTYPE2
 62
     2
100
AcDbLine
 10
360.999998
 20
1394.987122
 30
0.0
 11
360.999998
 21
1376.987026
 31
0.0
  0
LINE
  5
26C
100
AcDbEntity
  8
タンク
  6
CONTINUOUS
 62
     7
100
AcDbLine
 10
367.0
 20
1376.987092
 30
0.0
 11
351.500028
 21
1376.987092
 31
0.0
  0
LINE
  5
26D
100
AcDbEntity
  8
タンク
  6
EXLTYPE2
 62
     2
100
AcDbLine
 10
1893.808486
 20
1385.018319
 30
0.0
 11
1893.983047
 21
1395.018319
 31
0.0
  0
LINE
  5
26E
100
AcDbEntity
  8
タンク
  6
EXLTYPE2
 62
     2
100
AcDbLine
 10
1482.982986
 20
1395.018319
 30
0.0
 11
1893.983047
 21
1395.018319
 31
0.0
  0
LINE
  5
26F
100
AcDbEntity
  8
タンク
  6
EXLTYPE2
 62
     2
100
AcDbLine
 10
1482.982986
 20
1395.018319
 30
0.0
 11
1483.157546
 21
1385.018319
 31
0.0
  0
LINE
  5
270
100
AcDbEntity
  8
タンク
  6
CONTINUOUS
 62
     7
100
AcDbLine
 10
1478.483016
 20
1385.018166
 30
0.0
 11
1898.483016
 21
1385.018319
 31
0.0
  0
ARC
  5
271
100
AcDbEntity
  8
タンク
  6
CONTINUOUS
 62
     7
100
AcDbCircle
 10
1688.482971
 20
-3584.986478
 30
0.0
 40
5000.0
100
AcDbArc
 50
87.680908
 51
92.319092
  0
LINE
  5
272
100
AcDbEntity
  8
タンク
  6
CONTINUOUS
 62
     7
100
AcDbLine
 10
1478.482971
 20
1402.924909
 30
0.0
 11
1478.482971
 21
1385.018166
 31
0.0
  0
ARC
  5
273
100
AcDbEntity
  8
タンク
  6
CONTINUOUS
 62
     7
100
AcDbCircle
 10
1486.482971
 20
1402.924909
 30
0.0
 40
8.0
100
AcDbArc
 50
92.319092
 51
180.0
  0
LINE
  5
274
100
AcDbEntity
  8
タンク
  6
CONTINUOUS
 62
     7
100
AcDbLine
 10
1898.482971
 20
1402.924909
 30
0.0
 11
1898.482971
 21
1385.018319
 31
0.0
  0
ARC
  5
275
100
AcDbEntity
  8
タンク
  6
CONTINUOUS
 62
     7
100
AcDbCircle
 10
1890.482971
 20
1402.924909
 30
0.0
 40
8.0
100
AcDbArc
 50
0.0
 51
87.680908
  0
LINE
  5
276
100
AcDbEntity
  8
止水栓
  6
CONTINUOUS
 62
     6
100
AcDbLine
 10
442.251984
 20
2297.772837
 30
0.0
 11
442.251984
 21
2300.772837
 31
0.0
  0
LINE
  5
277
100
AcDbEntity
  8
止水栓
  6
CONTINUOUS
 62
     6
100
AcDbLine
 10
430.751984
 20
2297.772837
 30
0.0
 11
430.751984
 21
2300.772837
 31
0.0
  0
LINE
  5
278
100
AcDbEntity
  8
止水栓
  6
CONTINUOUS
 62
     6
100
AcDbLine
 10
443.001221
 20
2316.547007
 30
0.0
 11
443.001221
 21
2337.498764
 31
0.0
  0
LINE
  5
279
100
AcDbEntity
  8
止水栓
  6
CONTINUOUS
 62
     6
100
AcDbLine
 10
430.001221
 20
2316.547007
 30
0.0
 11
430.001221
 21
2337.498764
 31
0.0
  0
LINE
  5
27A
100
AcDbEntity
  8
止水栓
  6
CONTINUOUS
 62
     6
100
AcDbLine
 10
443.251984
 20
2316.772837
 30
0.0
 11
429.751984
 21
2316.772837
 31
0.0
  0
LINE
  5
27B
100
AcDbEntity
  8
止水栓
  6
CONTINUOUS
 62
     6
100
AcDbLine
 10
441.251984
 20
2300.772837
 30
0.0
 11
431.751984
 21
2300.772837
 31
0.0
  0
LINE
  5
27C
100
AcDbEntity
  8
止水栓
  6
CONTINUOUS
 62
     6
100
AcDbLine
 10
441.251984
 20
2305.772837
 30
0.0
 11
431.751984
 21
2305.772837
 31
0.0
  0
LINE
  5
27D
100
AcDbEntity
  8
止水栓
  6
CONTINUOUS
 62
     6
100
AcDbLine
 10
443.251984
 20
2308.772837
 30
0.0
 11
429.751984
 21
2308.772837
 31
0.0
  0
LINE
  5
27E
100
AcDbEntity
  8
止水栓
  6
CONTINUOUS
 62
     6
100
AcDbLine
 10
443.251984
 20
2308.772837
 30
0.0
 11
443.251984
 21
2316.772837
 31
0.0
  0
ARC
  5
27F
100
AcDbEntity
  8
止水栓
  6
CONTINUOUS
 62
     6
100
AcDbCircle
 10
441.251984
 20
2303.272837
 30
0.0
 40
2.5
100
AcDbArc
 50
0.0
 51
90.0
  0
ARC
  5
280
100
AcDbEntity
  8
止水栓
  6
CONTINUOUS
 62
     6
100
AcDbCircle
 10
441.251984
 20
2303.272837
 30
0.0
 40
2.5
100
AcDbArc
 50
270.0
 51
0.0
  0
LINE
  5
281
100
AcDbEntity
  8
止水栓
  6
CONTINUOUS
 62
     6
100
AcDbLine
 10
442.251984
 20
2305.772837
 30
0.0
 11
442.251984
 21
2308.772837
 31
0.0
  0
LINE
  5
282
100
AcDbEntity
  8
止水栓
  6
CONTINUOUS
 62
     6
100
AcDbLine
 10
429.751984
 20
2308.772837
 30
0.0
 11
429.751984
 21
2316.772837
 31
0.0
  0
ARC
  5
283
100
AcDbEntity
  8
止水栓
  6
CONTINUOUS
 62
     6
100
AcDbCircle
 10
431.751984
 20
2303.272837
 30
0.0
 40
2.5
100
AcDbArc
 50
90.0
 51
180.0
  0
ARC
  5
284
100
AcDbEntity
  8
止水栓
  6
CONTINUOUS
 62
     6
100
AcDbCircle
 10
431.751984
 20
2303.272837
 30
0.0
 40
2.5
100
AcDbArc
 50
180.0
 51
270.0
  0
LINE
  5
285
100
AcDbEntity
  8
止水栓
  6
CONTINUOUS
 62
     6
100
AcDbLine
 10
430.751984
 20
2305.772837
 30
0.0
 11
430.751984
 21
2308.772837
 31
0.0
  0
POLYLINE
  5
286
100
AcDbEntity
  8
止水栓
  6
CONTINUOUS
 62
     6
100
AcDb2dPolyline
 66
     1
 10
0.0
 20
0.0
 30
0.0
 70
   128
  0
VERTEX
  5
287
100
AcDbEntity
  8
止水栓
  6
CONTINUOUS
 62
     6
100
AcDbVertex
100
AcDb2dVertex
 10
442.358917
 20
2276.996469
 30
0.0
  0
VERTEX
  5
288
100
AcDbEntity
  8
止水栓
  6
CONTINUOUS
 62
     6
100
AcDbVertex
100
AcDb2dVertex
 10
442.336945
 20
2277.479868
 30
0.0
  0
VERTEX
  5
289
100
AcDbEntity
  8
止水栓
  6
CONTINUOUS
 62
     6
100
AcDbVertex
100
AcDb2dVertex
 10
442.271027
 20
2277.960825
 30
0.0
  0
VERTEX
  5
28A
100
AcDbEntity
  8
止水栓
  6
CONTINUOUS
 62
     6
100
AcDbVertex
100
AcDb2dVertex
 10
442.161163
 20
2278.434458
 30
0.0
  0
VERTEX
  5
28B
100
AcDbEntity
  8
止水栓
  6
CONTINUOUS
 62
     6
100
AcDbVertex
100
AcDb2dVertex
 10
442.007355
 20
2278.898325
 30
0.0
  0
VERTEX
  5
28C
100
AcDbEntity
  8
止水栓
  6
CONTINUOUS
 62
     6
100
AcDbVertex
100
AcDb2dVertex
 10
441.814484
 20
2279.345102
 30
0.0
  0
VERTEX
  5
28D
100
AcDbEntity
  8
止水栓
  6
CONTINUOUS
 62
     6
100
AcDbVertex
100
AcDb2dVertex
 10
441.577667
 20
2279.777231
 30
0.0
  0
VERTEX
  5
28E
100
AcDbEntity
  8
止水栓
  6
CONTINUOUS
 62
     6
100
AcDbVertex
100
AcDb2dVertex
 10
441.30423
 20
2280.184946
 30
0.0
  0
VERTEX
  5
28F
100
AcDbEntity
  8
止水栓
  6
CONTINUOUS
 62
     6
100
AcDbVertex
100
AcDb2dVertex
 10
440.994171
 20
2280.570688
 30
0.0
  0
VERTEX
  5
290
100
AcDbEntity
  8
止水栓
  6
CONTINUOUS
 62
     6
100
AcDbVertex
100
AcDb2dVertex
 10
440.652374
 20
2280.927133
 30
0.0
  0
VERTEX
  5
291
100
AcDbEntity
  8
止水栓
  6
CONTINUOUS
 62
     6
100
AcDbVertex
100
AcDb2dVertex
 10
440.276398
 20
2281.256723
 30
0.0
  0
VERTEX
  5
292
100
AcDbEntity
  8
止水栓
  6
CONTINUOUS
 62
     6
100
AcDbVertex
100
AcDb2dVertex
 10
439.873566
 20
2281.549692
 30
0.0
  0
VERTEX
  5
293
100
AcDbEntity
  8
止水栓
  6
CONTINUOUS
 62
     6
100
AcDbVertex
100
AcDb2dVertex
 10
439.443878
 20
2281.813364
 30
0.0
  0
VERTEX
  5
294
100
AcDbEntity
  8
止水栓
  6
CONTINUOUS
 62
     6
100
AcDbVertex
100
AcDb2dVertex
 10
438.992218
 20
2282.037973
 30
0.0
  0
VERTEX
  5
295
100
AcDbEntity
  8
止水栓
  6
CONTINUOUS
 62
     6
100
AcDbVertex
100
AcDb2dVertex
 10
438.523468
 20
2282.22352
 30
0.0
  0
VERTEX
  5
296
100
AcDbEntity
  8
止水栓
  6
CONTINUOUS
 62
     6
100
AcDbVertex
100
AcDb2dVertex
 10
438.037628
 20
2282.367563
 30
0.0
  0
VERTEX
  5
297
100
AcDbEntity
  8
止水栓
  6
CONTINUOUS
 62
     6
100
AcDbVertex
100
AcDb2dVertex
 10
437.542023
 20
2282.472544
 30
0.0
  0
VERTEX
  5
298
100
AcDbEntity
  8
止水栓
  6
CONTINUOUS
 62
     6
100
AcDbVertex
100
AcDb2dVertex
 10
437.036652
 20
2282.53602
 30
0.0
  0
VERTEX
  5
299
100
AcDbEntity
  8
止水栓
  6
CONTINUOUS
 62
     6
100
AcDbVertex
100
AcDb2dVertex
 10
436.528839
 20
2282.557993
 30
0.0
  0
VERTEX
  5
29A
100
AcDbEntity
  8
止水栓
  6
CONTINUOUS
 62
     6
100
AcDbVertex
100
AcDb2dVertex
 10
436.519074
 20
2282.557993
 30
0.0
  0
VERTEX
  5
29B
100
AcDbEntity
  8
止水栓
  6
CONTINUOUS
 62
     6
100
AcDbVertex
100
AcDb2dVertex
 10
436.511749
 20
2282.557993
 30
0.0
  0
VERTEX
  5
29C
100
AcDbEntity
  8
止水栓
  6
CONTINUOUS
 62
     6
100
AcDbVertex
100
AcDb2dVertex
 10
436.501984
 20
2282.557993
 30
0.0
  0
SEQEND
  5
29D
100
AcDbEntity
  8
止水栓
  6
CONTINUOUS
 62
     6
  0
LINE
  5
29E
100
AcDbEntity
  8
止水栓
  6
CONTINUOUS
 62
     6
100
AcDbLine
 10
441.251984
 20
2292.772837
 30
0.0
 11
431.751984
 21
2292.772837
 31
0.0
  0
LINE
  5
29F
100
AcDbEntity
  8
止水栓
  6
CONTINUOUS
 62
     6
100
AcDbLine
 10
442.251984
 20
2289.772837
 30
0.0
 11
430.751984
 21
2289.772837
 31
0.0
  0
LINE
  5
2A0
100
AcDbEntity
  8
止水栓
  6
CONTINUOUS
 62
     6
100
AcDbLine
 10
441.251984
 20
2297.772837
 30
0.0
 11
431.751984
 21
2297.772837
 31
0.0
  0
POLYLINE
  5
2A1
100
AcDbEntity
  8
止水栓
  6
CONTINUOUS
 62
     6
100
AcDb2dPolyline
 66
     1
 10
0.0
 20
0.0
 30
0.0
 70
   128
  0
VERTEX
  5
2A2
100
AcDbEntity
  8
止水栓
  6
CONTINUOUS
 62
     6
100
AcDbVertex
100
AcDb2dVertex
 10
436.501984
 20
2282.557993
 30
0.0
  0
VERTEX
  5
2A3
100
AcDbEntity
  8
止水栓
  6
CONTINUOUS
 62
     6
100
AcDbVertex
100
AcDb2dVertex
 10
436.003937
 20
2282.53602
 30
0.0
  0
VERTEX
  5
2A4
100
AcDbEntity
  8
止水栓
  6
CONTINUOUS
 62
     6
100
AcDbVertex
100
AcDb2dVertex
 10
435.508331
 20
2282.470102
 30
0.0
  0
VERTEX
  5
2A5
100
AcDbEntity
  8
止水栓
  6
CONTINUOUS
 62
     6
100
AcDbVertex
100
AcDb2dVertex
 10
435.02005
 20
2282.367563
 30
0.0
  0
VERTEX
  5
2A6
100
AcDbEntity
  8
止水栓
  6
CONTINUOUS
 62
     6
100
AcDbVertex
100
AcDb2dVertex
 10
434.53421
 20
2282.221079
 30
0.0
  0
VERTEX
  5
2A7
100
AcDbEntity
  8
止水栓
  6
CONTINUOUS
 62
     6
100
AcDbVertex
100
AcDb2dVertex
 10
434.06546
 20
2282.035532
 30
0.0
  0
VERTEX
  5
2A8
100
AcDbEntity
  8
止水栓
  6
CONTINUOUS
 62
     6
100
AcDbVertex
100
AcDb2dVertex
 10
433.6138
 20
2281.813364
 30
0.0
  0
VERTEX
  5
2A9
100
AcDbEntity
  8
止水栓
  6
CONTINUOUS
 62
     6
100
AcDbVertex
100
AcDb2dVertex
 10
433.184113
 20
2281.552133
 30
0.0
  0
VERTEX
  5
2AA
100
AcDbEntity
  8
止水栓
  6
CONTINUOUS
 62
     6
100
AcDbVertex
100
AcDb2dVertex
 10
432.781281
 20
2281.256723
 30
0.0
  0
VERTEX
  5
2AB
100
AcDbEntity
  8
止水栓
  6
CONTINUOUS
 62
     6
100
AcDbVertex
100
AcDb2dVertex
 10
432.405304
 20
2280.929575
 30
0.0
  0
VERTEX
  5
2AC
100
AcDbEntity
  8
止水栓
  6
CONTINUOUS
 62
     6
100
AcDbVertex
100
AcDb2dVertex
 10
432.063507
 20
2280.570688
 30
0.0
  0
VERTEX
  5
2AD
100
AcDbEntity
  8
止水栓
  6
CONTINUOUS
 62
     6
100
AcDbVertex
100
AcDb2dVertex
 10
431.753449
 20
2280.184946
 30
0.0
  0
VERTEX
  5
2AE
100
AcDbEntity
  8
止水栓
  6
CONTINUOUS
 62
     6
100
AcDbVertex
100
AcDb2dVertex
 10
431.480011
 20
2279.777231
 30
0.0
  0
VERTEX
  5
2AF
100
AcDbEntity
  8
止水栓
  6
CONTINUOUS
 62
     6
100
AcDbVertex
100
AcDb2dVertex
 10
431.243195
 20
2279.347544
 30
0.0
  0
VERTEX
  5
2B0
100
AcDbEntity
  8
止水栓
  6
CONTINUOUS
 62
     6
100
AcDbVertex
100
AcDb2dVertex
 10
431.050324
 20
2278.898325
 30
0.0
  0
VERTEX
  5
2B1
100
AcDbEntity
  8
止水栓
  6
CONTINUOUS
 62
     6
100
AcDbVertex
100
AcDb2dVertex
 10
430.896515
 20
2278.434458
 30
0.0
  0
VERTEX
  5
2B2
100
AcDbEntity
  8
止水栓
  6
CONTINUOUS
 62
     6
100
AcDbVertex
100
AcDb2dVertex
 10
430.786652
 20
2277.960825
 30
0.0
  0
VERTEX
  5
2B3
100
AcDbEntity
  8
止水栓
  6
CONTINUOUS
 62
     6
100
AcDbVertex
100
AcDb2dVertex
 10
430.720734
 20
2277.479868
 30
0.0
  0
VERTEX
  5
2B4
100
AcDbEntity
  8
止水栓
  6
CONTINUOUS
 62
     6
100
AcDbVertex
100
AcDb2dVertex
 10
430.69632
 20
2276.996469
 30
0.0
  0
VERTEX
  5
2B5
100
AcDbEntity
  8
止水栓
  6
CONTINUOUS
 62
     6
100
AcDbVertex
100
AcDb2dVertex
 10
430.720734
 20
2276.510629
 30
0.0
  0
VERTEX
  5
2B6
100
AcDbEntity
  8
止水栓
  6
CONTINUOUS
 62
     6
100
AcDbVertex
100
AcDb2dVertex
 10
430.786652
 20
2276.029672
 30
0.0
  0
VERTEX
  5
2B7
100
AcDbEntity
  8
止水栓
  6
CONTINUOUS
 62
     6
100
AcDbVertex
100
AcDb2dVertex
 10
430.896515
 20
2275.55604
 30
0.0
  0
VERTEX
  5
2B8
100
AcDbEntity
  8
止水栓
  6
CONTINUOUS
 62
     6
100
AcDbVertex
100
AcDb2dVertex
 10
431.050324
 20
2275.094614
 30
0.0
  0
VERTEX
  5
2B9
100
AcDbEntity
  8
止水栓
  6
CONTINUOUS
 62
     6
100
AcDbVertex
100
AcDb2dVertex
 10
431.243195
 20
2274.645395
 30
0.0
  0
VERTEX
  5
2BA
100
AcDbEntity
  8
止水栓
  6
CONTINUOUS
 62
     6
100
AcDbVertex
100
AcDb2dVertex
 10
431.480011
 20
2274.215708
 30
0.0
  0
VERTEX
  5
2BB
100
AcDbEntity
  8
止水栓
  6
CONTINUOUS
 62
     6
100
AcDbVertex
100
AcDb2dVertex
 10
431.753449
 20
2273.805551
 30
0.0
  0
VERTEX
  5
2BC
100
AcDbEntity
  8
止水栓
  6
CONTINUOUS
 62
     6
100
AcDbVertex
100
AcDb2dVertex
 10
432.063507
 20
2273.422251
 30
0.0
  0
VERTEX
  5
2BD
100
AcDbEntity
  8
止水栓
  6
CONTINUOUS
 62
     6
100
AcDbVertex
100
AcDb2dVertex
 10
432.405304
 20
2273.063364
 30
0.0
  0
VERTEX
  5
2BE
100
AcDbEntity
  8
止水栓
  6
CONTINUOUS
 62
     6
100
AcDbVertex
100
AcDb2dVertex
 10
432.781281
 20
2272.736215
 30
0.0
  0
VERTEX
  5
2BF
100
AcDbEntity
  8
止水栓
  6
CONTINUOUS
 62
     6
100
AcDbVertex
100
AcDb2dVertex
 10
433.184113
 20
2272.440805
 30
0.0
  0
VERTEX
  5
2C0
100
AcDbEntity
  8
止水栓
  6
CONTINUOUS
 62
     6
100
AcDbVertex
100
AcDb2dVertex
 10
433.6138
 20
2272.179575
 30
0.0
  0
VERTEX
  5
2C1
100
AcDbEntity
  8
止水栓
  6
CONTINUOUS
 62
     6
100
AcDbVertex
100
AcDb2dVertex
 10
434.06546
 20
2271.954965
 30
0.0
  0
VERTEX
  5
2C2
100
AcDbEntity
  8
止水栓
  6
CONTINUOUS
 62
     6
100
AcDbVertex
100
AcDb2dVertex
 10
434.53421
 20
2271.769419
 30
0.0
  0
VERTEX
  5
2C3
100
AcDbEntity
  8
止水栓
  6
CONTINUOUS
 62
     6
100
AcDbVertex
100
AcDb2dVertex
 10
435.02005
 20
2271.625376
 30
0.0
  0
VERTEX
  5
2C4
100
AcDbEntity
  8
止水栓
  6
CONTINUOUS
 62
     6
100
AcDbVertex
100
AcDb2dVertex
 10
435.515656
 20
2271.520395
 30
0.0
  0
VERTEX
  5
2C5
100
AcDbEntity
  8
止水栓
  6
CONTINUOUS
 62
     6
100
AcDbVertex
100
AcDb2dVertex
 10
436.021027
 20
2271.456919
 30
0.0
  0
VERTEX
  5
2C6
100
AcDbEntity
  8
止水栓
  6
CONTINUOUS
 62
     6
100
AcDbVertex
100
AcDb2dVertex
 10
436.528839
 20
2271.434946
 30
0.0
  0
VERTEX
  5
2C7
100
AcDbEntity
  8
止水栓
  6
CONTINUOUS
 62
     6
100
AcDbVertex
100
AcDb2dVertex
 10
437.036652
 20
2271.456919
 30
0.0
  0
VERTEX
  5
2C8
100
AcDbEntity
  8
止水栓
  6
CONTINUOUS
 62
     6
100
AcDbVertex
100
AcDb2dVertex
 10
437.542023
 20
2271.520395
 30
0.0
  0
VERTEX
  5
2C9
100
AcDbEntity
  8
止水栓
  6
CONTINUOUS
 62
     6
100
AcDbVertex
100
AcDb2dVertex
 10
438.037628
 20
2271.625376
 30
0.0
  0
VERTEX
  5
2CA
100
AcDbEntity
  8
止水栓
  6
CONTINUOUS
 62
     6
100
AcDbVertex
100
AcDb2dVertex
 10
438.523468
 20
2271.769419
 30
0.0
  0
VERTEX
  5
2CB
100
AcDbEntity
  8
止水栓
  6
CONTINUOUS
 62
     6
100
AcDbVertex
100
AcDb2dVertex
 10
438.992218
 20
2271.954965
 30
0.0
  0
VERTEX
  5
2CC
100
AcDbEntity
  8
止水栓
  6
CONTINUOUS
 62
     6
100
AcDbVertex
100
AcDb2dVertex
 10
439.443878
 20
2272.179575
 30
0.0
  0
VERTEX
  5
2CD
100
AcDbEntity
  8
止水栓
  6
CONTINUOUS
 62
     6
100
AcDbVertex
100
AcDb2dVertex
 10
439.873566
 20
2272.440805
 30
0.0
  0
VERTEX
  5
2CE
100
AcDbEntity
  8
止水栓
  6
CONTINUOUS
 62
     6
100
AcDbVertex
100
AcDb2dVertex
 10
440.276398
 20
2272.736215
 30
0.0
  0
VERTEX
  5
2CF
100
AcDbEntity
  8
止水栓
  6
CONTINUOUS
 62
     6
100
AcDbVertex
100
AcDb2dVertex
 10
440.652374
 20
2273.063364
 30
0.0
  0
VERTEX
  5
2D0
100
AcDbEntity
  8
止水栓
  6
CONTINUOUS
 62
     6
100
AcDbVertex
100
AcDb2dVertex
 10
440.994171
 20
2273.422251
 30
0.0
  0
VERTEX
  5
2D1
100
AcDbEntity
  8
止水栓
  6
CONTINUOUS
 62
     6
100
AcDbVertex
100
AcDb2dVertex
 10
441.30423
 20
2273.805551
 30
0.0
  0
VERTEX
  5
2D2
100
AcDbEntity
  8
止水栓
  6
CONTINUOUS
 62
     6
100
AcDbVertex
100
AcDb2dVertex
 10
441.577667
 20
2274.215708
 30
0.0
  0
VERTEX
  5
2D3
100
AcDbEntity
  8
止水栓
  6
CONTINUOUS
 62
     6
100
AcDbVertex
100
AcDb2dVertex
 10
441.814484
 20
2274.645395
 30
0.0
  0
VERTEX
  5
2D4
100
AcDbEntity
  8
止水栓
  6
CONTINUOUS
 62
     6
100
AcDbVertex
100
AcDb2dVertex
 10
442.007355
 20
2275.094614
 30
0.0
  0
VERTEX
  5
2D5
100
AcDbEntity
  8
止水栓
  6
CONTINUOUS
 62
     6
100
AcDbVertex
100
AcDb2dVertex
 10
442.161163
 20
2275.55604
 30
0.0
  0
VERTEX
  5
2D6
100
AcDbEntity
  8
止水栓
  6
CONTINUOUS
 62
     6
100
AcDbVertex
100
AcDb2dVertex
 10
442.271027
 20
2276.029672
 30
0.0
  0
VERTEX
  5
2D7
100
AcDbEntity
  8
止水栓
  6
CONTINUOUS
 62
     6
100
AcDbVertex
100
AcDb2dVertex
 10
442.336945
 20
2276.510629
 30
0.0
  0
VERTEX
  5
2D8
100
AcDbEntity
  8
止水栓
  6
CONTINUOUS
 62
     6
100
AcDbVertex
100
AcDb2dVertex
 10
442.358917
 20
2276.994028
 30
0.0
  0
SEQEND
  5
2D9
100
AcDbEntity
  8
止水栓
  6
CONTINUOUS
 62
     6
  0
LINE
  5
2DA
100
AcDbEntity
  8
止水栓
  6
CONTINUOUS
 62
     6
100
AcDbLine
 10
447.001984
 20
2287.772837
 30
0.0
 11
426.001984
 21
2287.772837
 31
0.0
  0
LINE
  5
2DB
100
AcDbEntity
  8
止水栓
  6
CONTINUOUS
 62
     6
100
AcDbLine
 10
447.471222
 20
2282.772837
 30
0.0
 11
425.532745
 21
2282.772837
 31
0.0
  0
LINE
  5
2DC
100
AcDbEntity
  8
止水栓
  6
CONTINUOUS
 62
     6
100
AcDbLine
 10
447.001984
 20
2282.772837
 30
0.0
 11
447.001984
 21
2287.772837
 31
0.0
  0
LINE
  5
2DD
100
AcDbEntity
  8
止水栓
  6
CONTINUOUS
 62
     6
100
AcDbLine
 10
442.251984
 20
2289.772837
 30
0.0
 11
442.251984
 21
2292.772837
 31
0.0
  0
LINE
  5
2DE
100
AcDbEntity
  8
止水栓
  6
CONTINUOUS
 62
     6
100
AcDbLine
 10
440.501984
 20
2287.772837
 30
0.0
 11
440.501984
 21
2289.772837
 31
0.0
  0
ARC
  5
2DF
100
AcDbEntity
  8
止水栓
  6
CONTINUOUS
 62
     6
100
AcDbCircle
 10
441.251984
 20
2295.272837
 30
0.0
 40
2.5
100
AcDbArc
 50
0.0
 51
90.0
  0
ARC
  5
2E0
100
AcDbEntity
  8
止水栓
  6
CONTINUOUS
 62
     6
100
AcDbCircle
 10
441.251984
 20
2295.272837
 30
0.0
 40
2.5
100
AcDbArc
 50
270.0
 51
0.0
  0
POLYLINE
  5
2E1
100
AcDbEntity
  8
止水栓
  6
CONTINUOUS
 62
     6
100
AcDb2dPolyline
 66
     1
 10
0.0
 20
0.0
 30
0.0
 70
   128
  0
VERTEX
  5
2E2
100
AcDbEntity
  8
止水栓
  6
CONTINUOUS
 62
     6
100
AcDbVertex
100
AcDb2dVertex
 10
448.914093
 20
2275.731821
 30
0.0
  0
VERTEX
  5
2E3
100
AcDbEntity
  8
止水栓
  6
CONTINUOUS
 62
     6
100
AcDbVertex
100
AcDb2dVertex
 10
448.96048
 20
2276.156626
 30
0.0
  0
VERTEX
  5
2E4
100
AcDbEntity
  8
止水栓
  6
CONTINUOUS
 62
     6
100
AcDbVertex
100
AcDb2dVertex
 10
448.987335
 20
2276.588754
 30
0.0
  0
VERTEX
  5
2E5
100
AcDbEntity
  8
止水栓
  6
CONTINUOUS
 62
     6
100
AcDbVertex
100
AcDb2dVertex
 10
448.997101
 20
2277.023325
 30
0.0
  0
SEQEND
  5
2E6
100
AcDbEntity
  8
止水栓
  6
CONTINUOUS
 62
     6
  0
POLYLINE
  5
2E7
100
AcDbEntity
  8
止水栓
  6
CONTINUOUS
 62
     6
100
AcDb2dPolyline
 66
     1
 10
0.0
 20
0.0
 30
0.0
 70
   128
  0
VERTEX
  5
2E8
100
AcDbEntity
  8
止水栓
  6
CONTINUOUS
 62
     6
100
AcDbVertex
100
AcDb2dVertex
 10
447.583527
 20
2272.50184
 30
0.0
  0
VERTEX
  5
2E9
100
AcDbEntity
  8
止水栓
  6
CONTINUOUS
 62
     6
100
AcDbVertex
100
AcDb2dVertex
 10
447.771515
 20
2272.702036
 30
0.0
  0
VERTEX
  5
2EA
100
AcDbEntity
  8
止水栓
  6
CONTINUOUS
 62
     6
100
AcDbVertex
100
AcDb2dVertex
 10
447.952179
 20
2272.936411
 30
0.0
  0
VERTEX
  5
2EB
100
AcDbEntity
  8
止水栓
  6
CONTINUOUS
 62
     6
100
AcDbVertex
100
AcDb2dVertex
 10
448.123077
 20
2273.200083
 30
0.0
  0
VERTEX
  5
2EC
100
AcDbEntity
  8
止水栓
  6
CONTINUOUS
 62
     6
100
AcDbVertex
100
AcDb2dVertex
 10
448.279327
 20
2273.495493
 30
0.0
  0
VERTEX
  5
2ED
100
AcDbEntity
  8
止水栓
  6
CONTINUOUS
 62
     6
100
AcDbVertex
100
AcDb2dVertex
 10
448.42337
 20
2273.815317
 30
0.0
  0
VERTEX
  5
2EE
100
AcDbEntity
  8
止水栓
  6
CONTINUOUS
 62
     6
100
AcDbVertex
100
AcDb2dVertex
 10
448.555206
 20
2274.161997
 30
0.0
  0
VERTEX
  5
2EF
100
AcDbEntity
  8
止水栓
  6
CONTINUOUS
 62
     6
100
AcDbVertex
100
AcDb2dVertex
 10
448.669952
 20
2274.528208
 30
0.0
  0
VERTEX
  5
2F0
100
AcDbEntity
  8
止水栓
  6
CONTINUOUS
 62
     6
100
AcDbVertex
100
AcDb2dVertex
 10
448.767609
 20
2274.91395
 30
0.0
  0
VERTEX
  5
2F1
100
AcDbEntity
  8
止水栓
  6
CONTINUOUS
 62
     6
100
AcDbVertex
100
AcDb2dVertex
 10
448.848175
 20
2275.316782
 30
0.0
  0
VERTEX
  5
2F2
100
AcDbEntity
  8
止水栓
  6
CONTINUOUS
 62
     6
100
AcDbVertex
100
AcDb2dVertex
 10
448.914093
 20
2275.731821
 30
0.0
  0
SEQEND
  5
2F3
100
AcDbEntity
  8
止水栓
  6
CONTINUOUS
 62
     6
  0
POLYLINE
  5
2F4
100
AcDbEntity
  8
止水栓
  6
CONTINUOUS
 62
     6
100
AcDb2dPolyline
 66
     1
 10
0.0
 20
0.0
 30
0.0
 70
   128
  0
VERTEX
  5
2F5
100
AcDbEntity
  8
止水栓
  6
CONTINUOUS
 62
     6
100
AcDbVertex
100
AcDb2dVertex
 10
448.997101
 20
2277.023325
 30
0.0
  0
VERTEX
  5
2F6
100
AcDbEntity
  8
止水栓
  6
CONTINUOUS
 62
     6
100
AcDbVertex
100
AcDb2dVertex
 10
448.987335
 20
2277.460337
 30
0.0
  0
VERTEX
  5
2F7
100
AcDbEntity
  8
止水栓
  6
CONTINUOUS
 62
     6
100
AcDbVertex
100
AcDb2dVertex
 10
448.96048
 20
2277.892465
 30
0.0
  0
VERTEX
  5
2F8
100
AcDbEntity
  8
止水栓
  6
CONTINUOUS
 62
     6
100
AcDbVertex
100
AcDb2dVertex
 10
448.914093
 20
2278.31727
 30
0.0
  0
VERTEX
  5
2F9
100
AcDbEntity
  8
止水栓
  6
CONTINUOUS
 62
     6
100
AcDbVertex
100
AcDb2dVertex
 10
448.848175
 20
2278.732309
 30
0.0
  0
VERTEX
  5
2FA
100
AcDbEntity
  8
止水栓
  6
CONTINUOUS
 62
     6
100
AcDbVertex
100
AcDb2dVertex
 10
448.767609
 20
2279.1327
 30
0.0
  0
VERTEX
  5
2FB
100
AcDbEntity
  8
止水栓
  6
CONTINUOUS
 62
     6
100
AcDbVertex
100
AcDb2dVertex
 10
448.669952
 20
2279.518442
 30
0.0
  0
VERTEX
  5
2FC
100
AcDbEntity
  8
止水栓
  6
CONTINUOUS
 62
     6
100
AcDbVertex
100
AcDb2dVertex
 10
448.552765
 20
2279.887094
 30
0.0
  0
VERTEX
  5
2FD
100
AcDbEntity
  8
止水栓
  6
CONTINUOUS
 62
     6
100
AcDbVertex
100
AcDb2dVertex
 10
448.42337
 20
2280.231333
 30
0.0
  0
VERTEX
  5
2FE
100
AcDbEntity
  8
止水栓
  6
CONTINUOUS
 62
     6
100
AcDbVertex
100
AcDb2dVertex
 10
448.279327
 20
2280.553598
 30
0.0
  0
VERTEX
  5
2FF
100
AcDbEntity
  8
止水栓
  6
CONTINUOUS
 62
     6
100
AcDbVertex
100
AcDb2dVertex
 10
448.120636
 20
2280.846567
 30
0.0
  0
VERTEX
  5
300
100
AcDbEntity
  8
止水栓
  6
CONTINUOUS
 62
     6
100
AcDbVertex
100
AcDb2dVertex
 10
447.952179
 20
2281.11268
 30
0.0
  0
VERTEX
  5
301
100
AcDbEntity
  8
止水栓
  6
CONTINUOUS
 62
     6
100
AcDbVertex
100
AcDb2dVertex
 10
447.771515
 20
2281.344614
 30
0.0
  0
VERTEX
  5
302
100
AcDbEntity
  8
止水栓
  6
CONTINUOUS
 62
     6
100
AcDbVertex
100
AcDb2dVertex
 10
447.583527
 20
2281.547251
 30
0.0
  0
VERTEX
  5
303
100
AcDbEntity
  8
止水栓
  6
CONTINUOUS
 62
     6
100
AcDbVertex
100
AcDb2dVertex
 10
447.385773
 20
2281.713266
 30
0.0
  0
VERTEX
  5
304
100
AcDbEntity
  8
止水栓
  6
CONTINUOUS
 62
     6
100
AcDbVertex
100
AcDb2dVertex
 10
447.180695
 20
2281.845102
 30
0.0
  0
VERTEX
  5
305
100
AcDbEntity
  8
止水栓
  6
CONTINUOUS
 62
     6
100
AcDbVertex
100
AcDb2dVertex
 10
446.973175
 20
2281.937876
 30
0.0
  0
VERTEX
  5
306
100
AcDbEntity
  8
止水栓
  6
CONTINUOUS
 62
     6
100
AcDbVertex
100
AcDb2dVertex
 10
446.760773
 20
2281.996469
 30
0.0
  0
VERTEX
  5
307
100
AcDbEntity
  8
止水栓
  6
CONTINUOUS
 62
     6
100
AcDbVertex
100
AcDb2dVertex
 10
446.54837
 20
2282.013559
 30
0.0
  0
VERTEX
  5
308
100
AcDbEntity
  8
止水栓
  6
CONTINUOUS
 62
     6
100
AcDbVertex
100
AcDb2dVertex
 10
446.333527
 20
2281.994028
 30
0.0
  0
VERTEX
  5
309
100
AcDbEntity
  8
止水栓
  6
CONTINUOUS
 62
     6
100
AcDbVertex
100
AcDb2dVertex
 10
446.121124
 20
2281.937876
 30
0.0
  0
VERTEX
  5
30A
100
AcDbEntity
  8
止水栓
  6
CONTINUOUS
 62
     6
100
AcDbVertex
100
AcDb2dVertex
 10
445.913605
 20
2281.845102
 30
0.0
  0
VERTEX
  5
30B
100
AcDbEntity
  8
止水栓
  6
CONTINUOUS
 62
     6
100
AcDbVertex
100
AcDb2dVertex
 10
445.708527
 20
2281.713266
 30
0.0
  0
VERTEX
  5
30C
100
AcDbEntity
  8
止水栓
  6
CONTINUOUS
 62
     6
100
AcDbVertex
100
AcDb2dVertex
 10
445.510773
 20
2281.547251
 30
0.0
  0
VERTEX
  5
30D
100
AcDbEntity
  8
止水栓
  6
CONTINUOUS
 62
     6
100
AcDbVertex
100
AcDb2dVertex
 10
445.322784
 20
2281.344614
 30
0.0
  0
VERTEX
  5
30E
100
AcDbEntity
  8
止水栓
  6
CONTINUOUS
 62
     6
100
AcDbVertex
100
AcDb2dVertex
 10
445.14212
 20
2281.110239
 30
0.0
  0
VERTEX
  5
30F
100
AcDbEntity
  8
止水栓
  6
CONTINUOUS
 62
     6
100
AcDbVertex
100
AcDb2dVertex
 10
444.973663
 20
2280.846567
 30
0.0
  0
VERTEX
  5
310
100
AcDbEntity
  8
止水栓
  6
CONTINUOUS
 62
     6
100
AcDbVertex
100
AcDb2dVertex
 10
444.814972
 20
2280.553598
 30
0.0
  0
VERTEX
  5
311
100
AcDbEntity
  8
止水栓
  6
CONTINUOUS
 62
     6
100
AcDbVertex
100
AcDb2dVertex
 10
444.670929
 20
2280.231333
 30
0.0
  0
VERTEX
  5
312
100
AcDbEntity
  8
止水栓
  6
CONTINUOUS
 62
     6
100
AcDbVertex
100
AcDb2dVertex
 10
444.541534
 20
2279.887094
 30
0.0
  0
VERTEX
  5
313
100
AcDbEntity
  8
止水栓
  6
CONTINUOUS
 62
     6
100
AcDbVertex
100
AcDb2dVertex
 10
444.426788
 20
2279.518442
 30
0.0
  0
VERTEX
  5
314
100
AcDbEntity
  8
止水栓
  6
CONTINUOUS
 62
     6
100
AcDbVertex
100
AcDb2dVertex
 10
444.326691
 20
2279.1327
 30
0.0
  0
VERTEX
  5
315
100
AcDbEntity
  8
止水栓
  6
CONTINUOUS
 62
     6
100
AcDbVertex
100
AcDb2dVertex
 10
444.246124
 20
2278.729868
 30
0.0
  0
VERTEX
  5
316
100
AcDbEntity
  8
止水栓
  6
CONTINUOUS
 62
     6
100
AcDbVertex
100
AcDb2dVertex
 10
444.180206
 20
2278.314829
 30
0.0
  0
VERTEX
  5
317
100
AcDbEntity
  8
止水栓
  6
CONTINUOUS
 62
     6
100
AcDbVertex
100
AcDb2dVertex
 10
444.13382
 20
2277.890024
 30
0.0
  0
VERTEX
  5
318
100
AcDbEntity
  8
止水栓
  6
CONTINUOUS
 62
     6
100
AcDbVertex
100
AcDb2dVertex
 10
444.106964
 20
2277.457895
 30
0.0
  0
VERTEX
  5
319
100
AcDbEntity
  8
止水栓
  6
CONTINUOUS
 62
     6
100
AcDbVertex
100
AcDb2dVertex
 10
444.097199
 20
2277.023325
 30
0.0
  0
VERTEX
  5
31A
100
AcDbEntity
  8
止水栓
  6
CONTINUOUS
 62
     6
100
AcDbVertex
100
AcDb2dVertex
 10
444.106964
 20
2276.588754
 30
0.0
  0
VERTEX
  5
31B
100
AcDbEntity
  8
止水栓
  6
CONTINUOUS
 62
     6
100
AcDbVertex
100
AcDb2dVertex
 10
444.136261
 20
2276.156626
 30
0.0
  0
VERTEX
  5
31C
100
AcDbEntity
  8
止水栓
  6
CONTINUOUS
 62
     6
100
AcDbVertex
100
AcDb2dVertex
 10
444.182648
 20
2275.731821
 30
0.0
  0
VERTEX
  5
31D
100
AcDbEntity
  8
止水栓
  6
CONTINUOUS
 62
     6
100
AcDbVertex
100
AcDb2dVertex
 10
444.246124
 20
2275.316782
 30
0.0
  0
VERTEX
  5
31E
100
AcDbEntity
  8
止水栓
  6
CONTINUOUS
 62
     6
100
AcDbVertex
100
AcDb2dVertex
 10
444.326691
 20
2274.91395
 30
0.0
  0
VERTEX
  5
31F
100
AcDbEntity
  8
止水栓
  6
CONTINUOUS
 62
     6
100
AcDbVertex
100
AcDb2dVertex
 10
444.426788
 20
2274.528208
 30
0.0
  0
VERTEX
  5
320
100
AcDbEntity
  8
止水栓
  6
CONTINUOUS
 62
     6
100
AcDbVertex
100
AcDb2dVertex
 10
444.541534
 20
2274.161997
 30
0.0
  0
VERTEX
  5
321
100
AcDbEntity
  8
止水栓
  6
CONTINUOUS
 62
     6
100
AcDbVertex
100
AcDb2dVertex
 10
444.670929
 20
2273.815317
 30
0.0
  0
VERTEX
  5
322
100
AcDbEntity
  8
止水栓
  6
CONTINUOUS
 62
     6
100
AcDbVertex
100
AcDb2dVertex
 10
444.814972
 20
2273.495493
 30
0.0
  0
VERTEX
  5
323
100
AcDbEntity
  8
止水栓
  6
CONTINUOUS
 62
     6
100
AcDbVertex
100
AcDb2dVertex
 10
444.973663
 20
2273.200083
 30
0.0
  0
VERTEX
  5
324
100
AcDbEntity
  8
止水栓
  6
CONTINUOUS
 62
     6
100
AcDbVertex
100
AcDb2dVertex
 10
445.14212
 20
2272.936411
 30
0.0
  0
VERTEX
  5
325
100
AcDbEntity
  8
止水栓
  6
CONTINUOUS
 62
     6
100
AcDbVertex
100
AcDb2dVertex
 10
445.322784
 20
2272.702036
 30
0.0
  0
VERTEX
  5
326
100
AcDbEntity
  8
止水栓
  6
CONTINUOUS
 62
     6
100
AcDbVertex
100
AcDb2dVertex
 10
445.510773
 20
2272.50184
 30
0.0
  0
VERTEX
  5
327
100
AcDbEntity
  8
止水栓
  6
CONTINUOUS
 62
     6
100
AcDbVertex
100
AcDb2dVertex
 10
445.708527
 20
2272.333383
 30
0.0
  0
VERTEX
  5
328
100
AcDbEntity
  8
止水栓
  6
CONTINUOUS
 62
     6
100
AcDbVertex
100
AcDb2dVertex
 10
445.913605
 20
2272.203989
 30
0.0
  0
VERTEX
  5
329
100
AcDbEntity
  8
止水栓
  6
CONTINUOUS
 62
     6
100
AcDbVertex
100
AcDb2dVertex
 10
446.121124
 20
2272.108774
 30
0.0
  0
VERTEX
  5
32A
100
AcDbEntity
  8
止水栓
  6
CONTINUOUS
 62
     6
100
AcDbVertex
100
AcDb2dVertex
 10
446.333527
 20
2272.052622
 30
0.0
  0
VERTEX
  5
32B
100
AcDbEntity
  8
止水栓
  6
CONTINUOUS
 62
     6
100
AcDbVertex
100
AcDb2dVertex
 10
446.54837
 20
2272.03309
 30
0.0
  0
VERTEX
  5
32C
100
AcDbEntity
  8
止水栓
  6
CONTINUOUS
 62
     6
100
AcDbVertex
100
AcDb2dVertex
 10
446.760773
 20
2272.052622
 30
0.0
  0
VERTEX
  5
32D
100
AcDbEntity
  8
止水栓
  6
CONTINUOUS
 62
     6
100
AcDbVertex
100
AcDb2dVertex
 10
446.973175
 20
2272.108774
 30
0.0
  0
VERTEX
  5
32E
100
AcDbEntity
  8
止水栓
  6
CONTINUOUS
 62
     6
100
AcDbVertex
100
AcDb2dVertex
 10
447.180695
 20
2272.203989
 30
0.0
  0
VERTEX
  5
32F
100
AcDbEntity
  8
止水栓
  6
CONTINUOUS
 62
     6
100
AcDbVertex
100
AcDb2dVertex
 10
447.385773
 20
2272.333383
 30
0.0
  0
VERTEX
  5
330
100
AcDbEntity
  8
止水栓
  6
CONTINUOUS
 62
     6
100
AcDbVertex
100
AcDb2dVertex
 10
447.583527
 20
2272.50184
 30
0.0
  0
SEQEND
  5
331
100
AcDbEntity
  8
止水栓
  6
CONTINUOUS
 62
     6
  0
LINE
  5
332
100
AcDbEntity
  8
止水栓
  6
CONTINUOUS
 62
     6
100
AcDbLine
 10
426.001984
 20
2282.772837
 30
0.0
 11
426.001984
 21
2287.772837
 31
0.0
  0
LINE
  5
333
100
AcDbEntity
  8
止水栓
  6
CONTINUOUS
 62
     6
100
AcDbLine
 10
430.751984
 20
2289.772837
 30
0.0
 11
430.751984
 21
2292.772837
 31
0.0
  0
LINE
  5
334
100
AcDbEntity
  8
止水栓
  6
CONTINUOUS
 62
     6
100
AcDbLine
 10
432.501984
 20
2287.772837
 30
0.0
 11
432.501984
 21
2289.772837
 31
0.0
  0
ARC
  5
335
100
AcDbEntity
  8
止水栓
  6
CONTINUOUS
 62
     6
100
AcDbCircle
 10
431.751984
 20
2295.272837
 30
0.0
 40
2.5
100
AcDbArc
 50
90.0
 51
180.0
  0
ARC
  5
336
100
AcDbEntity
  8
止水栓
  6
CONTINUOUS
 62
     6
100
AcDbCircle
 10
431.751984
 20
2295.272837
 30
0.0
 40
2.5
100
AcDbArc
 50
180.0
 51
270.0
  0
POLYLINE
  5
337
100
AcDbEntity
  8
止水栓
  6
CONTINUOUS
 62
     6
100
AcDb2dPolyline
 66
     1
 10
0.0
 20
0.0
 30
0.0
 70
   128
  0
VERTEX
  5
338
100
AcDbEntity
  8
止水栓
  6
CONTINUOUS
 62
     6
100
AcDbVertex
100
AcDb2dVertex
 10
428.899445
 20
2277.030649
 30
0.0
  0
VERTEX
  5
339
100
AcDbEntity
  8
止水栓
  6
CONTINUOUS
 62
     6
100
AcDbVertex
100
AcDb2dVertex
 10
428.889679
 20
2277.433481
 30
0.0
  0
VERTEX
  5
33A
100
AcDbEntity
  8
止水栓
  6
CONTINUOUS
 62
     6
100
AcDbVertex
100
AcDb2dVertex
 10
428.860382
 20
2277.833872
 30
0.0
  0
VERTEX
  5
33B
100
AcDbEntity
  8
止水栓
  6
CONTINUOUS
 62
     6
100
AcDbVertex
100
AcDb2dVertex
 10
428.813995
 20
2278.229379
 30
0.0
  0
VERTEX
  5
33C
100
AcDbEntity
  8
止水栓
  6
CONTINUOUS
 62
     6
100
AcDbVertex
100
AcDb2dVertex
 10
428.750519
 20
2278.61268
 30
0.0
  0
VERTEX
  5
33D
100
AcDbEntity
  8
止水栓
  6
CONTINUOUS
 62
     6
100
AcDbVertex
100
AcDb2dVertex
 10
428.669952
 20
2278.986215
 30
0.0
  0
VERTEX
  5
33E
100
AcDbEntity
  8
止水栓
  6
CONTINUOUS
 62
     6
100
AcDbVertex
100
AcDb2dVertex
 10
428.569855
 20
2279.345102
 30
0.0
  0
VERTEX
  5
33F
100
AcDbEntity
  8
止水栓
  6
CONTINUOUS
 62
     6
100
AcDbVertex
100
AcDb2dVertex
 10
428.455109
 20
2279.684458
 30
0.0
  0
VERTEX
  5
340
100
AcDbEntity
  8
止水栓
  6
CONTINUOUS
 62
     6
100
AcDbVertex
100
AcDb2dVertex
 10
428.325714
 20
2280.006723
 30
0.0
  0
VERTEX
  5
341
100
AcDbEntity
  8
止水栓
  6
CONTINUOUS
 62
     6
100
AcDbVertex
100
AcDb2dVertex
 10
428.181671
 20
2280.304575
 30
0.0
  0
VERTEX
  5
342
100
AcDbEntity
  8
止水栓
  6
CONTINUOUS
 62
     6
100
AcDbVertex
100
AcDb2dVertex
 10
428.02298
 20
2280.575571
 30
0.0
  0
VERTEX
  5
343
100
AcDbEntity
  8
止水栓
  6
CONTINUOUS
 62
     6
100
AcDbVertex
100
AcDb2dVertex
 10
427.854523
 20
2280.822153
 30
0.0
  0
VERTEX
  5
344
100
AcDbEntity
  8
止水栓
  6
CONTINUOUS
 62
     6
100
AcDbVertex
100
AcDb2dVertex
 10
427.673859
 20
2281.039438
 30
0.0
  0
VERTEX
  5
345
100
AcDbEntity
  8
止水栓
  6
CONTINUOUS
 62
     6
100
AcDbVertex
100
AcDb2dVertex
 10
427.483429
 20
2281.227426
 30
0.0
  0
VERTEX
  5
346
100
AcDbEntity
  8
止水栓
  6
CONTINUOUS
 62
     6
100
AcDbVertex
100
AcDb2dVertex
 10
427.285675
 20
2281.381235
 30
0.0
  0
VERTEX
  5
347
100
AcDbEntity
  8
止水栓
  6
CONTINUOUS
 62
     6
100
AcDbVertex
100
AcDb2dVertex
 10
427.083038
 20
2281.500864
 30
0.0
  0
VERTEX
  5
348
100
AcDbEntity
  8
止水栓
  6
CONTINUOUS
 62
     6
100
AcDbVertex
100
AcDb2dVertex
 10
426.873077
 20
2281.588754
 30
0.0
  0
VERTEX
  5
349
100
AcDbEntity
  8
止水栓
  6
CONTINUOUS
 62
     6
100
AcDbVertex
100
AcDb2dVertex
 10
426.663117
 20
2281.642465
 30
0.0
  0
VERTEX
  5
34A
100
AcDbEntity
  8
止水栓
  6
CONTINUOUS
 62
     6
100
AcDbVertex
100
AcDb2dVertex
 10
426.448273
 20
2281.659555
 30
0.0
  0
VERTEX
  5
34B
100
AcDbEntity
  8
止水栓
  6
CONTINUOUS
 62
     6
100
AcDbVertex
100
AcDb2dVertex
 10
426.23587
 20
2281.642465
 30
0.0
  0
VERTEX
  5
34C
100
AcDbEntity
  8
止水栓
  6
CONTINUOUS
 62
     6
100
AcDbVertex
100
AcDb2dVertex
 10
426.023468
 20
2281.588754
 30
0.0
  0
VERTEX
  5
34D
100
AcDbEntity
  8
止水栓
  6
CONTINUOUS
 62
     6
100
AcDbVertex
100
AcDb2dVertex
 10
425.813507
 20
2281.500864
 30
0.0
  0
VERTEX
  5
34E
100
AcDbEntity
  8
止水栓
  6
CONTINUOUS
 62
     6
100
AcDbVertex
100
AcDb2dVertex
 10
425.61087
 20
2281.381235
 30
0.0
  0
VERTEX
  5
34F
100
AcDbEntity
  8
止水栓
  6
CONTINUOUS
 62
     6
100
AcDbVertex
100
AcDb2dVertex
 10
425.413117
 20
2281.224985
 30
0.0
  0
VERTEX
  5
350
100
AcDbEntity
  8
止水栓
  6
CONTINUOUS
 62
     6
100
AcDbVertex
100
AcDb2dVertex
 10
425.225128
 20
2281.039438
 30
0.0
  0
VERTEX
  5
351
100
AcDbEntity
  8
止水栓
  6
CONTINUOUS
 62
     6
100
AcDbVertex
100
AcDb2dVertex
 10
425.044464
 20
2280.822153
 30
0.0
  0
VERTEX
  5
352
100
AcDbEntity
  8
止水栓
  6
CONTINUOUS
 62
     6
100
AcDbVertex
100
AcDb2dVertex
 10
424.873566
 20
2280.578012
 30
0.0
  0
VERTEX
  5
353
100
AcDbEntity
  8
止水栓
  6
CONTINUOUS
 62
     6
100
AcDbVertex
100
AcDb2dVertex
 10
424.717316
 20
2280.304575
 30
0.0
  0
VERTEX
  5
354
100
AcDbEntity
  8
止水栓
  6
CONTINUOUS
 62
     6
100
AcDbVertex
100
AcDb2dVertex
 10
424.573273
 20
2280.006723
 30
0.0
  0
VERTEX
  5
355
100
AcDbEntity
  8
止水栓
  6
CONTINUOUS
 62
     6
100
AcDbVertex
100
AcDb2dVertex
 10
424.441437
 20
2279.684458
 30
0.0
  0
VERTEX
  5
356
100
AcDbEntity
  8
止水栓
  6
CONTINUOUS
 62
     6
100
AcDbVertex
100
AcDb2dVertex
 10
424.326691
 20
2279.345102
 30
0.0
  0
VERTEX
  5
357
100
AcDbEntity
  8
止水栓
  6
CONTINUOUS
 62
     6
100
AcDbVertex
100
AcDb2dVertex
 10
424.229034
 20
2278.986215
 30
0.0
  0
VERTEX
  5
358
100
AcDbEntity
  8
止水栓
  6
CONTINUOUS
 62
     6
100
AcDbVertex
100
AcDb2dVertex
 10
424.148468
 20
2278.615122
 30
0.0
  0
VERTEX
  5
359
100
AcDbEntity
  8
止水栓
  6
CONTINUOUS
 62
     6
100
AcDbVertex
100
AcDb2dVertex
 10
424.08255
 20
2278.229379
 30
0.0
  0
VERTEX
  5
35A
100
AcDbEntity
  8
止水栓
  6
CONTINUOUS
 62
     6
100
AcDbVertex
100
AcDb2dVertex
 10
424.036163
 20
2277.833872
 30
0.0
  0
VERTEX
  5
35B
100
AcDbEntity
  8
止水栓
  6
CONTINUOUS
 62
     6
100
AcDbVertex
100
AcDb2dVertex
 10
424.009308
 20
2277.433481
 30
0.0
  0
VERTEX
  5
35C
100
AcDbEntity
  8
止水栓
  6
CONTINUOUS
 62
     6
100
AcDbVertex
100
AcDb2dVertex
 10
423.999542
 20
2277.030649
 30
0.0
  0
VERTEX
  5
35D
100
AcDbEntity
  8
止水栓
  6
CONTINUOUS
 62
     6
100
AcDbVertex
100
AcDb2dVertex
 10
424.009308
 20
2276.627817
 30
0.0
  0
VERTEX
  5
35E
100
AcDbEntity
  8
止水栓
  6
CONTINUOUS
 62
     6
100
AcDbVertex
100
AcDb2dVertex
 10
424.036163
 20
2276.227426
 30
0.0
  0
VERTEX
  5
35F
100
AcDbEntity
  8
止水栓
  6
CONTINUOUS
 62
     6
100
AcDbVertex
100
AcDb2dVertex
 10
424.08255
 20
2275.831919
 30
0.0
  0
VERTEX
  5
360
100
AcDbEntity
  8
止水栓
  6
CONTINUOUS
 62
     6
100
AcDbVertex
100
AcDb2dVertex
 10
424.146027
 20
2275.446176
 30
0.0
  0
VERTEX
  5
361
100
AcDbEntity
  8
止水栓
  6
CONTINUOUS
 62
     6
100
AcDbVertex
100
AcDb2dVertex
 10
424.229034
 20
2275.072641
 30
0.0
  0
VERTEX
  5
362
100
AcDbEntity
  8
止水栓
  6
CONTINUOUS
 62
     6
100
AcDbVertex
100
AcDb2dVertex
 10
424.326691
 20
2274.713754
 30
0.0
  0
VERTEX
  5
363
100
AcDbEntity
  8
止水栓
  6
CONTINUOUS
 62
     6
100
AcDbVertex
100
AcDb2dVertex
 10
424.441437
 20
2274.374399
 30
0.0
  0
VERTEX
  5
364
100
AcDbEntity
  8
止水栓
  6
CONTINUOUS
 62
     6
100
AcDbVertex
100
AcDb2dVertex
 10
424.573273
 20
2274.052133
 30
0.0
  0
VERTEX
  5
365
100
AcDbEntity
  8
止水栓
  6
CONTINUOUS
 62
     6
100
AcDbVertex
100
AcDb2dVertex
 10
424.717316
 20
2273.756723
 30
0.0
  0
VERTEX
  5
366
100
AcDbEntity
  8
止水栓
  6
CONTINUOUS
 62
     6
100
AcDbVertex
100
AcDb2dVertex
 10
424.873566
 20
2273.483286
 30
0.0
  0
VERTEX
  5
367
100
AcDbEntity
  8
止水栓
  6
CONTINUOUS
 62
     6
100
AcDbVertex
100
AcDb2dVertex
 10
425.044464
 20
2273.236704
 30
0.0
  0
VERTEX
  5
368
100
AcDbEntity
  8
止水栓
  6
CONTINUOUS
 62
     6
100
AcDbVertex
100
AcDb2dVertex
 10
425.222687
 20
2273.019419
 30
0.0
  0
VERTEX
  5
369
100
AcDbEntity
  8
止水栓
  6
CONTINUOUS
 62
     6
100
AcDbVertex
100
AcDb2dVertex
 10
425.413117
 20
2272.833872
 30
0.0
  0
VERTEX
  5
36A
100
AcDbEntity
  8
止水栓
  6
CONTINUOUS
 62
     6
100
AcDbVertex
100
AcDb2dVertex
 10
425.61087
 20
2272.680063
 30
0.0
  0
VERTEX
  5
36B
100
AcDbEntity
  8
止水栓
  6
CONTINUOUS
 62
     6
100
AcDbVertex
100
AcDb2dVertex
 10
425.813507
 20
2272.557993
 30
0.0
  0
VERTEX
  5
36C
100
AcDbEntity
  8
止水栓
  6
CONTINUOUS
 62
     6
100
AcDbVertex
100
AcDb2dVertex
 10
426.023468
 20
2272.470102
 30
0.0
  0
VERTEX
  5
36D
100
AcDbEntity
  8
止水栓
  6
CONTINUOUS
 62
     6
100
AcDbVertex
100
AcDb2dVertex
 10
426.23587
 20
2272.416391
 30
0.0
  0
VERTEX
  5
36E
100
AcDbEntity
  8
止水栓
  6
CONTINUOUS
 62
     6
100
AcDbVertex
100
AcDb2dVertex
 10
426.448273
 20
2272.399301
 30
0.0
  0
VERTEX
  5
36F
100
AcDbEntity
  8
止水栓
  6
CONTINUOUS
 62
     6
100
AcDbVertex
100
AcDb2dVertex
 10
426.663117
 20
2272.418833
 30
0.0
  0
VERTEX
  5
370
100
AcDbEntity
  8
止水栓
  6
CONTINUOUS
 62
     6
100
AcDbVertex
100
AcDb2dVertex
 10
426.873077
 20
2272.470102
 30
0.0
  0
VERTEX
  5
371
100
AcDbEntity
  8
止水栓
  6
CONTINUOUS
 62
     6
100
AcDbVertex
100
AcDb2dVertex
 10
427.083038
 20
2272.557993
 30
0.0
  0
VERTEX
  5
372
100
AcDbEntity
  8
止水栓
  6
CONTINUOUS
 62
     6
100
AcDbVertex
100
AcDb2dVertex
 10
427.285675
 20
2272.680063
 30
0.0
  0
VERTEX
  5
373
100
AcDbEntity
  8
止水栓
  6
CONTINUOUS
 62
     6
100
AcDbVertex
100
AcDb2dVertex
 10
427.483429
 20
2272.833872
 30
0.0
  0
SEQEND
  5
374
100
AcDbEntity
  8
止水栓
  6
CONTINUOUS
 62
     6
  0
POLYLINE
  5
375
100
AcDbEntity
  8
止水栓
  6
CONTINUOUS
 62
     6
100
AcDb2dPolyline
 66
     1
 10
0.0
 20
0.0
 30
0.0
 70
   128
  0
VERTEX
  5
376
100
AcDbEntity
  8
止水栓
  6
CONTINUOUS
 62
     6
100
AcDbVertex
100
AcDb2dVertex
 10
428.813995
 20
2275.831919
 30
0.0
  0
VERTEX
  5
377
100
AcDbEntity
  8
止水栓
  6
CONTINUOUS
 62
     6
100
AcDbVertex
100
AcDb2dVertex
 10
428.860382
 20
2276.224985
 30
0.0
  0
VERTEX
  5
378
100
AcDbEntity
  8
止水栓
  6
CONTINUOUS
 62
     6
100
AcDbVertex
100
AcDb2dVertex
 10
428.889679
 20
2276.625376
 30
0.0
  0
VERTEX
  5
379
100
AcDbEntity
  8
止水栓
  6
CONTINUOUS
 62
     6
100
AcDbVertex
100
AcDb2dVertex
 10
428.899445
 20
2277.028208
 30
0.0
  0
SEQEND
  5
37A
100
AcDbEntity
  8
止水栓
  6
CONTINUOUS
 62
     6
  0
POLYLINE
  5
37B
100
AcDbEntity
  8
止水栓
  6
CONTINUOUS
 62
     6
100
AcDb2dPolyline
 66
     1
 10
0.0
 20
0.0
 30
0.0
 70
   128
  0
VERTEX
  5
37C
100
AcDbEntity
  8
止水栓
  6
CONTINUOUS
 62
     6
100
AcDbVertex
100
AcDb2dVertex
 10
427.483429
 20
2272.833872
 30
0.0
  0
VERTEX
  5
37D
100
AcDbEntity
  8
止水栓
  6
CONTINUOUS
 62
     6
100
AcDbVertex
100
AcDb2dVertex
 10
427.673859
 20
2273.019419
 30
0.0
  0
VERTEX
  5
37E
100
AcDbEntity
  8
止水栓
  6
CONTINUOUS
 62
     6
100
AcDbVertex
100
AcDb2dVertex
 10
427.854523
 20
2273.236704
 30
0.0
  0
VERTEX
  5
37F
100
AcDbEntity
  8
止水栓
  6
CONTINUOUS
 62
     6
100
AcDbVertex
100
AcDb2dVertex
 10
428.02298
 20
2273.483286
 30
0.0
  0
VERTEX
  5
380
100
AcDbEntity
  8
止水栓
  6
CONTINUOUS
 62
     6
100
AcDbVertex
100
AcDb2dVertex
 10
428.181671
 20
2273.756723
 30
0.0
  0
VERTEX
  5
381
100
AcDbEntity
  8
止水栓
  6
CONTINUOUS
 62
     6
100
AcDbVertex
100
AcDb2dVertex
 10
428.325714
 20
2274.054575
 30
0.0
  0
VERTEX
  5
382
100
AcDbEntity
  8
止水栓
  6
CONTINUOUS
 62
     6
100
AcDbVertex
100
AcDb2dVertex
 10
428.455109
 20
2274.374399
 30
0.0
  0
VERTEX
  5
383
100
AcDbEntity
  8
止水栓
  6
CONTINUOUS
 62
     6
100
AcDbVertex
100
AcDb2dVertex
 10
428.569855
 20
2274.713754
 30
0.0
  0
VERTEX
  5
384
100
AcDbEntity
  8
止水栓
  6
CONTINUOUS
 62
     6
100
AcDbVertex
100
AcDb2dVertex
 10
428.669952
 20
2275.072641
 30
0.0
  0
VERTEX
  5
385
100
AcDbEntity
  8
止水栓
  6
CONTINUOUS
 62
     6
100
AcDbVertex
100
AcDb2dVertex
 10
428.750519
 20
2275.446176
 30
0.0
  0
VERTEX
  5
386
100
AcDbEntity
  8
止水栓
  6
CONTINUOUS
 62
     6
100
AcDbVertex
100
AcDb2dVertex
 10
428.813995
 20
2275.831919
 30
0.0
  0
SEQEND
  5
387
100
AcDbEntity
  8
止水栓
  6
CONTINUOUS
 62
     6
  0
LINE
  5
388
100
AcDbEntity
  8
止水栓
  6
CONTINUOUS
 62
     6
100
AcDbLine
 10
447.471222
 20
2270.773325
 30
0.0
 11
425.53122
 21
2270.773325
 31
0.0
  0
ARC
  5
389
100
AcDbEntity
  8
止水栓
  6
CONTINUOUS
 62
     6
100
AcDbCircle
 10
434.751495
 20
2276.77186
 30
0.0
 40
10.99987
100
AcDbArc
 50
146.937744
 51
213.054688
  0
ARC
  5
38A
100
AcDbEntity
  8
止水栓
  6
CONTINUOUS
 62
     6
100
AcDbCircle
 10
438.252472
 20
2276.77186
 30
0.0
 40
10.998535
100
AcDbArc
 50
326.94841
 51
33.059082
  0
LINE
  5
38B
100
AcDbEntity
  8
止水栓
  6
CONTINUOUS
 62
     6
100
AcDbLine
 10
446.9775
 20
2260.142945
 30
0.0
 11
446.9775
 21
2270.773325
 31
0.0
  0
LINE
  5
38C
100
AcDbEntity
  8
止水栓
  6
CONTINUOUS
 62
     6
100
AcDbLine
 10
445.8155
 20
2270.773325
 30
0.0
 11
445.8155
 21
2266.998764
 31
0.0
  0
LINE
  5
38D
100
AcDbEntity
  8
止水栓
  6
CONTINUOUS
 62
     6
100
AcDbLine
 10
427.1845
 20
2270.773325
 30
0.0
 11
427.1845
 21
2266.998764
 31
0.0
  0
LINE
  5
38E
100
AcDbEntity
  8
止水栓
  6
CONTINUOUS
 62
     6
100
AcDbLine
 10
426.0225
 20
2260.142945
 30
0.0
 11
426.0225
 21
2270.773325
 31
0.0
  0
LINE
  5
38F
100
AcDbEntity
  8
止水栓
  6
CONTINUOUS
 62
     6
100
AcDbLine
 10
427.1845
 20
2266.998764
 30
0.0
 11
425.970802
 21
2264.896547
 31
0.0
  0
LINE
  5
390
100
AcDbEntity
  8
止水栓
  6
CONTINUOUS
 62
     6
100
AcDbLine
 10
445.8155
 20
2266.998764
 30
0.0
 11
447.029198
 21
2264.896547
 31
0.0
  0
LINE
  5
391
100
AcDbEntity
  8
止水栓
  6
CONTINUOUS
 62
     6
100
AcDbLine
 10
446.9775
 20
2266.998764
 30
0.0
 11
426.0225
 21
2266.998764
 31
0.0
  0
CIRCLE
  5
392
100
AcDbEntity
  8
止水栓
  6
CONTINUOUS
 62
     6
100
AcDbCircle
 10
436.5
 20
2246.998764
 30
0.0
 40
12.0
  0
CIRCLE
  5
393
100
AcDbEntity
  8
止水栓
  6
CONTINUOUS
 62
     6
100
AcDbCircle
 10
436.5
 20
2246.998764
 30
0.0
 40
9.959438
  0
CIRCLE
  5
394
100
AcDbEntity
  8
止水栓
  6
CONTINUOUS
 62
     6
100
AcDbCircle
 10
436.5
 20
2246.998764
 30
0.0
 40
9.273367
  0
ARC
  5
395
100
AcDbEntity
  8
止水栓
  6
CONTINUOUS
 62
     6
100
AcDbCircle
 10
380.5225
 20
2260.142945
 30
0.0
 40
45.5
100
AcDbArc
 50
346.785665
 51
0.0
  0
ARC
  5
396
100
AcDbEntity
  8
止水栓
  6
CONTINUOUS
 62
     6
100
AcDbCircle
 10
492.4775
 20
2260.142945
 30
0.0
 40
45.5
100
AcDbArc
 50
180.0
 51
193.214335
  0
LINE
  5
397
100
AcDbEntity
  8
止水栓
  6
CONTINUOUS
 62
     6
100
AcDbLine
 10
427.280815
 20
2247.99974
 30
0.0
 11
445.719185
 21
2247.99974
 31
0.0
  0
LINE
  5
398
100
AcDbEntity
  8
止水栓
  6
CONTINUOUS
 62
     6
100
AcDbLine
 10
445.71945
 20
2246.000229
 30
0.0
 11
427.28055
 21
2246.000229
 31
0.0
  0
LINE
  5
399
100
AcDbEntity
  8
止水栓
  6
EXLTYPE2
 62
     6
100
AcDbLine
 10
362.162016
 20
2237.570568
 30
0.0
 11
360.967323
 21
2237.533234
 31
0.0
  0
LINE
  5
39A
100
AcDbEntity
  8
止水栓
  6
EXLTYPE2
 62
     6
100
AcDbLine
 10
362.162016
 20
2256.4294
 30
0.0
 11
360.967323
 21
2256.466734
 31
0.0
  0
LINE
  5
39B
100
AcDbEntity
  8
止水栓
  6
EXLTYPE2
 62
     6
100
AcDbLine
 10
362.162016
 20
2236.699984
 30
0.0
 11
352.5
 21
2236.699984
 31
0.0
  0
LINE
  5
39C
100
AcDbEntity
  8
止水栓
  6
EXLTYPE2
 62
     6
100
AcDbLine
 10
362.162016
 20
2257.299984
 30
0.0
 11
352.5
 21
2257.299984
 31
0.0
  0
LINE
  5
39D
100
AcDbEntity
  8
止水栓
  6
EXLTYPE2
 62
     6
100
AcDbLine
 10
363.3231
 20
2262.011056
 30
0.0
 11
370.756886
 21
2262.011056
 31
0.0
  0
LINE
  5
39E
100
AcDbEntity
  8
止水栓
  6
EXLTYPE2
 62
     6
100
AcDbLine
 10
370.756886
 20
2262.011056
 30
0.0
 11
371.91797
 21
2260.0
 31
0.0
  0
LINE
  5
39F
100
AcDbEntity
  8
止水栓
  6
EXLTYPE2
 62
     6
100
AcDbLine
 10
374.687016
 20
2259.0
 30
0.0
 11
373.650021
 21
2259.0
 31
0.0
  0
ARC
  5
3A0
100
AcDbEntity
  8
止水栓
  6
EXLTYPE2
 62
     6
100
AcDbCircle
 10
373.650021
 20
2261.0
 30
0.0
 40
2.0
100
AcDbArc
 50
210.0
 51
270.0
  0
ARC
  5
3A1
100
AcDbEntity
  8
止水栓
  6
EXLTYPE2
 62
     6
100
AcDbCircle
 10
373.650021
 20
2233.0
 30
0.0
 40
2.0
100
AcDbArc
 50
90.0
 51
150.0
  0
LINE
  5
3A2
100
AcDbEntity
  8
止水栓
  6
EXLTYPE2
 62
     6
100
AcDbLine
 10
363.278471
 20
2231.988943
 30
0.0
 11
370.756886
 21
2231.988943
 31
0.0
  0
LINE
  5
3A3
100
AcDbEntity
  8
止水栓
  6
EXLTYPE2
 62
     6
100
AcDbLine
 10
370.756886
 20
2231.988943
 30
0.0
 11
371.91797
 21
2234.0
 31
0.0
  0
LINE
  5
3A4
100
AcDbEntity
  8
止水栓
  6
EXLTYPE2
 62
     6
100
AcDbLine
 10
363.3231
 20
2262.011056
 30
0.0
 11
362.162016
 21
2260.0
 31
0.0
  0
LINE
  5
3A5
100
AcDbEntity
  8
止水栓
  6
EXLTYPE2
 62
     6
100
AcDbLine
 10
363.278471
 20
2232.066243
 30
0.0
 11
362.162016
 21
2234.0
 31
0.0
  0
ARC
  5
3A6
100
AcDbEntity
  8
止水栓
  6
EXLTYPE2
 62
     6
100
AcDbCircle
 10
369.027254
 20
2235.741695
 30
0.0
 40
6.865249
100
AcDbArc
 50
146.863877
 51
203.155204
  0
LINE
  5
3A7
100
AcDbEntity
  8
止水栓
  6
EXLTYPE2
 62
     6
100
AcDbLine
 10
363.278471
 20
2239.494446
 30
0.0
 11
370.756886
 21
2239.494446
 31
0.0
  0
ARC
  5
3A8
100
AcDbEntity
  8
止水栓
  6
EXLTYPE2
 62
     6
100
AcDbCircle
 10
365.008103
 20
2235.741695
 30
0.0
 40
6.865249
100
AcDbArc
 50
326.863877
 51
33.136123
  0
ARC
  5
3A9
100
AcDbEntity
  8
止水栓
  6
EXLTYPE2
 62
     6
100
AcDbCircle
 10
365.008103
 20
2258.21846
 30
0.0
 40
6.865249
100
AcDbArc
 50
326.863877
 51
33.136123
  0
ARC
  5
3AA
100
AcDbEntity
  8
止水栓
  6
EXLTYPE2
 62
     6
100
AcDbCircle
 10
369.027254
 20
2258.21846
 30
0.0
 40
6.865249
100
AcDbArc
 50
156.844796
 51
213.136123
  0
ARC
  5
3AB
100
AcDbEntity
  8
止水栓
  6
EXLTYPE2
 62
     6
100
AcDbCircle
 10
387.948906
 20
2247.0
 30
0.0
 40
25.78689
100
AcDbArc
 50
163.141624
 51
196.921477
  0
LINE
  5
3AC
100
AcDbEntity
  8
止水栓
  6
EXLTYPE2
 62
     6
100
AcDbLine
 10
363.278471
 20
2254.465708
 30
0.0
 11
370.756886
 21
2254.465708
 31
0.0
  0
ARC
  5
3AD
100
AcDbEntity
  8
止水栓
  6
EXLTYPE2
 62
     6
100
AcDbCircle
 10
346.086451
 20
2247.0
 30
0.0
 40
25.78689
100
AcDbArc
 50
343.078523
 51
16.828962
  0
LINE
  5
3AE
100
AcDbEntity
  8
止水栓
  6
EXLTYPE2
 62
     6
100
AcDbLine
 10
362.162016
 20
2234.0
 30
0.0
 11
362.162016
 21
2260.0
 31
0.0
  0
LINE
  5
3AF
100
AcDbEntity
  8
止水栓
  6
EXLTYPE2
 62
     6
100
AcDbLine
 10
411.161252
 20
2235.0
 30
0.0
 11
373.650021
 21
2235.0
 31
0.0
  0
LINE
  5
3B0
100
AcDbEntity
  8
止水栓
  6
EXLTYPE2
 62
     6
100
AcDbLine
 10
411.161252
 20
2259.0
 30
0.0
 11
374.687016
 21
2259.0
 31
0.0
  0
LINE
  5
3B1
100
AcDbEntity
  8
止水栓
  6
EXLTYPE2
 62
     6
100
AcDbLine
 10
411.161252
 20
2259.0
 30
0.0
 11
411.161252
 21
2235.0
 31
0.0
  0
LINE
  5
3B2
100
AcDbEntity
  8
止水栓
  6
EXLTYPE2
 62
     6
100
AcDbLine
 10
411.861252
 20
2238.0
 30
0.0
 11
411.161252
 21
2238.0
 31
0.0
  0
LINE
  5
3B3
100
AcDbEntity
  8
止水栓
  6
EXLTYPE2
 62
     6
100
AcDbLine
 10
411.861252
 20
2256.0
 30
0.0
 11
411.161252
 21
2256.0
 31
0.0
  0
LINE
  5
3B4
100
AcDbEntity
  8
止水栓
  6
EXLTYPE2
 62
     6
100
AcDbLine
 10
411.861252
 20
2246.1
 30
0.0
 11
411.161252
 21
2246.1
 31
0.0
  0
LINE
  5
3B5
100
AcDbEntity
  8
止水栓
  6
EXLTYPE2
 62
     6
100
AcDbLine
 10
411.861252
 20
2247.9
 30
0.0
 11
411.161252
 21
2247.9
 31
0.0
  0
LINE
  5
3B6
100
AcDbEntity
  8
止水栓
  6
EXLTYPE2
 62
     6
100
AcDbLine
 10
411.861252
 20
2247.9
 30
0.0
 11
411.861252
 21
2256.0
 31
0.0
  0
LINE
  5
3B7
100
AcDbEntity
  8
止水栓
  6
EXLTYPE2
 62
     6
100
AcDbLine
 10
411.861252
 20
2246.1
 30
0.0
 11
411.861252
 21
2238.0
 31
0.0
  0
LINE
  5
3B8
100
AcDbEntity
  8
止水栓
  6
EXLTYPE2
 62
     6
100
AcDbLine
 10
329.84
 20
2236.730609
 30
0.0
 11
329.84
 21
2246.998764
 31
0.0
  0
LINE
  5
3B9
100
AcDbEntity
  8
止水栓
  6
EXLTYPE2
 62
     6
100
AcDbLine
 10
360.967323
 20
2256.466734
 30
0.0
 11
359.524091
 21
2257.299984
 31
0.0
  0
LINE
  5
3BA
100
AcDbEntity
  8
止水栓
  6
EXLTYPE2
 62
     6
100
AcDbLine
 10
360.967323
 20
2236.699984
 30
0.0
 11
360.967323
 21
2257.299984
 31
0.0
  0
LINE
  5
3BB
100
AcDbEntity
  8
止水栓
  6
EXLTYPE2
 62
     6
100
AcDbLine
 10
360.967323
 20
2237.533234
 30
0.0
 11
359.524091
 21
2236.699984
 31
0.0
  0
LINE
  5
3BC
100
AcDbEntity
  8
止水栓
  6
EXLTYPE2
 62
     6
100
AcDbLine
 10
336.5
 20
2219.499984
 30
0.0
 11
338.5
 21
2219.499984
 31
0.0
  0
ARC
  5
3BD
100
AcDbEntity
  8
止水栓
  6
EXLTYPE2
 62
     6
100
AcDbCircle
 10
338.5
 20
2233.499984
 30
0.0
 40
14.0
100
AcDbArc
 50
270.0
 51
0.0
  0
LINE
  5
3BE
100
AcDbEntity
  8
止水栓
  6
EXLTYPE2
 62
     6
100
AcDbLine
 10
336.5
 20
2274.499984
 30
0.0
 11
338.5
 21
2274.499984
 31
0.0
  0
ARC
  5
3BF
100
AcDbEntity
  8
止水栓
  6
EXLTYPE2
 62
     6
100
AcDbCircle
 10
338.5
 20
2260.499984
 30
0.0
 40
14.0
100
AcDbArc
 50
0.0
 51
90.0
  0
LINE
  5
3C0
100
AcDbEntity
  8
止水栓
  6
EXLTYPE2
 62
     6
100
AcDbLine
 10
352.5
 20
2260.499984
 30
0.0
 11
352.5
 21
2233.499984
 31
0.0
  0
LINE
  5
3C1
100
AcDbEntity
  8
止水栓
  6
EXLTYPE2
 62
     6
100
AcDbLine
 10
330.82
 20
2257.299984
 30
0.0
 11
329.84
 21
2257.269359
 31
0.0
  0
LINE
  5
3C2
100
AcDbEntity
  8
止水栓
  6
EXLTYPE2
 62
     6
100
AcDbLine
 10
336.5
 20
2257.299984
 30
0.0
 11
330.82
 21
2257.299984
 31
0.0
  0
LINE
  5
3C3
100
AcDbEntity
  8
止水栓
  6
EXLTYPE2
 62
     6
100
AcDbLine
 10
329.839
 20
2257.268359
 30
0.0
 11
328.34
 21
2255.769359
 31
0.0
  0
LINE
  5
3C4
100
AcDbEntity
  8
止水栓
  6
EXLTYPE2
 62
     6
100
AcDbLine
 10
328.660516
 20
2256.0705
 30
0.0
 11
336.5
 21
2256.315484
 31
0.0
  0
LINE
  5
3C5
100
AcDbEntity
  8
止水栓
  6
EXLTYPE2
 62
     6
100
AcDbLine
 10
328.34
 20
2238.230609
 30
0.0
 11
328.34
 21
2255.769359
 31
0.0
  0
LINE
  5
3C6
100
AcDbEntity
  8
止水栓
  6
EXLTYPE2
 62
     6
100
AcDbLine
 10
329.839
 20
2236.731609
 30
0.0
 11
328.34
 21
2238.230609
 31
0.0
  0
LINE
  5
3C7
100
AcDbEntity
  8
止水栓
  6
EXLTYPE2
 62
     6
100
AcDbLine
 10
330.82
 20
2236.699984
 30
0.0
 11
329.84
 21
2236.730609
 31
0.0
  0
LINE
  5
3C8
100
AcDbEntity
  8
止水栓
  6
EXLTYPE2
 62
     6
100
AcDbLine
 10
328.660516
 20
2237.929468
 30
0.0
 11
336.5
 21
2237.684484
 31
0.0
  0
LINE
  5
3C9
100
AcDbEntity
  8
止水栓
  6
EXLTYPE2
 62
     6
100
AcDbLine
 10
336.5
 20
2236.699984
 30
0.0
 11
330.82
 21
2236.699984
 31
0.0
  0
ARC
  5
3CA
100
AcDbEntity
  8
止水栓
  6
CONTINUOUS
 62
     6
100
AcDbCircle
 10
436.5
 20
2246.998764
 30
0.0
 40
27.5
100
AcDbArc
 50
202.867054
 51
64.996095
  0
ARC
  5
3CB
100
AcDbEntity
  8
止水栓
  6
CONTINUOUS
 62
     6
100
AcDbCircle
 10
436.5
 20
2246.998764
 30
0.0
 40
27.5
100
AcDbArc
 50
114.999267
 51
157.132946
  0
ARC
  5
3CC
100
AcDbEntity
  8
止水栓
  6
CONTINUOUS
 62
     6
100
AcDbCircle
 10
446.141113
 20
590.701014
 30
0.0
 40
25.298605
100
AcDbArc
 50
66.794876
 51
90.0
  0
LINE
  5
3CD
100
AcDbEntity
  8
止水栓
  6
CONTINUOUS
 62
     6
100
AcDbLine
 10
426.856445
 20
616.001307
 30
0.0
 11
446.141113
 21
616.001307
 31
0.0
  0
LINE
  5
3CE
100
AcDbEntity
  8
止水栓
  6
CONTINUOUS
 62
     6
100
AcDbLine
 10
446.769907
 20
622.648295
 30
0.0
 11
446.769907
 21
615.985095
 31
0.0
  0
LINE
  5
3CF
100
AcDbEntity
  8
止水栓
  6
CONTINUOUS
 62
     6
100
AcDbLine
 10
426.269907
 20
622.648295
 30
0.0
 11
426.269907
 21
615.985095
 31
0.0
  0
LINE
  5
3D0
100
AcDbEntity
  8
止水栓
  6
CONTINUOUS
 62
     6
100
AcDbLine
 10
446.769907
 20
622.648295
 30
0.0
 11
445.715739
 21
624.455618
 31
0.0
  0
LINE
  5
3D1
100
AcDbEntity
  8
止水栓
  6
CONTINUOUS
 62
     6
100
AcDbLine
 10
445.679867
 20
625.66234
 30
0.0
 11
445.715739
 21
624.455618
 31
0.0
  0
LINE
  5
3D2
100
AcDbEntity
  8
止水栓
  6
CONTINUOUS
 62
     6
100
AcDbLine
 10
421.488928
 20
626.823424
 30
0.0
 11
421.488928
 21
634.25721
 31
0.0
  0
LINE
  5
3D3
100
AcDbEntity
  8
止水栓
  6
CONTINUOUS
 62
     6
100
AcDbLine
 10
421.488928
 20
634.25721
 30
0.0
 11
423.499985
 21
635.418294
 31
0.0
  0
LINE
  5
3D4
100
AcDbEntity
  8
止水栓
  6
CONTINUOUS
 62
     6
100
AcDbLine
 10
424.499985
 20
638.18734
 30
0.0
 11
424.499985
 21
637.150345
 31
0.0
  0
ARC
  5
3D5
100
AcDbEntity
  8
止水栓
  6
CONTINUOUS
 62
     6
100
AcDbCircle
 10
422.499985
 20
637.150345
 30
0.0
 40
2.0
100
AcDbArc
 50
300.0
 51
0.0
  0
ARC
  5
3D6
100
AcDbEntity
  8
止水栓
  6
CONTINUOUS
 62
     6
100
AcDbCircle
 10
450.499985
 20
637.150345
 30
0.0
 40
2.0
100
AcDbArc
 50
180.0
 51
240.0
  0
LINE
  5
3D7
100
AcDbEntity
  8
止水栓
  6
CONTINUOUS
 62
     6
100
AcDbLine
 10
451.511041
 20
626.778795
 30
0.0
 11
451.511041
 21
634.25721
 31
0.0
  0
LINE
  5
3D8
100
AcDbEntity
  8
止水栓
  6
CONTINUOUS
 62
     6
100
AcDbLine
 10
451.511041
 20
634.25721
 30
0.0
 11
449.499985
 21
635.418294
 31
0.0
  0
LINE
  5
3D9
100
AcDbEntity
  8
止水栓
  6
CONTINUOUS
 62
     6
100
AcDbLine
 10
421.488928
 20
626.823424
 30
0.0
 11
423.499985
 21
625.66234
 31
0.0
  0
LINE
  5
3DA
100
AcDbEntity
  8
止水栓
  6
CONTINUOUS
 62
     6
100
AcDbLine
 10
451.433741
 20
626.778795
 30
0.0
 11
449.499985
 21
625.66234
 31
0.0
  0
LINE
  5
3DB
100
AcDbEntity
  8
止水栓
  6
CONTINUOUS
 62
     6
100
AcDbLine
 10
446.680309
 20
625.66234
 30
0.0
 11
446.769907
 21
622.648295
 31
0.0
  0
ARC
  5
3DC
100
AcDbEntity
  8
止水栓
  6
CONTINUOUS
 62
     6
100
AcDbCircle
 10
447.758289
 20
632.527578
 30
0.0
 40
6.865249
100
AcDbArc
 50
236.863877
 51
293.155204
  0
LINE
  5
3DD
100
AcDbEntity
  8
止水栓
  6
CONTINUOUS
 62
     6
100
AcDbLine
 10
444.005538
 20
626.778795
 30
0.0
 11
444.005538
 21
634.25721
 31
0.0
  0
ARC
  5
3DE
100
AcDbEntity
  8
止水栓
  6
CONTINUOUS
 62
     6
100
AcDbCircle
 10
447.758289
 20
628.508427
 30
0.0
 40
6.865249
100
AcDbArc
 50
56.863877
 51
123.136123
  0
ARC
  5
3DF
100
AcDbEntity
  8
止水栓
  6
CONTINUOUS
 62
     6
100
AcDbCircle
 10
425.281525
 20
628.508427
 30
0.0
 40
6.865249
100
AcDbArc
 50
56.863877
 51
123.136123
  0
ARC
  5
3E0
100
AcDbEntity
  8
止水栓
  6
CONTINUOUS
 62
     6
100
AcDbCircle
 10
425.281525
 20
632.527578
 30
0.0
 40
6.865249
100
AcDbArc
 50
246.844796
 51
303.136123
  0
LINE
  5
3E1
100
AcDbEntity
  8
止水栓
  6
CONTINUOUS
 62
     6
100
AcDbLine
 10
426.269907
 20
622.648295
 30
0.0
 11
427.324075
 21
624.455618
 31
0.0
  0
LINE
  5
3E2
100
AcDbEntity
  8
止水栓
  6
CONTINUOUS
 62
     6
100
AcDbLine
 10
427.359947
 20
625.66234
 30
0.0
 11
427.324075
 21
624.455618
 31
0.0
  0
LINE
  5
3E3
100
AcDbEntity
  8
止水栓
  6
CONTINUOUS
 62
     6
100
AcDbLine
 10
426.359506
 20
625.66234
 30
0.0
 11
426.269907
 21
622.648295
 31
0.0
  0
ARC
  5
3E4
100
AcDbEntity
  8
止水栓
  6
CONTINUOUS
 62
     6
100
AcDbCircle
 10
436.499985
 20
651.44923
 30
0.0
 40
25.78689
100
AcDbArc
 50
253.141624
 51
286.921477
  0
LINE
  5
3E5
100
AcDbEntity
  8
止水栓
  6
CONTINUOUS
 62
     6
100
AcDbLine
 10
429.034276
 20
626.778795
 30
0.0
 11
429.034276
 21
634.25721
 31
0.0
  0
ARC
  5
3E6
100
AcDbEntity
  8
止水栓
  6
CONTINUOUS
 62
     6
100
AcDbCircle
 10
436.499985
 20
609.586775
 30
0.0
 40
25.78689
100
AcDbArc
 50
73.078523
 51
106.828962
  0
LINE
  5
3E7
100
AcDbEntity
  8
止水栓
  6
CONTINUOUS
 62
     6
100
AcDbLine
 10
449.499985
 20
625.66234
 30
0.0
 11
423.499985
 21
625.66234
 31
0.0
  0
LINE
  5
3E8
100
AcDbEntity
  8
止水栓
  6
CONTINUOUS
 62
     6
100
AcDbLine
 10
426.323633
 20
624.455618
 30
0.0
 11
446.716181
 21
624.455618
 31
0.0
  0
LINE
  5
3E9
100
AcDbEntity
  8
止水栓
  6
CONTINUOUS
 62
     6
100
AcDbLine
 10
448.499985
 20
674.661576
 30
0.0
 11
448.499985
 21
637.150345
 31
0.0
  0
LINE
  5
3EA
100
AcDbEntity
  8
止水栓
  6
CONTINUOUS
 62
     6
100
AcDbLine
 10
424.499985
 20
674.661576
 30
0.0
 11
424.499985
 21
638.18734
 31
0.0
  0
LINE
  5
3EB
100
AcDbEntity
  8
止水栓
  6
CONTINUOUS
 62
     6
100
AcDbLine
 10
424.499985
 20
674.661576
 30
0.0
 11
448.499985
 21
674.661576
 31
0.0
  0
LINE
  5
3EC
100
AcDbEntity
  8
止水栓
  6
CONTINUOUS
 62
     6
100
AcDbLine
 10
445.499985
 20
675.361576
 30
0.0
 11
445.499985
 21
674.661576
 31
0.0
  0
LINE
  5
3ED
100
AcDbEntity
  8
止水栓
  6
CONTINUOUS
 62
     6
100
AcDbLine
 10
427.499985
 20
675.361576
 30
0.0
 11
427.499985
 21
674.661576
 31
0.0
  0
LINE
  5
3EE
100
AcDbEntity
  8
止水栓
  6
CONTINUOUS
 62
     6
100
AcDbLine
 10
437.399985
 20
675.361576
 30
0.0
 11
437.399985
 21
674.661576
 31
0.0
  0
LINE
  5
3EF
100
AcDbEntity
  8
止水栓
  6
CONTINUOUS
 62
     6
100
AcDbLine
 10
435.599985
 20
675.361576
 30
0.0
 11
435.599985
 21
674.661576
 31
0.0
  0
LINE
  5
3F0
100
AcDbEntity
  8
止水栓
  6
CONTINUOUS
 62
     6
100
AcDbLine
 10
435.599985
 20
675.361576
 30
0.0
 11
427.499985
 21
675.361576
 31
0.0
  0
LINE
  5
3F1
100
AcDbEntity
  8
止水栓
  6
CONTINUOUS
 62
     6
100
AcDbLine
 10
437.399985
 20
675.361576
 30
0.0
 11
445.499985
 21
675.361576
 31
0.0
  0
ARC
  5
3F2
100
AcDbEntity
  8
止水栓
  6
CONTINUOUS
 62
     6
100
AcDbCircle
 10
426.856445
 20
590.701014
 30
0.0
 40
25.30016
100
AcDbArc
 50
90.0
 51
113.202393
  0
LINE
  5
3F3
100
AcDbEntity
  8
止水栓
  6
CONTINUOUS
 62
     6
100
AcDbLine
 10
426.209473
 20
593.237635
 30
0.0
 11
427.750629
 21
591.699549
 31
0.0
  0
LINE
  5
3F4
100
AcDbEntity
  8
止水栓
  6
CONTINUOUS
 62
     6
100
AcDbLine
 10
464.0
 20
601.999842
 30
0.0
 11
464.0
 21
600.000331
 31
0.0
  0
ARC
  5
3F5
100
AcDbEntity
  8
止水栓
  6
CONTINUOUS
 62
     6
100
AcDbCircle
 10
450.999512
 20
601.999842
 30
0.0
 40
13.000488
100
AcDbArc
 50
0.000031
 51
66.852539
  0
LINE
  5
3F6
100
AcDbEntity
  8
止水栓
  6
CONTINUOUS
 62
     6
100
AcDbLine
 10
427.75
 20
591.699549
 30
0.0
 11
445.25
 21
591.699549
 31
0.0
  0
LINE
  5
3F7
100
AcDbEntity
  8
止水栓
  6
CONTINUOUS
 62
     6
100
AcDbLine
 10
446.788086
 20
593.240077
 30
0.0
 11
426.209473
 21
593.237635
 31
0.0
  0
LINE
  5
3F8
100
AcDbEntity
  8
止水栓
  6
CONTINUOUS
 62
     6
100
AcDbLine
 10
427.183594
 20
600.000331
 30
0.0
 11
427.435059
 21
592.014491
 31
0.0
  0
LINE
  5
3F9
100
AcDbEntity
  8
止水栓
  6
CONTINUOUS
 62
     6
100
AcDbLine
 10
425.999512
 20
600.000331
 30
0.0
 11
426.209473
 21
593.237635
 31
0.0
  0
LINE
  5
3FA
100
AcDbEntity
  8
止水栓
  6
CONTINUOUS
 62
     6
100
AcDbLine
 10
446.998047
 20
600.000331
 30
0.0
 11
446.788086
 21
593.240077
 31
0.0
  0
LINE
  5
3FB
100
AcDbEntity
  8
止水栓
  6
CONTINUOUS
 62
     6
100
AcDbLine
 10
445.813965
 20
600.000331
 30
0.0
 11
445.564941
 21
592.014491
 31
0.0
  0
LINE
  5
3FC
100
AcDbEntity
  8
止水栓
  6
CONTINUOUS
 62
     6
100
AcDbLine
 10
445.25
 20
591.699549
 30
0.0
 11
446.788086
 21
593.240077
 31
0.0
  0
ARC
  5
3FD
100
AcDbEntity
  8
止水栓
  6
CONTINUOUS
 62
     6
100
AcDbCircle
 10
421.998047
 20
601.999842
 30
0.0
 40
12.999535
100
AcDbArc
 50
113.146301
 51
188.848084
  0
LINE
  5
3FE
100
AcDbEntity
  8
止水栓
  6
EXLTYPE2
 62
     6
100
AcDbLine
 10
359.16
 20
889.770246
 30
0.0
 11
352.4968
 21
889.770246
 31
0.0
  0
LINE
  5
3FF
100
AcDbEntity
  8
止水栓
  6
EXLTYPE2
 62
     6
100
AcDbLine
 10
359.16
 20
910.270246
 30
0.0
 11
352.4968
 21
910.270246
 31
0.0
  0
LINE
  5
400
100
AcDbEntity
  8
止水栓
  6
EXLTYPE3
 62
     6
100
AcDbLine
 10
321.8
 20
900.000324
 30
0.0
 11
411.999999
 21
900.000324
 31
0.0
  0
ARC
  5
401
100
AcDbEntity
  8
止水栓
  6
EXLTYPE2
 62
     6
100
AcDbCircle
 10
327.5
 20
889.800324
 30
0.0
 40
25.0
100
AcDbArc
 50
333.322579
 51
359.083228
  0
LINE
  5
402
100
AcDbEntity
  8
止水栓
  6
EXLTYPE2
 62
     6
100
AcDbLine
 10
352.4968
 20
889.400324
 30
0.0
 11
352.4968
 21
910.600324
 31
0.0
  0
POLYLINE
  5
403
100
AcDbEntity
  8
止水栓
  6
EXLTYPE2
 62
     6
100
AcDb2dPolyline
 66
     1
 10
0.0
 20
0.0
 30
0.0
 70
   128
  0
VERTEX
  5
404
100
AcDbEntity
  8
止水栓
  6
EXLTYPE2
 62
     6
100
AcDbVertex
100
AcDb2dVertex
 10
339.003105
 20
872.500324
 30
0.0
  0
VERTEX
  5
405
100
AcDbEntity
  8
止水栓
  6
EXLTYPE2
 62
     6
100
AcDbVertex
100
AcDb2dVertex
 10
336.5
 20
872.500324
 30
0.0
  0
SEQEND
  5
406
100
AcDbEntity
  8
止水栓
  6
EXLTYPE2
 62
     6
  0
ARC
  5
407
100
AcDbEntity
  8
止水栓
  6
EXLTYPE2
 62
     6
100
AcDbCircle
 10
339.003105
 20
885.200324
 30
0.0
 40
12.7
100
AcDbArc
 50
270.0
 51
328.561141
  0
ARC
  5
408
100
AcDbEntity
  8
止水栓
  6
EXLTYPE2
 62
     6
100
AcDbCircle
 10
327.5
 20
910.200324
 30
0.0
 40
25.0
100
AcDbArc
 50
0.916772
 51
26.677421
  0
LINE
  5
409
100
AcDbEntity
  8
止水栓
  6
EXLTYPE2
 62
     6
100
AcDbLine
 10
339.003105
 20
927.500324
 30
0.0
 11
336.5
 21
927.500324
 31
0.0
  0
ARC
  5
40A
100
AcDbEntity
  8
止水栓
  6
EXLTYPE2
 62
     6
100
AcDbCircle
 10
339.003105
 20
914.800324
 30
0.0
 40
12.7
100
AcDbArc
 50
31.438859
 51
90.0
  0
LINE
  5
40B
100
AcDbEntity
  8
止水栓
  6
EXLTYPE2
 62
     6
100
AcDbLine
 10
327.386194
 20
890.120246
 30
0.0
 11
327.386194
 21
909.920246
 31
0.0
  0
LINE
  5
40C
100
AcDbEntity
  8
止水栓
  6
EXLTYPE2
 62
     6
100
AcDbLine
 10
326.66
 20
908.670246
 30
0.0
 11
327.386194
 21
909.920246
 31
0.0
  0
LINE
  5
40D
100
AcDbEntity
  8
止水栓
  6
EXLTYPE2
 62
     6
100
AcDbLine
 10
326.66
 20
891.370246
 30
0.0
 11
326.66
 21
908.670246
 31
0.0
  0
LINE
  5
40E
100
AcDbEntity
  8
止水栓
  6
EXLTYPE2
 62
     6
100
AcDbLine
 10
326.66
 20
891.370246
 30
0.0
 11
327.386194
 21
890.120246
 31
0.0
  0
LINE
  5
40F
100
AcDbEntity
  8
止水栓
  6
EXLTYPE2
 62
     6
100
AcDbLine
 10
327.386194
 20
890.120246
 30
0.0
 11
336.5
 21
889.84932
 31
0.0
  0
LINE
  5
410
100
AcDbEntity
  8
止水栓
  6
EXLTYPE2
 62
     6
100
AcDbLine
 10
327.386194
 20
909.920246
 30
0.0
 11
336.5
 21
910.191172
 31
0.0
  0
LINE
  5
411
100
AcDbEntity
  8
止水栓
  6
EXLTYPE2
 62
     6
100
AcDbLine
 10
326.794768
 20
891.138269
 30
0.0
 11
336.5
 21
890.849762
 31
0.0
  0
LINE
  5
412
100
AcDbEntity
  8
止水栓
  6
EXLTYPE2
 62
     6
100
AcDbLine
 10
326.794768
 20
908.902223
 30
0.0
 11
336.5
 21
909.190731
 31
0.0
  0
LINE
  5
413
100
AcDbEntity
  8
止水栓
  6
EXLTYPE10
 62
     6
100
AcDbLine
 10
390.174045
 20
879.687554
 30
0.0
 11
390.174045
 21
801.483554
 31
0.0
  0
LINE
  5
414
100
AcDbEntity
  8
止水栓
  6
EXLTYPE2
 62
     6
100
AcDbLine
 10
379.204051
 20
875.001497
 30
0.0
 11
401.144121
 21
875.001497
 31
0.0
  0
LINE
  5
415
100
AcDbEntity
  8
止水栓
  6
EXLTYPE2
 62
     6
100
AcDbLine
 10
383.42329
 20
837.001985
 30
0.0
 11
383.42329
 21
829.001985
 31
0.0
  0
LINE
  5
416
100
AcDbEntity
  8
止水栓
  6
EXLTYPE2
 62
     6
100
AcDbLine
 10
396.92329
 20
837.001985
 30
0.0
 11
396.92329
 21
829.001985
 31
0.0
  0
LINE
  5
417
100
AcDbEntity
  8
止水栓
  6
EXLTYPE2
 62
     6
100
AcDbLine
 10
383.42329
 20
829.001985
 30
0.0
 11
396.92329
 21
829.001985
 31
0.0
  0
LINE
  5
418
100
AcDbEntity
  8
止水栓
  6
EXLTYPE2
 62
     6
100
AcDbLine
 10
379.67329
 20
863.001985
 30
0.0
 11
379.67329
 21
858.001985
 31
0.0
  0
LINE
  5
419
100
AcDbEntity
  8
止水栓
  6
EXLTYPE2
 62
     6
100
AcDbLine
 10
400.67329
 20
863.001985
 30
0.0
 11
400.67329
 21
858.001985
 31
0.0
  0
LINE
  5
41A
100
AcDbEntity
  8
止水栓
  6
EXLTYPE2
 62
     6
100
AcDbLine
 10
385.42329
 20
845.001985
 30
0.0
 11
394.92329
 21
845.001985
 31
0.0
  0
LINE
  5
41B
100
AcDbEntity
  8
止水栓
  6
EXLTYPE2
 62
     6
100
AcDbLine
 10
385.42329
 20
840.001985
 30
0.0
 11
394.92329
 21
840.001985
 31
0.0
  0
LINE
  5
41C
100
AcDbEntity
  8
止水栓
  6
EXLTYPE2
 62
     6
100
AcDbLine
 10
385.42329
 20
848.001985
 30
0.0
 11
394.92329
 21
848.001985
 31
0.0
  0
LINE
  5
41D
100
AcDbEntity
  8
止水栓
  6
EXLTYPE2
 62
     6
100
AcDbLine
 10
383.42329
 20
837.001985
 30
0.0
 11
396.92329
 21
837.001985
 31
0.0
  0
ARC
  5
41E
100
AcDbEntity
  8
止水栓
  6
EXLTYPE2
 62
     6
100
AcDbCircle
 10
385.42329
 20
842.501985
 30
0.0
 40
2.5
100
AcDbArc
 50
180.0
 51
270.0
  0
ARC
  5
41F
100
AcDbEntity
  8
止水栓
  6
EXLTYPE2
 62
     6
100
AcDbCircle
 10
385.42329
 20
842.501985
 30
0.0
 40
2.5
100
AcDbArc
 50
90.0
 51
180.0
  0
ARC
  5
420
100
AcDbEntity
  8
止水栓
  6
EXLTYPE2
 62
     6
100
AcDbCircle
 10
385.42329
 20
850.501985
 30
0.0
 40
2.5
100
AcDbArc
 50
180.0
 51
270.0
  0
LINE
  5
421
100
AcDbEntity
  8
止水栓
  6
EXLTYPE2
 62
     6
100
AcDbLine
 10
384.42329
 20
848.001985
 30
0.0
 11
384.42329
 21
845.001985
 31
0.0
  0
LINE
  5
422
100
AcDbEntity
  8
止水栓
  6
EXLTYPE2
 62
     6
100
AcDbLine
 10
384.42329
 20
840.001985
 30
0.0
 11
384.42329
 21
837.001985
 31
0.0
  0
LINE
  5
423
100
AcDbEntity
  8
止水栓
  6
EXLTYPE2
 62
     6
100
AcDbLine
 10
395.92329
 20
848.001985
 30
0.0
 11
395.92329
 21
845.001985
 31
0.0
  0
ARC
  5
424
100
AcDbEntity
  8
止水栓
  6
EXLTYPE2
 62
     6
100
AcDbCircle
 10
394.92329
 20
842.501985
 30
0.0
 40
2.5
100
AcDbArc
 50
270.0
 51
0.0
  0
ARC
  5
425
100
AcDbEntity
  8
止水栓
  6
EXLTYPE2
 62
     6
100
AcDbCircle
 10
394.92329
 20
842.501985
 30
0.0
 40
2.5
100
AcDbArc
 50
0.0
 51
90.0
  0
LINE
  5
426
100
AcDbEntity
  8
止水栓
  6
EXLTYPE2
 62
     6
100
AcDbLine
 10
395.92329
 20
840.001985
 30
0.0
 11
395.92329
 21
837.001985
 31
0.0
  0
ARC
  5
427
100
AcDbEntity
  8
止水栓
  6
EXLTYPE2
 62
     6
100
AcDbCircle
 10
394.92329
 20
850.501985
 30
0.0
 40
2.5
100
AcDbArc
 50
270.0
 51
0.0
  0
LINE
  5
428
100
AcDbEntity
  8
止水栓
  6
EXLTYPE2
 62
     6
100
AcDbLine
 10
385.42329
 20
853.001985
 30
0.0
 11
394.92329
 21
853.001985
 31
0.0
  0
LINE
  5
429
100
AcDbEntity
  8
止水栓
  6
EXLTYPE2
 62
     6
100
AcDbLine
 10
384.42329
 20
856.001985
 30
0.0
 11
395.92329
 21
856.001985
 31
0.0
  0
LINE
  5
42A
100
AcDbEntity
  8
止水栓
  6
EXLTYPE2
 62
     6
100
AcDbLine
 10
384.42329
 20
856.001985
 30
0.0
 11
384.42329
 21
853.001985
 31
0.0
  0
LINE
  5
42B
100
AcDbEntity
  8
止水栓
  6
EXLTYPE2
 62
     6
100
AcDbLine
 10
386.17329
 20
858.001985
 30
0.0
 11
386.17329
 21
856.001985
 31
0.0
  0
ARC
  5
42C
100
AcDbEntity
  8
止水栓
  6
EXLTYPE2
 62
     6
100
AcDbCircle
 10
385.42329
 20
850.501985
 30
0.0
 40
2.5
100
AcDbArc
 50
90.0
 51
180.0
  0
LINE
  5
42D
100
AcDbEntity
  8
止水栓
  6
EXLTYPE2
 62
     6
100
AcDbLine
 10
395.92329
 20
856.001985
 30
0.0
 11
395.92329
 21
853.001985
 31
0.0
  0
LINE
  5
42E
100
AcDbEntity
  8
止水栓
  6
EXLTYPE2
 62
     6
100
AcDbLine
 10
394.17329
 20
858.001985
 30
0.0
 11
394.17329
 21
856.001985
 31
0.0
  0
ARC
  5
42F
100
AcDbEntity
  8
止水栓
  6
EXLTYPE2
 62
     6
100
AcDbCircle
 10
394.92329
 20
850.501985
 30
0.0
 40
2.5
100
AcDbArc
 50
0.0
 51
90.0
  0
LINE
  5
430
100
AcDbEntity
  8
止水栓
  6
EXLTYPE2
 62
     6
100
AcDbLine
 10
379.67329
 20
858.001985
 30
0.0
 11
400.67329
 21
858.001985
 31
0.0
  0
POLYLINE
  5
431
100
AcDbEntity
  8
止水栓
  6
EXLTYPE2
 62
     6
100
AcDb2dPolyline
 66
     1
 10
0.0
 20
0.0
 30
0.0
 70
   128
  0
VERTEX
  5
432
100
AcDbEntity
  8
止水栓
  6
EXLTYPE2
 62
     6
100
AcDbVertex
100
AcDb2dVertex
 10
384.316356
 20
868.778353
 30
0.0
  0
VERTEX
  5
433
100
AcDbEntity
  8
止水栓
  6
EXLTYPE2
 62
     6
100
AcDbVertex
100
AcDb2dVertex
 10
384.338329
 20
868.294954
 30
0.0
  0
VERTEX
  5
434
100
AcDbEntity
  8
止水栓
  6
EXLTYPE2
 62
     6
100
AcDbVertex
100
AcDb2dVertex
 10
384.404247
 20
867.813997
 30
0.0
  0
VERTEX
  5
435
100
AcDbEntity
  8
止水栓
  6
EXLTYPE2
 62
     6
100
AcDbVertex
100
AcDb2dVertex
 10
384.51411
 20
867.340364
 30
0.0
  0
VERTEX
  5
436
100
AcDbEntity
  8
止水栓
  6
EXLTYPE2
 62
     6
100
AcDbVertex
100
AcDb2dVertex
 10
384.667919
 20
866.876497
 30
0.0
  0
VERTEX
  5
437
100
AcDbEntity
  8
止水栓
  6
EXLTYPE2
 62
     6
100
AcDbVertex
100
AcDb2dVertex
 10
384.86079
 20
866.42972
 30
0.0
  0
VERTEX
  5
438
100
AcDbEntity
  8
止水栓
  6
EXLTYPE2
 62
     6
100
AcDbVertex
100
AcDb2dVertex
 10
385.097606
 20
865.997591
 30
0.0
  0
VERTEX
  5
439
100
AcDbEntity
  8
止水栓
  6
EXLTYPE2
 62
     6
100
AcDbVertex
100
AcDb2dVertex
 10
385.371044
 20
865.589876
 30
0.0
  0
VERTEX
  5
43A
100
AcDbEntity
  8
止水栓
  6
EXLTYPE2
 62
     6
100
AcDbVertex
100
AcDb2dVertex
 10
385.681102
 20
865.204134
 30
0.0
  0
VERTEX
  5
43B
100
AcDbEntity
  8
止水栓
  6
EXLTYPE2
 62
     6
100
AcDbVertex
100
AcDb2dVertex
 10
386.022899
 20
864.847689
 30
0.0
  0
VERTEX
  5
43C
100
AcDbEntity
  8
止水栓
  6
EXLTYPE2
 62
     6
100
AcDbVertex
100
AcDb2dVertex
 10
386.398876
 20
864.518099
 30
0.0
  0
VERTEX
  5
43D
100
AcDbEntity
  8
止水栓
  6
EXLTYPE2
 62
     6
100
AcDbVertex
100
AcDb2dVertex
 10
386.801708
 20
864.22513
 30
0.0
  0
VERTEX
  5
43E
100
AcDbEntity
  8
止水栓
  6
EXLTYPE2
 62
     6
100
AcDbVertex
100
AcDb2dVertex
 10
387.231395
 20
863.961458
 30
0.0
  0
VERTEX
  5
43F
100
AcDbEntity
  8
止水栓
  6
EXLTYPE2
 62
     6
100
AcDbVertex
100
AcDb2dVertex
 10
387.683055
 20
863.736849
 30
0.0
  0
VERTEX
  5
440
100
AcDbEntity
  8
止水栓
  6
EXLTYPE2
 62
     6
100
AcDbVertex
100
AcDb2dVertex
 10
388.151805
 20
863.551302
 30
0.0
  0
VERTEX
  5
441
100
AcDbEntity
  8
止水栓
  6
EXLTYPE2
 62
     6
100
AcDbVertex
100
AcDb2dVertex
 10
388.637645
 20
863.407259
 30
0.0
  0
VERTEX
  5
442
100
AcDbEntity
  8
止水栓
  6
EXLTYPE2
 62
     6
100
AcDbVertex
100
AcDb2dVertex
 10
389.133251
 20
863.302278
 30
0.0
  0
VERTEX
  5
443
100
AcDbEntity
  8
止水栓
  6
EXLTYPE2
 62
     6
100
AcDbVertex
100
AcDb2dVertex
 10
389.638622
 20
863.238802
 30
0.0
  0
VERTEX
  5
444
100
AcDbEntity
  8
止水栓
  6
EXLTYPE2
 62
     6
100
AcDbVertex
100
AcDb2dVertex
 10
390.146434
 20
863.216829
 30
0.0
  0
VERTEX
  5
445
100
AcDbEntity
  8
止水栓
  6
EXLTYPE2
 62
     6
100
AcDbVertex
100
AcDb2dVertex
 10
390.1562
 20
863.216829
 30
0.0
  0
VERTEX
  5
446
100
AcDbEntity
  8
止水栓
  6
EXLTYPE2
 62
     6
100
AcDbVertex
100
AcDb2dVertex
 10
390.163524
 20
863.216829
 30
0.0
  0
VERTEX
  5
447
100
AcDbEntity
  8
止水栓
  6
EXLTYPE2
 62
     6
100
AcDbVertex
100
AcDb2dVertex
 10
390.17329
 20
863.216829
 30
0.0
  0
SEQEND
  5
448
100
AcDbEntity
  8
止水栓
  6
EXLTYPE2
 62
     6
  0
POLYLINE
  5
449
100
AcDbEntity
  8
止水栓
  6
EXLTYPE2
 62
     6
100
AcDb2dPolyline
 66
     1
 10
0.0
 20
0.0
 30
0.0
 70
   128
  0
VERTEX
  5
44A
100
AcDbEntity
  8
止水栓
  6
EXLTYPE2
 62
     6
100
AcDbVertex
100
AcDb2dVertex
 10
390.17329
 20
863.216829
 30
0.0
  0
VERTEX
  5
44B
100
AcDbEntity
  8
止水栓
  6
EXLTYPE2
 62
     6
100
AcDbVertex
100
AcDb2dVertex
 10
390.671337
 20
863.238802
 30
0.0
  0
VERTEX
  5
44C
100
AcDbEntity
  8
止水栓
  6
EXLTYPE2
 62
     6
100
AcDbVertex
100
AcDb2dVertex
 10
391.166942
 20
863.30472
 30
0.0
  0
VERTEX
  5
44D
100
AcDbEntity
  8
止水栓
  6
EXLTYPE2
 62
     6
100
AcDbVertex
100
AcDb2dVertex
 10
391.655223
 20
863.407259
 30
0.0
  0
VERTEX
  5
44E
100
AcDbEntity
  8
止水栓
  6
EXLTYPE2
 62
     6
100
AcDbVertex
100
AcDb2dVertex
 10
392.141063
 20
863.553743
 30
0.0
  0
VERTEX
  5
44F
100
AcDbEntity
  8
止水栓
  6
EXLTYPE2
 62
     6
100
AcDbVertex
100
AcDb2dVertex
 10
392.609813
 20
863.73929
 30
0.0
  0
VERTEX
  5
450
100
AcDbEntity
  8
止水栓
  6
EXLTYPE2
 62
     6
100
AcDbVertex
100
AcDb2dVertex
 10
393.061473
 20
863.961458
 30
0.0
  0
VERTEX
  5
451
100
AcDbEntity
  8
止水栓
  6
EXLTYPE2
 62
     6
100
AcDbVertex
100
AcDb2dVertex
 10
393.491161
 20
864.222689
 30
0.0
  0
VERTEX
  5
452
100
AcDbEntity
  8
止水栓
  6
EXLTYPE2
 62
     6
100
AcDbVertex
100
AcDb2dVertex
 10
393.893993
 20
864.518099
 30
0.0
  0
VERTEX
  5
453
100
AcDbEntity
  8
止水栓
  6
EXLTYPE2
 62
     6
100
AcDbVertex
100
AcDb2dVertex
 10
394.269969
 20
864.845247
 30
0.0
  0
VERTEX
  5
454
100
AcDbEntity
  8
止水栓
  6
EXLTYPE2
 62
     6
100
AcDbVertex
100
AcDb2dVertex
 10
394.611766
 20
865.204134
 30
0.0
  0
VERTEX
  5
455
100
AcDbEntity
  8
止水栓
  6
EXLTYPE2
 62
     6
100
AcDbVertex
100
AcDb2dVertex
 10
394.921825
 20
865.589876
 30
0.0
  0
VERTEX
  5
456
100
AcDbEntity
  8
止水栓
  6
EXLTYPE2
 62
     6
100
AcDbVertex
100
AcDb2dVertex
 10
395.195262
 20
865.997591
 30
0.0
  0
VERTEX
  5
457
100
AcDbEntity
  8
止水栓
  6
EXLTYPE2
 62
     6
100
AcDbVertex
100
AcDb2dVertex
 10
395.432079
 20
866.427278
 30
0.0
  0
VERTEX
  5
458
100
AcDbEntity
  8
止水栓
  6
EXLTYPE2
 62
     6
100
AcDbVertex
100
AcDb2dVertex
 10
395.62495
 20
866.876497
 30
0.0
  0
VERTEX
  5
459
100
AcDbEntity
  8
止水栓
  6
EXLTYPE2
 62
     6
100
AcDbVertex
100
AcDb2dVertex
 10
395.778759
 20
867.340364
 30
0.0
  0
VERTEX
  5
45A
100
AcDbEntity
  8
止水栓
  6
EXLTYPE2
 62
     6
100
AcDbVertex
100
AcDb2dVertex
 10
395.888622
 20
867.813997
 30
0.0
  0
VERTEX
  5
45B
100
AcDbEntity
  8
止水栓
  6
EXLTYPE2
 62
     6
100
AcDbVertex
100
AcDb2dVertex
 10
395.95454
 20
868.294954
 30
0.0
  0
VERTEX
  5
45C
100
AcDbEntity
  8
止水栓
  6
EXLTYPE2
 62
     6
100
AcDbVertex
100
AcDb2dVertex
 10
395.978954
 20
868.778353
 30
0.0
  0
VERTEX
  5
45D
100
AcDbEntity
  8
止水栓
  6
EXLTYPE2
 62
     6
100
AcDbVertex
100
AcDb2dVertex
 10
395.95454
 20
869.264193
 30
0.0
  0
VERTEX
  5
45E
100
AcDbEntity
  8
止水栓
  6
EXLTYPE2
 62
     6
100
AcDbVertex
100
AcDb2dVertex
 10
395.888622
 20
869.74515
 30
0.0
  0
VERTEX
  5
45F
100
AcDbEntity
  8
止水栓
  6
EXLTYPE2
 62
     6
100
AcDbVertex
100
AcDb2dVertex
 10
395.778759
 20
870.218782
 30
0.0
  0
VERTEX
  5
460
100
AcDbEntity
  8
止水栓
  6
EXLTYPE2
 62
     6
100
AcDbVertex
100
AcDb2dVertex
 10
395.62495
 20
870.680208
 30
0.0
  0
VERTEX
  5
461
100
AcDbEntity
  8
止水栓
  6
EXLTYPE2
 62
     6
100
AcDbVertex
100
AcDb2dVertex
 10
395.432079
 20
871.129427
 30
0.0
  0
VERTEX
  5
462
100
AcDbEntity
  8
止水栓
  6
EXLTYPE2
 62
     6
100
AcDbVertex
100
AcDb2dVertex
 10
395.195262
 20
871.559114
 30
0.0
  0
VERTEX
  5
463
100
AcDbEntity
  8
止水栓
  6
EXLTYPE2
 62
     6
100
AcDbVertex
100
AcDb2dVertex
 10
394.921825
 20
871.969271
 30
0.0
  0
VERTEX
  5
464
100
AcDbEntity
  8
止水栓
  6
EXLTYPE2
 62
     6
100
AcDbVertex
100
AcDb2dVertex
 10
394.611766
 20
872.352571
 30
0.0
  0
VERTEX
  5
465
100
AcDbEntity
  8
止水栓
  6
EXLTYPE2
 62
     6
100
AcDbVertex
100
AcDb2dVertex
 10
394.269969
 20
872.711458
 30
0.0
  0
VERTEX
  5
466
100
AcDbEntity
  8
止水栓
  6
EXLTYPE2
 62
     6
100
AcDbVertex
100
AcDb2dVertex
 10
393.893993
 20
873.038607
 30
0.0
  0
VERTEX
  5
467
100
AcDbEntity
  8
止水栓
  6
EXLTYPE2
 62
     6
100
AcDbVertex
100
AcDb2dVertex
 10
393.491161
 20
873.334017
 30
0.0
  0
VERTEX
  5
468
100
AcDbEntity
  8
止水栓
  6
EXLTYPE2
 62
     6
100
AcDbVertex
100
AcDb2dVertex
 10
393.061473
 20
873.595247
 30
0.0
  0
VERTEX
  5
469
100
AcDbEntity
  8
止水栓
  6
EXLTYPE2
 62
     6
100
AcDbVertex
100
AcDb2dVertex
 10
392.609813
 20
873.819857
 30
0.0
  0
VERTEX
  5
46A
100
AcDbEntity
  8
止水栓
  6
EXLTYPE2
 62
     6
100
AcDbVertex
100
AcDb2dVertex
 10
392.141063
 20
874.005403
 30
0.0
  0
VERTEX
  5
46B
100
AcDbEntity
  8
止水栓
  6
EXLTYPE2
 62
     6
100
AcDbVertex
100
AcDb2dVertex
 10
391.655223
 20
874.149446
 30
0.0
  0
VERTEX
  5
46C
100
AcDbEntity
  8
止水栓
  6
EXLTYPE2
 62
     6
100
AcDbVertex
100
AcDb2dVertex
 10
391.159618
 20
874.254427
 30
0.0
  0
VERTEX
  5
46D
100
AcDbEntity
  8
止水栓
  6
EXLTYPE2
 62
     6
100
AcDbVertex
100
AcDb2dVertex
 10
390.654247
 20
874.317903
 30
0.0
  0
VERTEX
  5
46E
100
AcDbEntity
  8
止水栓
  6
EXLTYPE2
 62
     6
100
AcDbVertex
100
AcDb2dVertex
 10
390.146434
 20
874.339876
 30
0.0
  0
VERTEX
  5
46F
100
AcDbEntity
  8
止水栓
  6
EXLTYPE2
 62
     6
100
AcDbVertex
100
AcDb2dVertex
 10
389.638622
 20
874.317903
 30
0.0
  0
VERTEX
  5
470
100
AcDbEntity
  8
止水栓
  6
EXLTYPE2
 62
     6
100
AcDbVertex
100
AcDb2dVertex
 10
389.133251
 20
874.254427
 30
0.0
  0
VERTEX
  5
471
100
AcDbEntity
  8
止水栓
  6
EXLTYPE2
 62
     6
100
AcDbVertex
100
AcDb2dVertex
 10
388.637645
 20
874.149446
 30
0.0
  0
VERTEX
  5
472
100
AcDbEntity
  8
止水栓
  6
EXLTYPE2
 62
     6
100
AcDbVertex
100
AcDb2dVertex
 10
388.151805
 20
874.005403
 30
0.0
  0
VERTEX
  5
473
100
AcDbEntity
  8
止水栓
  6
EXLTYPE2
 62
     6
100
AcDbVertex
100
AcDb2dVertex
 10
387.683055
 20
873.819857
 30
0.0
  0
VERTEX
  5
474
100
AcDbEntity
  8
止水栓
  6
EXLTYPE2
 62
     6
100
AcDbVertex
100
AcDb2dVertex
 10
387.231395
 20
873.595247
 30
0.0
  0
VERTEX
  5
475
100
AcDbEntity
  8
止水栓
  6
EXLTYPE2
 62
     6
100
AcDbVertex
100
AcDb2dVertex
 10
386.801708
 20
873.334017
 30
0.0
  0
VERTEX
  5
476
100
AcDbEntity
  8
止水栓
  6
EXLTYPE2
 62
     6
100
AcDbVertex
100
AcDb2dVertex
 10
386.398876
 20
873.038607
 30
0.0
  0
VERTEX
  5
477
100
AcDbEntity
  8
止水栓
  6
EXLTYPE2
 62
     6
100
AcDbVertex
100
AcDb2dVertex
 10
386.022899
 20
872.711458
 30
0.0
  0
VERTEX
  5
478
100
AcDbEntity
  8
止水栓
  6
EXLTYPE2
 62
     6
100
AcDbVertex
100
AcDb2dVertex
 10
385.681102
 20
872.352571
 30
0.0
  0
VERTEX
  5
479
100
AcDbEntity
  8
止水栓
  6
EXLTYPE2
 62
     6
100
AcDbVertex
100
AcDb2dVertex
 10
385.371044
 20
871.969271
 30
0.0
  0
VERTEX
  5
47A
100
AcDbEntity
  8
止水栓
  6
EXLTYPE2
 62
     6
100
AcDbVertex
100
AcDb2dVertex
 10
385.097606
 20
871.559114
 30
0.0
  0
VERTEX
  5
47B
100
AcDbEntity
  8
止水栓
  6
EXLTYPE2
 62
     6
100
AcDbVertex
100
AcDb2dVertex
 10
384.86079
 20
871.129427
 30
0.0
  0
VERTEX
  5
47C
100
AcDbEntity
  8
止水栓
  6
EXLTYPE2
 62
     6
100
AcDbVertex
100
AcDb2dVertex
 10
384.667919
 20
870.680208
 30
0.0
  0
VERTEX
  5
47D
100
AcDbEntity
  8
止水栓
  6
EXLTYPE2
 62
     6
100
AcDbVertex
100
AcDb2dVertex
 10
384.51411
 20
870.218782
 30
0.0
  0
VERTEX
  5
47E
100
AcDbEntity
  8
止水栓
  6
EXLTYPE2
 62
     6
100
AcDbVertex
100
AcDb2dVertex
 10
384.404247
 20
869.74515
 30
0.0
  0
VERTEX
  5
47F
100
AcDbEntity
  8
止水栓
  6
EXLTYPE2
 62
     6
100
AcDbVertex
100
AcDb2dVertex
 10
384.338329
 20
869.264193
 30
0.0
  0
VERTEX
  5
480
100
AcDbEntity
  8
止水栓
  6
EXLTYPE2
 62
     6
100
AcDbVertex
100
AcDb2dVertex
 10
384.316356
 20
868.780794
 30
0.0
  0
SEQEND
  5
481
100
AcDbEntity
  8
止水栓
  6
EXLTYPE2
 62
     6
  0
LINE
  5
482
100
AcDbEntity
  8
止水栓
  6
EXLTYPE2
 62
     6
100
AcDbLine
 10
379.204052
 20
863.001985
 30
0.0
 11
401.142528
 21
863.001985
 31
0.0
  0
POLYLINE
  5
483
100
AcDbEntity
  8
止水栓
  6
EXLTYPE2
 62
     6
100
AcDb2dPolyline
 66
     1
 10
0.0
 20
0.0
 30
0.0
 70
   128
  0
VERTEX
  5
484
100
AcDbEntity
  8
止水栓
  6
EXLTYPE2
 62
     6
100
AcDbVertex
100
AcDb2dVertex
 10
377.76118
 20
870.043001
 30
0.0
  0
VERTEX
  5
485
100
AcDbEntity
  8
止水栓
  6
EXLTYPE2
 62
     6
100
AcDbVertex
100
AcDb2dVertex
 10
377.714794
 20
869.618196
 30
0.0
  0
VERTEX
  5
486
100
AcDbEntity
  8
止水栓
  6
EXLTYPE2
 62
     6
100
AcDbVertex
100
AcDb2dVertex
 10
377.687938
 20
869.186068
 30
0.0
  0
VERTEX
  5
487
100
AcDbEntity
  8
止水栓
  6
EXLTYPE2
 62
     6
100
AcDbVertex
100
AcDb2dVertex
 10
377.678173
 20
868.751497
 30
0.0
  0
SEQEND
  5
488
100
AcDbEntity
  8
止水栓
  6
EXLTYPE2
 62
     6
  0
POLYLINE
  5
489
100
AcDbEntity
  8
止水栓
  6
EXLTYPE2
 62
     6
100
AcDb2dPolyline
 66
     1
 10
0.0
 20
0.0
 30
0.0
 70
   128
  0
VERTEX
  5
48A
100
AcDbEntity
  8
止水栓
  6
EXLTYPE2
 62
     6
100
AcDbVertex
100
AcDb2dVertex
 10
379.091747
 20
873.272982
 30
0.0
  0
VERTEX
  5
48B
100
AcDbEntity
  8
止水栓
  6
EXLTYPE2
 62
     6
100
AcDbVertex
100
AcDb2dVertex
 10
378.903759
 20
873.072786
 30
0.0
  0
VERTEX
  5
48C
100
AcDbEntity
  8
止水栓
  6
EXLTYPE2
 62
     6
100
AcDbVertex
100
AcDb2dVertex
 10
378.723094
 20
872.838411
 30
0.0
  0
VERTEX
  5
48D
100
AcDbEntity
  8
止水栓
  6
EXLTYPE2
 62
     6
100
AcDbVertex
100
AcDb2dVertex
 10
378.552196
 20
872.574739
 30
0.0
  0
VERTEX
  5
48E
100
AcDbEntity
  8
止水栓
  6
EXLTYPE2
 62
     6
100
AcDbVertex
100
AcDb2dVertex
 10
378.395946
 20
872.279329
 30
0.0
  0
VERTEX
  5
48F
100
AcDbEntity
  8
止水栓
  6
EXLTYPE2
 62
     6
100
AcDbVertex
100
AcDb2dVertex
 10
378.251903
 20
871.959505
 30
0.0
  0
VERTEX
  5
490
100
AcDbEntity
  8
止水栓
  6
EXLTYPE2
 62
     6
100
AcDbVertex
100
AcDb2dVertex
 10
378.120067
 20
871.612825
 30
0.0
  0
VERTEX
  5
491
100
AcDbEntity
  8
止水栓
  6
EXLTYPE2
 62
     6
100
AcDbVertex
100
AcDb2dVertex
 10
378.005321
 20
871.246614
 30
0.0
  0
VERTEX
  5
492
100
AcDbEntity
  8
止水栓
  6
EXLTYPE2
 62
     6
100
AcDbVertex
100
AcDb2dVertex
 10
377.907665
 20
870.860872
 30
0.0
  0
VERTEX
  5
493
100
AcDbEntity
  8
止水栓
  6
EXLTYPE2
 62
     6
100
AcDbVertex
100
AcDb2dVertex
 10
377.827098
 20
870.45804
 30
0.0
  0
VERTEX
  5
494
100
AcDbEntity
  8
止水栓
  6
EXLTYPE2
 62
     6
100
AcDbVertex
100
AcDb2dVertex
 10
377.76118
 20
870.043001
 30
0.0
  0
SEQEND
  5
495
100
AcDbEntity
  8
止水栓
  6
EXLTYPE2
 62
     6
  0
ARC
  5
496
100
AcDbEntity
  8
止水栓
  6
EXLTYPE2
 62
     6
100
AcDbCircle
 10
388.422802
 20
869.002962
 30
0.0
 40
10.998535
100
AcDbArc
 50
146.94841
 51
213.059082
  0
POLYLINE
  5
497
100
AcDbEntity
  8
止水栓
  6
EXLTYPE2
 62
     6
100
AcDb2dPolyline
 66
     1
 10
0.0
 20
0.0
 30
0.0
 70
   128
  0
VERTEX
  5
498
100
AcDbEntity
  8
止水栓
  6
EXLTYPE2
 62
     6
100
AcDbVertex
100
AcDb2dVertex
 10
377.678173
 20
868.751497
 30
0.0
  0
VERTEX
  5
499
100
AcDbEntity
  8
止水栓
  6
EXLTYPE2
 62
     6
100
AcDbVertex
100
AcDb2dVertex
 10
377.687938
 20
868.314485
 30
0.0
  0
VERTEX
  5
49A
100
AcDbEntity
  8
止水栓
  6
EXLTYPE2
 62
     6
100
AcDbVertex
100
AcDb2dVertex
 10
377.714794
 20
867.882357
 30
0.0
  0
VERTEX
  5
49B
100
AcDbEntity
  8
止水栓
  6
EXLTYPE2
 62
     6
100
AcDbVertex
100
AcDb2dVertex
 10
377.76118
 20
867.457552
 30
0.0
  0
VERTEX
  5
49C
100
AcDbEntity
  8
止水栓
  6
EXLTYPE2
 62
     6
100
AcDbVertex
100
AcDb2dVertex
 10
377.827098
 20
867.042513
 30
0.0
  0
VERTEX
  5
49D
100
AcDbEntity
  8
止水栓
  6
EXLTYPE2
 62
     6
100
AcDbVertex
100
AcDb2dVertex
 10
377.907665
 20
866.642122
 30
0.0
  0
VERTEX
  5
49E
100
AcDbEntity
  8
止水栓
  6
EXLTYPE2
 62
     6
100
AcDbVertex
100
AcDb2dVertex
 10
378.005321
 20
866.25638
 30
0.0
  0
VERTEX
  5
49F
100
AcDbEntity
  8
止水栓
  6
EXLTYPE2
 62
     6
100
AcDbVertex
100
AcDb2dVertex
 10
378.122509
 20
865.887728
 30
0.0
  0
VERTEX
  5
4A0
100
AcDbEntity
  8
止水栓
  6
EXLTYPE2
 62
     6
100
AcDbVertex
100
AcDb2dVertex
 10
378.251903
 20
865.543489
 30
0.0
  0
VERTEX
  5
4A1
100
AcDbEntity
  8
止水栓
  6
EXLTYPE2
 62
     6
100
AcDbVertex
100
AcDb2dVertex
 10
378.395946
 20
865.221224
 30
0.0
  0
VERTEX
  5
4A2
100
AcDbEntity
  8
止水栓
  6
EXLTYPE2
 62
     6
100
AcDbVertex
100
AcDb2dVertex
 10
378.554637
 20
864.928255
 30
0.0
  0
VERTEX
  5
4A3
100
AcDbEntity
  8
止水栓
  6
EXLTYPE2
 62
     6
100
AcDbVertex
100
AcDb2dVertex
 10
378.723094
 20
864.662142
 30
0.0
  0
VERTEX
  5
4A4
100
AcDbEntity
  8
止水栓
  6
EXLTYPE2
 62
     6
100
AcDbVertex
100
AcDb2dVertex
 10
378.903759
 20
864.430208
 30
0.0
  0
VERTEX
  5
4A5
100
AcDbEntity
  8
止水栓
  6
EXLTYPE2
 62
     6
100
AcDbVertex
100
AcDb2dVertex
 10
379.091747
 20
864.227571
 30
0.0
  0
VERTEX
  5
4A6
100
AcDbEntity
  8
止水栓
  6
EXLTYPE2
 62
     6
100
AcDbVertex
100
AcDb2dVertex
 10
379.289501
 20
864.061556
 30
0.0
  0
VERTEX
  5
4A7
100
AcDbEntity
  8
止水栓
  6
EXLTYPE2
 62
     6
100
AcDbVertex
100
AcDb2dVertex
 10
379.494579
 20
863.92972
 30
0.0
  0
VERTEX
  5
4A8
100
AcDbEntity
  8
止水栓
  6
EXLTYPE2
 62
     6
100
AcDbVertex
100
AcDb2dVertex
 10
379.702098
 20
863.836946
 30
0.0
  0
VERTEX
  5
4A9
100
AcDbEntity
  8
止水栓
  6
EXLTYPE2
 62
     6
100
AcDbVertex
100
AcDb2dVertex
 10
379.914501
 20
863.778353
 30
0.0
  0
VERTEX
  5
4AA
100
AcDbEntity
  8
止水栓
  6
EXLTYPE2
 62
     6
100
AcDbVertex
100
AcDb2dVertex
 10
380.126903
 20
863.761263
 30
0.0
  0
VERTEX
  5
4AB
100
AcDbEntity
  8
止水栓
  6
EXLTYPE2
 62
     6
100
AcDbVertex
100
AcDb2dVertex
 10
380.341747
 20
863.780794
 30
0.0
  0
VERTEX
  5
4AC
100
AcDbEntity
  8
止水栓
  6
EXLTYPE2
 62
     6
100
AcDbVertex
100
AcDb2dVertex
 10
380.554149
 20
863.836946
 30
0.0
  0
VERTEX
  5
4AD
100
AcDbEntity
  8
止水栓
  6
EXLTYPE2
 62
     6
100
AcDbVertex
100
AcDb2dVertex
 10
380.761669
 20
863.92972
 30
0.0
  0
VERTEX
  5
4AE
100
AcDbEntity
  8
止水栓
  6
EXLTYPE2
 62
     6
100
AcDbVertex
100
AcDb2dVertex
 10
380.966747
 20
864.061556
 30
0.0
  0
VERTEX
  5
4AF
100
AcDbEntity
  8
止水栓
  6
EXLTYPE2
 62
     6
100
AcDbVertex
100
AcDb2dVertex
 10
381.164501
 20
864.227571
 30
0.0
  0
VERTEX
  5
4B0
100
AcDbEntity
  8
止水栓
  6
EXLTYPE2
 62
     6
100
AcDbVertex
100
AcDb2dVertex
 10
381.352489
 20
864.430208
 30
0.0
  0
VERTEX
  5
4B1
100
AcDbEntity
  8
止水栓
  6
EXLTYPE2
 62
     6
100
AcDbVertex
100
AcDb2dVertex
 10
381.533153
 20
864.664583
 30
0.0
  0
VERTEX
  5
4B2
100
AcDbEntity
  8
止水栓
  6
EXLTYPE2
 62
     6
100
AcDbVertex
100
AcDb2dVertex
 10
381.70161
 20
864.928255
 30
0.0
  0
VERTEX
  5
4B3
100
AcDbEntity
  8
止水栓
  6
EXLTYPE2
 62
     6
100
AcDbVertex
100
AcDb2dVertex
 10
381.860302
 20
865.221224
 30
0.0
  0
VERTEX
  5
4B4
100
AcDbEntity
  8
止水栓
  6
EXLTYPE2
 62
     6
100
AcDbVertex
100
AcDb2dVertex
 10
382.004344
 20
865.543489
 30
0.0
  0
VERTEX
  5
4B5
100
AcDbEntity
  8
止水栓
  6
EXLTYPE2
 62
     6
100
AcDbVertex
100
AcDb2dVertex
 10
382.133739
 20
865.887728
 30
0.0
  0
VERTEX
  5
4B6
100
AcDbEntity
  8
止水栓
  6
EXLTYPE2
 62
     6
100
AcDbVertex
100
AcDb2dVertex
 10
382.248485
 20
866.25638
 30
0.0
  0
VERTEX
  5
4B7
100
AcDbEntity
  8
止水栓
  6
EXLTYPE2
 62
     6
100
AcDbVertex
100
AcDb2dVertex
 10
382.348583
 20
866.642122
 30
0.0
  0
VERTEX
  5
4B8
100
AcDbEntity
  8
止水栓
  6
EXLTYPE2
 62
     6
100
AcDbVertex
100
AcDb2dVertex
 10
382.429149
 20
867.044954
 30
0.0
  0
VERTEX
  5
4B9
100
AcDbEntity
  8
止水栓
  6
EXLTYPE2
 62
     6
100
AcDbVertex
100
AcDb2dVertex
 10
382.495067
 20
867.459993
 30
0.0
  0
VERTEX
  5
4BA
100
AcDbEntity
  8
止水栓
  6
EXLTYPE2
 62
     6
100
AcDbVertex
100
AcDb2dVertex
 10
382.541454
 20
867.884798
 30
0.0
  0
VERTEX
  5
4BB
100
AcDbEntity
  8
止水栓
  6
EXLTYPE2
 62
     6
100
AcDbVertex
100
AcDb2dVertex
 10
382.568309
 20
868.316927
 30
0.0
  0
VERTEX
  5
4BC
100
AcDbEntity
  8
止水栓
  6
EXLTYPE2
 62
     6
100
AcDbVertex
100
AcDb2dVertex
 10
382.578075
 20
868.751497
 30
0.0
  0
VERTEX
  5
4BD
100
AcDbEntity
  8
止水栓
  6
EXLTYPE2
 62
     6
100
AcDbVertex
100
AcDb2dVertex
 10
382.568309
 20
869.186068
 30
0.0
  0
VERTEX
  5
4BE
100
AcDbEntity
  8
止水栓
  6
EXLTYPE2
 62
     6
100
AcDbVertex
100
AcDb2dVertex
 10
382.539012
 20
869.618196
 30
0.0
  0
VERTEX
  5
4BF
100
AcDbEntity
  8
止水栓
  6
EXLTYPE2
 62
     6
100
AcDbVertex
100
AcDb2dVertex
 10
382.492626
 20
870.043001
 30
0.0
  0
VERTEX
  5
4C0
100
AcDbEntity
  8
止水栓
  6
EXLTYPE2
 62
     6
100
AcDbVertex
100
AcDb2dVertex
 10
382.429149
 20
870.45804
 30
0.0
  0
VERTEX
  5
4C1
100
AcDbEntity
  8
止水栓
  6
EXLTYPE2
 62
     6
100
AcDbVertex
100
AcDb2dVertex
 10
382.348583
 20
870.860872
 30
0.0
  0
VERTEX
  5
4C2
100
AcDbEntity
  8
止水栓
  6
EXLTYPE2
 62
     6
100
AcDbVertex
100
AcDb2dVertex
 10
382.248485
 20
871.246614
 30
0.0
  0
VERTEX
  5
4C3
100
AcDbEntity
  8
止水栓
  6
EXLTYPE2
 62
     6
100
AcDbVertex
100
AcDb2dVertex
 10
382.133739
 20
871.612825
 30
0.0
  0
VERTEX
  5
4C4
100
AcDbEntity
  8
止水栓
  6
EXLTYPE2
 62
     6
100
AcDbVertex
100
AcDb2dVertex
 10
382.004344
 20
871.959505
 30
0.0
  0
VERTEX
  5
4C5
100
AcDbEntity
  8
止水栓
  6
EXLTYPE2
 62
     6
100
AcDbVertex
100
AcDb2dVertex
 10
381.860302
 20
872.279329
 30
0.0
  0
VERTEX
  5
4C6
100
AcDbEntity
  8
止水栓
  6
EXLTYPE2
 62
     6
100
AcDbVertex
100
AcDb2dVertex
 10
381.70161
 20
872.574739
 30
0.0
  0
VERTEX
  5
4C7
100
AcDbEntity
  8
止水栓
  6
EXLTYPE2
 62
     6
100
AcDbVertex
100
AcDb2dVertex
 10
381.533153
 20
872.838411
 30
0.0
  0
VERTEX
  5
4C8
100
AcDbEntity
  8
止水栓
  6
EXLTYPE2
 62
     6
100
AcDbVertex
100
AcDb2dVertex
 10
381.352489
 20
873.072786
 30
0.0
  0
VERTEX
  5
4C9
100
AcDbEntity
  8
止水栓
  6
EXLTYPE2
 62
     6
100
AcDbVertex
100
AcDb2dVertex
 10
381.164501
 20
873.272982
 30
0.0
  0
VERTEX
  5
4CA
100
AcDbEntity
  8
止水栓
  6
EXLTYPE2
 62
     6
100
AcDbVertex
100
AcDb2dVertex
 10
380.966747
 20
873.441439
 30
0.0
  0
VERTEX
  5
4CB
100
AcDbEntity
  8
止水栓
  6
EXLTYPE2
 62
     6
100
AcDbVertex
100
AcDb2dVertex
 10
380.761669
 20
873.570833
 30
0.0
  0
VERTEX
  5
4CC
100
AcDbEntity
  8
止水栓
  6
EXLTYPE2
 62
     6
100
AcDbVertex
100
AcDb2dVertex
 10
380.554149
 20
873.666048
 30
0.0
  0
VERTEX
  5
4CD
100
AcDbEntity
  8
止水栓
  6
EXLTYPE2
 62
     6
100
AcDbVertex
100
AcDb2dVertex
 10
380.341747
 20
873.7222
 30
0.0
  0
VERTEX
  5
4CE
100
AcDbEntity
  8
止水栓
  6
EXLTYPE2
 62
     6
100
AcDbVertex
100
AcDb2dVertex
 10
380.126903
 20
873.741732
 30
0.0
  0
VERTEX
  5
4CF
100
AcDbEntity
  8
止水栓
  6
EXLTYPE2
 62
     6
100
AcDbVertex
100
AcDb2dVertex
 10
379.914501
 20
873.7222
 30
0.0
  0
VERTEX
  5
4D0
100
AcDbEntity
  8
止水栓
  6
EXLTYPE2
 62
     6
100
AcDbVertex
100
AcDb2dVertex
 10
379.702098
 20
873.666048
 30
0.0
  0
VERTEX
  5
4D1
100
AcDbEntity
  8
止水栓
  6
EXLTYPE2
 62
     6
100
AcDbVertex
100
AcDb2dVertex
 10
379.494579
 20
873.570833
 30
0.0
  0
VERTEX
  5
4D2
100
AcDbEntity
  8
止水栓
  6
EXLTYPE2
 62
     6
100
AcDbVertex
100
AcDb2dVertex
 10
379.289501
 20
873.441439
 30
0.0
  0
VERTEX
  5
4D3
100
AcDbEntity
  8
止水栓
  6
EXLTYPE2
 62
     6
100
AcDbVertex
100
AcDb2dVertex
 10
379.091747
 20
873.272982
 30
0.0
  0
SEQEND
  5
4D4
100
AcDbEntity
  8
止水栓
  6
EXLTYPE2
 62
     6
  0
POLYLINE
  5
4D5
100
AcDbEntity
  8
止水栓
  6
EXLTYPE2
 62
     6
100
AcDb2dPolyline
 66
     1
 10
0.0
 20
0.0
 30
0.0
 70
   128
  0
VERTEX
  5
4D6
100
AcDbEntity
  8
止水栓
  6
EXLTYPE2
 62
     6
100
AcDbVertex
100
AcDb2dVertex
 10
397.775829
 20
868.744173
 30
0.0
  0
VERTEX
  5
4D7
100
AcDbEntity
  8
止水栓
  6
EXLTYPE2
 62
     6
100
AcDbVertex
100
AcDb2dVertex
 10
397.785594
 20
868.341341
 30
0.0
  0
VERTEX
  5
4D8
100
AcDbEntity
  8
止水栓
  6
EXLTYPE2
 62
     6
100
AcDbVertex
100
AcDb2dVertex
 10
397.814891
 20
867.94095
 30
0.0
  0
VERTEX
  5
4D9
100
AcDbEntity
  8
止水栓
  6
EXLTYPE2
 62
     6
100
AcDbVertex
100
AcDb2dVertex
 10
397.861278
 20
867.545443
 30
0.0
  0
VERTEX
  5
4DA
100
AcDbEntity
  8
止水栓
  6
EXLTYPE2
 62
     6
100
AcDbVertex
100
AcDb2dVertex
 10
397.924755
 20
867.162142
 30
0.0
  0
VERTEX
  5
4DB
100
AcDbEntity
  8
止水栓
  6
EXLTYPE2
 62
     6
100
AcDbVertex
100
AcDb2dVertex
 10
398.005321
 20
866.788607
 30
0.0
  0
VERTEX
  5
4DC
100
AcDbEntity
  8
止水栓
  6
EXLTYPE2
 62
     6
100
AcDbVertex
100
AcDb2dVertex
 10
398.105419
 20
866.42972
 30
0.0
  0
VERTEX
  5
4DD
100
AcDbEntity
  8
止水栓
  6
EXLTYPE2
 62
     6
100
AcDbVertex
100
AcDb2dVertex
 10
398.220165
 20
866.090364
 30
0.0
  0
VERTEX
  5
4DE
100
AcDbEntity
  8
止水栓
  6
EXLTYPE2
 62
     6
100
AcDbVertex
100
AcDb2dVertex
 10
398.349559
 20
865.768099
 30
0.0
  0
VERTEX
  5
4DF
100
AcDbEntity
  8
止水栓
  6
EXLTYPE2
 62
     6
100
AcDbVertex
100
AcDb2dVertex
 10
398.493602
 20
865.470247
 30
0.0
  0
VERTEX
  5
4E0
100
AcDbEntity
  8
止水栓
  6
EXLTYPE2
 62
     6
100
AcDbVertex
100
AcDb2dVertex
 10
398.652294
 20
865.199251
 30
0.0
  0
VERTEX
  5
4E1
100
AcDbEntity
  8
止水栓
  6
EXLTYPE2
 62
     6
100
AcDbVertex
100
AcDb2dVertex
 10
398.820751
 20
864.952669
 30
0.0
  0
VERTEX
  5
4E2
100
AcDbEntity
  8
止水栓
  6
EXLTYPE2
 62
     6
100
AcDbVertex
100
AcDb2dVertex
 10
399.001415
 20
864.735384
 30
0.0
  0
VERTEX
  5
4E3
100
AcDbEntity
  8
止水栓
  6
EXLTYPE2
 62
     6
100
AcDbVertex
100
AcDb2dVertex
 10
399.191844
 20
864.547396
 30
0.0
  0
VERTEX
  5
4E4
100
AcDbEntity
  8
止水栓
  6
EXLTYPE2
 62
     6
100
AcDbVertex
100
AcDb2dVertex
 10
399.389598
 20
864.393587
 30
0.0
  0
VERTEX
  5
4E5
100
AcDbEntity
  8
止水栓
  6
EXLTYPE2
 62
     6
100
AcDbVertex
100
AcDb2dVertex
 10
399.592235
 20
864.273958
 30
0.0
  0
VERTEX
  5
4E6
100
AcDbEntity
  8
止水栓
  6
EXLTYPE2
 62
     6
100
AcDbVertex
100
AcDb2dVertex
 10
399.802196
 20
864.186068
 30
0.0
  0
VERTEX
  5
4E7
100
AcDbEntity
  8
止水栓
  6
EXLTYPE2
 62
     6
100
AcDbVertex
100
AcDb2dVertex
 10
400.012157
 20
864.132357
 30
0.0
  0
VERTEX
  5
4E8
100
AcDbEntity
  8
止水栓
  6
EXLTYPE2
 62
     6
100
AcDbVertex
100
AcDb2dVertex
 10
400.227001
 20
864.115267
 30
0.0
  0
VERTEX
  5
4E9
100
AcDbEntity
  8
止水栓
  6
EXLTYPE2
 62
     6
100
AcDbVertex
100
AcDb2dVertex
 10
400.439403
 20
864.132357
 30
0.0
  0
VERTEX
  5
4EA
100
AcDbEntity
  8
止水栓
  6
EXLTYPE2
 62
     6
100
AcDbVertex
100
AcDb2dVertex
 10
400.651805
 20
864.186068
 30
0.0
  0
VERTEX
  5
4EB
100
AcDbEntity
  8
止水栓
  6
EXLTYPE2
 62
     6
100
AcDbVertex
100
AcDb2dVertex
 10
400.861766
 20
864.273958
 30
0.0
  0
VERTEX
  5
4EC
100
AcDbEntity
  8
止水栓
  6
EXLTYPE2
 62
     6
100
AcDbVertex
100
AcDb2dVertex
 10
401.064403
 20
864.393587
 30
0.0
  0
VERTEX
  5
4ED
100
AcDbEntity
  8
止水栓
  6
EXLTYPE2
 62
     6
100
AcDbVertex
100
AcDb2dVertex
 10
401.262157
 20
864.549837
 30
0.0
  0
VERTEX
  5
4EE
100
AcDbEntity
  8
止水栓
  6
EXLTYPE2
 62
     6
100
AcDbVertex
100
AcDb2dVertex
 10
401.450145
 20
864.735384
 30
0.0
  0
VERTEX
  5
4EF
100
AcDbEntity
  8
止水栓
  6
EXLTYPE2
 62
     6
100
AcDbVertex
100
AcDb2dVertex
 10
401.630809
 20
864.952669
 30
0.0
  0
VERTEX
  5
4F0
100
AcDbEntity
  8
止水栓
  6
EXLTYPE2
 62
     6
100
AcDbVertex
100
AcDb2dVertex
 10
401.801708
 20
865.19681
 30
0.0
  0
VERTEX
  5
4F1
100
AcDbEntity
  8
止水栓
  6
EXLTYPE2
 62
     6
100
AcDbVertex
100
AcDb2dVertex
 10
401.957958
 20
865.470247
 30
0.0
  0
VERTEX
  5
4F2
100
AcDbEntity
  8
止水栓
  6
EXLTYPE2
 62
     6
100
AcDbVertex
100
AcDb2dVertex
 10
402.102001
 20
865.768099
 30
0.0
  0
VERTEX
  5
4F3
100
AcDbEntity
  8
止水栓
  6
EXLTYPE2
 62
     6
100
AcDbVertex
100
AcDb2dVertex
 10
402.233837
 20
866.090364
 30
0.0
  0
VERTEX
  5
4F4
100
AcDbEntity
  8
止水栓
  6
EXLTYPE2
 62
     6
100
AcDbVertex
100
AcDb2dVertex
 10
402.348583
 20
866.42972
 30
0.0
  0
VERTEX
  5
4F5
100
AcDbEntity
  8
止水栓
  6
EXLTYPE2
 62
     6
100
AcDbVertex
100
AcDb2dVertex
 10
402.446239
 20
866.788607
 30
0.0
  0
VERTEX
  5
4F6
100
AcDbEntity
  8
止水栓
  6
EXLTYPE2
 62
     6
100
AcDbVertex
100
AcDb2dVertex
 10
402.526805
 20
867.1597
 30
0.0
  0
VERTEX
  5
4F7
100
AcDbEntity
  8
止水栓
  6
EXLTYPE2
 62
     6
100
AcDbVertex
100
AcDb2dVertex
 10
402.592723
 20
867.545443
 30
0.0
  0
VERTEX
  5
4F8
100
AcDbEntity
  8
止水栓
  6
EXLTYPE2
 62
     6
100
AcDbVertex
100
AcDb2dVertex
 10
402.63911
 20
867.94095
 30
0.0
  0
VERTEX
  5
4F9
100
AcDbEntity
  8
止水栓
  6
EXLTYPE2
 62
     6
100
AcDbVertex
100
AcDb2dVertex
 10
402.665966
 20
868.341341
 30
0.0
  0
VERTEX
  5
4FA
100
AcDbEntity
  8
止水栓
  6
EXLTYPE2
 62
     6
100
AcDbVertex
100
AcDb2dVertex
 10
402.675731
 20
868.744173
 30
0.0
  0
VERTEX
  5
4FB
100
AcDbEntity
  8
止水栓
  6
EXLTYPE2
 62
     6
100
AcDbVertex
100
AcDb2dVertex
 10
402.665966
 20
869.147005
 30
0.0
  0
VERTEX
  5
4FC
100
AcDbEntity
  8
止水栓
  6
EXLTYPE2
 62
     6
100
AcDbVertex
100
AcDb2dVertex
 10
402.63911
 20
869.547396
 30
0.0
  0
VERTEX
  5
4FD
100
AcDbEntity
  8
止水栓
  6
EXLTYPE2
 62
     6
100
AcDbVertex
100
AcDb2dVertex
 10
402.592723
 20
869.942903
 30
0.0
  0
VERTEX
  5
4FE
100
AcDbEntity
  8
止水栓
  6
EXLTYPE2
 62
     6
100
AcDbVertex
100
AcDb2dVertex
 10
402.529247
 20
870.328646
 30
0.0
  0
VERTEX
  5
4FF
100
AcDbEntity
  8
止水栓
  6
EXLTYPE2
 62
     6
100
AcDbVertex
100
AcDb2dVertex
 10
402.446239
 20
870.702181
 30
0.0
  0
VERTEX
  5
500
100
AcDbEntity
  8
止水栓
  6
EXLTYPE2
 62
     6
100
AcDbVertex
100
AcDb2dVertex
 10
402.348583
 20
871.061068
 30
0.0
  0
VERTEX
  5
501
100
AcDbEntity
  8
止水栓
  6
EXLTYPE2
 62
     6
100
AcDbVertex
100
AcDb2dVertex
 10
402.233837
 20
871.400423
 30
0.0
  0
VERTEX
  5
502
100
AcDbEntity
  8
止水栓
  6
EXLTYPE2
 62
     6
100
AcDbVertex
100
AcDb2dVertex
 10
402.102001
 20
871.722689
 30
0.0
  0
VERTEX
  5
503
100
AcDbEntity
  8
止水栓
  6
EXLTYPE2
 62
     6
100
AcDbVertex
100
AcDb2dVertex
 10
401.957958
 20
872.018099
 30
0.0
  0
VERTEX
  5
504
100
AcDbEntity
  8
止水栓
  6
EXLTYPE2
 62
     6
100
AcDbVertex
100
AcDb2dVertex
 10
401.801708
 20
872.291536
 30
0.0
  0
VERTEX
  5
505
100
AcDbEntity
  8
止水栓
  6
EXLTYPE2
 62
     6
100
AcDbVertex
100
AcDb2dVertex
 10
401.630809
 20
872.538118
 30
0.0
  0
VERTEX
  5
506
100
AcDbEntity
  8
止水栓
  6
EXLTYPE2
 62
     6
100
AcDbVertex
100
AcDb2dVertex
 10
401.452587
 20
872.755403
 30
0.0
  0
VERTEX
  5
507
100
AcDbEntity
  8
止水栓
  6
EXLTYPE2
 62
     6
100
AcDbVertex
100
AcDb2dVertex
 10
401.262157
 20
872.94095
 30
0.0
  0
VERTEX
  5
508
100
AcDbEntity
  8
止水栓
  6
EXLTYPE2
 62
     6
100
AcDbVertex
100
AcDb2dVertex
 10
401.064403
 20
873.094759
 30
0.0
  0
VERTEX
  5
509
100
AcDbEntity
  8
止水栓
  6
EXLTYPE2
 62
     6
100
AcDbVertex
100
AcDb2dVertex
 10
400.861766
 20
873.216829
 30
0.0
  0
VERTEX
  5
50A
100
AcDbEntity
  8
止水栓
  6
EXLTYPE2
 62
     6
100
AcDbVertex
100
AcDb2dVertex
 10
400.651805
 20
873.30472
 30
0.0
  0
VERTEX
  5
50B
100
AcDbEntity
  8
止水栓
  6
EXLTYPE2
 62
     6
100
AcDbVertex
100
AcDb2dVertex
 10
400.439403
 20
873.358431
 30
0.0
  0
VERTEX
  5
50C
100
AcDbEntity
  8
止水栓
  6
EXLTYPE2
 62
     6
100
AcDbVertex
100
AcDb2dVertex
 10
400.227001
 20
873.375521
 30
0.0
  0
VERTEX
  5
50D
100
AcDbEntity
  8
止水栓
  6
EXLTYPE2
 62
     6
100
AcDbVertex
100
AcDb2dVertex
 10
400.012157
 20
873.355989
 30
0.0
  0
VERTEX
  5
50E
100
AcDbEntity
  8
止水栓
  6
EXLTYPE2
 62
     6
100
AcDbVertex
100
AcDb2dVertex
 10
399.802196
 20
873.30472
 30
0.0
  0
VERTEX
  5
50F
100
AcDbEntity
  8
止水栓
  6
EXLTYPE2
 62
     6
100
AcDbVertex
100
AcDb2dVertex
 10
399.592235
 20
873.216829
 30
0.0
  0
VERTEX
  5
510
100
AcDbEntity
  8
止水栓
  6
EXLTYPE2
 62
     6
100
AcDbVertex
100
AcDb2dVertex
 10
399.389598
 20
873.094759
 30
0.0
  0
VERTEX
  5
511
100
AcDbEntity
  8
止水栓
  6
EXLTYPE2
 62
     6
100
AcDbVertex
100
AcDb2dVertex
 10
399.191844
 20
872.94095
 30
0.0
  0
SEQEND
  5
512
100
AcDbEntity
  8
止水栓
  6
EXLTYPE2
 62
     6
  0
POLYLINE
  5
513
100
AcDbEntity
  8
止水栓
  6
EXLTYPE2
 62
     6
100
AcDb2dPolyline
 66
     1
 10
0.0
 20
0.0
 30
0.0
 70
   128
  0
VERTEX
  5
514
100
AcDbEntity
  8
止水栓
  6
EXLTYPE2
 62
     6
100
AcDbVertex
100
AcDb2dVertex
 10
397.861278
 20
869.942903
 30
0.0
  0
VERTEX
  5
515
100
AcDbEntity
  8
止水栓
  6
EXLTYPE2
 62
     6
100
AcDbVertex
100
AcDb2dVertex
 10
397.814891
 20
869.549837
 30
0.0
  0
VERTEX
  5
516
100
AcDbEntity
  8
止水栓
  6
EXLTYPE2
 62
     6
100
AcDbVertex
100
AcDb2dVertex
 10
397.785594
 20
869.149446
 30
0.0
  0
VERTEX
  5
517
100
AcDbEntity
  8
止水栓
  6
EXLTYPE2
 62
     6
100
AcDbVertex
100
AcDb2dVertex
 10
397.775829
 20
868.746614
 30
0.0
  0
SEQEND
  5
518
100
AcDbEntity
  8
止水栓
  6
EXLTYPE2
 62
     6
  0
POLYLINE
  5
519
100
AcDbEntity
  8
止水栓
  6
EXLTYPE2
 62
     6
100
AcDb2dPolyline
 66
     1
 10
0.0
 20
0.0
 30
0.0
 70
   128
  0
VERTEX
  5
51A
100
AcDbEntity
  8
止水栓
  6
EXLTYPE2
 62
     6
100
AcDbVertex
100
AcDb2dVertex
 10
399.191844
 20
872.94095
 30
0.0
  0
VERTEX
  5
51B
100
AcDbEntity
  8
止水栓
  6
EXLTYPE2
 62
     6
100
AcDbVertex
100
AcDb2dVertex
 10
399.001415
 20
872.755403
 30
0.0
  0
VERTEX
  5
51C
100
AcDbEntity
  8
止水栓
  6
EXLTYPE2
 62
     6
100
AcDbVertex
100
AcDb2dVertex
 10
398.820751
 20
872.538118
 30
0.0
  0
VERTEX
  5
51D
100
AcDbEntity
  8
止水栓
  6
EXLTYPE2
 62
     6
100
AcDbVertex
100
AcDb2dVertex
 10
398.652294
 20
872.291536
 30
0.0
  0
VERTEX
  5
51E
100
AcDbEntity
  8
止水栓
  6
EXLTYPE2
 62
     6
100
AcDbVertex
100
AcDb2dVertex
 10
398.493602
 20
872.018099
 30
0.0
  0
VERTEX
  5
51F
100
AcDbEntity
  8
止水栓
  6
EXLTYPE2
 62
     6
100
AcDbVertex
100
AcDb2dVertex
 10
398.349559
 20
871.720247
 30
0.0
  0
VERTEX
  5
520
100
AcDbEntity
  8
止水栓
  6
EXLTYPE2
 62
     6
100
AcDbVertex
100
AcDb2dVertex
 10
398.220165
 20
871.400423
 30
0.0
  0
VERTEX
  5
521
100
AcDbEntity
  8
止水栓
  6
EXLTYPE2
 62
     6
100
AcDbVertex
100
AcDb2dVertex
 10
398.105419
 20
871.061068
 30
0.0
  0
VERTEX
  5
522
100
AcDbEntity
  8
止水栓
  6
EXLTYPE2
 62
     6
100
AcDbVertex
100
AcDb2dVertex
 10
398.005321
 20
870.702181
 30
0.0
  0
VERTEX
  5
523
100
AcDbEntity
  8
止水栓
  6
EXLTYPE2
 62
     6
100
AcDbVertex
100
AcDb2dVertex
 10
397.924755
 20
870.328646
 30
0.0
  0
VERTEX
  5
524
100
AcDbEntity
  8
止水栓
  6
EXLTYPE2
 62
     6
100
AcDbVertex
100
AcDb2dVertex
 10
397.861278
 20
869.942903
 30
0.0
  0
SEQEND
  5
525
100
AcDbEntity
  8
止水栓
  6
EXLTYPE2
 62
     6
  0
ARC
  5
526
100
AcDbEntity
  8
止水栓
  6
EXLTYPE2
 62
     6
100
AcDbCircle
 10
391.923778
 20
869.002962
 30
0.0
 40
10.99987
100
AcDbArc
 50
326.937744
 51
33.054687
  0
ARC
  5
527
100
AcDbEntity
  8
止水栓
  6
EXLTYPE10
 62
     6
100
AcDbCircle
 10
404.838055
 20
801.483554
 30
0.0
 40
14.664011
100
AcDbArc
 50
180.0
 51
333.038028
  0
LINE
  5
528
100
AcDbEntity
  8
止水栓
  6
EXLTYPE2
 62
     6
100
AcDbLine
 10
383.673285
 20
829.001985
 30
0.0
 11
383.673285
 21
817.287612
 31
0.0
  0
LINE
  5
529
100
AcDbEntity
  8
止水栓
  6
EXLTYPE2
 62
     6
100
AcDbLine
 10
396.673285
 20
829.001985
 30
0.0
 11
396.673285
 21
817.287612
 31
0.0
  0
LINE
  5
52A
100
AcDbEntity
  8
止水栓
  6
EXLTYPE2
 62
     6
100
AcDbLine
 10
383.67329
 20
821.995204
 30
0.0
 11
383.67329
 21
817.287612
 31
0.0
  0
LINE
  5
52B
100
AcDbEntity
  8
止水栓
  6
EXLTYPE2
 62
     6
100
AcDbLine
 10
396.67329
 20
821.995204
 30
0.0
 11
396.67329
 21
817.287612
 31
0.0
  0
LINE
  5
52C
100
AcDbEntity
  8
止水栓
  6
EXLTYPE2
 62
     6
100
AcDbLine
 10
383.67329
 20
819.170613
 30
0.0
 11
383.67329
 21
817.287612
 31
0.0
  0
LINE
  5
52D
100
AcDbEntity
  8
止水栓
  6
EXLTYPE2
 62
     6
100
AcDbLine
 10
396.67329
 20
819.170613
 30
0.0
 11
396.67329
 21
817.287612
 31
0.0
  0
LINE
  5
52E
100
AcDbEntity
  8
止水栓
  6
EXLTYPE2
 62
     6
100
AcDbLine
 10
399.436802
 20
880.000284
 30
0.0
 11
399.436802
 21
876.000324
 31
0.0
  0
LINE
  5
52F
100
AcDbEntity
  8
止水栓
  6
EXLTYPE2
 62
     6
100
AcDbLine
 10
380.911287
 20
880.000284
 30
0.0
 11
380.911287
 21
876.000324
 31
0.0
  0
LINE
  5
530
100
AcDbEntity
  8
止水栓
  6
EXLTYPE2
 62
     6
100
AcDbLine
 10
400.638771
 20
876.000324
 30
0.0
 11
400.638771
 21
884.149367
 31
0.0
  0
LINE
  5
531
100
AcDbEntity
  8
止水栓
  6
EXLTYPE2
 62
     6
100
AcDbLine
 10
379.683762
 20
883.000324
 30
0.0
 11
379.683762
 21
876.000324
 31
0.0
  0
LINE
  5
532
100
AcDbEntity
  8
止水栓
  6
EXLTYPE2
 62
     6
100
AcDbLine
 10
400.638751
 20
880.000284
 30
0.0
 11
379.683762
 21
880.000284
 31
0.0
  0
LINE
  5
533
100
AcDbEntity
  8
止水栓
  6
EXLTYPE2
 62
     6
100
AcDbLine
 10
379.683762
 20
882.126415
 30
0.0
 11
380.911286
 21
880.000286
 31
0.0
  0
ARC
  5
534
100
AcDbEntity
  8
止水栓
  6
EXLTYPE2
 62
     6
100
AcDbCircle
 10
374.551217
 20
918.500324
 30
0.0
 40
6.5
100
AcDbArc
 50
242.204228
 51
270.0
  0
ARC
  5
535
100
AcDbEntity
  8
止水栓
  6
EXLTYPE2
 62
     6
100
AcDbCircle
 10
374.551217
 20
881.500324
 30
0.0
 40
6.5
100
AcDbArc
 50
90.0
 51
117.795772
  0
ARC
  5
536
100
AcDbEntity
  8
止水栓
  6
EXLTYPE2
 62
     6
100
AcDbCircle
 10
381.059556
 20
893.625324
 30
0.0
 40
18.612052
100
AcDbArc
 50
159.969519
 51
200.030481
  0
ARC
  5
537
100
AcDbEntity
  8
止水栓
  6
EXLTYPE2
 62
     6
100
AcDbCircle
 10
381.059556
 20
906.375324
 30
0.0
 40
18.612052
100
AcDbArc
 50
159.969519
 51
200.030481
  0
ARC
  5
538
100
AcDbEntity
  8
止水栓
  6
EXLTYPE2
 62
     6
100
AcDbCircle
 10
361.337175
 20
893.625324
 30
0.0
 40
10.182953
100
AcDbArc
 50
321.240977
 51
38.759023
  0
ARC
  5
539
100
AcDbEntity
  8
止水栓
  6
EXLTYPE2
 62
     6
100
AcDbCircle
 10
361.337175
 20
906.375324
 30
0.0
 40
10.182953
100
AcDbArc
 50
321.240977
 51
38.759023
  0
LINE
  5
53A
100
AcDbEntity
  8
止水栓
  6
EXLTYPE2
 62
     6
100
AcDbLine
 10
362.158829
 20
912.250324
 30
0.0
 11
362.447504
 21
912.750324
 31
0.0
  0
LINE
  5
53B
100
AcDbEntity
  8
止水栓
  6
EXLTYPE2
 62
     6
100
AcDbLine
 10
362.158829
 20
887.750324
 30
0.0
 11
362.447504
 21
887.250324
 31
0.0
  0
LINE
  5
53C
100
AcDbEntity
  8
止水栓
  6
EXLTYPE2
 62
     6
100
AcDbLine
 10
371.520128
 20
887.250324
 30
0.0
 11
362.447504
 21
887.250324
 31
0.0
  0
LINE
  5
53D
100
AcDbEntity
  8
止水栓
  6
EXLTYPE2
 62
     6
100
AcDbLine
 10
371.520128
 20
912.750324
 30
0.0
 11
362.447504
 21
912.750324
 31
0.0
  0
LINE
  5
53E
100
AcDbEntity
  8
止水栓
  6
EXLTYPE2
 62
     6
100
AcDbLine
 10
362.158829
 20
912.250324
 30
0.0
 11
362.158829
 21
887.750324
 31
0.0
  0
LINE
  5
53F
100
AcDbEntity
  8
止水栓
  6
EXLTYPE2
 62
     6
100
AcDbLine
 10
360.955307
 20
889.823973
 30
0.0
 11
360.955307
 21
910.21652
 31
0.0
  0
LINE
  5
540
100
AcDbEntity
  8
止水栓
  6
EXLTYPE2
 62
     6
100
AcDbLine
 10
362.162029
 20
889.859845
 30
0.0
 11
359.147985
 21
889.770246
 31
0.0
  0
LINE
  5
541
100
AcDbEntity
  8
止水栓
  6
EXLTYPE2
 62
     6
100
AcDbLine
 10
362.162029
 20
890.860287
 30
0.0
 11
360.955307
 21
890.824414
 31
0.0
  0
LINE
  5
542
100
AcDbEntity
  8
止水栓
  6
EXLTYPE2
 62
     6
100
AcDbLine
 10
359.147985
 20
889.770246
 30
0.0
 11
360.955307
 21
890.824414
 31
0.0
  0
LINE
  5
543
100
AcDbEntity
  8
止水栓
  6
EXLTYPE2
 62
     6
100
AcDbLine
 10
362.162029
 20
910.180648
 30
0.0
 11
359.147985
 21
910.270246
 31
0.0
  0
LINE
  5
544
100
AcDbEntity
  8
止水栓
  6
EXLTYPE2
 62
     6
100
AcDbLine
 10
362.162029
 20
909.180206
 30
0.0
 11
360.955307
 21
909.216078
 31
0.0
  0
LINE
  5
545
100
AcDbEntity
  8
止水栓
  6
EXLTYPE2
 62
     6
100
AcDbLine
 10
359.147985
 20
910.270246
 30
0.0
 11
360.955307
 21
909.216078
 31
0.0
  0
LINE
  5
546
100
AcDbEntity
  8
止水栓
  6
EXLTYPE2
 62
     6
100
AcDbLine
 10
374.6718
 20
888.000324
 30
0.0
 11
374.551217
 21
888.000324
 31
0.0
  0
ARC
  5
547
100
AcDbEntity
  8
止水栓
  6
EXLTYPE2
 62
     6
100
AcDbCircle
 10
374.683762
 20
883.000324
 30
0.0
 40
5.0
100
AcDbArc
 50
0.0
 51
90.0
  0
LINE
  5
548
100
AcDbEntity
  8
止水栓
  6
EXLTYPE2
 62
     6
100
AcDbLine
 10
374.551217
 20
912.000324
 30
0.0
 11
411.161252
 21
912.000324
 31
0.0
  0
LINE
  5
549
100
AcDbEntity
  8
止水栓
  6
EXLTYPE2
 62
     6
100
AcDbLine
 10
400.638767
 20
882.126413
 30
0.0
 11
399.411243
 21
880.000284
 31
0.0
  0
ARC
  5
54A
100
AcDbEntity
  8
止水栓
  6
EXLTYPE2
 62
     6
100
AcDbCircle
 10
405.596619
 20
883.501497
 30
0.0
 40
5.0
100
AcDbArc
 50
115.872755
 51
172.555023
  0
LINE
  5
54B
100
AcDbEntity
  8
止水栓
  6
EXLTYPE2
 62
     6
100
AcDbLine
 10
411.161252
 20
888.000324
 30
0.0
 11
403.414749
 21
888.000324
 31
0.0
  0
LINE
  5
54C
100
AcDbEntity
  8
止水栓
  6
EXLTYPE2
 62
     6
100
AcDbLine
 10
411.161252
 20
888.000324
 30
0.0
 11
411.161252
 21
912.000324
 31
0.0
  0
LINE
  5
54D
100
AcDbEntity
  8
止水栓
  6
EXLTYPE2
 62
     6
100
AcDbLine
 10
411.861252
 20
909.000324
 30
0.0
 11
411.161252
 21
909.000324
 31
0.0
  0
LINE
  5
54E
100
AcDbEntity
  8
止水栓
  6
EXLTYPE2
 62
     6
100
AcDbLine
 10
411.861252
 20
891.000324
 30
0.0
 11
411.161252
 21
891.000324
 31
0.0
  0
LINE
  5
54F
100
AcDbEntity
  8
止水栓
  6
EXLTYPE2
 62
     6
100
AcDbLine
 10
411.861252
 20
900.900324
 30
0.0
 11
411.161252
 21
900.900324
 31
0.0
  0
LINE
  5
550
100
AcDbEntity
  8
止水栓
  6
EXLTYPE2
 62
     6
100
AcDbLine
 10
411.861252
 20
899.100324
 30
0.0
 11
411.161252
 21
899.100324
 31
0.0
  0
LINE
  5
551
100
AcDbEntity
  8
止水栓
  6
EXLTYPE2
 62
     6
100
AcDbLine
 10
411.861252
 20
899.100324
 30
0.0
 11
411.861252
 21
891.000324
 31
0.0
  0
LINE
  5
552
100
AcDbEntity
  8
止水栓
  6
EXLTYPE2
 62
     6
100
AcDbLine
 10
411.861252
 20
900.900324
 30
0.0
 11
411.861252
 21
909.000324
 31
0.0
  0
LEADER
  5
553
100
AcDbEntity
  8
止水栓
  6
CONTINUOUS
 62
     6
100
AcDbLeader
  3
STANDARD
 73
     3
 74
     1
 75
     0
 40
0.0
 76
     2
 10
426.018839
 20
596.910403
 30
0.0
 10
309.500004
 20
526.859549
 30
0.0
 77
     6
1001
ACAD
1000
DSTYLE
1002
{
1070
    41
1040
35.0
1070
     5
1000
_EX_NORM
1070
     6
1000
_EX_NORM
1070
     7
1000
_EX_NORM
1070
   341
1005
32
1002
}
  0
LINE
  5
554
100
AcDbEntity
  8
止水栓
  6
CONTINUOUS
 62
     6
100
AcDbLine
 10
309.500004
 20
526.859549
 30
0.0
 11
222.500004
 21
526.859549
 31
0.0
  0
TEXT
  5
555
100
AcDbEntity
  8
止水栓
  6
CONTINUOUS
 62
     2
100
AcDbText
 10
254.85784
 20
545.559549
 30
0.0
 40
25.0
  1
１
 41
0.84
  7
EXCADSTD
 72
     5
 11
274.85784
 21
545.559549
 31
0.0
100
AcDbText
  0
TEXT
  5
556
100
AcDbEntity
  8
止水栓
  6
CONTINUOUS
 62
     2
100
AcDbText
 10
218.35784
 20
530.359549
 30
0.0
 40
40.0
  1
Ｒ
 41
0.945
  7
EXCADSTD
 72
     5
 11
254.35784
 21
530.359549
 31
0.0
100
AcDbText
  0
TEXT
  5
557
100
AcDbEntity
  8
止水栓
  6
CONTINUOUS
 62
     6
100
AcDbText
 10
264.85784
 20
530.359549
 30
0.0
 40
40.0
  1
／ 
 41
0.945
  7
EXCADSTD
 72
     5
 11
300.85784
 21
530.359549
 31
0.0
100
AcDbText
  0
TEXT
  5
558
100
AcDbEntity
  8
止水栓
  6
CONTINUOUS
 62
     2
100
AcDbText
 10
285.45784
 20
530.259549
 30
0.0
 40
25.0
  1
２
 41
0.84
  7
EXCADSTD
 72
     5
 11
305.45784
 21
530.259549
 31
0.0
100
AcDbText
  0
LINE
  5
559
100
AcDbEntity
  8
止水栓
  6
EXLTYPE3
 62
     6
100
AcDbLine
 10
1558.482913
 20
799.689607
 30
0.0
 11
1558.482913
 21
893.419626
 31
0.0
  0
LINE
  5
55A
100
AcDbEntity
  8
止水栓
  6
CONTINUOUS
 62
     6
100
AcDbLine
 10
1457.982696
 20
647.173606
 30
0.0
 11
1507.785043
 21
647.173606
 31
0.0
  0
LINE
  5
55B
100
AcDbEntity
  8
止水栓
  6
CONTINUOUS
 62
     6
100
AcDbLine
 10
1457.982696
 20
660.173606
 30
0.0
 11
1507.639891
 21
660.173606
 31
0.0
  0
LINE
  5
55C
100
AcDbEntity
  8
止水栓
  6
CONTINUOUS
 62
     6
100
AcDbLine
 10
1411.983184
 20
644.411587
 30
0.0
 11
1408.483011
 21
644.411587
 31
0.0
  0
LINE
  5
55D
100
AcDbEntity
  8
止水栓
  6
CONTINUOUS
 62
     6
100
AcDbLine
 10
1405.482971
 20
643.184086
 30
0.0
 11
1411.983184
 21
643.184086
 31
0.0
  0
LINE
  5
55E
100
AcDbEntity
  8
止水栓
  6
CONTINUOUS
 62
     6
100
AcDbLine
 10
1408.483011
 20
662.911587
 30
0.0
 11
1411.983184
 21
662.911587
 31
0.0
  0
LINE
  5
55F
100
AcDbEntity
  8
止水栓
  6
CONTINUOUS
 62
     6
100
AcDbLine
 10
1411.983184
 20
664.139095
 30
0.0
 11
1404.333928
 21
664.139095
 31
0.0
  0
LINE
  5
560
100
AcDbEntity
  8
止水栓
  6
CONTINUOUS
 62
     6
100
AcDbLine
 10
1408.483011
 20
664.139075
 30
0.0
 11
1408.483011
 21
643.184086
 31
0.0
  0
LINE
  5
561
100
AcDbEntity
  8
止水栓
  6
CONTINUOUS
 62
     6
100
AcDbLine
 10
1406.35688
 20
643.184086
 30
0.0
 11
1408.483009
 21
644.41161
 31
0.0
  0
ARC
  5
562
100
AcDbEntity
  8
止水栓
  6
CONTINUOUS
 62
     6
100
AcDbCircle
 10
1369.982971
 20
638.051541
 30
0.0
 40
6.5
100
AcDbArc
 50
332.204228
 51
0.0
  0
ARC
  5
563
100
AcDbEntity
  8
止水栓
  6
CONTINUOUS
 62
     6
100
AcDbCircle
 10
1406.982971
 20
638.051541
 30
0.0
 40
6.5
100
AcDbArc
 50
180.0
 51
207.795772
  0
ARC
  5
564
100
AcDbEntity
  8
止水栓
  6
CONTINUOUS
 62
     6
100
AcDbCircle
 10
1394.857971
 20
644.55988
 30
0.0
 40
18.612052
100
AcDbArc
 50
249.969519
 51
290.030481
  0
ARC
  5
565
100
AcDbEntity
  8
止水栓
  6
CONTINUOUS
 62
     6
100
AcDbCircle
 10
1382.107971
 20
644.55988
 30
0.0
 40
18.612052
100
AcDbArc
 50
249.969519
 51
290.030481
  0
ARC
  5
566
100
AcDbEntity
  8
止水栓
  6
CONTINUOUS
 62
     6
100
AcDbCircle
 10
1394.857971
 20
624.837499
 30
0.0
 40
10.182953
100
AcDbArc
 50
51.240977
 51
128.759023
  0
ARC
  5
567
100
AcDbEntity
  8
止水栓
  6
CONTINUOUS
 62
     6
100
AcDbCircle
 10
1382.107971
 20
624.837499
 30
0.0
 40
10.182953
100
AcDbArc
 50
51.240977
 51
128.759023
  0
LINE
  5
568
100
AcDbEntity
  8
止水栓
  6
CONTINUOUS
 62
     6
100
AcDbLine
 10
1376.232971
 20
625.659153
 30
0.0
 11
1375.732971
 21
625.947828
 31
0.0
  0
LINE
  5
569
100
AcDbEntity
  8
止水栓
  6
CONTINUOUS
 62
     6
100
AcDbLine
 10
1400.732971
 20
625.659153
 30
0.0
 11
1401.232971
 21
625.947828
 31
0.0
  0
LINE
  5
56A
100
AcDbEntity
  8
止水栓
  6
CONTINUOUS
 62
     6
100
AcDbLine
 10
1401.232971
 20
635.020452
 30
0.0
 11
1401.232971
 21
625.947828
 31
0.0
  0
LINE
  5
56B
100
AcDbEntity
  8
止水栓
  6
CONTINUOUS
 62
     6
100
AcDbLine
 10
1375.732971
 20
635.020452
 30
0.0
 11
1375.732971
 21
625.947828
 31
0.0
  0
LINE
  5
56C
100
AcDbEntity
  8
止水栓
  6
CONTINUOUS
 62
     6
100
AcDbLine
 10
1376.232971
 20
625.659153
 30
0.0
 11
1400.732971
 21
625.659153
 31
0.0
  0
LINE
  5
56D
100
AcDbEntity
  8
止水栓
  6
CONTINUOUS
 62
     6
100
AcDbLine
 10
1398.659322
 20
624.455631
 30
0.0
 11
1378.266775
 21
624.455631
 31
0.0
  0
LINE
  5
56E
100
AcDbEntity
  8
止水栓
  6
CONTINUOUS
 62
     6
100
AcDbLine
 10
1398.62345
 20
625.662353
 30
0.0
 11
1398.713049
 21
622.648309
 31
0.0
  0
LINE
  5
56F
100
AcDbEntity
  8
止水栓
  6
CONTINUOUS
 62
     6
100
AcDbLine
 10
1397.623008
 20
625.662353
 30
0.0
 11
1397.65888
 21
624.455631
 31
0.0
  0
LINE
  5
570
100
AcDbEntity
  8
止水栓
  6
CONTINUOUS
 62
     6
100
AcDbLine
 10
1398.713049
 20
622.648309
 30
0.0
 11
1397.65888
 21
624.455631
 31
0.0
  0
LINE
  5
571
100
AcDbEntity
  8
止水栓
  6
CONTINUOUS
 62
     6
100
AcDbLine
 10
1398.713049
 20
622.648309
 30
0.0
 11
1398.713049
 21
615.985108
 31
0.0
  0
LINE
  5
572
100
AcDbEntity
  8
止水栓
  6
CONTINUOUS
 62
     6
100
AcDbLine
 10
1378.302647
 20
625.662353
 30
0.0
 11
1378.213049
 21
622.648309
 31
0.0
  0
LINE
  5
573
100
AcDbEntity
  8
止水栓
  6
CONTINUOUS
 62
     6
100
AcDbLine
 10
1379.303089
 20
625.662353
 30
0.0
 11
1379.267217
 21
624.455631
 31
0.0
  0
LINE
  5
574
100
AcDbEntity
  8
止水栓
  6
CONTINUOUS
 62
     6
100
AcDbLine
 10
1378.213049
 20
622.648309
 30
0.0
 11
1379.267217
 21
624.455631
 31
0.0
  0
LINE
  5
575
100
AcDbEntity
  8
止水栓
  6
CONTINUOUS
 62
     6
100
AcDbLine
 10
1378.213049
 20
622.648309
 30
0.0
 11
1378.213049
 21
615.985108
 31
0.0
  0
LINE
  5
576
100
AcDbEntity
  8
止水栓
  6
CONTINUOUS
 62
     6
100
AcDbLine
 10
1415.982971
 20
599.985108
 30
0.0
 11
1415.982971
 21
601.985108
 31
0.0
  0
ARC
  5
577
100
AcDbEntity
  8
止水栓
  6
CONTINUOUS
 62
     6
100
AcDbCircle
 10
1401.982971
 20
601.985108
 30
0.0
 40
14.0
100
AcDbArc
 50
0.0
 51
90.0
  0
LINE
  5
578
100
AcDbEntity
  8
止水栓
  6
CONTINUOUS
 62
     6
100
AcDbLine
 10
1360.982971
 20
599.985108
 30
0.0
 11
1360.982971
 21
601.985108
 31
0.0
  0
ARC
  5
579
100
AcDbEntity
  8
止水栓
  6
CONTINUOUS
 62
     6
100
AcDbCircle
 10
1374.982971
 20
601.985108
 30
0.0
 40
14.0
100
AcDbArc
 50
90.0
 51
180.0
  0
LINE
  5
57A
100
AcDbEntity
  8
止水栓
  6
CONTINUOUS
 62
     6
100
AcDbLine
 10
1378.182971
 20
594.305108
 30
0.0
 11
1378.213596
 21
593.325108
 31
0.0
  0
LINE
  5
57B
100
AcDbEntity
  8
止水栓
  6
CONTINUOUS
 62
     6
100
AcDbLine
 10
1378.182971
 20
599.985108
 30
0.0
 11
1378.182971
 21
594.305108
 31
0.0
  0
LINE
  5
57C
100
AcDbEntity
  8
止水栓
  6
CONTINUOUS
 62
     6
100
AcDbLine
 10
1378.214596
 20
593.324108
 30
0.0
 11
1379.713596
 21
591.825108
 31
0.0
  0
LINE
  5
57D
100
AcDbEntity
  8
止水栓
  6
CONTINUOUS
 62
     6
100
AcDbLine
 10
1379.412455
 20
592.145624
 30
0.0
 11
1379.167471
 21
599.985108
 31
0.0
  0
LINE
  5
57E
100
AcDbEntity
  8
止水栓
  6
CONTINUOUS
 62
     6
100
AcDbLine
 10
1397.252346
 20
591.825108
 30
0.0
 11
1379.713596
 21
591.825108
 31
0.0
  0
LINE
  5
57F
100
AcDbEntity
  8
止水栓
  6
CONTINUOUS
 62
     6
100
AcDbLine
 10
1398.751346
 20
593.324108
 30
0.0
 11
1397.252346
 21
591.825108
 31
0.0
  0
LINE
  5
580
100
AcDbEntity
  8
止水栓
  6
CONTINUOUS
 62
     6
100
AcDbLine
 10
1398.782971
 20
594.305108
 30
0.0
 11
1398.752346
 21
593.325108
 31
0.0
  0
LINE
  5
581
100
AcDbEntity
  8
止水栓
  6
CONTINUOUS
 62
     6
100
AcDbLine
 10
1398.752346
 20
593.325108
 30
0.0
 11
1378.213596
 21
593.325108
 31
0.0
  0
LINE
  5
582
100
AcDbEntity
  8
止水栓
  6
CONTINUOUS
 62
     6
100
AcDbLine
 10
1397.553487
 20
592.145624
 30
0.0
 11
1397.798471
 21
599.985108
 31
0.0
  0
LINE
  5
583
100
AcDbEntity
  8
止水栓
  6
CONTINUOUS
 62
     6
100
AcDbLine
 10
1398.782971
 20
599.985108
 30
0.0
 11
1398.782971
 21
594.305108
 31
0.0
  0
LINE
  5
584
100
AcDbEntity
  8
止水栓
  6
CONTINUOUS
 62
     6
100
AcDbLine
 10
1401.982971
 20
615.985108
 30
0.0
 11
1374.982971
 21
615.985108
 31
0.0
  0
LINE
  5
585
100
AcDbEntity
  8
止水栓
  6
CONTINUOUS
 62
     6
100
AcDbLine
 10
1400.482971
 20
638.172124
 30
0.0
 11
1400.482971
 21
638.051541
 31
0.0
  0
ARC
  5
586
100
AcDbEntity
  8
止水栓
  6
CONTINUOUS
 62
     6
100
AcDbCircle
 10
1405.482971
 20
638.184086
 30
0.0
 40
5.0
100
AcDbArc
 50
90.0
 51
180.0
  0
LINE
  5
587
100
AcDbEntity
  8
止水栓
  6
CONTINUOUS
 62
     6
100
AcDbLine
 10
1376.482971
 20
638.051541
 30
0.0
 11
1376.482971
 21
674.661576
 31
0.0
  0
LINE
  5
588
100
AcDbEntity
  8
止水栓
  6
CONTINUOUS
 62
     6
100
AcDbLine
 10
1406.356882
 20
664.139091
 30
0.0
 11
1408.483011
 21
662.911567
 31
0.0
  0
ARC
  5
589
100
AcDbEntity
  8
止水栓
  6
CONTINUOUS
 62
     6
100
AcDbCircle
 10
1404.981798
 20
669.096943
 30
0.0
 40
5.0
100
AcDbArc
 50
205.872755
 51
262.555023
  0
LINE
  5
58A
100
AcDbEntity
  8
止水栓
  6
CONTINUOUS
 62
     6
100
AcDbLine
 10
1400.482971
 20
674.661576
 30
0.0
 11
1400.482971
 21
666.915073
 31
0.0
  0
LINE
  5
58B
100
AcDbEntity
  8
止水栓
  6
CONTINUOUS
 62
     6
100
AcDbLine
 10
1400.482971
 20
674.661576
 30
0.0
 11
1376.482971
 21
674.661576
 31
0.0
  0
LINE
  5
58C
100
AcDbEntity
  8
止水栓
  6
CONTINUOUS
 62
     6
100
AcDbLine
 10
1379.482971
 20
675.361576
 30
0.0
 11
1379.482971
 21
674.661576
 31
0.0
  0
LINE
  5
58D
100
AcDbEntity
  8
止水栓
  6
CONTINUOUS
 62
     6
100
AcDbLine
 10
1397.482971
 20
675.361576
 30
0.0
 11
1397.482971
 21
674.661576
 31
0.0
  0
LINE
  5
58E
100
AcDbEntity
  8
止水栓
  6
CONTINUOUS
 62
     6
100
AcDbLine
 10
1387.582971
 20
675.361576
 30
0.0
 11
1387.582971
 21
674.661576
 31
0.0
  0
LINE
  5
58F
100
AcDbEntity
  8
止水栓
  6
CONTINUOUS
 62
     6
100
AcDbLine
 10
1389.382971
 20
675.361576
 30
0.0
 11
1389.382971
 21
674.661576
 31
0.0
  0
LINE
  5
590
100
AcDbEntity
  8
止水栓
  6
CONTINUOUS
 62
     6
100
AcDbLine
 10
1389.382971
 20
675.361576
 30
0.0
 11
1397.482971
 21
675.361576
 31
0.0
  0
LINE
  5
591
100
AcDbEntity
  8
止水栓
  6
CONTINUOUS
 62
     6
100
AcDbLine
 10
1387.582971
 20
675.361576
 30
0.0
 11
1379.482971
 21
675.361576
 31
0.0
  0
ARC
  5
592
100
AcDbEntity
  8
止水栓
  6
CONTINUOUS
 62
     6
100
AcDbCircle
 10
1417.98172
 20
655.411306
 30
0.0
 40
10.99987
100
AcDbArc
 50
56.937744
 51
123.054688
  0
LINE
  5
593
100
AcDbEntity
  8
止水栓
  6
CONTINUOUS
 62
     6
100
AcDbLine
 10
1423.982696
 20
664.160818
 30
0.0
 11
1428.982696
 21
664.160818
 31
0.0
  0
POLYLINE
  5
594
100
AcDbEntity
  8
止水栓
  6
CONTINUOUS
 62
     6
100
AcDb2dPolyline
 66
     1
 10
0.0
 20
0.0
 30
0.0
 70
   128
  0
VERTEX
  5
595
100
AcDbEntity
  8
止水栓
  6
CONTINUOUS
 62
     6
100
AcDbVertex
100
AcDb2dVertex
 10
1418.240509
 20
661.263357
 30
0.0
  0
VERTEX
  5
596
100
AcDbEntity
  8
止水栓
  6
CONTINUOUS
 62
     6
100
AcDbVertex
100
AcDb2dVertex
 10
1418.643341
 20
661.273122
 30
0.0
  0
VERTEX
  5
597
100
AcDbEntity
  8
止水栓
  6
CONTINUOUS
 62
     6
100
AcDbVertex
100
AcDb2dVertex
 10
1419.043731
 20
661.302419
 30
0.0
  0
VERTEX
  5
598
100
AcDbEntity
  8
止水栓
  6
CONTINUOUS
 62
     6
100
AcDbVertex
100
AcDb2dVertex
 10
1419.439239
 20
661.348806
 30
0.0
  0
VERTEX
  5
599
100
AcDbEntity
  8
止水栓
  6
CONTINUOUS
 62
     6
100
AcDbVertex
100
AcDb2dVertex
 10
1419.82254
 20
661.412282
 30
0.0
  0
VERTEX
  5
59A
100
AcDbEntity
  8
止水栓
  6
CONTINUOUS
 62
     6
100
AcDbVertex
100
AcDb2dVertex
 10
1420.196075
 20
661.492849
 30
0.0
  0
VERTEX
  5
59B
100
AcDbEntity
  8
止水栓
  6
CONTINUOUS
 62
     6
100
AcDbVertex
100
AcDb2dVertex
 10
1420.554962
 20
661.592947
 30
0.0
  0
VERTEX
  5
59C
100
AcDbEntity
  8
止水栓
  6
CONTINUOUS
 62
     6
100
AcDbVertex
100
AcDb2dVertex
 10
1420.894317
 20
661.707693
 30
0.0
  0
VERTEX
  5
59D
100
AcDbEntity
  8
止水栓
  6
CONTINUOUS
 62
     6
100
AcDbVertex
100
AcDb2dVertex
 10
1421.216583
 20
661.837087
 30
0.0
  0
VERTEX
  5
59E
100
AcDbEntity
  8
止水栓
  6
CONTINUOUS
 62
     6
100
AcDbVertex
100
AcDb2dVertex
 10
1421.514434
 20
661.98113
 30
0.0
  0
VERTEX
  5
59F
100
AcDbEntity
  8
止水栓
  6
CONTINUOUS
 62
     6
100
AcDbVertex
100
AcDb2dVertex
 10
1421.78543
 20
662.139822
 30
0.0
  0
VERTEX
  5
5A0
100
AcDbEntity
  8
止水栓
  6
CONTINUOUS
 62
     6
100
AcDbVertex
100
AcDb2dVertex
 10
1422.032013
 20
662.308279
 30
0.0
  0
VERTEX
  5
5A1
100
AcDbEntity
  8
止水栓
  6
CONTINUOUS
 62
     6
100
AcDbVertex
100
AcDb2dVertex
 10
1422.249298
 20
662.488943
 30
0.0
  0
VERTEX
  5
5A2
100
AcDbEntity
  8
止水栓
  6
CONTINUOUS
 62
     6
100
AcDbVertex
100
AcDb2dVertex
 10
1422.437286
 20
662.679372
 30
0.0
  0
VERTEX
  5
5A3
100
AcDbEntity
  8
止水栓
  6
CONTINUOUS
 62
     6
100
AcDbVertex
100
AcDb2dVertex
 10
1422.591095
 20
662.877126
 30
0.0
  0
VERTEX
  5
5A4
100
AcDbEntity
  8
止水栓
  6
CONTINUOUS
 62
     6
100
AcDbVertex
100
AcDb2dVertex
 10
1422.710723
 20
663.079763
 30
0.0
  0
VERTEX
  5
5A5
100
AcDbEntity
  8
止水栓
  6
CONTINUOUS
 62
     6
100
AcDbVertex
100
AcDb2dVertex
 10
1422.798614
 20
663.289724
 30
0.0
  0
VERTEX
  5
5A6
100
AcDbEntity
  8
止水栓
  6
CONTINUOUS
 62
     6
100
AcDbVertex
100
AcDb2dVertex
 10
1422.852325
 20
663.499685
 30
0.0
  0
VERTEX
  5
5A7
100
AcDbEntity
  8
止水栓
  6
CONTINUOUS
 62
     6
100
AcDbVertex
100
AcDb2dVertex
 10
1422.869415
 20
663.714529
 30
0.0
  0
VERTEX
  5
5A8
100
AcDbEntity
  8
止水栓
  6
CONTINUOUS
 62
     6
100
AcDbVertex
100
AcDb2dVertex
 10
1422.852325
 20
663.926931
 30
0.0
  0
VERTEX
  5
5A9
100
AcDbEntity
  8
止水栓
  6
CONTINUOUS
 62
     6
100
AcDbVertex
100
AcDb2dVertex
 10
1422.798614
 20
664.139333
 30
0.0
  0
VERTEX
  5
5AA
100
AcDbEntity
  8
止水栓
  6
CONTINUOUS
 62
     6
100
AcDbVertex
100
AcDb2dVertex
 10
1422.710723
 20
664.349294
 30
0.0
  0
VERTEX
  5
5AB
100
AcDbEntity
  8
止水栓
  6
CONTINUOUS
 62
     6
100
AcDbVertex
100
AcDb2dVertex
 10
1422.591095
 20
664.551931
 30
0.0
  0
VERTEX
  5
5AC
100
AcDbEntity
  8
止水栓
  6
CONTINUOUS
 62
     6
100
AcDbVertex
100
AcDb2dVertex
 10
1422.434845
 20
664.749685
 30
0.0
  0
VERTEX
  5
5AD
100
AcDbEntity
  8
止水栓
  6
CONTINUOUS
 62
     6
100
AcDbVertex
100
AcDb2dVertex
 10
1422.249298
 20
664.937673
 30
0.0
  0
VERTEX
  5
5AE
100
AcDbEntity
  8
止水栓
  6
CONTINUOUS
 62
     6
100
AcDbVertex
100
AcDb2dVertex
 10
1422.032013
 20
665.118337
 30
0.0
  0
VERTEX
  5
5AF
100
AcDbEntity
  8
止水栓
  6
CONTINUOUS
 62
     6
100
AcDbVertex
100
AcDb2dVertex
 10
1421.787872
 20
665.289236
 30
0.0
  0
VERTEX
  5
5B0
100
AcDbEntity
  8
止水栓
  6
CONTINUOUS
 62
     6
100
AcDbVertex
100
AcDb2dVertex
 10
1421.514434
 20
665.445486
 30
0.0
  0
VERTEX
  5
5B1
100
AcDbEntity
  8
止水栓
  6
CONTINUOUS
 62
     6
100
AcDbVertex
100
AcDb2dVertex
 10
1421.216583
 20
665.589529
 30
0.0
  0
VERTEX
  5
5B2
100
AcDbEntity
  8
止水栓
  6
CONTINUOUS
 62
     6
100
AcDbVertex
100
AcDb2dVertex
 10
1420.894317
 20
665.721364
 30
0.0
  0
VERTEX
  5
5B3
100
AcDbEntity
  8
止水栓
  6
CONTINUOUS
 62
     6
100
AcDbVertex
100
AcDb2dVertex
 10
1420.554962
 20
665.836111
 30
0.0
  0
VERTEX
  5
5B4
100
AcDbEntity
  8
止水栓
  6
CONTINUOUS
 62
     6
100
AcDbVertex
100
AcDb2dVertex
 10
1420.196075
 20
665.933767
 30
0.0
  0
VERTEX
  5
5B5
100
AcDbEntity
  8
止水栓
  6
CONTINUOUS
 62
     6
100
AcDbVertex
100
AcDb2dVertex
 10
1419.824981
 20
666.014333
 30
0.0
  0
VERTEX
  5
5B6
100
AcDbEntity
  8
止水栓
  6
CONTINUOUS
 62
     6
100
AcDbVertex
100
AcDb2dVertex
 10
1419.439239
 20
666.080251
 30
0.0
  0
VERTEX
  5
5B7
100
AcDbEntity
  8
止水栓
  6
CONTINUOUS
 62
     6
100
AcDbVertex
100
AcDb2dVertex
 10
1419.043731
 20
666.126638
 30
0.0
  0
VERTEX
  5
5B8
100
AcDbEntity
  8
止水栓
  6
CONTINUOUS
 62
     6
100
AcDbVertex
100
AcDb2dVertex
 10
1418.643341
 20
666.153493
 30
0.0
  0
VERTEX
  5
5B9
100
AcDbEntity
  8
止水栓
  6
CONTINUOUS
 62
     6
100
AcDbVertex
100
AcDb2dVertex
 10
1418.240509
 20
666.163259
 30
0.0
  0
VERTEX
  5
5BA
100
AcDbEntity
  8
止水栓
  6
CONTINUOUS
 62
     6
100
AcDbVertex
100
AcDb2dVertex
 10
1417.837677
 20
666.153493
 30
0.0
  0
VERTEX
  5
5BB
100
AcDbEntity
  8
止水栓
  6
CONTINUOUS
 62
     6
100
AcDbVertex
100
AcDb2dVertex
 10
1417.437286
 20
666.126638
 30
0.0
  0
VERTEX
  5
5BC
100
AcDbEntity
  8
止水栓
  6
CONTINUOUS
 62
     6
100
AcDbVertex
100
AcDb2dVertex
 10
1417.041778
 20
666.080251
 30
0.0
  0
VERTEX
  5
5BD
100
AcDbEntity
  8
止水栓
  6
CONTINUOUS
 62
     6
100
AcDbVertex
100
AcDb2dVertex
 10
1416.656036
 20
666.016775
 30
0.0
  0
VERTEX
  5
5BE
100
AcDbEntity
  8
止水栓
  6
CONTINUOUS
 62
     6
100
AcDbVertex
100
AcDb2dVertex
 10
1416.282501
 20
665.933767
 30
0.0
  0
VERTEX
  5
5BF
100
AcDbEntity
  8
止水栓
  6
CONTINUOUS
 62
     6
100
AcDbVertex
100
AcDb2dVertex
 10
1415.923614
 20
665.836111
 30
0.0
  0
VERTEX
  5
5C0
100
AcDbEntity
  8
止水栓
  6
CONTINUOUS
 62
     6
100
AcDbVertex
100
AcDb2dVertex
 10
1415.584259
 20
665.721364
 30
0.0
  0
VERTEX
  5
5C1
100
AcDbEntity
  8
止水栓
  6
CONTINUOUS
 62
     6
100
AcDbVertex
100
AcDb2dVertex
 10
1415.261993
 20
665.589529
 30
0.0
  0
VERTEX
  5
5C2
100
AcDbEntity
  8
止水栓
  6
CONTINUOUS
 62
     6
100
AcDbVertex
100
AcDb2dVertex
 10
1414.966583
 20
665.445486
 30
0.0
  0
VERTEX
  5
5C3
100
AcDbEntity
  8
止水栓
  6
CONTINUOUS
 62
     6
100
AcDbVertex
100
AcDb2dVertex
 10
1414.693145
 20
665.289236
 30
0.0
  0
VERTEX
  5
5C4
100
AcDbEntity
  8
止水栓
  6
CONTINUOUS
 62
     6
100
AcDbVertex
100
AcDb2dVertex
 10
1414.446563
 20
665.118337
 30
0.0
  0
VERTEX
  5
5C5
100
AcDbEntity
  8
止水栓
  6
CONTINUOUS
 62
     6
100
AcDbVertex
100
AcDb2dVertex
 10
1414.229278
 20
664.940114
 30
0.0
  0
VERTEX
  5
5C6
100
AcDbEntity
  8
止水栓
  6
CONTINUOUS
 62
     6
100
AcDbVertex
100
AcDb2dVertex
 10
1414.043731
 20
664.749685
 30
0.0
  0
VERTEX
  5
5C7
100
AcDbEntity
  8
止水栓
  6
CONTINUOUS
 62
     6
100
AcDbVertex
100
AcDb2dVertex
 10
1413.889923
 20
664.551931
 30
0.0
  0
VERTEX
  5
5C8
100
AcDbEntity
  8
止水栓
  6
CONTINUOUS
 62
     6
100
AcDbVertex
100
AcDb2dVertex
 10
1413.767852
 20
664.349294
 30
0.0
  0
VERTEX
  5
5C9
100
AcDbEntity
  8
止水栓
  6
CONTINUOUS
 62
     6
100
AcDbVertex
100
AcDb2dVertex
 10
1413.679962
 20
664.139333
 30
0.0
  0
VERTEX
  5
5CA
100
AcDbEntity
  8
止水栓
  6
CONTINUOUS
 62
     6
100
AcDbVertex
100
AcDb2dVertex
 10
1413.626251
 20
663.926931
 30
0.0
  0
VERTEX
  5
5CB
100
AcDbEntity
  8
止水栓
  6
CONTINUOUS
 62
     6
100
AcDbVertex
100
AcDb2dVertex
 10
1413.609161
 20
663.714529
 30
0.0
  0
VERTEX
  5
5CC
100
AcDbEntity
  8
止水栓
  6
CONTINUOUS
 62
     6
100
AcDbVertex
100
AcDb2dVertex
 10
1413.628692
 20
663.499685
 30
0.0
  0
VERTEX
  5
5CD
100
AcDbEntity
  8
止水栓
  6
CONTINUOUS
 62
     6
100
AcDbVertex
100
AcDb2dVertex
 10
1413.679962
 20
663.289724
 30
0.0
  0
VERTEX
  5
5CE
100
AcDbEntity
  8
止水栓
  6
CONTINUOUS
 62
     6
100
AcDbVertex
100
AcDb2dVertex
 10
1413.767852
 20
663.079763
 30
0.0
  0
VERTEX
  5
5CF
100
AcDbEntity
  8
止水栓
  6
CONTINUOUS
 62
     6
100
AcDbVertex
100
AcDb2dVertex
 10
1413.889923
 20
662.877126
 30
0.0
  0
VERTEX
  5
5D0
100
AcDbEntity
  8
止水栓
  6
CONTINUOUS
 62
     6
100
AcDbVertex
100
AcDb2dVertex
 10
1414.043731
 20
662.679372
 30
0.0
  0
SEQEND
  5
5D1
100
AcDbEntity
  8
止水栓
  6
CONTINUOUS
 62
     6
  0
POLYLINE
  5
5D2
100
AcDbEntity
  8
止水栓
  6
CONTINUOUS
 62
     6
100
AcDb2dPolyline
 66
     1
 10
0.0
 20
0.0
 30
0.0
 70
   128
  0
VERTEX
  5
5D3
100
AcDbEntity
  8
止水栓
  6
CONTINUOUS
 62
     6
100
AcDbVertex
100
AcDb2dVertex
 10
1417.041778
 20
661.348806
 30
0.0
  0
VERTEX
  5
5D4
100
AcDbEntity
  8
止水栓
  6
CONTINUOUS
 62
     6
100
AcDbVertex
100
AcDb2dVertex
 10
1417.434845
 20
661.302419
 30
0.0
  0
VERTEX
  5
5D5
100
AcDbEntity
  8
止水栓
  6
CONTINUOUS
 62
     6
100
AcDbVertex
100
AcDb2dVertex
 10
1417.835235
 20
661.273122
 30
0.0
  0
VERTEX
  5
5D6
100
AcDbEntity
  8
止水栓
  6
CONTINUOUS
 62
     6
100
AcDbVertex
100
AcDb2dVertex
 10
1418.238067
 20
661.263357
 30
0.0
  0
SEQEND
  5
5D7
100
AcDbEntity
  8
止水栓
  6
CONTINUOUS
 62
     6
  0
POLYLINE
  5
5D8
100
AcDbEntity
  8
止水栓
  6
CONTINUOUS
 62
     6
100
AcDb2dPolyline
 66
     1
 10
0.0
 20
0.0
 30
0.0
 70
   128
  0
VERTEX
  5
5D9
100
AcDbEntity
  8
止水栓
  6
CONTINUOUS
 62
     6
100
AcDbVertex
100
AcDb2dVertex
 10
1414.043731
 20
662.679372
 30
0.0
  0
VERTEX
  5
5DA
100
AcDbEntity
  8
止水栓
  6
CONTINUOUS
 62
     6
100
AcDbVertex
100
AcDb2dVertex
 10
1414.229278
 20
662.488943
 30
0.0
  0
VERTEX
  5
5DB
100
AcDbEntity
  8
止水栓
  6
CONTINUOUS
 62
     6
100
AcDbVertex
100
AcDb2dVertex
 10
1414.446563
 20
662.308279
 30
0.0
  0
VERTEX
  5
5DC
100
AcDbEntity
  8
止水栓
  6
CONTINUOUS
 62
     6
100
AcDbVertex
100
AcDb2dVertex
 10
1414.693145
 20
662.139822
 30
0.0
  0
VERTEX
  5
5DD
100
AcDbEntity
  8
止水栓
  6
CONTINUOUS
 62
     6
100
AcDbVertex
100
AcDb2dVertex
 10
1414.966583
 20
661.98113
 30
0.0
  0
VERTEX
  5
5DE
100
AcDbEntity
  8
止水栓
  6
CONTINUOUS
 62
     6
100
AcDbVertex
100
AcDb2dVertex
 10
1415.264434
 20
661.837087
 30
0.0
  0
VERTEX
  5
5DF
100
AcDbEntity
  8
止水栓
  6
CONTINUOUS
 62
     6
100
AcDbVertex
100
AcDb2dVertex
 10
1415.584259
 20
661.707693
 30
0.0
  0
VERTEX
  5
5E0
100
AcDbEntity
  8
止水栓
  6
CONTINUOUS
 62
     6
100
AcDbVertex
100
AcDb2dVertex
 10
1415.923614
 20
661.592947
 30
0.0
  0
VERTEX
  5
5E1
100
AcDbEntity
  8
止水栓
  6
CONTINUOUS
 62
     6
100
AcDbVertex
100
AcDb2dVertex
 10
1416.282501
 20
661.492849
 30
0.0
  0
VERTEX
  5
5E2
100
AcDbEntity
  8
止水栓
  6
CONTINUOUS
 62
     6
100
AcDbVertex
100
AcDb2dVertex
 10
1416.656036
 20
661.412282
 30
0.0
  0
VERTEX
  5
5E3
100
AcDbEntity
  8
止水栓
  6
CONTINUOUS
 62
     6
100
AcDbVertex
100
AcDb2dVertex
 10
1417.041778
 20
661.348806
 30
0.0
  0
SEQEND
  5
5E4
100
AcDbEntity
  8
止水栓
  6
CONTINUOUS
 62
     6
  0
LINE
  5
5E5
100
AcDbEntity
  8
止水栓
  6
CONTINUOUS
 62
     6
100
AcDbLine
 10
1428.982696
 20
649.660818
 30
0.0
 11
1430.982696
 21
649.660818
 31
0.0
  0
LINE
  5
5E6
100
AcDbEntity
  8
止水栓
  6
CONTINUOUS
 62
     6
100
AcDbLine
 10
1428.982696
 20
657.660818
 30
0.0
 11
1430.982696
 21
657.660818
 31
0.0
  0
LINE
  5
5E7
100
AcDbEntity
  8
止水栓
  6
CONTINUOUS
 62
     6
100
AcDbLine
 10
1423.982696
 20
643.160818
 30
0.0
 11
1428.982696
 21
643.160818
 31
0.0
  0
ARC
  5
5E8
100
AcDbEntity
  8
止水栓
  6
CONTINUOUS
 62
     6
100
AcDbCircle
 10
1417.98172
 20
651.910329
 30
0.0
 40
10.998535
100
AcDbArc
 50
236.94841
 51
303.059082
  0
LINE
  5
5E9
100
AcDbEntity
  8
止水栓
  6
CONTINUOUS
 62
     6
100
AcDbLine
 10
1430.982696
 20
647.910818
 30
0.0
 11
1430.982696
 21
659.410818
 31
0.0
  0
POLYLINE
  5
5EA
100
AcDbEntity
  8
止水栓
  6
CONTINUOUS
 62
     6
100
AcDb2dPolyline
 66
     1
 10
0.0
 20
0.0
 30
0.0
 70
   128
  0
VERTEX
  5
5EB
100
AcDbEntity
  8
止水栓
  6
CONTINUOUS
 62
     6
100
AcDbVertex
100
AcDb2dVertex
 10
1413.7117
 20
642.579275
 30
0.0
  0
VERTEX
  5
5EC
100
AcDbEntity
  8
止水栓
  6
CONTINUOUS
 62
     6
100
AcDbVertex
100
AcDb2dVertex
 10
1413.911895
 20
642.391286
 30
0.0
  0
VERTEX
  5
5ED
100
AcDbEntity
  8
止水栓
  6
CONTINUOUS
 62
     6
100
AcDbVertex
100
AcDb2dVertex
 10
1414.14627
 20
642.210622
 30
0.0
  0
VERTEX
  5
5EE
100
AcDbEntity
  8
止水栓
  6
CONTINUOUS
 62
     6
100
AcDbVertex
100
AcDb2dVertex
 10
1414.409942
 20
642.039724
 30
0.0
  0
VERTEX
  5
5EF
100
AcDbEntity
  8
止水栓
  6
CONTINUOUS
 62
     6
100
AcDbVertex
100
AcDb2dVertex
 10
1414.705352
 20
641.883474
 30
0.0
  0
VERTEX
  5
5F0
100
AcDbEntity
  8
止水栓
  6
CONTINUOUS
 62
     6
100
AcDbVertex
100
AcDb2dVertex
 10
1415.025177
 20
641.739431
 30
0.0
  0
VERTEX
  5
5F1
100
AcDbEntity
  8
止水栓
  6
CONTINUOUS
 62
     6
100
AcDbVertex
100
AcDb2dVertex
 10
1415.371856
 20
641.607595
 30
0.0
  0
VERTEX
  5
5F2
100
AcDbEntity
  8
止水栓
  6
CONTINUOUS
 62
     6
100
AcDbVertex
100
AcDb2dVertex
 10
1415.738067
 20
641.492849
 30
0.0
  0
VERTEX
  5
5F3
100
AcDbEntity
  8
止水栓
  6
CONTINUOUS
 62
     6
100
AcDbVertex
100
AcDb2dVertex
 10
1416.123809
 20
641.395193
 30
0.0
  0
VERTEX
  5
5F4
100
AcDbEntity
  8
止水栓
  6
CONTINUOUS
 62
     6
100
AcDbVertex
100
AcDb2dVertex
 10
1416.526641
 20
641.314626
 30
0.0
  0
VERTEX
  5
5F5
100
AcDbEntity
  8
止水栓
  6
CONTINUOUS
 62
     6
100
AcDbVertex
100
AcDb2dVertex
 10
1416.94168
 20
641.248708
 30
0.0
  0
SEQEND
  5
5F6
100
AcDbEntity
  8
止水栓
  6
CONTINUOUS
 62
     6
  0
POLYLINE
  5
5F7
100
AcDbEntity
  8
止水栓
  6
CONTINUOUS
 62
     6
100
AcDb2dPolyline
 66
     1
 10
0.0
 20
0.0
 30
0.0
 70
   128
  0
VERTEX
  5
5F8
100
AcDbEntity
  8
止水栓
  6
CONTINUOUS
 62
     6
100
AcDbVertex
100
AcDb2dVertex
 10
1416.94168
 20
641.248708
 30
0.0
  0
VERTEX
  5
5F9
100
AcDbEntity
  8
止水栓
  6
CONTINUOUS
 62
     6
100
AcDbVertex
100
AcDb2dVertex
 10
1417.366485
 20
641.202322
 30
0.0
  0
VERTEX
  5
5FA
100
AcDbEntity
  8
止水栓
  6
CONTINUOUS
 62
     6
100
AcDbVertex
100
AcDb2dVertex
 10
1417.798614
 20
641.175466
 30
0.0
  0
VERTEX
  5
5FB
100
AcDbEntity
  8
止水栓
  6
CONTINUOUS
 62
     6
100
AcDbVertex
100
AcDb2dVertex
 10
1418.233184
 20
641.1657
 30
0.0
  0
SEQEND
  5
5FC
100
AcDbEntity
  8
止水栓
  6
CONTINUOUS
 62
     6
  0
POLYLINE
  5
5FD
100
AcDbEntity
  8
止水栓
  6
CONTINUOUS
 62
     6
100
AcDb2dPolyline
 66
     1
 10
0.0
 20
0.0
 30
0.0
 70
   128
  0
VERTEX
  5
5FE
100
AcDbEntity
  8
止水栓
  6
CONTINUOUS
 62
     6
100
AcDbVertex
100
AcDb2dVertex
 10
1418.233184
 20
641.1657
 30
0.0
  0
VERTEX
  5
5FF
100
AcDbEntity
  8
止水栓
  6
CONTINUOUS
 62
     6
100
AcDbVertex
100
AcDb2dVertex
 10
1418.670196
 20
641.175466
 30
0.0
  0
VERTEX
  5
600
100
AcDbEntity
  8
止水栓
  6
CONTINUOUS
 62
     6
100
AcDbVertex
100
AcDb2dVertex
 10
1419.102325
 20
641.202322
 30
0.0
  0
VERTEX
  5
601
100
AcDbEntity
  8
止水栓
  6
CONTINUOUS
 62
     6
100
AcDbVertex
100
AcDb2dVertex
 10
1419.52713
 20
641.248708
 30
0.0
  0
VERTEX
  5
602
100
AcDbEntity
  8
止水栓
  6
CONTINUOUS
 62
     6
100
AcDbVertex
100
AcDb2dVertex
 10
1419.942169
 20
641.314626
 30
0.0
  0
VERTEX
  5
603
100
AcDbEntity
  8
止水栓
  6
CONTINUOUS
 62
     6
100
AcDbVertex
100
AcDb2dVertex
 10
1420.342559
 20
641.395193
 30
0.0
  0
VERTEX
  5
604
100
AcDbEntity
  8
止水栓
  6
CONTINUOUS
 62
     6
100
AcDbVertex
100
AcDb2dVertex
 10
1420.728302
 20
641.492849
 30
0.0
  0
VERTEX
  5
605
100
AcDbEntity
  8
止水栓
  6
CONTINUOUS
 62
     6
100
AcDbVertex
100
AcDb2dVertex
 10
1421.096954
 20
641.610036
 30
0.0
  0
VERTEX
  5
606
100
AcDbEntity
  8
止水栓
  6
CONTINUOUS
 62
     6
100
AcDbVertex
100
AcDb2dVertex
 10
1421.441192
 20
641.739431
 30
0.0
  0
VERTEX
  5
607
100
AcDbEntity
  8
止水栓
  6
CONTINUOUS
 62
     6
100
AcDbVertex
100
AcDb2dVertex
 10
1421.763458
 20
641.883474
 30
0.0
  0
VERTEX
  5
608
100
AcDbEntity
  8
止水栓
  6
CONTINUOUS
 62
     6
100
AcDbVertex
100
AcDb2dVertex
 10
1422.056427
 20
642.042165
 30
0.0
  0
VERTEX
  5
609
100
AcDbEntity
  8
止水栓
  6
CONTINUOUS
 62
     6
100
AcDbVertex
100
AcDb2dVertex
 10
1422.32254
 20
642.210622
 30
0.0
  0
VERTEX
  5
60A
100
AcDbEntity
  8
止水栓
  6
CONTINUOUS
 62
     6
100
AcDbVertex
100
AcDb2dVertex
 10
1422.554473
 20
642.391286
 30
0.0
  0
VERTEX
  5
60B
100
AcDbEntity
  8
止水栓
  6
CONTINUOUS
 62
     6
100
AcDbVertex
100
AcDb2dVertex
 10
1422.75711
 20
642.579275
 30
0.0
  0
VERTEX
  5
60C
100
AcDbEntity
  8
止水栓
  6
CONTINUOUS
 62
     6
100
AcDbVertex
100
AcDb2dVertex
 10
1422.923126
 20
642.777029
 30
0.0
  0
VERTEX
  5
60D
100
AcDbEntity
  8
止水栓
  6
CONTINUOUS
 62
     6
100
AcDbVertex
100
AcDb2dVertex
 10
1423.054962
 20
642.982107
 30
0.0
  0
VERTEX
  5
60E
100
AcDbEntity
  8
止水栓
  6
CONTINUOUS
 62
     6
100
AcDbVertex
100
AcDb2dVertex
 10
1423.147735
 20
643.189626
 30
0.0
  0
VERTEX
  5
60F
100
AcDbEntity
  8
止水栓
  6
CONTINUOUS
 62
     6
100
AcDbVertex
100
AcDb2dVertex
 10
1423.206329
 20
643.402029
 30
0.0
  0
VERTEX
  5
610
100
AcDbEntity
  8
止水栓
  6
CONTINUOUS
 62
     6
100
AcDbVertex
100
AcDb2dVertex
 10
1423.223419
 20
643.614431
 30
0.0
  0
VERTEX
  5
611
100
AcDbEntity
  8
止水栓
  6
CONTINUOUS
 62
     6
100
AcDbVertex
100
AcDb2dVertex
 10
1423.203888
 20
643.829275
 30
0.0
  0
VERTEX
  5
612
100
AcDbEntity
  8
止水栓
  6
CONTINUOUS
 62
     6
100
AcDbVertex
100
AcDb2dVertex
 10
1423.147735
 20
644.041677
 30
0.0
  0
VERTEX
  5
613
100
AcDbEntity
  8
止水栓
  6
CONTINUOUS
 62
     6
100
AcDbVertex
100
AcDb2dVertex
 10
1423.054962
 20
644.249197
 30
0.0
  0
VERTEX
  5
614
100
AcDbEntity
  8
止水栓
  6
CONTINUOUS
 62
     6
100
AcDbVertex
100
AcDb2dVertex
 10
1422.923126
 20
644.454275
 30
0.0
  0
VERTEX
  5
615
100
AcDbEntity
  8
止水栓
  6
CONTINUOUS
 62
     6
100
AcDbVertex
100
AcDb2dVertex
 10
1422.75711
 20
644.652029
 30
0.0
  0
VERTEX
  5
616
100
AcDbEntity
  8
止水栓
  6
CONTINUOUS
 62
     6
100
AcDbVertex
100
AcDb2dVertex
 10
1422.554473
 20
644.840017
 30
0.0
  0
VERTEX
  5
617
100
AcDbEntity
  8
止水栓
  6
CONTINUOUS
 62
     6
100
AcDbVertex
100
AcDb2dVertex
 10
1422.320098
 20
645.020681
 30
0.0
  0
VERTEX
  5
618
100
AcDbEntity
  8
止水栓
  6
CONTINUOUS
 62
     6
100
AcDbVertex
100
AcDb2dVertex
 10
1422.056427
 20
645.189138
 30
0.0
  0
VERTEX
  5
619
100
AcDbEntity
  8
止水栓
  6
CONTINUOUS
 62
     6
100
AcDbVertex
100
AcDb2dVertex
 10
1421.763458
 20
645.347829
 30
0.0
  0
VERTEX
  5
61A
100
AcDbEntity
  8
止水栓
  6
CONTINUOUS
 62
     6
100
AcDbVertex
100
AcDb2dVertex
 10
1421.441192
 20
645.491872
 30
0.0
  0
VERTEX
  5
61B
100
AcDbEntity
  8
止水栓
  6
CONTINUOUS
 62
     6
100
AcDbVertex
100
AcDb2dVertex
 10
1421.096954
 20
645.621267
 30
0.0
  0
VERTEX
  5
61C
100
AcDbEntity
  8
止水栓
  6
CONTINUOUS
 62
     6
100
AcDbVertex
100
AcDb2dVertex
 10
1420.728302
 20
645.736013
 30
0.0
  0
VERTEX
  5
61D
100
AcDbEntity
  8
止水栓
  6
CONTINUOUS
 62
     6
100
AcDbVertex
100
AcDb2dVertex
 10
1420.342559
 20
645.836111
 30
0.0
  0
VERTEX
  5
61E
100
AcDbEntity
  8
止水栓
  6
CONTINUOUS
 62
     6
100
AcDbVertex
100
AcDb2dVertex
 10
1419.939727
 20
645.916677
 30
0.0
  0
VERTEX
  5
61F
100
AcDbEntity
  8
止水栓
  6
CONTINUOUS
 62
     6
100
AcDbVertex
100
AcDb2dVertex
 10
1419.524688
 20
645.982595
 30
0.0
  0
VERTEX
  5
620
100
AcDbEntity
  8
止水栓
  6
CONTINUOUS
 62
     6
100
AcDbVertex
100
AcDb2dVertex
 10
1419.099884
 20
646.028982
 30
0.0
  0
VERTEX
  5
621
100
AcDbEntity
  8
止水栓
  6
CONTINUOUS
 62
     6
100
AcDbVertex
100
AcDb2dVertex
 10
1418.667755
 20
646.055837
 30
0.0
  0
VERTEX
  5
622
100
AcDbEntity
  8
止水栓
  6
CONTINUOUS
 62
     6
100
AcDbVertex
100
AcDb2dVertex
 10
1418.233184
 20
646.065603
 30
0.0
  0
VERTEX
  5
623
100
AcDbEntity
  8
止水栓
  6
CONTINUOUS
 62
     6
100
AcDbVertex
100
AcDb2dVertex
 10
1417.798614
 20
646.055837
 30
0.0
  0
VERTEX
  5
624
100
AcDbEntity
  8
止水栓
  6
CONTINUOUS
 62
     6
100
AcDbVertex
100
AcDb2dVertex
 10
1417.366485
 20
646.02654
 30
0.0
  0
VERTEX
  5
625
100
AcDbEntity
  8
止水栓
  6
CONTINUOUS
 62
     6
100
AcDbVertex
100
AcDb2dVertex
 10
1416.94168
 20
645.980154
 30
0.0
  0
VERTEX
  5
626
100
AcDbEntity
  8
止水栓
  6
CONTINUOUS
 62
     6
100
AcDbVertex
100
AcDb2dVertex
 10
1416.526641
 20
645.916677
 30
0.0
  0
VERTEX
  5
627
100
AcDbEntity
  8
止水栓
  6
CONTINUOUS
 62
     6
100
AcDbVertex
100
AcDb2dVertex
 10
1416.123809
 20
645.836111
 30
0.0
  0
VERTEX
  5
628
100
AcDbEntity
  8
止水栓
  6
CONTINUOUS
 62
     6
100
AcDbVertex
100
AcDb2dVertex
 10
1415.738067
 20
645.736013
 30
0.0
  0
VERTEX
  5
629
100
AcDbEntity
  8
止水栓
  6
CONTINUOUS
 62
     6
100
AcDbVertex
100
AcDb2dVertex
 10
1415.371856
 20
645.621267
 30
0.0
  0
VERTEX
  5
62A
100
AcDbEntity
  8
止水栓
  6
CONTINUOUS
 62
     6
100
AcDbVertex
100
AcDb2dVertex
 10
1415.025177
 20
645.491872
 30
0.0
  0
VERTEX
  5
62B
100
AcDbEntity
  8
止水栓
  6
CONTINUOUS
 62
     6
100
AcDbVertex
100
AcDb2dVertex
 10
1414.705352
 20
645.347829
 30
0.0
  0
VERTEX
  5
62C
100
AcDbEntity
  8
止水栓
  6
CONTINUOUS
 62
     6
100
AcDbVertex
100
AcDb2dVertex
 10
1414.409942
 20
645.189138
 30
0.0
  0
VERTEX
  5
62D
100
AcDbEntity
  8
止水栓
  6
CONTINUOUS
 62
     6
100
AcDbVertex
100
AcDb2dVertex
 10
1414.14627
 20
645.020681
 30
0.0
  0
VERTEX
  5
62E
100
AcDbEntity
  8
止水栓
  6
CONTINUOUS
 62
     6
100
AcDbVertex
100
AcDb2dVertex
 10
1413.911895
 20
644.840017
 30
0.0
  0
VERTEX
  5
62F
100
AcDbEntity
  8
止水栓
  6
CONTINUOUS
 62
     6
100
AcDbVertex
100
AcDb2dVertex
 10
1413.7117
 20
644.652029
 30
0.0
  0
VERTEX
  5
630
100
AcDbEntity
  8
止水栓
  6
CONTINUOUS
 62
     6
100
AcDbVertex
100
AcDb2dVertex
 10
1413.543243
 20
644.454275
 30
0.0
  0
VERTEX
  5
631
100
AcDbEntity
  8
止水栓
  6
CONTINUOUS
 62
     6
100
AcDbVertex
100
AcDb2dVertex
 10
1413.413848
 20
644.249197
 30
0.0
  0
VERTEX
  5
632
100
AcDbEntity
  8
止水栓
  6
CONTINUOUS
 62
     6
100
AcDbVertex
100
AcDb2dVertex
 10
1413.318634
 20
644.041677
 30
0.0
  0
VERTEX
  5
633
100
AcDbEntity
  8
止水栓
  6
CONTINUOUS
 62
     6
100
AcDbVertex
100
AcDb2dVertex
 10
1413.262481
 20
643.829275
 30
0.0
  0
VERTEX
  5
634
100
AcDbEntity
  8
止水栓
  6
CONTINUOUS
 62
     6
100
AcDbVertex
100
AcDb2dVertex
 10
1413.24295
 20
643.614431
 30
0.0
  0
VERTEX
  5
635
100
AcDbEntity
  8
止水栓
  6
CONTINUOUS
 62
     6
100
AcDbVertex
100
AcDb2dVertex
 10
1413.262481
 20
643.402029
 30
0.0
  0
VERTEX
  5
636
100
AcDbEntity
  8
止水栓
  6
CONTINUOUS
 62
     6
100
AcDbVertex
100
AcDb2dVertex
 10
1413.318634
 20
643.189626
 30
0.0
  0
VERTEX
  5
637
100
AcDbEntity
  8
止水栓
  6
CONTINUOUS
 62
     6
100
AcDbVertex
100
AcDb2dVertex
 10
1413.413848
 20
642.982107
 30
0.0
  0
VERTEX
  5
638
100
AcDbEntity
  8
止水栓
  6
CONTINUOUS
 62
     6
100
AcDbVertex
100
AcDb2dVertex
 10
1413.543243
 20
642.777029
 30
0.0
  0
VERTEX
  5
639
100
AcDbEntity
  8
止水栓
  6
CONTINUOUS
 62
     6
100
AcDbVertex
100
AcDb2dVertex
 10
1413.7117
 20
642.579275
 30
0.0
  0
SEQEND
  5
63A
100
AcDbEntity
  8
止水栓
  6
CONTINUOUS
 62
     6
  0
POLYLINE
  5
63B
100
AcDbEntity
  8
止水栓
  6
CONTINUOUS
 62
     6
100
AcDb2dPolyline
 66
     1
 10
0.0
 20
0.0
 30
0.0
 70
   128
  0
VERTEX
  5
63C
100
AcDbEntity
  8
止水栓
  6
CONTINUOUS
 62
     6
100
AcDbVertex
100
AcDb2dVertex
 10
1418.206329
 20
647.803884
 30
0.0
  0
VERTEX
  5
63D
100
AcDbEntity
  8
止水栓
  6
CONTINUOUS
 62
     6
100
AcDbVertex
100
AcDb2dVertex
 10
1418.689727
 20
647.825857
 30
0.0
  0
VERTEX
  5
63E
100
AcDbEntity
  8
止水栓
  6
CONTINUOUS
 62
     6
100
AcDbVertex
100
AcDb2dVertex
 10
1419.170684
 20
647.891775
 30
0.0
  0
VERTEX
  5
63F
100
AcDbEntity
  8
止水栓
  6
CONTINUOUS
 62
     6
100
AcDbVertex
100
AcDb2dVertex
 10
1419.644317
 20
648.001638
 30
0.0
  0
VERTEX
  5
640
100
AcDbEntity
  8
止水栓
  6
CONTINUOUS
 62
     6
100
AcDbVertex
100
AcDb2dVertex
 10
1420.108184
 20
648.155447
 30
0.0
  0
VERTEX
  5
641
100
AcDbEntity
  8
止水栓
  6
CONTINUOUS
 62
     6
100
AcDbVertex
100
AcDb2dVertex
 10
1420.554962
 20
648.348318
 30
0.0
  0
VERTEX
  5
642
100
AcDbEntity
  8
止水栓
  6
CONTINUOUS
 62
     6
100
AcDbVertex
100
AcDb2dVertex
 10
1420.987091
 20
648.585134
 30
0.0
  0
VERTEX
  5
643
100
AcDbEntity
  8
止水栓
  6
CONTINUOUS
 62
     6
100
AcDbVertex
100
AcDb2dVertex
 10
1421.394805
 20
648.858572
 30
0.0
  0
VERTEX
  5
644
100
AcDbEntity
  8
止水栓
  6
CONTINUOUS
 62
     6
100
AcDbVertex
100
AcDb2dVertex
 10
1421.780548
 20
649.16863
 30
0.0
  0
VERTEX
  5
645
100
AcDbEntity
  8
止水栓
  6
CONTINUOUS
 62
     6
100
AcDbVertex
100
AcDb2dVertex
 10
1422.136993
 20
649.510427
 30
0.0
  0
VERTEX
  5
646
100
AcDbEntity
  8
止水栓
  6
CONTINUOUS
 62
     6
100
AcDbVertex
100
AcDb2dVertex
 10
1422.466583
 20
649.886404
 30
0.0
  0
VERTEX
  5
647
100
AcDbEntity
  8
止水栓
  6
CONTINUOUS
 62
     6
100
AcDbVertex
100
AcDb2dVertex
 10
1422.759552
 20
650.289236
 30
0.0
  0
VERTEX
  5
648
100
AcDbEntity
  8
止水栓
  6
CONTINUOUS
 62
     6
100
AcDbVertex
100
AcDb2dVertex
 10
1423.023223
 20
650.718923
 30
0.0
  0
VERTEX
  5
649
100
AcDbEntity
  8
止水栓
  6
CONTINUOUS
 62
     6
100
AcDbVertex
100
AcDb2dVertex
 10
1423.247833
 20
651.170583
 30
0.0
  0
VERTEX
  5
64A
100
AcDbEntity
  8
止水栓
  6
CONTINUOUS
 62
     6
100
AcDbVertex
100
AcDb2dVertex
 10
1423.43338
 20
651.639333
 30
0.0
  0
VERTEX
  5
64B
100
AcDbEntity
  8
止水栓
  6
CONTINUOUS
 62
     6
100
AcDbVertex
100
AcDb2dVertex
 10
1423.577423
 20
652.125173
 30
0.0
  0
VERTEX
  5
64C
100
AcDbEntity
  8
止水栓
  6
CONTINUOUS
 62
     6
100
AcDbVertex
100
AcDb2dVertex
 10
1423.682403
 20
652.620779
 30
0.0
  0
VERTEX
  5
64D
100
AcDbEntity
  8
止水栓
  6
CONTINUOUS
 62
     6
100
AcDbVertex
100
AcDb2dVertex
 10
1423.74588
 20
653.12615
 30
0.0
  0
VERTEX
  5
64E
100
AcDbEntity
  8
止水栓
  6
CONTINUOUS
 62
     6
100
AcDbVertex
100
AcDb2dVertex
 10
1423.767852
 20
653.633962
 30
0.0
  0
VERTEX
  5
64F
100
AcDbEntity
  8
止水栓
  6
CONTINUOUS
 62
     6
100
AcDbVertex
100
AcDb2dVertex
 10
1423.767852
 20
653.643728
 30
0.0
  0
VERTEX
  5
650
100
AcDbEntity
  8
止水栓
  6
CONTINUOUS
 62
     6
100
AcDbVertex
100
AcDb2dVertex
 10
1423.767852
 20
653.651052
 30
0.0
  0
VERTEX
  5
651
100
AcDbEntity
  8
止水栓
  6
CONTINUOUS
 62
     6
100
AcDbVertex
100
AcDb2dVertex
 10
1423.767852
 20
653.660818
 30
0.0
  0
SEQEND
  5
652
100
AcDbEntity
  8
止水栓
  6
CONTINUOUS
 62
     6
  0
POLYLINE
  5
653
100
AcDbEntity
  8
止水栓
  6
CONTINUOUS
 62
     6
100
AcDb2dPolyline
 66
     1
 10
0.0
 20
0.0
 30
0.0
 70
   128
  0
VERTEX
  5
654
100
AcDbEntity
  8
止水栓
  6
CONTINUOUS
 62
     6
100
AcDbVertex
100
AcDb2dVertex
 10
1423.767852
 20
653.660818
 30
0.0
  0
VERTEX
  5
655
100
AcDbEntity
  8
止水栓
  6
CONTINUOUS
 62
     6
100
AcDbVertex
100
AcDb2dVertex
 10
1423.74588
 20
654.158864
 30
0.0
  0
VERTEX
  5
656
100
AcDbEntity
  8
止水栓
  6
CONTINUOUS
 62
     6
100
AcDbVertex
100
AcDb2dVertex
 10
1423.679962
 20
654.65447
 30
0.0
  0
VERTEX
  5
657
100
AcDbEntity
  8
止水栓
  6
CONTINUOUS
 62
     6
100
AcDbVertex
100
AcDb2dVertex
 10
1423.577423
 20
655.142751
 30
0.0
  0
VERTEX
  5
658
100
AcDbEntity
  8
止水栓
  6
CONTINUOUS
 62
     6
100
AcDbVertex
100
AcDb2dVertex
 10
1423.430938
 20
655.628591
 30
0.0
  0
VERTEX
  5
659
100
AcDbEntity
  8
止水栓
  6
CONTINUOUS
 62
     6
100
AcDbVertex
100
AcDb2dVertex
 10
1423.245391
 20
656.097341
 30
0.0
  0
VERTEX
  5
65A
100
AcDbEntity
  8
止水栓
  6
CONTINUOUS
 62
     6
100
AcDbVertex
100
AcDb2dVertex
 10
1423.023223
 20
656.549001
 30
0.0
  0
VERTEX
  5
65B
100
AcDbEntity
  8
止水栓
  6
CONTINUOUS
 62
     6
100
AcDbVertex
100
AcDb2dVertex
 10
1422.761993
 20
656.978689
 30
0.0
  0
VERTEX
  5
65C
100
AcDbEntity
  8
止水栓
  6
CONTINUOUS
 62
     6
100
AcDbVertex
100
AcDb2dVertex
 10
1422.466583
 20
657.381521
 30
0.0
  0
VERTEX
  5
65D
100
AcDbEntity
  8
止水栓
  6
CONTINUOUS
 62
     6
100
AcDbVertex
100
AcDb2dVertex
 10
1422.139434
 20
657.757497
 30
0.0
  0
VERTEX
  5
65E
100
AcDbEntity
  8
止水栓
  6
CONTINUOUS
 62
     6
100
AcDbVertex
100
AcDb2dVertex
 10
1421.780548
 20
658.099294
 30
0.0
  0
VERTEX
  5
65F
100
AcDbEntity
  8
止水栓
  6
CONTINUOUS
 62
     6
100
AcDbVertex
100
AcDb2dVertex
 10
1421.394805
 20
658.409353
 30
0.0
  0
VERTEX
  5
660
100
AcDbEntity
  8
止水栓
  6
CONTINUOUS
 62
     6
100
AcDbVertex
100
AcDb2dVertex
 10
1420.987091
 20
658.68279
 30
0.0
  0
VERTEX
  5
661
100
AcDbEntity
  8
止水栓
  6
CONTINUOUS
 62
     6
100
AcDbVertex
100
AcDb2dVertex
 10
1420.557403
 20
658.919607
 30
0.0
  0
VERTEX
  5
662
100
AcDbEntity
  8
止水栓
  6
CONTINUOUS
 62
     6
100
AcDbVertex
100
AcDb2dVertex
 10
1420.108184
 20
659.112478
 30
0.0
  0
VERTEX
  5
663
100
AcDbEntity
  8
止水栓
  6
CONTINUOUS
 62
     6
100
AcDbVertex
100
AcDb2dVertex
 10
1419.644317
 20
659.266286
 30
0.0
  0
VERTEX
  5
664
100
AcDbEntity
  8
止水栓
  6
CONTINUOUS
 62
     6
100
AcDbVertex
100
AcDb2dVertex
 10
1419.170684
 20
659.37615
 30
0.0
  0
VERTEX
  5
665
100
AcDbEntity
  8
止水栓
  6
CONTINUOUS
 62
     6
100
AcDbVertex
100
AcDb2dVertex
 10
1418.689727
 20
659.442068
 30
0.0
  0
VERTEX
  5
666
100
AcDbEntity
  8
止水栓
  6
CONTINUOUS
 62
     6
100
AcDbVertex
100
AcDb2dVertex
 10
1418.206329
 20
659.466482
 30
0.0
  0
VERTEX
  5
667
100
AcDbEntity
  8
止水栓
  6
CONTINUOUS
 62
     6
100
AcDbVertex
100
AcDb2dVertex
 10
1417.720489
 20
659.442068
 30
0.0
  0
VERTEX
  5
668
100
AcDbEntity
  8
止水栓
  6
CONTINUOUS
 62
     6
100
AcDbVertex
100
AcDb2dVertex
 10
1417.239532
 20
659.37615
 30
0.0
  0
VERTEX
  5
669
100
AcDbEntity
  8
止水栓
  6
CONTINUOUS
 62
     6
100
AcDbVertex
100
AcDb2dVertex
 10
1416.765899
 20
659.266286
 30
0.0
  0
VERTEX
  5
66A
100
AcDbEntity
  8
止水栓
  6
CONTINUOUS
 62
     6
100
AcDbVertex
100
AcDb2dVertex
 10
1416.304473
 20
659.112478
 30
0.0
  0
VERTEX
  5
66B
100
AcDbEntity
  8
止水栓
  6
CONTINUOUS
 62
     6
100
AcDbVertex
100
AcDb2dVertex
 10
1415.855255
 20
658.919607
 30
0.0
  0
VERTEX
  5
66C
100
AcDbEntity
  8
止水栓
  6
CONTINUOUS
 62
     6
100
AcDbVertex
100
AcDb2dVertex
 10
1415.425567
 20
658.68279
 30
0.0
  0
VERTEX
  5
66D
100
AcDbEntity
  8
止水栓
  6
CONTINUOUS
 62
     6
100
AcDbVertex
100
AcDb2dVertex
 10
1415.015411
 20
658.409353
 30
0.0
  0
VERTEX
  5
66E
100
AcDbEntity
  8
止水栓
  6
CONTINUOUS
 62
     6
100
AcDbVertex
100
AcDb2dVertex
 10
1414.63211
 20
658.099294
 30
0.0
  0
VERTEX
  5
66F
100
AcDbEntity
  8
止水栓
  6
CONTINUOUS
 62
     6
100
AcDbVertex
100
AcDb2dVertex
 10
1414.273223
 20
657.757497
 30
0.0
  0
VERTEX
  5
670
100
AcDbEntity
  8
止水栓
  6
CONTINUOUS
 62
     6
100
AcDbVertex
100
AcDb2dVertex
 10
1413.946075
 20
657.381521
 30
0.0
  0
VERTEX
  5
671
100
AcDbEntity
  8
止水栓
  6
CONTINUOUS
 62
     6
100
AcDbVertex
100
AcDb2dVertex
 10
1413.650665
 20
656.978689
 30
0.0
  0
VERTEX
  5
672
100
AcDbEntity
  8
止水栓
  6
CONTINUOUS
 62
     6
100
AcDbVertex
100
AcDb2dVertex
 10
1413.389434
 20
656.549001
 30
0.0
  0
VERTEX
  5
673
100
AcDbEntity
  8
止水栓
  6
CONTINUOUS
 62
     6
100
AcDbVertex
100
AcDb2dVertex
 10
1413.164825
 20
656.097341
 30
0.0
  0
VERTEX
  5
674
100
AcDbEntity
  8
止水栓
  6
CONTINUOUS
 62
     6
100
AcDbVertex
100
AcDb2dVertex
 10
1412.979278
 20
655.628591
 30
0.0
  0
VERTEX
  5
675
100
AcDbEntity
  8
止水栓
  6
CONTINUOUS
 62
     6
100
AcDbVertex
100
AcDb2dVertex
 10
1412.835235
 20
655.142751
 30
0.0
  0
VERTEX
  5
676
100
AcDbEntity
  8
止水栓
  6
CONTINUOUS
 62
     6
100
AcDbVertex
100
AcDb2dVertex
 10
1412.730255
 20
654.647146
 30
0.0
  0
VERTEX
  5
677
100
AcDbEntity
  8
止水栓
  6
CONTINUOUS
 62
     6
100
AcDbVertex
100
AcDb2dVertex
 10
1412.666778
 20
654.141775
 30
0.0
  0
VERTEX
  5
678
100
AcDbEntity
  8
止水栓
  6
CONTINUOUS
 62
     6
100
AcDbVertex
100
AcDb2dVertex
 10
1412.644805
 20
653.633962
 30
0.0
  0
VERTEX
  5
679
100
AcDbEntity
  8
止水栓
  6
CONTINUOUS
 62
     6
100
AcDbVertex
100
AcDb2dVertex
 10
1412.666778
 20
653.12615
 30
0.0
  0
VERTEX
  5
67A
100
AcDbEntity
  8
止水栓
  6
CONTINUOUS
 62
     6
100
AcDbVertex
100
AcDb2dVertex
 10
1412.730255
 20
652.620779
 30
0.0
  0
VERTEX
  5
67B
100
AcDbEntity
  8
止水栓
  6
CONTINUOUS
 62
     6
100
AcDbVertex
100
AcDb2dVertex
 10
1412.835235
 20
652.125173
 30
0.0
  0
VERTEX
  5
67C
100
AcDbEntity
  8
止水栓
  6
CONTINUOUS
 62
     6
100
AcDbVertex
100
AcDb2dVertex
 10
1412.979278
 20
651.639333
 30
0.0
  0
VERTEX
  5
67D
100
AcDbEntity
  8
止水栓
  6
CONTINUOUS
 62
     6
100
AcDbVertex
100
AcDb2dVertex
 10
1413.164825
 20
651.170583
 30
0.0
  0
VERTEX
  5
67E
100
AcDbEntity
  8
止水栓
  6
CONTINUOUS
 62
     6
100
AcDbVertex
100
AcDb2dVertex
 10
1413.389434
 20
650.718923
 30
0.0
  0
VERTEX
  5
67F
100
AcDbEntity
  8
止水栓
  6
CONTINUOUS
 62
     6
100
AcDbVertex
100
AcDb2dVertex
 10
1413.650665
 20
650.289236
 30
0.0
  0
VERTEX
  5
680
100
AcDbEntity
  8
止水栓
  6
CONTINUOUS
 62
     6
100
AcDbVertex
100
AcDb2dVertex
 10
1413.946075
 20
649.886404
 30
0.0
  0
VERTEX
  5
681
100
AcDbEntity
  8
止水栓
  6
CONTINUOUS
 62
     6
100
AcDbVertex
100
AcDb2dVertex
 10
1414.273223
 20
649.510427
 30
0.0
  0
VERTEX
  5
682
100
AcDbEntity
  8
止水栓
  6
CONTINUOUS
 62
     6
100
AcDbVertex
100
AcDb2dVertex
 10
1414.63211
 20
649.16863
 30
0.0
  0
VERTEX
  5
683
100
AcDbEntity
  8
止水栓
  6
CONTINUOUS
 62
     6
100
AcDbVertex
100
AcDb2dVertex
 10
1415.015411
 20
648.858572
 30
0.0
  0
VERTEX
  5
684
100
AcDbEntity
  8
止水栓
  6
CONTINUOUS
 62
     6
100
AcDbVertex
100
AcDb2dVertex
 10
1415.425567
 20
648.585134
 30
0.0
  0
VERTEX
  5
685
100
AcDbEntity
  8
止水栓
  6
CONTINUOUS
 62
     6
100
AcDbVertex
100
AcDb2dVertex
 10
1415.855255
 20
648.348318
 30
0.0
  0
VERTEX
  5
686
100
AcDbEntity
  8
止水栓
  6
CONTINUOUS
 62
     6
100
AcDbVertex
100
AcDb2dVertex
 10
1416.304473
 20
648.155447
 30
0.0
  0
VERTEX
  5
687
100
AcDbEntity
  8
止水栓
  6
CONTINUOUS
 62
     6
100
AcDbVertex
100
AcDb2dVertex
 10
1416.765899
 20
648.001638
 30
0.0
  0
VERTEX
  5
688
100
AcDbEntity
  8
止水栓
  6
CONTINUOUS
 62
     6
100
AcDbVertex
100
AcDb2dVertex
 10
1417.239532
 20
647.891775
 30
0.0
  0
VERTEX
  5
689
100
AcDbEntity
  8
止水栓
  6
CONTINUOUS
 62
     6
100
AcDbVertex
100
AcDb2dVertex
 10
1417.720489
 20
647.825857
 30
0.0
  0
VERTEX
  5
68A
100
AcDbEntity
  8
止水栓
  6
CONTINUOUS
 62
     6
100
AcDbVertex
100
AcDb2dVertex
 10
1418.203888
 20
647.803884
 30
0.0
  0
SEQEND
  5
68B
100
AcDbEntity
  8
止水栓
  6
CONTINUOUS
 62
     6
  0
ARC
  5
68C
100
AcDbEntity
  8
止水栓
  6
CONTINUOUS
 62
     6
100
AcDbCircle
 10
1436.482696
 20
648.910818
 30
0.0
 40
2.5
100
AcDbArc
 50
180.0
 51
270.0
  0
LINE
  5
68D
100
AcDbEntity
  8
止水栓
  6
CONTINUOUS
 62
     6
100
AcDbLine
 10
1449.982696
 20
660.410818
 30
0.0
 11
1457.982696
 21
660.410818
 31
0.0
  0
LINE
  5
68E
100
AcDbEntity
  8
止水栓
  6
CONTINUOUS
 62
     6
100
AcDbLine
 10
1449.982696
 20
646.910818
 30
0.0
 11
1457.982696
 21
646.910818
 31
0.0
  0
LINE
  5
68F
100
AcDbEntity
  8
止水栓
  6
CONTINUOUS
 62
     6
100
AcDbLine
 10
1457.982696
 20
646.910818
 30
0.0
 11
1457.982696
 21
660.410818
 31
0.0
  0
LINE
  5
690
100
AcDbEntity
  8
止水栓
  6
CONTINUOUS
 62
     6
100
AcDbLine
 10
1438.982696
 20
659.410818
 30
0.0
 11
1441.982696
 21
659.410818
 31
0.0
  0
LINE
  5
691
100
AcDbEntity
  8
止水栓
  6
CONTINUOUS
 62
     6
100
AcDbLine
 10
1446.982696
 20
659.410818
 30
0.0
 11
1449.982696
 21
659.410818
 31
0.0
  0
LINE
  5
692
100
AcDbEntity
  8
止水栓
  6
CONTINUOUS
 62
     6
100
AcDbLine
 10
1438.982696
 20
647.910818
 30
0.0
 11
1441.982696
 21
647.910818
 31
0.0
  0
ARC
  5
693
100
AcDbEntity
  8
止水栓
  6
CONTINUOUS
 62
     6
100
AcDbCircle
 10
1436.482696
 20
648.910818
 30
0.0
 40
2.5
100
AcDbArc
 50
270.0
 51
0.0
  0
ARC
  5
694
100
AcDbEntity
  8
止水栓
  6
CONTINUOUS
 62
     6
100
AcDbCircle
 10
1444.482696
 20
648.910818
 30
0.0
 40
2.5
100
AcDbArc
 50
180.0
 51
270.0
  0
LINE
  5
695
100
AcDbEntity
  8
止水栓
  6
CONTINUOUS
 62
     6
100
AcDbLine
 10
1446.982696
 20
647.910818
 30
0.0
 11
1449.982696
 21
647.910818
 31
0.0
  0
ARC
  5
696
100
AcDbEntity
  8
止水栓
  6
CONTINUOUS
 62
     6
100
AcDbCircle
 10
1444.482696
 20
648.910818
 30
0.0
 40
2.5
100
AcDbArc
 50
270.0
 51
0.0
  0
LINE
  5
697
100
AcDbEntity
  8
止水栓
  6
CONTINUOUS
 62
     6
100
AcDbLine
 10
1449.982696
 20
646.910818
 30
0.0
 11
1449.982696
 21
660.410818
 31
0.0
  0
LINE
  5
698
100
AcDbEntity
  8
止水栓
  6
CONTINUOUS
 62
     6
100
AcDbLine
 10
1441.982696
 20
648.910818
 30
0.0
 11
1441.982696
 21
658.410818
 31
0.0
  0
LINE
  5
699
100
AcDbEntity
  8
止水栓
  6
CONTINUOUS
 62
     6
100
AcDbLine
 10
1438.982696
 20
648.910818
 30
0.0
 11
1438.982696
 21
658.410818
 31
0.0
  0
LINE
  5
69A
100
AcDbEntity
  8
止水栓
  6
CONTINUOUS
 62
     6
100
AcDbLine
 10
1446.982696
 20
648.910818
 30
0.0
 11
1446.982696
 21
658.410818
 31
0.0
  0
LINE
  5
69B
100
AcDbEntity
  8
止水栓
  6
CONTINUOUS
 62
     6
100
AcDbLine
 10
1433.982696
 20
648.910818
 30
0.0
 11
1433.982696
 21
658.410818
 31
0.0
  0
LINE
  5
69C
100
AcDbEntity
  8
止水栓
  6
CONTINUOUS
 62
     6
100
AcDbLine
 10
1430.982696
 20
659.410818
 30
0.0
 11
1433.982696
 21
659.410818
 31
0.0
  0
LINE
  5
69D
100
AcDbEntity
  8
止水栓
  6
CONTINUOUS
 62
     6
100
AcDbLine
 10
1430.982696
 20
647.910818
 30
0.0
 11
1433.982696
 21
647.910818
 31
0.0
  0
ARC
  5
69E
100
AcDbEntity
  8
止水栓
  6
CONTINUOUS
 62
     6
100
AcDbCircle
 10
1436.482696
 20
658.410818
 30
0.0
 40
2.5
100
AcDbArc
 50
0.0
 51
90.0
  0
ARC
  5
69F
100
AcDbEntity
  8
止水栓
  6
CONTINUOUS
 62
     6
100
AcDbCircle
 10
1436.482696
 20
658.410818
 30
0.0
 40
2.5
100
AcDbArc
 50
90.0
 51
180.0
  0
ARC
  5
6A0
100
AcDbEntity
  8
止水栓
  6
CONTINUOUS
 62
     6
100
AcDbCircle
 10
1444.482696
 20
658.410818
 30
0.0
 40
2.5
100
AcDbArc
 50
90.0
 51
180.0
  0
ARC
  5
6A1
100
AcDbEntity
  8
止水栓
  6
CONTINUOUS
 62
     6
100
AcDbCircle
 10
1444.482696
 20
658.410818
 30
0.0
 40
2.5
100
AcDbArc
 50
0.0
 51
90.0
  0
LINE
  5
6A2
100
AcDbEntity
  8
止水栓
  6
CONTINUOUS
 62
     6
100
AcDbLine
 10
1411.983184
 20
642.691579
 30
0.0
 11
1411.983184
 21
664.631582
 31
0.0
  0
LINE
  5
6A3
100
AcDbEntity
  8
止水栓
  6
CONTINUOUS
 62
     6
100
AcDbLine
 10
1428.982696
 20
643.160818
 30
0.0
 11
1428.982696
 21
664.160818
 31
0.0
  0
LINE
  5
6A4
100
AcDbEntity
  8
止水栓
  6
CONTINUOUS
 62
     6
100
AcDbLine
 10
1423.982696
 20
642.691579
 30
0.0
 11
1423.982696
 21
664.630056
 31
0.0
  0
ARC
  5
6A5
100
AcDbEntity
  8
止水栓
  6
EXLTYPE3
 62
     6
100
AcDbCircle
 10
1473.482942
 20
799.689607
 30
0.0
 40
84.999971
100
AcDbArc
 50
180.0
 51
0.0
  0
LINE
  5
6A6
100
AcDbEntity
  8
止水栓
  6
CONTINUOUS
 62
     6
100
AcDbLine
 10
1388.482971
 20
860.469033
 30
0.0
 11
1388.482971
 21
799.689607
 31
0.0
  0
ARC
  5
6A7
100
AcDbEntity
  8
止水栓
  6
EXLTYPE2
 62
     6
100
AcDbCircle
 10
1388.482971
 20
899.998849
 30
0.0
 40
27.5
100
AcDbArc
 50
294.79044
 51
244.998019
  0
LINE
  5
6A8
100
AcDbEntity
  8
止水栓
  6
CONTINUOUS
 62
     6
100
AcDbLine
 10
1398.960471
 20
886.854668
 30
0.0
 11
1398.960471
 21
877.468544
 31
0.0
  0
LINE
  5
6A9
100
AcDbEntity
  8
止水栓
  6
CONTINUOUS
 62
     6
100
AcDbLine
 10
1378.005471
 20
886.854668
 30
0.0
 11
1378.005471
 21
877.468544
 31
0.0
  0
LINE
  5
6AA
100
AcDbEntity
  8
止水栓
  6
CONTINUOUS
 62
     6
100
AcDbLine
 10
1397.798471
 20
877.468544
 30
0.0
 11
1397.798471
 21
879.998849
 31
0.0
  0
LINE
  5
6AB
100
AcDbEntity
  8
止水栓
  6
CONTINUOUS
 62
     6
100
AcDbLine
 10
1379.167471
 20
877.468544
 30
0.0
 11
1379.167471
 21
879.998849
 31
0.0
  0
LINE
  5
6AC
100
AcDbEntity
  8
止水栓
  6
EXLTYPE2
 62
     6
100
AcDbLine
 10
1377.513732
 20
877.468544
 30
0.0
 11
1399.452209
 21
877.468544
 31
0.0
  0
LINE
  5
6AD
100
AcDbEntity
  8
止水栓
  6
CONTINUOUS
 62
     6
100
AcDbLine
 10
1397.798471
 20
879.998849
 30
0.0
 11
1399.012169
 21
882.101065
 31
0.0
  0
LINE
  5
6AE
100
AcDbEntity
  8
止水栓
  6
CONTINUOUS
 62
     6
100
AcDbLine
 10
1379.167471
 20
879.998849
 30
0.0
 11
1377.953773
 21
882.101065
 31
0.0
  0
LINE
  5
6AF
100
AcDbEntity
  8
止水栓
  6
CONTINUOUS
 62
     6
100
AcDbLine
 10
1378.005471
 20
879.998849
 30
0.0
 11
1398.960471
 21
879.998849
 31
0.0
  0
CIRCLE
  5
6B0
100
AcDbEntity
  8
止水栓
  6
CONTINUOUS
 62
     6
100
AcDbCircle
 10
1388.482971
 20
899.998849
 30
0.0
 40
12.0
  0
CIRCLE
  5
6B1
100
AcDbEntity
  8
止水栓
  6
CONTINUOUS
 62
     6
100
AcDbCircle
 10
1388.482971
 20
899.998849
 30
0.0
 40
9.959438
  0
CIRCLE
  5
6B2
100
AcDbEntity
  8
止水栓
  6
CONTINUOUS
 62
     6
100
AcDbCircle
 10
1388.482971
 20
899.998849
 30
0.0
 40
9.273367
  0
ARC
  5
6B3
100
AcDbEntity
  8
止水栓
  6
CONTINUOUS
 62
     6
100
AcDbCircle
 10
1444.460471
 20
886.854668
 30
0.0
 40
45.5
100
AcDbArc
 50
166.785665
 51
180.0
  0
ARC
  5
6B4
100
AcDbEntity
  8
止水栓
  6
CONTINUOUS
 62
     6
100
AcDbCircle
 10
1332.505471
 20
886.854668
 30
0.0
 40
45.5
100
AcDbArc
 50
0.0
 51
13.214335
  0
LINE
  5
6B5
100
AcDbEntity
  8
止水栓
  6
CONTINUOUS
 62
     6
100
AcDbLine
 10
1397.702156
 20
898.997872
 30
0.0
 11
1379.263786
 21
898.997872
 31
0.0
  0
LINE
  5
6B6
100
AcDbEntity
  8
止水栓
  6
CONTINUOUS
 62
     6
100
AcDbLine
 10
1379.263521
 20
900.997384
 30
0.0
 11
1397.702421
 21
900.997384
 31
0.0
  0
ARC
  5
6B7
100
AcDbEntity
  8
止水栓
  6
EXLTYPE2
 62
     6
100
AcDbCircle
 10
1390.233459
 20
871.47001
 30
0.0
 40
10.99987
100
AcDbArc
 50
326.937744
 51
33.047067
  0
POLYLINE
  5
6B8
100
AcDbEntity
  8
止水栓
  6
EXLTYPE2
 62
     6
100
AcDb2dPolyline
 66
     1
 10
0.0
 20
0.0
 30
0.0
 70
   128
  0
VERTEX
  5
6B9
100
AcDbEntity
  8
止水栓
  6
EXLTYPE2
 62
     6
100
AcDbVertex
100
AcDb2dVertex
 10
1382.626037
 20
871.2454
 30
0.0
  0
VERTEX
  5
6BA
100
AcDbEntity
  8
止水栓
  6
EXLTYPE2
 62
     6
100
AcDbVertex
100
AcDb2dVertex
 10
1382.64801
 20
870.762002
 30
0.0
  0
VERTEX
  5
6BB
100
AcDbEntity
  8
止水栓
  6
EXLTYPE2
 62
     6
100
AcDbVertex
100
AcDb2dVertex
 10
1382.713928
 20
870.281045
 30
0.0
  0
VERTEX
  5
6BC
100
AcDbEntity
  8
止水栓
  6
EXLTYPE2
 62
     6
100
AcDbVertex
100
AcDb2dVertex
 10
1382.823791
 20
869.807412
 30
0.0
  0
VERTEX
  5
6BD
100
AcDbEntity
  8
止水栓
  6
EXLTYPE2
 62
     6
100
AcDbVertex
100
AcDb2dVertex
 10
1382.9776
 20
869.343545
 30
0.0
  0
VERTEX
  5
6BE
100
AcDbEntity
  8
止水栓
  6
EXLTYPE2
 62
     6
100
AcDbVertex
100
AcDb2dVertex
 10
1383.170471
 20
868.896767
 30
0.0
  0
VERTEX
  5
6BF
100
AcDbEntity
  8
止水栓
  6
EXLTYPE2
 62
     6
100
AcDbVertex
100
AcDb2dVertex
 10
1383.407287
 20
868.464639
 30
0.0
  0
VERTEX
  5
6C0
100
AcDbEntity
  8
止水栓
  6
EXLTYPE2
 62
     6
100
AcDbVertex
100
AcDb2dVertex
 10
1383.680725
 20
868.056924
 30
0.0
  0
VERTEX
  5
6C1
100
AcDbEntity
  8
止水栓
  6
EXLTYPE2
 62
     6
100
AcDbVertex
100
AcDb2dVertex
 10
1383.990783
 20
867.671182
 30
0.0
  0
VERTEX
  5
6C2
100
AcDbEntity
  8
止水栓
  6
EXLTYPE2
 62
     6
100
AcDbVertex
100
AcDb2dVertex
 10
1384.33258
 20
867.314736
 30
0.0
  0
VERTEX
  5
6C3
100
AcDbEntity
  8
止水栓
  6
EXLTYPE2
 62
     6
100
AcDbVertex
100
AcDb2dVertex
 10
1384.708557
 20
866.985146
 30
0.0
  0
VERTEX
  5
6C4
100
AcDbEntity
  8
止水栓
  6
EXLTYPE2
 62
     6
100
AcDbVertex
100
AcDb2dVertex
 10
1385.111389
 20
866.692178
 30
0.0
  0
VERTEX
  5
6C5
100
AcDbEntity
  8
止水栓
  6
EXLTYPE2
 62
     6
100
AcDbVertex
100
AcDb2dVertex
 10
1385.541076
 20
866.428506
 30
0.0
  0
VERTEX
  5
6C6
100
AcDbEntity
  8
止水栓
  6
EXLTYPE2
 62
     6
100
AcDbVertex
100
AcDb2dVertex
 10
1385.992736
 20
866.203896
 30
0.0
  0
VERTEX
  5
6C7
100
AcDbEntity
  8
止水栓
  6
EXLTYPE2
 62
     6
100
AcDbVertex
100
AcDb2dVertex
 10
1386.461486
 20
866.018349
 30
0.0
  0
VERTEX
  5
6C8
100
AcDbEntity
  8
止水栓
  6
EXLTYPE2
 62
     6
100
AcDbVertex
100
AcDb2dVertex
 10
1386.947326
 20
865.874307
 30
0.0
  0
VERTEX
  5
6C9
100
AcDbEntity
  8
止水栓
  6
EXLTYPE2
 62
     6
100
AcDbVertex
100
AcDb2dVertex
 10
1387.442932
 20
865.769326
 30
0.0
  0
VERTEX
  5
6CA
100
AcDbEntity
  8
止水栓
  6
EXLTYPE2
 62
     6
100
AcDbVertex
100
AcDb2dVertex
 10
1387.948303
 20
865.705849
 30
0.0
  0
VERTEX
  5
6CB
100
AcDbEntity
  8
止水栓
  6
EXLTYPE2
 62
     6
100
AcDbVertex
100
AcDb2dVertex
 10
1388.456115
 20
865.683877
 30
0.0
  0
VERTEX
  5
6CC
100
AcDbEntity
  8
止水栓
  6
EXLTYPE2
 62
     6
100
AcDbVertex
100
AcDb2dVertex
 10
1388.465881
 20
865.683877
 30
0.0
  0
VERTEX
  5
6CD
100
AcDbEntity
  8
止水栓
  6
EXLTYPE2
 62
     6
100
AcDbVertex
100
AcDb2dVertex
 10
1388.473205
 20
865.683877
 30
0.0
  0
VERTEX
  5
6CE
100
AcDbEntity
  8
止水栓
  6
EXLTYPE2
 62
     6
100
AcDbVertex
100
AcDb2dVertex
 10
1388.482971
 20
865.683877
 30
0.0
  0
SEQEND
  5
6CF
100
AcDbEntity
  8
止水栓
  6
EXLTYPE2
 62
     6
  0
POLYLINE
  5
6D0
100
AcDbEntity
  8
止水栓
  6
EXLTYPE2
 62
     6
100
AcDb2dPolyline
 66
     1
 10
0.0
 20
0.0
 30
0.0
 70
   128
  0
VERTEX
  5
6D1
100
AcDbEntity
  8
止水栓
  6
EXLTYPE2
 62
     6
100
AcDbVertex
100
AcDb2dVertex
 10
1388.482971
 20
865.683877
 30
0.0
  0
VERTEX
  5
6D2
100
AcDbEntity
  8
止水栓
  6
EXLTYPE2
 62
     6
100
AcDbVertex
100
AcDb2dVertex
 10
1388.981018
 20
865.705849
 30
0.0
  0
VERTEX
  5
6D3
100
AcDbEntity
  8
止水栓
  6
EXLTYPE2
 62
     6
100
AcDbVertex
100
AcDb2dVertex
 10
1389.476623
 20
865.771767
 30
0.0
  0
VERTEX
  5
6D4
100
AcDbEntity
  8
止水栓
  6
EXLTYPE2
 62
     6
100
AcDbVertex
100
AcDb2dVertex
 10
1389.964904
 20
865.874307
 30
0.0
  0
VERTEX
  5
6D5
100
AcDbEntity
  8
止水栓
  6
EXLTYPE2
 62
     6
100
AcDbVertex
100
AcDb2dVertex
 10
1390.450744
 20
866.020791
 30
0.0
  0
VERTEX
  5
6D6
100
AcDbEntity
  8
止水栓
  6
EXLTYPE2
 62
     6
100
AcDbVertex
100
AcDb2dVertex
 10
1390.919494
 20
866.206338
 30
0.0
  0
VERTEX
  5
6D7
100
AcDbEntity
  8
止水栓
  6
EXLTYPE2
 62
     6
100
AcDbVertex
100
AcDb2dVertex
 10
1391.371154
 20
866.428506
 30
0.0
  0
VERTEX
  5
6D8
100
AcDbEntity
  8
止水栓
  6
EXLTYPE2
 62
     6
100
AcDbVertex
100
AcDb2dVertex
 10
1391.800842
 20
866.689736
 30
0.0
  0
VERTEX
  5
6D9
100
AcDbEntity
  8
止水栓
  6
EXLTYPE2
 62
     6
100
AcDbVertex
100
AcDb2dVertex
 10
1392.203674
 20
866.985146
 30
0.0
  0
VERTEX
  5
6DA
100
AcDbEntity
  8
止水栓
  6
EXLTYPE2
 62
     6
100
AcDbVertex
100
AcDb2dVertex
 10
1392.57965
 20
867.312295
 30
0.0
  0
VERTEX
  5
6DB
100
AcDbEntity
  8
止水栓
  6
EXLTYPE2
 62
     6
100
AcDbVertex
100
AcDb2dVertex
 10
1392.921447
 20
867.671182
 30
0.0
  0
VERTEX
  5
6DC
100
AcDbEntity
  8
止水栓
  6
EXLTYPE2
 62
     6
100
AcDbVertex
100
AcDb2dVertex
 10
1393.231506
 20
868.056924
 30
0.0
  0
VERTEX
  5
6DD
100
AcDbEntity
  8
止水栓
  6
EXLTYPE2
 62
     6
100
AcDbVertex
100
AcDb2dVertex
 10
1393.504943
 20
868.464639
 30
0.0
  0
VERTEX
  5
6DE
100
AcDbEntity
  8
止水栓
  6
EXLTYPE2
 62
     6
100
AcDbVertex
100
AcDb2dVertex
 10
1393.74176
 20
868.894326
 30
0.0
  0
VERTEX
  5
6DF
100
AcDbEntity
  8
止水栓
  6
EXLTYPE2
 62
     6
100
AcDbVertex
100
AcDb2dVertex
 10
1393.934631
 20
869.343545
 30
0.0
  0
VERTEX
  5
6E0
100
AcDbEntity
  8
止水栓
  6
EXLTYPE2
 62
     6
100
AcDbVertex
100
AcDb2dVertex
 10
1394.08844
 20
869.807412
 30
0.0
  0
VERTEX
  5
6E1
100
AcDbEntity
  8
止水栓
  6
EXLTYPE2
 62
     6
100
AcDbVertex
100
AcDb2dVertex
 10
1394.198303
 20
870.281045
 30
0.0
  0
VERTEX
  5
6E2
100
AcDbEntity
  8
止水栓
  6
EXLTYPE2
 62
     6
100
AcDbVertex
100
AcDb2dVertex
 10
1394.264221
 20
870.762002
 30
0.0
  0
VERTEX
  5
6E3
100
AcDbEntity
  8
止水栓
  6
EXLTYPE2
 62
     6
100
AcDbVertex
100
AcDb2dVertex
 10
1394.288635
 20
871.2454
 30
0.0
  0
VERTEX
  5
6E4
100
AcDbEntity
  8
止水栓
  6
EXLTYPE2
 62
     6
100
AcDbVertex
100
AcDb2dVertex
 10
1394.264221
 20
871.73124
 30
0.0
  0
VERTEX
  5
6E5
100
AcDbEntity
  8
止水栓
  6
EXLTYPE2
 62
     6
100
AcDbVertex
100
AcDb2dVertex
 10
1394.198303
 20
872.212197
 30
0.0
  0
VERTEX
  5
6E6
100
AcDbEntity
  8
止水栓
  6
EXLTYPE2
 62
     6
100
AcDbVertex
100
AcDb2dVertex
 10
1394.08844
 20
872.68583
 30
0.0
  0
VERTEX
  5
6E7
100
AcDbEntity
  8
止水栓
  6
EXLTYPE2
 62
     6
100
AcDbVertex
100
AcDb2dVertex
 10
1393.934631
 20
873.147256
 30
0.0
  0
VERTEX
  5
6E8
100
AcDbEntity
  8
止水栓
  6
EXLTYPE2
 62
     6
100
AcDbVertex
100
AcDb2dVertex
 10
1393.74176
 20
873.596474
 30
0.0
  0
VERTEX
  5
6E9
100
AcDbEntity
  8
止水栓
  6
EXLTYPE2
 62
     6
100
AcDbVertex
100
AcDb2dVertex
 10
1393.504943
 20
874.026162
 30
0.0
  0
VERTEX
  5
6EA
100
AcDbEntity
  8
止水栓
  6
EXLTYPE2
 62
     6
100
AcDbVertex
100
AcDb2dVertex
 10
1393.231506
 20
874.436318
 30
0.0
  0
VERTEX
  5
6EB
100
AcDbEntity
  8
止水栓
  6
EXLTYPE2
 62
     6
100
AcDbVertex
100
AcDb2dVertex
 10
1392.921447
 20
874.819619
 30
0.0
  0
VERTEX
  5
6EC
100
AcDbEntity
  8
止水栓
  6
EXLTYPE2
 62
     6
100
AcDbVertex
100
AcDb2dVertex
 10
1392.57965
 20
875.178506
 30
0.0
  0
VERTEX
  5
6ED
100
AcDbEntity
  8
止水栓
  6
EXLTYPE2
 62
     6
100
AcDbVertex
100
AcDb2dVertex
 10
1392.203674
 20
875.505654
 30
0.0
  0
VERTEX
  5
6EE
100
AcDbEntity
  8
止水栓
  6
EXLTYPE2
 62
     6
100
AcDbVertex
100
AcDb2dVertex
 10
1391.800842
 20
875.801064
 30
0.0
  0
VERTEX
  5
6EF
100
AcDbEntity
  8
止水栓
  6
EXLTYPE2
 62
     6
100
AcDbVertex
100
AcDb2dVertex
 10
1391.371154
 20
876.062295
 30
0.0
  0
VERTEX
  5
6F0
100
AcDbEntity
  8
止水栓
  6
EXLTYPE2
 62
     6
100
AcDbVertex
100
AcDb2dVertex
 10
1390.919494
 20
876.286904
 30
0.0
  0
VERTEX
  5
6F1
100
AcDbEntity
  8
止水栓
  6
EXLTYPE2
 62
     6
100
AcDbVertex
100
AcDb2dVertex
 10
1390.450744
 20
876.472451
 30
0.0
  0
VERTEX
  5
6F2
100
AcDbEntity
  8
止水栓
  6
EXLTYPE2
 62
     6
100
AcDbVertex
100
AcDb2dVertex
 10
1389.964904
 20
876.616494
 30
0.0
  0
VERTEX
  5
6F3
100
AcDbEntity
  8
止水栓
  6
EXLTYPE2
 62
     6
100
AcDbVertex
100
AcDb2dVertex
 10
1389.469299
 20
876.721474
 30
0.0
  0
VERTEX
  5
6F4
100
AcDbEntity
  8
止水栓
  6
EXLTYPE2
 62
     6
100
AcDbVertex
100
AcDb2dVertex
 10
1388.963928
 20
876.784951
 30
0.0
  0
VERTEX
  5
6F5
100
AcDbEntity
  8
止水栓
  6
EXLTYPE2
 62
     6
100
AcDbVertex
100
AcDb2dVertex
 10
1388.456115
 20
876.806924
 30
0.0
  0
VERTEX
  5
6F6
100
AcDbEntity
  8
止水栓
  6
EXLTYPE2
 62
     6
100
AcDbVertex
100
AcDb2dVertex
 10
1387.948303
 20
876.784951
 30
0.0
  0
VERTEX
  5
6F7
100
AcDbEntity
  8
止水栓
  6
EXLTYPE2
 62
     6
100
AcDbVertex
100
AcDb2dVertex
 10
1387.442932
 20
876.721474
 30
0.0
  0
VERTEX
  5
6F8
100
AcDbEntity
  8
止水栓
  6
EXLTYPE2
 62
     6
100
AcDbVertex
100
AcDb2dVertex
 10
1386.947326
 20
876.616494
 30
0.0
  0
VERTEX
  5
6F9
100
AcDbEntity
  8
止水栓
  6
EXLTYPE2
 62
     6
100
AcDbVertex
100
AcDb2dVertex
 10
1386.461486
 20
876.472451
 30
0.0
  0
VERTEX
  5
6FA
100
AcDbEntity
  8
止水栓
  6
EXLTYPE2
 62
     6
100
AcDbVertex
100
AcDb2dVertex
 10
1385.992736
 20
876.286904
 30
0.0
  0
VERTEX
  5
6FB
100
AcDbEntity
  8
止水栓
  6
EXLTYPE2
 62
     6
100
AcDbVertex
100
AcDb2dVertex
 10
1385.541076
 20
876.062295
 30
0.0
  0
VERTEX
  5
6FC
100
AcDbEntity
  8
止水栓
  6
EXLTYPE2
 62
     6
100
AcDbVertex
100
AcDb2dVertex
 10
1385.111389
 20
875.801064
 30
0.0
  0
VERTEX
  5
6FD
100
AcDbEntity
  8
止水栓
  6
EXLTYPE2
 62
     6
100
AcDbVertex
100
AcDb2dVertex
 10
1384.708557
 20
875.505654
 30
0.0
  0
VERTEX
  5
6FE
100
AcDbEntity
  8
止水栓
  6
EXLTYPE2
 62
     6
100
AcDbVertex
100
AcDb2dVertex
 10
1384.33258
 20
875.178506
 30
0.0
  0
VERTEX
  5
6FF
100
AcDbEntity
  8
止水栓
  6
EXLTYPE2
 62
     6
100
AcDbVertex
100
AcDb2dVertex
 10
1383.990783
 20
874.819619
 30
0.0
  0
VERTEX
  5
700
100
AcDbEntity
  8
止水栓
  6
EXLTYPE2
 62
     6
100
AcDbVertex
100
AcDb2dVertex
 10
1383.680725
 20
874.436318
 30
0.0
  0
VERTEX
  5
701
100
AcDbEntity
  8
止水栓
  6
EXLTYPE2
 62
     6
100
AcDbVertex
100
AcDb2dVertex
 10
1383.407287
 20
874.026162
 30
0.0
  0
VERTEX
  5
702
100
AcDbEntity
  8
止水栓
  6
EXLTYPE2
 62
     6
100
AcDbVertex
100
AcDb2dVertex
 10
1383.170471
 20
873.596474
 30
0.0
  0
VERTEX
  5
703
100
AcDbEntity
  8
止水栓
  6
EXLTYPE2
 62
     6
100
AcDbVertex
100
AcDb2dVertex
 10
1382.9776
 20
873.147256
 30
0.0
  0
VERTEX
  5
704
100
AcDbEntity
  8
止水栓
  6
EXLTYPE2
 62
     6
100
AcDbVertex
100
AcDb2dVertex
 10
1382.823791
 20
872.68583
 30
0.0
  0
VERTEX
  5
705
100
AcDbEntity
  8
止水栓
  6
EXLTYPE2
 62
     6
100
AcDbVertex
100
AcDb2dVertex
 10
1382.713928
 20
872.212197
 30
0.0
  0
VERTEX
  5
706
100
AcDbEntity
  8
止水栓
  6
EXLTYPE2
 62
     6
100
AcDbVertex
100
AcDb2dVertex
 10
1382.64801
 20
871.73124
 30
0.0
  0
VERTEX
  5
707
100
AcDbEntity
  8
止水栓
  6
EXLTYPE2
 62
     6
100
AcDbVertex
100
AcDb2dVertex
 10
1382.626037
 20
871.247842
 30
0.0
  0
SEQEND
  5
708
100
AcDbEntity
  8
止水栓
  6
EXLTYPE2
 62
     6
  0
LINE
  5
709
100
AcDbEntity
  8
止水栓
  6
EXLTYPE2
 62
     6
100
AcDbLine
 10
1398.982971
 20
865.469033
 30
0.0
 11
1398.982971
 21
860.469033
 31
0.0
  0
POLYLINE
  5
70A
100
AcDbEntity
  8
止水栓
  6
EXLTYPE2
 62
     6
100
AcDb2dPolyline
 66
     1
 10
0.0
 20
0.0
 30
0.0
 70
   128
  0
VERTEX
  5
70B
100
AcDbEntity
  8
止水栓
  6
EXLTYPE2
 62
     6
100
AcDbVertex
100
AcDb2dVertex
 10
1396.08551
 20
871.211221
 30
0.0
  0
VERTEX
  5
70C
100
AcDbEntity
  8
止水栓
  6
EXLTYPE2
 62
     6
100
AcDbVertex
100
AcDb2dVertex
 10
1396.095275
 20
870.808389
 30
0.0
  0
VERTEX
  5
70D
100
AcDbEntity
  8
止水栓
  6
EXLTYPE2
 62
     6
100
AcDbVertex
100
AcDb2dVertex
 10
1396.124572
 20
870.407998
 30
0.0
  0
VERTEX
  5
70E
100
AcDbEntity
  8
止水栓
  6
EXLTYPE2
 62
     6
100
AcDbVertex
100
AcDb2dVertex
 10
1396.170959
 20
870.01249
 30
0.0
  0
VERTEX
  5
70F
100
AcDbEntity
  8
止水栓
  6
EXLTYPE2
 62
     6
100
AcDbVertex
100
AcDb2dVertex
 10
1396.234436
 20
869.629189
 30
0.0
  0
VERTEX
  5
710
100
AcDbEntity
  8
止水栓
  6
EXLTYPE2
 62
     6
100
AcDbVertex
100
AcDb2dVertex
 10
1396.315002
 20
869.255654
 30
0.0
  0
VERTEX
  5
711
100
AcDbEntity
  8
止水栓
  6
EXLTYPE2
 62
     6
100
AcDbVertex
100
AcDb2dVertex
 10
1396.4151
 20
868.896767
 30
0.0
  0
VERTEX
  5
712
100
AcDbEntity
  8
止水栓
  6
EXLTYPE2
 62
     6
100
AcDbVertex
100
AcDb2dVertex
 10
1396.529846
 20
868.557412
 30
0.0
  0
VERTEX
  5
713
100
AcDbEntity
  8
止水栓
  6
EXLTYPE2
 62
     6
100
AcDbVertex
100
AcDb2dVertex
 10
1396.65924
 20
868.235146
 30
0.0
  0
VERTEX
  5
714
100
AcDbEntity
  8
止水栓
  6
EXLTYPE2
 62
     6
100
AcDbVertex
100
AcDb2dVertex
 10
1396.803283
 20
867.937295
 30
0.0
  0
VERTEX
  5
715
100
AcDbEntity
  8
止水栓
  6
EXLTYPE2
 62
     6
100
AcDbVertex
100
AcDb2dVertex
 10
1396.961975
 20
867.666299
 30
0.0
  0
VERTEX
  5
716
100
AcDbEntity
  8
止水栓
  6
EXLTYPE2
 62
     6
100
AcDbVertex
100
AcDb2dVertex
 10
1397.130432
 20
867.419717
 30
0.0
  0
VERTEX
  5
717
100
AcDbEntity
  8
止水栓
  6
EXLTYPE2
 62
     6
100
AcDbVertex
100
AcDb2dVertex
 10
1397.311096
 20
867.202432
 30
0.0
  0
VERTEX
  5
718
100
AcDbEntity
  8
止水栓
  6
EXLTYPE2
 62
     6
100
AcDbVertex
100
AcDb2dVertex
 10
1397.501525
 20
867.014443
 30
0.0
  0
VERTEX
  5
719
100
AcDbEntity
  8
止水栓
  6
EXLTYPE2
 62
     6
100
AcDbVertex
100
AcDb2dVertex
 10
1397.699279
 20
866.860635
 30
0.0
  0
VERTEX
  5
71A
100
AcDbEntity
  8
止水栓
  6
EXLTYPE2
 62
     6
100
AcDbVertex
100
AcDb2dVertex
 10
1397.901916
 20
866.741006
 30
0.0
  0
VERTEX
  5
71B
100
AcDbEntity
  8
止水栓
  6
EXLTYPE2
 62
     6
100
AcDbVertex
100
AcDb2dVertex
 10
1398.111877
 20
866.653115
 30
0.0
  0
VERTEX
  5
71C
100
AcDbEntity
  8
止水栓
  6
EXLTYPE2
 62
     6
100
AcDbVertex
100
AcDb2dVertex
 10
1398.321838
 20
866.599404
 30
0.0
  0
VERTEX
  5
71D
100
AcDbEntity
  8
止水栓
  6
EXLTYPE2
 62
     6
100
AcDbVertex
100
AcDb2dVertex
 10
1398.536682
 20
866.582314
 30
0.0
  0
VERTEX
  5
71E
100
AcDbEntity
  8
止水栓
  6
EXLTYPE2
 62
     6
100
AcDbVertex
100
AcDb2dVertex
 10
1398.749084
 20
866.599404
 30
0.0
  0
VERTEX
  5
71F
100
AcDbEntity
  8
止水栓
  6
EXLTYPE2
 62
     6
100
AcDbVertex
100
AcDb2dVertex
 10
1398.961486
 20
866.653115
 30
0.0
  0
VERTEX
  5
720
100
AcDbEntity
  8
止水栓
  6
EXLTYPE2
 62
     6
100
AcDbVertex
100
AcDb2dVertex
 10
1399.171447
 20
866.741006
 30
0.0
  0
VERTEX
  5
721
100
AcDbEntity
  8
止水栓
  6
EXLTYPE2
 62
     6
100
AcDbVertex
100
AcDb2dVertex
 10
1399.374084
 20
866.860635
 30
0.0
  0
VERTEX
  5
722
100
AcDbEntity
  8
止水栓
  6
EXLTYPE2
 62
     6
100
AcDbVertex
100
AcDb2dVertex
 10
1399.571838
 20
867.016885
 30
0.0
  0
VERTEX
  5
723
100
AcDbEntity
  8
止水栓
  6
EXLTYPE2
 62
     6
100
AcDbVertex
100
AcDb2dVertex
 10
1399.759826
 20
867.202432
 30
0.0
  0
VERTEX
  5
724
100
AcDbEntity
  8
止水栓
  6
EXLTYPE2
 62
     6
100
AcDbVertex
100
AcDb2dVertex
 10
1399.94049
 20
867.419717
 30
0.0
  0
VERTEX
  5
725
100
AcDbEntity
  8
止水栓
  6
EXLTYPE2
 62
     6
100
AcDbVertex
100
AcDb2dVertex
 10
1400.111389
 20
867.663857
 30
0.0
  0
VERTEX
  5
726
100
AcDbEntity
  8
止水栓
  6
EXLTYPE2
 62
     6
100
AcDbVertex
100
AcDb2dVertex
 10
1400.267639
 20
867.937295
 30
0.0
  0
VERTEX
  5
727
100
AcDbEntity
  8
止水栓
  6
EXLTYPE2
 62
     6
100
AcDbVertex
100
AcDb2dVertex
 10
1400.411682
 20
868.235146
 30
0.0
  0
VERTEX
  5
728
100
AcDbEntity
  8
止水栓
  6
EXLTYPE2
 62
     6
100
AcDbVertex
100
AcDb2dVertex
 10
1400.543518
 20
868.557412
 30
0.0
  0
VERTEX
  5
729
100
AcDbEntity
  8
止水栓
  6
EXLTYPE2
 62
     6
100
AcDbVertex
100
AcDb2dVertex
 10
1400.658264
 20
868.896767
 30
0.0
  0
VERTEX
  5
72A
100
AcDbEntity
  8
止水栓
  6
EXLTYPE2
 62
     6
100
AcDbVertex
100
AcDb2dVertex
 10
1400.75592
 20
869.255654
 30
0.0
  0
VERTEX
  5
72B
100
AcDbEntity
  8
止水栓
  6
EXLTYPE2
 62
     6
100
AcDbVertex
100
AcDb2dVertex
 10
1400.836486
 20
869.626748
 30
0.0
  0
VERTEX
  5
72C
100
AcDbEntity
  8
止水栓
  6
EXLTYPE2
 62
     6
100
AcDbVertex
100
AcDb2dVertex
 10
1400.902404
 20
870.01249
 30
0.0
  0
VERTEX
  5
72D
100
AcDbEntity
  8
止水栓
  6
EXLTYPE2
 62
     6
100
AcDbVertex
100
AcDb2dVertex
 10
1400.948791
 20
870.407998
 30
0.0
  0
VERTEX
  5
72E
100
AcDbEntity
  8
止水栓
  6
EXLTYPE2
 62
     6
100
AcDbVertex
100
AcDb2dVertex
 10
1400.975647
 20
870.808389
 30
0.0
  0
VERTEX
  5
72F
100
AcDbEntity
  8
止水栓
  6
EXLTYPE2
 62
     6
100
AcDbVertex
100
AcDb2dVertex
 10
1400.985412
 20
871.211221
 30
0.0
  0
VERTEX
  5
730
100
AcDbEntity
  8
止水栓
  6
EXLTYPE2
 62
     6
100
AcDbVertex
100
AcDb2dVertex
 10
1400.975647
 20
871.614053
 30
0.0
  0
VERTEX
  5
731
100
AcDbEntity
  8
止水栓
  6
EXLTYPE2
 62
     6
100
AcDbVertex
100
AcDb2dVertex
 10
1400.948791
 20
872.014443
 30
0.0
  0
VERTEX
  5
732
100
AcDbEntity
  8
止水栓
  6
EXLTYPE2
 62
     6
100
AcDbVertex
100
AcDb2dVertex
 10
1400.902404
 20
872.409951
 30
0.0
  0
VERTEX
  5
733
100
AcDbEntity
  8
止水栓
  6
EXLTYPE2
 62
     6
100
AcDbVertex
100
AcDb2dVertex
 10
1400.838928
 20
872.795693
 30
0.0
  0
VERTEX
  5
734
100
AcDbEntity
  8
止水栓
  6
EXLTYPE2
 62
     6
100
AcDbVertex
100
AcDb2dVertex
 10
1400.75592
 20
873.169228
 30
0.0
  0
VERTEX
  5
735
100
AcDbEntity
  8
止水栓
  6
EXLTYPE2
 62
     6
100
AcDbVertex
100
AcDb2dVertex
 10
1400.658264
 20
873.528115
 30
0.0
  0
VERTEX
  5
736
100
AcDbEntity
  8
止水栓
  6
EXLTYPE2
 62
     6
100
AcDbVertex
100
AcDb2dVertex
 10
1400.543518
 20
873.867471
 30
0.0
  0
VERTEX
  5
737
100
AcDbEntity
  8
止水栓
  6
EXLTYPE2
 62
     6
100
AcDbVertex
100
AcDb2dVertex
 10
1400.411682
 20
874.189736
 30
0.0
  0
VERTEX
  5
738
100
AcDbEntity
  8
止水栓
  6
EXLTYPE2
 62
     6
100
AcDbVertex
100
AcDb2dVertex
 10
1400.267639
 20
874.485146
 30
0.0
  0
VERTEX
  5
739
100
AcDbEntity
  8
止水栓
  6
EXLTYPE2
 62
     6
100
AcDbVertex
100
AcDb2dVertex
 10
1400.111389
 20
874.758584
 30
0.0
  0
VERTEX
  5
73A
100
AcDbEntity
  8
止水栓
  6
EXLTYPE2
 62
     6
100
AcDbVertex
100
AcDb2dVertex
 10
1399.94049
 20
875.005166
 30
0.0
  0
VERTEX
  5
73B
100
AcDbEntity
  8
止水栓
  6
EXLTYPE2
 62
     6
100
AcDbVertex
100
AcDb2dVertex
 10
1399.762268
 20
875.222451
 30
0.0
  0
VERTEX
  5
73C
100
AcDbEntity
  8
止水栓
  6
EXLTYPE2
 62
     6
100
AcDbVertex
100
AcDb2dVertex
 10
1399.571838
 20
875.407998
 30
0.0
  0
VERTEX
  5
73D
100
AcDbEntity
  8
止水栓
  6
EXLTYPE2
 62
     6
100
AcDbVertex
100
AcDb2dVertex
 10
1399.374084
 20
875.561807
 30
0.0
  0
VERTEX
  5
73E
100
AcDbEntity
  8
止水栓
  6
EXLTYPE2
 62
     6
100
AcDbVertex
100
AcDb2dVertex
 10
1399.171447
 20
875.683877
 30
0.0
  0
VERTEX
  5
73F
100
AcDbEntity
  8
止水栓
  6
EXLTYPE2
 62
     6
100
AcDbVertex
100
AcDb2dVertex
 10
1398.961486
 20
875.771767
 30
0.0
  0
VERTEX
  5
740
100
AcDbEntity
  8
止水栓
  6
EXLTYPE2
 62
     6
100
AcDbVertex
100
AcDb2dVertex
 10
1398.749084
 20
875.825478
 30
0.0
  0
VERTEX
  5
741
100
AcDbEntity
  8
止水栓
  6
EXLTYPE2
 62
     6
100
AcDbVertex
100
AcDb2dVertex
 10
1398.536682
 20
875.842568
 30
0.0
  0
VERTEX
  5
742
100
AcDbEntity
  8
止水栓
  6
EXLTYPE2
 62
     6
100
AcDbVertex
100
AcDb2dVertex
 10
1398.321838
 20
875.823037
 30
0.0
  0
VERTEX
  5
743
100
AcDbEntity
  8
止水栓
  6
EXLTYPE2
 62
     6
100
AcDbVertex
100
AcDb2dVertex
 10
1398.111877
 20
875.771767
 30
0.0
  0
VERTEX
  5
744
100
AcDbEntity
  8
止水栓
  6
EXLTYPE2
 62
     6
100
AcDbVertex
100
AcDb2dVertex
 10
1397.901916
 20
875.683877
 30
0.0
  0
VERTEX
  5
745
100
AcDbEntity
  8
止水栓
  6
EXLTYPE2
 62
     6
100
AcDbVertex
100
AcDb2dVertex
 10
1397.699279
 20
875.561807
 30
0.0
  0
VERTEX
  5
746
100
AcDbEntity
  8
止水栓
  6
EXLTYPE2
 62
     6
100
AcDbVertex
100
AcDb2dVertex
 10
1397.501525
 20
875.407998
 30
0.0
  0
SEQEND
  5
747
100
AcDbEntity
  8
止水栓
  6
EXLTYPE2
 62
     6
  0
POLYLINE
  5
748
100
AcDbEntity
  8
止水栓
  6
EXLTYPE2
 62
     6
100
AcDb2dPolyline
 66
     1
 10
0.0
 20
0.0
 30
0.0
 70
   128
  0
VERTEX
  5
749
100
AcDbEntity
  8
止水栓
  6
EXLTYPE2
 62
     6
100
AcDbVertex
100
AcDb2dVertex
 10
1396.170959
 20
872.409951
 30
0.0
  0
VERTEX
  5
74A
100
AcDbEntity
  8
止水栓
  6
EXLTYPE2
 62
     6
100
AcDbVertex
100
AcDb2dVertex
 10
1396.124572
 20
872.016885
 30
0.0
  0
VERTEX
  5
74B
100
AcDbEntity
  8
止水栓
  6
EXLTYPE2
 62
     6
100
AcDbVertex
100
AcDb2dVertex
 10
1396.095275
 20
871.616494
 30
0.0
  0
VERTEX
  5
74C
100
AcDbEntity
  8
止水栓
  6
EXLTYPE2
 62
     6
100
AcDbVertex
100
AcDb2dVertex
 10
1396.08551
 20
871.213662
 30
0.0
  0
SEQEND
  5
74D
100
AcDbEntity
  8
止水栓
  6
EXLTYPE2
 62
     6
  0
POLYLINE
  5
74E
100
AcDbEntity
  8
止水栓
  6
EXLTYPE2
 62
     6
100
AcDb2dPolyline
 66
     1
 10
0.0
 20
0.0
 30
0.0
 70
   128
  0
VERTEX
  5
74F
100
AcDbEntity
  8
止水栓
  6
EXLTYPE2
 62
     6
100
AcDbVertex
100
AcDb2dVertex
 10
1397.501525
 20
875.407998
 30
0.0
  0
VERTEX
  5
750
100
AcDbEntity
  8
止水栓
  6
EXLTYPE2
 62
     6
100
AcDbVertex
100
AcDb2dVertex
 10
1397.311096
 20
875.222451
 30
0.0
  0
VERTEX
  5
751
100
AcDbEntity
  8
止水栓
  6
EXLTYPE2
 62
     6
100
AcDbVertex
100
AcDb2dVertex
 10
1397.130432
 20
875.005166
 30
0.0
  0
VERTEX
  5
752
100
AcDbEntity
  8
止水栓
  6
EXLTYPE2
 62
     6
100
AcDbVertex
100
AcDb2dVertex
 10
1396.961975
 20
874.758584
 30
0.0
  0
VERTEX
  5
753
100
AcDbEntity
  8
止水栓
  6
EXLTYPE2
 62
     6
100
AcDbVertex
100
AcDb2dVertex
 10
1396.803283
 20
874.485146
 30
0.0
  0
VERTEX
  5
754
100
AcDbEntity
  8
止水栓
  6
EXLTYPE2
 62
     6
100
AcDbVertex
100
AcDb2dVertex
 10
1396.65924
 20
874.187295
 30
0.0
  0
VERTEX
  5
755
100
AcDbEntity
  8
止水栓
  6
EXLTYPE2
 62
     6
100
AcDbVertex
100
AcDb2dVertex
 10
1396.529846
 20
873.867471
 30
0.0
  0
VERTEX
  5
756
100
AcDbEntity
  8
止水栓
  6
EXLTYPE2
 62
     6
100
AcDbVertex
100
AcDb2dVertex
 10
1396.4151
 20
873.528115
 30
0.0
  0
VERTEX
  5
757
100
AcDbEntity
  8
止水栓
  6
EXLTYPE2
 62
     6
100
AcDbVertex
100
AcDb2dVertex
 10
1396.315002
 20
873.169228
 30
0.0
  0
VERTEX
  5
758
100
AcDbEntity
  8
止水栓
  6
EXLTYPE2
 62
     6
100
AcDbVertex
100
AcDb2dVertex
 10
1396.234436
 20
872.795693
 30
0.0
  0
VERTEX
  5
759
100
AcDbEntity
  8
止水栓
  6
EXLTYPE2
 62
     6
100
AcDbVertex
100
AcDb2dVertex
 10
1396.170959
 20
872.409951
 30
0.0
  0
SEQEND
  5
75A
100
AcDbEntity
  8
止水栓
  6
EXLTYPE2
 62
     6
  0
LINE
  5
75B
100
AcDbEntity
  8
止水栓
  6
EXLTYPE2
 62
     6
100
AcDbLine
 10
1377.982971
 20
865.469033
 30
0.0
 11
1377.982971
 21
860.469033
 31
0.0
  0
POLYLINE
  5
75C
100
AcDbEntity
  8
止水栓
  6
EXLTYPE2
 62
     6
100
AcDb2dPolyline
 66
     1
 10
0.0
 20
0.0
 30
0.0
 70
   128
  0
VERTEX
  5
75D
100
AcDbEntity
  8
止水栓
  6
EXLTYPE2
 62
     6
100
AcDbVertex
100
AcDb2dVertex
 10
1376.070861
 20
872.510049
 30
0.0
  0
VERTEX
  5
75E
100
AcDbEntity
  8
止水栓
  6
EXLTYPE2
 62
     6
100
AcDbVertex
100
AcDb2dVertex
 10
1376.024475
 20
872.085244
 30
0.0
  0
VERTEX
  5
75F
100
AcDbEntity
  8
止水栓
  6
EXLTYPE2
 62
     6
100
AcDbVertex
100
AcDb2dVertex
 10
1375.997619
 20
871.653115
 30
0.0
  0
VERTEX
  5
760
100
AcDbEntity
  8
止水栓
  6
EXLTYPE2
 62
     6
100
AcDbVertex
100
AcDb2dVertex
 10
1375.987854
 20
871.218545
 30
0.0
  0
SEQEND
  5
761
100
AcDbEntity
  8
止水栓
  6
EXLTYPE2
 62
     6
  0
POLYLINE
  5
762
100
AcDbEntity
  8
止水栓
  6
EXLTYPE2
 62
     6
100
AcDb2dPolyline
 66
     1
 10
0.0
 20
0.0
 30
0.0
 70
   128
  0
VERTEX
  5
763
100
AcDbEntity
  8
止水栓
  6
EXLTYPE2
 62
     6
100
AcDbVertex
100
AcDb2dVertex
 10
1377.401428
 20
875.740029
 30
0.0
  0
VERTEX
  5
764
100
AcDbEntity
  8
止水栓
  6
EXLTYPE2
 62
     6
100
AcDbVertex
100
AcDb2dVertex
 10
1377.21344
 20
875.539834
 30
0.0
  0
VERTEX
  5
765
100
AcDbEntity
  8
止水栓
  6
EXLTYPE2
 62
     6
100
AcDbVertex
100
AcDb2dVertex
 10
1377.032775
 20
875.305459
 30
0.0
  0
VERTEX
  5
766
100
AcDbEntity
  8
止水栓
  6
EXLTYPE2
 62
     6
100
AcDbVertex
100
AcDb2dVertex
 10
1376.861877
 20
875.041787
 30
0.0
  0
VERTEX
  5
767
100
AcDbEntity
  8
止水栓
  6
EXLTYPE2
 62
     6
100
AcDbVertex
100
AcDb2dVertex
 10
1376.705627
 20
874.746377
 30
0.0
  0
VERTEX
  5
768
100
AcDbEntity
  8
止水栓
  6
EXLTYPE2
 62
     6
100
AcDbVertex
100
AcDb2dVertex
 10
1376.561584
 20
874.426553
 30
0.0
  0
VERTEX
  5
769
100
AcDbEntity
  8
止水栓
  6
EXLTYPE2
 62
     6
100
AcDbVertex
100
AcDb2dVertex
 10
1376.429748
 20
874.079873
 30
0.0
  0
VERTEX
  5
76A
100
AcDbEntity
  8
止水栓
  6
EXLTYPE2
 62
     6
100
AcDbVertex
100
AcDb2dVertex
 10
1376.315002
 20
873.713662
 30
0.0
  0
VERTEX
  5
76B
100
AcDbEntity
  8
止水栓
  6
EXLTYPE2
 62
     6
100
AcDbVertex
100
AcDb2dVertex
 10
1376.217346
 20
873.32792
 30
0.0
  0
VERTEX
  5
76C
100
AcDbEntity
  8
止水栓
  6
EXLTYPE2
 62
     6
100
AcDbVertex
100
AcDb2dVertex
 10
1376.136779
 20
872.925088
 30
0.0
  0
VERTEX
  5
76D
100
AcDbEntity
  8
止水栓
  6
EXLTYPE2
 62
     6
100
AcDbVertex
100
AcDb2dVertex
 10
1376.070861
 20
872.510049
 30
0.0
  0
SEQEND
  5
76E
100
AcDbEntity
  8
止水栓
  6
EXLTYPE2
 62
     6
  0
ARC
  5
76F
100
AcDbEntity
  8
止水栓
  6
EXLTYPE2
 62
     6
100
AcDbCircle
 10
1386.732483
 20
871.47001
 30
0.0
 40
10.998535
100
AcDbArc
 50
146.94841
 51
213.059082
  0
LINE
  5
770
100
AcDbEntity
  8
止水栓
  6
EXLTYPE2
 62
     6
100
AcDbLine
 10
1377.982971
 20
860.469033
 30
0.0
 11
1398.982971
 21
860.469033
 31
0.0
  0
LINE
  5
771
100
AcDbEntity
  8
止水栓
  6
EXLTYPE2
 62
     6
100
AcDbLine
 10
1377.513733
 20
865.469033
 30
0.0
 11
1399.452209
 21
865.469033
 31
0.0
  0
POLYLINE
  5
772
100
AcDbEntity
  8
止水栓
  6
EXLTYPE2
 62
     6
100
AcDb2dPolyline
 66
     1
 10
0.0
 20
0.0
 30
0.0
 70
   128
  0
VERTEX
  5
773
100
AcDbEntity
  8
止水栓
  6
EXLTYPE2
 62
     6
100
AcDbVertex
100
AcDb2dVertex
 10
1375.987854
 20
871.218545
 30
0.0
  0
VERTEX
  5
774
100
AcDbEntity
  8
止水栓
  6
EXLTYPE2
 62
     6
100
AcDbVertex
100
AcDb2dVertex
 10
1375.997619
 20
870.781533
 30
0.0
  0
VERTEX
  5
775
100
AcDbEntity
  8
止水栓
  6
EXLTYPE2
 62
     6
100
AcDbVertex
100
AcDb2dVertex
 10
1376.024475
 20
870.349404
 30
0.0
  0
VERTEX
  5
776
100
AcDbEntity
  8
止水栓
  6
EXLTYPE2
 62
     6
100
AcDbVertex
100
AcDb2dVertex
 10
1376.070861
 20
869.924599
 30
0.0
  0
VERTEX
  5
777
100
AcDbEntity
  8
止水栓
  6
EXLTYPE2
 62
     6
100
AcDbVertex
100
AcDb2dVertex
 10
1376.136779
 20
869.50956
 30
0.0
  0
VERTEX
  5
778
100
AcDbEntity
  8
止水栓
  6
EXLTYPE2
 62
     6
100
AcDbVertex
100
AcDb2dVertex
 10
1376.217346
 20
869.10917
 30
0.0
  0
VERTEX
  5
779
100
AcDbEntity
  8
止水栓
  6
EXLTYPE2
 62
     6
100
AcDbVertex
100
AcDb2dVertex
 10
1376.315002
 20
868.723428
 30
0.0
  0
VERTEX
  5
77A
100
AcDbEntity
  8
止水栓
  6
EXLTYPE2
 62
     6
100
AcDbVertex
100
AcDb2dVertex
 10
1376.43219
 20
868.354775
 30
0.0
  0
VERTEX
  5
77B
100
AcDbEntity
  8
止水栓
  6
EXLTYPE2
 62
     6
100
AcDbVertex
100
AcDb2dVertex
 10
1376.561584
 20
868.010537
 30
0.0
  0
VERTEX
  5
77C
100
AcDbEntity
  8
止水栓
  6
EXLTYPE2
 62
     6
100
AcDbVertex
100
AcDb2dVertex
 10
1376.705627
 20
867.688271
 30
0.0
  0
VERTEX
  5
77D
100
AcDbEntity
  8
止水栓
  6
EXLTYPE2
 62
     6
100
AcDbVertex
100
AcDb2dVertex
 10
1376.864318
 20
867.395303
 30
0.0
  0
VERTEX
  5
77E
100
AcDbEntity
  8
止水栓
  6
EXLTYPE2
 62
     6
100
AcDbVertex
100
AcDb2dVertex
 10
1377.032775
 20
867.129189
 30
0.0
  0
VERTEX
  5
77F
100
AcDbEntity
  8
止水栓
  6
EXLTYPE2
 62
     6
100
AcDbVertex
100
AcDb2dVertex
 10
1377.21344
 20
866.897256
 30
0.0
  0
VERTEX
  5
780
100
AcDbEntity
  8
止水栓
  6
EXLTYPE2
 62
     6
100
AcDbVertex
100
AcDb2dVertex
 10
1377.401428
 20
866.694619
 30
0.0
  0
VERTEX
  5
781
100
AcDbEntity
  8
止水栓
  6
EXLTYPE2
 62
     6
100
AcDbVertex
100
AcDb2dVertex
 10
1377.599182
 20
866.528603
 30
0.0
  0
VERTEX
  5
782
100
AcDbEntity
  8
止水栓
  6
EXLTYPE2
 62
     6
100
AcDbVertex
100
AcDb2dVertex
 10
1377.80426
 20
866.396767
 30
0.0
  0
VERTEX
  5
783
100
AcDbEntity
  8
止水栓
  6
EXLTYPE2
 62
     6
100
AcDbVertex
100
AcDb2dVertex
 10
1378.011779
 20
866.303994
 30
0.0
  0
VERTEX
  5
784
100
AcDbEntity
  8
止水栓
  6
EXLTYPE2
 62
     6
100
AcDbVertex
100
AcDb2dVertex
 10
1378.224182
 20
866.2454
 30
0.0
  0
VERTEX
  5
785
100
AcDbEntity
  8
止水栓
  6
EXLTYPE2
 62
     6
100
AcDbVertex
100
AcDb2dVertex
 10
1378.436584
 20
866.22831
 30
0.0
  0
VERTEX
  5
786
100
AcDbEntity
  8
止水栓
  6
EXLTYPE2
 62
     6
100
AcDbVertex
100
AcDb2dVertex
 10
1378.651428
 20
866.247842
 30
0.0
  0
VERTEX
  5
787
100
AcDbEntity
  8
止水栓
  6
EXLTYPE2
 62
     6
100
AcDbVertex
100
AcDb2dVertex
 10
1378.86383
 20
866.303994
 30
0.0
  0
VERTEX
  5
788
100
AcDbEntity
  8
止水栓
  6
EXLTYPE2
 62
     6
100
AcDbVertex
100
AcDb2dVertex
 10
1379.07135
 20
866.396767
 30
0.0
  0
VERTEX
  5
789
100
AcDbEntity
  8
止水栓
  6
EXLTYPE2
 62
     6
100
AcDbVertex
100
AcDb2dVertex
 10
1379.276428
 20
866.528603
 30
0.0
  0
VERTEX
  5
78A
100
AcDbEntity
  8
止水栓
  6
EXLTYPE2
 62
     6
100
AcDbVertex
100
AcDb2dVertex
 10
1379.474182
 20
866.694619
 30
0.0
  0
VERTEX
  5
78B
100
AcDbEntity
  8
止水栓
  6
EXLTYPE2
 62
     6
100
AcDbVertex
100
AcDb2dVertex
 10
1379.66217
 20
866.897256
 30
0.0
  0
VERTEX
  5
78C
100
AcDbEntity
  8
止水栓
  6
EXLTYPE2
 62
     6
100
AcDbVertex
100
AcDb2dVertex
 10
1379.842834
 20
867.131631
 30
0.0
  0
VERTEX
  5
78D
100
AcDbEntity
  8
止水栓
  6
EXLTYPE2
 62
     6
100
AcDbVertex
100
AcDb2dVertex
 10
1380.011291
 20
867.395303
 30
0.0
  0
VERTEX
  5
78E
100
AcDbEntity
  8
止水栓
  6
EXLTYPE2
 62
     6
100
AcDbVertex
100
AcDb2dVertex
 10
1380.169983
 20
867.688271
 30
0.0
  0
VERTEX
  5
78F
100
AcDbEntity
  8
止水栓
  6
EXLTYPE2
 62
     6
100
AcDbVertex
100
AcDb2dVertex
 10
1380.314025
 20
868.010537
 30
0.0
  0
VERTEX
  5
790
100
AcDbEntity
  8
止水栓
  6
EXLTYPE2
 62
     6
100
AcDbVertex
100
AcDb2dVertex
 10
1380.44342
 20
868.354775
 30
0.0
  0
VERTEX
  5
791
100
AcDbEntity
  8
止水栓
  6
EXLTYPE2
 62
     6
100
AcDbVertex
100
AcDb2dVertex
 10
1380.558166
 20
868.723428
 30
0.0
  0
VERTEX
  5
792
100
AcDbEntity
  8
止水栓
  6
EXLTYPE2
 62
     6
100
AcDbVertex
100
AcDb2dVertex
 10
1380.658264
 20
869.10917
 30
0.0
  0
VERTEX
  5
793
100
AcDbEntity
  8
止水栓
  6
EXLTYPE2
 62
     6
100
AcDbVertex
100
AcDb2dVertex
 10
1380.73883
 20
869.512002
 30
0.0
  0
VERTEX
  5
794
100
AcDbEntity
  8
止水栓
  6
EXLTYPE2
 62
     6
100
AcDbVertex
100
AcDb2dVertex
 10
1380.804748
 20
869.927041
 30
0.0
  0
VERTEX
  5
795
100
AcDbEntity
  8
止水栓
  6
EXLTYPE2
 62
     6
100
AcDbVertex
100
AcDb2dVertex
 10
1380.851135
 20
870.351846
 30
0.0
  0
VERTEX
  5
796
100
AcDbEntity
  8
止水栓
  6
EXLTYPE2
 62
     6
100
AcDbVertex
100
AcDb2dVertex
 10
1380.87799
 20
870.783974
 30
0.0
  0
VERTEX
  5
797
100
AcDbEntity
  8
止水栓
  6
EXLTYPE2
 62
     6
100
AcDbVertex
100
AcDb2dVertex
 10
1380.887756
 20
871.218545
 30
0.0
  0
VERTEX
  5
798
100
AcDbEntity
  8
止水栓
  6
EXLTYPE2
 62
     6
100
AcDbVertex
100
AcDb2dVertex
 10
1380.87799
 20
871.653115
 30
0.0
  0
VERTEX
  5
799
100
AcDbEntity
  8
止水栓
  6
EXLTYPE2
 62
     6
100
AcDbVertex
100
AcDb2dVertex
 10
1380.848693
 20
872.085244
 30
0.0
  0
VERTEX
  5
79A
100
AcDbEntity
  8
止水栓
  6
EXLTYPE2
 62
     6
100
AcDbVertex
100
AcDb2dVertex
 10
1380.802307
 20
872.510049
 30
0.0
  0
VERTEX
  5
79B
100
AcDbEntity
  8
止水栓
  6
EXLTYPE2
 62
     6
100
AcDbVertex
100
AcDb2dVertex
 10
1380.73883
 20
872.925088
 30
0.0
  0
VERTEX
  5
79C
100
AcDbEntity
  8
止水栓
  6
EXLTYPE2
 62
     6
100
AcDbVertex
100
AcDb2dVertex
 10
1380.658264
 20
873.32792
 30
0.0
  0
VERTEX
  5
79D
100
AcDbEntity
  8
止水栓
  6
EXLTYPE2
 62
     6
100
AcDbVertex
100
AcDb2dVertex
 10
1380.558166
 20
873.713662
 30
0.0
  0
VERTEX
  5
79E
100
AcDbEntity
  8
止水栓
  6
EXLTYPE2
 62
     6
100
AcDbVertex
100
AcDb2dVertex
 10
1380.44342
 20
874.079873
 30
0.0
  0
VERTEX
  5
79F
100
AcDbEntity
  8
止水栓
  6
EXLTYPE2
 62
     6
100
AcDbVertex
100
AcDb2dVertex
 10
1380.314025
 20
874.426553
 30
0.0
  0
VERTEX
  5
7A0
100
AcDbEntity
  8
止水栓
  6
EXLTYPE2
 62
     6
100
AcDbVertex
100
AcDb2dVertex
 10
1380.169983
 20
874.746377
 30
0.0
  0
VERTEX
  5
7A1
100
AcDbEntity
  8
止水栓
  6
EXLTYPE2
 62
     6
100
AcDbVertex
100
AcDb2dVertex
 10
1380.011291
 20
875.041787
 30
0.0
  0
VERTEX
  5
7A2
100
AcDbEntity
  8
止水栓
  6
EXLTYPE2
 62
     6
100
AcDbVertex
100
AcDb2dVertex
 10
1379.842834
 20
875.305459
 30
0.0
  0
VERTEX
  5
7A3
100
AcDbEntity
  8
止水栓
  6
EXLTYPE2
 62
     6
100
AcDbVertex
100
AcDb2dVertex
 10
1379.66217
 20
875.539834
 30
0.0
  0
VERTEX
  5
7A4
100
AcDbEntity
  8
止水栓
  6
EXLTYPE2
 62
     6
100
AcDbVertex
100
AcDb2dVertex
 10
1379.474182
 20
875.740029
 30
0.0
  0
VERTEX
  5
7A5
100
AcDbEntity
  8
止水栓
  6
EXLTYPE2
 62
     6
100
AcDbVertex
100
AcDb2dVertex
 10
1379.276428
 20
875.908486
 30
0.0
  0
VERTEX
  5
7A6
100
AcDbEntity
  8
止水栓
  6
EXLTYPE2
 62
     6
100
AcDbVertex
100
AcDb2dVertex
 10
1379.07135
 20
876.037881
 30
0.0
  0
VERTEX
  5
7A7
100
AcDbEntity
  8
止水栓
  6
EXLTYPE2
 62
     6
100
AcDbVertex
100
AcDb2dVertex
 10
1378.86383
 20
876.133096
 30
0.0
  0
VERTEX
  5
7A8
100
AcDbEntity
  8
止水栓
  6
EXLTYPE2
 62
     6
100
AcDbVertex
100
AcDb2dVertex
 10
1378.651428
 20
876.189248
 30
0.0
  0
VERTEX
  5
7A9
100
AcDbEntity
  8
止水栓
  6
EXLTYPE2
 62
     6
100
AcDbVertex
100
AcDb2dVertex
 10
1378.436584
 20
876.208779
 30
0.0
  0
VERTEX
  5
7AA
100
AcDbEntity
  8
止水栓
  6
EXLTYPE2
 62
     6
100
AcDbVertex
100
AcDb2dVertex
 10
1378.224182
 20
876.189248
 30
0.0
  0
VERTEX
  5
7AB
100
AcDbEntity
  8
止水栓
  6
EXLTYPE2
 62
     6
100
AcDbVertex
100
AcDb2dVertex
 10
1378.011779
 20
876.133096
 30
0.0
  0
VERTEX
  5
7AC
100
AcDbEntity
  8
止水栓
  6
EXLTYPE2
 62
     6
100
AcDbVertex
100
AcDb2dVertex
 10
1377.80426
 20
876.037881
 30
0.0
  0
VERTEX
  5
7AD
100
AcDbEntity
  8
止水栓
  6
EXLTYPE2
 62
     6
100
AcDbVertex
100
AcDb2dVertex
 10
1377.599182
 20
875.908486
 30
0.0
  0
VERTEX
  5
7AE
100
AcDbEntity
  8
止水栓
  6
EXLTYPE2
 62
     6
100
AcDbVertex
100
AcDb2dVertex
 10
1377.401428
 20
875.740029
 30
0.0
  0
SEQEND
  5
7AF
100
AcDbEntity
  8
止水栓
  6
EXLTYPE2
 62
     6
  0
LINE
  5
7B0
100
AcDbEntity
  8
便座
  6
EXLTYPE3
 62
     6
100
AcDbLine
 10
474.0
 20
2246.999984
 30
0.0
 11
336.5
 21
2246.999984
 31
0.0
  0
LINE
  5
7B1
100
AcDbEntity
  8
便座
  6
CONTINUOUS
 62
     6
100
AcDbLine
 10
619.499916
 20
2634.499968
 30
0.0
 11
639.974919
 21
2634.499981
 31
0.0
  0
LINE
  5
7B2
100
AcDbEntity
  8
便座
  6
CONTINUOUS
 62
     6
100
AcDbLine
 10
619.499916
 20
2459.5
 30
0.0
 11
639.974919
 21
2459.499988
 31
0.0
  0
LINE
  5
7B3
100
AcDbEntity
  8
便座
  6
CONTINUOUS
 62
     6
100
AcDbLine
 10
619.49992
 20
2511.833449
 30
0.0
 11
619.49992
 21
2441.001052
 31
0.0
  0
ARC
  5
7B4
100
AcDbEntity
  8
便座
  6
CONTINUOUS
 62
     6
100
AcDbCircle
 10
806.99992
 20
2199.999984
 30
0.0
 40
530.0
100
AcDbArc
 50
74.521925
 51
90.0
  0
ARC
  5
7B5
100
AcDbEntity
  8
便座
  6
CONTINUOUS
 62
     6
100
AcDbCircle
 10
806.99992
 20
2249.999984
 30
0.0
 40
480.0
100
AcDbArc
 50
90.0
 51
106.511925
  0
ARC
  5
7B6
100
AcDbEntity
  8
便座
  6
CONTINUOUS
 62
     6
100
AcDbCircle
 10
1637.977873
 20
2546.999984
 30
0.0
 40
1000.0
100
AcDbArc
 50
178.088381
 51
181.911438
  0
ARC
  5
7B7
100
AcDbEntity
  8
便座
  6
CONTINUOUS
 62
     6
100
AcDbCircle
 10
879.054717
 20
2633.792171
 30
0.0
 40
260.0
100
AcDbArc
 50
285.478075
 51
310.998954
  0
ARC
  5
7B8
100
AcDbEntity
  8
便座
  6
CONTINUOUS
 62
     6
100
AcDbCircle
 10
806.99992
 20
2893.999984
 30
0.0
 40
530.0
100
AcDbArc
 50
270.0
 51
285.478075
  0
ARC
  5
7B9
100
AcDbEntity
  8
便座
  6
CONTINUOUS
 62
     6
100
AcDbCircle
 10
681.945365
 20
2422.14532
 30
0.0
 40
40.0
100
AcDbArc
 50
183.543389
 51
253.488075
  0
ARC
  5
7BA
100
AcDbEntity
  8
便座
  6
CONTINUOUS
 62
     6
100
AcDbCircle
 10
806.99992
 20
2843.999984
 30
0.0
 40
480.0
100
AcDbArc
 50
253.488075
 51
270.0
  0
ARC
  5
7BB
100
AcDbEntity
  8
便座
  6
CONTINUOUS
 62
     6
100
AcDbCircle
 10
681.945365
 20
2671.854649
 30
0.0
 40
40.0
100
AcDbArc
 50
106.511925
 51
176.456611
  0
ARC
  5
7BC
100
AcDbEntity
  8
便座
  6
CONTINUOUS
 62
     6
100
AcDbCircle
 10
879.054717
 20
2460.207798
 30
0.0
 40
260.0
100
AcDbArc
 50
49.001046
 51
74.521925
  0
ARC
  5
7BD
100
AcDbEntity
  8
便座
  6
CONTINUOUS
 62
     6
100
AcDbCircle
 10
2538.389521
 20
2556.898463
 30
0.0
 40
1900.0
100
AcDbArc
 50
176.464756
 51
179.299805
  0
ARC
  5
7BE
100
AcDbEntity
  8
便座
  6
CONTINUOUS
 62
     6
100
AcDbCircle
 10
2538.389521
 20
2537.101505
 30
0.0
 40
1900.0
100
AcDbArc
 50
180.700195
 51
183.535244
  0
ARC
  5
7BF
100
AcDbEntity
  8
便座
  6
CONTINUOUS
 62
     6
100
AcDbCircle
 10
954.49992
 20
2547.000777
 30
0.0
 40
145.0
100
AcDbArc
 50
359.999687
 51
49.253174
  0
ARC
  5
7C0
100
AcDbEntity
  8
便座
  6
CONTINUOUS
 62
     6
100
AcDbCircle
 10
954.49992
 20
2546.999191
 30
0.0
 40
145.0
100
AcDbArc
 50
310.746826
 51
0.000313
  0
LINE
  5
7C1
100
AcDbEntity
  8
便座
  6
CONTINUOUS
 62
     6
100
AcDbLine
 10
619.49992
 20
2582.166519
 30
0.0
 11
619.49992
 21
2652.998916
 31
0.0
  0
LINE
  5
7C2
100
AcDbEntity
  8
便座
  6
CONTINUOUS
 62
     6
100
AcDbLine
 10
584.667523
 20
2477.001052
 30
0.0
 11
655.49992
 21
2477.001052
 31
0.0
  0
LINE
  5
7C3
100
AcDbEntity
  8
便座
  6
CONTINUOUS
 62
     6
100
AcDbLine
 10
584.667523
 20
2616.998916
 30
0.0
 11
655.49992
 21
2616.998916
 31
0.0
  0
ARC
  5
7C4
100
AcDbEntity
  8
便座
  6
CONTINUOUS
 62
     6
100
AcDbCircle
 10
619.49992
 20
2477.001052
 30
0.0
 40
17.5
100
AcDbArc
 50
200.051043
 51
270.000061
  0
ARC
  5
7C5
100
AcDbEntity
  8
便座
  6
CONTINUOUS
 62
     6
100
AcDbCircle
 10
619.49992
 20
2477.001052
 30
0.0
 40
17.5
100
AcDbArc
 50
89.999924
 51
159.948957
  0
ARC
  5
7C6
100
AcDbEntity
  8
便座
  6
CONTINUOUS
 62
     6
100
AcDbCircle
 10
619.49992
 20
2616.998916
 30
0.0
 40
17.5
100
AcDbArc
 50
200.051043
 51
270.000076
  0
ARC
  5
7C7
100
AcDbEntity
  8
便座
  6
CONTINUOUS
 62
     6
100
AcDbCircle
 10
619.49992
 20
2616.998916
 30
0.0
 40
17.5
100
AcDbArc
 50
89.999939
 51
159.948957
  0
ARC
  5
7C8
100
AcDbEntity
  8
便座
  6
CONTINUOUS
 62
     6
100
AcDbCircle
 10
600.499935
 20
2477.001052
 30
0.0
 40
6.0
100
AcDbArc
 50
90.0
 51
270.0
  0
ARC
  5
7C9
100
AcDbEntity
  8
便座
  6
CONTINUOUS
 62
     6
100
AcDbCircle
 10
600.499935
 20
2616.998916
 30
0.0
 40
6.0
100
AcDbArc
 50
90.0
 51
270.0
  0
LINE
  5
7CA
100
AcDbEntity
  8
便座
  6
CONTINUOUS
 62
     6
100
AcDbLine
 10
610.499935
 20
2471.001052
 30
0.0
 11
600.499935
 21
2471.001052
 31
0.0
  0
LINE
  5
7CB
100
AcDbEntity
  8
便座
  6
CONTINUOUS
 62
     6
100
AcDbLine
 10
610.499935
 20
2483.001052
 30
0.0
 11
600.499935
 21
2483.001052
 31
0.0
  0
LINE
  5
7CC
100
AcDbEntity
  8
便座
  6
CONTINUOUS
 62
     6
100
AcDbLine
 10
610.499935
 20
2610.998916
 30
0.0
 11
600.499935
 21
2610.998916
 31
0.0
  0
LINE
  5
7CD
100
AcDbEntity
  8
便座
  6
CONTINUOUS
 62
     6
100
AcDbLine
 10
610.499935
 20
2622.998916
 30
0.0
 11
600.499935
 21
2622.998916
 31
0.0
  0
ARC
  5
7CE
100
AcDbEntity
  8
便座
  6
CONTINUOUS
 62
     6
100
AcDbCircle
 10
619.49992
 20
2477.001052
 30
0.0
 40
16.0
100
AcDbArc
 50
202.024313
 51
157.975687
  0
ARC
  5
7CF
100
AcDbEntity
  8
便座
  6
CONTINUOUS
 62
     6
100
AcDbCircle
 10
619.49992
 20
2616.998916
 30
0.0
 40
16.0
100
AcDbArc
 50
202.024313
 51
157.975687
  0
LINE
  5
7D0
100
AcDbEntity
  8
便座
  6
CONTINUOUS
 62
     6
100
AcDbLine
 10
638.867245
 20
2599.499966
 30
0.0
 11
619.49994
 21
2599.499968
 31
0.0
  0
LINE
  5
7D1
100
AcDbEntity
  8
便座
  6
CONTINUOUS
 62
     6
100
AcDbLine
 10
638.867245
 20
2494.500001
 30
0.0
 11
619.49994
 21
2494.5
 31
0.0
  0
LINE
  5
7D2
100
AcDbEntity
  8
便座
  6
EXLTYPE3
 62
     6
100
AcDbLine
 10
436.499985
 20
585.1
 30
0.0
 11
436.499985
 21
682.1
 31
0.0
  0
ARC
  5
7D3
100
AcDbEntity
  8
便座
  6
CONTINUOUS
 62
     6
100
AcDbCircle
 10
619.49992
 20
943.705841
 30
0.0
 40
12.5
100
AcDbArc
 50
0.0
 51
40.089928
  0
ARC
  5
7D4
100
AcDbEntity
  8
便座
  6
CONTINUOUS
 62
     6
100
AcDbCircle
 10
619.49992
 20
943.705841
 30
0.0
 40
12.5
100
AcDbArc
 50
135.42374
 51
180.0
  0
ARC
  5
7D5
100
AcDbEntity
  8
便座
  6
CONTINUOUS
 62
     6
100
AcDbCircle
 10
631.49992
 20
940.705841
 30
0.0
 40
1.0
100
AcDbArc
 50
270.0
 51
0.0
  0
ARC
  5
7D6
100
AcDbEntity
  8
便座
  6
CONTINUOUS
 62
     6
100
AcDbCircle
 10
631.49992
 20
941.705841
 30
0.0
 40
1.0
100
AcDbArc
 50
0.0
 51
90.0
  0
LINE
  5
7D7
100
AcDbEntity
  8
便座
  6
CONTINUOUS
 62
     6
100
AcDbLine
 10
632.49992
 20
941.705841
 30
0.0
 11
632.49992
 21
940.705841
 31
0.0
  0
ARC
  5
7D8
100
AcDbEntity
  8
便座
  6
CONTINUOUS
 62
     6
100
AcDbCircle
 10
632.19992
 20
943.405841
 30
0.0
 40
0.3
100
AcDbArc
 50
0.0
 51
90.0
  0
ARC
  5
7D9
100
AcDbEntity
  8
便座
  6
CONTINUOUS
 62
     6
100
AcDbCircle
 10
632.19992
 20
943.005841
 30
0.0
 40
0.3
100
AcDbArc
 50
270.0
 51
0.0
  0
LINE
  5
7DA
100
AcDbEntity
  8
便座
  6
CONTINUOUS
 62
     6
100
AcDbLine
 10
632.49992
 20
943.005841
 30
0.0
 11
632.49992
 21
943.405841
 31
0.0
  0
ARC
  5
7DB
100
AcDbEntity
  8
便座
  6
CONTINUOUS
 62
     6
100
AcDbCircle
 10
624.24992
 20
938.705841
 30
0.0
 40
1.0
100
AcDbArc
 50
90.0
 51
180.0
  0
ARC
  5
7DC
100
AcDbEntity
  8
便座
  6
CONTINUOUS
 62
     6
100
AcDbCircle
 10
621.49992
 20
928.205841
 30
0.0
 40
0.5
100
AcDbArc
 50
0.0
 51
90.0
  0
LINE
  5
7DD
100
AcDbEntity
  8
便座
  6
CONTINUOUS
 62
     6
100
AcDbLine
 10
606.49992
 20
943.005841
 30
0.0
 11
606.49992
 21
943.405841
 31
0.0
  0
ARC
  5
7DE
100
AcDbEntity
  8
便座
  6
CONTINUOUS
 62
     6
100
AcDbCircle
 10
606.79992
 20
943.005841
 30
0.0
 40
0.3
100
AcDbArc
 50
180.0
 51
270.0
  0
ARC
  5
7DF
100
AcDbEntity
  8
便座
  6
CONTINUOUS
 62
     6
100
AcDbCircle
 10
606.79992
 20
943.405841
 30
0.0
 40
0.3
100
AcDbArc
 50
90.0
 51
180.0
  0
ARC
  5
7E0
100
AcDbEntity
  8
便座
  6
CONTINUOUS
 62
     6
100
AcDbCircle
 10
617.49992
 20
928.205841
 30
0.0
 40
0.5
100
AcDbArc
 50
90.0
 51
180.0
  0
LINE
  5
7E1
100
AcDbEntity
  8
便座
  6
CONTINUOUS
 62
     6
100
AcDbLine
 10
606.49992
 20
941.705841
 30
0.0
 11
606.49992
 21
940.705841
 31
0.0
  0
LINE
  5
7E2
100
AcDbEntity
  8
便座
  6
CONTINUOUS
 62
     6
100
AcDbLine
 10
607.49992
 20
939.705841
 30
0.0
 11
614.74992
 21
939.705841
 31
0.0
  0
LINE
  5
7E3
100
AcDbEntity
  8
便座
  6
CONTINUOUS
 62
     6
100
AcDbLine
 10
615.74992
 20
929.205841
 30
0.0
 11
607.99992
 21
929.205841
 31
0.0
  0
LINE
  5
7E4
100
AcDbEntity
  8
便座
  6
CONTINUOUS
 62
     6
100
AcDbLine
 10
615.74992
 20
931.705841
 30
0.0
 11
607.99992
 21
931.705841
 31
0.0
  0
LINE
  5
7E5
100
AcDbEntity
  8
便座
  6
CONTINUOUS
 62
     6
100
AcDbLine
 10
615.74992
 20
934.205841
 30
0.0
 11
607.99992
 21
934.205841
 31
0.0
  0
LINE
  5
7E6
100
AcDbEntity
  8
便座
  6
CONTINUOUS
 62
     6
100
AcDbLine
 10
615.74992
 20
936.705841
 30
0.0
 11
607.99992
 21
936.705841
 31
0.0
  0
ARC
  5
7E7
100
AcDbEntity
  8
便座
  6
CONTINUOUS
 62
     6
100
AcDbCircle
 10
614.74992
 20
938.705841
 30
0.0
 40
1.0
100
AcDbArc
 50
0.0
 51
90.0
  0
ARC
  5
7E8
100
AcDbEntity
  8
便座
  6
CONTINUOUS
 62
     6
100
AcDbCircle
 10
607.49992
 20
941.705841
 30
0.0
 40
1.0
100
AcDbArc
 50
90.0
 51
180.0
  0
ARC
  5
7E9
100
AcDbEntity
  8
便座
  6
CONTINUOUS
 62
     6
100
AcDbCircle
 10
607.49992
 20
940.705841
 30
0.0
 40
1.0
100
AcDbArc
 50
180.0
 51
270.0
  0
LINE
  5
7EA
100
AcDbEntity
  8
便座
  6
CONTINUOUS
 62
     6
100
AcDbLine
 10
617.49992
 20
928.705841
 30
0.0
 11
621.49992
 21
928.705841
 31
0.0
  0
LINE
  5
7EB
100
AcDbEntity
  8
便座
  6
CONTINUOUS
 62
     6
100
AcDbLine
 10
623.24992
 20
936.705841
 30
0.0
 11
630.99992
 21
936.705841
 31
0.0
  0
LINE
  5
7EC
100
AcDbEntity
  8
便座
  6
CONTINUOUS
 62
     6
100
AcDbLine
 10
623.24992
 20
934.205841
 30
0.0
 11
630.99992
 21
934.205841
 31
0.0
  0
LINE
  5
7ED
100
AcDbEntity
  8
便座
  6
CONTINUOUS
 62
     6
100
AcDbLine
 10
623.24992
 20
931.705841
 30
0.0
 11
630.99992
 21
931.705841
 31
0.0
  0
LINE
  5
7EE
100
AcDbEntity
  8
便座
  6
CONTINUOUS
 62
     6
100
AcDbLine
 10
623.24992
 20
929.205841
 30
0.0
 11
630.99992
 21
929.205841
 31
0.0
  0
LINE
  5
7EF
100
AcDbEntity
  8
便座
  6
CONTINUOUS
 62
     6
100
AcDbLine
 10
631.49992
 20
939.705841
 30
0.0
 11
624.24992
 21
939.705841
 31
0.0
  0
LINE
  5
7F0
100
AcDbEntity
  8
便座
  6
CONTINUOUS
 62
     6
100
AcDbLine
 10
607.49992
 20
942.705841
 30
0.0
 11
631.49992
 21
942.705841
 31
0.0
  0
LINE
  5
7F1
100
AcDbEntity
  8
便座
  6
CONTINUOUS
 62
     6
100
AcDbLine
 10
606.99992
 20
943.705841
 30
0.0
 11
631.99992
 21
943.705841
 31
0.0
  0
LINE
  5
7F2
100
AcDbEntity
  8
便座
  6
CONTINUOUS
 62
     6
100
AcDbLine
 10
606.79992
 20
943.705841
 30
0.0
 11
632.19992
 21
943.705841
 31
0.0
  0
LINE
  5
7F3
100
AcDbEntity
  8
便座
  6
CONTINUOUS
 62
     6
100
AcDbLine
 10
606.79992
 20
942.705841
 30
0.0
 11
632.19992
 21
942.705841
 31
0.0
  0
ARC
  5
7F4
100
AcDbEntity
  8
便座
  6
CONTINUOUS
 62
     6
100
AcDbCircle
 10
629.99992
 20
923.205841
 30
0.0
 40
1.0
100
AcDbArc
 50
270.0
 51
0.0
  0
ARC
  5
7F5
100
AcDbEntity
  8
便座
  6
CONTINUOUS
 62
     6
100
AcDbCircle
 10
622.24992
 20
923.205841
 30
0.0
 40
1.0
100
AcDbArc
 50
270.0
 51
0.0
  0
LINE
  5
7F6
100
AcDbEntity
  8
便座
  6
CONTINUOUS
 62
     6
100
AcDbLine
 10
615.74992
 20
924.205841
 30
0.0
 11
607.99992
 21
924.205841
 31
0.0
  0
LINE
  5
7F7
100
AcDbEntity
  8
便座
  6
CONTINUOUS
 62
     6
100
AcDbLine
 10
615.74992
 20
926.705841
 30
0.0
 11
607.99992
 21
926.705841
 31
0.0
  0
ARC
  5
7F8
100
AcDbEntity
  8
便座
  6
CONTINUOUS
 62
     6
100
AcDbCircle
 10
616.74992
 20
923.205841
 30
0.0
 40
1.0
100
AcDbArc
 50
180.0
 51
270.0
  0
ARC
  5
7F9
100
AcDbEntity
  8
便座
  6
CONTINUOUS
 62
     6
100
AcDbCircle
 10
608.99992
 20
923.205841
 30
0.0
 40
1.0
100
AcDbArc
 50
180.0
 51
270.0
  0
LINE
  5
7FA
100
AcDbEntity
  8
便座
  6
CONTINUOUS
 62
     6
100
AcDbLine
 10
623.24992
 20
926.705841
 30
0.0
 11
630.99992
 21
926.705841
 31
0.0
  0
LINE
  5
7FB
100
AcDbEntity
  8
便座
  6
CONTINUOUS
 62
     6
100
AcDbLine
 10
623.24992
 20
924.205841
 30
0.0
 11
630.99992
 21
924.205841
 31
0.0
  0
LINE
  5
7FC
100
AcDbEntity
  8
便座
  6
CONTINUOUS
 62
     6
100
AcDbLine
 10
608.99992
 20
922.205841
 30
0.0
 11
629.99992
 21
922.205841
 31
0.0
  0
LINE
  5
7FD
100
AcDbEntity
  8
便座
  6
CONTINUOUS
 62
     6
100
AcDbLine
 10
629.459206
 20
923.205841
 30
0.0
 11
629.459206
 21
939.705841
 31
0.0
  0
LINE
  5
7FE
100
AcDbEntity
  8
便座
  6
CONTINUOUS
 62
     6
100
AcDbLine
 10
626.891977
 20
923.205841
 30
0.0
 11
626.891977
 21
939.705841
 31
0.0
  0
LINE
  5
7FF
100
AcDbEntity
  8
便座
  6
CONTINUOUS
 62
     6
100
AcDbLine
 10
623.24992
 20
938.705841
 30
0.0
 11
623.24992
 21
923.205841
 31
0.0
  0
LINE
  5
800
100
AcDbEntity
  8
便座
  6
CONTINUOUS
 62
     6
100
AcDbLine
 10
630.99992
 20
939.705841
 30
0.0
 11
630.99992
 21
923.205841
 31
0.0
  0
LINE
  5
801
100
AcDbEntity
  8
便座
  6
CONTINUOUS
 62
     6
100
AcDbLine
 10
621.99992
 20
922.205841
 30
0.0
 11
621.99992
 21
928.205841
 31
0.0
  0
LINE
  5
802
100
AcDbEntity
  8
便座
  6
CONTINUOUS
 62
     6
100
AcDbLine
 10
616.99992
 20
922.205841
 30
0.0
 11
616.99992
 21
928.205841
 31
0.0
  0
LINE
  5
803
100
AcDbEntity
  8
便座
  6
CONTINUOUS
 62
     6
100
AcDbLine
 10
607.99992
 20
939.705841
 30
0.0
 11
607.99992
 21
923.205841
 31
0.0
  0
LINE
  5
804
100
AcDbEntity
  8
便座
  6
CONTINUOUS
 62
     6
100
AcDbLine
 10
615.74992
 20
938.705841
 30
0.0
 11
615.74992
 21
923.205841
 31
0.0
  0
LINE
  5
805
100
AcDbEntity
  8
便座
  6
CONTINUOUS
 62
     6
100
AcDbLine
 10
612.107863
 20
923.205841
 30
0.0
 11
612.107863
 21
939.705841
 31
0.0
  0
LINE
  5
806
100
AcDbEntity
  8
便座
  6
CONTINUOUS
 62
     6
100
AcDbLine
 10
609.540634
 20
923.205841
 30
0.0
 11
609.540634
 21
939.705841
 31
0.0
  0
LINE
  5
807
100
AcDbEntity
  8
便座
  6
CONTINUOUS
 62
     6
100
AcDbLine
 10
717.794684
 20
1004.904796
 30
0.0
 11
718.291552
 21
1003.859943
 31
0.0
  0
LINE
  5
808
100
AcDbEntity
  8
便座
  6
CONTINUOUS
 62
     6
100
AcDbLine
 10
713.557358
 20
1009.424207
 30
0.0
 11
714.660567
 21
1008.648605
 31
0.0
  0
LINE
  5
809
100
AcDbEntity
  8
便座
  6
CONTINUOUS
 62
     6
100
AcDbLine
 10
658.929352
 20
996.000324
 30
0.0
 11
657.390327
 21
1025.366676
 31
0.0
  0
ARC
  5
80A
100
AcDbEntity
  8
便座
  6
CONTINUOUS
 62
     6
100
AcDbCircle
 10
707.21867
 20
999.234882
 30
0.0
 40
12.0
100
AcDbArc
 50
28.196236
 51
51.672324
  0
ARC
  5
80B
100
AcDbEntity
  8
便座
  6
CONTINUOUS
 62
     6
100
AcDbCircle
 10
527.093365
 20
709.690693
 30
0.0
 40
353.0
100
AcDbArc
 50
58.114288
 51
60.155516
  0
ARC
  5
80C
100
AcDbEntity
  8
便座
  6
CONTINUOUS
 62
     6
100
AcDbCircle
 10
720.5984
 20
1004.823505
 30
0.0
 40
2.5
100
AcDbArc
 50
202.670105
 51
269.180908
  0
LINE
  5
80D
100
AcDbEntity
  8
便座
  6
CONTINUOUS
 62
     6
100
AcDbLine
 10
720.562664
 20
1002.323749
 30
0.0
 11
759.995648
 21
1001.759937
 31
0.0
  0
LINE
  5
80E
100
AcDbEntity
  8
便座
  6
CONTINUOUS
 62
     6
100
AcDbLine
 10
759.995648
 20
1010.619343
 30
0.0
 11
759.995648
 21
1001.500324
 31
0.0
  0
LINE
  5
80F
100
AcDbEntity
  8
便座
  6
CONTINUOUS
 62
     6
100
AcDbLine
 10
778.995648
 20
1010.038837
 30
0.0
 11
778.995648
 21
1001.500324
 31
0.0
  0
LINE
  5
810
100
AcDbEntity
  8
便座
  6
CONTINUOUS
 62
     6
100
AcDbLine
 10
759.995648
 20
1001.500324
 30
0.0
 11
778.995648
 21
1001.500324
 31
0.0
  0
ARC
  5
811
100
AcDbEntity
  8
便座
  6
CONTINUOUS
 62
     6
100
AcDbCircle
 10
761.326214
 20
1410.765339
 30
0.0
 40
400.0
100
AcDbArc
 50
264.506714
 51
268.25
  0
ARC
  5
812
100
AcDbEntity
  8
便座
  6
CONTINUOUS
 62
     6
100
AcDbCircle
 10
635.954559
 20
1011.000324
 30
0.0
 40
5.0
100
AcDbArc
 50
270.0
 51
357.410775
  0
LINE
  5
813
100
AcDbEntity
  8
便座
  6
CONTINUOUS
 62
     6
100
AcDbLine
 10
659.297878
 20
1020.000324
 30
0.0
 11
663.459637
 21
1020.000324
 31
0.0
  0
ARC
  5
814
100
AcDbEntity
  8
便座
  6
CONTINUOUS
 62
     6
100
AcDbCircle
 10
663.459637
 20
1021.000324
 30
0.0
 40
1.0
100
AcDbArc
 50
270.0
 51
358.001953
  0
ARC
  5
815
100
AcDbEntity
  8
便座
  6
CONTINUOUS
 62
     6
100
AcDbCircle
 10
649.49992
 20
1024.400318
 30
0.0
 40
10.4
100
AcDbArc
 50
182.011902
 51
217.758146
  0
LINE
  5
816
100
AcDbEntity
  8
便座
  6
CONTINUOUS
 62
     6
100
AcDbLine
 10
641.607067
 20
1025.31655
 30
0.0
 11
640.949454
 21
1010.774448
 31
0.0
  0
ARC
  5
817
100
AcDbEntity
  8
便座
  6
CONTINUOUS
 62
     6
100
AcDbCircle
 10
648.59992
 20
1025.000324
 30
0.0
 40
7.0
100
AcDbArc
 50
90.0
 51
177.410775
  0
ARC
  5
818
100
AcDbEntity
  8
便座
  6
CONTINUOUS
 62
     6
100
AcDbCircle
 10
649.49992
 20
1025.000324
 30
0.0
 40
11.0
100
AcDbArc
 50
318.89534
 51
0.0
  0
LINE
  5
819
100
AcDbEntity
  8
便座
  6
CONTINUOUS
 62
     6
100
AcDbLine
 10
650.39992
 20
1032.000324
 30
0.0
 11
648.59992
 21
1032.000324
 31
0.0
  0
ARC
  5
81A
100
AcDbEntity
  8
便座
  6
CONTINUOUS
 62
     6
100
AcDbCircle
 10
650.39992
 20
1025.000324
 30
0.0
 40
7.0
100
AcDbArc
 50
3.0
 51
90.0
  0
LINE
  5
81B
100
AcDbEntity
  8
便座
  6
CONTINUOUS
 62
     6
100
AcDbLine
 10
660.496571
 20
1024.808368
 30
0.0
 11
660.610943
 21
1031.361698
 31
0.0
  0
LINE
  5
81C
100
AcDbEntity
  8
便座
  6
CONTINUOUS
 62
     6
100
AcDbLine
 10
664.459057
 20
1020.965473
 30
0.0
 11
664.763363
 21
1029.680195
 31
0.0
  0
ARC
  5
81D
100
AcDbEntity
  8
便座
  6
CONTINUOUS
 62
     6
100
AcDbCircle
 10
671.415661
 20
967.985309
 30
0.0
 40
100.0
100
AcDbArc
 50
96.243958
 51
102.081549
  0
ARC
  5
81E
100
AcDbEntity
  8
便座
  6
CONTINUOUS
 62
     6
100
AcDbCircle
 10
653.624848
 20
1051.102618
 30
0.0
 40
15.0
100
AcDbArc
 50
102.081549
 51
181.270441
  0
LINE
  5
81F
100
AcDbEntity
  8
便座
  6
CONTINUOUS
 62
     6
100
AcDbLine
 10
638.628536
 20
1050.770044
 30
0.0
 11
638.905132
 21
1038.297817
 31
0.0
  0
LINE
  5
820
100
AcDbEntity
  8
便座
  6
CONTINUOUS
 62
     6
100
AcDbLine
 10
662.099517
 20
1042.125484
 30
0.0
 11
661.902803
 21
1030.869374
 31
0.0
  0
LINE
  5
821
100
AcDbEntity
  8
便座
  6
CONTINUOUS
 62
     6
100
AcDbLine
 10
660.169079
 20
1046.12334
 30
0.0
 11
660.10622
 21
1042.526516
 31
0.0
  0
ARC
  5
822
100
AcDbEntity
  8
便座
  6
CONTINUOUS
 62
     6
100
AcDbCircle
 10
786.132336
 20
1937.26485
 30
0.0
 40
900.0
100
AcDbArc
 50
261.610657
 51
267.881714
  0
ARC
  5
823
100
AcDbEntity
  8
便座
  6
CONTINUOUS
 62
     6
100
AcDbCircle
 10
754.075009
 20
212.493732
 30
0.0
 40
860.0
100
AcDbArc
 50
90.042389
 51
96.243958
  0
ARC
  5
824
100
AcDbEntity
  8
便座
  6
CONTINUOUS
 62
     6
100
AcDbCircle
 10
662.11842
 20
1096.360241
 30
0.0
 40
50.0
100
AcDbArc
 50
242.001892
 51
261.610718
  0
LINE
  5
825
100
AcDbEntity
  8
便座
  6
CONTINUOUS
 62
     6
100
AcDbLine
 10
638.520855
 20
1037.532673
 30
0.0
 11
638.620846
 21
1037.532673
 31
0.0
  0
LINE
  5
826
100
AcDbEntity
  8
便座
  6
CONTINUOUS
 62
     6
100
AcDbLine
 10
640.620846
 20
1035.532917
 30
0.0
 11
640.869061
 21
1035.532917
 31
0.0
  0
LINE
  5
827
100
AcDbEntity
  8
便座
  6
CONTINUOUS
 62
     6
100
AcDbLine
 10
638.924038
 20
1036.474216
 30
0.0
 11
639.101009
 21
1024.249775
 31
0.0
  0
LINE
  5
828
100
AcDbEntity
  8
便座
  6
CONTINUOUS
 62
     6
100
AcDbLine
 10
638.642529
 20
1037.239216
 30
0.0
 11
639.106335
 21
1024.035236
 31
0.0
  0
ARC
  5
829
100
AcDbEntity
  8
便座
  6
CONTINUOUS
 62
     6
100
AcDbCircle
 10
649.429669
 20
1032.532917
 30
0.0
 40
12.0
100
AcDbArc
 50
77.444244
 51
155.376892
  0
ARC
  5
82A
100
AcDbEntity
  8
便座
  6
CONTINUOUS
 62
     6
100
AcDbCircle
 10
640.620846
 20
1037.532917
 30
0.0
 40
2.0
100
AcDbArc
 50
180.0
 51
270.0
  0
ARC
  5
82B
100
AcDbEntity
  8
便座
  6
CONTINUOUS
 62
     6
100
AcDbCircle
 10
749.863415
 20
1483.48418
 30
0.0
 40
450.0
100
AcDbArc
 50
257.444275
 51
267.439697
  0
ARC
  5
82C
100
AcDbEntity
  8
便座
  6
CONTINUOUS
 62
     6
100
AcDbCircle
 10
738.351132
 20
1171.867527
 30
0.0
 40
160.0
100
AcDbArc
 50
243.787048
 51
264.506714
  0
ARC
  5
82D
100
AcDbEntity
  8
便座
  6
CONTINUOUS
 62
     6
100
AcDbCircle
 10
640.869061
 20
1000.532917
 30
0.0
 40
35.0
100
AcDbArc
 50
80.909973
 51
90.0
  0
ARC
  5
82E
100
AcDbEntity
  8
便座
  6
CONTINUOUS
 62
     6
100
AcDbCircle
 10
634.549603
 20
961.035267
 30
0.0
 40
75.0
100
AcDbArc
 50
63.787048
 51
80.909973
  0
ARC
  5
82F
100
AcDbEntity
  8
便座
  6
CONTINUOUS
 62
     6
100
AcDbCircle
 10
959.499954
 20
1034.847846
 30
0.0
 40
9.25
100
AcDbArc
 50
205.281893
 51
330.930377
  0
ARC
  5
830
100
AcDbEntity
  8
便座
  6
CONTINUOUS
 62
     6
100
AcDbCircle
 10
1043.438508
 20
999.004186
 30
0.0
 40
8.0
100
AcDbArc
 50
156.581694
 51
172.607427
  0
ARC
  5
831
100
AcDbEntity
  8
便座
  6
CONTINUOUS
 62
     6
100
AcDbCircle
 10
1033.015026
 20
1000.356586
 30
0.0
 40
2.5
100
AcDbArc
 50
269.180298
 51
352.607427
  0
ARC
  5
832
100
AcDbEntity
  8
便座
  6
EXLTYPE2
 62
     6
100
AcDbCircle
 10
1043.512615
 20
1000.13216
 30
0.0
 40
14.0
100
AcDbArc
 50
171.310969
 51
178.810746
  0
ARC
  5
833
100
AcDbEntity
  8
便座
  6
EXLTYPE2
 62
     6
100
AcDbCircle
 10
1032.015093
 20
1000.370841
 30
0.0
 40
2.5
100
AcDbArc
 50
178.810746
 51
269.18083
  0
ARC
  5
834
100
AcDbEntity
  8
便座
  6
CONTINUOUS
 62
     6
100
AcDbCircle
 10
1084.828045
 20
1007.703449
 30
0.0
 40
14.0
100
AcDbArc
 50
6.375153
 51
92.909413
  0
LINE
  5
835
100
AcDbEntity
  8
便座
  6
CONTINUOUS
 62
     6
100
AcDbLine
 10
773.995634
 20
996.500314
 30
0.0
 11
764.995661
 21
996.500314
 31
0.0
  0
ARC
  5
836
100
AcDbEntity
  8
便座
  6
CONTINUOUS
 62
     6
100
AcDbCircle
 10
968.9956
 20
1000.000324
 30
0.0
 40
5.0
100
AcDbArc
 50
270.0
 51
0.0
  0
ARC
  5
837
100
AcDbEntity
  8
便座
  6
CONTINUOUS
 62
     6
100
AcDbCircle
 10
948.998516
 20
1000.000324
 30
0.0
 40
5.0
100
AcDbArc
 50
180.0
 51
270.0
  0
ARC
  5
838
100
AcDbEntity
  8
便座
  6
CONTINUOUS
 62
     6
100
AcDbCircle
 10
764.995661
 20
1001.500314
 30
0.0
 40
5.0
100
AcDbArc
 50
180.0
 51
270.0
  0
ARC
  5
839
100
AcDbEntity
  8
便座
  6
CONTINUOUS
 62
     6
100
AcDbCircle
 10
773.995634
 20
1001.500314
 30
0.0
 40
5.0
100
AcDbArc
 50
270.0
 51
0.0
  0
LINE
  5
83A
100
AcDbEntity
  8
便座
  6
CONTINUOUS
 62
     6
100
AcDbLine
 10
1096.904949
 20
1028.338321
 30
0.0
 11
1097.004925
 21
1028.338321
 31
0.0
  0
LINE
  5
83B
100
AcDbEntity
  8
便座
  6
CONTINUOUS
 62
     6
100
AcDbLine
 10
1094.548138
 20
1026.338321
 30
0.0
 11
1094.904949
 21
1026.338321
 31
0.0
  0
LINE
  5
83C
100
AcDbEntity
  8
便座
  6
CONTINUOUS
 62
     6
100
AcDbLine
 10
1096.952435
 20
1028.83797
 30
0.0
 11
1097.004925
 21
1028.338321
 31
0.0
  0
ARC
  5
83D
100
AcDbEntity
  8
便座
  6
CONTINUOUS
 62
     6
100
AcDbCircle
 10
754.918392
 20
-927.506024
 30
0.0
 40
2000.0
100
AcDbArc
 50
81.432617
 51
90.042389
  0
ARC
  5
83E
100
AcDbEntity
  8
便座
  6
CONTINUOUS
 62
     6
100
AcDbCircle
 10
2611.768231
 20
51003.312824
 30
0.0
 40
50000.0
100
AcDbArc
 50
267.869141
 51
268.261108
  0
ARC
  5
83F
100
AcDbEntity
  8
便座
  6
CONTINUOUS
 62
     6
100
AcDbCircle
 10
1000.722729
 20
704.082172
 30
0.0
 40
350.0
100
AcDbArc
 50
77.491272
 51
81.432617
  0
ARC
  5
840
100
AcDbEntity
  8
便座
  6
CONTINUOUS
 62
     6
100
AcDbCircle
 10
1064.616253
 20
992.079258
 30
0.0
 40
55.0
100
AcDbArc
 50
65.145721
 51
77.491241
  0
ARC
  5
841
100
AcDbEntity
  8
便座
  6
CONTINUOUS
 62
     6
100
AcDbCircle
 10
1081.008465
 20
1027.46706
 30
0.0
 40
16.0
100
AcDbArc
 50
5.994843
 51
65.145721
  0
ARC
  5
842
100
AcDbEntity
  8
便座
  6
CONTINUOUS
 62
     6
100
AcDbCircle
 10
1094.904949
 20
1028.338321
 30
0.0
 40
2.0
100
AcDbArc
 50
270.0
 51
0.0
  0
ARC
  5
843
100
AcDbEntity
  8
便座
  6
CONTINUOUS
 62
     6
100
AcDbCircle
 10
997.499371
 20
1018.393787
 30
0.0
 40
100.0
100
AcDbArc
 50
5.995056
 51
6.167908
  0
LINE
  5
844
100
AcDbEntity
  8
便座
  6
CONTINUOUS
 62
     6
100
AcDbLine
 10
1099.49992
 20
1002.24654
 30
0.0
 11
1099.4091
 21
1002.24654
 31
0.0
  0
LINE
  5
845
100
AcDbEntity
  8
便座
  6
CONTINUOUS
 62
     6
100
AcDbLine
 10
1085.261639
 20
1021.696735
 30
0.0
 11
907.880016
 21
1027.192829
 31
0.0
  0
LINE
  5
846
100
AcDbEntity
  8
便座
  6
CONTINUOUS
 62
     6
100
AcDbLine
 10
943.998516
 20
1000.000324
 30
0.0
 11
973.995587
 21
1000.000324
 31
0.0
  0
LINE
  5
847
100
AcDbEntity
  8
便座
  6
CONTINUOUS
 62
     6
100
AcDbLine
 10
943.998516
 20
1004.997577
 30
0.0
 11
943.998516
 21
1000.000324
 31
0.0
  0
LINE
  5
848
100
AcDbEntity
  8
便座
  6
CONTINUOUS
 62
     6
100
AcDbLine
 10
973.995587
 20
1004.081074
 30
0.0
 11
973.995587
 21
1000.000324
 31
0.0
  0
LINE
  5
849
100
AcDbEntity
  8
便座
  6
CONTINUOUS
 62
     6
100
AcDbLine
 10
1099.44743
 20
1002.746601
 30
0.0
 11
1099.49992
 21
1002.24654
 31
0.0
  0
LINE
  5
84A
100
AcDbEntity
  8
便座
  6
CONTINUOUS
 62
     6
100
AcDbLine
 10
1097.855816
 20
1000.296833
 30
0.0
 11
749.110821
 21
1010.951923
 31
0.0
  0
LINE
  5
84B
100
AcDbEntity
  8
便座
  6
CONTINUOUS
 62
     6
100
AcDbLine
 10
973.82423
 20
998.70261
 30
0.0
 11
1032.97926
 21
997.8568
 31
0.0
  0
LINE
  5
84C
100
AcDbEntity
  8
便座
  6
CONTINUOUS
 62
     6
100
AcDbLine
 10
778.995648
 20
1001.488285
 30
0.0
 11
944.075207
 21
999.127964
 31
0.0
  0
ARC
  5
84D
100
AcDbEntity
  8
便座
  6
CONTINUOUS
 62
     6
100
AcDbCircle
 10
1097.4091
 20
1002.246296
 30
0.0
 40
2.0
100
AcDbArc
 50
282.906372
 51
0.007874
  0
ARC
  5
84E
100
AcDbEntity
  8
便座
  6
CONTINUOUS
 62
     6
100
AcDbCircle
 10
104.925335
 20
898.219806
 30
0.0
 40
1000.0
100
AcDbArc
 50
5.999908
 51
6.375183
  0
ARC
  5
84F
100
AcDbEntity
  8
便座
  6
CONTINUOUS
 62
     6
100
AcDbCircle
 10
1310.484722
 20
14020.956379
 30
0.0
 40
13000.0
100
AcDbArc
 50
267.439697
 51
268.225281
  0
LINE
  5
850
100
AcDbEntity
  8
便座
  6
CONTINUOUS
 62
     6
100
AcDbLine
 10
601.99992
 20
1011.000324
 30
0.0
 11
593.052134
 21
1011.000324
 31
0.0
  0
LINE
  5
851
100
AcDbEntity
  8
便座
  6
CONTINUOUS
 62
     6
100
AcDbLine
 10
601.99992
 20
1011.000324
 30
0.0
 11
612.052134
 21
1006.000324
 31
0.0
  0
LINE
  5
852
100
AcDbEntity
  8
便座
  6
CONTINUOUS
 62
     6
100
AcDbLine
 10
593.052134
 20
1011.000324
 30
0.0
 11
593.052134
 21
996.000324
 31
0.0
  0
LINE
  5
853
100
AcDbEntity
  8
便座
  6
CONTINUOUS
 62
     6
100
AcDbLine
 10
658.929352
 20
996.000324
 30
0.0
 11
593.052134
 21
996.000324
 31
0.0
  0
LINE
  5
854
100
AcDbEntity
  8
便座
  6
CONTINUOUS
 62
     6
100
AcDbLine
 10
601.99992
 20
996.000324
 30
0.0
 11
601.99992
 21
1004.500324
 31
0.0
  0
ARC
  5
855
100
AcDbEntity
  8
便座
  6
CONTINUOUS
 62
     6
100
AcDbCircle
 10
603.49992
 20
1004.500324
 30
0.0
 40
1.5
100
AcDbArc
 50
90.0
 51
180.0
  0
LINE
  5
856
100
AcDbEntity
  8
便座
  6
CONTINUOUS
 62
     6
100
AcDbLine
 10
635.954559
 20
1006.000324
 30
0.0
 11
603.49992
 21
1006.000324
 31
0.0
  0
LINE
  5
857
100
AcDbEntity
  8
便座
  6
CONTINUOUS
 62
     6
100
AcDbLine
 10
604.99992
 20
996.000324
 30
0.0
 11
604.99992
 21
995.000324
 31
0.0
  0
LINE
  5
858
100
AcDbEntity
  8
便座
  6
CONTINUOUS
 62
     6
100
AcDbLine
 10
633.99992
 20
996.000324
 30
0.0
 11
633.99992
 21
995.000324
 31
0.0
  0
ARC
  5
859
100
AcDbEntity
  8
便座
  6
CONTINUOUS
 62
     6
100
AcDbCircle
 10
1527.527787
 20
1008.906977
 30
0.0
 40
25.0
100
AcDbArc
 50
114.103088
 51
136.552825
  0
ARC
  5
85A
100
AcDbEntity
  8
便座
  6
CONTINUOUS
 62
     6
100
AcDbCircle
 10
1518.089701
 20
1017.846864
 30
0.0
 40
11.999999
100
AcDbArc
 50
133.725278
 51
175.999878
  0
ARC
  5
85B
100
AcDbEntity
  8
便座
  6
CONTINUOUS
 62
     6
100
AcDbCircle
 10
1545.482971
 20
1034.070348
 30
0.0
 40
8.75
100
AcDbArc
 50
210.391563
 51
324.82305
  0
ARC
  5
85C
100
AcDbEntity
  8
便座
  6
CONTINUOUS
 62
     6
100
AcDbCircle
 10
1831.482971
 20
1034.070348
 30
0.0
 40
8.75
100
AcDbArc
 50
215.175899
 51
329.609488
  0
ARC
  5
85D
100
AcDbEntity
  8
便座
  6
CONTINUOUS
 62
     6
100
AcDbCircle
 10
1558.989695
 20
961.95576
 30
0.0
 40
100.0
100
AcDbArc
 50
104.360601
 51
114.355896
  0
LINE
  5
85E
100
AcDbEntity
  8
便座
  6
CONTINUOUS
 62
     6
100
AcDbLine
 10
1507.200958
 20
1037.872026
 30
0.0
 11
1507.253509
 21
1038.372026
 31
0.0
  0
LINE
  5
85F
100
AcDbEntity
  8
便座
  6
CONTINUOUS
 62
     6
100
AcDbLine
 10
1507.200958
 20
1037.872026
 30
0.0
 11
1507.300964
 21
1037.872026
 31
0.0
  0
ARC
  5
860
100
AcDbEntity
  8
便座
  6
CONTINUOUS
 62
     6
100
AcDbCircle
 10
1606.705715
 20
1027.919272
 30
0.0
 40
100.0
100
AcDbArc
 50
173.882447
 51
174.000122
  0
ARC
  5
861
100
AcDbEntity
  8
便座
  6
CONTINUOUS
 62
     6
100
AcDbCircle
 10
1525.172667
 20
1036.65791
 30
0.0
 40
18.0
100
AcDbArc
 50
114.355896
 51
173.882447
  0
ARC
  5
862
100
AcDbEntity
  8
便座
  6
CONTINUOUS
 62
     6
100
AcDbCircle
 10
1509.301208
 20
1037.872025
 30
0.0
 40
2.0
100
AcDbArc
 50
180.0
 51
233.946045
  0
ARC
  5
863
100
AcDbEntity
  8
便座
  6
CONTINUOUS
 62
     6
100
AcDbCircle
 10
1596.19327
 20
816.642648
 30
0.0
 40
250.0
100
AcDbArc
 50
97.255982
 51
104.360601
  0
ARC
  5
864
100
AcDbEntity
  8
便座
  6
CONTINUOUS
 62
     6
100
AcDbCircle
 10
1688.482631
 20
91.790359
 30
0.0
 40
980.703979
100
AcDbArc
 50
82.744002
 51
97.255982
  0
LINE
  5
865
100
AcDbEntity
  8
便座
  6
CONTINUOUS
 62
     6
100
AcDbLine
 10
1633.982987
 20
995.00032
 30
0.0
 11
1633.982987
 21
997.50032
 31
0.0
  0
LINE
  5
866
100
AcDbEntity
  8
便座
  6
CONTINUOUS
 62
     6
100
AcDbLine
 10
1602.982987
 20
995.00032
 30
0.0
 11
1602.982987
 21
997.50032
 31
0.0
  0
LINE
  5
867
100
AcDbEntity
  8
便座
  6
CONTINUOUS
 62
     6
100
AcDbLine
 10
1635.982987
 20
997.50032
 30
0.0
 11
1600.982987
 21
997.50032
 31
0.0
  0
LINE
  5
868
100
AcDbEntity
  8
便座
  6
CONTINUOUS
 62
     6
100
AcDbLine
 10
1635.982987
 20
998.31616
 30
0.0
 11
1635.982987
 21
997.50032
 31
0.0
  0
LINE
  5
869
100
AcDbEntity
  8
便座
  6
CONTINUOUS
 62
     6
100
AcDbLine
 10
1600.982987
 20
999.133064
 30
0.0
 11
1600.982987
 21
997.50032
 31
0.0
  0
LINE
  5
86A
100
AcDbEntity
  8
便座
  6
CONTINUOUS
 62
     6
100
AcDbLine
 10
1742.982955
 20
995.00032
 30
0.0
 11
1742.982955
 21
997.50032
 31
0.0
  0
LINE
  5
86B
100
AcDbEntity
  8
便座
  6
CONTINUOUS
 62
     6
100
AcDbLine
 10
1773.982955
 20
995.00032
 30
0.0
 11
1773.982955
 21
997.50032
 31
0.0
  0
LINE
  5
86C
100
AcDbEntity
  8
便座
  6
CONTINUOUS
 62
     6
100
AcDbLine
 10
1740.982955
 20
997.50032
 30
0.0
 11
1775.982955
 21
997.50032
 31
0.0
  0
LINE
  5
86D
100
AcDbEntity
  8
便座
  6
CONTINUOUS
 62
     6
100
AcDbLine
 10
1740.982955
 20
998.31616
 30
0.0
 11
1740.982955
 21
997.50032
 31
0.0
  0
LINE
  5
86E
100
AcDbEntity
  8
便座
  6
CONTINUOUS
 62
     6
100
AcDbLine
 10
1775.982955
 20
999.133064
 30
0.0
 11
1775.982955
 21
997.50032
 31
0.0
  0
ARC
  5
86F
100
AcDbEntity
  8
便座
  6
CONTINUOUS
 62
     6
100
AcDbCircle
 10
1849.438167
 20
1008.907001
 30
0.0
 40
25.0
100
AcDbArc
 50
43.447065
 51
65.896475
  0
ARC
  5
870
100
AcDbEntity
  8
便座
  6
CONTINUOUS
 62
     6
100
AcDbCircle
 10
1858.87628
 20
1017.846879
 30
0.0
 40
12.0
100
AcDbArc
 50
4.000061
 51
43.447065
  0
LINE
  5
871
100
AcDbEntity
  8
便座
  6
CONTINUOUS
 62
     6
100
AcDbLine
 10
1869.765047
 20
1037.872024
 30
0.0
 11
1869.71249
 21
1038.372038
 31
0.0
  0
LINE
  5
872
100
AcDbEntity
  8
便座
  6
CONTINUOUS
 62
     6
100
AcDbLine
 10
1869.765047
 20
1037.872024
 30
0.0
 11
1869.665019
 21
1037.872024
 31
0.0
  0
LINE
  5
873
100
AcDbEntity
  8
便座
  6
EXLTYPE1
 62
     6
100
AcDbLine
 10
1505.542161
 20
1011.516773
 30
0.0
 11
1505.450999
 21
1010.652312
 31
0.0
  0
LINE
  5
874
100
AcDbEntity
  8
便座
  6
CONTINUOUS
 62
     6
100
AcDbLine
 10
1505.551011
 20
1010.652312
 30
0.0
 11
1505.450999
 21
1010.652312
 31
0.0
  0
LINE
  5
875
100
AcDbEntity
  8
便座
  6
CONTINUOUS
 62
     6
100
AcDbLine
 10
1505.450999
 20
1010.652312
 30
0.0
 11
1506.130845
 21
1018.839906
 31
0.0
  0
LINE
  5
876
100
AcDbEntity
  8
便座
  6
CONTINUOUS
 62
     6
100
AcDbLine
 10
1509.995981
 20
1006.932422
 30
0.0
 11
1509.995981
 21
1001.500293
 31
0.0
  0
LINE
  5
877
100
AcDbEntity
  8
便座
  6
CONTINUOUS
 62
     6
100
AcDbLine
 10
1535.11144
 20
996.500293
 30
0.0
 11
1514.995981
 21
996.500293
 31
0.0
  0
LINE
  5
878
100
AcDbEntity
  8
便座
  6
CONTINUOUS
 62
     6
100
AcDbLine
 10
1533.682149
 20
1001.500293
 30
0.0
 11
1509.995981
 21
1001.500293
 31
0.0
  0
LINE
  5
879
100
AcDbEntity
  8
便座
  6
CONTINUOUS
 62
     6
100
AcDbLine
 10
1582.733154
 20
1002.16171
 30
0.0
 11
1582.733154
 21
1000.00032
 31
0.0
  0
LINE
  5
87A
100
AcDbEntity
  8
便座
  6
CONTINUOUS
 62
     6
100
AcDbLine
 10
1533.682149
 20
1004.68036
 30
0.0
 11
1533.682149
 21
1000.00032
 31
0.0
  0
LINE
  5
87B
100
AcDbEntity
  8
便座
  6
CONTINUOUS
 62
     6
100
AcDbLine
 10
1533.682149
 20
1000.00032
 30
0.0
 11
1582.733187
 21
1000.00032
 31
0.0
  0
LINE
  5
87C
100
AcDbEntity
  8
便座
  6
CONTINUOUS
 62
     6
100
AcDbLine
 10
1866.969976
 20
1006.932422
 30
0.0
 11
1866.969976
 21
1001.500293
 31
0.0
  0
LINE
  5
87D
100
AcDbEntity
  8
便座
  6
CONTINUOUS
 62
     6
100
AcDbLine
 10
1843.283793
 20
1001.500293
 30
0.0
 11
1866.969976
 21
1001.500293
 31
0.0
  0
LINE
  5
87E
100
AcDbEntity
  8
便座
  6
CONTINUOUS
 62
     6
100
AcDbLine
 10
1841.854553
 20
996.500293
 30
0.0
 11
1861.969976
 21
996.500293
 31
0.0
  0
LINE
  5
87F
100
AcDbEntity
  8
便座
  6
CONTINUOUS
 62
     6
100
AcDbLine
 10
1843.283793
 20
1004.68036
 30
0.0
 11
1843.283793
 21
1000.00032
 31
0.0
  0
LINE
  5
880
100
AcDbEntity
  8
便座
  6
CONTINUOUS
 62
     6
100
AcDbLine
 10
1843.283793
 20
1000.00032
 30
0.0
 11
1794.232787
 21
1000.00032
 31
0.0
  0
LINE
  5
881
100
AcDbEntity
  8
便座
  6
CONTINUOUS
 62
     6
100
AcDbLine
 10
1794.232787
 20
1002.16171
 30
0.0
 11
1794.232787
 21
1000.00032
 31
0.0
  0
LINE
  5
882
100
AcDbEntity
  8
便座
  6
CONTINUOUS
 62
     6
100
AcDbLine
 10
1533.682149
 20
1004.68036
 30
0.0
 11
1533.682149
 21
1000.00032
 31
0.0
  0
LINE
  5
883
100
AcDbEntity
  8
便座
  6
CONTINUOUS
 62
     6
100
AcDbLine
 10
1533.682149
 20
1000.00032
 30
0.0
 11
1582.733154
 21
1000.00032
 31
0.0
  0
LINE
  5
884
100
AcDbEntity
  8
便座
  6
CONTINUOUS
 62
     6
100
AcDbLine
 10
1582.733154
 20
1002.16171
 30
0.0
 11
1582.733154
 21
1000.00032
 31
0.0
  0
ARC
  5
885
100
AcDbEntity
  8
便座
  6
CONTINUOUS
 62
     6
100
AcDbCircle
 10
1770.260246
 20
1027.919225
 30
0.0
 40
100.0
100
AcDbArc
 50
5.999878
 51
6.117554
  0
ARC
  5
886
100
AcDbEntity
  8
便座
  6
CONTINUOUS
 62
     6
100
AcDbCircle
 10
1851.793314
 20
1036.657899
 30
0.0
 40
17.999999
100
AcDbArc
 50
6.117493
 51
65.644104
  0
ARC
  5
887
100
AcDbEntity
  8
便座
  6
CONTINUOUS
 62
     6
100
AcDbCircle
 10
1780.772671
 20
816.64264
 30
0.0
 40
250.0
100
AcDbArc
 50
75.639404
 51
82.744019
  0
ARC
  5
888
100
AcDbEntity
  8
便座
  6
CONTINUOUS
 62
     6
100
AcDbCircle
 10
1817.976243
 20
961.95575
 30
0.0
 40
100.0
100
AcDbArc
 50
65.644104
 51
75.639404
  0
ARC
  5
889
100
AcDbEntity
  8
便座
  6
CONTINUOUS
 62
     6
100
AcDbCircle
 10
1867.664761
 20
1037.872024
 30
0.0
 40
2.0
100
AcDbArc
 50
306.05365
 51
0.0
  0
ARC
  5
88A
100
AcDbEntity
  8
便座
  6
CONTINUOUS
 62
     6
100
AcDbCircle
 10
1843.611212
 20
1109.93196
 30
0.0
 40
80.0
100
AcDbArc
 50
272.654083
 51
278.712982
  0
ARC
  5
88B
100
AcDbEntity
  8
便座
  6
CONTINUOUS
 62
     6
100
AcDbCircle
 10
1688.48192
 20
4456.403179
 30
0.0
 40
3430.064833
100
AcDbArc
 50
270.000031
 51
272.654053
  0
ARC
  5
88C
100
AcDbEntity
  8
便座
  6
CONTINUOUS
 62
     6
100
AcDbCircle
 10
1851.185404
 20
1060.508946
 30
0.0
 40
30.0
100
AcDbArc
 50
278.713013
 51
306.053986
  0
ARC
  5
88D
100
AcDbEntity
  8
便座
  6
CONTINUOUS
 62
     6
100
AcDbCircle
 10
1688.482971
 20
4000.297087
 30
0.0
 40
3000.0
100
AcDbArc
 50
270.0
 51
272.360474
  0
ARC
  5
88E
100
AcDbEntity
  8
便座
  6
CONTINUOUS
 62
     6
100
AcDbCircle
 10
1774.974093
 20
1902.079042
 30
0.0
 40
900.0
100
AcDbArc
 50
272.360474
 51
273.987213
  0
ARC
  5
88F
100
AcDbEntity
  8
便座
  6
CONTINUOUS
 62
     6
100
AcDbCircle
 10
1688.482971
 20
4000.297087
 30
0.0
 40
3000.0
100
AcDbArc
 50
267.639526
 51
270.0
  0
ARC
  5
890
100
AcDbEntity
  8
便座
  6
CONTINUOUS
 62
     6
100
AcDbCircle
 10
1586.041767
 20
1004.742277
 30
0.0
 40
4.5
100
AcDbArc
 50
222.67218
 51
263.243591
  0
ARC
  5
891
100
AcDbEntity
  8
便座
  6
CONTINUOUS
 62
     6
100
AcDbCircle
 10
1606.100599
 20
1174.058208
 30
0.0
 40
175.0
100
AcDbArc
 50
263.243652
 51
268.328918
  0
ARC
  5
892
100
AcDbEntity
  8
便座
  6
CONTINUOUS
 62
     6
100
AcDbCircle
 10
1601.991882
 20
1902.079042
 30
0.0
 40
900.0
100
AcDbArc
 50
266.012817
 51
267.639526
  0
ARC
  5
893
100
AcDbEntity
  8
便座
  6
CONTINUOUS
 62
     6
100
AcDbCircle
 10
1513.613603
 20
1018.605532
 30
0.0
 40
11.999999
100
AcDbArc
 50
232.682495
 51
263.78595
  0
ARC
  5
894
100
AcDbEntity
  8
便座
  6
CONTINUOUS
 62
     6
100
AcDbCircle
 10
1507.551014
 20
1010.652312
 30
0.0
 40
2.0
100
AcDbArc
 50
180.0
 51
232.682495
  0
ARC
  5
895
100
AcDbEntity
  8
便座
  6
CONTINUOUS
 62
     6
100
AcDbCircle
 10
1588.085055
 20
1702.563127
 30
0.0
 40
700.0
100
AcDbArc
 50
263.785889
 51
266.012817
  0
ARC
  5
896
100
AcDbEntity
  8
便座
  6
CONTINUOUS
 62
     6
100
AcDbCircle
 10
1514.995981
 20
1001.500293
 30
0.0
 40
5.0
100
AcDbArc
 50
180.0
 51
270.0
  0
ARC
  5
897
100
AcDbEntity
  8
便座
  6
CONTINUOUS
 62
     6
100
AcDbCircle
 10
1577.733154
 20
1000.00032
 30
0.0
 40
5.0
100
AcDbArc
 50
270.0
 51
0.0
  0
ARC
  5
898
100
AcDbEntity
  8
便座
  6
CONTINUOUS
 62
     6
100
AcDbCircle
 10
1538.682149
 20
1000.00032
 30
0.0
 40
5.0
100
AcDbArc
 50
180.0
 51
270.0
  0
ARC
  5
899
100
AcDbEntity
  8
便座
  6
CONTINUOUS
 62
     6
100
AcDbCircle
 10
1861.969976
 20
1001.500293
 30
0.0
 40
5.0
100
AcDbArc
 50
270.0
 51
0.0
  0
ARC
  5
89A
100
AcDbEntity
  8
便座
  6
CONTINUOUS
 62
     6
100
AcDbCircle
 10
1838.283826
 20
1000.00032
 30
0.0
 40
5.0
100
AcDbArc
 50
270.0
 51
0.0
  0
ARC
  5
89B
100
AcDbEntity
  8
便座
  6
CONTINUOUS
 62
     6
100
AcDbCircle
 10
1799.232787
 20
1000.00032
 30
0.0
 40
5.0
100
AcDbArc
 50
180.0
 51
270.0
  0
ARC
  5
89C
100
AcDbEntity
  8
便座
  6
CONTINUOUS
 62
     6
100
AcDbCircle
 10
1533.354746
 20
1109.93196
 30
0.0
 40
80.0
100
AcDbArc
 50
261.286987
 51
267.345947
  0
ARC
  5
89D
100
AcDbEntity
  8
便座
  6
CONTINUOUS
 62
     6
100
AcDbCircle
 10
1586.041767
 20
1004.742277
 30
0.0
 40
4.5
100
AcDbArc
 50
227.60022
 51
263.243591
  0
ARC
  5
89E
100
AcDbEntity
  8
便座
  6
CONTINUOUS
 62
     6
100
AcDbCircle
 10
1584.693162
 20
1003.265294
 30
0.0
 40
2.5
100
AcDbArc
 50
218.372742
 51
227.601257
  0
ARC
  5
89F
100
AcDbEntity
  8
便座
  6
CONTINUOUS
 62
     6
100
AcDbCircle
 10
1601.991882
 20
1902.079042
 30
0.0
 40
900.0
100
AcDbArc
 50
266.012817
 51
267.639526
  0
ARC
  5
8A0
100
AcDbEntity
  8
便座
  6
CONTINUOUS
 62
     6
100
AcDbCircle
 10
1538.682149
 20
1000.00032
 30
0.0
 40
5.0
100
AcDbArc
 50
180.0
 51
270.0
  0
ARC
  5
8A1
100
AcDbEntity
  8
便座
  6
CONTINUOUS
 62
     6
100
AcDbCircle
 10
1577.733154
 20
1000.00032
 30
0.0
 40
5.0
100
AcDbArc
 50
270.0
 51
0.0
  0
LINE
  5
8A2
100
AcDbEntity
  8
便座
  6
EXLTYPE1
 62
     6
100
AcDbLine
 10
1871.423824
 20
1011.516798
 30
0.0
 11
1871.514949
 21
1010.652295
 31
0.0
  0
LINE
  5
8A3
100
AcDbEntity
  8
便座
  6
CONTINUOUS
 62
     6
100
AcDbLine
 10
1871.414974
 20
1010.652296
 30
0.0
 11
1871.514949
 21
1010.652295
 31
0.0
  0
LINE
  5
8A4
100
AcDbEntity
  8
便座
  6
CONTINUOUS
 62
     6
100
AcDbLine
 10
1871.514949
 20
1010.652295
 30
0.0
 11
1870.835142
 21
1018.839918
 31
0.0
  0
ARC
  5
8A5
100
AcDbEntity
  8
便座
  6
CONTINUOUS
 62
     6
100
AcDbCircle
 10
1688.483871
 20
3997.856765
 30
0.0
 40
3000.0
100
AcDbArc
 50
268.326229
 51
271.671082
  0
ARC
  5
8A6
100
AcDbEntity
  8
便座
  6
CONTINUOUS
 62
     6
100
AcDbCircle
 10
1770.865395
 20
1174.058221
 30
0.0
 40
175.0
100
AcDbArc
 50
271.671082
 51
276.756348
  0
ARC
  5
8A7
100
AcDbEntity
  8
便座
  6
CONTINUOUS
 62
     6
100
AcDbCircle
 10
1790.924189
 20
1004.742268
 30
0.0
 40
4.5
100
AcDbArc
 50
276.756409
 51
312.399658
  0
ARC
  5
8A8
100
AcDbEntity
  8
便座
  6
CONTINUOUS
 62
     6
100
AcDbCircle
 10
1792.272821
 20
1003.265338
 30
0.0
 40
2.5
100
AcDbArc
 50
312.39917
 51
321.627472
  0
ARC
  5
8A9
100
AcDbEntity
  8
便座
  6
CONTINUOUS
 62
     6
100
AcDbCircle
 10
1788.880914
 20
1702.56316
 30
0.0
 40
700.0
100
AcDbArc
 50
273.987213
 51
276.214112
  0
ARC
  5
8AA
100
AcDbEntity
  8
便座
  6
CONTINUOUS
 62
     6
100
AcDbCircle
 10
1863.352354
 20
1018.605545
 30
0.0
 40
12.0
100
AcDbArc
 50
276.214051
 51
307.317505
  0
ARC
  5
8AB
100
AcDbEntity
  8
便座
  6
CONTINUOUS
 62
     6
100
AcDbCircle
 10
1869.414974
 20
1010.652296
 30
0.0
 40
2.0
100
AcDbArc
 50
307.317505
 51
0.0
  0
ARC
  5
8AC
100
AcDbEntity
  8
便座
  6
CONTINUOUS
 62
     6
100
AcDbCircle
 10
1533.354724
 20
1109.931956
 30
0.0
 40
80.0
100
AcDbArc
 50
261.287033
 51
267.345932
  0
ARC
  5
8AD
100
AcDbEntity
  8
便座
  6
CONTINUOUS
 62
     6
100
AcDbCircle
 10
1688.484018
 20
4456.403152
 30
0.0
 40
3430.064941
100
AcDbArc
 50
267.345932
 51
269.999985
  0
ARC
  5
8AE
100
AcDbEntity
  8
便座
  6
CONTINUOUS
 62
     6
100
AcDbCircle
 10
1525.780523
 20
1060.508984
 30
0.0
 40
30.0
100
AcDbArc
 50
233.946045
 51
261.287033
  0
LINE
  5
8AF
100
AcDbEntity
  8
寸法
  6
CONTINUOUS
 62
     3
100
AcDbLine
 10
355.4
 20
1010.000324
 30
0.0
 11
227.477709
 21
1010.000324
 31
0.0
  0
DIMENSION
  5
8BA
100
AcDbEntity
  8
寸法
  6
CONTINUOUS
 62
     3
100
AcDbDimension
  2
*D17
 10
243.0
 20
600.000324
 30
0.0
 11
219.5
 21
805.000324
 31
0.0
 70
   160
  1
410
  3
STANDARD
100
AcDbAlignedDimension
 13
237.477709
 23
1010.000324
 33
0.0
 14
336.5
 24
600.000324
 34
0.0
 50
90.0
100
AcDbRotatedDimension
1001
ACAD
1000
DSTYLE
1002
{
1070
     6
1000
_EX_NORM
1070
     7
1000
_EX_NORM
1070
    41
1040
30.0
1070
    42
1040
5.0
1070
    44
1040
10.0
1070
    73
1070
     0
1070
    74
1070
     0
1070
    75
1070
     1
1070
    76
1070
     0
1070
    77
1070
     1
1070
    78
1070
     8
1070
   140
1040
40.0
1070
   147
1040
3.5
1070
   173
1070
     1
1070
   176
1070
     3
1070
   177
1070
     3
1070
   178
1070
     2
1070
   271
1070
     2
1070
   279
1070
     2
1070
   280
1070
     0
1070
   287
1070
     5
1070
   340
1005
18A
1002
}
  0
LINE
  5
8BB
100
AcDbEntity
  8
寸法
  6
CONTINUOUS
 62
     3
100
AcDbLine
 10
436.5
 20
649.1
 30
0.0
 11
336.5
 21
649.1
 31
0.0
  0
LINE
  5
8BC
100
AcDbEntity
  8
寸法
  6
CONTINUOUS
 62
     3
100
AcDbLine
 10
406.5
 20
644.1
 30
0.0
 11
436.5
 21
649.1
 31
0.0
  0
LINE
  5
8BD
100
AcDbEntity
  8
寸法
  6
CONTINUOUS
 62
     3
100
AcDbLine
 10
436.5
 20
649.1
 30
0.0
 11
406.5
 21
654.1
 31
0.0
  0
LINE
  5
8BE
100
AcDbEntity
  8
寸法
  6
CONTINUOUS
 62
     3
100
AcDbLine
 10
366.5
 20
654.1
 30
0.0
 11
336.5
 21
649.1
 31
0.0
  0
LINE
  5
8BF
100
AcDbEntity
  8
寸法
  6
CONTINUOUS
 62
     3
100
AcDbLine
 10
336.5
 20
649.1
 30
0.0
 11
366.5
 21
644.1
 31
0.0
  0
DIMENSION
  5
8CB
100
AcDbEntity
  8
寸法
  6
CONTINUOUS
 62
     3
100
AcDbDimension
  2
*D18
 10
277.0
 20
2246.999984
 30
0.0
 11
253.5
 21
2396.999984
 31
0.0
 70
   160
  3
STANDARD
100
AcDbAlignedDimension
 13
336.5
 23
2546.999984
 33
0.0
 14
336.5
 24
2246.999984
 34
0.0
 50
90.0
100
AcDbRotatedDimension
1001
ACAD
1000
DSTYLE
1002
{
1070
     6
1000
_EX_NORM
1070
     7
1000
_EX_NORM
1070
    41
1040
30.0
1070
    42
1040
5.0
1070
    44
1040
10.0
1070
    73
1070
     0
1070
    74
1070
     0
1070
    75
1070
     0
1070
    76
1070
     0
1070
    77
1070
     1
1070
    78
1070
     8
1070
   140
1040
40.0
1070
   147
1040
3.5
1070
   173
1070
     1
1070
   176
1070
     3
1070
   177
1070
     3
1070
   178
1070
     2
1070
   271
1070
     2
1070
   279
1070
     2
1070
   280
1070
     0
1070
   287
1070
     5
1070
   340
1005
18A
1002
}
  0
DIMENSION
  5
8D7
100
AcDbEntity
  8
寸法
  6
CONTINUOUS
 62
     3
100
AcDbDimension
  2
*D19
 10
1089.427395
 20
2249.0
 30
0.0
 11
854.463658
 21
2272.5
 31
0.0
 70
   160
  1
470
  3
STANDARD
100
AcDbAlignedDimension
 13
619.49992
 23
2441.001052
 33
0.0
 14
1089.427395
 24
2272.0
 34
0.0
100
AcDbRotatedDimension
1001
ACAD
1000
DSTYLE
1002
{
1070
     6
1000
_EX_NORM
1070
     7
1000
_EX_NORM
1070
    41
1040
30.0
1070
    42
1040
5.0
1070
    44
1040
10.0
1070
    73
1070
     0
1070
    74
1070
     0
1070
    75
1070
     0
1070
    76
1070
     0
1070
    77
1070
     1
1070
    78
1070
     8
1070
   140
1040
40.0
1070
   147
1040
3.5
1070
   173
1070
     1
1070
   176
1070
     3
1070
   177
1070
     3
1070
   178
1070
     2
1070
   271
1070
     2
1070
   279
1070
     2
1070
   280
1070
     0
1070
   287
1070
     5
1070
   340
1005
18A
1002
}
  0
DIMENSION
  5
8E2
100
AcDbEntity
  8
寸法
  6
CONTINUOUS
 62
     3
100
AcDbDimension
  2
*D20
 10
336.5
 20
2127.0
 30
0.0
 11
712.963698
 21
2150.5
 31
0.0
 70
   160
  1
755
  3
STANDARD
100
AcDbAlignedDimension
 13
1089.427395
 23
2547.0
 33
0.0
 14
336.5
 24
2177.0
 34
0.0
100
AcDbRotatedDimension
1001
ACAD
1000
DSTYLE
1002
{
1070
     6
1000
_EX_NORM
1070
     7
1000
_EX_NORM
1070
    41
1040
30.0
1070
    42
1040
5.0
1070
    44
1040
10.0
1070
    73
1070
     0
1070
    74
1070
     0
1070
    75
1070
     0
1070
    76
1070
     1
1070
    77
1070
     1
1070
    78
1070
     8
1070
   140
1040
40.0
1070
   147
1040
3.5
1070
   173
1070
     1
1070
   176
1070
     3
1070
   177
1070
     3
1070
   178
1070
     2
1070
   271
1070
     2
1070
   279
1070
     2
1070
   280
1070
     0
1070
   287
1070
     5
1070
   340
1005
18A
1002
}
  0
DIMENSION
  5
8EE
100
AcDbEntity
  8
寸法
  6
CONTINUOUS
 62
     3
100
AcDbDimension
  2
*D21
 10
1089.427395
 20
2191.0
 30
0.0
 11
720.463698
 21
2214.5
 31
0.0
 70
   160
  1
740
  3
STANDARD
100
AcDbAlignedDimension
 13
351.5
 23
2546.999984
 33
0.0
 14
1089.427395
 24
2546.999984
 34
0.0
100
AcDbRotatedDimension
1001
ACAD
1000
DSTYLE
1002
{
1070
     6
1000
_EX_NORM
1070
     7
1000
_EX_NORM
1070
    41
1040
30.0
1070
    42
1040
188.999984
1070
    44
1040
10.0
1070
    73
1070
     0
1070
    74
1070
     0
1070
    75
1070
     0
1070
    76
1070
     0
1070
    77
1070
     1
1070
    78
1070
     8
1070
   140
1040
40.0
1070
   147
1040
3.5
1070
   173
1070
     1
1070
   176
1070
     3
1070
   177
1070
     3
1070
   178
1070
     2
1070
   271
1070
     2
1070
   279
1070
     2
1070
   280
1070
     0
1070
   287
1070
     5
1070
   340
1005
18A
1002
}
  0
DIMENSION
  5
8FA
100
AcDbEntity
  8
寸法
  6
CONTINUOUS
 62
     3
100
AcDbDimension
  2
*D22
 10
389.427395
 20
2803.0
 30
0.0
 11
739.427395
 21
2826.5
 31
0.0
 70
   160
  3
STANDARD
100
AcDbAlignedDimension
 13
1089.427395
 23
2547.0
 33
0.0
 14
389.427395
 24
2546.999984
 34
0.0
100
AcDbRotatedDimension
1001
ACAD
1000
DSTYLE
1002
{
1070
     6
1000
_EX_NORM
1070
     7
1000
_EX_NORM
1070
    41
1040
30.0
1070
    42
1040
5.0
1070
    44
1040
10.0
1070
    73
1070
     0
1070
    74
1070
     0
1070
    75
1070
     0
1070
    76
1070
     0
1070
    77
1070
     1
1070
    78
1070
     8
1070
   140
1040
40.0
1070
   147
1040
3.5
1070
   173
1070
     1
1070
   176
1070
     3
1070
   177
1070
     3
1070
   178
1070
     2
1070
   271
1070
     2
1070
   279
1070
     2
1070
   280
1070
     0
1070
   287
1070
     5
1070
   340
1005
18A
1002
}
  0
DIMENSION
  5
905
100
AcDbEntity
  8
寸法
  6
CONTINUOUS
 62
     2
100
AcDbDimension
  2
*D23
 10
290.0
 20
600.000324
 30
0.0
 11
266.5
 21
750.000324
 31
0.0
 70
   160
  1
300（壁給水）
  3
STANDARD
100
AcDbAlignedDimension
 13
321.8
 23
900.000324
 33
0.0
 14
292.0
 24
600.000324
 34
0.0
 50
90.0
100
AcDbRotatedDimension
1001
ACAD
1000
DSTYLE
1002
{
1070
     6
1000
_EX_NORM
1070
     7
1000
_EX_NORM
1070
    41
1040
30.0
1070
    42
1040
5.0
1070
    44
1040
10.0
1070
    73
1070
     0
1070
    74
1070
     0
1070
    75
1070
     0
1070
    76
1070
     1
1070
    77
1070
     1
1070
    78
1070
     8
1070
   140
1040
40.0
1070
   147
1040
3.5
1070
   173
1070
     1
1070
   176
1070
     3
1070
   177
1070
     3
1070
   178
1070
     2
1070
   271
1070
     2
1070
   279
1070
     2
1070
   280
1070
     0
1070
   287
1070
     5
1070
   340
1005
18A
1002
}
  0
DIMENSION
  5
910
100
AcDbEntity
  8
寸法
  6
CONTINUOUS
 62
     3
100
AcDbDimension
  2
*D24
 10
1153.0
 20
600.000324
 30
0.0
 11
1129.5
 21
797.500164
 31
0.0
 70
   160
  3
STANDARD
100
AcDbAlignedDimension
 13
1085.427397
 23
995.000004
 33
0.0
 14
1090.0
 24
600.000324
 34
0.0
 50
90.0
100
AcDbRotatedDimension
1001
ACAD
1000
DSTYLE
1002
{
1070
     6
1000
_EX_NORM
1070
     7
1000
_EX_NORM
1070
    41
1040
30.0
1070
    42
1040
5.0
1070
    44
1040
10.0
1070
    73
1070
     0
1070
    74
1070
     0
1070
    75
1070
     0
1070
    76
1070
     1
1070
    77
1070
     1
1070
    78
1070
     8
1070
   140
1040
40.0
1070
   147
1040
3.5
1070
   173
1070
     1
1070
   176
1070
     3
1070
   177
1070
     3
1070
   178
1070
     2
1070
   271
1070
     2
1070
   279
1070
     2
1070
   280
1070
     0
1070
   287
1070
     5
1070
   340
1005
18A
1002
}
  0
TEXT
  5
911
100
AcDbEntity
  8
寸法
  6
CONTINUOUS
 62
     2
100
AcDbText
 10
328.3
 20
652.6
 30
0.0
 40
40.0
  1
１００
 41
0.672
  7
EXCADSTD
 72
     5
 11
424.299999
 21
652.6
 31
0.0
100
AcDbText
  0
DIMENSION
  5
91D
100
AcDbEntity
  8
寸法
  6
CONTINUOUS
 62
     3
100
AcDbDimension
  2
*D25
 10
336.5
 20
457.0
 30
0.0
 11
436.5
 21
480.5
 31
0.0
 70
   160
  1
200
  3
STANDARD
100
AcDbAlignedDimension
 13
536.5
 23
566.000324
 33
0.0
 14
336.5
 24
600.000324
 34
0.0
100
AcDbRotatedDimension
1001
ACAD
1000
DSTYLE
1002
{
1070
     6
1000
_EX_NORM
1070
     7
1000
_EX_NORM
1070
    41
1040
30.0
1070
    42
1040
52.900324
1070
    44
1040
10.0
1070
    73
1070
     0
1070
    74
1070
     0
1070
    75
1070
     0
1070
    76
1070
     0
1070
    77
1070
     1
1070
    78
1070
     8
1070
   140
1040
40.0
1070
   147
1040
3.5
1070
   173
1070
     1
1070
   176
1070
     3
1070
   177
1070
     3
1070
   178
1070
     2
1070
   271
1070
     2
1070
   279
1070
     2
1070
   280
1070
     0
1070
   287
1070
     5
1070
   340
1005
CD
1002
}
  0
DIMENSION
  5
929
100
AcDbEntity
  8
寸法
  6
CONTINUOUS
 62
     3
100
AcDbDimension
  2
*D26
 10
351.500029
 20
1492.987122
 30
0.0
 11
451.521826
 21
1516.487122
 31
0.0
 70
   160
  1
200
  3
STANDARD
100
AcDbAlignedDimension
 13
551.543623
 23
1402.360442
 33
0.0
 14
351.500029
 24
1376.987026
 34
0.0
100
AcDbRotatedDimension
1001
ACAD
1000
DSTYLE
1002
{
1070
     6
1000
_EX_NORM
1070
     7
1000
_EX_NORM
1070
    41
1040
30.0
1070
    42
1040
5.0
1070
    44
1040
10.0
1070
    73
1070
     0
1070
    74
1070
     0
1070
    75
1070
     0
1070
    76
1070
     0
1070
    77
1070
     1
1070
    78
1070
     8
1070
   140
1040
40.0
1070
   147
1040
3.5
1070
   173
1070
     1
1070
   176
1070
     3
1070
   177
1070
     3
1070
   178
1070
     2
1070
   271
1070
     2
1070
   279
1070
     2
1070
   280
1070
     0
1070
   287
1070
     5
1070
   340
1005
CD
1002
}
  0
DIMENSION
  5
934
100
AcDbEntity
  8
寸法
  6
CONTINUOUS
 62
     3
100
AcDbDimension
  2
*D27
 10
336.5
 20
1492.987122
 30
0.0
 11
266.5
 21
1516.487122
 31
0.0
 70
   160
  3
STANDARD
100
AcDbAlignedDimension
 13
351.500029
 23
1376.987026
 33
0.0
 14
336.5
 24
1650.987122
 34
0.0
100
AcDbRotatedDimension
1001
ACAD
1000
DSTYLE
1002
{
1070
     6
1000
_EX_NORM
1070
     7
1000
_EX_NORM
1070
    41
1040
30.0
1070
    42
1040
5.0
1070
    44
1040
10.0
1070
    73
1070
     0
1070
    74
1070
     0
1070
    75
1070
     0
1070
    76
1070
     1
1070
    77
1070
     1
1070
    78
1070
     8
1070
   140
1040
40.0
1070
   147
1040
3.5
1070
   173
1070
     1
1070
   176
1070
     3
1070
   177
1070
     3
1070
   178
1070
     2
1070
   271
1070
     2
1070
   279
1070
     2
1070
   280
1070
     2
1070
   287
1070
     5
1070
   340
1005
CD
1002
}
  0
DIMENSION
  5
93F
100
AcDbEntity
  8
寸法
  6
CONTINUOUS
 62
     3
100
AcDbDimension
  2
*D28
 10
243.0
 20
1010.000324
 30
0.0
 11
219.5
 21
1212.49369
 31
0.0
 70
   160
  1
405
  3
STANDARD
100
AcDbAlignedDimension
 13
454.043623
 23
1414.987056
 33
0.0
 14
360.120422
 24
1010.000324
 34
0.0
 50
90.0
100
AcDbRotatedDimension
1001
ACAD
1000
DSTYLE
1002
{
1070
     6
1000
_EX_NORM
1070
     7
1000
_EX_NORM
1070
    41
1040
30.0
1070
    42
1040
5.0
1070
    44
1040
10.0
1070
    73
1070
     0
1070
    74
1070
     0
1070
    75
1070
     0
1070
    76
1070
     1
1070
    77
1070
     1
1070
    78
1070
     8
1070
   140
1040
40.0
1070
   147
1040
3.5
1070
   173
1070
     1
1070
   176
1070
     3
1070
   177
1070
     3
1070
   178
1070
     2
1070
   271
1070
     2
1070
   279
1070
     2
1070
   280
1070
     0
1070
   287
1070
     5
1070
   340
1005
CD
1002
}
  0
DIMENSION
  5
94B
100
AcDbEntity
  8
寸法
  6
CONTINUOUS
 62
     3
100
AcDbDimension
  2
*D29
 10
1898.482971
 20
1493.00032
 30
0.0
 11
1688.482971
 21
1516.50032
 31
0.0
 70
   160
  3
STANDARD
100
AcDbAlignedDimension
 13
1478.482971
 23
1402.924909
 33
0.0
 14
1898.482971
 24
1402.924909
 34
0.0
100
AcDbRotatedDimension
1001
ACAD
1000
DSTYLE
1002
{
1070
     6
1000
_EX_NORM
1070
     7
1000
_EX_NORM
1070
    41
1040
30.0
1070
    42
1040
5.0
1070
    44
1040
10.0
1070
    73
1070
     0
1070
    74
1070
     0
1070
    75
1070
     0
1070
    76
1070
     0
1070
    77
1070
     1
1070
    78
1070
     8
1070
   140
1040
40.0
1070
   147
1040
3.5
1070
   173
1070
     1
1070
   176
1070
     3
1070
   177
1070
     3
1070
   178
1070
     2
1070
   271
1070
     2
1070
   279
1070
     2
1070
   280
1070
     0
1070
   287
1070
     5
1070
   340
1005
CD
1002
}
  0
TEXT
  5
94C
100
AcDbEntity
  8
器具明細表
  6
CONTINUOUS
 62
     2
100
AcDbText
 10
1621.0
 20
2598.0
 30
0.0
 40
50.0
  1
タンクセット
 41
0.5824
  7
EXCADSTD
 72
     5
 11
1829.000011
 21
2598.0
 31
0.0
100
AcDbText
  0
TEXT
  5
94D
100
AcDbEntity
  8
器具明細表
  6
CONTINUOUS
 62
     2
100
AcDbText
 10
1327.0
 20
2756.0
 30
0.0
 40
50.0
  1
器具明細
 41
1.8144
  7
EXCADSTD
 72
     5
 11
1759.000008
 21
2756.0
 31
0.0
100
AcDbText
  0
LINE
  5
94E
100
AcDbEntity
  8
器具明細表
  6
CONTINUOUS
 62
     6
100
AcDbLine
 10
1307.0
 20
2597.0
 30
0.0
 11
1988.0
 21
2597.0
 31
0.0
  0
LINE
  5
94F
100
AcDbEntity
  8
器具明細表
  6
CONTINUOUS
 62
     6
100
AcDbLine
 10
1307.0
 20
2545.0
 30
0.0
 11
1988.0
 21
2545.0
 31
0.0
  0
LINE
  5
950
100
AcDbEntity
  8
器具明細表
  6
CONTINUOUS
 62
     6
100
AcDbLine
 10
1307.0
 20
2649.0
 30
0.0
 11
1988.0
 21
2649.0
 31
0.0
  0
LINE
  5
951
100
AcDbEntity
  8
器具明細表
  6
CONTINUOUS
 62
     6
100
AcDbLine
 10
1307.0
 20
2701.0
 30
0.0
 11
1988.0
 21
2701.0
 31
0.0
  0
LINE
  5
952
100
AcDbEntity
  8
器具明細表
  6
CONTINUOUS
 62
     6
100
AcDbLine
 10
1307.0
 20
2753.0
 30
0.0
 11
1988.0
 21
2753.0
 31
0.0
  0
TEXT
  5
953
100
AcDbEntity
  8
器具明細表
  6
CONTINUOUS
 62
     2
100
AcDbText
 10
1621.0
 20
2650.0
 30
0.0
 40
50.0
  1
便器セット
 41
0.588
  7
EXCADSTD
 72
     5
 11
1796.00001
 21
2650.0
 31
0.0
100
AcDbText
  0
TEXT
  5
954
100
AcDbEntity
  8
器具明細表
  6
CONTINUOUS
 62
     2
100
AcDbText
 10
1899.5
 20
2703.0
 30
0.0
 40
48.0
  1
個数
 41
0.76125
  7
EXCADSTD
 72
     5
 11
1979.2442
 21
2703.0
 31
0.0
100
AcDbText
  0
TEXT
  5
955
100
AcDbEntity
  8
器具明細表
  6
CONTINUOUS
 62
     2
100
AcDbText
 10
1668.0
 20
2703.0
 30
0.0
 40
48.0
  1
品名
 41
1.575
  7
EXCADSTD
 72
     5
 11
1832.988
 21
2703.0
 31
0.0
100
AcDbText
  0
TEXT
  5
956
100
AcDbEntity
  8
器具明細表
  6
CONTINUOUS
 62
     2
100
AcDbText
 10
1922.549241
 20
2547.315994
 30
0.0
 40
45.0
  1
１
 41
0.84
  7
EXCADSTD
 72
     5
 11
1958.549241
 21
2547.315994
 31
0.0
100
AcDbText
  0
TEXT
  5
957
100
AcDbEntity
  8
器具明細表
  6
CONTINUOUS
 62
     2
100
AcDbText
 10
1922.549241
 20
2599.315994
 30
0.0
 40
45.0
  1
１
 41
0.84
  7
EXCADSTD
 72
     5
 11
1958.549241
 21
2599.315994
 31
0.0
100
AcDbText
  0
TEXT
  5
958
100
AcDbEntity
  8
器具明細表
  6
CONTINUOUS
 62
     2
100
AcDbText
 10
1922.549241
 20
2651.315994
 30
0.0
 40
45.0
  1
１
 41
0.84
  7
EXCADSTD
 72
     5
 11
1958.549241
 21
2651.315994
 31
0.0
100
AcDbText
  0
TEXT
  5
959
100
AcDbEntity
  8
器具明細表
  6
CONTINUOUS
 62
     2
100
AcDbText
 10
1372.0
 20
2703.0
 30
0.0
 40
48.0
  1
品番
 41
1.75
  7
EXCADSTD
 72
     5
 11
1555.32
 21
2703.0
 31
0.0
100
AcDbText
  0
LINE
  5
95A
100
AcDbEntity
  8
器具明細表
  6
CONTINUOUS
 62
     6
100
AcDbLine
 10
1307.0
 20
2753.0
 30
0.0
 11
1307.0
 21
2545.0
 31
0.0
  0
LINE
  5
95B
100
AcDbEntity
  8
器具明細表
  6
CONTINUOUS
 62
     6
100
AcDbLine
 10
1618.0
 20
2545.0
 30
0.0
 11
1618.0
 21
2753.0
 31
0.0
  0
LINE
  5
95C
100
AcDbEntity
  8
器具明細表
  6
CONTINUOUS
 62
     6
100
AcDbLine
 10
1898.0
 20
2753.0
 30
0.0
 11
1898.0
 21
2545.0
 31
0.0
  0
LINE
  5
95D
100
AcDbEntity
  8
器具明細表
  6
CONTINUOUS
 62
     6
100
AcDbLine
 10
1988.0
 20
2545.0
 30
0.0
 11
1988.0
 21
2753.0
 31
0.0
  0
TEXT
  5
95E
100
AcDbEntity
  8
器具明細表
  6
CONTINUOUS
 62
     2
100
AcDbText
 10
1621.0
 20
2549.5
 30
0.0
 40
43.0
  1
前丸便座
 41
0.634884
  7
EXCADSTD
 72
     5
 11
1751.0
 21
2549.5
 31
0.0
100
AcDbText
  0
TEXT
  5
95F
100
AcDbEntity
  8
器具明細表
  6
CONTINUOUS
 62
     2
100
AcDbText
 10
1307.0
 20
2549.5
 30
0.0
 40
43.0
  1
ＮＣ８２２Ｗ
 41
0.716279
  7
EXCADSTD
 72
     5
 11
1527.0
 21
2549.5
 31
0.0
100
AcDbText
  0
TEXT
  5
960
100
AcDbEntity
  8
器具明細表
  6
CONTINUOUS
 62
     2
100
AcDbText
 10
1307.0
 20
2652.5
 30
0.0
 40
43.0
  1
ＳＣ８４ＳＧ－ＢＴ（ＣＴ）＃
 41
0.424186
  7
EXCADSTD
 72
     5
 11
1610.999987
 21
2652.5
 31
0.0
100
AcDbText
  0
TEXT
  5
961
100
AcDbEntity
  8
器具明細表
  6
CONTINUOUS
 62
     2
100
AcDbText
 10
1307.0
 20
2601.5
 30
0.0
 40
43.0
  1
ＳＴＶ１９０ＲＵ－０ＡＥ（Ｙ）０Ｆ＃
 41
0.344031
  7
EXCADSTD
 72
     5
 11
1623.999987
 21
2601.5
 31
0.0
100
AcDbText
  0
ENDSEC
  0
SECTION
  2
OBJECTS
  0
DICTIONARY
  5
19
100
AcDbDictionary
  3
ACAD_GROUP
350
1A
  3
ACAD_MLINESTYLE
350
1B
  0
DICTIONARY
  5
1A
102
{ACAD_REACTORS
330
19
102
}
100
AcDbDictionary
  0
DICTIONARY
  5
1B
102
{ACAD_REACTORS
330
19
102
}
100
AcDbDictionary
  3
STANDARD
350
1C
  0
MLINESTYLE
  5
1C
102
{ACAD_REACTORS
330
1B
102
}
100
AcDbMlineStyle
  2
Standard
 70
     0
  3

 62
     0
 51
90.0
 52
90.0
 71
     2
 49
0.5
 62
   256
  6
ByLayer
 49
-0.5
 62
   256
  6
ByLayer
  0
ENDSEC
  0
EOF
