  0
SECTION
  2
HEADER
  9
$ACADVER
  1
AC1014
  9
$ACADMAINTVER
 70
     0
  9
$DWGCODEPAGE
  3
ANSI_932
  9
$INSBASE
 10
0.0
 20
0.0
 30
0.0
  9
$EXTMIN
 10
0.0
 20
12.5
 30
0.0
  9
$EXTMAX
 10
200.0
 20
287.5
 30
0.0
  9
$LIMMIN
 10
0.0
 20
0.0
  9
$LIMMAX
 10
210.0
 20
297.0
  9
$ORTHOMODE
 70
     0
  9
$REGENMODE
 70
     1
  9
$FILLMODE
 70
     1
  9
$QTEXTMODE
 70
     0
  9
$MIRRTEXT
 70
     1
  9
$DRAGMODE
 70
     2
  9
$LTSCALE
 40
1.0
  9
$OSMODE
 70
     0
  9
$ATTMODE
 70
     1
  9
$TEXTSIZE
 40
0.2
  9
$TRACEWID
 40
0.05
  9
$TEXTSTYLE
  7
STANDARD
  9
$CLAYER
  8
化粧台
  9
$CELTYPE
  6
CONTINUOUS
  9
$CECOLOR
 62
   256
  9
$CELTSCALE
 40
1.0
  9
$DELOBJ
 70
     1
  9
$DISPSILH
 70
     0
  9
$DIMSCALE
 40
1.0
  9
$DIMASZ
 40
0.18
  9
$DIMEXO
 40
0.0625
  9
$DIMDLI
 40
0.38
  9
$DIMRND
 40
0.0
  9
$DIMDLE
 40
0.0
  9
$DIMEXE
 40
0.18
  9
$DIMTP
 40
0.0
  9
$DIMTM
 40
0.0
  9
$DIMTXT
 40
0.18
  9
$DIMCEN
 40
0.09
  9
$DIMTSZ
 40
0.0
  9
$DIMTOL
 70
     0
  9
$DIMLIM
 70
     0
  9
$DIMTIH
 70
     1
  9
$DIMTOH
 70
     1
  9
$DIMSE1
 70
     0
  9
$DIMSE2
 70
     0
  9
$DIMTAD
 70
     0
  9
$DIMZIN
 70
     0
  9
$DIMBLK
  1

  9
$DIMASO
 70
     1
  9
$DIMSHO
 70
     1
  9
$DIMPOST
  1

  9
$DIMAPOST
  1

  9
$DIMALT
 70
     0
  9
$DIMALTD
 70
     2
  9
$DIMALTF
 40
25.4
  9
$DIMLFAC
 40
1.0
  9
$DIMTOFL
 70
     0
  9
$DIMTVP
 40
0.0
  9
$DIMTIX
 70
     0
  9
$DIMSOXD
 70
     0
  9
$DIMSAH
 70
     0
  9
$DIMBLK1
  1

  9
$DIMBLK2
  1

  9
$DIMSTYLE
  2
STANDARD
  9
$DIMCLRD
 70
     0
  9
$DIMCLRE
 70
     0
  9
$DIMCLRT
 70
     0
  9
$DIMTFAC
 40
1.0
  9
$DIMGAP
 40
0.09
  9
$DIMJUST
 70
     0
  9
$DIMSD1
 70
     0
  9
$DIMSD2
 70
     0
  9
$DIMTOLJ
 70
     1
  9
$DIMTZIN
 70
     0
  9
$DIMALTZ
 70
     0
  9
$DIMALTTZ
 70
     0
  9
$DIMFIT
 70
     3
  9
$DIMUPT
 70
     0
  9
$DIMUNIT
 70
     2
  9
$DIMDEC
 70
     4
  9
$DIMTDEC
 70
     4
  9
$DIMALTU
 70
     2
  9
$DIMALTTD
 70
     2
  9
$DIMTXSTY
  7
STANDARD
  9
$DIMAUNIT
 70
     0
  9
$LUNITS
 70
     2
  9
$LUPREC
 70
     4
  9
$SKETCHINC
 40
0.1
  9
$FILLETRAD
 40
0.0
  9
$AUNITS
 70
     0
  9
$AUPREC
 70
     0
  9
$MENU
  1
acad
  9
$ELEVATION
 40
0.0
  9
$PELEVATION
 40
0.0
  9
$THICKNESS
 40
0.0
  9
$LIMCHECK
 70
     0
  9
$BLIPMODE
 70
     1
  9
$CHAMFERA
 40
0.0
  9
$CHAMFERB
 40
0.0
  9
$CHAMFERC
 40
0.0
  9
$CHAMFERD
 40
0.0
  9
$SKPOLY
 70
     0
  9
$TDCREATE
 40
2455188.919031713
  9
$TDUPDATE
 40
2455188.919031713
  9
$TDINDWG
 40
0.0000000000
  9
$TDUSRTIMER
 40
0.0000000000
  9
$USRTIMER
 70
     1
  9
$ANGBASE
 50
0.0
  9
$ANGDIR
 70
     0
  9
$PDMODE
 70
     0
  9
$PDSIZE
 40
0.0
  9
$PLINEWID
 40
0.0
  9
$COORDS
 70
     1
  9
$SPLFRAME
 70
     0
  9
$SPLINETYPE
 70
     6
  9
$SPLINESEGS
 70
     8
  9
$ATTDIA
 70
     0
  9
$ATTREQ
 70
     1
  9
$HANDLING
 70
     1
  9
$HANDSEED
  5
4C2
  9
$SURFTAB1
 70
     6
  9
$SURFTAB2
 70
     6
  9
$SURFTYPE
 70
     6
  9
$SURFU
 70
     6
  9
$SURFV
 70
     6
  9
$UCSNAME
  2

  9
$UCSORG
 10
0.0
 20
0.0
 30
0.0
  9
$UCSXDIR
 10
1.0
 20
0.0
 30
0.0
  9
$UCSYDIR
 10
0.0
 20
1.0
 30
0.0
  9
$PUCSNAME
  2

  9
$PUCSORG
 10
0.0
 20
0.0
 30
0.0
  9
$PUCSXDIR
 10
1.0
 20
0.0
 30
0.0
  9
$PUCSYDIR
 10
0.0
 20
1.0
 30
0.0
  9
$USERI1
 70
     0
  9
$USERI2
 70
     0
  9
$USERI3
 70
     0
  9
$USERI4
 70
     0
  9
$USERI5
 70
     0
  9
$USERR1
 40
0.0
  9
$USERR2
 40
0.0
  9
$USERR3
 40
0.0
  9
$USERR4
 40
0.0
  9
$USERR5
 40
0.0
  9
$WORLDVIEW
 70
     1
  9
$SHADEDGE
 70
     3
  9
$SHADEDIF
 70
    70
  9
$TILEMODE
 70
     1
  9
$MAXACTVP
 70
    16
  9
$PINSBASE
 10
0.0
 20
0.0
 30
0.0
  9
$PLIMCHECK
 70
     0
  9
$PEXTMIN
 10
1.000000E+20
 20
1.000000E+20
 30
1.000000E+20
  9
$PEXTMAX
 10
-1.000000E+20
 20
-1.000000E+20
 30
-1.000000E+20
  9
$PLIMMIN
 10
0.0
 20
0.0
  9
$PLIMMAX
 10
12.0
 20
9.0
  9
$UNITMODE
 70
     0
  9
$VISRETAIN
 70
     0
  9
$PLINEGEN
 70
     1
  9
$PSLTSCALE
 70
     0
  9
$TREEDEPTH
 70
  3020
  9
$PICKSTYLE
 70
     1
  9
$CMLSTYLE
  2
Standard
  9
$CMLJUST
 70
     0
  9
$CMLSCALE
 40
1.0
  9
$PROXYGRAPHICS
 70
     0
  9
$MEASUREMENT
 70
     0
  0
ENDSEC
  0
SECTION
  2
CLASSES
  0
CLASS
  1
LWPOLYLINE
  2
AcDbPolyline
  3
"AutoCAD"
 90
        0
280
     0
281
     1
  0
CLASS
  1
IMAGE
  2
AcDbRasterImage
  3
ISM
 90
      127
280
     0
281
     1
  0
CLASS
  1
OLE2FRAME
  2
AcDbOle2Frame
  3
""
 90
        0
280
     0
281
     1
  0
CLASS
  1
HATCH
  2
AcDbHatch
  3
"ACAD_SEDONA"
 90
        0
280
     0
281
     1
  0
CLASS
  1
DICTIONARYVAR
  2
AcDbDictionaryVar
  3
"AutoCAD"
 90
        0
280
     0
281
     0
  0
CLASS
  1
RASTERVARIABLES
  2
AcDbRasterVariables
  3
ISM
 90
        0
280
     0
281
     0
  0
CLASS
  1
IMAGEDEF
  2
AcDbRasterImageDef
  3
ISM
 90
        0
280
     0
281
     0
  0
CLASS
  1
IMAGEDEF_REACTOR
  2
AcDbRasterImageDefReactor
  3
ISM
 90
        1
280
     0
281
     0
  0
CLASS
  1
IDBUFFER
  2
AcDbIdBuffer
  3
"Acad"
 90
        0
280
     0
281
     0
  0
CLASS
  1
SPATIAL_FILTER
  2
AcDbSpatialFilter
  3
"Acad"
 90
        0
280
     0
281
     0
  0
CLASS
  1
XRECORD
  2
AcDbXrecord
  3
"<Built In>"
 90
        0
280
     0
281
     0
  0
CLASS
  1
SORTENTSTABLE
  2
AcDbSortentsTable
  3
"AutoCAD"
 90
        0
280
     0
281
     0
  0
CLASS
  1
LAYER_INDEX
  2
AcDbLayerIndex
  3
"Acad"
 90
        0
280
     0
281
     0
  0
CLASS
  1
SPATIAL_INDEX
  2
AcDbSpatialIndex
  3
"Acad"
 90
        0
280
     0
281
     0
  0
CLASS
  1
OBJECT_PTR
  2
CAseDLPNTableRecord
  3
"ASE-LPNTableRecord"
 90
        1
280
     0
281
     0
  0
CLASS
  1
LAYOUT
  2
AcDbLayout
  3
"AutoCAD 2000"
 90
        1
280
     0
281
     0
  0
CLASS
  1
PLOTSETTINGS
  2
AcDbPlotSettings
  3
"AutoCAD 2000"
 90
        1
280
     0
281
     0
  0
CLASS
  1
ACDBDICTIONARYWDFLT
  2
AcDbDictionaryWithDefault
  3
"AutoCAD 2000"
 90
        1
280
     0
281
     0
  0
CLASS
  1
ACDBPLACEHOLDER
  2
AcDbPlaceHolder
  3
"AutoCAD 2000"
 90
        1
280
     0
281
     0
  0
CLASS
  1
VBA_PROJECT
  2
AcDbVbaProject
  3
"acadvba"
 90
        1
280
     0
281
     0
  0
CLASS
  1
WIPEOUT
  2
AcDbWipeout
  3
WipeOut|AutoCAD Express Tool|expresstools@autodesk.com
 90
      127
280
     0
281
     1
  0
CLASS
  1
WIPEOUTVARIABLES
  2
AcDbWipeoutVariables
  3
WipeOut|AutoCAD Express Tool|expresstools@autodesk.com
 90
        0
280
     0
281
     0
  0
CLASS
  1
RTEXT
  2
RText
  3
RText|AutoCAD Express Tool|expresstools@autodesk.com
 90
        0
280
     0
281
     1
  0
CLASS
  1
ARCALIGNEDTEXT
  2
AcDbArcAlignedText
  3
ATEXT|AutoCAD Express Tool|expresstools@autodesk.com
 90
        0
280
     0
281
     1
  0
ENDSEC
  0
SECTION
  2
TABLES
  0
TABLE
  2
VPORT
  5
7
100
AcDbSymbolTable
 70
     1
  0
VPORT
  5
15
100
AcDbSymbolTableRecord
100
AcDbViewportTableRecord
  2
*ACTIVE
 70
     0
 10
0.0
 20
0.0
 11
1.0
 21
1.0
 12
1500.0
 22
2250.0
 13
0.0
 23
0.0
 14
1.0
 24
1.0
 15
0.0
 25
0.0
 16
0.0
 26
0.0
 36
1.0
 17
0.0
 27
0.0
 37
0.0
 40
4125.0
 41
1.722533
 42
50.0
 43
0.0
 44
0.0
 50
0.0
 51
0.0
 71
     0
 72
   100
 73
     1
 74
     1
 75
     0
 76
     0
 77
     0
 78
     0
  0
ENDTAB
  0
TABLE
  2
LTYPE
  5
4
100
AcDbSymbolTable
 70
     9
  0
LTYPE
  5
11
100
AcDbSymbolTableRecord
100
AcDbLinetypeTableRecord
  2
BYBLOCK
 70
    64
  3

 72
    65
 73
     0
 40
0.0
  0
LTYPE
  5
12
100
AcDbSymbolTableRecord
100
AcDbLinetypeTableRecord
  2
BYLAYER
 70
    64
  3

 72
    65
 73
     0
 40
0.0
  0
LTYPE
  5
13
100
AcDbSymbolTableRecord
100
AcDbLinetypeTableRecord
  2
CONTINUOUS
 70
    64
  3
実線
 72
    65
 73
     0
 40
0.0
  0
LTYPE
  5
1D
100
AcDbSymbolTableRecord
100
AcDbLinetypeTableRecord
  2
EXLTYPE1
 70
    64
  3
破線
 72
    65
 73
     2
 40
3.0
 49
2.0
 74
     0
 49
-1.0
 74
     0
  0
LTYPE
  5
1E
100
AcDbSymbolTableRecord
100
AcDbLinetypeTableRecord
  2
EXLTYPE2
 70
    64
  3
点線
 72
    65
 73
     2
 40
2.0
 49
1.0
 74
     0
 49
-1.0
 74
     0
  0
LTYPE
  5
1F
100
AcDbSymbolTableRecord
100
AcDbLinetypeTableRecord
  2
EXLTYPE3
 70
    64
  3
一点鎖線
 72
    65
 73
     4
 40
10.0
 49
7.0
 74
     0
 49
-1.0
 74
     0
 49
1.0
 74
     0
 49
-1.0
 74
     0
  0
LTYPE
  5
20
100
AcDbSymbolTableRecord
100
AcDbLinetypeTableRecord
  2
EXLTYPE4
 70
    64
  3
二点鎖線
 72
    65
 73
     6
 40
12.0
 49
7.0
 74
     0
 49
-1.0
 74
     0
 49
1.0
 74
     0
 49
-1.0
 74
     0
 49
1.0
 74
     0
 49
-1.0
 74
     0
  0
LTYPE
  5
21
100
AcDbSymbolTableRecord
100
AcDbLinetypeTableRecord
  2
EXLTYPE5
 70
    64
  3
三点鎖線
 72
    65
 73
     8
 40
37.0
 49
30.0
 74
     0
 49
-1.0
 74
     0
 49
1.0
 74
     0
 49
-1.0
 74
     0
 49
1.0
 74
     0
 49
-1.0
 74
     0
 49
1.0
 74
     0
 49
-1.0
 74
     0
  0
LTYPE
  5
22
100
AcDbSymbolTableRecord
100
AcDbLinetypeTableRecord
  2
EXLTYPE6
 70
    64
  3
四点鎖線
 72
    65
 73
    10
 40
39.0
 49
30.0
 74
     0
 49
-1.0
 74
     0
 49
1.0
 74
     0
 49
-1.0
 74
     0
 49
1.0
 74
     0
 49
-1.0
 74
     0
 49
1.0
 74
     0
 49
-1.0
 74
     0
 49
1.0
 74
     0
 49
-1.0
 74
     0
  0
ENDTAB
  0
TABLE
  2
LAYER
  5
2
100
AcDbSymbolTable
 70
     6
  0
LAYER
  5
14
100
AcDbSymbolTableRecord
100
AcDbLayerTableRecord
  2
0
 70
     0
 62
     7
  6
CONTINUOUS
  0
LAYER
  5
25
100
AcDbSymbolTableRecord
100
AcDbLayerTableRecord
  2
枠・表
 70
    64
 62
     7
  6
CONTINUOUS
  0
LAYER
  5
26
100
AcDbSymbolTableRecord
100
AcDbLayerTableRecord
  2
化粧台
 70
    64
 62
     7
  6
CONTINUOUS
  0
LAYER
  5
27
100
AcDbSymbolTableRecord
100
AcDbLayerTableRecord
  2
鏡台
 70
    64
 62
     7
  6
CONTINUOUS
  0
LAYER
  5
28
100
AcDbSymbolTableRecord
100
AcDbLayerTableRecord
  2
付属金具
 70
    64
 62
     7
  6
CONTINUOUS
  0
LAYER
  5
29
100
AcDbSymbolTableRecord
100
AcDbLayerTableRecord
  2
寸法
 70
    64
 62
     7
  6
CONTINUOUS
  0
ENDTAB
  0
TABLE
  2
STYLE
  5
3
100
AcDbSymbolTable
 70
     5
  0
STYLE
  5
17
100
AcDbSymbolTableRecord
100
AcDbTextStyleTableRecord
  2
STANDARD
 70
     0
 40
0.0
 41
1.0
 50
0.0
 71
     0
 42
0.0
  3
monotxt
  4
extfont
  0
STYLE
  5
23
100
AcDbSymbolTableRecord
100
AcDbTextStyleTableRecord
  2
EXCADSTD
 70
    64
 40
0.0
 41
1.0
 50
0.0
 71
     0
 42
0.2
  3
monotxt
  4
extfont
  0
STYLE
  5
24
100
AcDbSymbolTableRecord
100
AcDbTextStyleTableRecord
  2
EXCADVERT
 70
    68
 40
0.0
 41
1.0
 50
0.0
 71
     0
 42
0.286885
  3
monotxt
  4
extfont
  0
STYLE
  5
B0
100
AcDbSymbolTableRecord
100
AcDbTextStyleTableRecord
  2
EXCADTTF1
 70
    64
 40
0.0
 41
1.0
 50
0.0
 71
     0
 42
0.2
  3
MS Gothic.ttf
  4

1001
ACAD
1000
MS Gothic
1071
    32817
  0
STYLE
  5
3DE
100
AcDbSymbolTableRecord
100
AcDbTextStyleTableRecord
  2
EXCADDIM1
 70
    64
 40
0.0
 41
0.84
 50
0.0
 71
     0
 42
0.2
  3
monotxt
  4
extfont
  0
ENDTAB
  0
TABLE
  2
VIEW
  5
5
100
AcDbSymbolTable
 70
     0
  0
ENDTAB
  0
TABLE
  2
UCS
  5
6
100
AcDbSymbolTable
 70
     0
  0
ENDTAB
  0
TABLE
  2
APPID
  5
8
100
AcDbSymbolTable
 70
     1
  0
APPID
  5
16
100
AcDbSymbolTableRecord
100
AcDbRegAppTableRecord
  2
ACAD
 70
     0
  0
ENDTAB
  0
TABLE
  2
DIMSTYLE
  5
9
100
AcDbSymbolTable
 70
     1
  0
DIMSTYLE
105
18
100
AcDbSymbolTableRecord
100
AcDbDimStyleTableRecord
  2
STANDARD
 70
     0
  3

  4

  5

  6

  7

 40
1.0
 41
0.18
 42
0.0625
 43
0.38
 44
0.18
 45
0.0
 46
0.0
 47
0.0
 48
0.0
 71
     0
 72
     0
 73
     1
 74
     1
 75
     0
 76
     0
 77
     0
 78
     0
140
0.18
141
0.09
142
0.0
143
25.4
144
1.0
145
0.0
146
1.0
147
0.09
170
     0
171
     2
172
     1
173
     0
174
     0
175
     0
176
     0
177
     0
178
     0
270
     2
271
     4
272
     4
273
     2
274
     2
275
     0
280
     0
281
     0
282
     0
283
     1
284
     0
285
     0
286
     0
287
     0
288
     0
340
17
  0
ENDTAB
  0
TABLE
  2
BLOCK_RECORD
  5
1
100
AcDbSymbolTable
 70
    28
  0
BLOCK_RECORD
  5
A
100
AcDbSymbolTableRecord
100
AcDbBlockTableRecord
  2
*MODEL_SPACE
  0
BLOCK_RECORD
  5
B
100
AcDbSymbolTableRecord
100
AcDbBlockTableRecord
  2
*PAPER_SPACE
  0
BLOCK_RECORD
  5
2A
100
AcDbSymbolTableRecord
100
AcDbBlockTableRecord
  2
_EX_NORM
  0
BLOCK_RECORD
  5
2B
100
AcDbSymbolTableRecord
100
AcDbBlockTableRecord
  2
_EX_BNORM
  0
BLOCK_RECORD
  5
2C
100
AcDbSymbolTableRecord
100
AcDbBlockTableRecord
  2
_EX_BCIR
  0
BLOCK_RECORD
  5
2D
100
AcDbSymbolTableRecord
100
AcDbBlockTableRecord
  2
_EX_RCIVIL
  0
BLOCK_RECORD
  5
2E
100
AcDbSymbolTableRecord
100
AcDbBlockTableRecord
  2
_EX_SLANT
  0
BLOCK_RECORD
  5
2F
100
AcDbSymbolTableRecord
100
AcDbBlockTableRecord
  2
_EX_NONE
  0
BLOCK_RECORD
  5
30
100
AcDbSymbolTableRecord
100
AcDbBlockTableRecord
  2
_EX_CIVIL
  0
BLOCK_RECORD
  5
31
100
AcDbSymbolTableRecord
100
AcDbBlockTableRecord
  2
_EX_WCIR
  0
BLOCK_RECORD
  5
32
100
AcDbSymbolTableRecord
100
AcDbBlockTableRecord
  2
_EX_WCIR2
  0
BLOCK_RECORD
  5
33
100
AcDbSymbolTableRecord
100
AcDbBlockTableRecord
  2
_EX_WNORM
  0
BLOCK_RECORD
  5
34
100
AcDbSymbolTableRecord
100
AcDbBlockTableRecord
  2
_EX_NNORM
  0
BLOCK_RECORD
  5
35
100
AcDbSymbolTableRecord
100
AcDbBlockTableRecord
  2
_EX_BBOX
  0
BLOCK_RECORD
  5
36
100
AcDbSymbolTableRecord
100
AcDbBlockTableRecord
  2
_EX_WBOX
  0
BLOCK_RECORD
  5
37
100
AcDbSymbolTableRecord
100
AcDbBlockTableRecord
  2
_EX_INTEGRAL
  0
BLOCK_RECORD
  5
3D3
100
AcDbSymbolTableRecord
100
AcDbBlockTableRecord
  2
*D14
  0
BLOCK_RECORD
  5
3E0
100
AcDbSymbolTableRecord
100
AcDbBlockTableRecord
  2
*D15
  0
BLOCK_RECORD
  5
3EC
100
AcDbSymbolTableRecord
100
AcDbBlockTableRecord
  2
*D16
  0
BLOCK_RECORD
  5
400
100
AcDbSymbolTableRecord
100
AcDbBlockTableRecord
  2
*D17
  0
BLOCK_RECORD
  5
40C
100
AcDbSymbolTableRecord
100
AcDbBlockTableRecord
  2
*D18
  0
BLOCK_RECORD
  5
417
100
AcDbSymbolTableRecord
100
AcDbBlockTableRecord
  2
*D19
  0
BLOCK_RECORD
  5
459
100
AcDbSymbolTableRecord
100
AcDbBlockTableRecord
  2
*D20
  0
BLOCK_RECORD
  5
465
100
AcDbSymbolTableRecord
100
AcDbBlockTableRecord
  2
*D21
  0
BLOCK_RECORD
  5
471
100
AcDbSymbolTableRecord
100
AcDbBlockTableRecord
  2
*D22
  0
BLOCK_RECORD
  5
47C
100
AcDbSymbolTableRecord
100
AcDbBlockTableRecord
  2
*D23
  0
BLOCK_RECORD
  5
490
100
AcDbSymbolTableRecord
100
AcDbBlockTableRecord
  2
*D24
  0
BLOCK_RECORD
  5
49B
100
AcDbSymbolTableRecord
100
AcDbBlockTableRecord
  2
*D25
  0
BLOCK_RECORD
  5
4A7
100
AcDbSymbolTableRecord
100
AcDbBlockTableRecord
  2
*D26
  0
BLOCK_RECORD
  5
4B5
100
AcDbSymbolTableRecord
100
AcDbBlockTableRecord
  2
*D27
  0
ENDTAB
  0
ENDSEC
  0
SECTION
  2
BLOCKS
  0
BLOCK
  5
D
100
AcDbEntity
  8
0
100
AcDbBlockBegin
  2
*MODEL_SPACE
 70
     0
 10
0.0
 20
0.0
 30
0.0
  3
*MODEL_SPACE
  1

  0
ENDBLK
  5
E
100
AcDbEntity
  8
0
100
AcDbBlockEnd
  0
BLOCK
  5
F
100
AcDbEntity
 67
     1
  8
0
100
AcDbBlockBegin
  2
*PAPER_SPACE
 70
     0
 10
0.0
 20
0.0
 30
0.0
  3
*PAPER_SPACE
  1

  0
ENDBLK
  5
10
100
AcDbEntity
 67
     1
  8
0
100
AcDbBlockEnd
  0
BLOCK
  5
38
100
AcDbEntity
  8
0
100
AcDbBlockBegin
  2
_EX_NORM
 70
     0
 10
0.0
 20
0.0
 30
0.0
  3
_EX_NORM
  1

  0
LINE
  5
39
100
AcDbEntity
  8
0
  6
CONTINUOUS
 62
     0
100
AcDbLine
 10
0.0
 20
0.0
 30
0.0
 11
-1.0
 21
0.0
 31
0.0
  0
LINE
  5
3A
100
AcDbEntity
  8
0
  6
CONTINUOUS
 62
     0
100
AcDbLine
 10
0.0
 20
0.0
 30
0.0
 11
-1.0
 21
0.166667
 31
0.0
  0
LINE
  5
3B
100
AcDbEntity
  8
0
  6
CONTINUOUS
 62
     0
100
AcDbLine
 10
0.0
 20
0.0
 30
0.0
 11
-1.0
 21
-0.166667
 31
0.0
  0
ENDBLK
  5
3C
100
AcDbEntity
  8
0
100
AcDbBlockEnd
  0
BLOCK
  5
3D
100
AcDbEntity
  8
0
100
AcDbBlockBegin
  2
_EX_BNORM
 70
     0
 10
0.0
 20
0.0
 30
0.0
  3
_EX_BNORM
  1

  0
LINE
  5
3E
100
AcDbEntity
  8
0
  6
CONTINUOUS
 62
     0
100
AcDbLine
 10
0.0
 20
0.0
 30
0.0
 11
-1.0
 21
0.0
 31
0.0
  0
LINE
  5
3F
100
AcDbEntity
  8
0
  6
CONTINUOUS
 62
     0
100
AcDbLine
 10
0.0
 20
0.0
 30
0.0
 11
-1.0
 21
0.166667
 31
0.0
  0
LINE
  5
40
100
AcDbEntity
  8
0
  6
CONTINUOUS
 62
     0
100
AcDbLine
 10
0.0
 20
0.0
 30
0.0
 11
-1.0
 21
-0.166667
 31
0.0
  0
LINE
  5
41
100
AcDbEntity
  8
0
  6
CONTINUOUS
 62
     0
100
AcDbLine
 10
0.0
 20
0.0
 30
0.0
 11
-1.0
 21
0.083333
 31
0.0
  0
LINE
  5
42
100
AcDbEntity
  8
0
  6
CONTINUOUS
 62
     0
100
AcDbLine
 10
0.0
 20
0.0
 30
0.0
 11
-1.0
 21
-0.083333
 31
0.0
  0
LINE
  5
43
100
AcDbEntity
  8
0
  6
CONTINUOUS
 62
     0
100
AcDbLine
 10
-1.0
 20
0.166667
 30
0.0
 11
-1.0
 21
-0.166667
 31
0.0
  0
ENDBLK
  5
44
100
AcDbEntity
  8
0
100
AcDbBlockEnd
  0
BLOCK
  5
45
100
AcDbEntity
  8
0
100
AcDbBlockBegin
  2
_EX_BCIR
 70
     0
 10
0.0
 20
0.0
 30
0.0
  3
_EX_BCIR
  1

  0
LINE
  5
46
100
AcDbEntity
  8
0
  6
CONTINUOUS
 62
     0
100
AcDbLine
 10
0.0
 20
0.0
 30
0.0
 11
-1.0
 21
0.0
 31
0.0
  0
CIRCLE
  5
47
100
AcDbEntity
  8
0
  6
CONTINUOUS
 62
     0
100
AcDbCircle
 10
0.0
 20
0.0
 30
0.0
 40
0.5
  0
CIRCLE
  5
48
100
AcDbEntity
  8
0
  6
CONTINUOUS
 62
     0
100
AcDbCircle
 10
0.0
 20
0.0
 30
0.0
 40
0.25
  0
ENDBLK
  5
49
100
AcDbEntity
  8
0
100
AcDbBlockEnd
  0
BLOCK
  5
4A
100
AcDbEntity
  8
0
100
AcDbBlockBegin
  2
_EX_RCIVIL
 70
     0
 10
0.0
 20
0.0
 30
0.0
  3
_EX_RCIVIL
  1

  0
LINE
  5
4B
100
AcDbEntity
  8
0
  6
CONTINUOUS
 62
     0
100
AcDbLine
 10
0.0
 20
0.0
 30
0.0
 11
-1.0
 21
0.0
 31
0.0
  0
LINE
  5
4C
100
AcDbEntity
  8
0
  6
CONTINUOUS
 62
     0
100
AcDbLine
 10
-1.0
 20
-0.25
 30
0.0
 11
0.0
 21
-0.25
 31
0.0
  0
LINE
  5
4D
100
AcDbEntity
  8
0
  6
CONTINUOUS
 62
     0
100
AcDbLine
 10
-1.0
 20
-0.125
 30
0.0
 11
0.0
 21
-0.125
 31
0.0
  0
ENDBLK
  5
4E
100
AcDbEntity
  8
0
100
AcDbBlockEnd
  0
BLOCK
  5
4F
100
AcDbEntity
  8
0
100
AcDbBlockBegin
  2
_EX_SLANT
 70
     0
 10
0.0
 20
0.0
 30
0.0
  3
_EX_SLANT
  1

  0
LINE
  5
50
100
AcDbEntity
  8
0
  6
CONTINUOUS
 62
     0
100
AcDbLine
 10
0.0
 20
0.0
 30
0.0
 11
-1.0
 21
0.0
 31
0.0
  0
LINE
  5
51
100
AcDbEntity
  8
0
  6
CONTINUOUS
 62
     0
100
AcDbLine
 10
0.707107
 20
0.707107
 30
0.0
 11
-0.707107
 21
-0.707107
 31
0.0
  0
ENDBLK
  5
52
100
AcDbEntity
  8
0
100
AcDbBlockEnd
  0
BLOCK
  5
53
100
AcDbEntity
  8
0
100
AcDbBlockBegin
  2
_EX_NONE
 70
     0
 10
0.0
 20
0.0
 30
0.0
  3
_EX_NONE
  1

  0
LINE
  5
54
100
AcDbEntity
  8
0
  6
CONTINUOUS
 62
     0
100
AcDbLine
 10
0.0
 20
0.0
 30
0.0
 11
-1.0
 21
0.0
 31
0.0
  0
ENDBLK
  5
55
100
AcDbEntity
  8
0
100
AcDbBlockEnd
  0
BLOCK
  5
56
100
AcDbEntity
  8
0
100
AcDbBlockBegin
  2
_EX_CIVIL
 70
     0
 10
0.0
 20
0.0
 30
0.0
  3
_EX_CIVIL
  1

  0
LINE
  5
57
100
AcDbEntity
  8
0
  6
CONTINUOUS
 62
     0
100
AcDbLine
 10
0.0
 20
0.0
 30
0.0
 11
-1.0
 21
0.0
 31
0.0
  0
LINE
  5
58
100
AcDbEntity
  8
0
  6
CONTINUOUS
 62
     0
100
AcDbLine
 10
-1.0
 20
0.25
 30
0.0
 11
0.0
 21
0.25
 31
0.0
  0
LINE
  5
59
100
AcDbEntity
  8
0
  6
CONTINUOUS
 62
     0
100
AcDbLine
 10
-1.0
 20
0.125
 30
0.0
 11
0.0
 21
0.125
 31
0.0
  0
ENDBLK
  5
5A
100
AcDbEntity
  8
0
100
AcDbBlockEnd
  0
BLOCK
  5
5B
100
AcDbEntity
  8
0
100
AcDbBlockBegin
  2
_EX_WCIR
 70
     0
 10
0.0
 20
0.0
 30
0.0
  3
_EX_WCIR
  1

  0
LINE
  5
5C
100
AcDbEntity
  8
0
  6
CONTINUOUS
 62
     0
100
AcDbLine
 10
0.0
 20
0.0
 30
0.0
 11
-1.0
 21
0.0
 31
0.0
  0
CIRCLE
  5
5D
100
AcDbEntity
  8
0
  6
CONTINUOUS
 62
     0
100
AcDbCircle
 10
0.0
 20
0.0
 30
0.0
 40
0.5
  0
ENDBLK
  5
5E
100
AcDbEntity
  8
0
100
AcDbBlockEnd
  0
BLOCK
  5
5F
100
AcDbEntity
  8
0
100
AcDbBlockBegin
  2
_EX_WCIR2
 70
     0
 10
0.0
 20
0.0
 30
0.0
  3
_EX_WCIR2
  1

  0
LINE
  5
60
100
AcDbEntity
  8
0
  6
CONTINUOUS
 62
     0
100
AcDbLine
 10
-0.5
 20
0.0
 30
0.0
 11
-1.0
 21
0.0
 31
0.0
  0
CIRCLE
  5
61
100
AcDbEntity
  8
0
  6
CONTINUOUS
 62
     0
100
AcDbCircle
 10
0.0
 20
0.0
 30
0.0
 40
0.5
  0
ENDBLK
  5
62
100
AcDbEntity
  8
0
100
AcDbBlockEnd
  0
BLOCK
  5
63
100
AcDbEntity
  8
0
100
AcDbBlockBegin
  2
_EX_WNORM
 70
     0
 10
0.0
 20
0.0
 30
0.0
  3
_EX_WNORM
  1

  0
LINE
  5
64
100
AcDbEntity
  8
0
  6
CONTINUOUS
 62
     0
100
AcDbLine
 10
-1.0
 20
0.0
 30
0.0
 11
-1.0
 21
0.0
 31
0.0
  0
LINE
  5
65
100
AcDbEntity
  8
0
  6
CONTINUOUS
 62
     0
100
AcDbLine
 10
0.0
 20
0.0
 30
0.0
 11
-1.0
 21
0.166667
 31
0.0
  0
LINE
  5
66
100
AcDbEntity
  8
0
  6
CONTINUOUS
 62
     0
100
AcDbLine
 10
0.0
 20
0.0
 30
0.0
 11
-1.0
 21
-0.166667
 31
0.0
  0
LINE
  5
67
100
AcDbEntity
  8
0
  6
CONTINUOUS
 62
     0
100
AcDbLine
 10
-1.0
 20
0.166667
 30
0.0
 11
-1.0
 21
-0.166667
 31
0.0
  0
ENDBLK
  5
68
100
AcDbEntity
  8
0
100
AcDbBlockEnd
  0
BLOCK
  5
69
100
AcDbEntity
  8
0
100
AcDbBlockBegin
  2
_EX_NNORM
 70
     0
 10
0.0
 20
0.0
 30
0.0
  3
_EX_NNORM
  1

  0
LINE
  5
6A
100
AcDbEntity
  8
0
  6
CONTINUOUS
 62
     0
100
AcDbLine
 10
0.0
 20
0.0
 30
0.0
 11
-1.0
 21
0.0
 31
0.0
  0
LINE
  5
6B
100
AcDbEntity
  8
0
  6
CONTINUOUS
 62
     0
100
AcDbLine
 10
0.0
 20
0.0
 30
0.0
 11
-1.0
 21
0.166667
 31
0.0
  0
LINE
  5
6C
100
AcDbEntity
  8
0
  6
CONTINUOUS
 62
     0
100
AcDbLine
 10
0.0
 20
0.0
 30
0.0
 11
-1.0
 21
-0.166667
 31
0.0
  0
LINE
  5
6D
100
AcDbEntity
  8
0
  6
CONTINUOUS
 62
     0
100
AcDbLine
 10
-1.0
 20
0.166667
 30
0.0
 11
-1.0
 21
-0.166667
 31
0.0
  0
ENDBLK
  5
6E
100
AcDbEntity
  8
0
100
AcDbBlockEnd
  0
BLOCK
  5
6F
100
AcDbEntity
  8
0
100
AcDbBlockBegin
  2
_EX_BBOX
 70
     0
 10
0.0
 20
0.0
 30
0.0
  3
_EX_BBOX
  1

  0
LINE
  5
70
100
AcDbEntity
  8
0
  6
CONTINUOUS
 62
     0
100
AcDbLine
 10
0.0
 20
0.0
 30
0.0
 11
-1.0
 21
0.0
 31
0.0
  0
LINE
  5
71
100
AcDbEntity
  8
0
  6
CONTINUOUS
 62
     0
100
AcDbLine
 10
-0.5
 20
0.5
 30
0.0
 11
0.5
 21
0.5
 31
0.0
  0
LINE
  5
72
100
AcDbEntity
  8
0
  6
CONTINUOUS
 62
     0
100
AcDbLine
 10
0.5
 20
0.5
 30
0.0
 11
0.5
 21
-0.5
 31
0.0
  0
LINE
  5
73
100
AcDbEntity
  8
0
  6
CONTINUOUS
 62
     0
100
AcDbLine
 10
0.5
 20
-0.5
 30
0.0
 11
-0.5
 21
-0.5
 31
0.0
  0
LINE
  5
74
100
AcDbEntity
  8
0
  6
CONTINUOUS
 62
     0
100
AcDbLine
 10
-0.5
 20
-0.5
 30
0.0
 11
-0.5
 21
0.5
 31
0.0
  0
LINE
  5
75
100
AcDbEntity
  8
0
  6
CONTINUOUS
 62
     0
100
AcDbLine
 10
-0.25
 20
0.25
 30
0.0
 11
0.25
 21
0.25
 31
0.0
  0
LINE
  5
76
100
AcDbEntity
  8
0
  6
CONTINUOUS
 62
     0
100
AcDbLine
 10
0.25
 20
0.25
 30
0.0
 11
0.25
 21
-0.25
 31
0.0
  0
LINE
  5
77
100
AcDbEntity
  8
0
  6
CONTINUOUS
 62
     0
100
AcDbLine
 10
0.25
 20
-0.25
 30
0.0
 11
-0.25
 21
-0.25
 31
0.0
  0
LINE
  5
78
100
AcDbEntity
  8
0
  6
CONTINUOUS
 62
     0
100
AcDbLine
 10
-0.25
 20
-0.25
 30
0.0
 11
-0.25
 21
0.25
 31
0.0
  0
ENDBLK
  5
79
100
AcDbEntity
  8
0
100
AcDbBlockEnd
  0
BLOCK
  5
7A
100
AcDbEntity
  8
0
100
AcDbBlockBegin
  2
_EX_WBOX
 70
     0
 10
0.0
 20
0.0
 30
0.0
  3
_EX_WBOX
  1

  0
LINE
  5
7B
100
AcDbEntity
  8
0
  6
CONTINUOUS
 62
     0
100
AcDbLine
 10
-0.5
 20
0.0
 30
0.0
 11
-1.0
 21
0.0
 31
0.0
  0
LINE
  5
7C
100
AcDbEntity
  8
0
  6
CONTINUOUS
 62
     0
100
AcDbLine
 10
-0.5
 20
0.5
 30
0.0
 11
0.5
 21
0.5
 31
0.0
  0
LINE
  5
7D
100
AcDbEntity
  8
0
  6
CONTINUOUS
 62
     0
100
AcDbLine
 10
0.5
 20
0.5
 30
0.0
 11
0.5
 21
-0.5
 31
0.0
  0
LINE
  5
7E
100
AcDbEntity
  8
0
  6
CONTINUOUS
 62
     0
100
AcDbLine
 10
0.5
 20
-0.5
 30
0.0
 11
-0.5
 21
-0.5
 31
0.0
  0
LINE
  5
7F
100
AcDbEntity
  8
0
  6
CONTINUOUS
 62
     0
100
AcDbLine
 10
-0.5
 20
-0.5
 30
0.0
 11
-0.5
 21
0.5
 31
0.0
  0
ENDBLK
  5
80
100
AcDbEntity
  8
0
100
AcDbBlockEnd
  0
BLOCK
  5
81
100
AcDbEntity
  8
0
100
AcDbBlockBegin
  2
_EX_INTEGRAL
 70
     0
 10
0.0
 20
0.0
 30
0.0
  3
_EX_INTEGRAL
  1

  0
LINE
  5
82
100
AcDbEntity
  8
0
  6
CONTINUOUS
 62
     0
100
AcDbLine
 10
0.0
 20
0.0
 30
0.0
 11
-1.0
 21
0.0
 31
0.0
  0
ARC
  5
83
100
AcDbEntity
  8
0
  6
CONTINUOUS
 62
     0
100
AcDbCircle
 10
0.542115
 20
0.164992
 30
0.0
 40
0.56667
100
AcDbArc
 50
73.07249
 51
196.927513
  0
ARC
  5
84
100
AcDbEntity
  8
0
  6
CONTINUOUS
 62
     0
100
AcDbCircle
 10
-0.542115
 20
-0.164992
 30
0.0
 40
0.56667
100
AcDbArc
 50
253.072487
 51
16.927513
  0
ENDBLK
  5
85
100
AcDbEntity
  8
0
100
AcDbBlockEnd
  0
BLOCK
  5
3D4
100
AcDbEntity
  8
0
100
AcDbBlockBegin
  2
*D14
 70
    65
 10
0.0
 20
0.0
 30
0.0
  3
*D14
  1

  0
LINE
  5
3D5
100
AcDbEntity
  8
寸法
  6
CONTINUOUS
 62
     3
100
AcDbLine
 10
620.0
 20
2778.0
 30
0.0
 11
620.0
 21
2929.5
 31
0.0
  0
LINE
  5
3D6
100
AcDbEntity
  8
寸法
  6
CONTINUOUS
 62
     3
100
AcDbLine
 10
1220.0
 20
2778.0
 30
0.0
 11
1220.0
 21
2929.5
 31
0.0
  0
TEXT
  5
3D7
100
AcDbEntity
  8
寸法
  6
CONTINUOUS
 62
     2
100
AcDbText
 10
857.0
 20
2919.75
 30
0.0
 40
60.0
  1
600
 41
0.84
  7
EXCADSTD
 72
     1
 11
920.0
 21
2919.75
 31
0.0
100
AcDbText
  0
LINE
  5
3D8
100
AcDbEntity
  8
寸法
  6
CONTINUOUS
 62
     3
100
AcDbLine
 10
620.0
 20
2914.5
 30
0.0
 11
1220.0
 21
2914.5
 31
0.0
  0
LINE
  5
3D9
100
AcDbEntity
  8
寸法
  6
CONTINUOUS
 62
     3
100
AcDbLine
 10
665.0
 20
2922.0
 30
0.0
 11
620.0
 21
2914.5
 31
0.0
  0
LINE
  5
3DA
100
AcDbEntity
  8
寸法
  6
CONTINUOUS
 62
     3
100
AcDbLine
 10
620.0
 20
2914.5
 30
0.0
 11
665.0
 21
2907.0
 31
0.0
  0
LINE
  5
3DB
100
AcDbEntity
  8
寸法
  6
CONTINUOUS
 62
     3
100
AcDbLine
 10
1175.0
 20
2907.0
 30
0.0
 11
1220.0
 21
2914.5
 31
0.0
  0
LINE
  5
3DC
100
AcDbEntity
  8
寸法
  6
CONTINUOUS
 62
     3
100
AcDbLine
 10
1220.0
 20
2914.5
 30
0.0
 11
1175.0
 21
2922.0
 31
0.0
  0
ENDBLK
  5
3DD
100
AcDbEntity
  8
0
100
AcDbBlockEnd
  0
BLOCK
  5
3E1
100
AcDbEntity
  8
0
100
AcDbBlockBegin
  2
*D15
 70
    65
 10
0.0
 20
0.0
 30
0.0
  3
*D15
  1

  0
LINE
  5
3E2
100
AcDbEntity
  8
寸法
  6
CONTINUOUS
 62
     3
100
AcDbLine
 10
1230.5
 20
2767.5
 30
0.0
 11
1348.5
 21
2767.5
 31
0.0
  0
LINE
  5
3E3
100
AcDbEntity
  8
寸法
  6
CONTINUOUS
 62
     3
100
AcDbLine
 10
1230.5
 20
2247.5
 30
0.0
 11
1348.5
 21
2247.5
 31
0.0
  0
TEXT
  5
3E4
100
AcDbEntity
  8
寸法
  6
CONTINUOUS
 62
     2
100
AcDbText
 10
1328.25
 20
2444.5
 30
0.0
 40
60.0
  1
520
 50
90.0
 41
0.84
  7
EXCADSTD
 72
     1
 11
1328.25
 21
2507.5
 31
0.0
100
AcDbText
  0
LINE
  5
3E5
100
AcDbEntity
  8
寸法
  6
CONTINUOUS
 62
     3
100
AcDbLine
 10
1333.5
 20
2767.5
 30
0.0
 11
1333.5
 21
2247.5
 31
0.0
  0
LINE
  5
3E6
100
AcDbEntity
  8
寸法
  6
CONTINUOUS
 62
     3
100
AcDbLine
 10
1341.0
 20
2722.5
 30
0.0
 11
1333.5
 21
2767.5
 31
0.0
  0
LINE
  5
3E7
100
AcDbEntity
  8
寸法
  6
CONTINUOUS
 62
     3
100
AcDbLine
 10
1333.5
 20
2767.5
 30
0.0
 11
1326.0
 21
2722.5
 31
0.0
  0
LINE
  5
3E8
100
AcDbEntity
  8
寸法
  6
CONTINUOUS
 62
     3
100
AcDbLine
 10
1326.0
 20
2292.5
 30
0.0
 11
1333.5
 21
2247.5
 31
0.0
  0
LINE
  5
3E9
100
AcDbEntity
  8
寸法
  6
CONTINUOUS
 62
     3
100
AcDbLine
 10
1333.5
 20
2247.5
 30
0.0
 11
1341.0
 21
2292.5
 31
0.0
  0
ENDBLK
  5
3EA
100
AcDbEntity
  8
0
100
AcDbBlockEnd
  0
BLOCK
  5
3ED
100
AcDbEntity
  8
0
100
AcDbBlockBegin
  2
*D16
 70
    65
 10
0.0
 20
0.0
 30
0.0
  3
*D16
  1

  0
LINE
  5
3EE
100
AcDbEntity
  8
寸法
  6
CONTINUOUS
 62
     3
100
AcDbLine
 10
1230.5
 20
2767.5
 30
0.0
 11
1595.0
 21
2767.5
 31
0.0
  0
TEXT
  5
3EF
100
AcDbEntity
  8
寸法
  6
CONTINUOUS
 62
     2
100
AcDbText
 10
1574.75
 20
1772.8
 30
0.0
 40
60.0
  1
（1750）
 50
90.0
 41
0.84
  7
EXCADSTD
 72
     1
 11
1574.75
 21
1892.5
 31
0.0
100
AcDbText
  0
LINE
  5
3F0
100
AcDbEntity
  8
寸法
  6
CONTINUOUS
 62
     3
100
AcDbLine
 10
1580.0
 20
1017.5
 30
0.0
 11
1580.0
 21
2767.5
 31
0.0
  0
LINE
  5
3F1
100
AcDbEntity
  8
寸法
  6
CONTINUOUS
 62
     3
100
AcDbLine
 10
1572.5
 20
1062.5
 30
0.0
 11
1580.0
 21
1017.5
 31
0.0
  0
LINE
  5
3F2
100
AcDbEntity
  8
寸法
  6
CONTINUOUS
 62
     3
100
AcDbLine
 10
1580.0
 20
1017.5
 30
0.0
 11
1587.5
 21
1062.5
 31
0.0
  0
LINE
  5
3F3
100
AcDbEntity
  8
寸法
  6
CONTINUOUS
 62
     3
100
AcDbLine
 10
1587.5
 20
2722.5
 30
0.0
 11
1580.0
 21
2767.5
 31
0.0
  0
LINE
  5
3F4
100
AcDbEntity
  8
寸法
  6
CONTINUOUS
 62
     3
100
AcDbLine
 10
1580.0
 20
2767.5
 30
0.0
 11
1572.5
 21
2722.5
 31
0.0
  0
ENDBLK
  5
3F5
100
AcDbEntity
  8
0
100
AcDbBlockEnd
  0
BLOCK
  5
401
100
AcDbEntity
  8
0
100
AcDbBlockBegin
  2
*D17
 70
    65
 10
0.0
 20
0.0
 30
0.0
  3
*D17
  1

  0
LINE
  5
402
100
AcDbEntity
  8
寸法
  6
CONTINUOUS
 62
     3
100
AcDbLine
 10
2448.0
 20
2767.5
 30
0.0
 11
2585.0
 21
2767.5
 31
0.0
  0
LINE
  5
403
100
AcDbEntity
  8
寸法
  6
CONTINUOUS
 62
     3
100
AcDbLine
 10
2493.0
 20
2707.480762
 30
0.0
 11
2585.0
 21
2707.480762
 31
0.0
  0
TEXT
  5
404
100
AcDbEntity
  8
寸法
  6
CONTINUOUS
 62
     2
100
AcDbText
 10
2564.75
 20
2820.9
 30
0.0
 40
60.0
  1
60
 50
90.0
 41
0.84
  7
EXCADSTD
 72
     1
 11
2564.75
 21
2865.0
 31
0.0
100
AcDbText
  0
LINE
  5
405
100
AcDbEntity
  8
寸法
  6
CONTINUOUS
 62
     3
100
AcDbLine
 10
2570.0
 20
2922.750006
 30
0.0
 11
2570.0
 21
2662.480762
 31
0.0
  0
LINE
  5
406
100
AcDbEntity
  8
寸法
  6
CONTINUOUS
 62
     3
100
AcDbLine
 10
2562.5
 20
2812.5
 30
0.0
 11
2570.0
 21
2767.5
 31
0.0
  0
LINE
  5
407
100
AcDbEntity
  8
寸法
  6
CONTINUOUS
 62
     3
100
AcDbLine
 10
2570.0
 20
2767.5
 30
0.0
 11
2577.5
 21
2812.5
 31
0.0
  0
LINE
  5
408
100
AcDbEntity
  8
寸法
  6
CONTINUOUS
 62
     3
100
AcDbLine
 10
2577.5
 20
2662.480762
 30
0.0
 11
2570.0
 21
2707.480762
 31
0.0
  0
LINE
  5
409
100
AcDbEntity
  8
寸法
  6
CONTINUOUS
 62
     3
100
AcDbLine
 10
2570.0
 20
2707.480762
 30
0.0
 11
2562.5
 21
2662.480762
 31
0.0
  0
ENDBLK
  5
40A
100
AcDbEntity
  8
0
100
AcDbBlockEnd
  0
BLOCK
  5
40D
100
AcDbEntity
  8
0
100
AcDbBlockBegin
  2
*D18
 70
    65
 10
0.0
 20
0.0
 30
0.0
  3
*D18
  1

  0
LINE
  5
40E
100
AcDbEntity
  8
寸法
  6
CONTINUOUS
 62
     3
100
AcDbLine
 10
2412.8
 20
2779.2
 30
0.0
 11
2412.8
 21
2842.5
 31
0.0
  0
TEXT
  5
40F
100
AcDbEntity
  8
寸法
  6
CONTINUOUS
 62
     2
100
AcDbText
 10
2271.2
 20
2832.75
 30
0.0
 40
60.0
  1
38
 41
0.84
  7
EXCADSTD
 72
     1
 11
2315.3
 21
2832.75
 31
0.0
100
AcDbText
  0
LINE
  5
410
100
AcDbEntity
  8
寸法
  6
CONTINUOUS
 62
     3
100
AcDbLine
 10
2257.549994
 20
2827.5
 30
0.0
 11
2495.0
 21
2827.5
 31
0.0
  0
LINE
  5
411
100
AcDbEntity
  8
寸法
  6
CONTINUOUS
 62
     3
100
AcDbLine
 10
2367.8
 20
2820.0
 30
0.0
 11
2412.8
 21
2827.5
 31
0.0
  0
LINE
  5
412
100
AcDbEntity
  8
寸法
  6
CONTINUOUS
 62
     3
100
AcDbLine
 10
2412.8
 20
2827.5
 30
0.0
 11
2367.8
 21
2835.0
 31
0.0
  0
LINE
  5
413
100
AcDbEntity
  8
寸法
  6
CONTINUOUS
 62
     3
100
AcDbLine
 10
2495.0
 20
2835.0
 30
0.0
 11
2450.0
 21
2827.5
 31
0.0
  0
LINE
  5
414
100
AcDbEntity
  8
寸法
  6
CONTINUOUS
 62
     3
100
AcDbLine
 10
2450.0
 20
2827.5
 30
0.0
 11
2495.0
 21
2820.0
 31
0.0
  0
ENDBLK
  5
415
100
AcDbEntity
  8
0
100
AcDbBlockEnd
  0
BLOCK
  5
418
100
AcDbEntity
  8
0
100
AcDbBlockBegin
  2
*D19
 70
    65
 10
0.0
 20
0.0
 30
0.0
  3
*D19
  1

  0
LINE
  5
419
100
AcDbEntity
  8
寸法
  6
CONTINUOUS
 62
     3
100
AcDbLine
 10
2460.5
 20
1017.5
 30
0.0
 11
2930.0
 21
1017.5
 31
0.0
  0
LINE
  5
41A
100
AcDbEntity
  8
寸法
  6
CONTINUOUS
 62
     3
100
AcDbLine
 10
2493.0
 20
2267.5
 30
0.0
 11
2930.0
 21
2267.5
 31
0.0
  0
TEXT
  5
41B
100
AcDbEntity
  8
寸法
  6
CONTINUOUS
 62
     2
100
AcDbText
 10
2909.75
 20
1522.8
 30
0.0
 40
60.0
  1
（1250）
 50
90.0
 41
0.84
  7
EXCADSTD
 72
     1
 11
2909.75
 21
1642.5
 31
0.0
100
AcDbText
  0
LINE
  5
41C
100
AcDbEntity
  8
寸法
  6
CONTINUOUS
 62
     3
100
AcDbLine
 10
2915.0
 20
1017.5
 30
0.0
 11
2915.0
 21
2267.5
 31
0.0
  0
LINE
  5
41D
100
AcDbEntity
  8
寸法
  6
CONTINUOUS
 62
     3
100
AcDbLine
 10
2907.5
 20
1062.5
 30
0.0
 11
2915.0
 21
1017.5
 31
0.0
  0
LINE
  5
41E
100
AcDbEntity
  8
寸法
  6
CONTINUOUS
 62
     3
100
AcDbLine
 10
2915.0
 20
1017.5
 30
0.0
 11
2922.5
 21
1062.5
 31
0.0
  0
LINE
  5
41F
100
AcDbEntity
  8
寸法
  6
CONTINUOUS
 62
     3
100
AcDbLine
 10
2922.5
 20
2222.5
 30
0.0
 11
2915.0
 21
2267.5
 31
0.0
  0
LINE
  5
420
100
AcDbEntity
  8
寸法
  6
CONTINUOUS
 62
     3
100
AcDbLine
 10
2915.0
 20
2267.5
 30
0.0
 11
2907.5
 21
2222.5
 31
0.0
  0
ENDBLK
  5
421
100
AcDbEntity
  8
0
100
AcDbBlockEnd
  0
BLOCK
  5
45A
100
AcDbEntity
  8
0
100
AcDbBlockBegin
  2
*D20
 70
    65
 10
0.0
 20
0.0
 30
0.0
  3
*D20
  1

  0
LINE
  5
45B
100
AcDbEntity
  8
寸法
  6
CONTINUOUS
 62
     3
100
AcDbLine
 10
695.0
 20
3664.0
 30
0.0
 11
695.0
 21
3309.5
 31
0.0
  0
LINE
  5
45C
100
AcDbEntity
  8
寸法
  6
CONTINUOUS
 62
     3
100
AcDbLine
 10
1145.0
 20
3664.0
 30
0.0
 11
1145.0
 21
3309.5
 31
0.0
  0
TEXT
  5
45D
100
AcDbEntity
  8
寸法
  6
CONTINUOUS
 62
     2
100
AcDbText
 10
838.1
 20
3329.75
 30
0.0
 40
60.0
  1
%%c450
 41
0.84
  7
EXCADSTD
 72
     1
 11
920.0
 21
3329.75
 31
0.0
100
AcDbText
  0
LINE
  5
45E
100
AcDbEntity
  8
寸法
  6
CONTINUOUS
 62
     3
100
AcDbLine
 10
695.0
 20
3324.5
 30
0.0
 11
1145.0
 21
3324.5
 31
0.0
  0
LINE
  5
45F
100
AcDbEntity
  8
寸法
  6
CONTINUOUS
 62
     3
100
AcDbLine
 10
740.0
 20
3332.0
 30
0.0
 11
695.0
 21
3324.5
 31
0.0
  0
LINE
  5
460
100
AcDbEntity
  8
寸法
  6
CONTINUOUS
 62
     3
100
AcDbLine
 10
695.0
 20
3324.5
 30
0.0
 11
740.0
 21
3317.0
 31
0.0
  0
LINE
  5
461
100
AcDbEntity
  8
寸法
  6
CONTINUOUS
 62
     3
100
AcDbLine
 10
1100.0
 20
3317.0
 30
0.0
 11
1145.0
 21
3324.5
 31
0.0
  0
LINE
  5
462
100
AcDbEntity
  8
寸法
  6
CONTINUOUS
 62
     3
100
AcDbLine
 10
1145.0
 20
3324.5
 30
0.0
 11
1100.0
 21
3332.0
 31
0.0
  0
ENDBLK
  5
463
100
AcDbEntity
  8
0
100
AcDbBlockEnd
  0
BLOCK
  5
466
100
AcDbEntity
  8
0
100
AcDbBlockBegin
  2
*D21
 70
    65
 10
0.0
 20
0.0
 30
0.0
  3
*D21
  1

  0
LINE
  5
467
100
AcDbEntity
  8
寸法
  6
CONTINUOUS
 62
     3
100
AcDbLine
 10
545.0
 20
3469.0
 30
0.0
 11
545.0
 21
3219.5
 31
0.0
  0
LINE
  5
468
100
AcDbEntity
  8
寸法
  6
CONTINUOUS
 62
     3
100
AcDbLine
 10
1295.0
 20
3469.0
 30
0.0
 11
1295.0
 21
3219.5
 31
0.0
  0
TEXT
  5
469
100
AcDbEntity
  8
寸法
  6
CONTINUOUS
 62
     2
100
AcDbText
 10
857.0
 20
3239.75
 30
0.0
 40
60.0
  1
750
 41
0.84
  7
EXCADSTD
 72
     1
 11
920.0
 21
3239.75
 31
0.0
100
AcDbText
  0
LINE
  5
46A
100
AcDbEntity
  8
寸法
  6
CONTINUOUS
 62
     3
100
AcDbLine
 10
545.0
 20
3234.5
 30
0.0
 11
1295.0
 21
3234.5
 31
0.0
  0
LINE
  5
46B
100
AcDbEntity
  8
寸法
  6
CONTINUOUS
 62
     3
100
AcDbLine
 10
590.0
 20
3242.0
 30
0.0
 11
545.0
 21
3234.5
 31
0.0
  0
LINE
  5
46C
100
AcDbEntity
  8
寸法
  6
CONTINUOUS
 62
     3
100
AcDbLine
 10
545.0
 20
3234.5
 30
0.0
 11
590.0
 21
3227.0
 31
0.0
  0
LINE
  5
46D
100
AcDbEntity
  8
寸法
  6
CONTINUOUS
 62
     3
100
AcDbLine
 10
1250.0
 20
3227.0
 30
0.0
 11
1295.0
 21
3234.5
 31
0.0
  0
LINE
  5
46E
100
AcDbEntity
  8
寸法
  6
CONTINUOUS
 62
     3
100
AcDbLine
 10
1295.0
 20
3234.5
 30
0.0
 11
1250.0
 21
3242.0
 31
0.0
  0
ENDBLK
  5
46F
100
AcDbEntity
  8
0
100
AcDbBlockEnd
  0
BLOCK
  5
472
100
AcDbEntity
  8
0
100
AcDbBlockBegin
  2
*D22
 70
    65
 10
0.0
 20
0.0
 30
0.0
  3
*D22
  1

  0
LINE
  5
473
100
AcDbEntity
  8
寸法
  6
CONTINUOUS
 62
     3
100
AcDbLine
 10
1305.5
 20
3479.5
 30
0.0
 11
1415.0
 21
3479.5
 31
0.0
  0
TEXT
  5
474
100
AcDbEntity
  8
寸法
  6
CONTINUOUS
 62
     2
100
AcDbText
 10
1394.75
 20
3641.5
 30
0.0
 40
60.0
  1
450
 50
90.0
 41
0.84
  7
EXCADSTD
 72
     1
 11
1394.75
 21
3704.5
 31
0.0
100
AcDbText
  0
LINE
  5
475
100
AcDbEntity
  8
寸法
  6
CONTINUOUS
 62
     3
100
AcDbLine
 10
1400.0
 20
3479.5
 30
0.0
 11
1400.0
 21
3929.5
 31
0.0
  0
LINE
  5
476
100
AcDbEntity
  8
寸法
  6
CONTINUOUS
 62
     3
100
AcDbLine
 10
1392.5
 20
3524.5
 30
0.0
 11
1400.0
 21
3479.5
 31
0.0
  0
LINE
  5
477
100
AcDbEntity
  8
寸法
  6
CONTINUOUS
 62
     3
100
AcDbLine
 10
1400.0
 20
3479.5
 30
0.0
 11
1407.5
 21
3524.5
 31
0.0
  0
LINE
  5
478
100
AcDbEntity
  8
寸法
  6
CONTINUOUS
 62
     3
100
AcDbLine
 10
1407.5
 20
3884.5
 30
0.0
 11
1400.0
 21
3929.5
 31
0.0
  0
LINE
  5
479
100
AcDbEntity
  8
寸法
  6
CONTINUOUS
 62
     3
100
AcDbLine
 10
1400.0
 20
3929.5
 30
0.0
 11
1392.5
 21
3884.5
 31
0.0
  0
ENDBLK
  5
47A
100
AcDbEntity
  8
0
100
AcDbBlockEnd
  0
BLOCK
  5
47D
100
AcDbEntity
  8
0
100
AcDbBlockBegin
  2
*D23
 70
    65
 10
0.0
 20
0.0
 30
0.0
  3
*D23
  1

  0
LINE
  5
47E
100
AcDbEntity
  8
寸法
  6
CONTINUOUS
 62
     3
100
AcDbLine
 10
930.5
 20
3449.5
 30
0.0
 11
1505.0
 21
3449.5
 31
0.0
  0
TEXT
  5
47F
100
AcDbEntity
  8
寸法
  6
CONTINUOUS
 62
     2
100
AcDbText
 10
1484.75
 20
3626.5
 30
0.0
 40
60.0
  1
480
 50
90.0
 41
0.84
  7
EXCADSTD
 72
     1
 11
1484.75
 21
3689.5
 31
0.0
100
AcDbText
  0
LINE
  5
480
100
AcDbEntity
  8
寸法
  6
CONTINUOUS
 62
     3
100
AcDbLine
 10
1490.0
 20
3449.5
 30
0.0
 11
1490.0
 21
3929.5
 31
0.0
  0
LINE
  5
481
100
AcDbEntity
  8
寸法
  6
CONTINUOUS
 62
     3
100
AcDbLine
 10
1482.5
 20
3494.5
 30
0.0
 11
1490.0
 21
3449.5
 31
0.0
  0
LINE
  5
482
100
AcDbEntity
  8
寸法
  6
CONTINUOUS
 62
     3
100
AcDbLine
 10
1490.0
 20
3449.5
 30
0.0
 11
1497.5
 21
3494.5
 31
0.0
  0
LINE
  5
483
100
AcDbEntity
  8
寸法
  6
CONTINUOUS
 62
     3
100
AcDbLine
 10
1497.5
 20
3884.5
 30
0.0
 11
1490.0
 21
3929.5
 31
0.0
  0
LINE
  5
484
100
AcDbEntity
  8
寸法
  6
CONTINUOUS
 62
     3
100
AcDbLine
 10
1490.0
 20
3929.5
 30
0.0
 11
1482.5
 21
3884.5
 31
0.0
  0
ENDBLK
  5
485
100
AcDbEntity
  8
0
100
AcDbBlockEnd
  0
BLOCK
  5
491
100
AcDbEntity
  8
0
100
AcDbBlockBegin
  2
*D24
 70
    65
 10
0.0
 20
0.0
 30
0.0
  3
*D24
  1

  0
LINE
  5
492
100
AcDbEntity
  8
寸法
  6
CONTINUOUS
 62
     3
100
AcDbLine
 10
1305.5
 20
1717.5
 30
0.0
 11
1415.0
 21
1717.5
 31
0.0
  0
TEXT
  5
493
100
AcDbEntity
  8
寸法
  6
CONTINUOUS
 62
     2
100
AcDbText
 10
1394.75
 20
1304.5
 30
0.0
 40
60.0
  1
700
 50
90.0
 41
0.84
  7
EXCADSTD
 72
     1
 11
1394.75
 21
1367.5
 31
0.0
100
AcDbText
  0
LINE
  5
494
100
AcDbEntity
  8
寸法
  6
CONTINUOUS
 62
     3
100
AcDbLine
 10
1400.0
 20
1017.5
 30
0.0
 11
1400.0
 21
1717.5
 31
0.0
  0
LINE
  5
495
100
AcDbEntity
  8
寸法
  6
CONTINUOUS
 62
     3
100
AcDbLine
 10
1392.5
 20
1062.5
 30
0.0
 11
1400.0
 21
1017.5
 31
0.0
  0
LINE
  5
496
100
AcDbEntity
  8
寸法
  6
CONTINUOUS
 62
     3
100
AcDbLine
 10
1400.0
 20
1017.5
 30
0.0
 11
1407.5
 21
1062.5
 31
0.0
  0
LINE
  5
497
100
AcDbEntity
  8
寸法
  6
CONTINUOUS
 62
     3
100
AcDbLine
 10
1407.5
 20
1672.5
 30
0.0
 11
1400.0
 21
1717.5
 31
0.0
  0
LINE
  5
498
100
AcDbEntity
  8
寸法
  6
CONTINUOUS
 62
     3
100
AcDbLine
 10
1400.0
 20
1717.5
 30
0.0
 11
1392.5
 21
1672.5
 31
0.0
  0
ENDBLK
  5
499
100
AcDbEntity
  8
0
100
AcDbBlockEnd
  0
BLOCK
  5
49C
100
AcDbEntity
  8
0
100
AcDbBlockBegin
  2
*D25
 70
    65
 10
0.0
 20
0.0
 30
0.0
  3
*D25
  1

  0
LINE
  5
49D
100
AcDbEntity
  8
寸法
  6
CONTINUOUS
 62
     3
100
AcDbLine
 10
1305.5
 20
1717.5
 30
0.0
 11
1415.0
 21
1717.5
 31
0.0
  0
LINE
  5
49E
100
AcDbEntity
  8
寸法
  6
CONTINUOUS
 62
     3
100
AcDbLine
 10
930.5
 20
1887.5
 30
0.0
 11
1415.0
 21
1887.5
 31
0.0
  0
TEXT
  5
49F
100
AcDbEntity
  8
寸法
  6
CONTINUOUS
 62
     2
100
AcDbText
 10
1394.75
 20
1739.5
 30
0.0
 40
60.0
  1
170
 50
90.0
 41
0.84
  7
EXCADSTD
 72
     1
 11
1394.75
 21
1802.5
 31
0.0
100
AcDbText
  0
LINE
  5
4A0
100
AcDbEntity
  8
寸法
  6
CONTINUOUS
 62
     3
100
AcDbLine
 10
1400.0
 20
1717.5
 30
0.0
 11
1400.0
 21
1887.5
 31
0.0
  0
LINE
  5
4A1
100
AcDbEntity
  8
寸法
  6
CONTINUOUS
 62
     3
100
AcDbLine
 10
1392.5
 20
1762.5
 30
0.0
 11
1400.0
 21
1717.5
 31
0.0
  0
LINE
  5
4A2
100
AcDbEntity
  8
寸法
  6
CONTINUOUS
 62
     3
100
AcDbLine
 10
1400.0
 20
1717.5
 30
0.0
 11
1407.5
 21
1762.5
 31
0.0
  0
LINE
  5
4A3
100
AcDbEntity
  8
寸法
  6
CONTINUOUS
 62
     3
100
AcDbLine
 10
1407.5
 20
1842.5
 30
0.0
 11
1400.0
 21
1887.5
 31
0.0
  0
LINE
  5
4A4
100
AcDbEntity
  8
寸法
  6
CONTINUOUS
 62
     3
100
AcDbLine
 10
1400.0
 20
1887.5
 30
0.0
 11
1392.5
 21
1842.5
 31
0.0
  0
ENDBLK
  5
4A5
100
AcDbEntity
  8
0
100
AcDbBlockEnd
  0
BLOCK
  5
4A8
100
AcDbEntity
  8
0
100
AcDbBlockBegin
  2
*D26
 70
    65
 10
0.0
 20
0.0
 30
0.0
  3
*D26
  1

  0
LINE
  5
4A9
100
AcDbEntity
  8
寸法
  6
CONTINUOUS
 62
     3
100
AcDbLine
 10
1303.5
 20
1017.5
 30
0.0
 11
1505.0
 21
1017.5
 31
0.0
  0
LINE
  5
4AA
100
AcDbEntity
  8
寸法
  6
CONTINUOUS
 62
     3
100
AcDbLine
 10
941.0
 20
1887.5
 30
0.0
 11
1505.0
 21
1887.5
 31
0.0
  0
TEXT
  5
4AB
100
AcDbEntity
  8
寸法
  6
CONTINUOUS
 62
     2
100
AcDbText
 10
1484.75
 20
1389.5
 30
0.0
 40
60.0
  1
870
 50
90.0
 41
0.84
  7
EXCADSTD
 72
     1
 11
1484.75
 21
1452.5
 31
0.0
100
AcDbText
  0
LINE
  5
4AC
100
AcDbEntity
  8
寸法
  6
CONTINUOUS
 62
     3
100
AcDbLine
 10
1490.0
 20
1017.5
 30
0.0
 11
1490.0
 21
1887.5
 31
0.0
  0
LINE
  5
4AD
100
AcDbEntity
  8
寸法
  6
CONTINUOUS
 62
     3
100
AcDbLine
 10
1482.5
 20
1062.5
 30
0.0
 11
1490.0
 21
1017.5
 31
0.0
  0
LINE
  5
4AE
100
AcDbEntity
  8
寸法
  6
CONTINUOUS
 62
     3
100
AcDbLine
 10
1490.0
 20
1017.5
 30
0.0
 11
1497.5
 21
1062.5
 31
0.0
  0
LINE
  5
4AF
100
AcDbEntity
  8
寸法
  6
CONTINUOUS
 62
     3
100
AcDbLine
 10
1497.5
 20
1842.5
 30
0.0
 11
1490.0
 21
1887.5
 31
0.0
  0
LINE
  5
4B0
100
AcDbEntity
  8
寸法
  6
CONTINUOUS
 62
     3
100
AcDbLine
 10
1490.0
 20
1887.5
 30
0.0
 11
1482.5
 21
1842.5
 31
0.0
  0
ENDBLK
  5
4B1
100
AcDbEntity
  8
0
100
AcDbBlockEnd
  0
BLOCK
  5
4B6
100
AcDbEntity
  8
0
100
AcDbBlockBegin
  2
*D27
 70
    65
 10
0.0
 20
0.0
 30
0.0
  3
*D27
  1

  0
LINE
  5
4B7
100
AcDbEntity
  8
寸法
  6
CONTINUOUS
 62
     3
100
AcDbLine
 10
2465.5
 20
1457.5
 30
0.0
 11
2570.0
 21
1457.5
 31
0.0
  0
TEXT
  5
4B8
100
AcDbEntity
  8
寸法
  6
CONTINUOUS
 62
     2
100
AcDbText
 10
2549.75
 20
1080.0
 30
0.0
 40
60.0
  1
440（壁給水）
 50
90.0
 41
0.84
  7
EXCADSTD
 72
     1
 11
2549.75
 21
1237.5
 31
0.0
100
AcDbText
  0
LINE
  5
4B9
100
AcDbEntity
  8
寸法
  6
CONTINUOUS
 62
     3
100
AcDbLine
 10
2555.0
 20
1457.5
 30
0.0
 11
2555.0
 21
1017.5
 31
0.0
  0
LINE
  5
4BA
100
AcDbEntity
  8
寸法
  6
CONTINUOUS
 62
     3
100
AcDbLine
 10
2562.5
 20
1412.5
 30
0.0
 11
2555.0
 21
1457.5
 31
0.0
  0
LINE
  5
4BB
100
AcDbEntity
  8
寸法
  6
CONTINUOUS
 62
     3
100
AcDbLine
 10
2555.0
 20
1457.5
 30
0.0
 11
2547.5
 21
1412.5
 31
0.0
  0
LINE
  5
4BC
100
AcDbEntity
  8
寸法
  6
CONTINUOUS
 62
     3
100
AcDbLine
 10
2547.5
 20
1062.5
 30
0.0
 11
2555.0
 21
1017.5
 31
0.0
  0
LINE
  5
4BD
100
AcDbEntity
  8
寸法
  6
CONTINUOUS
 62
     3
100
AcDbLine
 10
2555.0
 20
1017.5
 30
0.0
 11
2562.5
 21
1062.5
 31
0.0
  0
ENDBLK
  5
4BE
100
AcDbEntity
  8
0
100
AcDbBlockEnd
  0
ENDSEC
  0
SECTION
  2
ENTITIES
  0
LINE
  5
86
100
AcDbEntity
  8
枠・表
  6
CONTINUOUS
 62
     7
100
AcDbLine
 10
18.0
 20
12.5
 30
0.0
 11
200.0
 21
12.5
 31
0.0
  0
LINE
  5
87
100
AcDbEntity
  8
枠・表
  6
CONTINUOUS
 62
     7
100
AcDbLine
 10
200.0
 20
12.5
 30
0.0
 11
200.0
 21
287.5
 31
0.0
  0
LINE
  5
88
100
AcDbEntity
  8
枠・表
  6
CONTINUOUS
 62
     7
100
AcDbLine
 10
18.0
 20
12.5
 30
0.0
 11
18.0
 21
287.5
 31
0.0
  0
LINE
  5
89
100
AcDbEntity
  8
枠・表
  6
CONTINUOUS
 62
     7
100
AcDbLine
 10
18.0
 20
287.5
 30
0.0
 11
200.0
 21
287.5
 31
0.0
  0
LINE
  5
8A
100
AcDbEntity
  8
枠・表
  6
CONTINUOUS
 62
     7
100
AcDbLine
 10
18.0
 20
34.5
 30
0.0
 11
200.0
 21
34.5
 31
0.0
  0
LINE
  5
8B
100
AcDbEntity
  8
枠・表
  6
CONTINUOUS
 62
     6
100
AcDbLine
 10
200.0
 20
22.5
 30
0.0
 11
75.0
 21
22.5
 31
0.0
  0
LINE
  5
8C
100
AcDbEntity
  8
枠・表
  6
CONTINUOUS
 62
     6
100
AcDbLine
 10
186.0
 20
34.5
 30
0.0
 11
186.0
 21
22.5
 31
0.0
  0
LINE
  5
8D
100
AcDbEntity
  8
枠・表
  6
CONTINUOUS
 62
     6
100
AcDbLine
 10
181.0
 20
34.5
 30
0.0
 11
181.0
 21
22.5
 31
0.0
  0
LINE
  5
8E
100
AcDbEntity
  8
枠・表
  6
CONTINUOUS
 62
     6
100
AcDbLine
 10
144.0
 20
34.5
 30
0.0
 11
144.0
 21
12.5
 31
0.0
  0
LINE
  5
8F
100
AcDbEntity
  8
枠・表
  6
CONTINUOUS
 62
     6
100
AcDbLine
 10
139.0
 20
34.5
 30
0.0
 11
139.0
 21
12.5
 31
0.0
  0
LINE
  5
90
100
AcDbEntity
  8
枠・表
  6
CONTINUOUS
 62
     6
100
AcDbLine
 10
80.0
 20
34.5
 30
0.0
 11
80.0
 21
22.5
 31
0.0
  0
LINE
  5
91
100
AcDbEntity
  8
枠・表
  6
CONTINUOUS
 62
     6
100
AcDbLine
 10
75.0
 20
34.5
 30
0.0
 11
75.0
 21
12.5
 31
0.0
  0
LINE
  5
92
100
AcDbEntity
  8
枠・表
  6
CONTINUOUS
 62
     6
100
AcDbLine
 10
62.0
 20
34.5
 30
0.0
 11
62.0
 21
12.5
 31
0.0
  0
LINE
  5
93
100
AcDbEntity
  8
枠・表
  6
CONTINUOUS
 62
     6
100
AcDbLine
 10
49.0
 20
34.5
 30
0.0
 11
49.0
 21
12.5
 31
0.0
  0
LINE
  5
94
100
AcDbEntity
  8
枠・表
  6
CONTINUOUS
 62
     6
100
AcDbLine
 10
33.5
 20
34.5
 30
0.0
 11
33.5
 21
12.5
 31
0.0
  0
LINE
  5
95
100
AcDbEntity
  8
枠・表
  6
CONTINUOUS
 62
     6
100
AcDbLine
 10
18.0
 20
29.5
 30
0.0
 11
75.0
 21
29.5
 31
0.0
  0
LINE
  5
96
100
AcDbEntity
  8
枠・表
  6
CONTINUOUS
 62
     6
100
AcDbLine
 10
189.265381
 20
24.800293
 30
0.0
 11
196.99939
 21
32.669983
 31
0.0
  0
CIRCLE
  5
97
100
AcDbEntity
  8
枠・表
  6
CONTINUOUS
 62
     6
100
AcDbCircle
 10
23.0
 20
15.0
 30
0.0
 40
0.1
  0
CIRCLE
  5
98
100
AcDbEntity
  8
枠・表
  6
CONTINUOUS
 62
     6
100
AcDbCircle
 10
28.0
 20
15.0
 30
0.0
 40
0.1
  0
CIRCLE
  5
99
100
AcDbEntity
  8
枠・表
  6
CONTINUOUS
 62
     6
100
AcDbCircle
 10
38.5
 20
15.0
 30
0.0
 40
0.1
  0
CIRCLE
  5
9A
100
AcDbEntity
  8
枠・表
  6
CONTINUOUS
 62
     6
100
AcDbCircle
 10
43.5
 20
15.0
 30
0.0
 40
0.1
  0
LINE
  5
9B
100
AcDbEntity
  8
枠・表
  6
EXLTYPE2
 62
     6
100
AcDbLine
 10
18.0
 20
17.5
 30
0.0
 11
49.0
 21
17.5
 31
0.0
  0
TEXT
  5
9C
100
AcDbEntity
  8
枠・表
  6
CONTINUOUS
 62
     2
100
AcDbText
 10
189.053711
 20
29.272278
 30
0.0
 40
3.0
  1
１
 41
0.826
  7
EXCADSTD
 72
     5
 11
191.413711
 21
29.272278
 31
0.0
100
AcDbText
  0
TEXT
  5
9D
100
AcDbEntity
  8
枠・表
  6
CONTINUOUS
 62
     2
100
AcDbText
 10
193.12793
 20
24.834885
 30
0.0
 40
3.0
  1
１５
 41
0.791
  7
EXCADSTD
 72
     5
 11
198.30672
 21
24.834885
 31
0.0
100
AcDbText
  0
TEXT
  5
9E
100
AcDbEntity
  8
枠・表
  6
CONTINUOUS
 62
     2
100
AcDbText
 10
20.25
 20
29.875
 30
0.0
 40
4.25
  1
製図
 41
1.087059
  7
EXCADSTD
 72
     5
 11
30.3326
 21
29.875
 31
0.0
100
AcDbText
  0
TEXT
  5
9F
100
AcDbEntity
  8
枠・表
  6
CONTINUOUS
 62
     2
100
AcDbText
 10
35.75
 20
29.875
 30
0.0
 40
4.25
  1
写図
 41
1.087059
  7
EXCADSTD
 72
     5
 11
45.8326
 21
29.875
 31
0.0
100
AcDbText
  0
TEXT
  5
A0
100
AcDbEntity
  8
枠・表
  6
CONTINUOUS
 62
     2
100
AcDbText
 10
50.75
 20
29.875
 30
0.0
 40
4.25
  1
検図
 41
0.938824
  7
EXCADSTD
 72
     5
 11
59.4577
 21
29.875
 31
0.0
100
AcDbText
  0
TEXT
  5
A1
100
AcDbEntity
  8
枠・表
  6
CONTINUOUS
 62
     2
100
AcDbText
 10
63.75
 20
29.875
 30
0.0
 40
4.25
  1
承認
 41
0.938824
  7
EXCADSTD
 72
     5
 11
72.4577
 21
29.875
 31
0.0
100
AcDbText
  0
TEXT
  5
A2
100
AcDbEntity
  8
枠・表
  6
CONTINUOUS
 62
     2
100
AcDbText
 10
75.575
 20
28.875
 30
0.0
 40
4.25
  1
品
 41
0.84
  7
EXCADSTD
 72
     5
 11
78.975
 21
28.875
 31
0.0
100
AcDbText
  0
TEXT
  5
A3
100
AcDbEntity
  8
枠・表
  6
CONTINUOUS
 62
     2
100
AcDbText
 10
75.575
 20
23.875
 30
0.0
 40
4.25
  1
名
 41
0.84
  7
EXCADSTD
 72
     5
 11
78.975
 21
23.875
 31
0.0
100
AcDbText
  0
TEXT
  5
A4
100
AcDbEntity
  8
枠・表
  6
CONTINUOUS
 62
     2
100
AcDbText
 10
139.575
 20
28.875
 30
0.0
 40
4.25
  1
品
 41
0.84
  7
EXCADSTD
 72
     5
 11
142.975
 21
28.875
 31
0.0
100
AcDbText
  0
TEXT
  5
A5
100
AcDbEntity
  8
枠・表
  6
CONTINUOUS
 62
     2
100
AcDbText
 10
139.575
 20
23.875
 30
0.0
 40
4.25
  1
番
 41
0.84
  7
EXCADSTD
 72
     5
 11
142.975
 21
23.875
 31
0.0
100
AcDbText
  0
TEXT
  5
A6
100
AcDbEntity
  8
枠・表
  6
CONTINUOUS
 62
     2
100
AcDbText
 10
181.675
 20
28.875
 30
0.0
 40
4.25
  1
尺
 41
0.84
  7
EXCADSTD
 72
     5
 11
185.075
 21
28.875
 31
0.0
100
AcDbText
  0
TEXT
  5
A7
100
AcDbEntity
  8
枠・表
  6
CONTINUOUS
 62
     2
100
AcDbText
 10
181.675
 20
23.875
 30
0.0
 40
4.25
  1
度
 41
0.84
  7
EXCADSTD
 72
     5
 11
185.075
 21
23.875
 31
0.0
100
AcDbText
  0
TEXT
  5
A8
100
AcDbEntity
  8
枠・表
  6
CONTINUOUS
 62
     2
100
AcDbText
 10
139.575
 20
17.575
 30
0.0
 40
4.25
  1
図
 41
0.84
  7
EXCADSTD
 72
     5
 11
142.975
 21
17.575
 31
0.0
100
AcDbText
  0
TEXT
  5
A9
100
AcDbEntity
  8
枠・表
  6
CONTINUOUS
 62
     2
100
AcDbText
 10
139.575
 20
13.275
 30
0.0
 40
4.25
  1
番
 41
0.84
  7
EXCADSTD
 72
     5
 11
142.975
 21
13.275
 31
0.0
100
AcDbText
  0
LINE
  5
AA
100
AcDbEntity
  8
枠・表
  6
CONTINUOUS
 62
     6
100
AcDbLine
 10
125.0
 20
282.5
 30
0.0
 11
195.0
 21
282.5
 31
0.0
  0
LINE
  5
AB
100
AcDbEntity
  8
枠・表
  6
CONTINUOUS
 62
     6
100
AcDbLine
 10
125.0
 20
277.0
 30
0.0
 11
195.0
 21
277.0
 31
0.0
  0
LINE
  5
AC
100
AcDbEntity
  8
枠・表
  6
CONTINUOUS
 62
     6
100
AcDbLine
 10
125.0
 20
271.5
 30
0.0
 11
195.0
 21
271.5
 31
0.0
  0
TEXT
  5
AD
100
AcDbEntity
  8
枠・表
  6
CONTINUOUS
 62
     2
100
AcDbText
 10
133.0
 20
277.75
 30
0.0
 40
4.0
  1
品番
 41
1.47
  7
EXCADSTD
 72
     5
 11
145.8324
 21
277.75
 31
0.0
100
AcDbText
  0
TEXT
  5
AE
100
AcDbEntity
  8
枠・表
  6
CONTINUOUS
 62
     2
100
AcDbText
 10
168.0
 20
277.75
 30
0.0
 40
4.0
  1
品名
 41
1.47
  7
EXCADSTD
 72
     5
 11
180.8324
 21
277.75
 31
0.0
100
AcDbText
  0
TEXT
  5
AF
100
AcDbEntity
  8
枠・表
  6
CONTINUOUS
 62
     2
100
AcDbText
 10
156.0
 20
272.25
 30
0.0
 40
4.0
  1
洗面化粧台
 41
0.756
  7
EXCADSTD
 72
     5
 11
174.0
 21
272.25
 31
0.0
100
AcDbText
  0
TEXT
  5
B1
100
AcDbEntity
  8
枠・表
  6
CONTINUOUS
 62
     2
100
AcDbText
 10
77.0
 20
14.5
 30
0.0
 40
4.5
  1
ジャニス工業株式会社
  7
EXCADTTF1
 72
     5
 11
137.0
 21
14.5
 31
0.0
100
AcDbText
  0
TEXT
  5
B2
100
AcDbEntity
  8
枠・表
  6
CONTINUOUS
 62
     2
100
AcDbText
 10
63.5
 20
21.0
 30
0.0
 40
5.0
  1
古林
 41
0.882
  7
EXCADSTD
 72
     5
 11
73.1243
 21
21.0
 31
0.0
100
AcDbText
  0
LINE
  5
B3
100
AcDbEntity
  8
枠・表
  6
EXLTYPE2
 62
     1
100
AcDbLine
 10
18.0
 20
150.0
 30
0.0
 11
0.0
 21
150.0
 31
0.0
  0
LINE
  5
B4
100
AcDbEntity
  8
枠・表
  6
CONTINUOUS
 62
     6
100
AcDbLine
 10
125.0
 20
266.0
 30
0.0
 11
195.0
 21
266.0
 31
0.0
  0
TEXT
  5
B5
100
AcDbEntity
  8
枠・表
  6
CONTINUOUS
 62
     2
100
AcDbText
 10
126.0
 20
266.75
 30
0.0
 40
4.0
  1
ＬＵＭ６０２ＣＳ
 41
0.588
  7
EXCADSTD
 72
     5
 11
148.4
 21
266.75
 31
0.0
100
AcDbText
  0
TEXT
  5
B6
100
AcDbEntity
  8
枠・表
  6
CONTINUOUS
 62
     2
100
AcDbText
 10
156.0
 20
266.75
 30
0.0
 40
4.0
  1
化粧鏡
 41
0.77
  7
EXCADSTD
 72
     5
 11
167.0
 21
266.75
 31
0.0
100
AcDbText
  0
LINE
  5
B7
100
AcDbEntity
  8
枠・表
  6
CONTINUOUS
 62
     6
100
AcDbLine
 10
125.0
 20
255.0
 30
0.0
 11
195.0
 21
255.0
 31
0.0
  0
LINE
  5
B8
100
AcDbEntity
  8
枠・表
  6
CONTINUOUS
 62
     6
100
AcDbLine
 10
125.0
 20
249.5
 30
0.0
 11
195.0
 21
249.5
 31
0.0
  0
LINE
  5
B9
100
AcDbEntity
  8
枠・表
  6
CONTINUOUS
 62
     6
100
AcDbLine
 10
125.0
 20
244.0
 30
0.0
 11
195.0
 21
244.0
 31
0.0
  0
LINE
  5
BA
100
AcDbEntity
  8
枠・表
  6
CONTINUOUS
 62
     6
100
AcDbLine
 10
125.0
 20
238.5
 30
0.0
 11
195.0
 21
238.5
 31
0.0
  0
LINE
  5
BB
100
AcDbEntity
  8
枠・表
  6
CONTINUOUS
 62
     6
100
AcDbLine
 10
125.0
 20
233.0
 30
0.0
 11
195.0
 21
233.0
 31
0.0
  0
LINE
  5
BC
100
AcDbEntity
  8
枠・表
  6
CONTINUOUS
 62
     6
100
AcDbLine
 10
125.0
 20
227.5
 30
0.0
 11
195.0
 21
227.5
 31
0.0
  0
LINE
  5
BD
100
AcDbEntity
  8
枠・表
  6
CONTINUOUS
 62
     6
100
AcDbLine
 10
125.0
 20
222.0
 30
0.0
 11
195.0
 21
222.0
 31
0.0
  0
LINE
  5
BE
100
AcDbEntity
  8
枠・表
  6
CONTINUOUS
 62
     6
100
AcDbLine
 10
125.0
 20
216.5
 30
0.0
 11
195.0
 21
216.5
 31
0.0
  0
LINE
  5
BF
100
AcDbEntity
  8
枠・表
  6
CONTINUOUS
 62
     6
100
AcDbLine
 10
125.0
 20
216.5
 30
0.0
 11
125.0
 21
255.0
 31
0.0
  0
LINE
  5
C0
100
AcDbEntity
  8
枠・表
  6
CONTINUOUS
 62
     6
100
AcDbLine
 10
195.0
 20
216.5
 30
0.0
 11
195.0
 21
255.0
 31
0.0
  0
TEXT
  5
C1
100
AcDbEntity
  8
枠・表
  6
CONTINUOUS
 62
     2
100
AcDbText
 10
126.0
 20
244.75
 30
0.0
 40
4.0
  1
Ｐ２２３４
 41
0.6006
  7
EXCADSTD
 72
     5
 11
140.3
 21
244.75
 31
0.0
100
AcDbText
  0
TEXT
  5
C2
100
AcDbEntity
  8
枠・表
  6
CONTINUOUS
 62
     2
100
AcDbText
 10
126.0
 20
239.25
 30
0.0
 40
4.0
  1
Ｐ２２３３
 41
0.6006
  7
EXCADSTD
 72
     5
 11
140.3
 21
239.25
 31
0.0
100
AcDbText
  0
TEXT
  5
C3
100
AcDbEntity
  8
枠・表
  6
CONTINUOUS
 62
     2
100
AcDbText
 10
126.0
 20
233.75
 30
0.0
 40
4.0
  1
Ｐ２２３２
 41
0.6006
  7
EXCADSTD
 72
     5
 11
140.3
 21
233.75
 31
0.0
100
AcDbText
  0
TEXT
  5
C4
100
AcDbEntity
  8
枠・表
  6
CONTINUOUS
 62
     2
100
AcDbText
 10
126.0
 20
222.75
 30
0.0
 40
4.0
  1
ＮＬ２２１－７５ＷＭＹ
 41
0.582273
  7
EXCADSTD
 72
     5
 11
156.5
 21
222.75
 31
0.0
100
AcDbText
  0
LINE
  5
C5
100
AcDbEntity
  8
枠・表
  6
CONTINUOUS
 62
     6
100
AcDbLine
 10
160.0
 20
216.5
 30
0.0
 11
160.0
 21
255.0
 31
0.0
  0
TEXT
  5
C6
100
AcDbEntity
  8
枠・表
  6
CONTINUOUS
 62
     2
100
AcDbText
 10
161.0
 20
244.75
 30
0.0
 40
4.0
  1
Ｐトラップ
 41
0.756
  7
EXCADSTD
 72
     5
 11
179.0
 21
244.75
 31
0.0
100
AcDbText
  0
TEXT
  5
C7
100
AcDbEntity
  8
枠・表
  6
CONTINUOUS
 62
     2
100
AcDbText
 10
161.0
 20
239.25
 30
0.0
 40
4.0
  1
Ｓトラップ
 41
0.756
  7
EXCADSTD
 72
     5
 11
179.0
 21
239.25
 31
0.0
100
AcDbText
  0
TEXT
  5
C8
100
AcDbEntity
  8
枠・表
  6
CONTINUOUS
 62
     2
100
AcDbText
 10
161.0
 20
233.75
 30
0.0
 40
4.0
  1
ボトルトラップ
 41
0.75
  7
EXCADSTD
 72
     5
 11
186.0
 21
233.75
 31
0.0
100
AcDbText
  0
TEXT
  5
C9
100
AcDbEntity
  8
枠・表
  6
CONTINUOUS
 62
     2
100
AcDbText
 10
161.0
 20
228.25
 30
0.0
 40
4.0
  1
配管アダプター
 41
0.75
  7
EXCADSTD
 72
     5
 11
186.0
 21
228.25
 31
0.0
100
AcDbText
  0
TEXT
  5
CA
100
AcDbEntity
  8
枠・表
  6
CONTINUOUS
 62
     2
100
AcDbText
 10
161.0
 20
222.75
 30
0.0
 40
4.0
  1
アングル形止水栓
 41
0.748125
  7
EXCADSTD
 72
     5
 11
189.5
 21
222.75
 31
0.0
100
AcDbText
  0
TEXT
  5
CB
100
AcDbEntity
  8
枠・表
  6
CONTINUOUS
 62
     2
100
AcDbText
 10
161.0
 20
217.25
 30
0.0
 40
4.0
  1
ストレート形止水栓
 41
0.746667
  7
EXCADSTD
 72
     5
 11
193.0
 21
217.25
 31
0.0
100
AcDbText
  0
TEXT
  5
CC
100
AcDbEntity
  8
枠・表
  6
CONTINUOUS
 62
     2
100
AcDbText
 10
135.5
 20
250.25
 30
0.0
 40
4.0
  1
品番
 41
1.47
  7
EXCADSTD
 72
     5
 11
148.3324
 21
250.25
 31
0.0
100
AcDbText
  0
TEXT
  5
CD
100
AcDbEntity
  8
枠・表
  6
CONTINUOUS
 62
     2
100
AcDbText
 10
170.5
 20
250.25
 30
0.0
 40
4.0
  1
品名
 41
1.47
  7
EXCADSTD
 72
     5
 11
183.3324
 21
250.25
 31
0.0
100
AcDbText
  0
TEXT
  5
CE
100
AcDbEntity
  8
枠・表
  6
CONTINUOUS
 62
     2
100
AcDbText
 10
125.4
 20
256.0
 30
0.0
 40
4.0
  1
※選択部材（別途手配）
 41
0.687273
  7
EXCADSTD
 72
     5
 11
161.4
 21
256.0
 31
0.0
100
AcDbText
  0
LINE
  5
CF
100
AcDbEntity
  8
枠・表
  6
CONTINUOUS
 62
     6
100
AcDbLine
 10
125.0
 20
266.0
 30
0.0
 11
125.0
 21
282.5
 31
0.0
  0
LINE
  5
D0
100
AcDbEntity
  8
枠・表
  6
CONTINUOUS
 62
     6
100
AcDbLine
 10
155.0
 20
266.0
 30
0.0
 11
155.0
 21
282.5
 31
0.0
  0
LINE
  5
D1
100
AcDbEntity
  8
枠・表
  6
CONTINUOUS
 62
     6
100
AcDbLine
 10
195.0
 20
266.0
 30
0.0
 11
195.0
 21
282.5
 31
0.0
  0
TEXT
  5
D2
100
AcDbEntity
  8
枠・表
  6
CONTINUOUS
 62
     2
100
AcDbText
 10
126.0
 20
272.25
 30
0.0
 40
4.0
  1
ＬＵ７５２ＴＳＤＲ
 41
0.585667
  7
EXCADSTD
 72
     5
 11
151.1
 21
272.25
 31
0.0
100
AcDbText
  0
TEXT
  5
D3
100
AcDbEntity
  8
枠・表
  6
CONTINUOUS
 62
     2
100
AcDbText
 10
126.0
 20
217.25
 30
0.0
 40
4.0
  1
ＮＬ２１１－４２０ＷＹ
 41
0.582273
  7
EXCADSTD
 72
     5
 11
156.5
 21
217.25
 31
0.0
100
AcDbText
  0
TEXT
  5
D4
100
AcDbEntity
  8
枠・表
  6
CONTINUOUS
 62
     2
100
AcDbText
 10
81.0
 20
28.5
 30
0.0
 40
5.0
  1
750㎜幅
 41
0.72072
  7
EXCADSTD
 72
     5
 11
100.25
 21
28.5
 31
0.0
100
AcDbText
  0
TEXT
  5
D5
100
AcDbEntity
  8
枠・表
  6
CONTINUOUS
 62
     2
100
AcDbText
 10
81.0
 20
23.5
 30
0.0
 40
5.0
  1
　洗面化粧ユニット
 41
0.924
  7
EXCADSTD
 72
     5
 11
130.5
 21
23.5
 31
0.0
100
AcDbText
  0
TEXT
  5
D6
100
AcDbEntity
  8
枠・表
  6
CONTINUOUS
 62
     2
100
AcDbText
 10
145.0
 20
28.5
 30
0.0
 40
5.0
  1
ＬＵ７５２ＴＳＤＲ型 
 41
0.6048
  7
EXCADSTD
 72
     5
 11
181.0
 21
28.5
 31
0.0
100
AcDbText
  0
TEXT
  5
D7
100
AcDbEntity
  8
枠・表
  6
CONTINUOUS
 62
     2
100
AcDbText
 10
145.0
 20
23.5
 30
0.0
 40
5.0
  1
ＬＵＭ６０２ＣＳ
 41
0.609
  7
EXCADSTD
 72
     5
 11
174.0
 21
23.5
 31
0.0
100
AcDbText
  0
TEXT
  5
D8
100
AcDbEntity
  8
枠・表
  6
CONTINUOUS
 62
     2
100
AcDbText
 10
20.75
 20
21.0
 30
0.0
 40
5.0
  1
間瀬
 41
0.882
  7
EXCADSTD
 72
     5
 11
30.3743
 21
21.0
 31
0.0
100
AcDbText
  0
TEXT
  5
D9
100
AcDbEntity
  8
枠・表
  6
CONTINUOUS
 62
     2
100
AcDbText
 10
18.45
 20
13.0
 30
0.0
 40
4.0
  1
21
 41
0.5
  7
EXCADSTD
 72
     5
 11
21.65
 21
13.0
 31
0.0
100
AcDbText
  0
TEXT
  5
DA
100
AcDbEntity
  8
枠・表
  6
CONTINUOUS
 62
     2
100
AcDbText
 10
23.5
 20
13.0
 30
0.0
 40
4.0
  1
11
 41
0.5
  7
EXCADSTD
 72
     5
 11
26.7
 21
13.0
 31
0.0
100
AcDbText
  0
TEXT
  5
DB
100
AcDbEntity
  8
枠・表
  6
CONTINUOUS
 62
     2
100
AcDbText
 10
29.675
 20
13.0
 30
0.0
 40
4.0
  1
5
 41
0.5625
  7
EXCADSTD
 72
     5
 11
31.1375
 21
13.0
 31
0.0
100
AcDbText
  0
TEXT
  5
DC
100
AcDbEntity
  8
枠・表
  6
CONTINUOUS
 62
     7
100
AcDbText
 10
145.2
 20
14.15
 30
0.0
 40
7.0
  1
ＬＵ３１６９３１
 41
0.804
  7
EXCADSTD
 72
     5
 11
198.8
 21
14.15
 31
0.0
100
AcDbText
  0
TEXT
  5
DD
100
AcDbEntity
  8
枠・表
  6
CONTINUOUS
 62
     2
100
AcDbText
 10
126.0
 20
228.25
 30
0.0
 40
4.0
  1
ＬＵＭＥＨ７０－２０－３２Ｂ
 41
0.474
  7
EXCADSTD
 72
     5
 11
157.6
 21
228.25
 31
0.0
100
AcDbText
  0
POLYLINE
  5
DE
100
AcDbEntity
  8
化粧台
  6
CONTINUOUS
 62
     3
100
AcDb2dPolyline
 66
     1
 10
0.0
 20
0.0
 30
0.0
 70
   128
  0
VERTEX
  5
DF
100
AcDbEntity
  8
化粧台
  6
CONTINUOUS
 62
     3
100
AcDbVertex
100
AcDb2dVertex
 10
1602.0
 20
3929.5
 30
0.0
  0
VERTEX
  5
E0
100
AcDbEntity
  8
化粧台
  6
CONTINUOUS
 62
     3
100
AcDbVertex
100
AcDb2dVertex
 10
1625.0
 20
3880.0
 30
0.0
  0
SEQEND
  5
E1
100
AcDbEntity
  8
化粧台
  6
CONTINUOUS
 62
     3
  0
LINE
  5
E2
100
AcDbEntity
  8
化粧台
  6
CONTINUOUS
 62
     3
100
AcDbLine
 10
1627.763749
 20
3891.850575
 30
0.0
 11
1602.0
 21
3929.5
 31
0.0
  0
LINE
  5
E3
100
AcDbEntity
  8
化粧台
  6
CONTINUOUS
 62
     3
100
AcDbLine
 10
1602.0
 20
3929.5
 30
0.0
 11
1614.16049
 21
3885.529868
 31
0.0
  0
POLYLINE
  5
E4
100
AcDbEntity
  8
化粧台
  6
CONTINUOUS
 62
     3
100
AcDb2dPolyline
 66
     1
 10
0.0
 20
0.0
 30
0.0
 70
   128
  0
VERTEX
  5
E5
100
AcDbEntity
  8
化粧台
  6
CONTINUOUS
 62
     3
100
AcDbVertex
100
AcDb2dVertex
 10
2450.0
 20
2921.5
 30
0.0
  0
VERTEX
  5
E6
100
AcDbEntity
  8
化粧台
  6
CONTINUOUS
 62
     3
100
AcDbVertex
100
AcDb2dVertex
 10
2404.0
 20
2941.5
 30
0.0
  0
SEQEND
  5
E7
100
AcDbEntity
  8
化粧台
  6
CONTINUOUS
 62
     3
  0
LINE
  5
E8
100
AcDbEntity
  8
化粧台
  6
CONTINUOUS
 62
     3
100
AcDbLine
 10
2405.741402
 20
2932.56465
 30
0.0
 11
2450.0
 21
2921.5
 31
0.0
  0
LINE
  5
E9
100
AcDbEntity
  8
化粧台
  6
CONTINUOUS
 62
     3
100
AcDbLine
 10
2450.0
 20
2921.5
 30
0.0
 11
2411.722293
 21
2946.3207
 31
0.0
  0
POLYLINE
  5
EA
100
AcDbEntity
  8
化粧台
  6
CONTINUOUS
 62
     3
100
AcDb2dPolyline
 66
     1
 10
0.0
 20
0.0
 30
0.0
 70
   128
  0
VERTEX
  5
EB
100
AcDbEntity
  8
化粧台
  6
CONTINUOUS
 62
     3
100
AcDbVertex
100
AcDb2dVertex
 10
1948.0
 20
1017.5
 30
0.0
  0
VERTEX
  5
EC
100
AcDbEntity
  8
化粧台
  6
CONTINUOUS
 62
     3
100
AcDbVertex
100
AcDb2dVertex
 10
1929.0
 20
1066.5
 30
0.0
  0
SEQEND
  5
ED
100
AcDbEntity
  8
化粧台
  6
CONTINUOUS
 62
     3
  0
LINE
  5
EE
100
AcDbEntity
  8
化粧台
  6
CONTINUOUS
 62
     3
100
AcDbLine
 10
1924.738537
 20
1056.7448
 30
0.0
 11
1948.0
 21
1017.5
 31
0.0
  0
LINE
  5
EF
100
AcDbEntity
  8
化粧台
  6
CONTINUOUS
 62
     3
100
AcDbLine
 10
1948.0
 20
1017.5
 30
0.0
 11
1938.723956
 21
1062.167718
 31
0.0
  0
LINE
  5
F0
100
AcDbEntity
  8
化粧台
  6
EXLTYPE4
 62
     6
100
AcDbLine
 10
1729.0
 20
1017.5
 30
0.0
 11
320.0
 21
1017.5
 31
0.0
  0
LINE
  5
F1
100
AcDbEntity
  8
化粧台
  6
CONTINUOUS
 62
     2
100
AcDbLine
 10
620.0
 20
2767.5
 30
0.0
 11
620.0
 21
2247.5
 31
0.0
  0
LINE
  5
F2
100
AcDbEntity
  8
化粧台
  6
CONTINUOUS
 62
     2
100
AcDbLine
 10
1220.0
 20
2767.5
 30
0.0
 11
1220.0
 21
2247.5
 31
0.0
  0
LINE
  5
F3
100
AcDbEntity
  8
化粧台
  6
CONTINUOUS
 62
     4
100
AcDbLine
 10
662.5
 20
2256.3
 30
0.0
 11
662.5
 21
2246.3
 31
0.0
  0
LINE
  5
F4
100
AcDbEntity
  8
化粧台
  6
CONTINUOUS
 62
     4
100
AcDbLine
 10
662.5
 20
2256.3
 30
0.0
 11
1177.5
 21
2256.3
 31
0.0
  0
LINE
  5
F5
100
AcDbEntity
  8
化粧台
  6
CONTINUOUS
 62
     4
100
AcDbLine
 10
662.5
 20
2246.3
 30
0.0
 11
1177.5
 21
2246.3
 31
0.0
  0
LINE
  5
F6
100
AcDbEntity
  8
化粧台
  6
CONTINUOUS
 62
     4
100
AcDbLine
 10
1177.5
 20
2256.3
 30
0.0
 11
1177.5
 21
2246.3
 31
0.0
  0
LINE
  5
F7
100
AcDbEntity
  8
化粧台
  6
CONTINUOUS
 62
     2
100
AcDbLine
 10
660.5
 20
2767.5
 30
0.0
 11
660.5
 21
2247.5
 31
0.0
  0
LINE
  5
F8
100
AcDbEntity
  8
化粧台
  6
CONTINUOUS
 62
     4
100
AcDbLine
 10
662.5
 20
2768.7
 30
0.0
 11
662.5
 21
2758.7
 31
0.0
  0
LINE
  5
F9
100
AcDbEntity
  8
化粧台
  6
CONTINUOUS
 62
     4
100
AcDbLine
 10
1177.5
 20
2768.7
 30
0.0
 11
1177.5
 21
2758.7
 31
0.0
  0
LINE
  5
FA
100
AcDbEntity
  8
化粧台
  6
CONTINUOUS
 62
     4
100
AcDbLine
 10
662.5
 20
2768.7
 30
0.0
 11
1177.5
 21
2768.7
 31
0.0
  0
LINE
  5
FB
100
AcDbEntity
  8
化粧台
  6
CONTINUOUS
 62
     4
100
AcDbLine
 10
662.5
 20
2758.7
 30
0.0
 11
1177.5
 21
2758.7
 31
0.0
  0
LINE
  5
FC
100
AcDbEntity
  8
化粧台
  6
CONTINUOUS
 62
     2
100
AcDbLine
 10
1179.5
 20
2767.5
 30
0.0
 11
1179.5
 21
2247.5
 31
0.0
  0
LINE
  5
FD
100
AcDbEntity
  8
化粧台
  6
CONTINUOUS
 62
     2
100
AcDbLine
 10
620.0
 20
2767.5
 30
0.0
 11
662.5
 21
2767.5
 31
0.0
  0
LINE
  5
FE
100
AcDbEntity
  8
化粧台
  6
CONTINUOUS
 62
     2
100
AcDbLine
 10
1177.5
 20
2767.5
 30
0.0
 11
1220.0
 21
2767.5
 31
0.0
  0
LINE
  5
FF
100
AcDbEntity
  8
化粧台
  6
CONTINUOUS
 62
     2
100
AcDbLine
 10
1177.5
 20
2247.5
 30
0.0
 11
1220.0
 21
2247.5
 31
0.0
  0
LINE
  5
100
100
AcDbEntity
  8
化粧台
  6
CONTINUOUS
 62
     2
100
AcDbLine
 10
620.0
 20
2247.5
 30
0.0
 11
662.5
 21
2247.5
 31
0.0
  0
LINE
  5
101
100
AcDbEntity
  8
化粧台
  6
CONTINUOUS
 62
     6
100
AcDbLine
 10
976.535534
 20
2591.964466
 30
0.0
 11
991.535534
 21
2606.964466
 31
0.0
  0
LINE
  5
102
100
AcDbEntity
  8
化粧台
  6
CONTINUOUS
 62
     6
100
AcDbLine
 10
966.0
 20
2588.5
 30
0.0
 11
998.5
 21
2621.0
 31
0.0
  0
LINE
  5
103
100
AcDbEntity
  8
化粧台
  6
CONTINUOUS
 62
     6
100
AcDbLine
 10
986.714466
 20
2616.285534
 30
0.0
 11
973.964466
 21
2603.535534
 31
0.0
  0
LINE
  5
104
100
AcDbEntity
  8
化粧台
  6
CONTINUOUS
 62
     6
100
AcDbLine
 10
811.535534
 20
2564.964466
 30
0.0
 11
826.535534
 21
2579.964466
 31
0.0
  0
LINE
  5
105
100
AcDbEntity
  8
化粧台
  6
CONTINUOUS
 62
     6
100
AcDbLine
 10
801.0
 20
2561.5
 30
0.0
 11
833.5
 21
2594.0
 31
0.0
  0
LINE
  5
106
100
AcDbEntity
  8
化粧台
  6
CONTINUOUS
 62
     6
100
AcDbLine
 10
821.714466
 20
2589.285534
 30
0.0
 11
808.964466
 21
2576.535534
 31
0.0
  0
LINE
  5
107
100
AcDbEntity
  8
化粧台
  6
CONTINUOUS
 62
     6
100
AcDbLine
 10
955.535534
 20
2401.964466
 30
0.0
 11
970.535534
 21
2416.964466
 31
0.0
  0
LINE
  5
108
100
AcDbEntity
  8
化粧台
  6
CONTINUOUS
 62
     6
100
AcDbLine
 10
945.0
 20
2398.5
 30
0.0
 11
977.5
 21
2431.0
 31
0.0
  0
LINE
  5
109
100
AcDbEntity
  8
化粧台
  6
CONTINUOUS
 62
     6
100
AcDbLine
 10
965.714466
 20
2426.285534
 30
0.0
 11
952.964466
 21
2413.535534
 31
0.0
  0
LINE
  5
10A
100
AcDbEntity
  8
化粧台
  6
CONTINUOUS
 62
     6
100
AcDbLine
 10
1070.0
 20
2694.480762
 30
0.0
 11
1070.0
 21
2720.480762
 31
0.0
  0
LINE
  5
10B
100
AcDbEntity
  8
化粧台
  6
CONTINUOUS
 62
     6
100
AcDbLine
 10
1083.0
 20
2707.480762
 30
0.0
 11
1057.0
 21
2707.480762
 31
0.0
  0
LINE
  5
10C
100
AcDbEntity
  8
化粧台
  6
CONTINUOUS
 62
     6
100
AcDbLine
 10
783.0
 20
2707.480762
 30
0.0
 11
757.0
 21
2707.480762
 31
0.0
  0
LINE
  5
10D
100
AcDbEntity
  8
化粧台
  6
CONTINUOUS
 62
     6
100
AcDbLine
 10
770.0
 20
2694.480762
 30
0.0
 11
770.0
 21
2720.480762
 31
0.0
  0
LINE
  5
10E
100
AcDbEntity
  8
化粧台
  6
CONTINUOUS
 62
     6
100
AcDbLine
 10
783.0
 20
2267.5
 30
0.0
 11
757.0
 21
2267.5
 31
0.0
  0
LINE
  5
10F
100
AcDbEntity
  8
化粧台
  6
CONTINUOUS
 62
     6
100
AcDbLine
 10
770.0
 20
2254.5
 30
0.0
 11
770.0
 21
2280.5
 31
0.0
  0
LINE
  5
110
100
AcDbEntity
  8
化粧台
  6
CONTINUOUS
 62
     6
100
AcDbLine
 10
1083.0
 20
2267.5
 30
0.0
 11
1057.0
 21
2267.5
 31
0.0
  0
LINE
  5
111
100
AcDbEntity
  8
化粧台
  6
CONTINUOUS
 62
     6
100
AcDbLine
 10
1070.0
 20
2254.5
 30
0.0
 11
1070.0
 21
2280.5
 31
0.0
  0
LINE
  5
112
100
AcDbEntity
  8
化粧台
  6
EXLTYPE3
 62
     6
100
AcDbLine
 10
920.0
 20
2783.7
 30
0.0
 11
920.0
 21
2231.3
 31
0.0
  0
LINE
  5
113
100
AcDbEntity
  8
化粧台
  6
EXLTYPE4
 62
     6
100
AcDbLine
 10
333.0
 20
3929.5
 30
0.0
 11
1743.0
 21
3929.5
 31
0.0
  0
TEXT
  5
114
100
AcDbEntity
  8
化粧台
  6
CONTINUOUS
 62
     2
100
AcDbText
 10
1644.000001
 20
3869.5
 30
0.0
 40
60.0
  1
W.L.
 41
0.4125
  7
EXCADSTD
 72
     5
 11
1734.7434
 21
3869.5
 31
0.0
100
AcDbText
  0
LINE
  5
115
100
AcDbEntity
  8
化粧台
  6
CONTINUOUS
 62
     2
100
AcDbLine
 10
545.0
 20
3479.5
 30
0.0
 11
545.0
 21
3929.5
 31
0.0
  0
LINE
  5
116
100
AcDbEntity
  8
化粧台
  6
CONTINUOUS
 62
     2
100
AcDbLine
 10
1295.0
 20
3479.5
 30
0.0
 11
1295.0
 21
3929.5
 31
0.0
  0
LINE
  5
117
100
AcDbEntity
  8
化粧台
  6
CONTINUOUS
 62
     2
100
AcDbLine
 10
545.0
 20
3929.5
 30
0.0
 11
1295.0
 21
3929.5
 31
0.0
  0
LINE
  5
118
100
AcDbEntity
  8
化粧台
  6
CONTINUOUS
 62
     6
100
AcDbLine
 10
971.961524
 20
3751.5
 30
0.0
 11
932.5
 21
3751.5
 31
0.0
  0
LINE
  5
119
100
AcDbEntity
  8
化粧台
  6
CONTINUOUS
 62
     2
100
AcDbLine
 10
932.5
 20
3759.5
 30
0.0
 11
1080.215179
 21
3759.5
 31
0.0
  0
LINE
  5
11A
100
AcDbEntity
  8
化粧台
  6
CONTINUOUS
 62
     2
100
AcDbLine
 10
759.784821
 20
3759.5
 30
0.0
 11
907.5
 21
3759.5
 31
0.0
  0
LINE
  5
11B
100
AcDbEntity
  8
化粧台
  6
CONTINUOUS
 62
     6
100
AcDbLine
 10
907.5
 20
3751.5
 30
0.0
 11
868.038476
 21
3751.5
 31
0.0
  0
ARC
  5
11C
100
AcDbEntity
  8
化粧台
  6
CONTINUOUS
 62
     2
100
AcDbCircle
 10
920.0
 20
3820.5
 30
0.0
 40
27.5
100
AcDbArc
 50
96.262913
 51
242.964308
  0
ARC
  5
11D
100
AcDbEntity
  8
化粧台
  6
CONTINUOUS
 62
     2
100
AcDbCircle
 10
920.0
 20
3820.5
 30
0.0
 40
27.5
100
AcDbArc
 50
297.035692
 51
83.737087
  0
LINE
  5
11E
100
AcDbEntity
  8
化粧台
  6
CONTINUOUS
 62
     2
100
AcDbLine
 10
923.0
 20
3868.668497
 30
0.0
 11
917.0
 21
3868.668497
 31
0.0
  0
LINE
  5
11F
100
AcDbEntity
  8
化粧台
  6
CONTINUOUS
 62
     2
100
AcDbLine
 10
917.0
 20
3840.7793
 30
0.0
 11
917.0
 21
3868.668497
 31
0.0
  0
LINE
  5
120
100
AcDbEntity
  8
化粧台
  6
CONTINUOUS
 62
     2
100
AcDbLine
 10
923.0
 20
3868.668497
 30
0.0
 11
923.0
 21
3840.7793
 31
0.0
  0
LINE
  5
121
100
AcDbEntity
  8
化粧台
  6
CONTINUOUS
 62
     2
100
AcDbLine
 10
932.5
 20
3693.410699
 30
0.0
 11
932.5
 21
3804.251923
 31
0.0
  0
LINE
  5
122
100
AcDbEntity
  8
化粧台
  6
CONTINUOUS
 62
     2
100
AcDbLine
 10
907.5
 20
3693.410699
 30
0.0
 11
907.5
 21
3804.251923
 31
0.0
  0
ELLIPSE
  5
123
100
AcDbEntity
  8
化粧台
  6
CONTINUOUS
 62
     2
100
AcDbEllipse
 10
920.0
 20
3693.410699
 30
0.0
 11
-12.499999999999998
 21
0.0000000000000015
 31
0.0
210
0.0
220
0.0
230
1.0
 40
0.258819
 41
0.0
 42
6.2831853071796004
  0
LINE
  5
124
100
AcDbEntity
  8
化粧台
  6
CONTINUOUS
 62
     2
100
AcDbLine
 10
924.0
 20
3750.0
 30
0.0
 11
924.0
 21
3800.394031
 31
0.0
  0
LINE
  5
125
100
AcDbEntity
  8
化粧台
  6
CONTINUOUS
 62
     2
100
AcDbLine
 10
916.0
 20
3750.0
 30
0.0
 11
916.0
 21
3800.394031
 31
0.0
  0
LINE
  5
126
100
AcDbEntity
  8
化粧台
  6
CONTINUOUS
 62
     2
100
AcDbLine
 10
916.0
 20
3750.0
 30
0.0
 11
924.0
 21
3750.0
 31
0.0
  0
CIRCLE
  5
127
100
AcDbEntity
  8
化粧台
  6
CONTINUOUS
 62
     2
100
AcDbCircle
 10
920.0
 20
3820.5
 30
0.0
 40
20.5
  0
LINE
  5
128
100
AcDbEntity
  8
化粧台
  6
CONTINUOUS
 62
     6
100
AcDbLine
 10
883.1
 20
3671.5
 30
0.0
 11
956.9
 21
3671.5
 31
0.0
  0
ARC
  5
129
100
AcDbEntity
  8
化粧台
  6
CONTINUOUS
 62
     6
100
AcDbCircle
 10
920.0
 20
3694.0
 30
0.0
 40
102.5
100
AcDbArc
 50
171.786789
 51
8.213211
  0
ARC
  5
12A
100
AcDbEntity
  8
化粧台
  6
CONTINUOUS
 62
     6
100
AcDbCircle
 10
971.961524
 20
3701.5
 30
0.0
 40
50.0
100
AcDbArc
 50
8.213211
 51
90.0
  0
ARC
  5
12B
100
AcDbEntity
  8
化粧台
  6
CONTINUOUS
 62
     6
100
AcDbCircle
 10
868.038476
 20
3701.5
 30
0.0
 40
50.0
100
AcDbArc
 50
90.0
 51
171.786789
  0
LINE
  5
12C
100
AcDbEntity
  8
化粧台
  6
CONTINUOUS
 62
     6
100
AcDbLine
 10
953.75
 20
3820.5
 30
0.0
 11
886.25
 21
3820.5
 31
0.0
  0
ARC
  5
12D
100
AcDbEntity
  8
化粧台
  6
CONTINUOUS
 62
     2
100
AcDbCircle
 10
1080.215179
 20
3709.5
 30
0.0
 40
50.0
100
AcDbArc
 50
9.763897
 51
90.0
  0
ARC
  5
12E
100
AcDbEntity
  8
化粧台
  6
CONTINUOUS
 62
     2
100
AcDbCircle
 10
759.784821
 20
3709.5
 30
0.0
 40
50.0
100
AcDbArc
 50
90.0
 51
170.236103
  0
ARC
  5
12F
100
AcDbEntity
  8
化粧台
  6
CONTINUOUS
 62
     2
100
AcDbCircle
 10
920.0
 20
3681.929987
 30
0.0
 40
212.570013
100
AcDbArc
 50
9.763897
 51
170.236103
  0
CIRCLE
  5
130
100
AcDbEntity
  8
化粧台
  6
CONTINUOUS
 62
     2
100
AcDbCircle
 10
920.0
 20
3674.5
 30
0.0
 40
225.0
  0
CIRCLE
  5
131
100
AcDbEntity
  8
化粧台
  6
CONTINUOUS
 62
     2
100
AcDbCircle
 10
920.0
 20
3674.5
 30
0.0
 40
220.0
  0
LINE
  5
132
100
AcDbEntity
  8
化粧台
  6
EXLTYPE3
 62
     6
100
AcDbLine
 10
920.0
 20
3939.5
 30
0.0
 11
920.0
 21
3439.5
 31
0.0
  0
LINE
  5
133
100
AcDbEntity
  8
化粧台
  6
CONTINUOUS
 62
     2
100
AcDbLine
 10
545.0
 20
3479.5
 30
0.0
 11
807.750278
 21
3479.5
 31
0.0
  0
LINE
  5
134
100
AcDbEntity
  8
化粧台
  6
CONTINUOUS
 62
     2
100
AcDbLine
 10
1032.249722
 20
3479.5
 30
0.0
 11
1295.0
 21
3479.5
 31
0.0
  0
LINE
  5
135
100
AcDbEntity
  8
化粧台
  6
CONTINUOUS
 62
     6
100
AcDbLine
 10
677.0
 20
3914.5
 30
0.0
 11
677.0
 21
3972.0
 31
0.0
  0
LINE
  5
136
100
AcDbEntity
  8
化粧台
  6
CONTINUOUS
 62
     6
100
AcDbLine
 10
677.0
 20
3962.0
 30
0.0
 11
679.0
 21
3929.5
 31
0.0
  0
LINE
  5
137
100
AcDbEntity
  8
化粧台
  6
CONTINUOUS
 62
     6
100
AcDbLine
 10
675.0
 20
3929.5
 30
0.0
 11
677.0
 21
3962.0
 31
0.0
  0
LINE
  5
138
100
AcDbEntity
  8
化粧台
  6
CONTINUOUS
 62
     6
100
AcDbLine
 10
1163.0
 20
3914.5
 30
0.0
 11
1163.0
 21
3972.0
 31
0.0
  0
LINE
  5
139
100
AcDbEntity
  8
化粧台
  6
CONTINUOUS
 62
     6
100
AcDbLine
 10
1163.0
 20
3962.0
 30
0.0
 11
1165.0
 21
3929.5
 31
0.0
  0
LINE
  5
13A
100
AcDbEntity
  8
化粧台
  6
CONTINUOUS
 62
     6
100
AcDbLine
 10
1161.0
 20
3929.5
 30
0.0
 11
1163.0
 21
3962.0
 31
0.0
  0
CIRCLE
  5
13B
100
AcDbEntity
  8
化粧台
  6
CONTINUOUS
 62
     2
100
AcDbCircle
 10
920.0
 20
3671.5
 30
0.0
 40
18.0
  0
ARC
  5
13C
100
AcDbEntity
  8
化粧台
  6
CONTINUOUS
 62
     2
100
AcDbCircle
 10
920.0
 20
3671.5
 30
0.0
 40
27.0
100
AcDbArc
 50
117.578468
 51
62.421532
  0
LINE
  5
13D
100
AcDbEntity
  8
化粧台
  6
CONTINUOUS
 62
     2
100
AcDbLine
 10
545.0
 20
1717.5
 30
0.0
 11
545.0
 21
1708.5
 31
0.0
  0
LINE
  5
13E
100
AcDbEntity
  8
化粧台
  6
CONTINUOUS
 62
     2
100
AcDbLine
 10
597.0
 20
1017.5
 30
0.0
 11
547.0
 21
1017.5
 31
0.0
  0
LINE
  5
13F
100
AcDbEntity
  8
化粧台
  6
CONTINUOUS
 62
     2
100
AcDbLine
 10
547.0
 20
1708.5
 30
0.0
 11
547.0
 21
1017.5
 31
0.0
  0
LINE
  5
140
100
AcDbEntity
  8
化粧台
  6
CONTINUOUS
 62
     2
100
AcDbLine
 10
597.0
 20
1667.5
 30
0.0
 11
597.0
 21
1017.5
 31
0.0
  0
LINE
  5
141
100
AcDbEntity
  8
化粧台
  6
CONTINUOUS
 62
     2
100
AcDbLine
 10
556.0
 20
1708.5
 30
0.0
 11
545.0
 21
1708.5
 31
0.0
  0
LINE
  5
142
100
AcDbEntity
  8
化粧台
  6
CONTINUOUS
 62
     2
100
AcDbLine
 10
597.0
 20
1667.5
 30
0.0
 11
556.0
 21
1708.5
 31
0.0
  0
LINE
  5
143
100
AcDbEntity
  8
化粧台
  6
CONTINUOUS
 62
     6
100
AcDbLine
 10
597.0
 20
1666.085786
 30
0.0
 11
555.585786
 21
1707.5
 31
0.0
  0
LINE
  5
144
100
AcDbEntity
  8
化粧台
  6
CONTINUOUS
 62
     6
100
AcDbLine
 10
555.585786
 20
1707.5
 30
0.0
 11
547.0
 21
1707.5
 31
0.0
  0
LINE
  5
145
100
AcDbEntity
  8
化粧台
  6
CONTINUOUS
 62
     2
100
AcDbLine
 10
1295.0
 20
1717.5
 30
0.0
 11
1295.0
 21
1708.5
 31
0.0
  0
LINE
  5
146
100
AcDbEntity
  8
化粧台
  6
CONTINUOUS
 62
     2
100
AcDbLine
 10
1243.0
 20
1017.5
 30
0.0
 11
1293.0
 21
1017.5
 31
0.0
  0
LINE
  5
147
100
AcDbEntity
  8
化粧台
  6
CONTINUOUS
 62
     2
100
AcDbLine
 10
1293.0
 20
1708.5
 30
0.0
 11
1293.0
 21
1017.5
 31
0.0
  0
LINE
  5
148
100
AcDbEntity
  8
化粧台
  6
CONTINUOUS
 62
     2
100
AcDbLine
 10
1243.0
 20
1667.5
 30
0.0
 11
1243.0
 21
1017.5
 31
0.0
  0
LINE
  5
149
100
AcDbEntity
  8
化粧台
  6
CONTINUOUS
 62
     2
100
AcDbLine
 10
1284.0
 20
1708.5
 30
0.0
 11
1295.0
 21
1708.5
 31
0.0
  0
LINE
  5
14A
100
AcDbEntity
  8
化粧台
  6
CONTINUOUS
 62
     2
100
AcDbLine
 10
1243.0
 20
1667.5
 30
0.0
 11
1284.0
 21
1708.5
 31
0.0
  0
LINE
  5
14B
100
AcDbEntity
  8
化粧台
  6
CONTINUOUS
 62
     6
100
AcDbLine
 10
1293.0
 20
1707.5
 30
0.0
 11
1284.414214
 21
1707.5
 31
0.0
  0
LINE
  5
14C
100
AcDbEntity
  8
化粧台
  6
CONTINUOUS
 62
     6
100
AcDbLine
 10
1284.414214
 20
1707.5
 30
0.0
 11
1243.0
 21
1666.085786
 31
0.0
  0
LINE
  5
14D
100
AcDbEntity
  8
化粧台
  6
CONTINUOUS
 62
     2
100
AcDbLine
 10
545.0
 20
1717.5
 30
0.0
 11
1295.0
 21
1717.5
 31
0.0
  0
LINE
  5
14E
100
AcDbEntity
  8
化粧台
  6
CONTINUOUS
 62
     2
100
AcDbLine
 10
597.0
 20
1667.5
 30
0.0
 11
1243.0
 21
1667.5
 31
0.0
  0
LINE
  5
14F
100
AcDbEntity
  8
化粧台
  6
CONTINUOUS
 62
     6
100
AcDbLine
 10
677.0
 20
1650.5
 30
0.0
 11
677.0
 21
1624.5
 31
0.0
  0
LINE
  5
150
100
AcDbEntity
  8
化粧台
  6
CONTINUOUS
 62
     6
100
AcDbLine
 10
690.0
 20
1637.5
 30
0.0
 11
664.0
 21
1637.5
 31
0.0
  0
LINE
  5
151
100
AcDbEntity
  8
化粧台
  6
CONTINUOUS
 62
     6
100
AcDbLine
 10
1163.0
 20
1650.5
 30
0.0
 11
1163.0
 21
1624.5
 31
0.0
  0
LINE
  5
152
100
AcDbEntity
  8
化粧台
  6
CONTINUOUS
 62
     6
100
AcDbLine
 10
1150.0
 20
1637.5
 30
0.0
 11
1176.0
 21
1637.5
 31
0.0
  0
LINE
  5
153
100
AcDbEntity
  8
化粧台
  6
CONTINUOUS
 62
     2
100
AcDbLine
 10
597.0
 20
1267.5
 30
0.0
 11
1243.0
 21
1267.5
 31
0.0
  0
LINE
  5
154
100
AcDbEntity
  8
化粧台
  6
CONTINUOUS
 62
     2
100
AcDbLine
 10
695.283477
 20
1875.840358
 30
0.0
 11
751.0
 21
1717.5
 31
0.0
  0
LINE
  5
155
100
AcDbEntity
  8
化粧台
  6
CONTINUOUS
 62
     2
100
AcDbLine
 10
1089.0
 20
1717.5
 30
0.0
 11
1144.716523
 21
1875.840358
 31
0.0
  0
LINE
  5
156
100
AcDbEntity
  8
化粧台
  6
CONTINUOUS
 62
     2
100
AcDbLine
 10
751.0
 20
1717.5
 30
0.0
 11
1089.0
 21
1717.5
 31
0.0
  0
ARC
  5
157
100
AcDbEntity
  8
化粧台
  6
CONTINUOUS
 62
     2
100
AcDbCircle
 10
700.0
 20
1877.5
 30
0.0
 40
5.0
100
AcDbArc
 50
92.603905
 51
199.38586
  0
ARC
  5
158
100
AcDbEntity
  8
化粧台
  6
CONTINUOUS
 62
     2
100
AcDbCircle
 10
1140.0
 20
1877.5
 30
0.0
 40
5.0
100
AcDbArc
 50
340.61414
 51
87.396095
  0
ARC
  5
159
100
AcDbEntity
  8
化粧台
  6
CONTINUOUS
 62
     2
100
AcDbCircle
 10
920.0
 20
6715.0
 30
0.0
 40
4837.5
100
AcDbArc
 50
267.455315
 51
272.544685
  0
LINE
  5
15A
100
AcDbEntity
  8
化粧台
  6
CONTINUOUS
 62
     6
100
AcDbLine
 10
821.643506
 20
1878.5
 30
0.0
 11
1018.356494
 21
1878.5
 31
0.0
  0
LINE
  5
15B
100
AcDbEntity
  8
化粧台
  6
CONTINUOUS
 62
     2
100
AcDbLine
 10
892.5
 20
1884.0
 30
0.0
 11
947.5
 21
1884.0
 31
0.0
  0
LINE
  5
15C
100
AcDbEntity
  8
化粧台
  6
CONTINUOUS
 62
     2
100
AcDbLine
 10
892.5
 20
1884.0
 30
0.0
 11
892.5
 21
1878.5
 31
0.0
  0
LINE
  5
15D
100
AcDbEntity
  8
化粧台
  6
CONTINUOUS
 62
     2
100
AcDbLine
 10
947.5
 20
1884.0
 30
0.0
 11
947.5
 21
1878.5
 31
0.0
  0
LINE
  5
15E
100
AcDbEntity
  8
化粧台
  6
CONTINUOUS
 62
     2
100
AcDbLine
 10
899.5
 20
2023.5
 30
0.0
 11
940.5
 21
2023.5
 31
0.0
  0
LINE
  5
15F
100
AcDbEntity
  8
化粧台
  6
CONTINUOUS
 62
     2
100
AcDbLine
 10
899.5
 20
2001.0
 30
0.0
 11
940.5
 21
2001.0
 31
0.0
  0
LINE
  5
160
100
AcDbEntity
  8
化粧台
  6
CONTINUOUS
 62
     2
100
AcDbLine
 10
899.5
 20
2003.5
 30
0.0
 11
940.5
 21
2003.5
 31
0.0
  0
CIRCLE
  5
161
100
AcDbEntity
  8
化粧台
  6
CONTINUOUS
 62
     2
100
AcDbCircle
 10
920.0
 20
2016.5
 30
0.0
 40
4.0
  0
ELLIPSE
  5
162
100
AcDbEntity
  8
化粧台
  6
CONTINUOUS
 62
     2
100
AcDbEllipse
 10
920.0
 20
1945.5
 30
0.0
 11
-9.0
 21
-0.0000000000000069
 31
0.0
210
0.0
220
0.0
230
1.0
 40
0.422618
 41
0.0
 42
6.2831853071796004
  0
LINE
  5
163
100
AcDbEntity
  8
化粧台
  6
CONTINUOUS
 62
     2
100
AcDbLine
 10
899.5
 20
2023.5
 30
0.0
 11
899.5
 21
1884.0
 31
0.0
  0
LINE
  5
164
100
AcDbEntity
  8
化粧台
  6
CONTINUOUS
 62
     2
100
AcDbLine
 10
940.5
 20
2023.5
 30
0.0
 11
940.5
 21
1884.0
 31
0.0
  0
ELLIPSE
  5
165
100
AcDbEntity
  8
化粧台
  6
CONTINUOUS
 62
     2
100
AcDbEllipse
 10
920.0
 20
1967.50147
 30
0.0
 11
12.500000000000009
 21
0.0
 31
0.0
210
0.0
220
0.0
230
1.0
 40
0.965926
 41
0.0
 42
6.2831853071796004
  0
LINE
  5
166
100
AcDbEntity
  8
化粧台
  6
CONTINUOUS
 62
     2
100
AcDbLine
 10
907.5
 20
1967.50147
 30
0.0
 11
907.5
 21
1938.074073
 31
0.0
  0
LINE
  5
167
100
AcDbEntity
  8
化粧台
  6
CONTINUOUS
 62
     2
100
AcDbLine
 10
932.5
 20
1967.50147
 30
0.0
 11
932.5
 21
1938.074073
 31
0.0
  0
ELLIPSE
  5
168
100
AcDbEntity
  8
化粧台
  6
CONTINUOUS
 62
     2
100
AcDbEllipse
 10
920.0
 20
1938.074073
 30
0.0
 11
12.500000000000009
 21
0.0
 31
0.0
210
0.0
220
0.0
230
1.0
 40
0.965926
 41
3.1415926535897931
 42
0.0
  0
ELLIPSE
  5
169
100
AcDbEntity
  8
化粧台
  6
CONTINUOUS
 62
     2
100
AcDbEllipse
 10
920.0
 20
1950.674644
 30
0.0
 11
9.0
 21
0.0
 31
0.0
210
0.0
220
0.0
230
1.0
 40
0.262812
 41
0.0
 42
3.1415926535897931
  0
LINE
  5
16A
100
AcDbEntity
  8
化粧台
  6
CONTINUOUS
 62
     2
100
AcDbLine
 10
911.0
 20
1950.674644
 30
0.0
 11
911.0
 21
1945.5
 31
0.0
  0
LINE
  5
16B
100
AcDbEntity
  8
化粧台
  6
CONTINUOUS
 62
     2
100
AcDbLine
 10
929.0
 20
1950.674644
 30
0.0
 11
929.0
 21
1945.5
 31
0.0
  0
ARC
  5
16C
100
AcDbEntity
  8
化粧台
  6
CONTINUOUS
 62
     2
100
AcDbCircle
 10
920.0
 20
-2960.0
 30
0.0
 40
4847.5
100
AcDbArc
 50
90.242304
 51
92.603905
  0
ARC
  5
16D
100
AcDbEntity
  8
化粧台
  6
CONTINUOUS
 62
     2
100
AcDbCircle
 10
920.0
 20
-2960.0
 30
0.0
 40
4847.5
100
AcDbArc
 50
87.396095
 51
89.757696
  0
LINE
  5
16E
100
AcDbEntity
  8
化粧台
  6
CONTINUOUS
 62
     2
100
AcDbLine
 10
936.0
 20
1660.5
 30
0.0
 11
940.0
 21
1662.5
 31
0.0
  0
LINE
  5
16F
100
AcDbEntity
  8
化粧台
  6
CONTINUOUS
 62
     2
100
AcDbLine
 10
904.0
 20
1660.5
 30
0.0
 11
900.0
 21
1662.5
 31
0.0
  0
LINE
  5
170
100
AcDbEntity
  8
化粧台
  6
CONTINUOUS
 62
     2
100
AcDbLine
 10
936.0
 20
1660.5
 30
0.0
 11
904.0
 21
1660.5
 31
0.0
  0
LINE
  5
171
100
AcDbEntity
  8
化粧台
  6
CONTINUOUS
 62
     2
100
AcDbLine
 10
940.0
 20
1662.5
 30
0.0
 11
900.0
 21
1662.5
 31
0.0
  0
LINE
  5
172
100
AcDbEntity
  8
化粧台
  6
CONTINUOUS
 62
     2
100
AcDbLine
 10
900.0
 20
1667.5
 30
0.0
 11
900.0
 21
1662.5
 31
0.0
  0
LINE
  5
173
100
AcDbEntity
  8
化粧台
  6
CONTINUOUS
 62
     2
100
AcDbLine
 10
940.0
 20
1667.5
 30
0.0
 11
940.0
 21
1662.5
 31
0.0
  0
ARC
  5
174
100
AcDbEntity
  8
化粧台
  6
CONTINUOUS
 62
     2
100
AcDbCircle
 10
996.75
 20
1441.2
 30
0.0
 40
11.0
100
AcDbArc
 50
27.580199
 51
33.055731
  0
ARC
  5
175
100
AcDbEntity
  8
化粧台
  6
CONTINUOUS
 62
     2
100
AcDbCircle
 10
996.75
 20
1441.2
 30
0.0
 40
11.0
100
AcDbArc
 50
326.944269
 51
332.419801
  0
ARC
  5
176
100
AcDbEntity
  8
化粧台
  6
CONTINUOUS
 62
     2
100
AcDbCircle
 10
993.25
 20
1441.2
 30
0.0
 40
11.0
100
AcDbArc
 50
207.580199
 51
213.055731
  0
ARC
  5
177
100
AcDbEntity
  8
化粧台
  6
CONTINUOUS
 62
     2
100
AcDbCircle
 10
993.25
 20
1441.2
 30
0.0
 40
11.0
100
AcDbArc
 50
146.944269
 51
152.419801
  0
LINE
  5
178
100
AcDbEntity
  8
化粧台
  6
CONTINUOUS
 62
     2
100
AcDbLine
 10
1006.5
 20
1446.292887
 30
0.0
 11
1006.5
 21
1436.107113
 31
0.0
  0
LINE
  5
179
100
AcDbEntity
  8
化粧台
  6
CONTINUOUS
 62
     2
100
AcDbLine
 10
983.5
 20
1446.292887
 30
0.0
 11
983.5
 21
1436.107113
 31
0.0
  0
LINE
  5
17A
100
AcDbEntity
  8
化粧台
  6
CONTINUOUS
 62
     2
100
AcDbLine
 10
984.030456
 20
1447.2
 30
0.0
 11
1005.969544
 21
1447.2
 31
0.0
  0
LINE
  5
17B
100
AcDbEntity
  8
化粧台
  6
CONTINUOUS
 62
     2
100
AcDbLine
 10
984.030456
 20
1435.2
 30
0.0
 11
1005.969544
 21
1435.2
 31
0.0
  0
LINE
  5
17C
100
AcDbEntity
  8
化粧台
  6
CONTINUOUS
 62
     2
100
AcDbLine
 10
988.5
 20
1585.975339
 30
0.0
 11
988.5
 21
1447.2
 31
0.0
  0
LINE
  5
17D
100
AcDbEntity
  8
化粧台
  6
CONTINUOUS
 62
     2
100
AcDbLine
 10
1001.5
 20
1447.2
 30
0.0
 11
1001.5
 21
1585.975339
 31
0.0
  0
ARC
  5
17E
100
AcDbEntity
  8
化粧台
  6
CONTINUOUS
 62
     2
100
AcDbCircle
 10
701.5
 20
1585.975339
 30
0.0
 40
300.0
100
AcDbArc
 50
0.0
 51
15.768361
  0
ARC
  5
17F
100
AcDbEntity
  8
化粧台
  6
CONTINUOUS
 62
     2
100
AcDbCircle
 10
701.5
 20
1585.975339
 30
0.0
 40
287.0
100
AcDbArc
 50
0.0
 51
16.502552
  0
ARC
  5
180
100
AcDbEntity
  8
化粧台
  6
CONTINUOUS
 62
     2
100
AcDbCircle
 10
843.25
 20
1441.2
 30
0.0
 40
11.0
100
AcDbArc
 50
146.944269
 51
152.419801
  0
ARC
  5
181
100
AcDbEntity
  8
化粧台
  6
CONTINUOUS
 62
     2
100
AcDbCircle
 10
843.25
 20
1441.2
 30
0.0
 40
11.0
100
AcDbArc
 50
207.580199
 51
213.055731
  0
ARC
  5
182
100
AcDbEntity
  8
化粧台
  6
CONTINUOUS
 62
     2
100
AcDbCircle
 10
846.75
 20
1441.2
 30
0.0
 40
11.0
100
AcDbArc
 50
326.944269
 51
332.419801
  0
ARC
  5
183
100
AcDbEntity
  8
化粧台
  6
CONTINUOUS
 62
     2
100
AcDbCircle
 10
846.75
 20
1441.2
 30
0.0
 40
11.0
100
AcDbArc
 50
27.580199
 51
33.055731
  0
LINE
  5
184
100
AcDbEntity
  8
化粧台
  6
CONTINUOUS
 62
     2
100
AcDbLine
 10
833.5
 20
1446.292887
 30
0.0
 11
833.5
 21
1436.107113
 31
0.0
  0
LINE
  5
185
100
AcDbEntity
  8
化粧台
  6
CONTINUOUS
 62
     2
100
AcDbLine
 10
856.5
 20
1446.292887
 30
0.0
 11
856.5
 21
1436.107113
 31
0.0
  0
LINE
  5
186
100
AcDbEntity
  8
化粧台
  6
CONTINUOUS
 62
     2
100
AcDbLine
 10
855.969544
 20
1447.2
 30
0.0
 11
834.030456
 21
1447.2
 31
0.0
  0
LINE
  5
187
100
AcDbEntity
  8
化粧台
  6
CONTINUOUS
 62
     2
100
AcDbLine
 10
855.969544
 20
1435.2
 30
0.0
 11
834.030456
 21
1435.2
 31
0.0
  0
LINE
  5
188
100
AcDbEntity
  8
化粧台
  6
CONTINUOUS
 62
     2
100
AcDbLine
 10
851.5
 20
1585.975339
 30
0.0
 11
851.5
 21
1447.2
 31
0.0
  0
ARC
  5
189
100
AcDbEntity
  8
化粧台
  6
CONTINUOUS
 62
     2
100
AcDbCircle
 10
1138.5
 20
1585.975339
 30
0.0
 40
287.0
100
AcDbArc
 50
163.497448
 51
180.0
  0
LINE
  5
18A
100
AcDbEntity
  8
化粧台
  6
CONTINUOUS
 62
     2
100
AcDbLine
 10
838.5
 20
1447.2
 30
0.0
 11
838.5
 21
1585.975339
 31
0.0
  0
ARC
  5
18B
100
AcDbEntity
  8
化粧台
  6
CONTINUOUS
 62
     2
100
AcDbCircle
 10
1138.5
 20
1585.975339
 30
0.0
 40
300.0
100
AcDbArc
 50
164.231639
 51
180.0
  0
ELLIPSE
  5
18C
100
AcDbEntity
  8
化粧台
  6
CONTINUOUS
 62
     6
100
AcDbEllipse
 10
839.249029
 20
1441.2
 30
0.0
 11
-0.0000000000000009
 21
-5.0928871968700005
 31
0.0
210
0.0
220
0.0
230
1.0
 40
0.93641
 41
0.0
 42
6.2831853071796004
  0
ELLIPSE
  5
18D
100
AcDbEntity
  8
化粧台
  6
CONTINUOUS
 62
     6
100
AcDbEllipse
 10
850.750971
 20
1441.2
 30
0.0
 11
0.0000000000000003
 21
5.0928871968700005
 31
0.0
210
0.0
220
0.0
230
1.0
 40
0.93641
 41
0.0
 42
6.2831853071796004
  0
ELLIPSE
  5
18E
100
AcDbEntity
  8
化粧台
  6
CONTINUOUS
 62
     6
100
AcDbEllipse
 10
989.249029
 20
1441.2
 30
0.0
 11
-0.0000000000000009
 21
-5.0928871968700005
 31
0.0
210
0.0
220
0.0
230
1.0
 40
0.93641
 41
0.0
 42
6.2831853071796004
  0
ELLIPSE
  5
18F
100
AcDbEntity
  8
化粧台
  6
CONTINUOUS
 62
     6
100
AcDbEllipse
 10
1000.750971
 20
1441.2
 30
0.0
 11
0.0000000000000003
 21
5.0928871968700005
 31
0.0
210
0.0
220
0.0
230
1.0
 40
0.93641
 41
0.0
 42
6.2831853071796004
  0
LINE
  5
190
100
AcDbEntity
  8
化粧台
  6
EXLTYPE3
 62
     6
100
AcDbLine
 10
920.0
 20
2033.5
 30
0.0
 11
920.0
 21
977.5
 31
0.0
  0
CIRCLE
  5
191
100
AcDbEntity
  8
化粧台
  6
CONTINUOUS
 62
     2
100
AcDbCircle
 10
677.0
 20
1637.5
 30
0.0
 40
5.0
  0
CIRCLE
  5
192
100
AcDbEntity
  8
化粧台
  6
CONTINUOUS
 62
     2
100
AcDbCircle
 10
1163.0
 20
1637.5
 30
0.0
 40
5.0
  0
LINE
  5
193
100
AcDbEntity
  8
化粧台
  6
CONTINUOUS
 62
     6
100
AcDbLine
 10
903.25
 20
1524.5
 30
0.0
 11
903.25
 21
1475.274886
 31
0.0
  0
LINE
  5
194
100
AcDbEntity
  8
化粧台
  6
CONTINUOUS
 62
     6
100
AcDbLine
 10
936.75
 20
1524.5
 30
0.0
 11
936.75
 21
1475.274886
 31
0.0
  0
LINE
  5
195
100
AcDbEntity
  8
化粧台
  6
CONTINUOUS
 62
     6
100
AcDbLine
 10
936.75
 20
1475.274886
 30
0.0
 11
936.0
 21
1474.524886
 31
0.0
  0
LINE
  5
196
100
AcDbEntity
  8
化粧台
  6
CONTINUOUS
 62
     6
100
AcDbLine
 10
903.25
 20
1475.274886
 30
0.0
 11
904.0
 21
1474.524886
 31
0.0
  0
LINE
  5
197
100
AcDbEntity
  8
化粧台
  6
CONTINUOUS
 62
     6
100
AcDbLine
 10
904.0
 20
1474.899886
 30
0.0
 11
936.0
 21
1474.899886
 31
0.0
  0
ELLIPSE
  5
198
100
AcDbEntity
  8
化粧台
  6
CONTINUOUS
 62
     6
100
AcDbEllipse
 10
930.75
 20
1530.5
 30
0.0
 11
9.236476601000053
 21
0.0
 31
0.0
210
0.0
220
0.0
230
1.0
 40
0.649598
 41
0.0
 42
6.2831853071796004
  0
LINE
  5
199
100
AcDbEntity
  8
化粧台
  6
CONTINUOUS
 62
     6
100
AcDbLine
 10
941.5
 20
1536.5
 30
0.0
 11
941.5
 21
1524.5
 31
0.0
  0
ELLIPSE
  5
19A
100
AcDbEntity
  8
化粧台
  6
CONTINUOUS
 62
     6
100
AcDbEllipse
 10
909.25
 20
1530.5
 30
0.0
 11
9.236476601000053
 21
0.0
 31
0.0
210
0.0
220
0.0
230
1.0
 40
0.649598
 41
0.0
 42
6.2831853071796004
  0
LINE
  5
19B
100
AcDbEntity
  8
化粧台
  6
CONTINUOUS
 62
     6
100
AcDbLine
 10
898.5
 20
1536.5
 30
0.0
 11
898.5
 21
1524.5
 31
0.0
  0
LINE
  5
19C
100
AcDbEntity
  8
化粧台
  6
CONTINUOUS
 62
     6
100
AcDbLine
 10
898.5
 20
1524.5
 30
0.0
 11
941.5
 21
1524.5
 31
0.0
  0
LINE
  5
19D
100
AcDbEntity
  8
化粧台
  6
CONTINUOUS
 62
     6
100
AcDbLine
 10
898.5
 20
1536.5
 30
0.0
 11
941.5
 21
1536.5
 31
0.0
  0
LINE
  5
19E
100
AcDbEntity
  8
化粧台
  6
CONTINUOUS
 62
     6
100
AcDbLine
 10
941.5
 20
1453.5
 30
0.0
 11
941.5
 21
1441.5
 31
0.0
  0
LINE
  5
19F
100
AcDbEntity
  8
化粧台
  6
CONTINUOUS
 62
     6
100
AcDbLine
 10
898.5
 20
1453.5
 30
0.0
 11
898.5
 21
1441.5
 31
0.0
  0
ELLIPSE
  5
1A0
100
AcDbEntity
  8
化粧台
  6
CONTINUOUS
 62
     6
100
AcDbEllipse
 10
909.25
 20
1447.5
 30
0.0
 11
9.236476601000053
 21
0.0
 31
0.0
210
0.0
220
0.0
230
1.0
 40
0.649598
 41
2.1753544304349859
 42
4.107830876744603
  0
ELLIPSE
  5
1A1
100
AcDbEntity
  8
化粧台
  6
CONTINUOUS
 62
     6
100
AcDbEllipse
 10
930.75
 20
1447.5
 30
0.0
 11
9.236476601000053
 21
0.0
 31
0.0
210
0.0
220
0.0
230
1.0
 40
0.649598
 41
5.3169470840248341
 42
0.9662382231547565
  0
LINE
  5
1A2
100
AcDbEntity
  8
化粧台
  6
CONTINUOUS
 62
     6
100
AcDbLine
 10
898.5
 20
1453.5
 30
0.0
 11
904.0
 21
1453.5
 31
0.0
  0
LINE
  5
1A3
100
AcDbEntity
  8
化粧台
  6
CONTINUOUS
 62
     6
100
AcDbLine
 10
898.5
 20
1441.5
 30
0.0
 11
904.0
 21
1441.5
 31
0.0
  0
LINE
  5
1A4
100
AcDbEntity
  8
化粧台
  6
CONTINUOUS
 62
     6
100
AcDbLine
 10
936.0
 20
1441.5
 30
0.0
 11
941.5
 21
1441.5
 31
0.0
  0
LINE
  5
1A5
100
AcDbEntity
  8
化粧台
  6
CONTINUOUS
 62
     6
100
AcDbLine
 10
936.0
 20
1453.5
 30
0.0
 11
941.5
 21
1453.5
 31
0.0
  0
ARC
  5
1A6
100
AcDbEntity
  8
化粧台
  6
CONTINUOUS
 62
     6
100
AcDbCircle
 10
920.0
 20
1492.5
 30
0.0
 40
33.0
100
AcDbArc
 50
120.502487
 51
240.997454
  0
ARC
  5
1A7
100
AcDbEntity
  8
化粧台
  6
CONTINUOUS
 62
     6
100
AcDbCircle
 10
920.0
 20
1492.5
 30
0.0
 40
33.0
100
AcDbArc
 50
299.002546
 51
59.497513
  0
LINE
  5
1A8
100
AcDbEntity
  8
化粧台
  6
CONTINUOUS
 62
     6
100
AcDbLine
 10
904.0
 20
1474.899886
 30
0.0
 11
904.0
 21
1400.5
 31
0.0
  0
LINE
  5
1A9
100
AcDbEntity
  8
化粧台
  6
CONTINUOUS
 62
     6
100
AcDbLine
 10
936.0
 20
1474.899886
 30
0.0
 11
936.0
 21
1400.5
 31
0.0
  0
ARC
  5
1AA
100
AcDbEntity
  8
化粧台
  6
CONTINUOUS
 62
     6
100
AcDbCircle
 10
920.0
 20
1400.5
 30
0.0
 40
16.0
100
AcDbArc
 50
180.0
 51
0.0
  0
LINE
  5
1AB
100
AcDbEntity
  8
化粧台
  6
CONTINUOUS
 62
     6
100
AcDbLine
 10
963.0
 20
1492.5
 30
0.0
 11
877.0
 21
1492.5
 31
0.0
  0
LINE
  5
1AC
100
AcDbEntity
  8
化粧台
  6
CONTINUOUS
 62
     6
100
AcDbLine
 10
858.0
 20
1406.663691
 30
0.0
 11
858.0
 21
1418.336309
 31
0.0
  0
LINE
  5
1AD
100
AcDbEntity
  8
化粧台
  6
CONTINUOUS
 62
     6
100
AcDbLine
 10
856.554392
 20
1420.840176
 30
0.0
 11
846.445608
 21
1426.676485
 31
0.0
  0
LINE
  5
1AE
100
AcDbEntity
  8
化粧台
  6
CONTINUOUS
 62
     6
100
AcDbLine
 10
843.554392
 20
1426.676485
 30
0.0
 11
833.445608
 21
1420.840176
 31
0.0
  0
LINE
  5
1AF
100
AcDbEntity
  8
化粧台
  6
CONTINUOUS
 62
     6
100
AcDbLine
 10
832.0
 20
1418.336309
 30
0.0
 11
832.0
 21
1406.663691
 31
0.0
  0
LINE
  5
1B0
100
AcDbEntity
  8
化粧台
  6
CONTINUOUS
 62
     6
100
AcDbLine
 10
833.445608
 20
1404.159824
 30
0.0
 11
843.554392
 21
1398.323515
 31
0.0
  0
LINE
  5
1B1
100
AcDbEntity
  8
化粧台
  6
CONTINUOUS
 62
     6
100
AcDbLine
 10
846.445608
 20
1398.323515
 30
0.0
 11
856.554392
 21
1404.159824
 31
0.0
  0
ARC
  5
1B2
100
AcDbEntity
  8
化粧台
  6
CONTINUOUS
 62
     6
100
AcDbCircle
 10
845.0
 20
1412.5
 30
0.0
 40
14.25
100
AcDbArc
 50
264.177545
 51
275.822455
  0
ARC
  5
1B3
100
AcDbEntity
  8
化粧台
  6
CONTINUOUS
 62
     6
100
AcDbCircle
 10
845.0
 20
1412.5
 30
0.0
 40
14.25
100
AcDbArc
 50
324.177545
 51
335.822455
  0
ARC
  5
1B4
100
AcDbEntity
  8
化粧台
  6
CONTINUOUS
 62
     6
100
AcDbCircle
 10
845.0
 20
1412.5
 30
0.0
 40
14.25
100
AcDbArc
 50
24.177545
 51
35.822455
  0
ARC
  5
1B5
100
AcDbEntity
  8
化粧台
  6
CONTINUOUS
 62
     6
100
AcDbCircle
 10
845.0
 20
1412.5
 30
0.0
 40
14.25
100
AcDbArc
 50
84.177545
 51
95.822455
  0
ARC
  5
1B6
100
AcDbEntity
  8
化粧台
  6
CONTINUOUS
 62
     6
100
AcDbCircle
 10
845.0
 20
1412.5
 30
0.0
 40
14.25
100
AcDbArc
 50
144.177545
 51
155.822455
  0
ARC
  5
1B7
100
AcDbEntity
  8
化粧台
  6
CONTINUOUS
 62
     6
100
AcDbCircle
 10
845.0
 20
1412.5
 30
0.0
 40
14.25
100
AcDbArc
 50
204.177545
 51
215.822455
  0
CIRCLE
  5
1B8
100
AcDbEntity
  8
化粧台
  6
CONTINUOUS
 62
     6
100
AcDbCircle
 10
845.0
 20
1412.5
 30
0.0
 40
4.75
  0
CIRCLE
  5
1B9
100
AcDbEntity
  8
化粧台
  6
CONTINUOUS
 62
     6
100
AcDbCircle
 10
845.0
 20
1412.5
 30
0.0
 40
12.074349
  0
LINE
  5
1BA
100
AcDbEntity
  8
化粧台
  6
CONTINUOUS
 62
     6
100
AcDbLine
 10
855.5
 20
1435.2
 30
0.0
 11
855.5
 21
1421.448929
 31
0.0
  0
LINE
  5
1BB
100
AcDbEntity
  8
化粧台
  6
CONTINUOUS
 62
     6
100
AcDbLine
 10
834.5
 20
1435.2
 30
0.0
 11
834.5
 21
1421.448929
 31
0.0
  0
LINE
  5
1BC
100
AcDbEntity
  8
化粧台
  6
CONTINUOUS
 62
     6
100
AcDbLine
 10
815.0
 20
1412.5
 30
0.0
 11
875.0
 21
1412.5
 31
0.0
  0
LINE
  5
1BD
100
AcDbEntity
  8
化粧台
  6
CONTINUOUS
 62
     6
100
AcDbLine
 10
845.0
 20
1442.5
 30
0.0
 11
845.0
 21
1382.5
 31
0.0
  0
LINE
  5
1BE
100
AcDbEntity
  8
化粧台
  6
CONTINUOUS
 62
     6
100
AcDbLine
 10
1008.0
 20
1406.663691
 30
0.0
 11
1008.0
 21
1418.336309
 31
0.0
  0
LINE
  5
1BF
100
AcDbEntity
  8
化粧台
  6
CONTINUOUS
 62
     6
100
AcDbLine
 10
1006.554392
 20
1420.840176
 30
0.0
 11
996.445608
 21
1426.676485
 31
0.0
  0
LINE
  5
1C0
100
AcDbEntity
  8
化粧台
  6
CONTINUOUS
 62
     6
100
AcDbLine
 10
993.554392
 20
1426.676485
 30
0.0
 11
983.445608
 21
1420.840176
 31
0.0
  0
LINE
  5
1C1
100
AcDbEntity
  8
化粧台
  6
CONTINUOUS
 62
     6
100
AcDbLine
 10
982.0
 20
1418.336309
 30
0.0
 11
982.0
 21
1406.663691
 31
0.0
  0
LINE
  5
1C2
100
AcDbEntity
  8
化粧台
  6
CONTINUOUS
 62
     6
100
AcDbLine
 10
983.445608
 20
1404.159824
 30
0.0
 11
993.554392
 21
1398.323515
 31
0.0
  0
LINE
  5
1C3
100
AcDbEntity
  8
化粧台
  6
CONTINUOUS
 62
     6
100
AcDbLine
 10
996.445608
 20
1398.323515
 30
0.0
 11
1006.554392
 21
1404.159824
 31
0.0
  0
ARC
  5
1C4
100
AcDbEntity
  8
化粧台
  6
CONTINUOUS
 62
     6
100
AcDbCircle
 10
995.0
 20
1412.5
 30
0.0
 40
14.25
100
AcDbArc
 50
264.177545
 51
275.822455
  0
ARC
  5
1C5
100
AcDbEntity
  8
化粧台
  6
CONTINUOUS
 62
     6
100
AcDbCircle
 10
995.0
 20
1412.5
 30
0.0
 40
14.25
100
AcDbArc
 50
324.177545
 51
335.822455
  0
ARC
  5
1C6
100
AcDbEntity
  8
化粧台
  6
CONTINUOUS
 62
     6
100
AcDbCircle
 10
995.0
 20
1412.5
 30
0.0
 40
14.25
100
AcDbArc
 50
24.177545
 51
35.822455
  0
ARC
  5
1C7
100
AcDbEntity
  8
化粧台
  6
CONTINUOUS
 62
     6
100
AcDbCircle
 10
995.0
 20
1412.5
 30
0.0
 40
14.25
100
AcDbArc
 50
84.177545
 51
95.822455
  0
ARC
  5
1C8
100
AcDbEntity
  8
化粧台
  6
CONTINUOUS
 62
     6
100
AcDbCircle
 10
995.0
 20
1412.5
 30
0.0
 40
14.25
100
AcDbArc
 50
144.177545
 51
155.822455
  0
ARC
  5
1C9
100
AcDbEntity
  8
化粧台
  6
CONTINUOUS
 62
     6
100
AcDbCircle
 10
995.0
 20
1412.5
 30
0.0
 40
14.25
100
AcDbArc
 50
204.177545
 51
215.822455
  0
CIRCLE
  5
1CA
100
AcDbEntity
  8
化粧台
  6
CONTINUOUS
 62
     6
100
AcDbCircle
 10
995.0
 20
1412.5
 30
0.0
 40
4.75
  0
CIRCLE
  5
1CB
100
AcDbEntity
  8
化粧台
  6
CONTINUOUS
 62
     6
100
AcDbCircle
 10
995.0
 20
1412.5
 30
0.0
 40
12.074349
  0
LINE
  5
1CC
100
AcDbEntity
  8
化粧台
  6
CONTINUOUS
 62
     6
100
AcDbLine
 10
1005.5
 20
1435.2
 30
0.0
 11
1005.5
 21
1421.448929
 31
0.0
  0
LINE
  5
1CD
100
AcDbEntity
  8
化粧台
  6
CONTINUOUS
 62
     6
100
AcDbLine
 10
984.5
 20
1435.2
 30
0.0
 11
984.5
 21
1421.448929
 31
0.0
  0
LINE
  5
1CE
100
AcDbEntity
  8
化粧台
  6
CONTINUOUS
 62
     6
100
AcDbLine
 10
965.0
 20
1412.5
 30
0.0
 11
1025.0
 21
1412.5
 31
0.0
  0
LINE
  5
1CF
100
AcDbEntity
  8
化粧台
  6
CONTINUOUS
 62
     6
100
AcDbLine
 10
995.0
 20
1442.5
 30
0.0
 11
995.0
 21
1382.5
 31
0.0
  0
ARC
  5
1D0
100
AcDbEntity
  8
化粧台
  6
CONTINUOUS
 62
     6
100
AcDbCircle
 10
845.0
 20
1412.5
 30
0.0
 40
27.5
100
AcDbArc
 50
114.719851
 51
65.280149
  0
ARC
  5
1D1
100
AcDbEntity
  8
化粧台
  6
CONTINUOUS
 62
     6
100
AcDbCircle
 10
995.0
 20
1412.5
 30
0.0
 40
27.5
100
AcDbArc
 50
114.719851
 51
65.280149
  0
LINE
  5
1D2
100
AcDbEntity
  8
化粧台
  6
CONTINUOUS
 62
     6
100
AcDbLine
 10
904.0
 20
987.5
 30
0.0
 11
936.0
 21
987.5
 31
0.0
  0
LINE
  5
1D3
100
AcDbEntity
  8
化粧台
  6
EXLTYPE4
 62
     6
100
AcDbLine
 10
936.0
 20
1217.5
 30
0.0
 11
936.0
 21
987.5
 31
0.0
  0
LINE
  5
1D4
100
AcDbEntity
  8
化粧台
  6
EXLTYPE4
 62
     6
100
AcDbLine
 10
904.0
 20
1217.5
 30
0.0
 11
904.0
 21
987.5
 31
0.0
  0
LINE
  5
1D5
100
AcDbEntity
  8
化粧台
  6
CONTINUOUS
 62
     6
100
AcDbLine
 10
1005.5
 20
1009.5
 30
0.0
 11
984.5
 21
1009.5
 31
0.0
  0
LINE
  5
1D6
100
AcDbEntity
  8
化粧台
  6
EXLTYPE3
 62
     6
100
AcDbLine
 10
995.0
 20
1227.5
 30
0.0
 11
995.0
 21
999.5
 31
0.0
  0
LINE
  5
1D7
100
AcDbEntity
  8
化粧台
  6
EXLTYPE4
 62
     6
100
AcDbLine
 10
984.5
 20
1217.5
 30
0.0
 11
984.5
 21
1009.5
 31
0.0
  0
LINE
  5
1D8
100
AcDbEntity
  8
化粧台
  6
EXLTYPE4
 62
     6
100
AcDbLine
 10
1005.5
 20
1217.5
 30
0.0
 11
1005.5
 21
1009.5
 31
0.0
  0
LINE
  5
1D9
100
AcDbEntity
  8
化粧台
  6
CONTINUOUS
 62
     6
100
AcDbLine
 10
834.5
 20
1009.5
 30
0.0
 11
855.5
 21
1009.5
 31
0.0
  0
LINE
  5
1DA
100
AcDbEntity
  8
化粧台
  6
EXLTYPE3
 62
     6
100
AcDbLine
 10
845.0
 20
1227.5
 30
0.0
 11
845.0
 21
999.5
 31
0.0
  0
LINE
  5
1DB
100
AcDbEntity
  8
化粧台
  6
EXLTYPE4
 62
     6
100
AcDbLine
 10
855.5
 20
1217.5
 30
0.0
 11
855.5
 21
1009.5
 31
0.0
  0
LINE
  5
1DC
100
AcDbEntity
  8
化粧台
  6
EXLTYPE4
 62
     6
100
AcDbLine
 10
834.5
 20
1217.5
 30
0.0
 11
834.5
 21
1009.5
 31
0.0
  0
LINE
  5
1DD
100
AcDbEntity
  8
化粧台
  6
CONTINUOUS
 62
     2
100
AcDbLine
 10
904.125
 20
1660.5
 30
0.0
 11
904.125
 21
1536.5
 31
0.0
  0
LINE
  5
1DE
100
AcDbEntity
  8
化粧台
  6
CONTINUOUS
 62
     2
100
AcDbLine
 10
935.875
 20
1660.5
 30
0.0
 11
935.875
 21
1536.5
 31
0.0
  0
TEXT
  5
1DF
100
AcDbEntity
  8
化粧台
  6
CONTINUOUS
 62
     2
100
AcDbText
 10
1821.5
 20
1017.5
 30
0.0
 40
60.0
  1
F.L.
 41
0.4125
  7
EXCADSTD
 72
     5
 11
1912.2434
 21
1017.5
 31
0.0
100
AcDbText
  0
LINE
  5
1E0
100
AcDbEntity
  8
化粧台
  6
CONTINUOUS
 62
     2
100
AcDbLine
 10
2420.0
 20
2767.5
 30
0.0
 11
2420.0
 21
2247.5
 31
0.0
  0
LINE
  5
1E1
100
AcDbEntity
  8
化粧台
  6
CONTINUOUS
 62
     2
100
AcDbLine
 10
2450.0
 20
2312.5
 30
0.0
 11
2450.0
 21
2252.5
 31
0.0
  0
LINE
  5
1E2
100
AcDbEntity
  8
化粧台
  6
CONTINUOUS
 62
     2
100
AcDbLine
 10
2419.0
 20
2766.5
 30
0.0
 11
2419.0
 21
2247.5
 31
0.0
  0
LINE
  5
1E3
100
AcDbEntity
  8
化粧台
  6
CONTINUOUS
 62
     2
100
AcDbLine
 10
2414.0
 20
2766.5
 30
0.0
 11
2419.0
 21
2766.5
 31
0.0
  0
LINE
  5
1E4
100
AcDbEntity
  8
化粧台
  6
CONTINUOUS
 62
     2
100
AcDbLine
 10
2432.8
 20
2768.7
 30
0.0
 11
2432.8
 21
2767.5
 31
0.0
  0
LINE
  5
1E5
100
AcDbEntity
  8
化粧台
  6
CONTINUOUS
 62
     2
100
AcDbLine
 10
2412.8
 20
2758.7
 30
0.0
 11
2414.0
 21
2758.7
 31
0.0
  0
LINE
  5
1E6
100
AcDbEntity
  8
化粧台
  6
CONTINUOUS
 62
     2
100
AcDbLine
 10
2412.8
 20
2768.7
 30
0.0
 11
2432.8
 21
2768.7
 31
0.0
  0
LINE
  5
1E7
100
AcDbEntity
  8
化粧台
  6
CONTINUOUS
 62
     2
100
AcDbLine
 10
2412.8
 20
2758.7
 30
0.0
 11
2412.8
 21
2768.7
 31
0.0
  0
LINE
  5
1E8
100
AcDbEntity
  8
化粧台
  6
CONTINUOUS
 62
     2
100
AcDbLine
 10
2414.0
 20
2767.5
 30
0.0
 11
2414.0
 21
2247.5
 31
0.0
  0
LINE
  5
1E9
100
AcDbEntity
  8
化粧台
  6
CONTINUOUS
 62
     2
100
AcDbLine
 10
2414.0
 20
2767.5
 30
0.0
 11
2437.5
 21
2767.5
 31
0.0
  0
LINE
  5
1EA
100
AcDbEntity
  8
化粧台
  6
CONTINUOUS
 62
     2
100
AcDbLine
 10
2412.8
 20
2256.3
 30
0.0
 11
2414.0
 21
2256.3
 31
0.0
  0
LINE
  5
1EB
100
AcDbEntity
  8
化粧台
  6
CONTINUOUS
 62
     2
100
AcDbLine
 10
2432.8
 20
2247.5
 30
0.0
 11
2432.8
 21
2246.3
 31
0.0
  0
LINE
  5
1EC
100
AcDbEntity
  8
化粧台
  6
CONTINUOUS
 62
     2
100
AcDbLine
 10
2412.8
 20
2246.3
 30
0.0
 11
2432.8
 21
2246.3
 31
0.0
  0
LINE
  5
1ED
100
AcDbEntity
  8
化粧台
  6
CONTINUOUS
 62
     2
100
AcDbLine
 10
2412.8
 20
2256.3
 30
0.0
 11
2412.8
 21
2246.3
 31
0.0
  0
LINE
  5
1EE
100
AcDbEntity
  8
化粧台
  6
CONTINUOUS
 62
     2
100
AcDbLine
 10
2414.0
 20
2247.5
 30
0.0
 11
2437.5
 21
2247.5
 31
0.0
  0
LINE
  5
1EF
100
AcDbEntity
  8
化粧台
  6
CONTINUOUS
 62
     2
100
AcDbLine
 10
2450.0
 20
2766.5
 30
0.0
 11
2450.0
 21
2692.480762
 31
0.0
  0
LINE
  5
1F0
100
AcDbEntity
  8
化粧台
  6
CONTINUOUS
 62
     2
100
AcDbLine
 10
2450.0
 20
2766.5
 30
0.0
 11
2437.5
 21
2766.5
 31
0.0
  0
LINE
  5
1F1
100
AcDbEntity
  8
化粧台
  6
CONTINUOUS
 62
     2
100
AcDbLine
 10
2450.0
 20
2716.5
 30
0.0
 11
2437.5
 21
2738.150635
 31
0.0
  0
LINE
  5
1F2
100
AcDbEntity
  8
化粧台
  6
CONTINUOUS
 62
     2
100
AcDbLine
 10
2437.5
 20
2692.480762
 30
0.0
 11
2450.0
 21
2692.480762
 31
0.0
  0
LINE
  5
1F3
100
AcDbEntity
  8
化粧台
  6
CONTINUOUS
 62
     2
100
AcDbLine
 10
2437.5
 20
2767.5
 30
0.0
 11
2437.5
 21
2247.5
 31
0.0
  0
LINE
  5
1F4
100
AcDbEntity
  8
化粧台
  6
CONTINUOUS
 62
     2
100
AcDbLine
 10
2450.0
 20
2312.5
 30
0.0
 11
2437.5
 21
2312.5
 31
0.0
  0
LINE
  5
1F5
100
AcDbEntity
  8
化粧台
  6
CONTINUOUS
 62
     2
100
AcDbLine
 10
2450.0
 20
2282.5
 30
0.0
 11
2437.5
 21
2282.5
 31
0.0
  0
LINE
  5
1F6
100
AcDbEntity
  8
化粧台
  6
CONTINUOUS
 62
     2
100
AcDbLine
 10
2450.0
 20
2252.5
 30
0.0
 11
2437.5
 21
2252.5
 31
0.0
  0
LINE
  5
1F7
100
AcDbEntity
  8
化粧台
  6
CONTINUOUS
 62
     6
100
AcDbLine
 10
2437.8
 20
2252.5
 30
0.0
 11
2447.2
 21
2252.5
 31
0.0
  0
ARC
  5
1F8
100
AcDbEntity
  8
化粧台
  6
CONTINUOUS
 62
     6
100
AcDbCircle
 10
2442.5
 20
2255.668
 30
0.0
 40
5.668
100
AcDbArc
 50
213.981647
 51
326.018353
  0
LINE
  5
1F9
100
AcDbEntity
  8
化粧台
  6
CONTINUOUS
 62
     6
100
AcDbLine
 10
2450.0
 20
2709.480762
 30
0.0
 11
2482.5
 21
2707.480762
 31
0.0
  0
LINE
  5
1FA
100
AcDbEntity
  8
化粧台
  6
CONTINUOUS
 62
     6
100
AcDbLine
 10
2482.5
 20
2707.480762
 30
0.0
 11
2450.0
 21
2705.480762
 31
0.0
  0
LINE
  5
1FB
100
AcDbEntity
  8
化粧台
  6
CONTINUOUS
 62
     6
100
AcDbLine
 10
2435.0
 20
2707.480762
 30
0.0
 11
2492.5
 21
2707.480762
 31
0.0
  0
LINE
  5
1FC
100
AcDbEntity
  8
化粧台
  6
CONTINUOUS
 62
     6
100
AcDbLine
 10
2450.0
 20
2269.5
 30
0.0
 11
2482.5
 21
2267.5
 31
0.0
  0
LINE
  5
1FD
100
AcDbEntity
  8
化粧台
  6
CONTINUOUS
 62
     6
100
AcDbLine
 10
2482.5
 20
2267.5
 30
0.0
 11
2450.0
 21
2265.5
 31
0.0
  0
LINE
  5
1FE
100
AcDbEntity
  8
化粧台
  6
CONTINUOUS
 62
     6
100
AcDbLine
 10
2435.0
 20
2267.5
 30
0.0
 11
2492.5
 21
2267.5
 31
0.0
  0
LINE
  5
1FF
100
AcDbEntity
  8
化粧台
  6
EXLTYPE4
 62
     6
100
AcDbLine
 10
2450.0
 20
1017.5
 30
0.0
 11
2450.0
 21
3056.5
 31
0.0
  0
TEXT
  5
200
100
AcDbEntity
  8
化粧台
  6
CONTINUOUS
 62
     2
100
AcDbText
 10
2450.0
 20
2957.500001
 30
0.0
 40
60.0
  1
W.L.
 50
90.0
 41
0.4125
  7
EXCADSTD
 72
     5
 11
2450.0
 21
3048.2434
 31
0.0
100
AcDbText
  0
LINE
  5
201
100
AcDbEntity
  8
化粧台
  6
CONTINUOUS
 62
     2
100
AcDbLine
 10
2450.0
 20
1717.5
 30
0.0
 11
2450.0
 21
1017.5
 31
0.0
  0
LINE
  5
202
100
AcDbEntity
  8
化粧台
  6
CONTINUOUS
 62
     6
100
AcDbLine
 10
2449.4
 20
1639.5
 30
0.0
 11
2481.9
 21
1637.5
 31
0.0
  0
LINE
  5
203
100
AcDbEntity
  8
化粧台
  6
CONTINUOUS
 62
     6
100
AcDbLine
 10
2481.9
 20
1637.5
 30
0.0
 11
2449.4
 21
1635.5
 31
0.0
  0
LINE
  5
204
100
AcDbEntity
  8
化粧台
  6
CONTINUOUS
 62
     6
100
AcDbLine
 10
2417.5
 20
1637.5
 30
0.0
 11
2491.9
 21
1637.5
 31
0.0
  0
LINE
  5
205
100
AcDbEntity
  8
化粧台
  6
CONTINUOUS
 62
     2
100
AcDbLine
 10
2320.5
 20
2023.883863
 30
0.0
 11
2361.5
 21
2023.883863
 31
0.0
  0
LINE
  5
206
100
AcDbEntity
  8
化粧台
  6
CONTINUOUS
 62
     2
100
AcDbLine
 10
2320.5
 20
2001.383863
 30
0.0
 11
2361.5
 21
2001.383863
 31
0.0
  0
LINE
  5
207
100
AcDbEntity
  8
化粧台
  6
CONTINUOUS
 62
     2
100
AcDbLine
 10
2320.5
 20
2003.883863
 30
0.0
 11
2361.5
 21
2003.883863
 31
0.0
  0
LINE
  5
208
100
AcDbEntity
  8
化粧台
  6
CONTINUOUS
 62
     2
100
AcDbLine
 10
2217.84323
 20
1949.687428
 30
0.0
 11
2234.15677
 21
1942.080299
 31
0.0
  0
LINE
  5
209
100
AcDbEntity
  8
化粧台
  6
CONTINUOUS
 62
     2
100
AcDbLine
 10
2270.5
 20
2020.883863
 30
0.0
 11
2270.5
 21
2012.883863
 31
0.0
  0
LINE
  5
20A
100
AcDbEntity
  8
化粧台
  6
CONTINUOUS
 62
     2
100
AcDbLine
 10
2270.5
 20
2020.883863
 30
0.0
 11
2320.5
 21
2020.883863
 31
0.0
  0
LINE
  5
20B
100
AcDbEntity
  8
化粧台
  6
CONTINUOUS
 62
     2
100
AcDbLine
 10
2270.5
 20
2012.883863
 30
0.0
 11
2320.5
 21
2012.883863
 31
0.0
  0
LINE
  5
20C
100
AcDbEntity
  8
化粧台
  6
CONTINUOUS
 62
     2
100
AcDbLine
 10
2320.5
 20
2023.883863
 30
0.0
 11
2320.5
 21
2020.883863
 31
0.0
  0
LINE
  5
20D
100
AcDbEntity
  8
化粧台
  6
CONTINUOUS
 62
     2
100
AcDbLine
 10
2217.145937
 20
1979.959406
 30
0.0
 11
2210.67546
 21
1955.81126
 31
0.0
  0
LINE
  5
20E
100
AcDbEntity
  8
化粧台
  6
CONTINUOUS
 62
     2
100
AcDbLine
 10
2217.84323
 20
1949.687428
 30
0.0
 11
2219.585535
 21
1953.423813
 31
0.0
  0
LINE
  5
20F
100
AcDbEntity
  8
化粧台
  6
CONTINUOUS
 62
     2
100
AcDbLine
 10
2234.15677
 20
1942.080299
 30
0.0
 11
2237.240417
 21
1948.693201
 31
0.0
  0
LINE
  5
210
100
AcDbEntity
  8
化粧台
  6
CONTINUOUS
 62
     2
100
AcDbLine
 10
2320.5
 20
1952.265768
 30
0.0
 11
2217.145937
 21
1979.959406
 31
0.0
  0
ELLIPSE
  5
211
100
AcDbEntity
  8
化粧台
  6
CONTINUOUS
 62
     2
100
AcDbEllipse
 10
2228.412976
 20
1951.058507
 30
0.0
 11
8.8274411020900203
 21
-2.3653057145399923
 31
0.0
210
0.0
220
0.0
230
1.0
 40
0.200808
 41
6.212399125644338
 42
3.1415926535903882
  0
LINE
  5
212
100
AcDbEntity
  8
化粧台
  6
CONTINUOUS
 62
     2
100
AcDbLine
 10
2320.5
 20
1926.383863
 30
0.0
 11
2237.240417
 21
1948.693201
 31
0.0
  0
LINE
  5
213
100
AcDbEntity
  8
化粧台
  6
CONTINUOUS
 62
     2
100
AcDbLine
 10
2219.585535
 20
1953.423813
 30
0.0
 11
2210.67546
 21
1955.81126
 31
0.0
  0
ELLIPSE
  5
214
100
AcDbEntity
  8
化粧台
  6
CONTINUOUS
 62
     6
100
AcDbEllipse
 10
2320.5
 20
2016.883863
 30
0.0
 11
-0.0000000000000024
 21
4.0
 31
0.0
210
0.0
220
0.0
230
1.0
 40
0.098508
 41
3.1415926535897922
 42
0.0
  0
ELLIPSE
  5
215
100
AcDbEntity
  8
化粧台
  6
CONTINUOUS
 62
     6
100
AcDbEllipse
 10
2320.5
 20
1939.324815
 30
0.0
 11
-0.0000000000000078
 21
12.940952255124991
 31
0.0
210
0.0
220
0.0
230
1.0
 40
0.328563
 41
2.9659688657465395
 42
0.0
  0
LINE
  5
216
100
AcDbEntity
  8
化粧台
  6
CONTINUOUS
 62
     2
100
AcDbLine
 10
2320.5
 20
2012.883863
 30
0.0
 11
2320.5
 21
1952.265768
 31
0.0
  0
LINE
  5
217
100
AcDbEntity
  8
化粧台
  6
CONTINUOUS
 62
     2
100
AcDbLine
 10
2389.168497
 20
1975.734818
 30
0.0
 11
2388.333459
 21
1969.79321
 31
0.0
  0
LINE
  5
218
100
AcDbEntity
  8
化粧台
  6
CONTINUOUS
 62
     2
100
AcDbLine
 10
2389.168497
 20
1975.734818
 30
0.0
 11
2372.33394
 21
1978.100761
 31
0.0
  0
LINE
  5
219
100
AcDbEntity
  8
化粧台
  6
CONTINUOUS
 62
     2
100
AcDbLine
 10
2371.498902
 20
1972.159152
 30
0.0
 11
2388.333459
 21
1969.79321
 31
0.0
  0
ARC
  5
21A
100
AcDbEntity
  8
化粧台
  6
CONTINUOUS
 62
     2
100
AcDbCircle
 10
2371.220555
 20
1970.178616
 30
0.0
 40
8.0
100
AcDbArc
 50
82.0
 51
172.0
  0
ARC
  5
21B
100
AcDbEntity
  8
化粧台
  6
CONTINUOUS
 62
     2
100
AcDbCircle
 10
2371.220555
 20
1970.178616
 30
0.0
 40
2.0
100
AcDbArc
 50
82.0
 51
172.0
  0
LINE
  5
21C
100
AcDbEntity
  8
化粧台
  6
CONTINUOUS
 62
     2
100
AcDbLine
 10
2363.298411
 20
1971.292001
 30
0.0
 11
2361.5
 21
1958.495642
 31
0.0
  0
LINE
  5
21D
100
AcDbEntity
  8
化粧台
  6
CONTINUOUS
 62
     2
100
AcDbLine
 10
2361.5
 20
1915.383863
 30
0.0
 11
2369.240019
 21
1970.456962
 31
0.0
  0
LINE
  5
21E
100
AcDbEntity
  8
化粧台
  6
EXLTYPE3
 62
     6
100
AcDbLine
 10
2341.0
 20
2038.5
 30
0.0
 11
2341.0
 21
1863.5
 31
0.0
  0
LINE
  5
21F
100
AcDbEntity
  8
化粧台
  6
CONTINUOUS
 62
     2
100
AcDbLine
 10
1974.886393
 20
1877.498709
 30
0.0
 11
2414.886393
 21
1887.498709
 31
0.0
  0
ARC
  5
220
100
AcDbEntity
  8
化粧台
  6
CONTINUOUS
 62
     2
100
AcDbCircle
 10
1975.0
 20
1872.5
 30
0.0
 40
5.0
100
AcDbArc
 50
91.301953
 51
214.381811
  0
ARC
  5
221
100
AcDbEntity
  8
化粧台
  6
CONTINUOUS
 62
     2
100
AcDbCircle
 10
2415.0
 20
1882.5
 30
0.0
 40
5.0
100
AcDbArc
 50
357.493195
 51
91.301953
  0
LINE
  5
222
100
AcDbEntity
  8
化粧台
  6
CONTINUOUS
 62
     2
100
AcDbLine
 10
2361.5
 20
2023.883863
 30
0.0
 11
2361.5
 21
1886.285382
 31
0.0
  0
LINE
  5
223
100
AcDbEntity
  8
化粧台
  6
CONTINUOUS
 62
     2
100
AcDbLine
 10
2320.5
 20
1926.383863
 30
0.0
 11
2320.5
 21
1885.353564
 31
0.0
  0
LINE
  5
224
100
AcDbEntity
  8
化粧台
  6
CONTINUOUS
 62
     2
100
AcDbLine
 10
2419.995215
 20
1882.28131
 30
0.0
 11
2413.00257
 21
1717.5
 31
0.0
  0
LINE
  5
225
100
AcDbEntity
  8
化粧台
  6
CONTINUOUS
 62
     2
100
AcDbLine
 10
1970.873536
 20
1869.676475
 30
0.0
 11
2075.0
 21
1717.5
 31
0.0
  0
LINE
  5
226
100
AcDbEntity
  8
化粧台
  6
EXLTYPE2
 62
     6
100
AcDbLine
 10
2308.325036
 20
1580.136114
 30
0.0
 11
2314.266644
 21
1579.301075
 31
0.0
  0
LINE
  5
227
100
AcDbEntity
  8
化粧台
  6
EXLTYPE2
 62
     6
100
AcDbLine
 10
2387.0
 20
1682.5
 30
0.0
 11
2387.0
 21
1676.5
 31
0.0
  0
LINE
  5
228
100
AcDbEntity
  8
化粧台
  6
EXLTYPE2
 62
     6
100
AcDbLine
 10
2247.5
 20
1691.5
 30
0.0
 11
2247.5
 21
1667.5
 31
0.0
  0
LINE
  5
229
100
AcDbEntity
  8
化粧台
  6
EXLTYPE2
 62
     6
100
AcDbLine
 10
2254.0
 20
1691.5
 30
0.0
 11
2254.0
 21
1667.5
 31
0.0
  0
LINE
  5
22A
100
AcDbEntity
  8
化粧台
  6
EXLTYPE2
 62
     6
100
AcDbLine
 10
2242.5
 20
1690.0
 30
0.0
 11
2234.0
 21
1690.0
 31
0.0
  0
LINE
  5
22B
100
AcDbEntity
  8
化粧台
  6
EXLTYPE2
 62
     6
100
AcDbLine
 10
2266.0
 20
1687.5
 30
0.0
 11
2266.0
 21
1671.5
 31
0.0
  0
LINE
  5
22C
100
AcDbEntity
  8
化粧台
  6
EXLTYPE2
 62
     6
100
AcDbLine
 10
2242.5
 20
1691.0
 30
0.0
 11
2242.5
 21
1668.0
 31
0.0
  0
LINE
  5
22D
100
AcDbEntity
  8
化粧台
  6
EXLTYPE2
 62
     6
100
AcDbLine
 10
2254.0
 20
1691.5
 30
0.0
 11
2247.5
 21
1691.5
 31
0.0
  0
ARC
  5
22E
100
AcDbEntity
  8
化粧台
  6
EXLTYPE2
 62
     6
100
AcDbCircle
 10
2263.0
 20
1687.5
 30
0.0
 40
3.0
100
AcDbArc
 50
0.0
 51
90.0
  0
LINE
  5
22F
100
AcDbEntity
  8
化粧台
  6
EXLTYPE2
 62
     6
100
AcDbLine
 10
2263.0
 20
1690.5
 30
0.0
 11
2254.0
 21
1690.5
 31
0.0
  0
LINE
  5
230
100
AcDbEntity
  8
化粧台
  6
EXLTYPE2
 62
     6
100
AcDbLine
 10
2234.0
 20
1690.0
 30
0.0
 11
2234.0
 21
1669.0
 31
0.0
  0
LINE
  5
231
100
AcDbEntity
  8
化粧台
  6
EXLTYPE2
 62
     6
100
AcDbLine
 10
2212.0
 20
1700.0
 30
0.0
 11
2212.0
 21
1692.6784
 31
0.0
  0
LINE
  5
232
100
AcDbEntity
  8
化粧台
  6
EXLTYPE2
 62
     6
100
AcDbLine
 10
2214.661264
 20
1689.697584
 30
0.0
 11
2234.0
 21
1687.5
 31
0.0
  0
ARC
  5
233
100
AcDbEntity
  8
化粧台
  6
EXLTYPE2
 62
     6
100
AcDbCircle
 10
2215.0
 20
1692.6784
 30
0.0
 40
3.0
100
AcDbArc
 50
180.0
 51
263.516926
  0
LINE
  5
234
100
AcDbEntity
  8
化粧台
  6
EXLTYPE2
 62
     6
100
AcDbLine
 10
2172.0
 20
1700.0
 30
0.0
 11
2172.0
 21
1662.5
 31
0.0
  0
ARC
  5
235
100
AcDbEntity
  8
化粧台
  6
EXLTYPE2
 62
     6
100
AcDbCircle
 10
2174.0
 20
1703.5
 30
0.0
 40
3.5
100
AcDbArc
 50
90.0
 51
270.0
  0
ARC
  5
236
100
AcDbEntity
  8
化粧台
  6
EXLTYPE2
 62
     6
100
AcDbCircle
 10
2210.0
 20
1703.5
 30
0.0
 40
3.5
100
AcDbArc
 50
270.0
 51
90.0
  0
LINE
  5
237
100
AcDbEntity
  8
化粧台
  6
EXLTYPE2
 62
     6
100
AcDbLine
 10
2210.0
 20
1707.0
 30
0.0
 11
2174.0
 21
1707.0
 31
0.0
  0
LINE
  5
238
100
AcDbEntity
  8
化粧台
  6
EXLTYPE2
 62
     6
100
AcDbLine
 10
2164.5
 20
1715.833333
 30
0.0
 11
2219.5
 21
1715.833333
 31
0.0
  0
LINE
  5
239
100
AcDbEntity
  8
化粧台
  6
EXLTYPE2
 62
     6
100
AcDbLine
 10
2166.0
 20
1715.833333
 30
0.0
 11
2218.0
 21
1715.833333
 31
0.0
  0
LINE
  5
23A
100
AcDbEntity
  8
化粧台
  6
EXLTYPE2
 62
     6
100
AcDbLine
 10
2209.5
 20
1707.333333
 30
0.0
 11
2209.5
 21
1707.0
 31
0.0
  0
LINE
  5
23B
100
AcDbEntity
  8
化粧台
  6
EXLTYPE2
 62
     6
100
AcDbLine
 10
2174.5
 20
1707.333333
 30
0.0
 11
2174.5
 21
1707.0
 31
0.0
  0
LINE
  5
23C
100
AcDbEntity
  8
化粧台
  6
EXLTYPE2
 62
     6
100
AcDbLine
 10
2247.5
 20
1691.0
 30
0.0
 11
2242.5
 21
1691.0
 31
0.0
  0
LINE
  5
23D
100
AcDbEntity
  8
化粧台
  6
EXLTYPE2
 62
     6
100
AcDbLine
 10
2212.0
 20
1700.0
 30
0.0
 11
2172.0
 21
1700.0
 31
0.0
  0
LINE
  5
23E
100
AcDbEntity
  8
化粧台
  6
EXLTYPE2
 62
     6
100
AcDbLine
 10
2218.0
 20
1714.333333
 30
0.0
 11
2218.0
 21
1715.833333
 31
0.0
  0
LINE
  5
23F
100
AcDbEntity
  8
化粧台
  6
EXLTYPE2
 62
     6
100
AcDbLine
 10
2166.0
 20
1714.333333
 30
0.0
 11
2166.0
 21
1715.833333
 31
0.0
  0
LINE
  5
240
100
AcDbEntity
  8
化粧台
  6
EXLTYPE2
 62
     6
100
AcDbLine
 10
2166.0
 20
1714.333333
 30
0.0
 11
2218.0
 21
1714.333333
 31
0.0
  0
LINE
  5
241
100
AcDbEntity
  8
化粧台
  6
EXLTYPE2
 62
     6
100
AcDbLine
 10
2171.032256
 20
1707.333333
 30
0.0
 11
2171.032256
 21
1714.333333
 31
0.0
  0
LINE
  5
242
100
AcDbEntity
  8
化粧台
  6
EXLTYPE2
 62
     6
100
AcDbLine
 10
2171.032256
 20
1707.333333
 30
0.0
 11
2212.967736
 21
1707.333333
 31
0.0
  0
LINE
  5
243
100
AcDbEntity
  8
化粧台
  6
EXLTYPE2
 62
     6
100
AcDbLine
 10
2212.967736
 20
1707.333333
 30
0.0
 11
2212.967736
 21
1714.333333
 31
0.0
  0
LINE
  5
244
100
AcDbEntity
  8
化粧台
  6
EXLTYPE2
 62
     6
100
AcDbLine
 10
2164.5
 20
1716.833333
 30
0.0
 11
2219.5
 21
1716.833333
 31
0.0
  0
LINE
  5
245
100
AcDbEntity
  8
化粧台
  6
EXLTYPE2
 62
     6
100
AcDbLine
 10
2181.93548
 20
1707.333333
 30
0.0
 11
2181.93548
 21
1714.333333
 31
0.0
  0
LINE
  5
246
100
AcDbEntity
  8
化粧台
  6
EXLTYPE2
 62
     6
100
AcDbLine
 10
2180.677416
 20
1707.333333
 30
0.0
 11
2180.677416
 21
1714.333333
 31
0.0
  0
LINE
  5
247
100
AcDbEntity
  8
化粧台
  6
EXLTYPE2
 62
     6
100
AcDbLine
 10
2202.064512
 20
1707.333333
 30
0.0
 11
2202.064512
 21
1714.333333
 31
0.0
  0
LINE
  5
248
100
AcDbEntity
  8
化粧台
  6
EXLTYPE2
 62
     6
100
AcDbLine
 10
2203.322576
 20
1707.333333
 30
0.0
 11
2203.322576
 21
1714.333333
 31
0.0
  0
POLYLINE
  5
249
100
AcDbEntity
  8
化粧台
  6
EXLTYPE2
 62
     6
100
AcDb2dPolyline
 66
     1
 10
0.0
 20
0.0
 30
0.0
 70
   128
  0
VERTEX
  5
24A
100
AcDbEntity
  8
化粧台
  6
EXLTYPE2
 62
     6
100
AcDbVertex
100
AcDb2dVertex
 10
2204.359798
 20
1703.500204
 30
0.0
  0
VERTEX
  5
24B
100
AcDbEntity
  8
化粧台
  6
EXLTYPE2
 62
     6
100
AcDbVertex
100
AcDb2dVertex
 10
2204.371936
 20
1703.2344
 30
0.0
  0
VERTEX
  5
24C
100
AcDbEntity
  8
化粧台
  6
EXLTYPE2
 62
     6
100
AcDbVertex
100
AcDb2dVertex
 10
2204.40673
 20
1702.976546
 30
0.0
  0
VERTEX
  5
24D
100
AcDbEntity
  8
化粧台
  6
EXLTYPE2
 62
     6
100
AcDbVertex
100
AcDb2dVertex
 10
2204.461282
 20
1702.73489
 30
0.0
  0
VERTEX
  5
24E
100
AcDbEntity
  8
化粧台
  6
EXLTYPE2
 62
     6
100
AcDbVertex
100
AcDb2dVertex
 10
2204.532054
 20
1702.5104
 30
0.0
  0
VERTEX
  5
24F
100
AcDbEntity
  8
化粧台
  6
EXLTYPE2
 62
     6
100
AcDbVertex
100
AcDb2dVertex
 10
2204.627754
 20
1702.27821
 30
0.0
  0
VERTEX
  5
250
100
AcDbEntity
  8
化粧台
  6
EXLTYPE2
 62
     6
100
AcDbVertex
100
AcDb2dVertex
 10
2204.736384
 20
1702.068298
 30
0.0
  0
VERTEX
  5
251
100
AcDbEntity
  8
化粧台
  6
EXLTYPE2
 62
     6
100
AcDbVertex
100
AcDb2dVertex
 10
2204.854228
 20
1701.880126
 30
0.0
  0
VERTEX
  5
252
100
AcDbEntity
  8
化粧台
  6
EXLTYPE2
 62
     6
100
AcDbVertex
100
AcDb2dVertex
 10
2205.0832
 20
1701.587612
 30
0.0
  0
VERTEX
  5
253
100
AcDbEntity
  8
化粧台
  6
EXLTYPE2
 62
     6
100
AcDbVertex
100
AcDb2dVertex
 10
2205.32773
 20
1701.34589
 30
0.0
  0
VERTEX
  5
254
100
AcDbEntity
  8
化粧台
  6
EXLTYPE2
 62
     6
100
AcDbVertex
100
AcDb2dVertex
 10
2205.581306
 20
1701.146556
 30
0.0
  0
VERTEX
  5
255
100
AcDbEntity
  8
化粧台
  6
EXLTYPE2
 62
     6
100
AcDbVertex
100
AcDb2dVertex
 10
2205.972234
 20
1700.90519
 30
0.0
  0
VERTEX
  5
256
100
AcDbEntity
  8
化粧台
  6
EXLTYPE2
 62
     6
100
AcDbVertex
100
AcDb2dVertex
 10
2206.37156
 20
1700.720906
 30
0.0
  0
VERTEX
  5
257
100
AcDbEntity
  8
化粧台
  6
EXLTYPE2
 62
     6
100
AcDbVertex
100
AcDb2dVertex
 10
2206.777002
 20
1700.584806
 30
0.0
  0
VERTEX
  5
258
100
AcDbEntity
  8
化粧台
  6
EXLTYPE2
 62
     6
100
AcDbVertex
100
AcDb2dVertex
 10
2207.186276
 20
1700.487986
 30
0.0
  0
VERTEX
  5
259
100
AcDbEntity
  8
化粧台
  6
EXLTYPE2
 62
     6
100
AcDbVertex
100
AcDb2dVertex
 10
2207.597094
 20
1700.421546
 30
0.0
  0
VERTEX
  5
25A
100
AcDbEntity
  8
化粧台
  6
EXLTYPE2
 62
     6
100
AcDbVertex
100
AcDb2dVertex
 10
2208.007174
 20
1700.376586
 30
0.0
  0
VERTEX
  5
25B
100
AcDbEntity
  8
化粧台
  6
EXLTYPE2
 62
     6
100
AcDbVertex
100
AcDb2dVertex
 10
2208.596514
 20
1700.340952
 30
0.0
  0
VERTEX
  5
25C
100
AcDbEntity
  8
化粧台
  6
EXLTYPE2
 62
     6
100
AcDbVertex
100
AcDb2dVertex
 10
2209.18626
 20
1700.341178
 30
0.0
  0
VERTEX
  5
25D
100
AcDbEntity
  8
化粧台
  6
EXLTYPE2
 62
     6
100
AcDbVertex
100
AcDb2dVertex
 10
2209.775592
 20
1700.377296
 30
0.0
  0
VERTEX
  5
25E
100
AcDbEntity
  8
化粧台
  6
EXLTYPE2
 62
     6
100
AcDbVertex
100
AcDb2dVertex
 10
2210.389334
 20
1700.45707
 30
0.0
  0
VERTEX
  5
25F
100
AcDbEntity
  8
化粧台
  6
EXLTYPE2
 62
     6
100
AcDbVertex
100
AcDb2dVertex
 10
2211.000332
 20
1700.595294
 30
0.0
  0
VERTEX
  5
260
100
AcDbEntity
  8
化粧台
  6
EXLTYPE2
 62
     6
100
AcDbVertex
100
AcDb2dVertex
 10
2211.337392
 20
1700.703774
 30
0.0
  0
VERTEX
  5
261
100
AcDbEntity
  8
化粧台
  6
EXLTYPE2
 62
     6
100
AcDbVertex
100
AcDb2dVertex
 10
2211.672208
 20
1700.842582
 30
0.0
  0
VERTEX
  5
262
100
AcDbEntity
  8
化粧台
  6
EXLTYPE2
 62
     6
100
AcDbVertex
100
AcDb2dVertex
 10
2212.001942
 20
1701.019844
 30
0.0
  0
VERTEX
  5
263
100
AcDbEntity
  8
化粧台
  6
EXLTYPE2
 62
     6
100
AcDbVertex
100
AcDb2dVertex
 10
2212.323756
 20
1701.243678
 30
0.0
  0
VERTEX
  5
264
100
AcDbEntity
  8
化粧台
  6
EXLTYPE2
 62
     6
100
AcDbVertex
100
AcDb2dVertex
 10
2212.557706
 20
1701.448528
 30
0.0
  0
VERTEX
  5
265
100
AcDbEntity
  8
化粧台
  6
EXLTYPE2
 62
     6
100
AcDbVertex
100
AcDb2dVertex
 10
2212.781616
 20
1701.693542
 30
0.0
  0
VERTEX
  5
266
100
AcDbEntity
  8
化粧台
  6
EXLTYPE2
 62
     6
100
AcDbVertex
100
AcDb2dVertex
 10
2212.924178
 20
1701.885028
 30
0.0
  0
VERTEX
  5
267
100
AcDbEntity
  8
化粧台
  6
EXLTYPE2
 62
     6
100
AcDbVertex
100
AcDb2dVertex
 10
2213.05764
 20
1702.101986
 30
0.0
  0
VERTEX
  5
268
100
AcDbEntity
  8
化粧台
  6
EXLTYPE2
 62
     6
100
AcDbVertex
100
AcDb2dVertex
 10
2213.17778
 20
1702.346264
 30
0.0
  0
VERTEX
  5
269
100
AcDbEntity
  8
化粧台
  6
EXLTYPE2
 62
     6
100
AcDbVertex
100
AcDb2dVertex
 10
2213.269362
 20
1702.587092
 30
0.0
  0
VERTEX
  5
26A
100
AcDbEntity
  8
化粧台
  6
EXLTYPE2
 62
     6
100
AcDbVertex
100
AcDb2dVertex
 10
2213.342714
 20
1702.851294
 30
0.0
  0
VERTEX
  5
26B
100
AcDbEntity
  8
化粧台
  6
EXLTYPE2
 62
     6
100
AcDbVertex
100
AcDb2dVertex
 10
2213.387832
 20
1703.100428
 30
0.0
  0
VERTEX
  5
26C
100
AcDbEntity
  8
化粧台
  6
EXLTYPE2
 62
     6
100
AcDbVertex
100
AcDb2dVertex
 10
2213.411894
 20
1703.360774
 30
0.0
  0
VERTEX
  5
26D
100
AcDbEntity
  8
化粧台
  6
EXLTYPE2
 62
     6
100
AcDbVertex
100
AcDb2dVertex
 10
2213.415184
 20
1703.500204
 30
0.0
  0
VERTEX
  5
26E
100
AcDbEntity
  8
化粧台
  6
EXLTYPE2
 62
     6
100
AcDbVertex
100
AcDb2dVertex
 10
2213.403028
 20
1703.765804
 30
0.0
  0
VERTEX
  5
26F
100
AcDbEntity
  8
化粧台
  6
EXLTYPE2
 62
     6
100
AcDbVertex
100
AcDb2dVertex
 10
2213.36825
 20
1704.02346
 30
0.0
  0
VERTEX
  5
270
100
AcDbEntity
  8
化粧台
  6
EXLTYPE2
 62
     6
100
AcDbVertex
100
AcDb2dVertex
 10
2213.3137
 20
1704.265118
 30
0.0
  0
VERTEX
  5
271
100
AcDbEntity
  8
化粧台
  6
EXLTYPE2
 62
     6
100
AcDbVertex
100
AcDb2dVertex
 10
2213.242928
 20
1704.489608
 30
0.0
  0
VERTEX
  5
272
100
AcDbEntity
  8
化粧台
  6
EXLTYPE2
 62
     6
100
AcDbVertex
100
AcDb2dVertex
 10
2213.147228
 20
1704.721798
 30
0.0
  0
VERTEX
  5
273
100
AcDbEntity
  8
化粧台
  6
EXLTYPE2
 62
     6
100
AcDbVertex
100
AcDb2dVertex
 10
2213.038598
 20
1704.931708
 30
0.0
  0
VERTEX
  5
274
100
AcDbEntity
  8
化粧台
  6
EXLTYPE2
 62
     6
100
AcDbVertex
100
AcDb2dVertex
 10
2212.920754
 20
1705.119882
 30
0.0
  0
VERTEX
  5
275
100
AcDbEntity
  8
化粧台
  6
EXLTYPE2
 62
     6
100
AcDbVertex
100
AcDb2dVertex
 10
2212.691782
 20
1705.412396
 30
0.0
  0
VERTEX
  5
276
100
AcDbEntity
  8
化粧台
  6
EXLTYPE2
 62
     6
100
AcDbVertex
100
AcDb2dVertex
 10
2212.447252
 20
1705.654116
 30
0.0
  0
VERTEX
  5
277
100
AcDbEntity
  8
化粧台
  6
EXLTYPE2
 62
     6
100
AcDbVertex
100
AcDb2dVertex
 10
2212.193676
 20
1705.85345
 30
0.0
  0
VERTEX
  5
278
100
AcDbEntity
  8
化粧台
  6
EXLTYPE2
 62
     6
100
AcDbVertex
100
AcDb2dVertex
 10
2211.802748
 20
1706.094818
 30
0.0
  0
VERTEX
  5
279
100
AcDbEntity
  8
化粧台
  6
EXLTYPE2
 62
     6
100
AcDbVertex
100
AcDb2dVertex
 10
2211.403422
 20
1706.2791
 30
0.0
  0
VERTEX
  5
27A
100
AcDbEntity
  8
化粧台
  6
EXLTYPE2
 62
     6
100
AcDbVertex
100
AcDb2dVertex
 10
2210.99798
 20
1706.415202
 30
0.0
  0
VERTEX
  5
27B
100
AcDbEntity
  8
化粧台
  6
EXLTYPE2
 62
     6
100
AcDbVertex
100
AcDb2dVertex
 10
2210.588706
 20
1706.512022
 30
0.0
  0
VERTEX
  5
27C
100
AcDbEntity
  8
化粧台
  6
EXLTYPE2
 62
     6
100
AcDbVertex
100
AcDb2dVertex
 10
2210.177888
 20
1706.578462
 30
0.0
  0
VERTEX
  5
27D
100
AcDbEntity
  8
化粧台
  6
EXLTYPE2
 62
     6
100
AcDbVertex
100
AcDb2dVertex
 10
2209.767808
 20
1706.623422
 30
0.0
  0
VERTEX
  5
27E
100
AcDbEntity
  8
化粧台
  6
EXLTYPE2
 62
     6
100
AcDbVertex
100
AcDb2dVertex
 10
2209.178468
 20
1706.659056
 30
0.0
  0
VERTEX
  5
27F
100
AcDbEntity
  8
化粧台
  6
EXLTYPE2
 62
     6
100
AcDbVertex
100
AcDb2dVertex
 10
2208.588722
 20
1706.65883
 30
0.0
  0
VERTEX
  5
280
100
AcDbEntity
  8
化粧台
  6
EXLTYPE2
 62
     6
100
AcDbVertex
100
AcDb2dVertex
 10
2207.99939
 20
1706.62271
 30
0.0
  0
VERTEX
  5
281
100
AcDbEntity
  8
化粧台
  6
EXLTYPE2
 62
     6
100
AcDbVertex
100
AcDb2dVertex
 10
2207.385648
 20
1706.542938
 30
0.0
  0
VERTEX
  5
282
100
AcDbEntity
  8
化粧台
  6
EXLTYPE2
 62
     6
100
AcDbVertex
100
AcDb2dVertex
 10
2206.77465
 20
1706.404714
 30
0.0
  0
VERTEX
  5
283
100
AcDbEntity
  8
化粧台
  6
EXLTYPE2
 62
     6
100
AcDbVertex
100
AcDb2dVertex
 10
2206.43759
 20
1706.296234
 30
0.0
  0
VERTEX
  5
284
100
AcDbEntity
  8
化粧台
  6
EXLTYPE2
 62
     6
100
AcDbVertex
100
AcDb2dVertex
 10
2206.102772
 20
1706.157426
 30
0.0
  0
VERTEX
  5
285
100
AcDbEntity
  8
化粧台
  6
EXLTYPE2
 62
     6
100
AcDbVertex
100
AcDb2dVertex
 10
2205.77304
 20
1705.980164
 30
0.0
  0
VERTEX
  5
286
100
AcDbEntity
  8
化粧台
  6
EXLTYPE2
 62
     6
100
AcDbVertex
100
AcDb2dVertex
 10
2205.451226
 20
1705.756328
 30
0.0
  0
VERTEX
  5
287
100
AcDbEntity
  8
化粧台
  6
EXLTYPE2
 62
     6
100
AcDbVertex
100
AcDb2dVertex
 10
2205.217276
 20
1705.55148
 30
0.0
  0
VERTEX
  5
288
100
AcDbEntity
  8
化粧台
  6
EXLTYPE2
 62
     6
100
AcDbVertex
100
AcDb2dVertex
 10
2204.993366
 20
1705.306464
 30
0.0
  0
VERTEX
  5
289
100
AcDbEntity
  8
化粧台
  6
EXLTYPE2
 62
     6
100
AcDbVertex
100
AcDb2dVertex
 10
2204.850804
 20
1705.11498
 30
0.0
  0
VERTEX
  5
28A
100
AcDbEntity
  8
化粧台
  6
EXLTYPE2
 62
     6
100
AcDbVertex
100
AcDb2dVertex
 10
2204.717342
 20
1704.898022
 30
0.0
  0
VERTEX
  5
28B
100
AcDbEntity
  8
化粧台
  6
EXLTYPE2
 62
     6
100
AcDbVertex
100
AcDb2dVertex
 10
2204.597202
 20
1704.653742
 30
0.0
  0
VERTEX
  5
28C
100
AcDbEntity
  8
化粧台
  6
EXLTYPE2
 62
     6
100
AcDbVertex
100
AcDb2dVertex
 10
2204.50562
 20
1704.412916
 30
0.0
  0
VERTEX
  5
28D
100
AcDbEntity
  8
化粧台
  6
EXLTYPE2
 62
     6
100
AcDbVertex
100
AcDb2dVertex
 10
2204.432268
 20
1704.148714
 30
0.0
  0
VERTEX
  5
28E
100
AcDbEntity
  8
化粧台
  6
EXLTYPE2
 62
     6
100
AcDbVertex
100
AcDb2dVertex
 10
2204.38715
 20
1703.89958
 30
0.0
  0
VERTEX
  5
28F
100
AcDbEntity
  8
化粧台
  6
EXLTYPE2
 62
     6
100
AcDbVertex
100
AcDb2dVertex
 10
2204.363088
 20
1703.639234
 30
0.0
  0
VERTEX
  5
290
100
AcDbEntity
  8
化粧台
  6
EXLTYPE2
 62
     6
100
AcDbVertex
100
AcDb2dVertex
 10
2204.359798
 20
1703.500204
 30
0.0
  0
SEQEND
  5
291
100
AcDbEntity
  8
化粧台
  6
EXLTYPE2
 62
     6
  0
POLYLINE
  5
292
100
AcDbEntity
  8
化粧台
  6
EXLTYPE2
 62
     6
100
AcDb2dPolyline
 66
     1
 10
0.0
 20
0.0
 30
0.0
 70
   128
  0
VERTEX
  5
293
100
AcDbEntity
  8
化粧台
  6
EXLTYPE2
 62
     6
100
AcDbVertex
100
AcDb2dVertex
 10
2191.999996
 20
1700.337726
 30
0.0
  0
VERTEX
  5
294
100
AcDbEntity
  8
化粧台
  6
EXLTYPE2
 62
     6
100
AcDbVertex
100
AcDb2dVertex
 10
2192.584264
 20
1700.34151
 30
0.0
  0
VERTEX
  5
295
100
AcDbEntity
  8
化粧台
  6
EXLTYPE2
 62
     6
100
AcDbVertex
100
AcDb2dVertex
 10
2193.168428
 20
1700.353598
 30
0.0
  0
VERTEX
  5
296
100
AcDbEntity
  8
化粧台
  6
EXLTYPE2
 62
     6
100
AcDbVertex
100
AcDb2dVertex
 10
2193.752438
 20
1700.374954
 30
0.0
  0
VERTEX
  5
297
100
AcDbEntity
  8
化粧台
  6
EXLTYPE2
 62
     6
100
AcDbVertex
100
AcDb2dVertex
 10
2194.335972
 20
1700.406714
 30
0.0
  0
VERTEX
  5
298
100
AcDbEntity
  8
化粧台
  6
EXLTYPE2
 62
     6
100
AcDbVertex
100
AcDb2dVertex
 10
2194.918502
 20
1700.44994
 30
0.0
  0
VERTEX
  5
299
100
AcDbEntity
  8
化粧台
  6
EXLTYPE2
 62
     6
100
AcDbVertex
100
AcDb2dVertex
 10
2195.499996
 20
1700.505332
 30
0.0
  0
VERTEX
  5
29A
100
AcDbEntity
  8
化粧台
  6
EXLTYPE2
 62
     6
100
AcDbVertex
100
AcDb2dVertex
 10
2196.214676
 20
1700.592144
 30
0.0
  0
VERTEX
  5
29B
100
AcDbEntity
  8
化粧台
  6
EXLTYPE2
 62
     6
100
AcDbVertex
100
AcDb2dVertex
 10
2196.927784
 20
1700.705858
 30
0.0
  0
VERTEX
  5
29C
100
AcDbEntity
  8
化粧台
  6
EXLTYPE2
 62
     6
100
AcDbVertex
100
AcDb2dVertex
 10
2197.63355
 20
1700.855166
 30
0.0
  0
VERTEX
  5
29D
100
AcDbEntity
  8
化粧台
  6
EXLTYPE2
 62
     6
100
AcDbVertex
100
AcDb2dVertex
 10
2198.326208
 20
1701.04876
 30
0.0
  0
VERTEX
  5
29E
100
AcDbEntity
  8
化粧台
  6
EXLTYPE2
 62
     6
100
AcDbVertex
100
AcDb2dVertex
 10
2198.999996
 20
1701.295332
 30
0.0
  0
VERTEX
  5
29F
100
AcDbEntity
  8
化粧台
  6
EXLTYPE2
 62
     6
100
AcDbVertex
100
AcDb2dVertex
 10
2199.44134
 20
1701.498572
 30
0.0
  0
VERTEX
  5
2A0
100
AcDbEntity
  8
化粧台
  6
EXLTYPE2
 62
     6
100
AcDbVertex
100
AcDb2dVertex
 10
2199.863524
 20
1701.740342
 30
0.0
  0
VERTEX
  5
2A1
100
AcDbEntity
  8
化粧台
  6
EXLTYPE2
 62
     6
100
AcDbVertex
100
AcDb2dVertex
 10
2200.254054
 20
1702.027066
 30
0.0
  0
VERTEX
  5
2A2
100
AcDbEntity
  8
化粧台
  6
EXLTYPE2
 62
     6
100
AcDbVertex
100
AcDb2dVertex
 10
2200.510384
 20
1702.268546
 30
0.0
  0
VERTEX
  5
2A3
100
AcDbEntity
  8
化粧台
  6
EXLTYPE2
 62
     6
100
AcDbVertex
100
AcDb2dVertex
 10
2200.732678
 20
1702.541124
 30
0.0
  0
VERTEX
  5
2A4
100
AcDbEntity
  8
化粧台
  6
EXLTYPE2
 62
     6
100
AcDbVertex
100
AcDb2dVertex
 10
2200.85699
 20
1702.743904
 30
0.0
  0
VERTEX
  5
2A5
100
AcDbEntity
  8
化粧台
  6
EXLTYPE2
 62
     6
100
AcDbVertex
100
AcDb2dVertex
 10
2200.955522
 20
1702.96126
 30
0.0
  0
VERTEX
  5
2A6
100
AcDbEntity
  8
化粧台
  6
EXLTYPE2
 62
     6
100
AcDbVertex
100
AcDb2dVertex
 10
2201.022442
 20
1703.188918
 30
0.0
  0
VERTEX
  5
2A7
100
AcDbEntity
  8
化粧台
  6
EXLTYPE2
 62
     6
100
AcDbVertex
100
AcDb2dVertex
 10
2201.053858
 20
1703.438924
 30
0.0
  0
VERTEX
  5
2A8
100
AcDbEntity
  8
化粧台
  6
EXLTYPE2
 62
     6
100
AcDbVertex
100
AcDb2dVertex
 10
2201.04304
 20
1703.690628
 30
0.0
  0
VERTEX
  5
2A9
100
AcDbEntity
  8
化粧台
  6
EXLTYPE2
 62
     6
100
AcDbVertex
100
AcDb2dVertex
 10
2200.990162
 20
1703.936392
 30
0.0
  0
VERTEX
  5
2AA
100
AcDbEntity
  8
化粧台
  6
EXLTYPE2
 62
     6
100
AcDbVertex
100
AcDb2dVertex
 10
2200.900018
 20
1704.171262
 30
0.0
  0
VERTEX
  5
2AB
100
AcDbEntity
  8
化粧台
  6
EXLTYPE2
 62
     6
100
AcDbVertex
100
AcDb2dVertex
 10
2200.721402
 20
1704.4747
 30
0.0
  0
VERTEX
  5
2AC
100
AcDbEntity
  8
化粧台
  6
EXLTYPE2
 62
     6
100
AcDbVertex
100
AcDb2dVertex
 10
2200.496342
 20
1704.746302
 30
0.0
  0
VERTEX
  5
2AD
100
AcDbEntity
  8
化粧台
  6
EXLTYPE2
 62
     6
100
AcDbVertex
100
AcDb2dVertex
 10
2200.219596
 20
1705.001758
 30
0.0
  0
VERTEX
  5
2AE
100
AcDbEntity
  8
化粧台
  6
EXLTYPE2
 62
     6
100
AcDbVertex
100
AcDb2dVertex
 10
2199.914938
 20
1705.225702
 30
0.0
  0
VERTEX
  5
2AF
100
AcDbEntity
  8
化粧台
  6
EXLTYPE2
 62
     6
100
AcDbVertex
100
AcDb2dVertex
 10
2199.591798
 20
1705.420994
 30
0.0
  0
VERTEX
  5
2B0
100
AcDbEntity
  8
化粧台
  6
EXLTYPE2
 62
     6
100
AcDbVertex
100
AcDb2dVertex
 10
2199.087092
 20
1705.668718
 30
0.0
  0
VERTEX
  5
2B1
100
AcDbEntity
  8
化粧台
  6
EXLTYPE2
 62
     6
100
AcDbVertex
100
AcDb2dVertex
 10
2198.561414
 20
1705.87284
 30
0.0
  0
VERTEX
  5
2B2
100
AcDbEntity
  8
化粧台
  6
EXLTYPE2
 62
     6
100
AcDbVertex
100
AcDb2dVertex
 10
2198.021714
 20
1706.040186
 30
0.0
  0
VERTEX
  5
2B3
100
AcDbEntity
  8
化粧台
  6
EXLTYPE2
 62
     6
100
AcDbVertex
100
AcDb2dVertex
 10
2197.47494
 20
1706.177582
 30
0.0
  0
VERTEX
  5
2B4
100
AcDbEntity
  8
化粧台
  6
EXLTYPE2
 62
     6
100
AcDbVertex
100
AcDb2dVertex
 10
2196.98048
 20
1706.281046
 30
0.0
  0
VERTEX
  5
2B5
100
AcDbEntity
  8
化粧台
  6
EXLTYPE2
 62
     6
100
AcDbVertex
100
AcDb2dVertex
 10
2196.482862
 20
1706.36825
 30
0.0
  0
VERTEX
  5
2B6
100
AcDbEntity
  8
化粧台
  6
EXLTYPE2
 62
     6
100
AcDbVertex
100
AcDb2dVertex
 10
2195.98222
 20
1706.44079
 30
0.0
  0
VERTEX
  5
2B7
100
AcDbEntity
  8
化粧台
  6
EXLTYPE2
 62
     6
100
AcDbVertex
100
AcDb2dVertex
 10
2195.479844
 20
1706.500076
 30
0.0
  0
VERTEX
  5
2B8
100
AcDbEntity
  8
化粧台
  6
EXLTYPE2
 62
     6
100
AcDbVertex
100
AcDb2dVertex
 10
2194.975704
 20
1706.547712
 30
0.0
  0
VERTEX
  5
2B9
100
AcDbEntity
  8
化粧台
  6
EXLTYPE2
 62
     6
100
AcDbVertex
100
AcDb2dVertex
 10
2194.470706
 20
1706.585208
 30
0.0
  0
VERTEX
  5
2BA
100
AcDbEntity
  8
化粧台
  6
EXLTYPE2
 62
     6
100
AcDbVertex
100
AcDb2dVertex
 10
2193.965666
 20
1706.61409
 30
0.0
  0
VERTEX
  5
2BB
100
AcDbEntity
  8
化粧台
  6
EXLTYPE2
 62
     6
100
AcDbVertex
100
AcDb2dVertex
 10
2193.46026
 20
1706.6358
 30
0.0
  0
VERTEX
  5
2BC
100
AcDbEntity
  8
化粧台
  6
EXLTYPE2
 62
     6
100
AcDbVertex
100
AcDb2dVertex
 10
2192.771122
 20
1706.655608
 30
0.0
  0
VERTEX
  5
2BD
100
AcDbEntity
  8
化粧台
  6
EXLTYPE2
 62
     6
100
AcDbVertex
100
AcDb2dVertex
 10
2192.081752
 20
1706.663914
 30
0.0
  0
VERTEX
  5
2BE
100
AcDbEntity
  8
化粧台
  6
EXLTYPE2
 62
     6
100
AcDbVertex
100
AcDb2dVertex
 10
2191.392146
 20
1706.660004
 30
0.0
  0
VERTEX
  5
2BF
100
AcDbEntity
  8
化粧台
  6
EXLTYPE2
 62
     6
100
AcDbVertex
100
AcDb2dVertex
 10
2190.702734
 20
1706.64321
 30
0.0
  0
VERTEX
  5
2C0
100
AcDbEntity
  8
化粧台
  6
EXLTYPE2
 62
     6
100
AcDbVertex
100
AcDb2dVertex
 10
2190.014062
 20
1706.61298
 30
0.0
  0
VERTEX
  5
2C1
100
AcDbEntity
  8
化粧台
  6
EXLTYPE2
 62
     6
100
AcDbVertex
100
AcDb2dVertex
 10
2189.326132
 20
1706.569092
 30
0.0
  0
VERTEX
  5
2C2
100
AcDbEntity
  8
化粧台
  6
EXLTYPE2
 62
     6
100
AcDbVertex
100
AcDb2dVertex
 10
2188.518988
 20
1706.49861
 30
0.0
  0
VERTEX
  5
2C3
100
AcDbEntity
  8
化粧台
  6
EXLTYPE2
 62
     6
100
AcDbVertex
100
AcDb2dVertex
 10
2187.712534
 20
1706.400526
 30
0.0
  0
VERTEX
  5
2C4
100
AcDbEntity
  8
化粧台
  6
EXLTYPE2
 62
     6
100
AcDbVertex
100
AcDb2dVertex
 10
2186.912332
 20
1706.264884
 30
0.0
  0
VERTEX
  5
2C5
100
AcDbEntity
  8
化粧台
  6
EXLTYPE2
 62
     6
100
AcDbVertex
100
AcDb2dVertex
 10
2186.123948
 20
1706.081728
 30
0.0
  0
VERTEX
  5
2C6
100
AcDbEntity
  8
化粧台
  6
EXLTYPE2
 62
     6
100
AcDbVertex
100
AcDb2dVertex
 10
2185.352946
 20
1705.841104
 30
0.0
  0
VERTEX
  5
2C7
100
AcDbEntity
  8
化粧台
  6
EXLTYPE2
 62
     6
100
AcDbVertex
100
AcDb2dVertex
 10
2184.847228
 20
1705.63941
 30
0.0
  0
VERTEX
  5
2C8
100
AcDbEntity
  8
化粧台
  6
EXLTYPE2
 62
     6
100
AcDbVertex
100
AcDb2dVertex
 10
2184.360106
 20
1705.394814
 30
0.0
  0
VERTEX
  5
2C9
100
AcDbEntity
  8
化粧台
  6
EXLTYPE2
 62
     6
100
AcDbVertex
100
AcDb2dVertex
 10
2183.905016
 20
1705.098844
 30
0.0
  0
VERTEX
  5
2CA
100
AcDbEntity
  8
化粧台
  6
EXLTYPE2
 62
     6
100
AcDbVertex
100
AcDb2dVertex
 10
2183.61955
 20
1704.861
 30
0.0
  0
VERTEX
  5
2CB
100
AcDbEntity
  8
化粧台
  6
EXLTYPE2
 62
     6
100
AcDbVertex
100
AcDb2dVertex
 10
2183.365984
 20
1704.589982
 30
0.0
  0
VERTEX
  5
2CC
100
AcDbEntity
  8
化粧台
  6
EXLTYPE2
 62
     6
100
AcDbVertex
100
AcDb2dVertex
 10
2183.219268
 20
1704.386364
 30
0.0
  0
VERTEX
  5
2CD
100
AcDbEntity
  8
化粧台
  6
EXLTYPE2
 62
     6
100
AcDbVertex
100
AcDb2dVertex
 10
2183.097776
 20
1704.165886
 30
0.0
  0
VERTEX
  5
2CE
100
AcDbEntity
  8
化粧台
  6
EXLTYPE2
 62
     6
100
AcDbVertex
100
AcDb2dVertex
 10
2183.008364
 20
1703.932094
 30
0.0
  0
VERTEX
  5
2CF
100
AcDbEntity
  8
化粧台
  6
EXLTYPE2
 62
     6
100
AcDbVertex
100
AcDb2dVertex
 10
2182.95631
 20
1703.683616
 30
0.0
  0
VERTEX
  5
2D0
100
AcDbEntity
  8
化粧台
  6
EXLTYPE2
 62
     6
100
AcDbVertex
100
AcDb2dVertex
 10
2182.94627
 20
1703.430044
 30
0.0
  0
VERTEX
  5
2D1
100
AcDbEntity
  8
化粧台
  6
EXLTYPE2
 62
     6
100
AcDbVertex
100
AcDb2dVertex
 10
2182.980008
 20
1703.178558
 30
0.0
  0
VERTEX
  5
2D2
100
AcDbEntity
  8
化粧台
  6
EXLTYPE2
 62
     6
100
AcDbVertex
100
AcDb2dVertex
 10
2183.053894
 20
1702.935648
 30
0.0
  0
VERTEX
  5
2D3
100
AcDbEntity
  8
化粧台
  6
EXLTYPE2
 62
     6
100
AcDbVertex
100
AcDb2dVertex
 10
2183.20104
 20
1702.642524
 30
0.0
  0
VERTEX
  5
2D4
100
AcDbEntity
  8
化粧台
  6
EXLTYPE2
 62
     6
100
AcDbVertex
100
AcDb2dVertex
 10
2183.393688
 20
1702.37642
 30
0.0
  0
VERTEX
  5
2D5
100
AcDbEntity
  8
化粧台
  6
EXLTYPE2
 62
     6
100
AcDbVertex
100
AcDb2dVertex
 10
2183.626104
 20
1702.13278
 30
0.0
  0
VERTEX
  5
2D6
100
AcDbEntity
  8
化粧台
  6
EXLTYPE2
 62
     6
100
AcDbVertex
100
AcDb2dVertex
 10
2183.88535
 20
1701.915838
 30
0.0
  0
VERTEX
  5
2D7
100
AcDbEntity
  8
化粧台
  6
EXLTYPE2
 62
     6
100
AcDbVertex
100
AcDb2dVertex
 10
2184.163024
 20
1701.723958
 30
0.0
  0
VERTEX
  5
2D8
100
AcDbEntity
  8
化粧台
  6
EXLTYPE2
 62
     6
100
AcDbVertex
100
AcDb2dVertex
 10
2184.580552
 20
1701.487118
 30
0.0
  0
VERTEX
  5
2D9
100
AcDbEntity
  8
化粧台
  6
EXLTYPE2
 62
     6
100
AcDbVertex
100
AcDb2dVertex
 10
2185.018312
 20
1701.286588
 30
0.0
  0
VERTEX
  5
2DA
100
AcDbEntity
  8
化粧台
  6
EXLTYPE2
 62
     6
100
AcDbVertex
100
AcDb2dVertex
 10
2185.470082
 20
1701.117334
 30
0.0
  0
VERTEX
  5
2DB
100
AcDbEntity
  8
化粧台
  6
EXLTYPE2
 62
     6
100
AcDbVertex
100
AcDb2dVertex
 10
2185.929642
 20
1700.974328
 30
0.0
  0
VERTEX
  5
2DC
100
AcDbEntity
  8
化粧台
  6
EXLTYPE2
 62
     6
100
AcDbVertex
100
AcDb2dVertex
 10
2186.663138
 20
1700.790832
 30
0.0
  0
VERTEX
  5
2DD
100
AcDbEntity
  8
化粧台
  6
EXLTYPE2
 62
     6
100
AcDbVertex
100
AcDb2dVertex
 10
2187.407028
 20
1700.649866
 30
0.0
  0
VERTEX
  5
2DE
100
AcDbEntity
  8
化粧台
  6
EXLTYPE2
 62
     6
100
AcDbVertex
100
AcDb2dVertex
 10
2188.157402
 20
1700.543806
 30
0.0
  0
VERTEX
  5
2DF
100
AcDbEntity
  8
化粧台
  6
EXLTYPE2
 62
     6
100
AcDbVertex
100
AcDb2dVertex
 10
2188.910356
 20
1700.465028
 30
0.0
  0
VERTEX
  5
2E0
100
AcDbEntity
  8
化粧台
  6
EXLTYPE2
 62
     6
100
AcDbVertex
100
AcDb2dVertex
 10
2189.424154
 20
1700.423596
 30
0.0
  0
VERTEX
  5
2E1
100
AcDbEntity
  8
化粧台
  6
EXLTYPE2
 62
     6
100
AcDbVertex
100
AcDb2dVertex
 10
2189.93859
 20
1700.39101
 30
0.0
  0
VERTEX
  5
2E2
100
AcDbEntity
  8
化粧台
  6
EXLTYPE2
 62
     6
100
AcDbVertex
100
AcDb2dVertex
 10
2190.453642
 20
1700.366756
 30
0.0
  0
VERTEX
  5
2E3
100
AcDbEntity
  8
化粧台
  6
EXLTYPE2
 62
     6
100
AcDbVertex
100
AcDb2dVertex
 10
2190.969002
 20
1700.350224
 30
0.0
  0
VERTEX
  5
2E4
100
AcDbEntity
  8
化粧台
  6
EXLTYPE2
 62
     6
100
AcDbVertex
100
AcDb2dVertex
 10
2191.484464
 20
1700.340768
 30
0.0
  0
VERTEX
  5
2E5
100
AcDbEntity
  8
化粧台
  6
EXLTYPE2
 62
     6
100
AcDbVertex
100
AcDb2dVertex
 10
2191.999996
 20
1700.337726
 30
0.0
  0
SEQEND
  5
2E6
100
AcDbEntity
  8
化粧台
  6
EXLTYPE2
 62
     6
  0
POLYLINE
  5
2E7
100
AcDbEntity
  8
化粧台
  6
EXLTYPE2
 62
     6
100
AcDb2dPolyline
 66
     1
 10
0.0
 20
0.0
 30
0.0
 70
   128
  0
VERTEX
  5
2E8
100
AcDbEntity
  8
化粧台
  6
EXLTYPE2
 62
     6
100
AcDbVertex
100
AcDb2dVertex
 10
2170.584808
 20
1703.500204
 30
0.0
  0
VERTEX
  5
2E9
100
AcDbEntity
  8
化粧台
  6
EXLTYPE2
 62
     6
100
AcDbVertex
100
AcDb2dVertex
 10
2170.596946
 20
1703.2344
 30
0.0
  0
VERTEX
  5
2EA
100
AcDbEntity
  8
化粧台
  6
EXLTYPE2
 62
     6
100
AcDbVertex
100
AcDb2dVertex
 10
2170.63174
 20
1702.976546
 30
0.0
  0
VERTEX
  5
2EB
100
AcDbEntity
  8
化粧台
  6
EXLTYPE2
 62
     6
100
AcDbVertex
100
AcDb2dVertex
 10
2170.686292
 20
1702.73489
 30
0.0
  0
VERTEX
  5
2EC
100
AcDbEntity
  8
化粧台
  6
EXLTYPE2
 62
     6
100
AcDbVertex
100
AcDb2dVertex
 10
2170.757064
 20
1702.5104
 30
0.0
  0
VERTEX
  5
2ED
100
AcDbEntity
  8
化粧台
  6
EXLTYPE2
 62
     6
100
AcDbVertex
100
AcDb2dVertex
 10
2170.852764
 20
1702.27821
 30
0.0
  0
VERTEX
  5
2EE
100
AcDbEntity
  8
化粧台
  6
EXLTYPE2
 62
     6
100
AcDbVertex
100
AcDb2dVertex
 10
2170.961394
 20
1702.068298
 30
0.0
  0
VERTEX
  5
2EF
100
AcDbEntity
  8
化粧台
  6
EXLTYPE2
 62
     6
100
AcDbVertex
100
AcDb2dVertex
 10
2171.079238
 20
1701.880126
 30
0.0
  0
VERTEX
  5
2F0
100
AcDbEntity
  8
化粧台
  6
EXLTYPE2
 62
     6
100
AcDbVertex
100
AcDb2dVertex
 10
2171.30821
 20
1701.587612
 30
0.0
  0
VERTEX
  5
2F1
100
AcDbEntity
  8
化粧台
  6
EXLTYPE2
 62
     6
100
AcDbVertex
100
AcDb2dVertex
 10
2171.552738
 20
1701.34589
 30
0.0
  0
VERTEX
  5
2F2
100
AcDbEntity
  8
化粧台
  6
EXLTYPE2
 62
     6
100
AcDbVertex
100
AcDb2dVertex
 10
2171.806316
 20
1701.146556
 30
0.0
  0
VERTEX
  5
2F3
100
AcDbEntity
  8
化粧台
  6
EXLTYPE2
 62
     6
100
AcDbVertex
100
AcDb2dVertex
 10
2172.197242
 20
1700.90519
 30
0.0
  0
VERTEX
  5
2F4
100
AcDbEntity
  8
化粧台
  6
EXLTYPE2
 62
     6
100
AcDbVertex
100
AcDb2dVertex
 10
2172.59657
 20
1700.720906
 30
0.0
  0
VERTEX
  5
2F5
100
AcDbEntity
  8
化粧台
  6
EXLTYPE2
 62
     6
100
AcDbVertex
100
AcDb2dVertex
 10
2173.002012
 20
1700.584806
 30
0.0
  0
VERTEX
  5
2F6
100
AcDbEntity
  8
化粧台
  6
EXLTYPE2
 62
     6
100
AcDbVertex
100
AcDb2dVertex
 10
2173.411284
 20
1700.487986
 30
0.0
  0
VERTEX
  5
2F7
100
AcDbEntity
  8
化粧台
  6
EXLTYPE2
 62
     6
100
AcDbVertex
100
AcDb2dVertex
 10
2173.822104
 20
1700.421546
 30
0.0
  0
VERTEX
  5
2F8
100
AcDbEntity
  8
化粧台
  6
EXLTYPE2
 62
     6
100
AcDbVertex
100
AcDb2dVertex
 10
2174.232184
 20
1700.376586
 30
0.0
  0
VERTEX
  5
2F9
100
AcDbEntity
  8
化粧台
  6
EXLTYPE2
 62
     6
100
AcDbVertex
100
AcDb2dVertex
 10
2174.821524
 20
1700.340952
 30
0.0
  0
VERTEX
  5
2FA
100
AcDbEntity
  8
化粧台
  6
EXLTYPE2
 62
     6
100
AcDbVertex
100
AcDb2dVertex
 10
2175.411268
 20
1700.341178
 30
0.0
  0
VERTEX
  5
2FB
100
AcDbEntity
  8
化粧台
  6
EXLTYPE2
 62
     6
100
AcDbVertex
100
AcDb2dVertex
 10
2176.0006
 20
1700.377296
 30
0.0
  0
VERTEX
  5
2FC
100
AcDbEntity
  8
化粧台
  6
EXLTYPE2
 62
     6
100
AcDbVertex
100
AcDb2dVertex
 10
2176.614344
 20
1700.45707
 30
0.0
  0
VERTEX
  5
2FD
100
AcDbEntity
  8
化粧台
  6
EXLTYPE2
 62
     6
100
AcDbVertex
100
AcDb2dVertex
 10
2177.22534
 20
1700.595294
 30
0.0
  0
VERTEX
  5
2FE
100
AcDbEntity
  8
化粧台
  6
EXLTYPE2
 62
     6
100
AcDbVertex
100
AcDb2dVertex
 10
2177.562402
 20
1700.703774
 30
0.0
  0
VERTEX
  5
2FF
100
AcDbEntity
  8
化粧台
  6
EXLTYPE2
 62
     6
100
AcDbVertex
100
AcDb2dVertex
 10
2177.897218
 20
1700.842582
 30
0.0
  0
VERTEX
  5
300
100
AcDbEntity
  8
化粧台
  6
EXLTYPE2
 62
     6
100
AcDbVertex
100
AcDb2dVertex
 10
2178.226952
 20
1701.019844
 30
0.0
  0
VERTEX
  5
301
100
AcDbEntity
  8
化粧台
  6
EXLTYPE2
 62
     6
100
AcDbVertex
100
AcDb2dVertex
 10
2178.548766
 20
1701.243678
 30
0.0
  0
VERTEX
  5
302
100
AcDbEntity
  8
化粧台
  6
EXLTYPE2
 62
     6
100
AcDbVertex
100
AcDb2dVertex
 10
2178.782716
 20
1701.448528
 30
0.0
  0
VERTEX
  5
303
100
AcDbEntity
  8
化粧台
  6
EXLTYPE2
 62
     6
100
AcDbVertex
100
AcDb2dVertex
 10
2179.006626
 20
1701.693542
 30
0.0
  0
VERTEX
  5
304
100
AcDbEntity
  8
化粧台
  6
EXLTYPE2
 62
     6
100
AcDbVertex
100
AcDb2dVertex
 10
2179.149188
 20
1701.885028
 30
0.0
  0
VERTEX
  5
305
100
AcDbEntity
  8
化粧台
  6
EXLTYPE2
 62
     6
100
AcDbVertex
100
AcDb2dVertex
 10
2179.28265
 20
1702.101986
 30
0.0
  0
VERTEX
  5
306
100
AcDbEntity
  8
化粧台
  6
EXLTYPE2
 62
     6
100
AcDbVertex
100
AcDb2dVertex
 10
2179.40279
 20
1702.346264
 30
0.0
  0
VERTEX
  5
307
100
AcDbEntity
  8
化粧台
  6
EXLTYPE2
 62
     6
100
AcDbVertex
100
AcDb2dVertex
 10
2179.494372
 20
1702.587092
 30
0.0
  0
VERTEX
  5
308
100
AcDbEntity
  8
化粧台
  6
EXLTYPE2
 62
     6
100
AcDbVertex
100
AcDb2dVertex
 10
2179.567722
 20
1702.851294
 30
0.0
  0
VERTEX
  5
309
100
AcDbEntity
  8
化粧台
  6
EXLTYPE2
 62
     6
100
AcDbVertex
100
AcDb2dVertex
 10
2179.612842
 20
1703.100428
 30
0.0
  0
VERTEX
  5
30A
100
AcDbEntity
  8
化粧台
  6
EXLTYPE2
 62
     6
100
AcDbVertex
100
AcDb2dVertex
 10
2179.636902
 20
1703.360774
 30
0.0
  0
VERTEX
  5
30B
100
AcDbEntity
  8
化粧台
  6
EXLTYPE2
 62
     6
100
AcDbVertex
100
AcDb2dVertex
 10
2179.640192
 20
1703.500204
 30
0.0
  0
VERTEX
  5
30C
100
AcDbEntity
  8
化粧台
  6
EXLTYPE2
 62
     6
100
AcDbVertex
100
AcDb2dVertex
 10
2179.628038
 20
1703.765804
 30
0.0
  0
VERTEX
  5
30D
100
AcDbEntity
  8
化粧台
  6
EXLTYPE2
 62
     6
100
AcDbVertex
100
AcDb2dVertex
 10
2179.59326
 20
1704.02346
 30
0.0
  0
VERTEX
  5
30E
100
AcDbEntity
  8
化粧台
  6
EXLTYPE2
 62
     6
100
AcDbVertex
100
AcDb2dVertex
 10
2179.538708
 20
1704.265118
 30
0.0
  0
VERTEX
  5
30F
100
AcDbEntity
  8
化粧台
  6
EXLTYPE2
 62
     6
100
AcDbVertex
100
AcDb2dVertex
 10
2179.467936
 20
1704.489608
 30
0.0
  0
VERTEX
  5
310
100
AcDbEntity
  8
化粧台
  6
EXLTYPE2
 62
     6
100
AcDbVertex
100
AcDb2dVertex
 10
2179.372236
 20
1704.721798
 30
0.0
  0
VERTEX
  5
311
100
AcDbEntity
  8
化粧台
  6
EXLTYPE2
 62
     6
100
AcDbVertex
100
AcDb2dVertex
 10
2179.263606
 20
1704.931708
 30
0.0
  0
VERTEX
  5
312
100
AcDbEntity
  8
化粧台
  6
EXLTYPE2
 62
     6
100
AcDbVertex
100
AcDb2dVertex
 10
2179.145762
 20
1705.119882
 30
0.0
  0
VERTEX
  5
313
100
AcDbEntity
  8
化粧台
  6
EXLTYPE2
 62
     6
100
AcDbVertex
100
AcDb2dVertex
 10
2178.91679
 20
1705.412396
 30
0.0
  0
VERTEX
  5
314
100
AcDbEntity
  8
化粧台
  6
EXLTYPE2
 62
     6
100
AcDbVertex
100
AcDb2dVertex
 10
2178.672262
 20
1705.654116
 30
0.0
  0
VERTEX
  5
315
100
AcDbEntity
  8
化粧台
  6
EXLTYPE2
 62
     6
100
AcDbVertex
100
AcDb2dVertex
 10
2178.418686
 20
1705.85345
 30
0.0
  0
VERTEX
  5
316
100
AcDbEntity
  8
化粧台
  6
EXLTYPE2
 62
     6
100
AcDbVertex
100
AcDb2dVertex
 10
2178.027758
 20
1706.094818
 30
0.0
  0
VERTEX
  5
317
100
AcDbEntity
  8
化粧台
  6
EXLTYPE2
 62
     6
100
AcDbVertex
100
AcDb2dVertex
 10
2177.62843
 20
1706.2791
 30
0.0
  0
VERTEX
  5
318
100
AcDbEntity
  8
化粧台
  6
EXLTYPE2
 62
     6
100
AcDbVertex
100
AcDb2dVertex
 10
2177.222988
 20
1706.415202
 30
0.0
  0
VERTEX
  5
319
100
AcDbEntity
  8
化粧台
  6
EXLTYPE2
 62
     6
100
AcDbVertex
100
AcDb2dVertex
 10
2176.813716
 20
1706.512022
 30
0.0
  0
VERTEX
  5
31A
100
AcDbEntity
  8
化粧台
  6
EXLTYPE2
 62
     6
100
AcDbVertex
100
AcDb2dVertex
 10
2176.402896
 20
1706.578462
 30
0.0
  0
VERTEX
  5
31B
100
AcDbEntity
  8
化粧台
  6
EXLTYPE2
 62
     6
100
AcDbVertex
100
AcDb2dVertex
 10
2175.992818
 20
1706.623422
 30
0.0
  0
VERTEX
  5
31C
100
AcDbEntity
  8
化粧台
  6
EXLTYPE2
 62
     6
100
AcDbVertex
100
AcDb2dVertex
 10
2175.403478
 20
1706.659056
 30
0.0
  0
VERTEX
  5
31D
100
AcDbEntity
  8
化粧台
  6
EXLTYPE2
 62
     6
100
AcDbVertex
100
AcDb2dVertex
 10
2174.813732
 20
1706.65883
 30
0.0
  0
VERTEX
  5
31E
100
AcDbEntity
  8
化粧台
  6
EXLTYPE2
 62
     6
100
AcDbVertex
100
AcDb2dVertex
 10
2174.2244
 20
1706.62271
 30
0.0
  0
VERTEX
  5
31F
100
AcDbEntity
  8
化粧台
  6
EXLTYPE2
 62
     6
100
AcDbVertex
100
AcDb2dVertex
 10
2173.610658
 20
1706.542938
 30
0.0
  0
VERTEX
  5
320
100
AcDbEntity
  8
化粧台
  6
EXLTYPE2
 62
     6
100
AcDbVertex
100
AcDb2dVertex
 10
2172.99966
 20
1706.404714
 30
0.0
  0
VERTEX
  5
321
100
AcDbEntity
  8
化粧台
  6
EXLTYPE2
 62
     6
100
AcDbVertex
100
AcDb2dVertex
 10
2172.662598
 20
1706.296234
 30
0.0
  0
VERTEX
  5
322
100
AcDbEntity
  8
化粧台
  6
EXLTYPE2
 62
     6
100
AcDbVertex
100
AcDb2dVertex
 10
2172.327782
 20
1706.157426
 30
0.0
  0
VERTEX
  5
323
100
AcDbEntity
  8
化粧台
  6
EXLTYPE2
 62
     6
100
AcDbVertex
100
AcDb2dVertex
 10
2171.998048
 20
1705.980164
 30
0.0
  0
VERTEX
  5
324
100
AcDbEntity
  8
化粧台
  6
EXLTYPE2
 62
     6
100
AcDbVertex
100
AcDb2dVertex
 10
2171.676234
 20
1705.756328
 30
0.0
  0
VERTEX
  5
325
100
AcDbEntity
  8
化粧台
  6
EXLTYPE2
 62
     6
100
AcDbVertex
100
AcDb2dVertex
 10
2171.442284
 20
1705.55148
 30
0.0
  0
VERTEX
  5
326
100
AcDbEntity
  8
化粧台
  6
EXLTYPE2
 62
     6
100
AcDbVertex
100
AcDb2dVertex
 10
2171.218374
 20
1705.306464
 30
0.0
  0
VERTEX
  5
327
100
AcDbEntity
  8
化粧台
  6
EXLTYPE2
 62
     6
100
AcDbVertex
100
AcDb2dVertex
 10
2171.075812
 20
1705.11498
 30
0.0
  0
VERTEX
  5
328
100
AcDbEntity
  8
化粧台
  6
EXLTYPE2
 62
     6
100
AcDbVertex
100
AcDb2dVertex
 10
2170.94235
 20
1704.898022
 30
0.0
  0
VERTEX
  5
329
100
AcDbEntity
  8
化粧台
  6
EXLTYPE2
 62
     6
100
AcDbVertex
100
AcDb2dVertex
 10
2170.82221
 20
1704.653742
 30
0.0
  0
VERTEX
  5
32A
100
AcDbEntity
  8
化粧台
  6
EXLTYPE2
 62
     6
100
AcDbVertex
100
AcDb2dVertex
 10
2170.73063
 20
1704.412916
 30
0.0
  0
VERTEX
  5
32B
100
AcDbEntity
  8
化粧台
  6
EXLTYPE2
 62
     6
100
AcDbVertex
100
AcDb2dVertex
 10
2170.657278
 20
1704.148714
 30
0.0
  0
VERTEX
  5
32C
100
AcDbEntity
  8
化粧台
  6
EXLTYPE2
 62
     6
100
AcDbVertex
100
AcDb2dVertex
 10
2170.612158
 20
1703.89958
 30
0.0
  0
VERTEX
  5
32D
100
AcDbEntity
  8
化粧台
  6
EXLTYPE2
 62
     6
100
AcDbVertex
100
AcDb2dVertex
 10
2170.588098
 20
1703.639234
 30
0.0
  0
VERTEX
  5
32E
100
AcDbEntity
  8
化粧台
  6
EXLTYPE2
 62
     6
100
AcDbVertex
100
AcDb2dVertex
 10
2170.584808
 20
1703.500204
 30
0.0
  0
SEQEND
  5
32F
100
AcDbEntity
  8
化粧台
  6
EXLTYPE2
 62
     6
  0
LINE
  5
330
100
AcDbEntity
  8
化粧台
  6
EXLTYPE2
 62
     6
100
AcDbLine
 10
2387.0
 20
1682.5
 30
0.0
 11
2354.101295
 21
1682.5
 31
0.0
  0
LINE
  5
331
100
AcDbEntity
  8
化粧台
  6
EXLTYPE2
 62
     6
100
AcDbLine
 10
2340.886635
 20
1682.5
 30
0.0
 11
2266.0
 21
1682.5
 31
0.0
  0
LINE
  5
332
100
AcDbEntity
  8
化粧台
  6
EXLTYPE2
 62
     6
100
AcDbLine
 10
2387.0
 20
1676.5
 30
0.0
 11
2355.196146
 21
1676.5
 31
0.0
  0
LINE
  5
333
100
AcDbEntity
  8
化粧台
  6
EXLTYPE2
 62
     6
100
AcDbLine
 10
2341.981487
 20
1676.5
 30
0.0
 11
2266.0
 21
1676.5
 31
0.0
  0
LINE
  5
334
100
AcDbEntity
  8
化粧台
  6
EXLTYPE2
 62
     6
100
AcDbLine
 10
2314.266644
 20
1579.301075
 30
0.0
 11
2333.689237
 21
1717.5
 31
0.0
  0
LINE
  5
335
100
AcDbEntity
  8
化粧台
  6
EXLTYPE2
 62
     6
100
AcDbLine
 10
2327.630271
 20
1717.5
 30
0.0
 11
2308.325036
 21
1580.136114
 31
0.0
  0
LINE
  5
336
100
AcDbEntity
  8
化粧台
  6
EXLTYPE2
 62
     6
100
AcDbLine
 10
2334.5
 20
1717.5
 30
0.0
 11
2358.5
 21
1585.975339
 31
0.0
  0
LINE
  5
337
100
AcDbEntity
  8
化粧台
  6
EXLTYPE2
 62
     6
100
AcDbLine
 10
2371.5
 20
1587.151716
 30
0.0
 11
2347.71466
 21
1717.5
 31
0.0
  0
LINE
  5
338
100
AcDbEntity
  8
化粧台
  6
EXLTYPE2
 62
     6
100
AcDbLine
 10
2164.5
 20
1717.5
 30
0.0
 11
2164.5
 21
1715.833333
 31
0.0
  0
LINE
  5
339
100
AcDbEntity
  8
化粧台
  6
EXLTYPE2
 62
     6
100
AcDbLine
 10
2219.5
 20
1717.5
 30
0.0
 11
2219.5
 21
1715.833333
 31
0.0
  0
LINE
  5
33A
100
AcDbEntity
  8
化粧台
  6
EXLTYPE2
 62
     6
100
AcDbLine
 10
2176.125
 20
1660.5
 30
0.0
 11
2176.125
 21
1536.5
 31
0.0
  0
LINE
  5
33B
100
AcDbEntity
  8
化粧台
  6
EXLTYPE2
 62
     6
100
AcDbLine
 10
2207.875
 20
1660.5
 30
0.0
 11
2207.875
 21
1536.5
 31
0.0
  0
LINE
  5
33C
100
AcDbEntity
  8
化粧台
  6
EXLTYPE2
 62
     6
100
AcDbLine
 10
2242.5
 20
1669.0
 30
0.0
 11
2234.0
 21
1669.0
 31
0.0
  0
LINE
  5
33D
100
AcDbEntity
  8
化粧台
  6
EXLTYPE2
 62
     6
100
AcDbLine
 10
2254.0
 20
1667.5
 30
0.0
 11
2247.5
 21
1667.5
 31
0.0
  0
ARC
  5
33E
100
AcDbEntity
  8
化粧台
  6
EXLTYPE2
 62
     6
100
AcDbCircle
 10
2263.0
 20
1671.5
 30
0.0
 40
3.0
100
AcDbArc
 50
270.0
 51
0.0
  0
LINE
  5
33F
100
AcDbEntity
  8
化粧台
  6
EXLTYPE2
 62
     6
100
AcDbLine
 10
2263.0
 20
1668.5
 30
0.0
 11
2254.0
 21
1668.5
 31
0.0
  0
LINE
  5
340
100
AcDbEntity
  8
化粧台
  6
EXLTYPE2
 62
     6
100
AcDbLine
 10
2214.661264
 20
1669.302424
 30
0.0
 11
2234.0
 21
1671.5
 31
0.0
  0
ARC
  5
341
100
AcDbEntity
  8
化粧台
  6
EXLTYPE2
 62
     6
100
AcDbCircle
 10
2215.0
 20
1666.321608
 30
0.0
 40
3.0
100
AcDbArc
 50
96.483074
 51
180.0
  0
LINE
  5
342
100
AcDbEntity
  8
化粧台
  6
EXLTYPE2
 62
     6
100
AcDbLine
 10
2212.0
 20
1666.321608
 30
0.0
 11
2212.0
 21
1662.5
 31
0.0
  0
LINE
  5
343
100
AcDbEntity
  8
化粧台
  6
EXLTYPE2
 62
     6
100
AcDbLine
 10
2212.0
 20
1662.5
 30
0.0
 11
2172.0
 21
1662.5
 31
0.0
  0
LINE
  5
344
100
AcDbEntity
  8
化粧台
  6
EXLTYPE2
 62
     6
100
AcDbLine
 10
2208.0
 20
1660.5
 30
0.0
 11
2176.0
 21
1660.5
 31
0.0
  0
LINE
  5
345
100
AcDbEntity
  8
化粧台
  6
EXLTYPE2
 62
     6
100
AcDbLine
 10
2208.0
 20
1660.5
 30
0.0
 11
2212.0
 21
1662.5
 31
0.0
  0
LINE
  5
346
100
AcDbEntity
  8
化粧台
  6
EXLTYPE2
 62
     6
100
AcDbLine
 10
2176.0
 20
1660.5
 30
0.0
 11
2172.0
 21
1662.5
 31
0.0
  0
LINE
  5
347
100
AcDbEntity
  8
化粧台
  6
EXLTYPE2
 62
     6
100
AcDbLine
 10
2247.5
 20
1668.0
 30
0.0
 11
2242.5
 21
1668.0
 31
0.0
  0
LINE
  5
348
100
AcDbEntity
  8
化粧台
  6
EXLTYPE2
 62
     6
100
AcDbLine
 10
2358.5
 20
1585.975339
 30
0.0
 11
2358.5
 21
1447.2
 31
0.0
  0
LINE
  5
349
100
AcDbEntity
  8
化粧台
  6
EXLTYPE2
 62
     6
100
AcDbLine
 10
2371.5
 20
1587.151716
 30
0.0
 11
2371.5
 21
1447.2
 31
0.0
  0
LINE
  5
34A
100
AcDbEntity
  8
化粧台
  6
CONTINUOUS
 62
     6
100
AcDbLine
 10
2478.5
 20
1546.5
 30
0.0
 11
2478.5
 21
1578.5
 31
0.0
  0
LINE
  5
34B
100
AcDbEntity
  8
化粧台
  6
EXLTYPE4
 62
     6
100
AcDbLine
 10
2327.5
 20
1578.5
 30
0.0
 11
2478.5
 21
1578.5
 31
0.0
  0
LINE
  5
34C
100
AcDbEntity
  8
化粧台
  6
EXLTYPE4
 62
     6
100
AcDbLine
 10
2327.5
 20
1546.5
 30
0.0
 11
2478.5
 21
1546.5
 31
0.0
  0
LINE
  5
34D
100
AcDbEntity
  8
化粧台
  6
EXLTYPE3
 62
     6
100
AcDbLine
 10
2317.5
 20
1562.5
 30
0.0
 11
2488.5
 21
1562.5
 31
0.0
  0
LINE
  5
34E
100
AcDbEntity
  8
化粧台
  6
CONTINUOUS
 62
     6
100
AcDbLine
 10
2380.5
 20
1009.5
 30
0.0
 11
2359.5
 21
1009.5
 31
0.0
  0
LINE
  5
34F
100
AcDbEntity
  8
化粧台
  6
CONTINUOUS
 62
     6
100
AcDbLine
 10
2304.0
 20
987.5
 30
0.0
 11
2336.0
 21
987.5
 31
0.0
  0
LINE
  5
350
100
AcDbEntity
  8
化粧台
  6
EXLTYPE4
 62
     6
100
AcDbLine
 10
2336.0
 20
1217.5
 30
0.0
 11
2336.0
 21
987.5
 31
0.0
  0
LINE
  5
351
100
AcDbEntity
  8
化粧台
  6
EXLTYPE4
 62
     6
100
AcDbLine
 10
2304.0
 20
1217.5
 30
0.0
 11
2304.0
 21
987.5
 31
0.0
  0
LINE
  5
352
100
AcDbEntity
  8
化粧台
  6
EXLTYPE3
 62
     6
100
AcDbLine
 10
2320.0
 20
1227.5
 30
0.0
 11
2320.0
 21
977.5
 31
0.0
  0
LINE
  5
353
100
AcDbEntity
  8
化粧台
  6
EXLTYPE3
 62
     6
100
AcDbLine
 10
2370.0
 20
1227.5
 30
0.0
 11
2370.0
 21
999.5
 31
0.0
  0
LINE
  5
354
100
AcDbEntity
  8
化粧台
  6
EXLTYPE4
 62
     6
100
AcDbLine
 10
2359.5
 20
1217.5
 30
0.0
 11
2359.5
 21
1009.5
 31
0.0
  0
LINE
  5
355
100
AcDbEntity
  8
化粧台
  6
EXLTYPE4
 62
     6
100
AcDbLine
 10
2380.5
 20
1217.5
 30
0.0
 11
2380.5
 21
1009.5
 31
0.0
  0
LINE
  5
356
100
AcDbEntity
  8
化粧台
  6
EXLTYPE2
 62
     6
100
AcDbLine
 10
2170.0
 20
1536.5
 30
0.0
 11
2214.0
 21
1536.5
 31
0.0
  0
LINE
  5
357
100
AcDbEntity
  8
化粧台
  6
EXLTYPE2
 62
     6
100
AcDbLine
 10
2176.0
 20
1474.524886
 30
0.0
 11
2176.0
 21
1438.5
 31
0.0
  0
LINE
  5
358
100
AcDbEntity
  8
化粧台
  6
EXLTYPE2
 62
     6
100
AcDbLine
 10
2208.0
 20
1474.524886
 30
0.0
 11
2208.0
 21
1438.5
 31
0.0
  0
ARC
  5
359
100
AcDbEntity
  8
化粧台
  6
EXLTYPE2
 62
     6
100
AcDbCircle
 10
2230.0
 20
1438.5
 30
0.0
 40
22.0
100
AcDbArc
 50
180.0
 51
0.0
  0
ARC
  5
35A
100
AcDbEntity
  8
化粧台
  6
EXLTYPE2
 62
     6
100
AcDbCircle
 10
2230.0
 20
1438.5
 30
0.0
 40
54.0
100
AcDbArc
 50
180.0
 51
0.0
  0
LINE
  5
35B
100
AcDbEntity
  8
化粧台
  6
EXLTYPE2
 62
     6
100
AcDbLine
 10
2176.0
 20
1474.899886
 30
0.0
 11
2208.0
 21
1474.899886
 31
0.0
  0
LINE
  5
35C
100
AcDbEntity
  8
化粧台
  6
EXLTYPE2
 62
     6
100
AcDbLine
 10
2175.25
 20
1475.274886
 30
0.0
 11
2176.0
 21
1474.524886
 31
0.0
  0
LINE
  5
35D
100
AcDbEntity
  8
化粧台
  6
EXLTYPE2
 62
     6
100
AcDbLine
 10
2208.75
 20
1475.274886
 30
0.0
 11
2208.0
 21
1474.524886
 31
0.0
  0
LINE
  5
35E
100
AcDbEntity
  8
化粧台
  6
EXLTYPE2
 62
     6
100
AcDbLine
 10
2208.75
 20
1524.5
 30
0.0
 11
2208.75
 21
1475.274886
 31
0.0
  0
LINE
  5
35F
100
AcDbEntity
  8
化粧台
  6
EXLTYPE2
 62
     6
100
AcDbLine
 10
2175.25
 20
1524.5
 30
0.0
 11
2175.25
 21
1475.274886
 31
0.0
  0
ELLIPSE
  5
360
100
AcDbEntity
  8
化粧台
  6
EXLTYPE2
 62
     6
100
AcDbEllipse
 10
2173.356568
 20
1530.5
 30
0.0
 11
0.0000000000000004
 21
6.0000475440321903
 31
0.0
210
0.0
220
0.0
230
1.0
 40
0.892754
 41
0.0
 42
6.2831853071796004
  0
ELLIPSE
  5
361
100
AcDbEntity
  8
化粧台
  6
EXLTYPE2
 62
     6
100
AcDbEllipse
 10
2192.0
 20
1530.5
 30
0.0
 11
10.665364503850013
 21
0.0
 31
0.0
210
0.0
220
0.0
230
1.0
 40
0.562569
 41
0.0
 42
6.2831853071796004
  0
ELLIPSE
  5
362
100
AcDbEntity
  8
化粧台
  6
EXLTYPE2
 62
     6
100
AcDbEllipse
 10
2210.643432
 20
1530.5
 30
0.0
 11
0.0000000000000004
 21
6.0000475440321521
 31
0.0
210
0.0
220
0.0
230
1.0
 40
0.892754
 41
0.0
 42
6.2831853071796004
  0
LINE
  5
363
100
AcDbEntity
  8
化粧台
  6
EXLTYPE2
 62
     6
100
AcDbLine
 10
2170.0
 20
1524.5
 30
0.0
 11
2214.0
 21
1524.5
 31
0.0
  0
ARC
  5
364
100
AcDbEntity
  8
化粧台
  6
EXLTYPE2
 62
     6
100
AcDbCircle
 10
2206.0
 20
1530.5
 30
0.0
 40
10.0
100
AcDbArc
 50
323.130102
 51
36.869898
  0
ARC
  5
365
100
AcDbEntity
  8
化粧台
  6
EXLTYPE2
 62
     6
100
AcDbCircle
 10
2178.0
 20
1530.5
 30
0.0
 40
10.0
100
AcDbArc
 50
143.130102
 51
216.869898
  0
ARC
  5
366
100
AcDbEntity
  8
化粧台
  6
EXLTYPE2
 62
     6
100
AcDbCircle
 10
2306.0
 20
1454.5
 30
0.0
 40
54.0
100
AcDbArc
 50
90.0
 51
181.061094
  0
ARC
  5
367
100
AcDbEntity
  8
化粧台
  6
EXLTYPE2
 62
     6
100
AcDbCircle
 10
2306.0
 20
1454.5
 30
0.0
 40
22.0
100
AcDbArc
 50
90.0
 51
182.605251
  0
LINE
  5
368
100
AcDbEntity
  8
化粧台
  6
EXLTYPE2
 62
     6
100
AcDbLine
 10
2389.9
 20
1514.497008
 30
0.0
 11
2389.9
 21
1470.502992
 31
0.0
  0
ARC
  5
369
100
AcDbEntity
  8
化粧台
  6
EXLTYPE2
 62
     6
100
AcDbCircle
 10
2400.90299
 20
1514.497008
 30
0.0
 40
11.002992
100
AcDbArc
 50
90.0
 51
180.0
  0
ARC
  5
36A
100
AcDbEntity
  8
化粧台
  6
EXLTYPE2
 62
     6
100
AcDbCircle
 10
2400.90299
 20
1470.502992
 30
0.0
 40
11.002992
100
AcDbArc
 50
180.0
 51
270.0
  0
LINE
  5
36B
100
AcDbEntity
  8
化粧台
  6
EXLTYPE2
 62
     6
100
AcDbLine
 10
2429.9
 20
1525.5
 30
0.0
 11
2429.9
 21
1459.5
 31
0.0
  0
LINE
  5
36C
100
AcDbEntity
  8
化粧台
  6
EXLTYPE2
 62
     6
100
AcDbLine
 10
2400.90299
 20
1525.5
 30
0.0
 11
2429.9
 21
1525.5
 31
0.0
  0
LINE
  5
36D
100
AcDbEntity
  8
化粧台
  6
EXLTYPE2
 62
     6
100
AcDbLine
 10
2400.90299
 20
1459.5
 30
0.0
 11
2429.9
 21
1459.5
 31
0.0
  0
ARC
  5
36E
100
AcDbEntity
  8
化粧台
  6
EXLTYPE2
 62
     6
100
AcDbCircle
 10
2437.5
 20
1478.5
 30
0.0
 40
10.0
100
AcDbArc
 50
233.130102
 51
306.869898
  0
ARC
  5
36F
100
AcDbEntity
  8
化粧台
  6
EXLTYPE2
 62
     6
100
AcDbCircle
 10
2437.5
 20
1506.5
 30
0.0
 40
10.0
100
AcDbArc
 50
53.130102
 51
126.869898
  0
ELLIPSE
  5
370
100
AcDbEntity
  8
化粧台
  6
EXLTYPE2
 62
     6
100
AcDbEllipse
 10
2437.5
 20
1511.143432
 30
0.0
 11
-6.0000475440321521
 21
-0.0000000000000046
 31
0.0
210
0.0
220
0.0
230
1.0
 40
0.892754
 41
0.0
 42
6.2831853071796004
  0
ELLIPSE
  5
371
100
AcDbEntity
  8
化粧台
  6
EXLTYPE2
 62
     6
100
AcDbEllipse
 10
2437.5
 20
1492.5
 30
0.0
 11
-0.0000000000000065
 21
10.665364503850013
 31
0.0
210
0.0
220
0.0
230
1.0
 40
0.562569
 41
0.0
 42
6.2831853071796004
  0
ELLIPSE
  5
372
100
AcDbEntity
  8
化粧台
  6
EXLTYPE2
 62
     6
100
AcDbEllipse
 10
2437.5
 20
1473.856568
 30
0.0
 11
-6.0000475440321903
 21
-0.0000000000000046
 31
0.0
210
0.0
220
0.0
230
1.0
 40
0.892754
 41
0.0
 42
6.2831853071796004
  0
LINE
  5
373
100
AcDbEntity
  8
化粧台
  6
EXLTYPE2
 62
     6
100
AcDbLine
 10
2431.5
 20
1470.5
 30
0.0
 11
2431.5
 21
1514.5
 31
0.0
  0
LINE
  5
374
100
AcDbEntity
  8
化粧台
  6
EXLTYPE2
 62
     6
100
AcDbLine
 10
2443.5
 20
1470.5
 30
0.0
 11
2443.5
 21
1514.5
 31
0.0
  0
LINE
  5
375
100
AcDbEntity
  8
化粧台
  6
EXLTYPE2
 62
     6
100
AcDbLine
 10
2448.5
 20
1462.5
 30
0.0
 11
2448.5
 21
1522.5
 31
0.0
  0
LINE
  5
376
100
AcDbEntity
  8
化粧台
  6
EXLTYPE2
 62
     6
100
AcDbLine
 10
2446.5
 20
1462.5
 30
0.0
 11
2446.5
 21
1522.5
 31
0.0
  0
LINE
  5
377
100
AcDbEntity
  8
化粧台
  6
EXLTYPE2
 62
     6
100
AcDbLine
 10
2446.5
 20
1462.5
 30
0.0
 11
2448.5
 21
1462.5
 31
0.0
  0
LINE
  5
378
100
AcDbEntity
  8
化粧台
  6
EXLTYPE2
 62
     6
100
AcDbLine
 10
2446.5
 20
1522.5
 30
0.0
 11
2448.5
 21
1522.5
 31
0.0
  0
LINE
  5
379
100
AcDbEntity
  8
化粧台
  6
EXLTYPE2
 62
     6
100
AcDbLine
 10
2443.5
 20
1512.5
 30
0.0
 11
2446.5
 21
1512.5
 31
0.0
  0
LINE
  5
37A
100
AcDbEntity
  8
化粧台
  6
EXLTYPE2
 62
     6
100
AcDbLine
 10
2443.5
 20
1472.5
 30
0.0
 11
2446.5
 21
1472.5
 31
0.0
  0
LINE
  5
37B
100
AcDbEntity
  8
化粧台
  6
EXLTYPE2
 62
     6
100
AcDbLine
 10
2306.0
 20
1508.5
 30
0.0
 11
2389.9
 21
1508.5
 31
0.0
  0
LINE
  5
37C
100
AcDbEntity
  8
化粧台
  6
EXLTYPE2
 62
     6
100
AcDbLine
 10
2306.0
 20
1476.5
 30
0.0
 11
2389.9
 21
1476.5
 31
0.0
  0
LINE
  5
37D
100
AcDbEntity
  8
化粧台
  6
EXLTYPE2
 62
     6
100
AcDbLine
 10
2284.0
 20
1441.5
 30
0.0
 11
2284.0
 21
1438.5
 31
0.0
  0
LINE
  5
37E
100
AcDbEntity
  8
化粧台
  6
EXLTYPE2
 62
     6
100
AcDbLine
 10
2252.0
 20
1441.5
 30
0.0
 11
2252.0
 21
1438.5
 31
0.0
  0
ELLIPSE
  5
37F
100
AcDbEntity
  8
化粧台
  6
EXLTYPE2
 62
     6
100
AcDbEllipse
 10
2249.356568
 20
1447.5
 30
0.0
 11
0.0000000000000004
 21
6.0000475440321903
 31
0.0
210
0.0
220
0.0
230
1.0
 40
0.892754
 41
0.0
 42
6.2831853071796004
  0
ELLIPSE
  5
380
100
AcDbEntity
  8
化粧台
  6
EXLTYPE2
 62
     6
100
AcDbEllipse
 10
2268.0
 20
1447.5
 30
0.0
 11
10.665364503850013
 21
0.0
 31
0.0
210
0.0
220
0.0
230
1.0
 40
0.562569
 41
0.0
 42
6.2831853071796004
  0
ELLIPSE
  5
381
100
AcDbEntity
  8
化粧台
  6
EXLTYPE2
 62
     6
100
AcDbEllipse
 10
2286.643432
 20
1447.5
 30
0.0
 11
0.0000000000000004
 21
6.0000475440321521
 31
0.0
210
0.0
220
0.0
230
1.0
 40
0.892754
 41
0.0
 42
6.2831853071796004
  0
LINE
  5
382
100
AcDbEntity
  8
化粧台
  6
EXLTYPE2
 62
     6
100
AcDbLine
 10
2246.0
 20
1453.5
 30
0.0
 11
2290.0
 21
1453.5
 31
0.0
  0
LINE
  5
383
100
AcDbEntity
  8
化粧台
  6
EXLTYPE2
 62
     6
100
AcDbLine
 10
2246.0
 20
1441.5
 30
0.0
 11
2290.0
 21
1441.5
 31
0.0
  0
ARC
  5
384
100
AcDbEntity
  8
化粧台
  6
EXLTYPE2
 62
     6
100
AcDbCircle
 10
2282.0
 20
1447.5
 30
0.0
 40
10.0
100
AcDbArc
 50
323.130102
 51
36.869898
  0
ARC
  5
385
100
AcDbEntity
  8
化粧台
  6
EXLTYPE2
 62
     6
100
AcDbCircle
 10
2254.0
 20
1447.5
 30
0.0
 40
10.0
100
AcDbArc
 50
143.130102
 51
216.869898
  0
LINE
  5
386
100
AcDbEntity
  8
化粧台
  6
EXLTYPE3
 62
     6
100
AcDbLine
 10
2483.5
 20
1492.5
 30
0.0
 11
2306.0
 21
1492.5
 31
0.0
  0
LINE
  5
387
100
AcDbEntity
  8
化粧台
  6
EXLTYPE2
 62
     6
100
AcDbLine
 10
2431.4
 20
1667.5
 30
0.0
 11
2431.4
 21
1267.5
 31
0.0
  0
LINE
  5
388
100
AcDbEntity
  8
化粧台
  6
EXLTYPE2
 62
     6
100
AcDbLine
 10
2431.4
 20
1267.5
 30
0.0
 11
2448.9
 21
1267.5
 31
0.0
  0
LINE
  5
389
100
AcDbEntity
  8
化粧台
  6
CONTINUOUS
 62
     6
100
AcDbLine
 10
2448.5
 20
1467.0
 30
0.0
 11
2473.5
 21
1467.0
 31
0.0
  0
LINE
  5
38A
100
AcDbEntity
  8
化粧台
  6
CONTINUOUS
 62
     6
100
AcDbLine
 10
2473.5
 20
1467.0
 30
0.0
 11
2473.5
 21
1518.0
 31
0.0
  0
LINE
  5
38B
100
AcDbEntity
  8
化粧台
  6
CONTINUOUS
 62
     6
100
AcDbLine
 10
2448.5
 20
1518.0
 30
0.0
 11
2473.5
 21
1518.0
 31
0.0
  0
LINE
  5
38C
100
AcDbEntity
  8
化粧台
  6
EXLTYPE3
 62
     6
100
AcDbLine
 10
2192.0
 20
1727.5
 30
0.0
 11
2192.0
 21
1474.5
 31
0.0
  0
LINE
  5
38D
100
AcDbEntity
  8
化粧台
  6
EXLTYPE4
 62
     6
100
AcDbLine
 10
2450.0
 20
1017.5
 30
0.0
 11
1821.5
 21
1017.5
 31
0.0
  0
LINE
  5
38E
100
AcDbEntity
  8
化粧台
  6
CONTINUOUS
 62
     2
100
AcDbLine
 10
2000.0
 20
1717.5
 30
0.0
 11
2000.0
 21
1017.5
 31
0.0
  0
LINE
  5
38F
100
AcDbEntity
  8
化粧台
  6
CONTINUOUS
 62
     2
100
AcDbLine
 10
2000.0
 20
1017.5
 30
0.0
 11
2450.0
 21
1017.5
 31
0.0
  0
LINE
  5
390
100
AcDbEntity
  8
化粧台
  6
CONTINUOUS
 62
     2
100
AcDbLine
 10
2450.0
 20
1717.5
 30
0.0
 11
2000.0
 21
1717.5
 31
0.0
  0
LINE
  5
391
100
AcDbEntity
  8
化粧台
  6
EXLTYPE2
 62
     6
100
AcDbLine
 10
2000.0
 20
1667.5
 30
0.0
 11
2450.0
 21
1667.5
 31
0.0
  0
LINE
  5
392
100
AcDbEntity
  8
化粧台
  6
CONTINUOUS
 62
     6
100
AcDbLine
 10
2458.0
 20
1468.0
 30
0.0
 11
2458.0
 21
1447.0
 31
0.0
  0
LINE
  5
393
100
AcDbEntity
  8
化粧台
  6
EXLTYPE2
 62
     6
100
AcDbLine
 10
2431.4
 20
1447.0
 30
0.0
 11
2458.0
 21
1447.0
 31
0.0
  0
LINE
  5
394
100
AcDbEntity
  8
化粧台
  6
EXLTYPE2
 62
     6
100
AcDbLine
 10
2431.4
 20
1468.0
 30
0.0
 11
2458.0
 21
1468.0
 31
0.0
  0
LINE
  5
395
100
AcDbEntity
  8
化粧台
  6
EXLTYPE2
 62
     6
100
AcDbLine
 10
2429.4
 20
1485.0
 30
0.0
 11
2431.4
 21
1485.0
 31
0.0
  0
ARC
  5
396
100
AcDbEntity
  8
化粧台
  6
EXLTYPE2
 62
     6
100
AcDbCircle
 10
2429.4
 20
1472.0
 30
0.0
 40
13.0
100
AcDbArc
 50
90.0
 51
156.419163
  0
ARC
  5
397
100
AcDbEntity
  8
化粧台
  6
EXLTYPE2
 62
     6
100
AcDbCircle
 10
2440.672908
 20
1467.079477
 30
0.0
 40
25.3
100
AcDbArc
 50
156.419163
 51
177.348222
  0
LINE
  5
398
100
AcDbEntity
  8
化粧台
  6
EXLTYPE2
 62
     6
100
AcDbLine
 10
2415.4
 20
1446.75
 30
0.0
 11
2415.4
 21
1468.25
 31
0.0
  0
ARC
  5
399
100
AcDbEntity
  8
化粧台
  6
EXLTYPE2
 62
     6
100
AcDbCircle
 10
2429.4
 20
1443.0
 30
0.0
 40
13.0
100
AcDbArc
 50
203.580837
 51
270.0
  0
ARC
  5
39A
100
AcDbEntity
  8
化粧台
  6
EXLTYPE2
 62
     6
100
AcDbCircle
 10
2440.672908
 20
1447.920523
 30
0.0
 40
25.3
100
AcDbArc
 50
182.651778
 51
203.580837
  0
LINE
  5
39B
100
AcDbEntity
  8
化粧台
  6
EXLTYPE2
 62
     6
100
AcDbLine
 10
2429.4
 20
1430.0
 30
0.0
 11
2431.4
 21
1430.0
 31
0.0
  0
LINE
  5
39C
100
AcDbEntity
  8
化粧台
  6
EXLTYPE2
 62
     6
100
AcDbLine
 10
2393.0
 20
1447.0
 30
0.0
 11
2415.4
 21
1447.0
 31
0.0
  0
LINE
  5
39D
100
AcDbEntity
  8
化粧台
  6
EXLTYPE2
 62
     6
100
AcDbLine
 10
2393.0
 20
1468.0
 30
0.0
 11
2415.4
 21
1468.0
 31
0.0
  0
LINE
  5
39E
100
AcDbEntity
  8
化粧台
  6
CONTINUOUS
 62
     6
100
AcDbLine
 10
2365.0
 20
1487.5
 30
0.0
 11
2365.0
 21
1427.5
 31
0.0
  0
ARC
  5
39F
100
AcDbEntity
  8
化粧台
  6
EXLTYPE2
 62
     6
100
AcDbCircle
 10
2386.233493
 20
1446.458176
 30
0.0
 40
6.484775
100
AcDbArc
 50
334.581421
 51
34.581421
  0
ARC
  5
3A0
100
AcDbEntity
  8
化粧台
  6
EXLTYPE2
 62
     6
100
AcDbCircle
 10
2386.233493
 20
1468.541824
 30
0.0
 40
6.484775
100
AcDbArc
 50
325.418579
 51
25.418579
  0
LINE
  5
3A1
100
AcDbEntity
  8
化粧台
  6
EXLTYPE2
 62
     6
100
AcDbLine
 10
2332.0
 20
1462.25
 30
0.0
 11
2332.0
 21
1452.75
 31
0.0
  0
LINE
  5
3A2
100
AcDbEntity
  8
化粧台
  6
EXLTYPE2
 62
     6
100
AcDbLine
 10
2332.0
 20
1452.75
 30
0.0
 11
2337.6
 21
1452.75
 31
0.0
  0
LINE
  5
3A3
100
AcDbEntity
  8
化粧台
  6
EXLTYPE2
 62
     6
100
AcDbLine
 10
2332.0
 20
1462.25
 30
0.0
 11
2337.6
 21
1462.25
 31
0.0
  0
LINE
  5
3A4
100
AcDbEntity
  8
化粧台
  6
EXLTYPE2
 62
     6
100
AcDbLine
 10
2375.5
 20
1473.5
 30
0.0
 11
2375.5
 21
1480.2
 31
0.0
  0
LINE
  5
3A5
100
AcDbEntity
  8
化粧台
  6
EXLTYPE2
 62
     6
100
AcDbLine
 10
2354.5
 20
1473.5
 30
0.0
 11
2354.5
 21
1480.2
 31
0.0
  0
LINE
  5
3A6
100
AcDbEntity
  8
化粧台
  6
EXLTYPE2
 62
     6
100
AcDbLine
 10
2391.572541
 20
1464.861216
 30
0.0
 11
2386.0
 21
1464.861216
 31
0.0
  0
ARC
  5
3A7
100
AcDbEntity
  8
化粧台
  6
EXLTYPE2
 62
     6
100
AcDbCircle
 10
2368.350109
 20
1457.5
 30
0.0
 40
24.361216
100
AcDbArc
 50
342.412046
 51
17.587954
  0
LINE
  5
3A8
100
AcDbEntity
  8
化粧台
  6
EXLTYPE2
 62
     6
100
AcDbLine
 10
2391.572541
 20
1450.138784
 30
0.0
 11
2386.0
 21
1450.138784
 31
0.0
  0
ARC
  5
3A9
100
AcDbEntity
  8
化粧台
  6
EXLTYPE2
 62
     6
100
AcDbCircle
 10
2386.609964
 20
1446.458176
 30
0.0
 40
3.730808
100
AcDbArc
 50
99.40975
 51
210.07224
  0
ARC
  5
3AA
100
AcDbEntity
  8
化粧台
  6
EXLTYPE2
 62
     6
100
AcDbCircle
 10
2393.160902
 20
1457.5
 30
0.0
 40
10.269665
100
AcDbArc
 50
134.209728
 51
225.790272
  0
ARC
  5
3AB
100
AcDbEntity
  8
化粧台
  6
EXLTYPE2
 62
     6
100
AcDbCircle
 10
2386.609964
 20
1468.541824
 30
0.0
 40
3.730808
100
AcDbArc
 50
149.92776
 51
260.59025
  0
LINE
  5
3AC
100
AcDbEntity
  8
化粧台
  6
EXLTYPE2
 62
     6
100
AcDbLine
 10
2350.5
 20
1445.0
 30
0.0
 11
2381.10588
 21
1445.0
 31
0.0
  0
LINE
  5
3AD
100
AcDbEntity
  8
化粧台
  6
EXLTYPE2
 62
     6
100
AcDbLine
 10
2350.5
 20
1470.0
 30
0.0
 11
2351.0
 21
1470.0
 31
0.0
  0
ELLIPSE
  5
3AE
100
AcDbEntity
  8
化粧台
  6
EXLTYPE2
 62
     6
100
AcDbEllipse
 10
2346.725083
 20
1468.795088
 30
0.0
 11
-3.4910600109400001
 21
-0.0000000000000027
 31
0.0
210
0.0
220
0.0
230
1.0
 40
0.846423
 41
0.0
 42
6.2831853071796004
  0
ELLIPSE
  5
3AF
100
AcDbEntity
  8
化粧台
  6
EXLTYPE2
 62
     6
100
AcDbEllipse
 10
2346.725083
 20
1457.5
 30
0.0
 11
-0.0000000000000035
 21
5.8363087649600001
 31
0.0
210
0.0
220
0.0
230
1.0
 40
0.598162
 41
0.0
 42
6.2831853071796004
  0
ELLIPSE
  5
3B0
100
AcDbEntity
  8
化粧台
  6
EXLTYPE2
 62
     6
100
AcDbEllipse
 10
2346.725083
 20
1446.204912
 30
0.0
 11
-3.4910600109400001
 21
-0.0000000000000027
 31
0.0
210
0.0
220
0.0
230
1.0
 40
0.846423
 41
0.0
 42
6.2831853071796004
  0
LINE
  5
3B1
100
AcDbEntity
  8
化粧台
  6
EXLTYPE2
 62
     6
100
AcDbLine
 10
2342.34345
 20
1445.425651
 30
0.0
 11
2342.34345
 21
1469.574349
 31
0.0
  0
LINE
  5
3B2
100
AcDbEntity
  8
化粧台
  6
EXLTYPE2
 62
     6
100
AcDbLine
 10
2337.6
 20
1462.8
 30
0.0
 11
2342.34345
 21
1469.574349
 31
0.0
  0
ARC
  5
3B3
100
AcDbEntity
  8
化粧台
  6
EXLTYPE2
 62
     6
100
AcDbCircle
 10
2346.725083
 20
1466.25
 30
0.0
 40
5.5
100
AcDbArc
 50
46.658242
 51
142.812374
  0
LINE
  5
3B4
100
AcDbEntity
  8
化粧台
  6
EXLTYPE2
 62
     6
100
AcDbLine
 10
2337.6
 20
1452.2
 30
0.0
 11
2342.34345
 21
1445.425651
 31
0.0
  0
ARC
  5
3B5
100
AcDbEntity
  8
化粧台
  6
EXLTYPE2
 62
     6
100
AcDbCircle
 10
2346.725083
 20
1448.75
 30
0.0
 40
5.5
100
AcDbArc
 50
217.187626
 51
313.341758
  0
LINE
  5
3B6
100
AcDbEntity
  8
化粧台
  6
EXLTYPE2
 62
     6
100
AcDbLine
 10
2350.5
 20
1444.75
 30
0.0
 11
2350.5
 21
1470.25
 31
0.0
  0
LINE
  5
3B7
100
AcDbEntity
  8
化粧台
  6
EXLTYPE2
 62
     6
100
AcDbLine
 10
2337.6
 20
1452.2
 30
0.0
 11
2337.6
 21
1462.8
 31
0.0
  0
LINE
  5
3B8
100
AcDbEntity
  8
化粧台
  6
EXLTYPE2
 62
     6
100
AcDbLine
 10
2379.0
 20
1470.0
 30
0.0
 11
2381.10588
 21
1470.0
 31
0.0
  0
ARC
  5
3B9
100
AcDbEntity
  8
化粧台
  6
EXLTYPE2
 62
     6
100
AcDbCircle
 10
2379.0
 20
1473.5
 30
0.0
 40
3.5
100
AcDbArc
 50
180.0
 51
270.0
  0
ARC
  5
3BA
100
AcDbEntity
  8
化粧台
  6
EXLTYPE2
 62
     6
100
AcDbCircle
 10
2351.0
 20
1473.5
 30
0.0
 40
3.5
100
AcDbArc
 50
270.0
 51
0.0
  0
LINE
  5
3BB
100
AcDbEntity
  8
化粧台
  6
EXLTYPE2
 62
     6
100
AcDbLine
 10
2391.572541
 20
1442.777568
 30
0.0
 11
2386.0
 21
1442.777568
 31
0.0
  0
LINE
  5
3BC
100
AcDbEntity
  8
化粧台
  6
EXLTYPE2
 62
     6
100
AcDbLine
 10
2391.572541
 20
1472.222432
 30
0.0
 11
2386.0
 21
1472.222432
 31
0.0
  0
LINE
  5
3BD
100
AcDbEntity
  8
化粧台
  6
EXLTYPE2
 62
     6
100
AcDbLine
 10
2393.0
 20
1469.75
 30
0.0
 11
2393.0
 21
1445.25
 31
0.0
  0
LINE
  5
3BE
100
AcDbEntity
  8
化粧台
  6
EXLTYPE2
 62
     6
100
AcDbLine
 10
2393.0
 20
1445.25
 30
0.0
 11
2391.572541
 21
1442.777568
 31
0.0
  0
LINE
  5
3BF
100
AcDbEntity
  8
化粧台
  6
EXLTYPE2
 62
     6
100
AcDbLine
 10
2393.0
 20
1469.75
 30
0.0
 11
2391.572541
 21
1472.222432
 31
0.0
  0
ARC
  5
3C0
100
AcDbEntity
  8
化粧台
  6
EXLTYPE2
 62
     6
100
AcDbCircle
 10
2381.10588
 20
1438.5
 30
0.0
 40
6.5
100
AcDbArc
 50
41.15417
 51
90.0
  0
ARC
  5
3C1
100
AcDbEntity
  8
化粧台
  6
EXLTYPE2
 62
     6
100
AcDbCircle
 10
2381.10588
 20
1476.5
 30
0.0
 40
6.5
100
AcDbArc
 50
270.0
 51
318.84583
  0
ARC
  5
3C2
100
AcDbEntity
  8
化粧台
  6
EXLTYPE2
 62
     6
100
AcDbCircle
 10
2363.25
 20
1486.2
 30
0.0
 40
11.0
100
AcDbArc
 50
146.944269
 51
213.055731
  0
LINE
  5
3C3
100
AcDbEntity
  8
化粧台
  6
EXLTYPE2
 62
     6
100
AcDbLine
 10
2375.969544
 20
1480.2
 30
0.0
 11
2354.030456
 21
1480.2
 31
0.0
  0
ARC
  5
3C4
100
AcDbEntity
  8
化粧台
  6
EXLTYPE2
 62
     6
100
AcDbCircle
 10
2366.75
 20
1486.2
 30
0.0
 40
11.0
100
AcDbArc
 50
326.944269
 51
33.055731
  0
LINE
  5
3C5
100
AcDbEntity
  8
化粧台
  6
EXLTYPE2
 62
     6
100
AcDbLine
 10
2375.969544
 20
1492.2
 30
0.0
 11
2354.030456
 21
1492.2
 31
0.0
  0
ELLIPSE
  5
3C6
100
AcDbEntity
  8
化粧台
  6
EXLTYPE2
 62
     6
100
AcDbEllipse
 10
2355.021774
 20
1486.2
 30
0.0
 11
-0.0000000000000009
 21
-5.0928871968700005
 31
0.0
210
0.0
220
0.0
230
1.0
 40
0.544244
 41
0.0
 42
6.2831853071796004
  0
ELLIPSE
  5
3C7
100
AcDbEntity
  8
化粧台
  6
EXLTYPE2
 62
     6
100
AcDbEllipse
 10
2365.0
 20
1486.2
 30
0.0
 11
5.5056788863900001
 21
0.0
 31
0.0
210
0.0
220
0.0
230
1.0
 40
0.925024
 41
0.0
 42
6.2831853071796004
  0
ELLIPSE
  5
3C8
100
AcDbEntity
  8
化粧台
  6
EXLTYPE2
 62
     6
100
AcDbEllipse
 10
2374.978226
 20
1486.2
 30
0.0
 11
0.0000000000000003
 21
5.0928871968700005
 31
0.0
210
0.0
220
0.0
230
1.0
 40
0.544244
 41
0.0
 42
6.2831853071796004
  0
LINE
  5
3C9
100
AcDbEntity
  8
化粧台
  6
EXLTYPE3
 62
     6
100
AcDbLine
 10
2322.0
 20
1457.5
 30
0.0
 11
2468.0
 21
1457.5
 31
0.0
  0
LINE
  5
3CA
100
AcDbEntity
  8
寸法
  6
CONTINUOUS
 62
     3
100
AcDbLine
 10
770.0
 20
2717.980762
 30
0.0
 11
770.0
 21
2842.5
 31
0.0
  0
LINE
  5
3CB
100
AcDbEntity
  8
寸法
  6
CONTINUOUS
 62
     3
100
AcDbLine
 10
1070.0
 20
2717.980762
 30
0.0
 11
1070.0
 21
2842.5
 31
0.0
  0
TEXT
  5
3CC
100
AcDbEntity
  8
寸法
  6
CONTINUOUS
 62
     2
100
AcDbText
 10
756.5
 20
2832.75
 30
0.0
 40
60.0
  1
３００
 41
0.7
  7
EXCADSTD
 72
     5
 11
906.5
 21
2832.75
 31
0.0
100
AcDbText
  0
TEXT
  5
3CD
100
AcDbEntity
  8
寸法
  6
CONTINUOUS
 62
     2
100
AcDbText
 10
899.0
 20
2832.75
 30
0.0
 40
47.999996
  1
（壁固定）
 41
0.672
  7
EXCADSTD
 72
     5
 11
1090.999989
 21
2832.75
 31
0.0
100
AcDbText
  0
LINE
  5
3CE
100
AcDbEntity
  8
寸法
  6
CONTINUOUS
 62
     3
100
AcDbLine
 10
725.0
 20
2827.5
 30
0.0
 11
1115.0
 21
2827.5
 31
0.0
  0
LINE
  5
3CF
100
AcDbEntity
  8
寸法
  6
CONTINUOUS
 62
     3
100
AcDbLine
 10
725.0
 20
2820.0
 30
0.0
 11
770.0
 21
2827.5
 31
0.0
  0
LINE
  5
3D0
100
AcDbEntity
  8
寸法
  6
CONTINUOUS
 62
     3
100
AcDbLine
 10
770.0
 20
2827.5
 30
0.0
 11
725.0
 21
2835.0
 31
0.0
  0
LINE
  5
3D1
100
AcDbEntity
  8
寸法
  6
CONTINUOUS
 62
     3
100
AcDbLine
 10
1115.0
 20
2835.0
 30
0.0
 11
1070.0
 21
2827.5
 31
0.0
  0
LINE
  5
3D2
100
AcDbEntity
  8
寸法
  6
CONTINUOUS
 62
     3
100
AcDbLine
 10
1070.0
 20
2827.5
 30
0.0
 11
1115.0
 21
2820.0
 31
0.0
  0
DIMENSION
  5
3DF
100
AcDbEntity
  8
寸法
  6
CONTINUOUS
 62
     3
100
AcDbDimension
  2
*D14
 10
1220.0
 20
2914.5
 30
0.0
 11
920.0
 21
2949.75
 31
0.0
 70
   160
  3
STANDARD
100
AcDbAlignedDimension
 13
620.0
 23
2767.5
 33
0.0
 14
1220.0
 24
2767.5
 34
0.0
100
AcDbRotatedDimension
1001
ACAD
1000
DSTYLE
1002
{
1070
     6
1000
_EX_NORM
1070
     7
1000
_EX_NORM
1070
    41
1040
45.0
1070
    42
1040
10.5
1070
    44
1040
15.0
1070
    73
1070
     0
1070
    74
1070
     0
1070
    75
1070
     0
1070
    76
1070
     0
1070
    77
1070
     1
1070
    78
1070
     8
1070
   140
1040
60.0
1070
   147
1040
5.25
1070
   173
1070
     1
1070
   176
1070
     3
1070
   177
1070
     3
1070
   178
1070
     2
1070
   271
1070
     2
1070
   279
1070
     2
1070
   280
1070
     0
1070
   287
1070
     5
1070
   340
1005
3DE
1002
}
  0
DIMENSION
  5
3EB
100
AcDbEntity
  8
寸法
  6
CONTINUOUS
 62
     3
100
AcDbDimension
  2
*D15
 10
1333.5
 20
2247.5
 30
0.0
 11
1298.25
 21
2507.5
 31
0.0
 70
   160
  3
STANDARD
100
AcDbAlignedDimension
 13
1220.0
 23
2767.5
 33
0.0
 14
1220.0
 24
2247.5
 34
0.0
 50
90.0
100
AcDbRotatedDimension
1001
ACAD
1000
DSTYLE
1002
{
1070
     6
1000
_EX_NORM
1070
     7
1000
_EX_NORM
1070
    41
1040
45.0
1070
    42
1040
10.5
1070
    44
1040
15.0
1070
    73
1070
     0
1070
    74
1070
     0
1070
    75
1070
     0
1070
    76
1070
     0
1070
    77
1070
     1
1070
    78
1070
     8
1070
   140
1040
60.0
1070
   147
1040
5.25
1070
   173
1070
     1
1070
   176
1070
     3
1070
   177
1070
     3
1070
   178
1070
     2
1070
   271
1070
     2
1070
   279
1070
     2
1070
   280
1070
     0
1070
   287
1070
     5
1070
   340
1005
3DE
1002
}
  0
DIMENSION
  5
3F6
100
AcDbEntity
  8
寸法
  6
CONTINUOUS
 62
     3
100
AcDbDimension
  2
*D16
 10
1580.0
 20
2767.5
 30
0.0
 11
1544.75
 21
1892.5
 31
0.0
 70
   160
  1
（1750）
  3
STANDARD
100
AcDbAlignedDimension
 13
1368.0
 23
1017.5
 33
0.0
 14
1220.0
 24
2767.5
 34
0.0
 50
90.0
100
AcDbRotatedDimension
1001
ACAD
1000
DSTYLE
1002
{
1070
     6
1000
_EX_NORM
1070
     7
1000
_EX_NORM
1070
    41
1040
45.0
1070
    42
1040
10.5
1070
    44
1040
15.0
1070
    73
1070
     0
1070
    74
1070
     0
1070
    75
1070
     1
1070
    76
1070
     0
1070
    77
1070
     1
1070
    78
1070
     8
1070
   140
1040
60.0
1070
   147
1040
5.25
1070
   173
1070
     1
1070
   176
1070
     3
1070
   177
1070
     3
1070
   178
1070
     2
1070
   271
1070
     2
1070
   279
1070
     2
1070
   280
1070
     0
1070
   287
1070
     5
1070
   340
1005
3DE
1002
}
  0
LINE
  5
3F7
100
AcDbEntity
  8
寸法
  6
CONTINUOUS
 62
     3
100
AcDbLine
 10
2493.0
 20
2267.5
 30
0.0
 11
2585.0
 21
2267.5
 31
0.0
  0
LINE
  5
3F8
100
AcDbEntity
  8
寸法
  6
CONTINUOUS
 62
     3
100
AcDbLine
 10
2493.0
 20
2707.480762
 30
0.0
 11
2585.0
 21
2707.480762
 31
0.0
  0
TEXT
  5
3F9
100
AcDbEntity
  8
寸法
  6
CONTINUOUS
 62
     2
100
AcDbText
 10
2564.75
 20
2323.990381
 30
0.0
 40
60.0
  1
４４０
 50
90.0
 41
0.7
  7
EXCADSTD
 72
     5
 11
2564.75
 21
2473.990381
 31
0.0
100
AcDbText
  0
TEXT
  5
3FA
100
AcDbEntity
  8
寸法
  6
CONTINUOUS
 62
     2
100
AcDbText
 10
2564.75
 20
2466.490381
 30
0.0
 40
47.999996
  1
（壁固定）
 50
90.0
 41
0.672
  7
EXCADSTD
 72
     5
 11
2564.75
 21
2658.49037
 31
0.0
100
AcDbText
  0
LINE
  5
3FB
100
AcDbEntity
  8
寸法
  6
CONTINUOUS
 62
     3
100
AcDbLine
 10
2570.0
 20
2267.5
 30
0.0
 11
2570.0
 21
2707.480762
 31
0.0
  0
LINE
  5
3FC
100
AcDbEntity
  8
寸法
  6
CONTINUOUS
 62
     3
100
AcDbLine
 10
2562.5
 20
2312.5
 30
0.0
 11
2570.0
 21
2267.5
 31
0.0
  0
LINE
  5
3FD
100
AcDbEntity
  8
寸法
  6
CONTINUOUS
 62
     3
100
AcDbLine
 10
2570.0
 20
2267.5
 30
0.0
 11
2577.5
 21
2312.5
 31
0.0
  0
LINE
  5
3FE
100
AcDbEntity
  8
寸法
  6
CONTINUOUS
 62
     3
100
AcDbLine
 10
2577.5
 20
2662.480762
 30
0.0
 11
2570.0
 21
2707.480762
 31
0.0
  0
LINE
  5
3FF
100
AcDbEntity
  8
寸法
  6
CONTINUOUS
 62
     3
100
AcDbLine
 10
2570.0
 20
2707.480762
 30
0.0
 11
2562.5
 21
2662.480762
 31
0.0
  0
DIMENSION
  5
40B
100
AcDbEntity
  8
寸法
  6
CONTINUOUS
 62
     3
100
AcDbDimension
  2
*D17
 10
2570.0
 20
2707.480762
 30
0.0
 11
2534.75
 21
2865.0
 31
0.0
 70
   160
  1
60
  3
STANDARD
100
AcDbAlignedDimension
 13
2437.5
 23
2767.5
 33
0.0
 14
2482.5
 24
2707.480762
 34
0.0
 50
90.0
100
AcDbRotatedDimension
1001
ACAD
1000
DSTYLE
1002
{
1070
     6
1000
_EX_NORM
1070
     7
1000
_EX_NORM
1070
    41
1040
45.0
1070
    42
1040
10.5
1070
    44
1040
15.0
1070
    73
1070
     0
1070
    74
1070
     0
1070
    75
1070
     0
1070
    76
1070
     0
1070
    77
1070
     1
1070
    78
1070
     8
1070
   140
1040
60.0
1070
   147
1040
5.25
1070
   173
1070
     1
1070
   176
1070
     3
1070
   177
1070
     3
1070
   178
1070
     2
1070
   271
1070
     2
1070
   279
1070
     2
1070
   280
1070
     1
1070
   287
1070
     5
1070
   340
1005
3DE
1002
}
  0
DIMENSION
  5
416
100
AcDbEntity
  8
寸法
  6
CONTINUOUS
 62
     3
100
AcDbDimension
  2
*D18
 10
2450.0
 20
2827.5
 30
0.0
 11
2315.3
 21
2862.75
 31
0.0
 70
   160
  1
38
  3
STANDARD
100
AcDbAlignedDimension
 13
2412.8
 23
2768.7
 33
0.0
 14
2450.0
 24
2766.5
 34
0.0
100
AcDbRotatedDimension
1001
ACAD
1000
DSTYLE
1002
{
1070
     6
1000
_EX_NORM
1070
     7
1000
_EX_NORM
1070
    41
1040
45.0
1070
    42
1040
10.5
1070
    44
1040
15.0
1070
    73
1070
     0
1070
    74
1070
     0
1070
    75
1070
     0
1070
    76
1070
     1
1070
    77
1070
     1
1070
    78
1070
     8
1070
   140
1040
60.0
1070
   147
1040
5.25
1070
   173
1070
     1
1070
   176
1070
     3
1070
   177
1070
     3
1070
   178
1070
     2
1070
   271
1070
     2
1070
   279
1070
     2
1070
   280
1070
     1
1070
   287
1070
     5
1070
   340
1005
3DE
1002
}
  0
DIMENSION
  5
422
100
AcDbEntity
  8
寸法
  6
CONTINUOUS
 62
     3
100
AcDbDimension
  2
*D19
 10
2915.0
 20
2267.5
 30
0.0
 11
2879.75
 21
1642.5
 31
0.0
 70
   160
  1
（<>）
  3
STANDARD
100
AcDbAlignedDimension
 13
2450.0
 23
1017.5
 33
0.0
 14
2482.5
 24
2267.5
 34
0.0
 50
90.0
100
AcDbRotatedDimension
1001
ACAD
1000
DSTYLE
1002
{
1070
     6
1000
_EX_NORM
1070
     7
1000
_EX_NORM
1070
    41
1040
45.0
1070
    42
1040
10.5
1070
    44
1040
15.0
1070
    73
1070
     0
1070
    74
1070
     0
1070
    75
1070
     0
1070
    76
1070
     0
1070
    77
1070
     1
1070
    78
1070
     0
1070
   140
1040
60.0
1070
   147
1040
5.25
1070
   173
1070
     1
1070
   176
1070
     3
1070
   177
1070
     3
1070
   178
1070
     2
1070
   271
1070
     0
1070
   279
1070
     2
1070
   280
1070
     0
1070
   287
1070
     5
1070
   340
1005
3DE
1002
}
  0
LINE
  5
423
100
AcDbEntity
  8
寸法
  6
CONTINUOUS
 62
     3
100
AcDbLine
 10
2370.0
 20
999.0
 30
0.0
 11
2370.0
 21
882.5
 31
0.0
  0
LINE
  5
424
100
AcDbEntity
  8
寸法
  6
CONTINUOUS
 62
     3
100
AcDbLine
 10
2450.0
 20
1007.0
 30
0.0
 11
2450.0
 21
882.5
 31
0.0
  0
TEXT
  5
425
100
AcDbEntity
  8
寸法
  6
CONTINUOUS
 62
     2
100
AcDbText
 10
2495.0
 20
902.75
 30
0.0
 40
60.0
  1
８０
 41
0.735
  7
EXCADSTD
 72
     5
 11
2591.243
 21
902.75
 31
0.0
100
AcDbText
  0
TEXT
  5
426
100
AcDbEntity
  8
寸法
  6
CONTINUOUS
 62
     2
100
AcDbText
 10
2592.5
 20
902.75
 30
0.0
 40
47.999996
  1
（床給水）
 41
0.672
  7
EXCADSTD
 72
     5
 11
2784.499989
 21
902.75
 31
0.0
100
AcDbText
  0
LINE
  5
427
100
AcDbEntity
  8
寸法
  6
CONTINUOUS
 62
     3
100
AcDbLine
 10
2325.0
 20
897.5
 30
0.0
 11
2782.249994
 21
897.5
 31
0.0
  0
LINE
  5
428
100
AcDbEntity
  8
寸法
  6
CONTINUOUS
 62
     3
100
AcDbLine
 10
2325.0
 20
890.0
 30
0.0
 11
2370.0
 21
897.5
 31
0.0
  0
LINE
  5
429
100
AcDbEntity
  8
寸法
  6
CONTINUOUS
 62
     3
100
AcDbLine
 10
2370.0
 20
897.5
 30
0.0
 11
2325.0
 21
905.0
 31
0.0
  0
LINE
  5
42A
100
AcDbEntity
  8
寸法
  6
CONTINUOUS
 62
     3
100
AcDbLine
 10
2495.0
 20
905.0
 30
0.0
 11
2450.0
 21
897.5
 31
0.0
  0
LINE
  5
42B
100
AcDbEntity
  8
寸法
  6
CONTINUOUS
 62
     3
100
AcDbLine
 10
2450.0
 20
897.5
 30
0.0
 11
2495.0
 21
890.0
 31
0.0
  0
LINE
  5
42C
100
AcDbEntity
  8
寸法
  6
CONTINUOUS
 62
     3
100
AcDbLine
 10
2320.0
 20
977.0
 30
0.0
 11
2320.0
 21
792.5
 31
0.0
  0
LINE
  5
42D
100
AcDbEntity
  8
寸法
  6
CONTINUOUS
 62
     3
100
AcDbLine
 10
2450.0
 20
1007.0
 30
0.0
 11
2450.0
 21
792.5
 31
0.0
  0
TEXT
  5
42E
100
AcDbEntity
  8
寸法
  6
CONTINUOUS
 62
     2
100
AcDbText
 10
2495.0
 20
812.75
 30
0.0
 40
60.0
  1
１３０
 41
0.7
  7
EXCADSTD
 72
     5
 11
2645.0
 21
812.75
 31
0.0
100
AcDbText
  0
TEXT
  5
42F
100
AcDbEntity
  8
寸法
  6
CONTINUOUS
 62
     2
100
AcDbText
 10
2637.5
 20
812.75
 30
0.0
 40
47.999996
  1
（Ｓトラップ）
 41
0.66
  7
EXCADSTD
 72
     5
 11
2901.499984
 21
812.75
 31
0.0
100
AcDbText
  0
LINE
  5
430
100
AcDbEntity
  8
寸法
  6
CONTINUOUS
 62
     3
100
AcDbLine
 10
2275.0
 20
807.5
 30
0.0
 11
2899.250011
 21
807.5
 31
0.0
  0
LINE
  5
431
100
AcDbEntity
  8
寸法
  6
CONTINUOUS
 62
     3
100
AcDbLine
 10
2275.0
 20
800.0
 30
0.0
 11
2320.0
 21
807.5
 31
0.0
  0
LINE
  5
432
100
AcDbEntity
  8
寸法
  6
CONTINUOUS
 62
     3
100
AcDbLine
 10
2320.0
 20
807.5
 30
0.0
 11
2275.0
 21
815.0
 31
0.0
  0
LINE
  5
433
100
AcDbEntity
  8
寸法
  6
CONTINUOUS
 62
     3
100
AcDbLine
 10
2495.0
 20
815.0
 30
0.0
 11
2450.0
 21
807.5
 31
0.0
  0
LINE
  5
434
100
AcDbEntity
  8
寸法
  6
CONTINUOUS
 62
     3
100
AcDbLine
 10
2450.0
 20
807.5
 30
0.0
 11
2495.0
 21
800.0
 31
0.0
  0
LINE
  5
435
100
AcDbEntity
  8
寸法
  6
CONTINUOUS
 62
     3
100
AcDbLine
 10
2460.5
 20
1017.5
 30
0.0
 11
2840.0
 21
1017.5
 31
0.0
  0
LINE
  5
436
100
AcDbEntity
  8
寸法
  6
CONTINUOUS
 62
     3
100
AcDbLine
 10
2492.4
 20
1637.5
 30
0.0
 11
2840.0
 21
1637.5
 31
0.0
  0
TEXT
  5
437
100
AcDbEntity
  8
寸法
  6
CONTINUOUS
 62
     2
100
AcDbText
 10
2819.75
 20
1164.0
 30
0.0
 40
60.0
  1
６２０
 50
90.0
 41
0.7
  7
EXCADSTD
 72
     5
 11
2819.75
 21
1314.0
 31
0.0
100
AcDbText
  0
TEXT
  5
438
100
AcDbEntity
  8
寸法
  6
CONTINUOUS
 62
     2
100
AcDbText
 10
2819.75
 20
1306.5
 30
0.0
 40
47.999996
  1
（壁固定）
 50
90.0
 41
0.672
  7
EXCADSTD
 72
     5
 11
2819.75
 21
1498.499989
 31
0.0
100
AcDbText
  0
LINE
  5
439
100
AcDbEntity
  8
寸法
  6
CONTINUOUS
 62
     3
100
AcDbLine
 10
2825.0
 20
1017.5
 30
0.0
 11
2825.0
 21
1637.5
 31
0.0
  0
LINE
  5
43A
100
AcDbEntity
  8
寸法
  6
CONTINUOUS
 62
     3
100
AcDbLine
 10
2817.5
 20
1062.5
 30
0.0
 11
2825.0
 21
1017.5
 31
0.0
  0
LINE
  5
43B
100
AcDbEntity
  8
寸法
  6
CONTINUOUS
 62
     3
100
AcDbLine
 10
2825.0
 20
1017.5
 30
0.0
 11
2832.5
 21
1062.5
 31
0.0
  0
LINE
  5
43C
100
AcDbEntity
  8
寸法
  6
CONTINUOUS
 62
     3
100
AcDbLine
 10
2832.5
 20
1592.5
 30
0.0
 11
2825.0
 21
1637.5
 31
0.0
  0
LINE
  5
43D
100
AcDbEntity
  8
寸法
  6
CONTINUOUS
 62
     3
100
AcDbLine
 10
2825.0
 20
1637.5
 30
0.0
 11
2817.5
 21
1592.5
 31
0.0
  0
LINE
  5
43E
100
AcDbEntity
  8
寸法
  6
CONTINUOUS
 62
     3
100
AcDbLine
 10
2460.5
 20
1017.5
 30
0.0
 11
2660.0
 21
1017.5
 31
0.0
  0
LINE
  5
43F
100
AcDbEntity
  8
寸法
  6
CONTINUOUS
 62
     3
100
AcDbLine
 10
2484.0
 20
1492.5
 30
0.0
 11
2660.0
 21
1492.5
 31
0.0
  0
TEXT
  5
440
100
AcDbEntity
  8
寸法
  6
CONTINUOUS
 62
     2
100
AcDbText
 10
2639.75
 20
1055.5
 30
0.0
 40
60.0
  1
４７５
 50
90.0
 41
0.7
  7
EXCADSTD
 72
     5
 11
2639.75
 21
1205.5
 31
0.0
100
AcDbText
  0
TEXT
  5
441
100
AcDbEntity
  8
寸法
  6
CONTINUOUS
 62
     2
100
AcDbText
 10
2639.75
 20
1198.0
 30
0.0
 40
47.999996
  1
（Ｐトラップ）
 50
90.0
 41
0.66
  7
EXCADSTD
 72
     5
 11
2639.75
 21
1461.999984
 31
0.0
100
AcDbText
  0
LINE
  5
442
100
AcDbEntity
  8
寸法
  6
CONTINUOUS
 62
     3
100
AcDbLine
 10
2645.0
 20
1017.5
 30
0.0
 11
2645.0
 21
1492.5
 31
0.0
  0
LINE
  5
443
100
AcDbEntity
  8
寸法
  6
CONTINUOUS
 62
     3
100
AcDbLine
 10
2637.5
 20
1062.5
 30
0.0
 11
2645.0
 21
1017.5
 31
0.0
  0
LINE
  5
444
100
AcDbEntity
  8
寸法
  6
CONTINUOUS
 62
     3
100
AcDbLine
 10
2645.0
 20
1017.5
 30
0.0
 11
2652.5
 21
1062.5
 31
0.0
  0
LINE
  5
445
100
AcDbEntity
  8
寸法
  6
CONTINUOUS
 62
     3
100
AcDbLine
 10
2652.5
 20
1447.5
 30
0.0
 11
2645.0
 21
1492.5
 31
0.0
  0
LINE
  5
446
100
AcDbEntity
  8
寸法
  6
CONTINUOUS
 62
     3
100
AcDbLine
 10
2645.0
 20
1492.5
 30
0.0
 11
2637.5
 21
1447.5
 31
0.0
  0
LINE
  5
447
100
AcDbEntity
  8
寸法
  6
CONTINUOUS
 62
     3
100
AcDbLine
 10
2460.5
 20
1017.5
 30
0.0
 11
2750.0
 21
1017.5
 31
0.0
  0
LINE
  5
448
100
AcDbEntity
  8
寸法
  6
CONTINUOUS
 62
     3
100
AcDbLine
 10
2489.0
 20
1562.5
 30
0.0
 11
2750.0
 21
1562.5
 31
0.0
  0
TEXT
  5
449
100
AcDbEntity
  8
寸法
  6
CONTINUOUS
 62
     2
100
AcDbText
 10
2729.75
 20
1054.5
 30
0.0
 40
60.0
  1
５４５
 50
90.0
 41
0.7
  7
EXCADSTD
 72
     5
 11
2729.75
 21
1204.5
 31
0.0
100
AcDbText
  0
TEXT
  5
44A
100
AcDbEntity
  8
寸法
  6
CONTINUOUS
 62
     2
100
AcDbText
 10
2729.75
 20
1197.0
 30
0.0
 40
47.999996
  1
（ボトルトラップ）
 50
90.0
 41
0.653333
  7
EXCADSTD
 72
     5
 11
2729.75
 21
1532.99998
 31
0.0
100
AcDbText
  0
LINE
  5
44B
100
AcDbEntity
  8
寸法
  6
CONTINUOUS
 62
     3
100
AcDbLine
 10
2735.0
 20
1017.5
 30
0.0
 11
2735.0
 21
1562.5
 31
0.0
  0
LINE
  5
44C
100
AcDbEntity
  8
寸法
  6
CONTINUOUS
 62
     3
100
AcDbLine
 10
2727.5
 20
1062.5
 30
0.0
 11
2735.0
 21
1017.5
 31
0.0
  0
LINE
  5
44D
100
AcDbEntity
  8
寸法
  6
CONTINUOUS
 62
     3
100
AcDbLine
 10
2735.0
 20
1017.5
 30
0.0
 11
2742.5
 21
1062.5
 31
0.0
  0
LINE
  5
44E
100
AcDbEntity
  8
寸法
  6
CONTINUOUS
 62
     3
100
AcDbLine
 10
2742.5
 20
1517.5
 30
0.0
 11
2735.0
 21
1562.5
 31
0.0
  0
LINE
  5
44F
100
AcDbEntity
  8
寸法
  6
CONTINUOUS
 62
     3
100
AcDbLine
 10
2735.0
 20
1562.5
 30
0.0
 11
2727.5
 21
1517.5
 31
0.0
  0
LINE
  5
450
100
AcDbEntity
  8
寸法
  6
CONTINUOUS
 62
     3
100
AcDbLine
 10
677.0
 20
3972.5
 30
0.0
 11
677.0
 21
4034.5
 31
0.0
  0
LINE
  5
451
100
AcDbEntity
  8
寸法
  6
CONTINUOUS
 62
     3
100
AcDbLine
 10
1163.0
 20
3972.5
 30
0.0
 11
1163.0
 21
4034.5
 31
0.0
  0
TEXT
  5
452
100
AcDbEntity
  8
寸法
  6
CONTINUOUS
 62
     2
100
AcDbText
 10
756.5
 20
4024.75
 30
0.0
 40
60.0
  1
４８６
 41
0.7
  7
EXCADSTD
 72
     5
 11
906.5
 21
4024.75
 31
0.0
100
AcDbText
  0
TEXT
  5
453
100
AcDbEntity
  8
寸法
  6
CONTINUOUS
 62
     2
100
AcDbText
 10
899.0
 20
4024.75
 30
0.0
 40
47.999996
  1
（壁固定）
 41
0.672
  7
EXCADSTD
 72
     5
 11
1090.999989
 21
4024.75
 31
0.0
100
AcDbText
  0
LINE
  5
454
100
AcDbEntity
  8
寸法
  6
CONTINUOUS
 62
     3
100
AcDbLine
 10
677.0
 20
4019.5
 30
0.0
 11
1163.0
 21
4019.5
 31
0.0
  0
LINE
  5
455
100
AcDbEntity
  8
寸法
  6
CONTINUOUS
 62
     3
100
AcDbLine
 10
722.0
 20
4027.0
 30
0.0
 11
677.0
 21
4019.5
 31
0.0
  0
LINE
  5
456
100
AcDbEntity
  8
寸法
  6
CONTINUOUS
 62
     3
100
AcDbLine
 10
677.0
 20
4019.5
 30
0.0
 11
722.0
 21
4012.0
 31
0.0
  0
LINE
  5
457
100
AcDbEntity
  8
寸法
  6
CONTINUOUS
 62
     3
100
AcDbLine
 10
1118.0
 20
4012.0
 30
0.0
 11
1163.0
 21
4019.5
 31
0.0
  0
LINE
  5
458
100
AcDbEntity
  8
寸法
  6
CONTINUOUS
 62
     3
100
AcDbLine
 10
1163.0
 20
4019.5
 30
0.0
 11
1118.0
 21
4027.0
 31
0.0
  0
DIMENSION
  5
464
100
AcDbEntity
  8
寸法
  6
CONTINUOUS
 62
     3
100
AcDbDimension
  2
*D20
 10
1145.0
 20
3324.5
 30
0.0
 11
920.0
 21
3359.75
 31
0.0
 70
   160
  1
%%c450
  3
STANDARD
100
AcDbAlignedDimension
 13
695.0
 23
3674.5
 33
0.0
 14
1145.0
 24
3674.5
 34
0.0
100
AcDbRotatedDimension
1001
ACAD
1000
DSTYLE
1002
{
1070
     6
1000
_EX_NORM
1070
     7
1000
_EX_NORM
1070
    41
1040
45.0
1070
    42
1040
10.5
1070
    44
1040
15.0
1070
    73
1070
     0
1070
    74
1070
     0
1070
    75
1070
     0
1070
    76
1070
     0
1070
    77
1070
     1
1070
    78
1070
     0
1070
   140
1040
60.0
1070
   147
1040
5.25
1070
   173
1070
     1
1070
   176
1070
     3
1070
   177
1070
     3
1070
   178
1070
     2
1070
   271
1070
     0
1070
   279
1070
     2
1070
   280
1070
     0
1070
   287
1070
     5
1070
   340
1005
3DE
1002
}
  0
DIMENSION
  5
470
100
AcDbEntity
  8
寸法
  6
CONTINUOUS
 62
     3
100
AcDbDimension
  2
*D21
 10
1295.0
 20
3234.5
 30
0.0
 11
920.0
 21
3269.75
 31
0.0
 70
   160
  3
STANDARD
100
AcDbAlignedDimension
 13
545.0
 23
3479.5
 33
0.0
 14
1295.0
 24
3479.5
 34
0.0
100
AcDbRotatedDimension
1001
ACAD
1000
DSTYLE
1002
{
1070
     6
1000
_EX_NORM
1070
     7
1000
_EX_NORM
1070
    41
1040
45.0
1070
    42
1040
10.5
1070
    44
1040
15.0
1070
    73
1070
     0
1070
    74
1070
     0
1070
    75
1070
     0
1070
    76
1070
     0
1070
    77
1070
     1
1070
    78
1070
     0
1070
   140
1040
60.0
1070
   147
1040
5.25
1070
   173
1070
     1
1070
   176
1070
     3
1070
   177
1070
     3
1070
   178
1070
     2
1070
   271
1070
     0
1070
   279
1070
     2
1070
   280
1070
     0
1070
   287
1070
     5
1070
   340
1005
3DE
1002
}
  0
DIMENSION
  5
47B
100
AcDbEntity
  8
寸法
  6
CONTINUOUS
 62
     3
100
AcDbDimension
  2
*D22
 10
1400.0
 20
3929.5
 30
0.0
 11
1364.75
 21
3704.5
 31
0.0
 70
   160
  3
STANDARD
100
AcDbAlignedDimension
 13
1295.0
 23
3479.5
 33
0.0
 14
1295.0
 24
3929.5
 34
0.0
 50
90.0
100
AcDbRotatedDimension
1001
ACAD
1000
DSTYLE
1002
{
1070
     6
1000
_EX_NORM
1070
     7
1000
_EX_NORM
1070
    41
1040
45.0
1070
    42
1040
10.5
1070
    44
1040
15.0
1070
    73
1070
     0
1070
    74
1070
     0
1070
    75
1070
     0
1070
    76
1070
     1
1070
    77
1070
     1
1070
    78
1070
     0
1070
   140
1040
60.0
1070
   147
1040
5.25
1070
   173
1070
     1
1070
   176
1070
     3
1070
   177
1070
     3
1070
   178
1070
     2
1070
   271
1070
     0
1070
   279
1070
     2
1070
   280
1070
     0
1070
   287
1070
     5
1070
   340
1005
3DE
1002
}
  0
DIMENSION
  5
486
100
AcDbEntity
  8
寸法
  6
CONTINUOUS
 62
     3
100
AcDbDimension
  2
*D23
 10
1490.0
 20
3929.5
 30
0.0
 11
1454.75
 21
3689.5
 31
0.0
 70
   160
  3
STANDARD
100
AcDbAlignedDimension
 13
920.0
 23
3449.5
 33
0.0
 14
1295.0
 24
3929.5
 34
0.0
 50
90.0
100
AcDbRotatedDimension
1001
ACAD
1000
DSTYLE
1002
{
1070
     6
1000
_EX_NORM
1070
     7
1000
_EX_NORM
1070
    41
1040
45.0
1070
    42
1040
10.5
1070
    44
1040
15.0
1070
    73
1070
     0
1070
    74
1070
     0
1070
    75
1070
     0
1070
    76
1070
     1
1070
    77
1070
     1
1070
    78
1070
     0
1070
   140
1040
60.0
1070
   147
1040
5.25
1070
   173
1070
     1
1070
   176
1070
     3
1070
   177
1070
     3
1070
   178
1070
     2
1070
   271
1070
     0
1070
   279
1070
     2
1070
   280
1070
     0
1070
   287
1070
     5
1070
   340
1005
3DE
1002
}
  0
LINE
  5
487
100
AcDbEntity
  8
寸法
  6
CONTINUOUS
 62
     3
100
AcDbLine
 10
845.0
 20
999.0
 30
0.0
 11
845.0
 21
882.5
 31
0.0
  0
LINE
  5
488
100
AcDbEntity
  8
寸法
  6
CONTINUOUS
 62
     3
100
AcDbLine
 10
995.0
 20
999.0
 30
0.0
 11
995.0
 21
882.5
 31
0.0
  0
TEXT
  5
489
100
AcDbEntity
  8
寸法
  6
CONTINUOUS
 62
     2
100
AcDbText
 10
1040.0
 20
902.75
 30
0.0
 40
60.0
  1
１５０
 41
0.7
  7
EXCADSTD
 72
     5
 11
1190.0
 21
902.75
 31
0.0
100
AcDbText
  0
TEXT
  5
48A
100
AcDbEntity
  8
寸法
  6
CONTINUOUS
 62
     2
100
AcDbText
 10
1182.5
 20
902.75
 30
0.0
 40
47.999996
  1
（壁･床給水）
 41
0.616327
  7
EXCADSTD
 72
     5
 11
1422.499986
 21
902.75
 31
0.0
100
AcDbText
  0
LINE
  5
48B
100
AcDbEntity
  8
寸法
  6
CONTINUOUS
 62
     3
100
AcDbLine
 10
800.0
 20
897.5
 30
0.0
 11
1420.250006
 21
897.5
 31
0.0
  0
LINE
  5
48C
100
AcDbEntity
  8
寸法
  6
CONTINUOUS
 62
     3
100
AcDbLine
 10
800.0
 20
890.0
 30
0.0
 11
845.0
 21
897.5
 31
0.0
  0
LINE
  5
48D
100
AcDbEntity
  8
寸法
  6
CONTINUOUS
 62
     3
100
AcDbLine
 10
845.0
 20
897.5
 30
0.0
 11
800.0
 21
905.0
 31
0.0
  0
LINE
  5
48E
100
AcDbEntity
  8
寸法
  6
CONTINUOUS
 62
     3
100
AcDbLine
 10
1040.0
 20
905.0
 30
0.0
 11
995.0
 21
897.5
 31
0.0
  0
LINE
  5
48F
100
AcDbEntity
  8
寸法
  6
CONTINUOUS
 62
     3
100
AcDbLine
 10
995.0
 20
897.5
 30
0.0
 11
1040.0
 21
890.0
 31
0.0
  0
DIMENSION
  5
49A
100
AcDbEntity
  8
寸法
  6
CONTINUOUS
 62
     3
100
AcDbDimension
  2
*D24
 10
1400.0
 20
1717.5
 30
0.0
 11
1364.75
 21
1367.5
 31
0.0
 70
   160
  3
STANDARD
100
AcDbAlignedDimension
 13
1293.0
 23
1017.5
 33
0.0
 14
1295.0
 24
1717.5
 34
0.0
 50
90.0
100
AcDbRotatedDimension
1001
ACAD
1000
DSTYLE
1002
{
1070
     6
1000
_EX_NORM
1070
     7
1000
_EX_NORM
1070
    41
1040
45.0
1070
    42
1040
10.5
1070
    44
1040
15.0
1070
    73
1070
     0
1070
    74
1070
     0
1070
    75
1070
     1
1070
    76
1070
     0
1070
    77
1070
     1
1070
    78
1070
     0
1070
   140
1040
60.0
1070
   147
1040
5.25
1070
   173
1070
     1
1070
   176
1070
     3
1070
   177
1070
     3
1070
   178
1070
     2
1070
   271
1070
     0
1070
   279
1070
     2
1070
   280
1070
     0
1070
   287
1070
     5
1070
   340
1005
3DE
1002
}
  0
DIMENSION
  5
4A6
100
AcDbEntity
  8
寸法
  6
CONTINUOUS
 62
     3
100
AcDbDimension
  2
*D25
 10
1400.0
 20
1887.5
 30
0.0
 11
1364.75
 21
1802.5
 31
0.0
 70
   160
  3
STANDARD
100
AcDbAlignedDimension
 13
1295.0
 23
1717.5
 33
0.0
 14
920.0
 24
1887.5
 34
0.0
 50
90.0
100
AcDbRotatedDimension
1001
ACAD
1000
DSTYLE
1002
{
1070
     6
1000
_EX_NORM
1070
     7
1000
_EX_NORM
1070
    41
1040
45.0
1070
    42
1040
10.5
1070
    44
1040
15.0
1070
    73
1070
     0
1070
    74
1070
     0
1070
    75
1070
     0
1070
    76
1070
     0
1070
    77
1070
     1
1070
    78
1070
     0
1070
   140
1040
60.0
1070
   147
1040
5.25
1070
   173
1070
     1
1070
   176
1070
     3
1070
   177
1070
     3
1070
   178
1070
     2
1070
   271
1070
     0
1070
   279
1070
     2
1070
   280
1070
     0
1070
   287
1070
     5
1070
   340
1005
3DE
1002
}
  0
DIMENSION
  5
4B2
100
AcDbEntity
  8
寸法
  6
CONTINUOUS
 62
     3
100
AcDbDimension
  2
*D26
 10
1490.0
 20
1887.5
 30
0.0
 11
1454.75
 21
1452.5
 31
0.0
 70
   160
  3
STANDARD
100
AcDbAlignedDimension
 13
1293.0
 23
1017.5
 33
0.0
 14
930.5
 24
1887.5
 34
0.0
 50
90.0
100
AcDbRotatedDimension
1001
ACAD
1000
DSTYLE
1002
{
1070
     6
1000
_EX_NORM
1070
     7
1000
_EX_NORM
1070
    41
1040
45.0
1070
    42
1040
10.5
1070
    44
1040
15.0
1070
    73
1070
     0
1070
    74
1070
     0
1070
    75
1070
     0
1070
    76
1070
     0
1070
    77
1070
     1
1070
    78
1070
     0
1070
   140
1040
60.0
1070
   147
1040
5.25
1070
   173
1070
     1
1070
   176
1070
     3
1070
   177
1070
     3
1070
   178
1070
     2
1070
   271
1070
     0
1070
   279
1070
     2
1070
   280
1070
     0
1070
   287
1070
     5
1070
   340
1005
3DE
1002
}
  0
TEXT
  5
4B3
100
AcDbEntity
  8
寸法
  6
CONTINUOUS
 62
     2
100
AcDbText
 10
2574.717185
 20
1785.493702
 30
0.0
 40
60.0
  1
ＶＰ･ＶＵ５０
 41
0.653306
  7
EXCADSTD
 72
     5
 11
2892.717184
 21
1785.493702
 31
0.0
100
AcDbText
  0
LEADER
  5
4B4
100
AcDbEntity
  8
寸法
  6
CONTINUOUS
 62
     3
100
AcDbLeader
  3
STANDARD
 73
     3
 74
     1
 75
     0
 40
0.0
 76
     3
 10
2473.5
 20
1518.0
 30
0.0
 10
2567.217185
 20
1780.243702
 30
0.0
 10
2871.717185
 20
1780.243702
 30
0.0
 77
     3
1001
ACAD
1000
DSTYLE
1002
{
1070
    41
1040
45.0
1070
     5
1000
_EX_NORM
1070
     6
1000
_EX_NORM
1070
     7
1000
_EX_NORM
1070
   341
1005
2A
1002
}
  0
DIMENSION
  5
4BF
100
AcDbEntity
  8
寸法
  6
CONTINUOUS
 62
     3
100
AcDbDimension
  2
*D27
 10
2555.0
 20
1017.5
 30
0.0
 11
2519.75
 21
1237.5
 31
0.0
 70
   160
  1
440（壁給水）
  3
STANDARD
100
AcDbAlignedDimension
 13
2458.0
 23
1457.5
 33
0.0
 14
2555.0
 24
1017.5
 34
0.0
 50
90.0
100
AcDbRotatedDimension
1001
ACAD
1000
DSTYLE
1002
{
1070
     6
1000
_EX_NORM
1070
     7
1000
_EX_NORM
1070
    41
1040
45.0
1070
    42
1040
7.5
1070
    44
1040
15.0
1070
    73
1070
     0
1070
    74
1070
     0
1070
    75
1070
     0
1070
    76
1070
     1
1070
    77
1070
     1
1070
    78
1070
     8
1070
   140
1040
60.0
1070
   147
1040
5.25
1070
   173
1070
     1
1070
   176
1070
     3
1070
   177
1070
     3
1070
   178
1070
     2
1070
   271
1070
     2
1070
   279
1070
     2
1070
   280
1070
     0
1070
   287
1070
     5
1070
   340
1005
3DE
1002
}
  0
TEXT
  5
4C0
100
AcDbEntity
  8
寸法
  6
CONTINUOUS
 62
     2
100
AcDbText
 10
2670.0
 20
1667.25
 30
0.0
 40
60.0
  1
Ｒ１/２
 41
0.638
  7
EXCADSTD
 72
     5
 11
2843.999999
 21
1667.25
 31
0.0
100
AcDbText
  0
LEADER
  5
4C1
100
AcDbEntity
  8
寸法
  6
CONTINUOUS
 62
     3
100
AcDbLeader
  3
STANDARD
 73
     3
 74
     1
 75
     0
 40
0.0
 76
     3
 10
2458.0
 20
1468.0
 30
0.0
 10
2662.5
 20
1662.0
 30
0.0
 10
2827.5
 20
1662.0
 30
0.0
 77
     3
1001
ACAD
1000
DSTYLE
1002
{
1070
    41
1040
45.0
1070
     5
1000
_EX_NORM
1070
     6
1000
_EX_NORM
1070
     7
1000
_EX_NORM
1070
   341
1005
2A
1002
}
  0
ENDSEC
  0
SECTION
  2
OBJECTS
  0
DICTIONARY
  5
19
100
AcDbDictionary
  3
ACAD_GROUP
350
1A
  3
ACAD_MLINESTYLE
350
1B
  0
DICTIONARY
  5
1A
102
{ACAD_REACTORS
330
19
102
}
100
AcDbDictionary
  0
DICTIONARY
  5
1B
102
{ACAD_REACTORS
330
19
102
}
100
AcDbDictionary
  3
STANDARD
350
1C
  0
MLINESTYLE
  5
1C
102
{ACAD_REACTORS
330
1B
102
}
100
AcDbMlineStyle
  2
Standard
 70
     0
  3

 62
     0
 51
90.0
 52
90.0
 71
     2
 49
0.5
 62
   256
  6
ByLayer
 49
-0.5
 62
   256
  6
ByLayer
  0
ENDSEC
  0
EOF
