  0
SECTION
  2
HEADER
  9
$ACADVER
  1
AC1014
  9
$ACADMAINTVER
 70
     0
  9
$DWGCODEPAGE
  3
ANSI_932
  9
$INSBASE
 10
0.0
 20
0.0
 30
0.0
  9
$EXTMIN
 10
-0.7
 20
13.5
 30
0.0
  9
$EXTMAX
 10
200.0
 20
288.5
 30
0.0
  9
$LIMMIN
 10
0.0
 20
0.0
  9
$LIMMAX
 10
210.0
 20
297.0
  9
$ORTHOMODE
 70
     0
  9
$REGENMODE
 70
     1
  9
$FILLMODE
 70
     1
  9
$QTEXTMODE
 70
     0
  9
$MIRRTEXT
 70
     1
  9
$DRAGMODE
 70
     2
  9
$LTSCALE
 40
1.0
  9
$OSMODE
 70
     0
  9
$ATTMODE
 70
     1
  9
$TEXTSIZE
 40
0.2
  9
$TRACEWID
 40
0.05
  9
$TEXTSTYLE
  7
STANDARD
  9
$CLAYER
  8
化粧台
  9
$CELTYPE
  6
CONTINUOUS
  9
$CECOLOR
 62
   256
  9
$CELTSCALE
 40
1.0
  9
$DELOBJ
 70
     1
  9
$DISPSILH
 70
     0
  9
$DIMSCALE
 40
1.0
  9
$DIMASZ
 40
0.18
  9
$DIMEXO
 40
0.0625
  9
$DIMDLI
 40
0.38
  9
$DIMRND
 40
0.0
  9
$DIMDLE
 40
0.0
  9
$DIMEXE
 40
0.18
  9
$DIMTP
 40
0.0
  9
$DIMTM
 40
0.0
  9
$DIMTXT
 40
0.18
  9
$DIMCEN
 40
0.09
  9
$DIMTSZ
 40
0.0
  9
$DIMTOL
 70
     0
  9
$DIMLIM
 70
     0
  9
$DIMTIH
 70
     1
  9
$DIMTOH
 70
     1
  9
$DIMSE1
 70
     0
  9
$DIMSE2
 70
     0
  9
$DIMTAD
 70
     0
  9
$DIMZIN
 70
     0
  9
$DIMBLK
  1

  9
$DIMASO
 70
     1
  9
$DIMSHO
 70
     1
  9
$DIMPOST
  1

  9
$DIMAPOST
  1

  9
$DIMALT
 70
     0
  9
$DIMALTD
 70
     2
  9
$DIMALTF
 40
25.4
  9
$DIMLFAC
 40
1.0
  9
$DIMTOFL
 70
     0
  9
$DIMTVP
 40
0.0
  9
$DIMTIX
 70
     0
  9
$DIMSOXD
 70
     0
  9
$DIMSAH
 70
     0
  9
$DIMBLK1
  1

  9
$DIMBLK2
  1

  9
$DIMSTYLE
  2
STANDARD
  9
$DIMCLRD
 70
     0
  9
$DIMCLRE
 70
     0
  9
$DIMCLRT
 70
     0
  9
$DIMTFAC
 40
1.0
  9
$DIMGAP
 40
0.09
  9
$DIMJUST
 70
     0
  9
$DIMSD1
 70
     0
  9
$DIMSD2
 70
     0
  9
$DIMTOLJ
 70
     1
  9
$DIMTZIN
 70
     0
  9
$DIMALTZ
 70
     0
  9
$DIMALTTZ
 70
     0
  9
$DIMFIT
 70
     3
  9
$DIMUPT
 70
     0
  9
$DIMUNIT
 70
     2
  9
$DIMDEC
 70
     4
  9
$DIMTDEC
 70
     4
  9
$DIMALTU
 70
     2
  9
$DIMALTTD
 70
     2
  9
$DIMTXSTY
  7
STANDARD
  9
$DIMAUNIT
 70
     0
  9
$LUNITS
 70
     2
  9
$LUPREC
 70
     4
  9
$SKETCHINC
 40
0.1
  9
$FILLETRAD
 40
0.0
  9
$AUNITS
 70
     0
  9
$AUPREC
 70
     0
  9
$MENU
  1
acad
  9
$ELEVATION
 40
0.0
  9
$PELEVATION
 40
0.0
  9
$THICKNESS
 40
0.0
  9
$LIMCHECK
 70
     0
  9
$BLIPMODE
 70
     1
  9
$CHAMFERA
 40
0.0
  9
$CHAMFERB
 40
0.0
  9
$CHAMFERC
 40
0.0
  9
$CHAMFERD
 40
0.0
  9
$SKPOLY
 70
     0
  9
$TDCREATE
 40
2455240.316209595
  9
$TDUPDATE
 40
2455240.316209595
  9
$TDINDWG
 40
0.0000000000
  9
$TDUSRTIMER
 40
0.0000000000
  9
$USRTIMER
 70
     1
  9
$ANGBASE
 50
0.0
  9
$ANGDIR
 70
     0
  9
$PDMODE
 70
     0
  9
$PDSIZE
 40
0.0
  9
$PLINEWID
 40
0.0
  9
$COORDS
 70
     1
  9
$SPLFRAME
 70
     0
  9
$SPLINETYPE
 70
     6
  9
$SPLINESEGS
 70
     8
  9
$ATTDIA
 70
     0
  9
$ATTREQ
 70
     1
  9
$HANDLING
 70
     1
  9
$HANDSEED
  5
700
  9
$SURFTAB1
 70
     6
  9
$SURFTAB2
 70
     6
  9
$SURFTYPE
 70
     6
  9
$SURFU
 70
     6
  9
$SURFV
 70
     6
  9
$UCSNAME
  2

  9
$UCSORG
 10
0.0
 20
0.0
 30
0.0
  9
$UCSXDIR
 10
1.0
 20
0.0
 30
0.0
  9
$UCSYDIR
 10
0.0
 20
1.0
 30
0.0
  9
$PUCSNAME
  2

  9
$PUCSORG
 10
0.0
 20
0.0
 30
0.0
  9
$PUCSXDIR
 10
1.0
 20
0.0
 30
0.0
  9
$PUCSYDIR
 10
0.0
 20
1.0
 30
0.0
  9
$USERI1
 70
     0
  9
$USERI2
 70
     0
  9
$USERI3
 70
     0
  9
$USERI4
 70
     0
  9
$USERI5
 70
     0
  9
$USERR1
 40
0.0
  9
$USERR2
 40
0.0
  9
$USERR3
 40
0.0
  9
$USERR4
 40
0.0
  9
$USERR5
 40
0.0
  9
$WORLDVIEW
 70
     1
  9
$SHADEDGE
 70
     3
  9
$SHADEDIF
 70
    70
  9
$TILEMODE
 70
     1
  9
$MAXACTVP
 70
    16
  9
$PINSBASE
 10
0.0
 20
0.0
 30
0.0
  9
$PLIMCHECK
 70
     0
  9
$PEXTMIN
 10
1.000000E+20
 20
1.000000E+20
 30
1.000000E+20
  9
$PEXTMAX
 10
-1.000000E+20
 20
-1.000000E+20
 30
-1.000000E+20
  9
$PLIMMIN
 10
0.0
 20
0.0
  9
$PLIMMAX
 10
12.0
 20
9.0
  9
$UNITMODE
 70
     0
  9
$VISRETAIN
 70
     0
  9
$PLINEGEN
 70
     1
  9
$PSLTSCALE
 70
     0
  9
$TREEDEPTH
 70
  3020
  9
$PICKSTYLE
 70
     1
  9
$CMLSTYLE
  2
Standard
  9
$CMLJUST
 70
     0
  9
$CMLSCALE
 40
1.0
  9
$PROXYGRAPHICS
 70
     0
  9
$MEASUREMENT
 70
     0
  0
ENDSEC
  0
SECTION
  2
CLASSES
  0
CLASS
  1
LWPOLYLINE
  2
AcDbPolyline
  3
"AutoCAD"
 90
        0
280
     0
281
     1
  0
CLASS
  1
IMAGE
  2
AcDbRasterImage
  3
ISM
 90
      127
280
     0
281
     1
  0
CLASS
  1
OLE2FRAME
  2
AcDbOle2Frame
  3
""
 90
        0
280
     0
281
     1
  0
CLASS
  1
HATCH
  2
AcDbHatch
  3
"ACAD_SEDONA"
 90
        0
280
     0
281
     1
  0
CLASS
  1
DICTIONARYVAR
  2
AcDbDictionaryVar
  3
"AutoCAD"
 90
        0
280
     0
281
     0
  0
CLASS
  1
RASTERVARIABLES
  2
AcDbRasterVariables
  3
ISM
 90
        0
280
     0
281
     0
  0
CLASS
  1
IMAGEDEF
  2
AcDbRasterImageDef
  3
ISM
 90
        0
280
     0
281
     0
  0
CLASS
  1
IMAGEDEF_REACTOR
  2
AcDbRasterImageDefReactor
  3
ISM
 90
        1
280
     0
281
     0
  0
CLASS
  1
IDBUFFER
  2
AcDbIdBuffer
  3
"Acad"
 90
        0
280
     0
281
     0
  0
CLASS
  1
SPATIAL_FILTER
  2
AcDbSpatialFilter
  3
"Acad"
 90
        0
280
     0
281
     0
  0
CLASS
  1
XRECORD
  2
AcDbXrecord
  3
"<Built In>"
 90
        0
280
     0
281
     0
  0
CLASS
  1
SORTENTSTABLE
  2
AcDbSortentsTable
  3
"AutoCAD"
 90
        0
280
     0
281
     0
  0
CLASS
  1
LAYER_INDEX
  2
AcDbLayerIndex
  3
"Acad"
 90
        0
280
     0
281
     0
  0
CLASS
  1
SPATIAL_INDEX
  2
AcDbSpatialIndex
  3
"Acad"
 90
        0
280
     0
281
     0
  0
CLASS
  1
OBJECT_PTR
  2
CAseDLPNTableRecord
  3
"ASE-LPNTableRecord"
 90
        1
280
     0
281
     0
  0
CLASS
  1
LAYOUT
  2
AcDbLayout
  3
"AutoCAD 2000"
 90
        1
280
     0
281
     0
  0
CLASS
  1
PLOTSETTINGS
  2
AcDbPlotSettings
  3
"AutoCAD 2000"
 90
        1
280
     0
281
     0
  0
CLASS
  1
ACDBDICTIONARYWDFLT
  2
AcDbDictionaryWithDefault
  3
"AutoCAD 2000"
 90
        1
280
     0
281
     0
  0
CLASS
  1
ACDBPLACEHOLDER
  2
AcDbPlaceHolder
  3
"AutoCAD 2000"
 90
        1
280
     0
281
     0
  0
CLASS
  1
VBA_PROJECT
  2
AcDbVbaProject
  3
"acadvba"
 90
        1
280
     0
281
     0
  0
CLASS
  1
WIPEOUT
  2
AcDbWipeout
  3
WipeOut|AutoCAD Express Tool|expresstools@autodesk.com
 90
      127
280
     0
281
     1
  0
CLASS
  1
WIPEOUTVARIABLES
  2
AcDbWipeoutVariables
  3
WipeOut|AutoCAD Express Tool|expresstools@autodesk.com
 90
        0
280
     0
281
     0
  0
CLASS
  1
RTEXT
  2
RText
  3
RText|AutoCAD Express Tool|expresstools@autodesk.com
 90
        0
280
     0
281
     1
  0
CLASS
  1
ARCALIGNEDTEXT
  2
AcDbArcAlignedText
  3
ATEXT|AutoCAD Express Tool|expresstools@autodesk.com
 90
        0
280
     0
281
     1
  0
ENDSEC
  0
SECTION
  2
TABLES
  0
TABLE
  2
VPORT
  5
7
100
AcDbSymbolTable
 70
     1
  0
VPORT
  5
15
100
AcDbSymbolTableRecord
100
AcDbViewportTableRecord
  2
*ACTIVE
 70
     0
 10
0.0
 20
0.0
 11
1.0
 21
1.0
 12
1494.75
 22
2265.0
 13
0.0
 23
0.0
 14
1.0
 24
1.0
 15
0.0
 25
0.0
 16
0.0
 26
0.0
 36
1.0
 17
0.0
 27
0.0
 37
0.0
 40
4125.0
 41
1.722533
 42
50.0
 43
0.0
 44
0.0
 50
0.0
 51
0.0
 71
     0
 72
   100
 73
     1
 74
     1
 75
     0
 76
     0
 77
     0
 78
     0
  0
ENDTAB
  0
TABLE
  2
LTYPE
  5
4
100
AcDbSymbolTable
 70
     9
  0
LTYPE
  5
11
100
AcDbSymbolTableRecord
100
AcDbLinetypeTableRecord
  2
BYBLOCK
 70
    64
  3

 72
    65
 73
     0
 40
0.0
  0
LTYPE
  5
12
100
AcDbSymbolTableRecord
100
AcDbLinetypeTableRecord
  2
BYLAYER
 70
    64
  3

 72
    65
 73
     0
 40
0.0
  0
LTYPE
  5
13
100
AcDbSymbolTableRecord
100
AcDbLinetypeTableRecord
  2
CONTINUOUS
 70
    64
  3
実線
 72
    65
 73
     0
 40
0.0
  0
LTYPE
  5
1D
100
AcDbSymbolTableRecord
100
AcDbLinetypeTableRecord
  2
EXLTYPE1
 70
    64
  3
破線
 72
    65
 73
     2
 40
3.0
 49
2.0
 74
     0
 49
-1.0
 74
     0
  0
LTYPE
  5
1E
100
AcDbSymbolTableRecord
100
AcDbLinetypeTableRecord
  2
EXLTYPE2
 70
    64
  3
点線
 72
    65
 73
     2
 40
2.0
 49
1.0
 74
     0
 49
-1.0
 74
     0
  0
LTYPE
  5
1F
100
AcDbSymbolTableRecord
100
AcDbLinetypeTableRecord
  2
EXLTYPE3
 70
    64
  3
一点鎖線
 72
    65
 73
     4
 40
10.0
 49
7.0
 74
     0
 49
-1.0
 74
     0
 49
1.0
 74
     0
 49
-1.0
 74
     0
  0
LTYPE
  5
20
100
AcDbSymbolTableRecord
100
AcDbLinetypeTableRecord
  2
EXLTYPE4
 70
    64
  3
二点鎖線
 72
    65
 73
     6
 40
12.0
 49
7.0
 74
     0
 49
-1.0
 74
     0
 49
1.0
 74
     0
 49
-1.0
 74
     0
 49
1.0
 74
     0
 49
-1.0
 74
     0
  0
LTYPE
  5
21
100
AcDbSymbolTableRecord
100
AcDbLinetypeTableRecord
  2
EXLTYPE5
 70
    64
  3
三点鎖線
 72
    65
 73
     8
 40
37.0
 49
30.0
 74
     0
 49
-1.0
 74
     0
 49
1.0
 74
     0
 49
-1.0
 74
     0
 49
1.0
 74
     0
 49
-1.0
 74
     0
 49
1.0
 74
     0
 49
-1.0
 74
     0
  0
LTYPE
  5
22
100
AcDbSymbolTableRecord
100
AcDbLinetypeTableRecord
  2
EXLTYPE6
 70
    64
  3
四点鎖線
 72
    65
 73
    10
 40
39.0
 49
30.0
 74
     0
 49
-1.0
 74
     0
 49
1.0
 74
     0
 49
-1.0
 74
     0
 49
1.0
 74
     0
 49
-1.0
 74
     0
 49
1.0
 74
     0
 49
-1.0
 74
     0
 49
1.0
 74
     0
 49
-1.0
 74
     0
  0
ENDTAB
  0
TABLE
  2
LAYER
  5
2
100
AcDbSymbolTable
 70
     6
  0
LAYER
  5
14
100
AcDbSymbolTableRecord
100
AcDbLayerTableRecord
  2
0
 70
     0
 62
     7
  6
CONTINUOUS
  0
LAYER
  5
25
100
AcDbSymbolTableRecord
100
AcDbLayerTableRecord
  2
枠・表
 70
    64
 62
     7
  6
CONTINUOUS
  0
LAYER
  5
26
100
AcDbSymbolTableRecord
100
AcDbLayerTableRecord
  2
化粧台
 70
    64
 62
     7
  6
CONTINUOUS
  0
LAYER
  5
27
100
AcDbSymbolTableRecord
100
AcDbLayerTableRecord
  2
鏡台
 70
    64
 62
     7
  6
CONTINUOUS
  0
LAYER
  5
28
100
AcDbSymbolTableRecord
100
AcDbLayerTableRecord
  2
付属金具
 70
    64
 62
     7
  6
CONTINUOUS
  0
LAYER
  5
29
100
AcDbSymbolTableRecord
100
AcDbLayerTableRecord
  2
寸法
 70
    64
 62
     7
  6
CONTINUOUS
  0
ENDTAB
  0
TABLE
  2
STYLE
  5
3
100
AcDbSymbolTable
 70
     5
  0
STYLE
  5
17
100
AcDbSymbolTableRecord
100
AcDbTextStyleTableRecord
  2
STANDARD
 70
     0
 40
0.0
 41
1.0
 50
0.0
 71
     0
 42
0.0
  3
monotxt
  4
extfont
  0
STYLE
  5
23
100
AcDbSymbolTableRecord
100
AcDbTextStyleTableRecord
  2
EXCADSTD
 70
    64
 40
0.0
 41
1.0
 50
0.0
 71
     0
 42
0.2
  3
monotxt
  4
extfont
  0
STYLE
  5
24
100
AcDbSymbolTableRecord
100
AcDbTextStyleTableRecord
  2
EXCADVERT
 70
    68
 40
0.0
 41
1.0
 50
0.0
 71
     0
 42
0.286885
  3
monotxt
  4
extfont
  0
STYLE
  5
E9
100
AcDbSymbolTableRecord
100
AcDbTextStyleTableRecord
  2
EXCADTTF1
 70
    64
 40
0.0
 41
1.0
 50
0.0
 71
     0
 42
0.2
  3
MS Gothic.ttf
  4

1001
ACAD
1000
MS Gothic
1071
    32817
  0
STYLE
  5
5E7
100
AcDbSymbolTableRecord
100
AcDbTextStyleTableRecord
  2
EXCADDIM1
 70
    64
 40
0.0
 41
0.84
 50
0.0
 71
     0
 42
0.2
  3
monotxt
  4
extfont
  0
ENDTAB
  0
TABLE
  2
VIEW
  5
5
100
AcDbSymbolTable
 70
     0
  0
ENDTAB
  0
TABLE
  2
UCS
  5
6
100
AcDbSymbolTable
 70
     0
  0
ENDTAB
  0
TABLE
  2
APPID
  5
8
100
AcDbSymbolTable
 70
     1
  0
APPID
  5
16
100
AcDbSymbolTableRecord
100
AcDbRegAppTableRecord
  2
ACAD
 70
     0
  0
ENDTAB
  0
TABLE
  2
DIMSTYLE
  5
9
100
AcDbSymbolTable
 70
     1
  0
DIMSTYLE
105
18
100
AcDbSymbolTableRecord
100
AcDbDimStyleTableRecord
  2
STANDARD
 70
     0
  3

  4

  5

  6

  7

 40
1.0
 41
0.18
 42
0.0625
 43
0.38
 44
0.18
 45
0.0
 46
0.0
 47
0.0
 48
0.0
 71
     0
 72
     0
 73
     1
 74
     1
 75
     0
 76
     0
 77
     0
 78
     0
140
0.18
141
0.09
142
0.0
143
25.4
144
1.0
145
0.0
146
1.0
147
0.09
170
     0
171
     2
172
     1
173
     0
174
     0
175
     0
176
     0
177
     0
178
     0
270
     2
271
     4
272
     4
273
     2
274
     2
275
     0
280
     0
281
     0
282
     0
283
     1
284
     0
285
     0
286
     0
287
     0
288
     0
340
17
  0
ENDTAB
  0
TABLE
  2
BLOCK_RECORD
  5
1
100
AcDbSymbolTable
 70
    38
  0
BLOCK_RECORD
  5
A
100
AcDbSymbolTableRecord
100
AcDbBlockTableRecord
  2
*MODEL_SPACE
  0
BLOCK_RECORD
  5
B
100
AcDbSymbolTableRecord
100
AcDbBlockTableRecord
  2
*PAPER_SPACE
  0
BLOCK_RECORD
  5
2A
100
AcDbSymbolTableRecord
100
AcDbBlockTableRecord
  2
_EX_NORM
  0
BLOCK_RECORD
  5
2B
100
AcDbSymbolTableRecord
100
AcDbBlockTableRecord
  2
_EX_BNORM
  0
BLOCK_RECORD
  5
2C
100
AcDbSymbolTableRecord
100
AcDbBlockTableRecord
  2
_EX_BCIR
  0
BLOCK_RECORD
  5
2D
100
AcDbSymbolTableRecord
100
AcDbBlockTableRecord
  2
_EX_RCIVIL
  0
BLOCK_RECORD
  5
2E
100
AcDbSymbolTableRecord
100
AcDbBlockTableRecord
  2
_EX_SLANT
  0
BLOCK_RECORD
  5
2F
100
AcDbSymbolTableRecord
100
AcDbBlockTableRecord
  2
_EX_NONE
  0
BLOCK_RECORD
  5
30
100
AcDbSymbolTableRecord
100
AcDbBlockTableRecord
  2
_EX_CIVIL
  0
BLOCK_RECORD
  5
31
100
AcDbSymbolTableRecord
100
AcDbBlockTableRecord
  2
_EX_WCIR
  0
BLOCK_RECORD
  5
32
100
AcDbSymbolTableRecord
100
AcDbBlockTableRecord
  2
_EX_WCIR2
  0
BLOCK_RECORD
  5
33
100
AcDbSymbolTableRecord
100
AcDbBlockTableRecord
  2
_EX_WNORM
  0
BLOCK_RECORD
  5
34
100
AcDbSymbolTableRecord
100
AcDbBlockTableRecord
  2
_EX_NNORM
  0
BLOCK_RECORD
  5
35
100
AcDbSymbolTableRecord
100
AcDbBlockTableRecord
  2
_EX_BBOX
  0
BLOCK_RECORD
  5
36
100
AcDbSymbolTableRecord
100
AcDbBlockTableRecord
  2
_EX_WBOX
  0
BLOCK_RECORD
  5
37
100
AcDbSymbolTableRecord
100
AcDbBlockTableRecord
  2
_EX_INTEGRAL
  0
BLOCK_RECORD
  5
5DC
100
AcDbSymbolTableRecord
100
AcDbBlockTableRecord
  2
*D14
  0
BLOCK_RECORD
  5
5E9
100
AcDbSymbolTableRecord
100
AcDbBlockTableRecord
  2
*D15
  0
BLOCK_RECORD
  5
5F5
100
AcDbSymbolTableRecord
100
AcDbBlockTableRecord
  2
*D16
  0
BLOCK_RECORD
  5
601
100
AcDbSymbolTableRecord
100
AcDbBlockTableRecord
  2
*D17
  0
BLOCK_RECORD
  5
60D
100
AcDbSymbolTableRecord
100
AcDbBlockTableRecord
  2
*D18
  0
BLOCK_RECORD
  5
619
100
AcDbSymbolTableRecord
100
AcDbBlockTableRecord
  2
*D19
  0
BLOCK_RECORD
  5
627
100
AcDbSymbolTableRecord
100
AcDbBlockTableRecord
  2
*D20
  0
BLOCK_RECORD
  5
633
100
AcDbSymbolTableRecord
100
AcDbBlockTableRecord
  2
*D21
  0
BLOCK_RECORD
  5
643
100
AcDbSymbolTableRecord
100
AcDbBlockTableRecord
  2
*D22
  0
BLOCK_RECORD
  5
64F
100
AcDbSymbolTableRecord
100
AcDbBlockTableRecord
  2
*D23
  0
BLOCK_RECORD
  5
65D
100
AcDbSymbolTableRecord
100
AcDbBlockTableRecord
  2
*D24
  0
BLOCK_RECORD
  5
669
100
AcDbSymbolTableRecord
100
AcDbBlockTableRecord
  2
*D25
  0
BLOCK_RECORD
  5
675
100
AcDbSymbolTableRecord
100
AcDbBlockTableRecord
  2
*D26
  0
BLOCK_RECORD
  5
680
100
AcDbSymbolTableRecord
100
AcDbBlockTableRecord
  2
*D27
  0
BLOCK_RECORD
  5
68C
100
AcDbSymbolTableRecord
100
AcDbBlockTableRecord
  2
*D28
  0
BLOCK_RECORD
  5
698
100
AcDbSymbolTableRecord
100
AcDbBlockTableRecord
  2
*D29
  0
BLOCK_RECORD
  5
6A3
100
AcDbSymbolTableRecord
100
AcDbBlockTableRecord
  2
*D30
  0
BLOCK_RECORD
  5
6AE
100
AcDbSymbolTableRecord
100
AcDbBlockTableRecord
  2
*D31
  0
BLOCK_RECORD
  5
6B9
100
AcDbSymbolTableRecord
100
AcDbBlockTableRecord
  2
*D32
  0
BLOCK_RECORD
  5
6C4
100
AcDbSymbolTableRecord
100
AcDbBlockTableRecord
  2
*D33
  0
BLOCK_RECORD
  5
6D1
100
AcDbSymbolTableRecord
100
AcDbBlockTableRecord
  2
*D34
  0
BLOCK_RECORD
  5
6DD
100
AcDbSymbolTableRecord
100
AcDbBlockTableRecord
  2
*D35
  0
BLOCK_RECORD
  5
6E9
100
AcDbSymbolTableRecord
100
AcDbBlockTableRecord
  2
*D36
  0
BLOCK_RECORD
  5
6F5
100
AcDbSymbolTableRecord
100
AcDbBlockTableRecord
  2
*D37
  0
ENDTAB
  0
ENDSEC
  0
SECTION
  2
BLOCKS
  0
BLOCK
  5
D
100
AcDbEntity
  8
0
100
AcDbBlockBegin
  2
*MODEL_SPACE
 70
     0
 10
0.0
 20
0.0
 30
0.0
  3
*MODEL_SPACE
  1

  0
ENDBLK
  5
E
100
AcDbEntity
  8
0
100
AcDbBlockEnd
  0
BLOCK
  5
F
100
AcDbEntity
 67
     1
  8
0
100
AcDbBlockBegin
  2
*PAPER_SPACE
 70
     0
 10
0.0
 20
0.0
 30
0.0
  3
*PAPER_SPACE
  1

  0
ENDBLK
  5
10
100
AcDbEntity
 67
     1
  8
0
100
AcDbBlockEnd
  0
BLOCK
  5
38
100
AcDbEntity
  8
0
100
AcDbBlockBegin
  2
_EX_NORM
 70
     0
 10
0.0
 20
0.0
 30
0.0
  3
_EX_NORM
  1

  0
LINE
  5
39
100
AcDbEntity
  8
0
  6
CONTINUOUS
 62
     0
100
AcDbLine
 10
0.0
 20
0.0
 30
0.0
 11
-1.0
 21
0.0
 31
0.0
  0
LINE
  5
3A
100
AcDbEntity
  8
0
  6
CONTINUOUS
 62
     0
100
AcDbLine
 10
0.0
 20
0.0
 30
0.0
 11
-1.0
 21
0.166667
 31
0.0
  0
LINE
  5
3B
100
AcDbEntity
  8
0
  6
CONTINUOUS
 62
     0
100
AcDbLine
 10
0.0
 20
0.0
 30
0.0
 11
-1.0
 21
-0.166667
 31
0.0
  0
ENDBLK
  5
3C
100
AcDbEntity
  8
0
100
AcDbBlockEnd
  0
BLOCK
  5
3D
100
AcDbEntity
  8
0
100
AcDbBlockBegin
  2
_EX_BNORM
 70
     0
 10
0.0
 20
0.0
 30
0.0
  3
_EX_BNORM
  1

  0
LINE
  5
3E
100
AcDbEntity
  8
0
  6
CONTINUOUS
 62
     0
100
AcDbLine
 10
0.0
 20
0.0
 30
0.0
 11
-1.0
 21
0.0
 31
0.0
  0
LINE
  5
3F
100
AcDbEntity
  8
0
  6
CONTINUOUS
 62
     0
100
AcDbLine
 10
0.0
 20
0.0
 30
0.0
 11
-1.0
 21
0.166667
 31
0.0
  0
LINE
  5
40
100
AcDbEntity
  8
0
  6
CONTINUOUS
 62
     0
100
AcDbLine
 10
0.0
 20
0.0
 30
0.0
 11
-1.0
 21
-0.166667
 31
0.0
  0
LINE
  5
41
100
AcDbEntity
  8
0
  6
CONTINUOUS
 62
     0
100
AcDbLine
 10
0.0
 20
0.0
 30
0.0
 11
-1.0
 21
0.083333
 31
0.0
  0
LINE
  5
42
100
AcDbEntity
  8
0
  6
CONTINUOUS
 62
     0
100
AcDbLine
 10
0.0
 20
0.0
 30
0.0
 11
-1.0
 21
-0.083333
 31
0.0
  0
LINE
  5
43
100
AcDbEntity
  8
0
  6
CONTINUOUS
 62
     0
100
AcDbLine
 10
-1.0
 20
0.166667
 30
0.0
 11
-1.0
 21
-0.166667
 31
0.0
  0
ENDBLK
  5
44
100
AcDbEntity
  8
0
100
AcDbBlockEnd
  0
BLOCK
  5
45
100
AcDbEntity
  8
0
100
AcDbBlockBegin
  2
_EX_BCIR
 70
     0
 10
0.0
 20
0.0
 30
0.0
  3
_EX_BCIR
  1

  0
LINE
  5
46
100
AcDbEntity
  8
0
  6
CONTINUOUS
 62
     0
100
AcDbLine
 10
0.0
 20
0.0
 30
0.0
 11
-1.0
 21
0.0
 31
0.0
  0
CIRCLE
  5
47
100
AcDbEntity
  8
0
  6
CONTINUOUS
 62
     0
100
AcDbCircle
 10
0.0
 20
0.0
 30
0.0
 40
0.5
  0
CIRCLE
  5
48
100
AcDbEntity
  8
0
  6
CONTINUOUS
 62
     0
100
AcDbCircle
 10
0.0
 20
0.0
 30
0.0
 40
0.25
  0
ENDBLK
  5
49
100
AcDbEntity
  8
0
100
AcDbBlockEnd
  0
BLOCK
  5
4A
100
AcDbEntity
  8
0
100
AcDbBlockBegin
  2
_EX_RCIVIL
 70
     0
 10
0.0
 20
0.0
 30
0.0
  3
_EX_RCIVIL
  1

  0
LINE
  5
4B
100
AcDbEntity
  8
0
  6
CONTINUOUS
 62
     0
100
AcDbLine
 10
0.0
 20
0.0
 30
0.0
 11
-1.0
 21
0.0
 31
0.0
  0
LINE
  5
4C
100
AcDbEntity
  8
0
  6
CONTINUOUS
 62
     0
100
AcDbLine
 10
-1.0
 20
-0.25
 30
0.0
 11
0.0
 21
-0.25
 31
0.0
  0
LINE
  5
4D
100
AcDbEntity
  8
0
  6
CONTINUOUS
 62
     0
100
AcDbLine
 10
-1.0
 20
-0.125
 30
0.0
 11
0.0
 21
-0.125
 31
0.0
  0
ENDBLK
  5
4E
100
AcDbEntity
  8
0
100
AcDbBlockEnd
  0
BLOCK
  5
4F
100
AcDbEntity
  8
0
100
AcDbBlockBegin
  2
_EX_SLANT
 70
     0
 10
0.0
 20
0.0
 30
0.0
  3
_EX_SLANT
  1

  0
LINE
  5
50
100
AcDbEntity
  8
0
  6
CONTINUOUS
 62
     0
100
AcDbLine
 10
0.0
 20
0.0
 30
0.0
 11
-1.0
 21
0.0
 31
0.0
  0
LINE
  5
51
100
AcDbEntity
  8
0
  6
CONTINUOUS
 62
     0
100
AcDbLine
 10
0.707107
 20
0.707107
 30
0.0
 11
-0.707107
 21
-0.707107
 31
0.0
  0
ENDBLK
  5
52
100
AcDbEntity
  8
0
100
AcDbBlockEnd
  0
BLOCK
  5
53
100
AcDbEntity
  8
0
100
AcDbBlockBegin
  2
_EX_NONE
 70
     0
 10
0.0
 20
0.0
 30
0.0
  3
_EX_NONE
  1

  0
LINE
  5
54
100
AcDbEntity
  8
0
  6
CONTINUOUS
 62
     0
100
AcDbLine
 10
0.0
 20
0.0
 30
0.0
 11
-1.0
 21
0.0
 31
0.0
  0
ENDBLK
  5
55
100
AcDbEntity
  8
0
100
AcDbBlockEnd
  0
BLOCK
  5
56
100
AcDbEntity
  8
0
100
AcDbBlockBegin
  2
_EX_CIVIL
 70
     0
 10
0.0
 20
0.0
 30
0.0
  3
_EX_CIVIL
  1

  0
LINE
  5
57
100
AcDbEntity
  8
0
  6
CONTINUOUS
 62
     0
100
AcDbLine
 10
0.0
 20
0.0
 30
0.0
 11
-1.0
 21
0.0
 31
0.0
  0
LINE
  5
58
100
AcDbEntity
  8
0
  6
CONTINUOUS
 62
     0
100
AcDbLine
 10
-1.0
 20
0.25
 30
0.0
 11
0.0
 21
0.25
 31
0.0
  0
LINE
  5
59
100
AcDbEntity
  8
0
  6
CONTINUOUS
 62
     0
100
AcDbLine
 10
-1.0
 20
0.125
 30
0.0
 11
0.0
 21
0.125
 31
0.0
  0
ENDBLK
  5
5A
100
AcDbEntity
  8
0
100
AcDbBlockEnd
  0
BLOCK
  5
5B
100
AcDbEntity
  8
0
100
AcDbBlockBegin
  2
_EX_WCIR
 70
     0
 10
0.0
 20
0.0
 30
0.0
  3
_EX_WCIR
  1

  0
LINE
  5
5C
100
AcDbEntity
  8
0
  6
CONTINUOUS
 62
     0
100
AcDbLine
 10
0.0
 20
0.0
 30
0.0
 11
-1.0
 21
0.0
 31
0.0
  0
CIRCLE
  5
5D
100
AcDbEntity
  8
0
  6
CONTINUOUS
 62
     0
100
AcDbCircle
 10
0.0
 20
0.0
 30
0.0
 40
0.5
  0
ENDBLK
  5
5E
100
AcDbEntity
  8
0
100
AcDbBlockEnd
  0
BLOCK
  5
5F
100
AcDbEntity
  8
0
100
AcDbBlockBegin
  2
_EX_WCIR2
 70
     0
 10
0.0
 20
0.0
 30
0.0
  3
_EX_WCIR2
  1

  0
LINE
  5
60
100
AcDbEntity
  8
0
  6
CONTINUOUS
 62
     0
100
AcDbLine
 10
-0.5
 20
0.0
 30
0.0
 11
-1.0
 21
0.0
 31
0.0
  0
CIRCLE
  5
61
100
AcDbEntity
  8
0
  6
CONTINUOUS
 62
     0
100
AcDbCircle
 10
0.0
 20
0.0
 30
0.0
 40
0.5
  0
ENDBLK
  5
62
100
AcDbEntity
  8
0
100
AcDbBlockEnd
  0
BLOCK
  5
63
100
AcDbEntity
  8
0
100
AcDbBlockBegin
  2
_EX_WNORM
 70
     0
 10
0.0
 20
0.0
 30
0.0
  3
_EX_WNORM
  1

  0
LINE
  5
64
100
AcDbEntity
  8
0
  6
CONTINUOUS
 62
     0
100
AcDbLine
 10
-1.0
 20
0.0
 30
0.0
 11
-1.0
 21
0.0
 31
0.0
  0
LINE
  5
65
100
AcDbEntity
  8
0
  6
CONTINUOUS
 62
     0
100
AcDbLine
 10
0.0
 20
0.0
 30
0.0
 11
-1.0
 21
0.166667
 31
0.0
  0
LINE
  5
66
100
AcDbEntity
  8
0
  6
CONTINUOUS
 62
     0
100
AcDbLine
 10
0.0
 20
0.0
 30
0.0
 11
-1.0
 21
-0.166667
 31
0.0
  0
LINE
  5
67
100
AcDbEntity
  8
0
  6
CONTINUOUS
 62
     0
100
AcDbLine
 10
-1.0
 20
0.166667
 30
0.0
 11
-1.0
 21
-0.166667
 31
0.0
  0
ENDBLK
  5
68
100
AcDbEntity
  8
0
100
AcDbBlockEnd
  0
BLOCK
  5
69
100
AcDbEntity
  8
0
100
AcDbBlockBegin
  2
_EX_NNORM
 70
     0
 10
0.0
 20
0.0
 30
0.0
  3
_EX_NNORM
  1

  0
LINE
  5
6A
100
AcDbEntity
  8
0
  6
CONTINUOUS
 62
     0
100
AcDbLine
 10
0.0
 20
0.0
 30
0.0
 11
-1.0
 21
0.0
 31
0.0
  0
LINE
  5
6B
100
AcDbEntity
  8
0
  6
CONTINUOUS
 62
     0
100
AcDbLine
 10
0.0
 20
0.0
 30
0.0
 11
-1.0
 21
0.166667
 31
0.0
  0
LINE
  5
6C
100
AcDbEntity
  8
0
  6
CONTINUOUS
 62
     0
100
AcDbLine
 10
0.0
 20
0.0
 30
0.0
 11
-1.0
 21
-0.166667
 31
0.0
  0
LINE
  5
6D
100
AcDbEntity
  8
0
  6
CONTINUOUS
 62
     0
100
AcDbLine
 10
-1.0
 20
0.166667
 30
0.0
 11
-1.0
 21
-0.166667
 31
0.0
  0
ENDBLK
  5
6E
100
AcDbEntity
  8
0
100
AcDbBlockEnd
  0
BLOCK
  5
6F
100
AcDbEntity
  8
0
100
AcDbBlockBegin
  2
_EX_BBOX
 70
     0
 10
0.0
 20
0.0
 30
0.0
  3
_EX_BBOX
  1

  0
LINE
  5
70
100
AcDbEntity
  8
0
  6
CONTINUOUS
 62
     0
100
AcDbLine
 10
0.0
 20
0.0
 30
0.0
 11
-1.0
 21
0.0
 31
0.0
  0
LINE
  5
71
100
AcDbEntity
  8
0
  6
CONTINUOUS
 62
     0
100
AcDbLine
 10
-0.5
 20
0.5
 30
0.0
 11
0.5
 21
0.5
 31
0.0
  0
LINE
  5
72
100
AcDbEntity
  8
0
  6
CONTINUOUS
 62
     0
100
AcDbLine
 10
0.5
 20
0.5
 30
0.0
 11
0.5
 21
-0.5
 31
0.0
  0
LINE
  5
73
100
AcDbEntity
  8
0
  6
CONTINUOUS
 62
     0
100
AcDbLine
 10
0.5
 20
-0.5
 30
0.0
 11
-0.5
 21
-0.5
 31
0.0
  0
LINE
  5
74
100
AcDbEntity
  8
0
  6
CONTINUOUS
 62
     0
100
AcDbLine
 10
-0.5
 20
-0.5
 30
0.0
 11
-0.5
 21
0.5
 31
0.0
  0
LINE
  5
75
100
AcDbEntity
  8
0
  6
CONTINUOUS
 62
     0
100
AcDbLine
 10
-0.25
 20
0.25
 30
0.0
 11
0.25
 21
0.25
 31
0.0
  0
LINE
  5
76
100
AcDbEntity
  8
0
  6
CONTINUOUS
 62
     0
100
AcDbLine
 10
0.25
 20
0.25
 30
0.0
 11
0.25
 21
-0.25
 31
0.0
  0
LINE
  5
77
100
AcDbEntity
  8
0
  6
CONTINUOUS
 62
     0
100
AcDbLine
 10
0.25
 20
-0.25
 30
0.0
 11
-0.25
 21
-0.25
 31
0.0
  0
LINE
  5
78
100
AcDbEntity
  8
0
  6
CONTINUOUS
 62
     0
100
AcDbLine
 10
-0.25
 20
-0.25
 30
0.0
 11
-0.25
 21
0.25
 31
0.0
  0
ENDBLK
  5
79
100
AcDbEntity
  8
0
100
AcDbBlockEnd
  0
BLOCK
  5
7A
100
AcDbEntity
  8
0
100
AcDbBlockBegin
  2
_EX_WBOX
 70
     0
 10
0.0
 20
0.0
 30
0.0
  3
_EX_WBOX
  1

  0
LINE
  5
7B
100
AcDbEntity
  8
0
  6
CONTINUOUS
 62
     0
100
AcDbLine
 10
-0.5
 20
0.0
 30
0.0
 11
-1.0
 21
0.0
 31
0.0
  0
LINE
  5
7C
100
AcDbEntity
  8
0
  6
CONTINUOUS
 62
     0
100
AcDbLine
 10
-0.5
 20
0.5
 30
0.0
 11
0.5
 21
0.5
 31
0.0
  0
LINE
  5
7D
100
AcDbEntity
  8
0
  6
CONTINUOUS
 62
     0
100
AcDbLine
 10
0.5
 20
0.5
 30
0.0
 11
0.5
 21
-0.5
 31
0.0
  0
LINE
  5
7E
100
AcDbEntity
  8
0
  6
CONTINUOUS
 62
     0
100
AcDbLine
 10
0.5
 20
-0.5
 30
0.0
 11
-0.5
 21
-0.5
 31
0.0
  0
LINE
  5
7F
100
AcDbEntity
  8
0
  6
CONTINUOUS
 62
     0
100
AcDbLine
 10
-0.5
 20
-0.5
 30
0.0
 11
-0.5
 21
0.5
 31
0.0
  0
ENDBLK
  5
80
100
AcDbEntity
  8
0
100
AcDbBlockEnd
  0
BLOCK
  5
81
100
AcDbEntity
  8
0
100
AcDbBlockBegin
  2
_EX_INTEGRAL
 70
     0
 10
0.0
 20
0.0
 30
0.0
  3
_EX_INTEGRAL
  1

  0
LINE
  5
82
100
AcDbEntity
  8
0
  6
CONTINUOUS
 62
     0
100
AcDbLine
 10
0.0
 20
0.0
 30
0.0
 11
-1.0
 21
0.0
 31
0.0
  0
ARC
  5
83
100
AcDbEntity
  8
0
  6
CONTINUOUS
 62
     0
100
AcDbCircle
 10
0.542115
 20
0.164992
 30
0.0
 40
0.56667
100
AcDbArc
 50
73.07249
 51
196.927513
  0
ARC
  5
84
100
AcDbEntity
  8
0
  6
CONTINUOUS
 62
     0
100
AcDbCircle
 10
-0.542115
 20
-0.164992
 30
0.0
 40
0.56667
100
AcDbArc
 50
253.072487
 51
16.927513
  0
ENDBLK
  5
85
100
AcDbEntity
  8
0
100
AcDbBlockEnd
  0
BLOCK
  5
5DD
100
AcDbEntity
  8
0
100
AcDbBlockBegin
  2
*D14
 70
    65
 10
0.0
 20
0.0
 30
0.0
  3
*D14
  1

  0
LINE
  5
5DE
100
AcDbEntity
  8
寸法
  6
CONTINUOUS
 62
     3
100
AcDbLine
 10
2380.0
 20
930.0
 30
0.0
 11
2380.0
 21
813.5
 31
0.0
  0
LINE
  5
5DF
100
AcDbEntity
  8
寸法
  6
CONTINUOUS
 62
     3
100
AcDbLine
 10
2465.0
 20
938.0
 30
0.0
 11
2465.0
 21
813.5
 31
0.0
  0
TEXT
  5
5E0
100
AcDbEntity
  8
寸法
  6
CONTINUOUS
 62
     2
100
AcDbText
 10
2536.4
 20
833.75
 30
0.0
 40
60.0
  1
85（床給水）
 41
0.84
  7
EXCADSTD
 72
     1
 11
2675.0
 21
833.75
 31
0.0
100
AcDbText
  0
LINE
  5
5E1
100
AcDbEntity
  8
寸法
  6
CONTINUOUS
 62
     3
100
AcDbLine
 10
2335.0
 20
828.5
 30
0.0
 11
2845.250006
 21
828.5
 31
0.0
  0
LINE
  5
5E2
100
AcDbEntity
  8
寸法
  6
CONTINUOUS
 62
     3
100
AcDbLine
 10
2335.0
 20
821.0
 30
0.0
 11
2380.0
 21
828.5
 31
0.0
  0
LINE
  5
5E3
100
AcDbEntity
  8
寸法
  6
CONTINUOUS
 62
     3
100
AcDbLine
 10
2380.0
 20
828.5
 30
0.0
 11
2335.0
 21
836.0
 31
0.0
  0
LINE
  5
5E4
100
AcDbEntity
  8
寸法
  6
CONTINUOUS
 62
     3
100
AcDbLine
 10
2510.0
 20
836.0
 30
0.0
 11
2465.0
 21
828.5
 31
0.0
  0
LINE
  5
5E5
100
AcDbEntity
  8
寸法
  6
CONTINUOUS
 62
     3
100
AcDbLine
 10
2465.0
 20
828.5
 30
0.0
 11
2510.0
 21
821.0
 31
0.0
  0
ENDBLK
  5
5E6
100
AcDbEntity
  8
0
100
AcDbBlockEnd
  0
BLOCK
  5
5EA
100
AcDbEntity
  8
0
100
AcDbBlockBegin
  2
*D15
 70
    65
 10
0.0
 20
0.0
 30
0.0
  3
*D15
  1

  0
LINE
  5
5EB
100
AcDbEntity
  8
寸法
  6
CONTINUOUS
 62
     3
100
AcDbLine
 10
2475.5
 20
948.5
 30
0.0
 11
2585.0
 21
948.5
 31
0.0
  0
LINE
  5
5EC
100
AcDbEntity
  8
寸法
  6
CONTINUOUS
 62
     3
100
AcDbLine
 10
2483.5
 20
1298.5
 30
0.0
 11
2585.0
 21
1298.5
 31
0.0
  0
TEXT
  5
5ED
100
AcDbEntity
  8
寸法
  6
CONTINUOUS
 62
     2
100
AcDbText
 10
2564.75
 20
966.0
 30
0.0
 40
60.0
  1
350（壁給水）
 50
90.0
 41
0.84
  7
EXCADSTD
 72
     1
 11
2564.75
 21
1123.5
 31
0.0
100
AcDbText
  0
LINE
  5
5EE
100
AcDbEntity
  8
寸法
  6
CONTINUOUS
 62
     3
100
AcDbLine
 10
2570.0
 20
948.5
 30
0.0
 11
2570.0
 21
1298.5
 31
0.0
  0
LINE
  5
5EF
100
AcDbEntity
  8
寸法
  6
CONTINUOUS
 62
     3
100
AcDbLine
 10
2562.5
 20
993.5
 30
0.0
 11
2570.0
 21
948.5
 31
0.0
  0
LINE
  5
5F0
100
AcDbEntity
  8
寸法
  6
CONTINUOUS
 62
     3
100
AcDbLine
 10
2570.0
 20
948.5
 30
0.0
 11
2577.5
 21
993.5
 31
0.0
  0
LINE
  5
5F1
100
AcDbEntity
  8
寸法
  6
CONTINUOUS
 62
     3
100
AcDbLine
 10
2577.5
 20
1253.5
 30
0.0
 11
2570.0
 21
1298.5
 31
0.0
  0
LINE
  5
5F2
100
AcDbEntity
  8
寸法
  6
CONTINUOUS
 62
     3
100
AcDbLine
 10
2570.0
 20
1298.5
 30
0.0
 11
2562.5
 21
1253.5
 31
0.0
  0
ENDBLK
  5
5F3
100
AcDbEntity
  8
0
100
AcDbBlockEnd
  0
BLOCK
  5
5F6
100
AcDbEntity
  8
0
100
AcDbBlockBegin
  2
*D16
 70
    65
 10
0.0
 20
0.0
 30
0.0
  3
*D16
  1

  0
LINE
  5
5F7
100
AcDbEntity
  8
寸法
  6
CONTINUOUS
 62
     3
100
AcDbLine
 10
2475.5
 20
948.5
 30
0.0
 11
2675.0
 21
948.5
 31
0.0
  0
LINE
  5
5F8
100
AcDbEntity
  8
寸法
  6
CONTINUOUS
 62
     3
100
AcDbLine
 10
2496.5
 20
1448.5
 30
0.0
 11
2675.0
 21
1448.5
 31
0.0
  0
TEXT
  5
5F9
100
AcDbEntity
  8
寸法
  6
CONTINUOUS
 62
     2
100
AcDbText
 10
2654.75
 20
1041.0
 30
0.0
 40
60.0
  1
500（壁排水）
 50
90.0
 41
0.84
  7
EXCADSTD
 72
     1
 11
2654.75
 21
1198.5
 31
0.0
100
AcDbText
  0
LINE
  5
5FA
100
AcDbEntity
  8
寸法
  6
CONTINUOUS
 62
     3
100
AcDbLine
 10
2660.0
 20
948.5
 30
0.0
 11
2660.0
 21
1448.5
 31
0.0
  0
LINE
  5
5FB
100
AcDbEntity
  8
寸法
  6
CONTINUOUS
 62
     3
100
AcDbLine
 10
2652.5
 20
993.5
 30
0.0
 11
2660.0
 21
948.5
 31
0.0
  0
LINE
  5
5FC
100
AcDbEntity
  8
寸法
  6
CONTINUOUS
 62
     3
100
AcDbLine
 10
2660.0
 20
948.5
 30
0.0
 11
2667.5
 21
993.5
 31
0.0
  0
LINE
  5
5FD
100
AcDbEntity
  8
寸法
  6
CONTINUOUS
 62
     3
100
AcDbLine
 10
2667.5
 20
1403.5
 30
0.0
 11
2660.0
 21
1448.5
 31
0.0
  0
LINE
  5
5FE
100
AcDbEntity
  8
寸法
  6
CONTINUOUS
 62
     3
100
AcDbLine
 10
2660.0
 20
1448.5
 30
0.0
 11
2652.5
 21
1403.5
 31
0.0
  0
ENDBLK
  5
5FF
100
AcDbEntity
  8
0
100
AcDbBlockEnd
  0
BLOCK
  5
602
100
AcDbEntity
  8
0
100
AcDbBlockBegin
  2
*D17
 70
    65
 10
0.0
 20
0.0
 30
0.0
  3
*D17
  1

  0
LINE
  5
603
100
AcDbEntity
  8
寸法
  6
CONTINUOUS
 62
     3
100
AcDbLine
 10
2475.5
 20
948.5
 30
0.0
 11
2765.0
 21
948.5
 31
0.0
  0
LINE
  5
604
100
AcDbEntity
  8
寸法
  6
CONTINUOUS
 62
     3
100
AcDbLine
 10
2508.0
 20
1503.5
 30
0.0
 11
2765.0
 21
1503.5
 31
0.0
  0
TEXT
  5
605
100
AcDbEntity
  8
寸法
  6
CONTINUOUS
 62
     2
100
AcDbText
 10
2744.75
 20
1068.5
 30
0.0
 40
60.0
  1
555（壁固定）
 50
90.0
 41
0.84
  7
EXCADSTD
 72
     1
 11
2744.75
 21
1226.0
 31
0.0
100
AcDbText
  0
LINE
  5
606
100
AcDbEntity
  8
寸法
  6
CONTINUOUS
 62
     3
100
AcDbLine
 10
2750.0
 20
948.5
 30
0.0
 11
2750.0
 21
1503.5
 31
0.0
  0
LINE
  5
607
100
AcDbEntity
  8
寸法
  6
CONTINUOUS
 62
     3
100
AcDbLine
 10
2742.5
 20
993.5
 30
0.0
 11
2750.0
 21
948.5
 31
0.0
  0
LINE
  5
608
100
AcDbEntity
  8
寸法
  6
CONTINUOUS
 62
     3
100
AcDbLine
 10
2750.0
 20
948.5
 30
0.0
 11
2757.5
 21
993.5
 31
0.0
  0
LINE
  5
609
100
AcDbEntity
  8
寸法
  6
CONTINUOUS
 62
     3
100
AcDbLine
 10
2757.5
 20
1458.5
 30
0.0
 11
2750.0
 21
1503.5
 31
0.0
  0
LINE
  5
60A
100
AcDbEntity
  8
寸法
  6
CONTINUOUS
 62
     3
100
AcDbLine
 10
2750.0
 20
1503.5
 30
0.0
 11
2742.5
 21
1458.5
 31
0.0
  0
ENDBLK
  5
60B
100
AcDbEntity
  8
0
100
AcDbBlockEnd
  0
BLOCK
  5
60E
100
AcDbEntity
  8
0
100
AcDbBlockBegin
  2
*D18
 70
    65
 10
0.0
 20
0.0
 30
0.0
  3
*D18
  1

  0
LINE
  5
60F
100
AcDbEntity
  8
寸法
  6
CONTINUOUS
 62
     3
100
AcDbLine
 10
2475.5
 20
948.5
 30
0.0
 11
2855.0
 21
948.5
 31
0.0
  0
LINE
  5
610
100
AcDbEntity
  8
寸法
  6
CONTINUOUS
 62
     3
100
AcDbLine
 10
2508.0
 20
1808.5
 30
0.0
 11
2855.0
 21
1808.5
 31
0.0
  0
TEXT
  5
611
100
AcDbEntity
  8
寸法
  6
CONTINUOUS
 62
     2
100
AcDbText
 10
2834.75
 20
1315.5
 30
0.0
 40
60.0
  1
860
 50
90.0
 41
0.84
  7
EXCADSTD
 72
     1
 11
2834.75
 21
1378.5
 31
0.0
100
AcDbText
  0
LINE
  5
612
100
AcDbEntity
  8
寸法
  6
CONTINUOUS
 62
     3
100
AcDbLine
 10
2840.0
 20
948.5
 30
0.0
 11
2840.0
 21
1808.5
 31
0.0
  0
LINE
  5
613
100
AcDbEntity
  8
寸法
  6
CONTINUOUS
 62
     3
100
AcDbLine
 10
2832.5
 20
993.5
 30
0.0
 11
2840.0
 21
948.5
 31
0.0
  0
LINE
  5
614
100
AcDbEntity
  8
寸法
  6
CONTINUOUS
 62
     3
100
AcDbLine
 10
2840.0
 20
948.5
 30
0.0
 11
2847.5
 21
993.5
 31
0.0
  0
LINE
  5
615
100
AcDbEntity
  8
寸法
  6
CONTINUOUS
 62
     3
100
AcDbLine
 10
2847.5
 20
1763.5
 30
0.0
 11
2840.0
 21
1808.5
 31
0.0
  0
LINE
  5
616
100
AcDbEntity
  8
寸法
  6
CONTINUOUS
 62
     3
100
AcDbLine
 10
2840.0
 20
1808.5
 30
0.0
 11
2832.5
 21
1763.5
 31
0.0
  0
ENDBLK
  5
617
100
AcDbEntity
  8
0
100
AcDbBlockEnd
  0
BLOCK
  5
61A
100
AcDbEntity
  8
0
100
AcDbBlockBegin
  2
*D19
 70
    65
 10
0.0
 20
0.0
 30
0.0
  3
*D19
  1

  0
LINE
  5
61B
100
AcDbEntity
  8
寸法
  6
CONTINUOUS
 62
     3
100
AcDbLine
 10
2075.0
 20
941.5
 30
0.0
 11
2075.0
 21
633.5
 31
0.0
  0
LINE
  5
61C
100
AcDbEntity
  8
寸法
  6
CONTINUOUS
 62
     3
100
AcDbLine
 10
2465.0
 20
938.0
 30
0.0
 11
2465.0
 21
633.5
 31
0.0
  0
TEXT
  5
61D
100
AcDbEntity
  8
寸法
  6
CONTINUOUS
 62
     2
100
AcDbText
 10
2207.0
 20
653.75
 30
0.0
 40
60.0
  1
390
 41
0.84
  7
EXCADSTD
 72
     1
 11
2270.0
 21
653.75
 31
0.0
100
AcDbText
  0
LINE
  5
61E
100
AcDbEntity
  8
寸法
  6
CONTINUOUS
 62
     3
100
AcDbLine
 10
2075.0
 20
648.5
 30
0.0
 11
2465.0
 21
648.5
 31
0.0
  0
LINE
  5
61F
100
AcDbEntity
  8
寸法
  6
CONTINUOUS
 62
     3
100
AcDbLine
 10
2120.0
 20
656.0
 30
0.0
 11
2075.0
 21
648.5
 31
0.0
  0
LINE
  5
620
100
AcDbEntity
  8
寸法
  6
CONTINUOUS
 62
     3
100
AcDbLine
 10
2075.0
 20
648.5
 30
0.0
 11
2120.0
 21
641.0
 31
0.0
  0
LINE
  5
621
100
AcDbEntity
  8
寸法
  6
CONTINUOUS
 62
     3
100
AcDbLine
 10
2420.0
 20
641.0
 30
0.0
 11
2465.0
 21
648.5
 31
0.0
  0
LINE
  5
622
100
AcDbEntity
  8
寸法
  6
CONTINUOUS
 62
     3
100
AcDbLine
 10
2465.0
 20
648.5
 30
0.0
 11
2420.0
 21
656.0
 31
0.0
  0
ENDBLK
  5
623
100
AcDbEntity
  8
0
100
AcDbBlockEnd
  0
BLOCK
  5
628
100
AcDbEntity
  8
0
100
AcDbBlockBegin
  2
*D20
 70
    65
 10
0.0
 20
0.0
 30
0.0
  3
*D20
  1

  0
LINE
  5
629
100
AcDbEntity
  8
寸法
  6
CONTINUOUS
 62
     3
100
AcDbLine
 10
869.0
 20
1741.222388
 30
0.0
 11
869.0
 21
1950.0
 31
0.0
  0
LINE
  5
62A
100
AcDbEntity
  8
寸法
  6
CONTINUOUS
 62
     3
100
AcDbLine
 10
971.0
 20
1750.722388
 30
0.0
 11
971.0
 21
1950.0
 31
0.0
  0
TEXT
  5
62B
100
AcDbEntity
  8
寸法
  6
CONTINUOUS
 62
     2
100
AcDbText
 10
857.0
 20
1940.25
 30
0.0
 40
60.0
  1
102
 41
0.84
  7
EXCADSTD
 72
     1
 11
920.0
 21
1940.25
 31
0.0
100
AcDbText
  0
LINE
  5
62C
100
AcDbEntity
  8
寸法
  6
CONTINUOUS
 62
     3
100
AcDbLine
 10
824.0
 20
1935.0
 30
0.0
 11
1016.0
 21
1935.0
 31
0.0
  0
LINE
  5
62D
100
AcDbEntity
  8
寸法
  6
CONTINUOUS
 62
     3
100
AcDbLine
 10
824.0
 20
1927.5
 30
0.0
 11
869.0
 21
1935.0
 31
0.0
  0
LINE
  5
62E
100
AcDbEntity
  8
寸法
  6
CONTINUOUS
 62
     3
100
AcDbLine
 10
869.0
 20
1935.0
 30
0.0
 11
824.0
 21
1942.5
 31
0.0
  0
LINE
  5
62F
100
AcDbEntity
  8
寸法
  6
CONTINUOUS
 62
     3
100
AcDbLine
 10
1016.0
 20
1942.5
 30
0.0
 11
971.0
 21
1935.0
 31
0.0
  0
LINE
  5
630
100
AcDbEntity
  8
寸法
  6
CONTINUOUS
 62
     3
100
AcDbLine
 10
971.0
 20
1935.0
 30
0.0
 11
1016.0
 21
1927.5
 31
0.0
  0
ENDBLK
  5
631
100
AcDbEntity
  8
0
100
AcDbBlockEnd
  0
BLOCK
  5
634
100
AcDbEntity
  8
0
100
AcDbBlockBegin
  2
*D21
 70
    65
 10
0.0
 20
0.0
 30
0.0
  3
*D21
  1

  0
LINE
  5
635
100
AcDbEntity
  8
寸法
  6
CONTINUOUS
 62
     3
100
AcDbLine
 10
2385.0
 20
1744.0
 30
0.0
 11
2385.0
 21
1950.0
 31
0.0
  0
TEXT
  5
636
100
AcDbEntity
  8
寸法
  6
CONTINUOUS
 62
     2
100
AcDbText
 10
2243.4
 20
1940.25
 30
0.0
 40
60.0
  1
80
 41
0.84
  7
EXCADSTD
 72
     1
 11
2287.5
 21
1940.25
 31
0.0
100
AcDbText
  0
LINE
  5
637
100
AcDbEntity
  8
寸法
  6
CONTINUOUS
 62
     3
100
AcDbLine
 10
2229.749994
 20
1935.0
 30
0.0
 11
2510.0
 21
1935.0
 31
0.0
  0
LINE
  5
638
100
AcDbEntity
  8
寸法
  6
CONTINUOUS
 62
     3
100
AcDbLine
 10
2340.0
 20
1927.5
 30
0.0
 11
2385.0
 21
1935.0
 31
0.0
  0
LINE
  5
639
100
AcDbEntity
  8
寸法
  6
CONTINUOUS
 62
     3
100
AcDbLine
 10
2385.0
 20
1935.0
 30
0.0
 11
2340.0
 21
1942.5
 31
0.0
  0
LINE
  5
63A
100
AcDbEntity
  8
寸法
  6
CONTINUOUS
 62
     3
100
AcDbLine
 10
2510.0
 20
1942.5
 30
0.0
 11
2465.0
 21
1935.0
 31
0.0
  0
LINE
  5
63B
100
AcDbEntity
  8
寸法
  6
CONTINUOUS
 62
     3
100
AcDbLine
 10
2465.0
 20
1935.0
 30
0.0
 11
2510.0
 21
1927.5
 31
0.0
  0
ENDBLK
  5
63C
100
AcDbEntity
  8
0
100
AcDbBlockEnd
  0
BLOCK
  5
644
100
AcDbEntity
  8
0
100
AcDbBlockBegin
  2
*D22
 70
    65
 10
0.0
 20
0.0
 30
0.0
  3
*D22
  1

  0
LINE
  5
645
100
AcDbEntity
  8
寸法
  6
CONTINUOUS
 62
     3
100
AcDbLine
 10
2345.0
 20
908.0
 30
0.0
 11
2345.0
 21
723.5
 31
0.0
  0
LINE
  5
646
100
AcDbEntity
  8
寸法
  6
CONTINUOUS
 62
     3
100
AcDbLine
 10
2465.0
 20
938.0
 30
0.0
 11
2465.0
 21
723.5
 31
0.0
  0
TEXT
  5
647
100
AcDbEntity
  8
寸法
  6
CONTINUOUS
 62
     2
100
AcDbText
 10
2540.0
 20
743.75
 30
0.0
 40
60.0
  1
120（床排水）
 41
0.84
  7
EXCADSTD
 72
     1
 11
2697.5
 21
743.75
 31
0.0
100
AcDbText
  0
LINE
  5
648
100
AcDbEntity
  8
寸法
  6
CONTINUOUS
 62
     3
100
AcDbLine
 10
2300.0
 20
738.5
 30
0.0
 11
2890.250006
 21
738.5
 31
0.0
  0
LINE
  5
649
100
AcDbEntity
  8
寸法
  6
CONTINUOUS
 62
     3
100
AcDbLine
 10
2300.0
 20
731.0
 30
0.0
 11
2345.0
 21
738.5
 31
0.0
  0
LINE
  5
64A
100
AcDbEntity
  8
寸法
  6
CONTINUOUS
 62
     3
100
AcDbLine
 10
2345.0
 20
738.5
 30
0.0
 11
2300.0
 21
746.0
 31
0.0
  0
LINE
  5
64B
100
AcDbEntity
  8
寸法
  6
CONTINUOUS
 62
     3
100
AcDbLine
 10
2510.0
 20
746.0
 30
0.0
 11
2465.0
 21
738.5
 31
0.0
  0
LINE
  5
64C
100
AcDbEntity
  8
寸法
  6
CONTINUOUS
 62
     3
100
AcDbLine
 10
2465.0
 20
738.5
 30
0.0
 11
2510.0
 21
731.0
 31
0.0
  0
ENDBLK
  5
64D
100
AcDbEntity
  8
0
100
AcDbBlockEnd
  0
BLOCK
  5
650
100
AcDbEntity
  8
0
100
AcDbBlockBegin
  2
*D23
 70
    65
 10
0.0
 20
0.0
 30
0.0
  3
*D23
  1

  0
LINE
  5
651
100
AcDbEntity
  8
寸法
  6
CONTINUOUS
 62
     3
100
AcDbLine
 10
820.0
 20
930.0
 30
0.0
 11
820.0
 21
723.5
 31
0.0
  0
LINE
  5
652
100
AcDbEntity
  8
寸法
  6
CONTINUOUS
 62
     3
100
AcDbLine
 10
1020.0
 20
930.0
 30
0.0
 11
1020.0
 21
723.5
 31
0.0
  0
TEXT
  5
653
100
AcDbEntity
  8
寸法
  6
CONTINUOUS
 62
     2
100
AcDbText
 10
1095.0
 20
743.75
 30
0.0
 40
60.0
  1
200（床給水）
 41
0.84
  7
EXCADSTD
 72
     1
 11
1252.5
 21
743.75
 31
0.0
100
AcDbText
  0
LINE
  5
654
100
AcDbEntity
  8
寸法
  6
CONTINUOUS
 62
     3
100
AcDbLine
 10
775.0
 20
738.5
 30
0.0
 11
1445.250006
 21
738.5
 31
0.0
  0
LINE
  5
655
100
AcDbEntity
  8
寸法
  6
CONTINUOUS
 62
     3
100
AcDbLine
 10
775.0
 20
731.0
 30
0.0
 11
820.0
 21
738.5
 31
0.0
  0
LINE
  5
656
100
AcDbEntity
  8
寸法
  6
CONTINUOUS
 62
     3
100
AcDbLine
 10
820.0
 20
738.5
 30
0.0
 11
775.0
 21
746.0
 31
0.0
  0
LINE
  5
657
100
AcDbEntity
  8
寸法
  6
CONTINUOUS
 62
     3
100
AcDbLine
 10
1065.0
 20
746.0
 30
0.0
 11
1020.0
 21
738.5
 31
0.0
  0
LINE
  5
658
100
AcDbEntity
  8
寸法
  6
CONTINUOUS
 62
     3
100
AcDbLine
 10
1020.0
 20
738.5
 30
0.0
 11
1065.0
 21
731.0
 31
0.0
  0
ENDBLK
  5
659
100
AcDbEntity
  8
0
100
AcDbBlockEnd
  0
BLOCK
  5
65E
100
AcDbEntity
  8
0
100
AcDbBlockBegin
  2
*D24
 70
    65
 10
0.0
 20
0.0
 30
0.0
  3
*D24
  1

  0
LINE
  5
65F
100
AcDbEntity
  8
寸法
  6
CONTINUOUS
 62
     3
100
AcDbLine
 10
820.0
 20
3991.5
 30
0.0
 11
820.0
 21
4093.0
 31
0.0
  0
LINE
  5
660
100
AcDbEntity
  8
寸法
  6
CONTINUOUS
 62
     3
100
AcDbLine
 10
1020.0
 20
3991.5
 30
0.0
 11
1020.0
 21
4093.0
 31
0.0
  0
TEXT
  5
661
100
AcDbEntity
  8
寸法
  6
CONTINUOUS
 62
     2
100
AcDbText
 10
1095.0
 20
4083.25
 30
0.0
 40
60.0
  1
200（壁給水）
 41
0.84
  7
EXCADSTD
 72
     1
 11
1252.5
 21
4083.25
 31
0.0
100
AcDbText
  0
LINE
  5
662
100
AcDbEntity
  8
寸法
  6
CONTINUOUS
 62
     3
100
AcDbLine
 10
775.0
 20
4078.0
 30
0.0
 11
1445.250006
 21
4078.0
 31
0.0
  0
LINE
  5
663
100
AcDbEntity
  8
寸法
  6
CONTINUOUS
 62
     3
100
AcDbLine
 10
775.0
 20
4070.5
 30
0.0
 11
820.0
 21
4078.0
 31
0.0
  0
LINE
  5
664
100
AcDbEntity
  8
寸法
  6
CONTINUOUS
 62
     3
100
AcDbLine
 10
820.0
 20
4078.0
 30
0.0
 11
775.0
 21
4085.5
 31
0.0
  0
LINE
  5
665
100
AcDbEntity
  8
寸法
  6
CONTINUOUS
 62
     3
100
AcDbLine
 10
1065.0
 20
4085.5
 30
0.0
 11
1020.0
 21
4078.0
 31
0.0
  0
LINE
  5
666
100
AcDbEntity
  8
寸法
  6
CONTINUOUS
 62
     3
100
AcDbLine
 10
1020.0
 20
4078.0
 30
0.0
 11
1065.0
 21
4070.5
 31
0.0
  0
ENDBLK
  5
667
100
AcDbEntity
  8
0
100
AcDbBlockEnd
  0
BLOCK
  5
66A
100
AcDbEntity
  8
0
100
AcDbBlockBegin
  2
*D25
 70
    65
 10
0.0
 20
0.0
 30
0.0
  3
*D25
  1

  0
LINE
  5
66B
100
AcDbEntity
  8
寸法
  6
CONTINUOUS
 62
     3
100
AcDbLine
 10
620.0
 20
3521.95795
 30
0.0
 11
620.0
 21
3373.0
 31
0.0
  0
LINE
  5
66C
100
AcDbEntity
  8
寸法
  6
CONTINUOUS
 62
     3
100
AcDbLine
 10
1220.0
 20
3521.95795
 30
0.0
 11
1220.0
 21
3373.0
 31
0.0
  0
TEXT
  5
66D
100
AcDbEntity
  8
寸法
  6
CONTINUOUS
 62
     2
100
AcDbText
 10
857.0
 20
3393.25
 30
0.0
 40
60.0
  1
600
 41
0.84
  7
EXCADSTD
 72
     1
 11
920.0
 21
3393.25
 31
0.0
100
AcDbText
  0
LINE
  5
66E
100
AcDbEntity
  8
寸法
  6
CONTINUOUS
 62
     3
100
AcDbLine
 10
620.0
 20
3388.0
 30
0.0
 11
1220.0
 21
3388.0
 31
0.0
  0
LINE
  5
66F
100
AcDbEntity
  8
寸法
  6
CONTINUOUS
 62
     3
100
AcDbLine
 10
665.0
 20
3395.5
 30
0.0
 11
620.0
 21
3388.0
 31
0.0
  0
LINE
  5
670
100
AcDbEntity
  8
寸法
  6
CONTINUOUS
 62
     3
100
AcDbLine
 10
620.0
 20
3388.0
 30
0.0
 11
665.0
 21
3380.5
 31
0.0
  0
LINE
  5
671
100
AcDbEntity
  8
寸法
  6
CONTINUOUS
 62
     3
100
AcDbLine
 10
1175.0
 20
3380.5
 30
0.0
 11
1220.0
 21
3388.0
 31
0.0
  0
LINE
  5
672
100
AcDbEntity
  8
寸法
  6
CONTINUOUS
 62
     3
100
AcDbLine
 10
1220.0
 20
3388.0
 30
0.0
 11
1175.0
 21
3395.5
 31
0.0
  0
ENDBLK
  5
673
100
AcDbEntity
  8
0
100
AcDbBlockEnd
  0
BLOCK
  5
676
100
AcDbEntity
  8
0
100
AcDbBlockBegin
  2
*D26
 70
    65
 10
0.0
 20
0.0
 30
0.0
  3
*D26
  1

  0
LINE
  5
677
100
AcDbEntity
  8
寸法
  6
CONTINUOUS
 62
     3
100
AcDbLine
 10
930.5
 20
3493.0
 30
0.0
 11
1340.0
 21
3493.0
 31
0.0
  0
TEXT
  5
678
100
AcDbEntity
  8
寸法
  6
CONTINUOUS
 62
     2
100
AcDbText
 10
1319.75
 20
3670.0
 30
0.0
 40
60.0
  1
480
 50
90.0
 41
0.84
  7
EXCADSTD
 72
     1
 11
1319.75
 21
3733.0
 31
0.0
100
AcDbText
  0
LINE
  5
679
100
AcDbEntity
  8
寸法
  6
CONTINUOUS
 62
     3
100
AcDbLine
 10
1325.0
 20
3493.0
 30
0.0
 11
1325.0
 21
3973.0
 31
0.0
  0
LINE
  5
67A
100
AcDbEntity
  8
寸法
  6
CONTINUOUS
 62
     3
100
AcDbLine
 10
1317.5
 20
3538.0
 30
0.0
 11
1325.0
 21
3493.0
 31
0.0
  0
LINE
  5
67B
100
AcDbEntity
  8
寸法
  6
CONTINUOUS
 62
     3
100
AcDbLine
 10
1325.0
 20
3493.0
 30
0.0
 11
1332.5
 21
3538.0
 31
0.0
  0
LINE
  5
67C
100
AcDbEntity
  8
寸法
  6
CONTINUOUS
 62
     3
100
AcDbLine
 10
1332.5
 20
3928.0
 30
0.0
 11
1325.0
 21
3973.0
 31
0.0
  0
LINE
  5
67D
100
AcDbEntity
  8
寸法
  6
CONTINUOUS
 62
     3
100
AcDbLine
 10
1325.0
 20
3973.0
 30
0.0
 11
1317.5
 21
3928.0
 31
0.0
  0
ENDBLK
  5
67E
100
AcDbEntity
  8
0
100
AcDbBlockEnd
  0
BLOCK
  5
681
100
AcDbEntity
  8
0
100
AcDbBlockBegin
  2
*D27
 70
    65
 10
0.0
 20
0.0
 30
0.0
  3
*D27
  1

  0
LINE
  5
682
100
AcDbEntity
  8
寸法
  6
CONTINUOUS
 62
     3
100
AcDbLine
 10
725.0
 20
4150.500005
 30
0.0
 11
725.0
 21
4183.0
 31
0.0
  0
LINE
  5
683
100
AcDbEntity
  8
寸法
  6
CONTINUOUS
 62
     3
100
AcDbLine
 10
1115.0
 20
4150.500005
 30
0.0
 11
1115.0
 21
4183.0
 31
0.0
  0
TEXT
  5
684
100
AcDbEntity
  8
寸法
  6
CONTINUOUS
 62
     2
100
AcDbText
 10
762.5
 20
4173.25
 30
0.0
 40
60.0
  1
390（壁固定）
 41
0.84
  7
EXCADSTD
 72
     1
 11
920.0
 21
4173.25
 31
0.0
100
AcDbText
  0
LINE
  5
685
100
AcDbEntity
  8
寸法
  6
CONTINUOUS
 62
     3
100
AcDbLine
 10
725.0
 20
4168.0
 30
0.0
 11
1115.0
 21
4168.0
 31
0.0
  0
LINE
  5
686
100
AcDbEntity
  8
寸法
  6
CONTINUOUS
 62
     3
100
AcDbLine
 10
770.0
 20
4175.5
 30
0.0
 11
725.0
 21
4168.0
 31
0.0
  0
LINE
  5
687
100
AcDbEntity
  8
寸法
  6
CONTINUOUS
 62
     3
100
AcDbLine
 10
725.0
 20
4168.0
 30
0.0
 11
770.0
 21
4160.5
 31
0.0
  0
LINE
  5
688
100
AcDbEntity
  8
寸法
  6
CONTINUOUS
 62
     3
100
AcDbLine
 10
1070.0
 20
4160.5
 30
0.0
 11
1115.0
 21
4168.0
 31
0.0
  0
LINE
  5
689
100
AcDbEntity
  8
寸法
  6
CONTINUOUS
 62
     3
100
AcDbLine
 10
1115.0
 20
4168.0
 30
0.0
 11
1070.0
 21
4175.5
 31
0.0
  0
ENDBLK
  5
68A
100
AcDbEntity
  8
0
100
AcDbBlockEnd
  0
BLOCK
  5
68D
100
AcDbEntity
  8
0
100
AcDbBlockBegin
  2
*D28
 70
    65
 10
0.0
 20
0.0
 30
0.0
  3
*D28
  1

  0
LINE
  5
68E
100
AcDbEntity
  8
寸法
  6
CONTINUOUS
 62
     3
100
AcDbLine
 10
636.5
 20
711.000005
 30
0.0
 11
636.5
 21
633.5
 31
0.0
  0
LINE
  5
68F
100
AcDbEntity
  8
寸法
  6
CONTINUOUS
 62
     3
100
AcDbLine
 10
1203.5
 20
711.000005
 30
0.0
 11
1203.5
 21
633.5
 31
0.0
  0
TEXT
  5
690
100
AcDbEntity
  8
寸法
  6
CONTINUOUS
 62
     2
100
AcDbText
 10
857.0
 20
653.75
 30
0.0
 40
60.0
  1
567
 41
0.84
  7
EXCADSTD
 72
     1
 11
920.0
 21
653.75
 31
0.0
100
AcDbText
  0
LINE
  5
691
100
AcDbEntity
  8
寸法
  6
CONTINUOUS
 62
     3
100
AcDbLine
 10
636.5
 20
648.5
 30
0.0
 11
1203.5
 21
648.5
 31
0.0
  0
LINE
  5
692
100
AcDbEntity
  8
寸法
  6
CONTINUOUS
 62
     3
100
AcDbLine
 10
681.5
 20
656.0
 30
0.0
 11
636.5
 21
648.5
 31
0.0
  0
LINE
  5
693
100
AcDbEntity
  8
寸法
  6
CONTINUOUS
 62
     3
100
AcDbLine
 10
636.5
 20
648.5
 30
0.0
 11
681.5
 21
641.0
 31
0.0
  0
LINE
  5
694
100
AcDbEntity
  8
寸法
  6
CONTINUOUS
 62
     3
100
AcDbLine
 10
1158.5
 20
641.0
 30
0.0
 11
1203.5
 21
648.5
 31
0.0
  0
LINE
  5
695
100
AcDbEntity
  8
寸法
  6
CONTINUOUS
 62
     3
100
AcDbLine
 10
1203.5
 20
648.5
 30
0.0
 11
1158.5
 21
656.0
 31
0.0
  0
ENDBLK
  5
696
100
AcDbEntity
  8
0
100
AcDbBlockEnd
  0
BLOCK
  5
699
100
AcDbEntity
  8
0
100
AcDbBlockBegin
  2
*D29
 70
    65
 10
0.0
 20
0.0
 30
0.0
  3
*D29
  1

  0
LINE
  5
69A
100
AcDbEntity
  8
寸法
  6
CONTINUOUS
 62
     3
100
AcDbLine
 10
930.5
 20
1728.5
 30
0.0
 11
1387.5
 21
1728.5
 31
0.0
  0
TEXT
  5
69B
100
AcDbEntity
  8
寸法
  6
CONTINUOUS
 62
     2
100
AcDbText
 10
1367.25
 20
1275.5
 30
0.0
 40
60.0
  1
780
 50
90.0
 41
0.84
  7
EXCADSTD
 72
     1
 11
1367.25
 21
1338.5
 31
0.0
100
AcDbText
  0
LINE
  5
69C
100
AcDbEntity
  8
寸法
  6
CONTINUOUS
 62
     3
100
AcDbLine
 10
1372.5
 20
948.5
 30
0.0
 11
1372.5
 21
1728.5
 31
0.0
  0
LINE
  5
69D
100
AcDbEntity
  8
寸法
  6
CONTINUOUS
 62
     3
100
AcDbLine
 10
1365.0
 20
993.5
 30
0.0
 11
1372.5
 21
948.5
 31
0.0
  0
LINE
  5
69E
100
AcDbEntity
  8
寸法
  6
CONTINUOUS
 62
     3
100
AcDbLine
 10
1372.5
 20
948.5
 30
0.0
 11
1380.0
 21
993.5
 31
0.0
  0
LINE
  5
69F
100
AcDbEntity
  8
寸法
  6
CONTINUOUS
 62
     3
100
AcDbLine
 10
1380.0
 20
1683.5
 30
0.0
 11
1372.5
 21
1728.5
 31
0.0
  0
LINE
  5
6A0
100
AcDbEntity
  8
寸法
  6
CONTINUOUS
 62
     3
100
AcDbLine
 10
1372.5
 20
1728.5
 30
0.0
 11
1365.0
 21
1683.5
 31
0.0
  0
ENDBLK
  5
6A1
100
AcDbEntity
  8
0
100
AcDbBlockEnd
  0
BLOCK
  5
6A4
100
AcDbEntity
  8
0
100
AcDbBlockBegin
  2
*D30
 70
    65
 10
0.0
 20
0.0
 30
0.0
  3
*D30
  1

  0
LINE
  5
6A5
100
AcDbEntity
  8
寸法
  6
CONTINUOUS
 62
     3
100
AcDbLine
 10
1225.5
 20
1743.5
 30
0.0
 11
1477.5
 21
1743.5
 31
0.0
  0
TEXT
  5
6A6
100
AcDbEntity
  8
寸法
  6
CONTINUOUS
 62
     2
100
AcDbText
 10
1457.25
 20
1283.0
 30
0.0
 40
60.0
  1
795
 50
90.0
 41
0.84
  7
EXCADSTD
 72
     1
 11
1457.25
 21
1346.0
 31
0.0
100
AcDbText
  0
LINE
  5
6A7
100
AcDbEntity
  8
寸法
  6
CONTINUOUS
 62
     3
100
AcDbLine
 10
1462.5
 20
948.5
 30
0.0
 11
1462.5
 21
1743.5
 31
0.0
  0
LINE
  5
6A8
100
AcDbEntity
  8
寸法
  6
CONTINUOUS
 62
     3
100
AcDbLine
 10
1455.0
 20
993.5
 30
0.0
 11
1462.5
 21
948.5
 31
0.0
  0
LINE
  5
6A9
100
AcDbEntity
  8
寸法
  6
CONTINUOUS
 62
     3
100
AcDbLine
 10
1462.5
 20
948.5
 30
0.0
 11
1470.0
 21
993.5
 31
0.0
  0
LINE
  5
6AA
100
AcDbEntity
  8
寸法
  6
CONTINUOUS
 62
     3
100
AcDbLine
 10
1470.0
 20
1698.5
 30
0.0
 11
1462.5
 21
1743.5
 31
0.0
  0
LINE
  5
6AB
100
AcDbEntity
  8
寸法
  6
CONTINUOUS
 62
     3
100
AcDbLine
 10
1462.5
 20
1743.5
 30
0.0
 11
1455.0
 21
1698.5
 31
0.0
  0
ENDBLK
  5
6AC
100
AcDbEntity
  8
0
100
AcDbBlockEnd
  0
BLOCK
  5
6AF
100
AcDbEntity
  8
0
100
AcDbBlockBegin
  2
*D31
 70
    65
 10
0.0
 20
0.0
 30
0.0
  3
*D31
  1

  0
LINE
  5
6B0
100
AcDbEntity
  8
寸法
  6
CONTINUOUS
 62
     3
100
AcDbLine
 10
1225.499985
 20
2743.5
 30
0.0
 11
1567.5
 21
2743.5
 31
0.0
  0
TEXT
  5
6B1
100
AcDbEntity
  8
寸法
  6
CONTINUOUS
 62
     2
100
AcDbText
 10
1547.25
 20
1764.1
 30
0.0
 40
60.0
  1
1795
 50
90.0
 41
0.84
  7
EXCADSTD
 72
     1
 11
1547.25
 21
1846.0
 31
0.0
100
AcDbText
  0
LINE
  5
6B2
100
AcDbEntity
  8
寸法
  6
CONTINUOUS
 62
     3
100
AcDbLine
 10
1552.5
 20
948.5
 30
0.0
 11
1552.5
 21
2743.5
 31
0.0
  0
LINE
  5
6B3
100
AcDbEntity
  8
寸法
  6
CONTINUOUS
 62
     3
100
AcDbLine
 10
1545.0
 20
993.5
 30
0.0
 11
1552.5
 21
948.5
 31
0.0
  0
LINE
  5
6B4
100
AcDbEntity
  8
寸法
  6
CONTINUOUS
 62
     3
100
AcDbLine
 10
1552.5
 20
948.5
 30
0.0
 11
1560.0
 21
993.5
 31
0.0
  0
LINE
  5
6B5
100
AcDbEntity
  8
寸法
  6
CONTINUOUS
 62
     3
100
AcDbLine
 10
1560.0
 20
2698.5
 30
0.0
 11
1552.5
 21
2743.5
 31
0.0
  0
LINE
  5
6B6
100
AcDbEntity
  8
寸法
  6
CONTINUOUS
 62
     3
100
AcDbLine
 10
1552.5
 20
2743.5
 30
0.0
 11
1545.0
 21
2698.5
 31
0.0
  0
ENDBLK
  5
6B7
100
AcDbEntity
  8
0
100
AcDbBlockEnd
  0
BLOCK
  5
6BA
100
AcDbEntity
  8
0
100
AcDbBlockBegin
  2
*D32
 70
    65
 10
0.0
 20
0.0
 30
0.0
  3
*D32
  1

  0
LINE
  5
6BB
100
AcDbEntity
  8
寸法
  6
CONTINUOUS
 62
     3
100
AcDbLine
 10
1225.499985
 20
2743.5
 30
0.0
 11
1477.5
 21
2743.5
 31
0.0
  0
TEXT
  5
6BC
100
AcDbEntity
  8
寸法
  6
CONTINUOUS
 62
     2
100
AcDbText
 10
1457.25
 20
2161.6
 30
0.0
 40
60.0
  1
1000
 50
90.0
 41
0.84
  7
EXCADSTD
 72
     1
 11
1457.25
 21
2243.5
 31
0.0
100
AcDbText
  0
LINE
  5
6BD
100
AcDbEntity
  8
寸法
  6
CONTINUOUS
 62
     3
100
AcDbLine
 10
1462.5
 20
1743.5
 30
0.0
 11
1462.5
 21
2743.5
 31
0.0
  0
LINE
  5
6BE
100
AcDbEntity
  8
寸法
  6
CONTINUOUS
 62
     3
100
AcDbLine
 10
1455.0
 20
1788.5
 30
0.0
 11
1462.5
 21
1743.5
 31
0.0
  0
LINE
  5
6BF
100
AcDbEntity
  8
寸法
  6
CONTINUOUS
 62
     3
100
AcDbLine
 10
1462.5
 20
1743.5
 30
0.0
 11
1470.0
 21
1788.5
 31
0.0
  0
LINE
  5
6C0
100
AcDbEntity
  8
寸法
  6
CONTINUOUS
 62
     3
100
AcDbLine
 10
1470.0
 20
2698.5
 30
0.0
 11
1462.5
 21
2743.5
 31
0.0
  0
LINE
  5
6C1
100
AcDbEntity
  8
寸法
  6
CONTINUOUS
 62
     3
100
AcDbLine
 10
1462.5
 20
2743.5
 30
0.0
 11
1455.0
 21
2698.5
 31
0.0
  0
ENDBLK
  5
6C2
100
AcDbEntity
  8
0
100
AcDbBlockEnd
  0
BLOCK
  5
6C5
100
AcDbEntity
  8
0
100
AcDbBlockBegin
  2
*D33
 70
    65
 10
0.0
 20
0.0
 30
0.0
  3
*D33
  1

  0
LINE
  5
6C6
100
AcDbEntity
  8
寸法
  6
CONTINUOUS
 62
     3
100
AcDbLine
 10
1243.576697
 20
1873.5
 30
0.0
 11
1387.5
 21
1873.5
 31
0.0
  0
TEXT
  5
6C7
100
AcDbEntity
  8
寸法
  6
CONTINUOUS
 62
     2
100
AcDbText
 10
1367.25
 20
1745.5
 30
0.0
 40
60.0
  1
130
 50
90.0
 41
0.84
  7
EXCADSTD
 72
     1
 11
1367.25
 21
1808.5
 31
0.0
100
AcDbText
  0
LINE
  5
6C8
100
AcDbEntity
  8
寸法
  6
CONTINUOUS
 62
     3
100
AcDbLine
 10
1372.5
 20
1743.5
 30
0.0
 11
1372.5
 21
1873.5
 31
0.0
  0
LINE
  5
6C9
100
AcDbEntity
  8
寸法
  6
CONTINUOUS
 62
     3
100
AcDbLine
 10
1365.0
 20
1788.5
 30
0.0
 11
1372.5
 21
1743.5
 31
0.0
  0
LINE
  5
6CA
100
AcDbEntity
  8
寸法
  6
CONTINUOUS
 62
     3
100
AcDbLine
 10
1372.5
 20
1743.5
 30
0.0
 11
1380.0
 21
1788.5
 31
0.0
  0
LINE
  5
6CB
100
AcDbEntity
  8
寸法
  6
CONTINUOUS
 62
     3
100
AcDbLine
 10
1380.0
 20
1828.5
 30
0.0
 11
1372.5
 21
1873.5
 31
0.0
  0
LINE
  5
6CC
100
AcDbEntity
  8
寸法
  6
CONTINUOUS
 62
     3
100
AcDbLine
 10
1372.5
 20
1873.5
 30
0.0
 11
1365.0
 21
1828.5
 31
0.0
  0
ENDBLK
  5
6CD
100
AcDbEntity
  8
0
100
AcDbBlockEnd
  0
BLOCK
  5
6D2
100
AcDbEntity
  8
0
100
AcDbBlockBegin
  2
*D34
 70
    65
 10
0.0
 20
0.0
 30
0.0
  3
*D34
  1

  0
LINE
  5
6D3
100
AcDbEntity
  8
寸法
  6
CONTINUOUS
 62
     3
100
AcDbLine
 10
665.0
 20
2682.5
 30
0.0
 11
665.0
 21
2853.75
 31
0.0
  0
LINE
  5
6D4
100
AcDbEntity
  8
寸法
  6
CONTINUOUS
 62
     3
100
AcDbLine
 10
1175.0
 20
2682.5
 30
0.0
 11
1175.0
 21
2853.75
 31
0.0
  0
TEXT
  5
6D5
100
AcDbEntity
  8
寸法
  6
CONTINUOUS
 62
     2
100
AcDbText
 10
762.5
 20
2844.0
 30
0.0
 40
60.0
  1
510（壁固定）
 41
0.84
  7
EXCADSTD
 72
     1
 11
920.0
 21
2844.0
 31
0.0
100
AcDbText
  0
LINE
  5
6D6
100
AcDbEntity
  8
寸法
  6
CONTINUOUS
 62
     3
100
AcDbLine
 10
665.0
 20
2838.75
 30
0.0
 11
1175.0
 21
2838.75
 31
0.0
  0
LINE
  5
6D7
100
AcDbEntity
  8
寸法
  6
CONTINUOUS
 62
     3
100
AcDbLine
 10
710.0
 20
2846.25
 30
0.0
 11
665.0
 21
2838.75
 31
0.0
  0
LINE
  5
6D8
100
AcDbEntity
  8
寸法
  6
CONTINUOUS
 62
     3
100
AcDbLine
 10
665.0
 20
2838.75
 30
0.0
 11
710.0
 21
2831.25
 31
0.0
  0
LINE
  5
6D9
100
AcDbEntity
  8
寸法
  6
CONTINUOUS
 62
     3
100
AcDbLine
 10
1130.0
 20
2831.25
 30
0.0
 11
1175.0
 21
2838.75
 31
0.0
  0
LINE
  5
6DA
100
AcDbEntity
  8
寸法
  6
CONTINUOUS
 62
     3
100
AcDbLine
 10
1175.0
 20
2838.75
 30
0.0
 11
1130.0
 21
2846.25
 31
0.0
  0
ENDBLK
  5
6DB
100
AcDbEntity
  8
0
100
AcDbBlockEnd
  0
BLOCK
  5
6DE
100
AcDbEntity
  8
0
100
AcDbBlockBegin
  2
*D35
 70
    65
 10
0.0
 20
0.0
 30
0.0
  3
*D35
  1

  0
LINE
  5
6DF
100
AcDbEntity
  8
寸法
  6
CONTINUOUS
 62
     3
100
AcDbLine
 10
620.0
 20
2749.0
 30
0.0
 11
620.0
 21
2943.75
 31
0.0
  0
LINE
  5
6E0
100
AcDbEntity
  8
寸法
  6
CONTINUOUS
 62
     3
100
AcDbLine
 10
1220.0
 20
2749.0
 30
0.0
 11
1220.0
 21
2943.75
 31
0.0
  0
TEXT
  5
6E1
100
AcDbEntity
  8
寸法
  6
CONTINUOUS
 62
     2
100
AcDbText
 10
857.0
 20
2934.0
 30
0.0
 40
60.0
  1
600
 41
0.84
  7
EXCADSTD
 72
     1
 11
920.0
 21
2934.0
 31
0.0
100
AcDbText
  0
LINE
  5
6E2
100
AcDbEntity
  8
寸法
  6
CONTINUOUS
 62
     3
100
AcDbLine
 10
620.0
 20
2928.75
 30
0.0
 11
1220.0
 21
2928.75
 31
0.0
  0
LINE
  5
6E3
100
AcDbEntity
  8
寸法
  6
CONTINUOUS
 62
     3
100
AcDbLine
 10
665.0
 20
2936.25
 30
0.0
 11
620.0
 21
2928.75
 31
0.0
  0
LINE
  5
6E4
100
AcDbEntity
  8
寸法
  6
CONTINUOUS
 62
     3
100
AcDbLine
 10
620.0
 20
2928.75
 30
0.0
 11
665.0
 21
2921.25
 31
0.0
  0
LINE
  5
6E5
100
AcDbEntity
  8
寸法
  6
CONTINUOUS
 62
     3
100
AcDbLine
 10
1175.0
 20
2921.25
 30
0.0
 11
1220.0
 21
2928.75
 31
0.0
  0
LINE
  5
6E6
100
AcDbEntity
  8
寸法
  6
CONTINUOUS
 62
     3
100
AcDbLine
 10
1220.0
 20
2928.75
 30
0.0
 11
1175.0
 21
2936.25
 31
0.0
  0
ENDBLK
  5
6E7
100
AcDbEntity
  8
0
100
AcDbBlockEnd
  0
BLOCK
  5
6EA
100
AcDbEntity
  8
0
100
AcDbBlockBegin
  2
*D36
 70
    65
 10
0.0
 20
0.0
 30
0.0
  3
*D36
  1

  0
LINE
  5
6EB
100
AcDbEntity
  8
寸法
  6
CONTINUOUS
 62
     3
100
AcDbLine
 10
2508.0
 20
1808.5
 30
0.0
 11
2855.0
 21
1808.5
 31
0.0
  0
LINE
  5
6EC
100
AcDbEntity
  8
寸法
  6
CONTINUOUS
 62
     3
100
AcDbLine
 10
2508.0
 20
2688.5
 30
0.0
 11
2855.0
 21
2688.5
 31
0.0
  0
TEXT
  5
6ED
100
AcDbEntity
  8
寸法
  6
CONTINUOUS
 62
     2
100
AcDbText
 10
2834.75
 20
2091.0
 30
0.0
 40
60.0
  1
880（壁固定）
 50
90.0
 41
0.84
  7
EXCADSTD
 72
     1
 11
2834.75
 21
2248.5
 31
0.0
100
AcDbText
  0
LINE
  5
6EE
100
AcDbEntity
  8
寸法
  6
CONTINUOUS
 62
     3
100
AcDbLine
 10
2840.0
 20
1808.5
 30
0.0
 11
2840.0
 21
2688.5
 31
0.0
  0
LINE
  5
6EF
100
AcDbEntity
  8
寸法
  6
CONTINUOUS
 62
     3
100
AcDbLine
 10
2832.5
 20
1853.5
 30
0.0
 11
2840.0
 21
1808.5
 31
0.0
  0
LINE
  5
6F0
100
AcDbEntity
  8
寸法
  6
CONTINUOUS
 62
     3
100
AcDbLine
 10
2840.0
 20
1808.5
 30
0.0
 11
2847.5
 21
1853.5
 31
0.0
  0
LINE
  5
6F1
100
AcDbEntity
  8
寸法
  6
CONTINUOUS
 62
     3
100
AcDbLine
 10
2847.5
 20
2643.5
 30
0.0
 11
2840.0
 21
2688.5
 31
0.0
  0
LINE
  5
6F2
100
AcDbEntity
  8
寸法
  6
CONTINUOUS
 62
     3
100
AcDbLine
 10
2840.0
 20
2688.5
 30
0.0
 11
2832.5
 21
2643.5
 31
0.0
  0
ENDBLK
  5
6F3
100
AcDbEntity
  8
0
100
AcDbBlockEnd
  0
BLOCK
  5
6F6
100
AcDbEntity
  8
0
100
AcDbBlockBegin
  2
*D37
 70
    65
 10
0.0
 20
0.0
 30
0.0
  3
*D37
  1

  0
LINE
  5
6F7
100
AcDbEntity
  8
寸法
  6
CONTINUOUS
 62
     3
100
AcDbLine
 10
2313.74118
 20
2725.702357
 30
0.0
 11
2313.74118
 21
2853.75
 31
0.0
  0
TEXT
  5
6F8
100
AcDbEntity
  8
寸法
  6
CONTINUOUS
 62
     2
100
AcDbText
 10
2326.37059
 20
2844.0
 30
0.0
 40
60.0
  1
151
 41
0.84
  7
EXCADSTD
 72
     1
 11
2389.37059
 21
2844.0
 31
0.0
100
AcDbText
  0
LINE
  5
6F9
100
AcDbEntity
  8
寸法
  6
CONTINUOUS
 62
     3
100
AcDbLine
 10
2268.74118
 20
2838.75
 30
0.0
 11
2510.0
 21
2838.75
 31
0.0
  0
LINE
  5
6FA
100
AcDbEntity
  8
寸法
  6
CONTINUOUS
 62
     3
100
AcDbLine
 10
2268.74118
 20
2831.25
 30
0.0
 11
2313.74118
 21
2838.75
 31
0.0
  0
LINE
  5
6FB
100
AcDbEntity
  8
寸法
  6
CONTINUOUS
 62
     3
100
AcDbLine
 10
2313.74118
 20
2838.75
 30
0.0
 11
2268.74118
 21
2846.25
 31
0.0
  0
LINE
  5
6FC
100
AcDbEntity
  8
寸法
  6
CONTINUOUS
 62
     3
100
AcDbLine
 10
2510.0
 20
2846.25
 30
0.0
 11
2465.0
 21
2838.75
 31
0.0
  0
LINE
  5
6FD
100
AcDbEntity
  8
寸法
  6
CONTINUOUS
 62
     3
100
AcDbLine
 10
2465.0
 20
2838.75
 30
0.0
 11
2510.0
 21
2831.25
 31
0.0
  0
ENDBLK
  5
6FE
100
AcDbEntity
  8
0
100
AcDbBlockEnd
  0
ENDSEC
  0
SECTION
  2
ENTITIES
  0
LINE
  5
86
100
AcDbEntity
  8
枠・表
  6
CONTINUOUS
 62
     7
100
AcDbLine
 10
270.0
 20
202.5
 30
0.0
 11
3000.0
 21
202.5
 31
0.0
  0
LINE
  5
87
100
AcDbEntity
  8
枠・表
  6
CONTINUOUS
 62
     7
100
AcDbLine
 10
3000.0
 20
202.5
 30
0.0
 11
3000.0
 21
4327.5
 31
0.0
  0
LINE
  5
88
100
AcDbEntity
  8
枠・表
  6
CONTINUOUS
 62
     7
100
AcDbLine
 10
270.0
 20
202.5
 30
0.0
 11
270.0
 21
4327.5
 31
0.0
  0
LINE
  5
89
100
AcDbEntity
  8
枠・表
  6
CONTINUOUS
 62
     7
100
AcDbLine
 10
270.0
 20
4327.5
 30
0.0
 11
3000.0
 21
4327.5
 31
0.0
  0
LINE
  5
8A
100
AcDbEntity
  8
枠・表
  6
CONTINUOUS
 62
     7
100
AcDbLine
 10
270.0
 20
532.5
 30
0.0
 11
3000.0
 21
532.5
 31
0.0
  0
LINE
  5
8B
100
AcDbEntity
  8
枠・表
  6
CONTINUOUS
 62
     6
100
AcDbLine
 10
3000.0
 20
352.5
 30
0.0
 11
1125.0
 21
352.5
 31
0.0
  0
LINE
  5
8C
100
AcDbEntity
  8
枠・表
  6
CONTINUOUS
 62
     6
100
AcDbLine
 10
2790.0
 20
532.5
 30
0.0
 11
2790.0
 21
352.5
 31
0.0
  0
LINE
  5
8D
100
AcDbEntity
  8
枠・表
  6
CONTINUOUS
 62
     6
100
AcDbLine
 10
2715.0
 20
532.5
 30
0.0
 11
2715.0
 21
352.5
 31
0.0
  0
LINE
  5
8E
100
AcDbEntity
  8
枠・表
  6
CONTINUOUS
 62
     6
100
AcDbLine
 10
2160.0
 20
532.5
 30
0.0
 11
2160.0
 21
202.5
 31
0.0
  0
LINE
  5
8F
100
AcDbEntity
  8
枠・表
  6
CONTINUOUS
 62
     6
100
AcDbLine
 10
2085.0
 20
532.5
 30
0.0
 11
2085.0
 21
202.5
 31
0.0
  0
LINE
  5
90
100
AcDbEntity
  8
枠・表
  6
CONTINUOUS
 62
     6
100
AcDbLine
 10
1200.0
 20
532.5
 30
0.0
 11
1200.0
 21
352.5
 31
0.0
  0
LINE
  5
91
100
AcDbEntity
  8
枠・表
  6
CONTINUOUS
 62
     6
100
AcDbLine
 10
1125.0
 20
532.5
 30
0.0
 11
1125.0
 21
202.5
 31
0.0
  0
LINE
  5
92
100
AcDbEntity
  8
枠・表
  6
CONTINUOUS
 62
     6
100
AcDbLine
 10
930.0
 20
532.5
 30
0.0
 11
930.0
 21
202.5
 31
0.0
  0
LINE
  5
93
100
AcDbEntity
  8
枠・表
  6
CONTINUOUS
 62
     6
100
AcDbLine
 10
735.0
 20
532.5
 30
0.0
 11
735.0
 21
202.5
 31
0.0
  0
LINE
  5
94
100
AcDbEntity
  8
枠・表
  6
CONTINUOUS
 62
     6
100
AcDbLine
 10
502.5
 20
532.5
 30
0.0
 11
502.5
 21
202.5
 31
0.0
  0
LINE
  5
95
100
AcDbEntity
  8
枠・表
  6
CONTINUOUS
 62
     6
100
AcDbLine
 10
270.0
 20
457.5
 30
0.0
 11
1125.0
 21
457.5
 31
0.0
  0
LINE
  5
96
100
AcDbEntity
  8
枠・表
  6
CONTINUOUS
 62
     6
100
AcDbLine
 10
2838.980713
 20
387.004395
 30
0.0
 11
2954.990845
 21
505.049744
 31
0.0
  0
CIRCLE
  5
97
100
AcDbEntity
  8
枠・表
  6
CONTINUOUS
 62
     6
100
AcDbCircle
 10
345.0
 20
240.0
 30
0.0
 40
1.5
  0
CIRCLE
  5
98
100
AcDbEntity
  8
枠・表
  6
CONTINUOUS
 62
     6
100
AcDbCircle
 10
420.0
 20
240.0
 30
0.0
 40
1.5
  0
CIRCLE
  5
99
100
AcDbEntity
  8
枠・表
  6
CONTINUOUS
 62
     6
100
AcDbCircle
 10
577.5
 20
240.0
 30
0.0
 40
1.5
  0
CIRCLE
  5
9A
100
AcDbEntity
  8
枠・表
  6
CONTINUOUS
 62
     6
100
AcDbCircle
 10
652.5
 20
240.0
 30
0.0
 40
1.5
  0
LINE
  5
9B
100
AcDbEntity
  8
枠・表
  6
EXLTYPE2
 62
     6
100
AcDbLine
 10
270.0
 20
277.5
 30
0.0
 11
735.0
 21
277.5
 31
0.0
  0
TEXT
  5
9C
100
AcDbEntity
  8
枠・表
  6
CONTINUOUS
 62
     2
100
AcDbText
 10
2835.805664
 20
454.084167
 30
0.0
 40
45.0
  1
１
 41
0.826
  7
EXCADSTD
 72
     5
 11
2871.205665
 21
454.084167
 31
0.0
100
AcDbText
  0
TEXT
  5
9D
100
AcDbEntity
  8
枠・表
  6
CONTINUOUS
 62
     2
100
AcDbText
 10
2896.918945
 20
387.52327
 30
0.0
 40
45.0
  1
１５
 41
0.791
  7
EXCADSTD
 72
     5
 11
2974.600797
 21
387.52327
 31
0.0
100
AcDbText
  0
TEXT
  5
9E
100
AcDbEntity
  8
枠・表
  6
CONTINUOUS
 62
     2
100
AcDbText
 10
303.75
 20
463.125
 30
0.0
 40
63.75
  1
製図
 41
1.087059
  7
EXCADSTD
 72
     5
 11
454.989
 21
463.125
 31
0.0
100
AcDbText
  0
TEXT
  5
9F
100
AcDbEntity
  8
枠・表
  6
CONTINUOUS
 62
     2
100
AcDbText
 10
536.25
 20
463.125
 30
0.0
 40
63.75
  1
写図
 41
1.087059
  7
EXCADSTD
 72
     5
 11
687.489
 21
463.125
 31
0.0
100
AcDbText
  0
TEXT
  5
A0
100
AcDbEntity
  8
枠・表
  6
CONTINUOUS
 62
     2
100
AcDbText
 10
761.25
 20
463.125
 30
0.0
 40
63.75
  1
検図
 41
0.938824
  7
EXCADSTD
 72
     5
 11
891.8655
 21
463.125
 31
0.0
100
AcDbText
  0
TEXT
  5
A1
100
AcDbEntity
  8
枠・表
  6
CONTINUOUS
 62
     2
100
AcDbText
 10
956.25
 20
463.125
 30
0.0
 40
63.75
  1
承認
 41
0.938824
  7
EXCADSTD
 72
     5
 11
1086.8655
 21
463.125
 31
0.0
100
AcDbText
  0
TEXT
  5
A2
100
AcDbEntity
  8
枠・表
  6
CONTINUOUS
 62
     2
100
AcDbText
 10
1133.625
 20
448.125
 30
0.0
 40
63.75
  1
品
 41
0.84
  7
EXCADSTD
 72
     5
 11
1184.625
 21
448.125
 31
0.0
100
AcDbText
  0
TEXT
  5
A3
100
AcDbEntity
  8
枠・表
  6
CONTINUOUS
 62
     2
100
AcDbText
 10
1133.625
 20
373.125
 30
0.0
 40
63.75
  1
名
 41
0.84
  7
EXCADSTD
 72
     5
 11
1184.625
 21
373.125
 31
0.0
100
AcDbText
  0
TEXT
  5
A4
100
AcDbEntity
  8
枠・表
  6
CONTINUOUS
 62
     2
100
AcDbText
 10
2093.625
 20
448.125
 30
0.0
 40
63.75
  1
品
 41
0.84
  7
EXCADSTD
 72
     5
 11
2144.625
 21
448.125
 31
0.0
100
AcDbText
  0
TEXT
  5
A5
100
AcDbEntity
  8
枠・表
  6
CONTINUOUS
 62
     2
100
AcDbText
 10
2093.625
 20
373.125
 30
0.0
 40
63.75
  1
番
 41
0.84
  7
EXCADSTD
 72
     5
 11
2144.625
 21
373.125
 31
0.0
100
AcDbText
  0
TEXT
  5
A6
100
AcDbEntity
  8
枠・表
  6
CONTINUOUS
 62
     2
100
AcDbText
 10
2725.125
 20
448.125
 30
0.0
 40
63.75
  1
尺
 41
0.84
  7
EXCADSTD
 72
     5
 11
2776.125
 21
448.125
 31
0.0
100
AcDbText
  0
TEXT
  5
A7
100
AcDbEntity
  8
枠・表
  6
CONTINUOUS
 62
     2
100
AcDbText
 10
2725.125
 20
373.125
 30
0.0
 40
63.75
  1
度
 41
0.84
  7
EXCADSTD
 72
     5
 11
2776.125
 21
373.125
 31
0.0
100
AcDbText
  0
TEXT
  5
A8
100
AcDbEntity
  8
枠・表
  6
CONTINUOUS
 62
     2
100
AcDbText
 10
2093.625
 20
278.625
 30
0.0
 40
63.75
  1
図
 41
0.84
  7
EXCADSTD
 72
     5
 11
2144.625
 21
278.625
 31
0.0
100
AcDbText
  0
TEXT
  5
A9
100
AcDbEntity
  8
枠・表
  6
CONTINUOUS
 62
     2
100
AcDbText
 10
2093.625
 20
214.125
 30
0.0
 40
63.75
  1
番
 41
0.84
  7
EXCADSTD
 72
     5
 11
2144.625
 21
214.125
 31
0.0
100
AcDbText
  0
LINE
  5
AA
100
AcDbEntity
  8
枠・表
  6
CONTINUOUS
 62
     6
100
AcDbLine
 10
1875.0
 20
4282.5
 30
0.0
 11
2925.0
 21
4282.5
 31
0.0
  0
LINE
  5
AB
100
AcDbEntity
  8
枠・表
  6
CONTINUOUS
 62
     6
100
AcDbLine
 10
1875.0
 20
4200.0
 30
0.0
 11
2925.0
 21
4200.0
 31
0.0
  0
TEXT
  5
AC
100
AcDbEntity
  8
枠・表
  6
CONTINUOUS
 62
     2
100
AcDbText
 10
1995.0
 20
4211.25
 30
0.0
 40
60.0
  1
品番
 41
1.47
  7
EXCADSTD
 72
     5
 11
2187.486
 21
4211.25
 31
0.0
100
AcDbText
  0
TEXT
  5
AD
100
AcDbEntity
  8
枠・表
  6
CONTINUOUS
 62
     2
100
AcDbText
 10
2445.0
 20
4211.25
 30
0.0
 40
60.0
  1
品名
 41
1.47
  7
EXCADSTD
 72
     5
 11
2637.486
 21
4211.25
 31
0.0
100
AcDbText
  0
TEXT
  5
AE
100
AcDbEntity
  8
枠・表
  6
CONTINUOUS
 62
     2
100
AcDbText
 10
2788.5
 20
4211.25
 30
0.0
 40
60.0
  1
個数
 41
0.861
  7
EXCADSTD
 72
     5
 11
2901.2418
 21
4211.25
 31
0.0
100
AcDbText
  0
TEXT
  5
AF
100
AcDbEntity
  8
枠・表
  6
CONTINUOUS
 62
     2
100
AcDbText
 10
2340.0
 20
4128.75
 30
0.0
 40
60.0
  1
洗面化粧台
 41
0.8106
  7
EXCADSTD
 72
     5
 11
2629.499999
 21
4128.75
 31
0.0
100
AcDbText
  0
TEXT
  5
B0
100
AcDbEntity
  8
枠・表
  6
CONTINUOUS
 62
     2
100
AcDbText
 10
2340.0
 20
3963.75
 30
0.0
 40
60.0
  1
化粧鏡台
 41
0.819
  7
EXCADSTD
 72
     5
 11
2573.999999
 21
3963.75
 31
0.0
100
AcDbText
  0
TEXT
  5
B1
100
AcDbEntity
  8
枠・表
  6
CONTINUOUS
 62
     2
100
AcDbText
 10
2816.25
 20
3963.75
 30
0.0
 40
60.0
  1
１
 41
0.945
  7
EXCADSTD
 72
     5
 11
2870.25
 21
3963.75
 31
0.0
100
AcDbText
  0
LINE
  5
B2
100
AcDbEntity
  8
枠・表
  6
CONTINUOUS
 62
     6
100
AcDbLine
 10
1875.0
 20
3870.0
 30
0.0
 11
2925.0
 21
3870.0
 31
0.0
  0
LINE
  5
B3
100
AcDbEntity
  8
枠・表
  6
CONTINUOUS
 62
     6
100
AcDbLine
 10
1875.0
 20
3952.5
 30
0.0
 11
2925.0
 21
3952.5
 31
0.0
  0
LINE
  5
B4
100
AcDbEntity
  8
枠・表
  6
CONTINUOUS
 62
     6
100
AcDbLine
 10
1875.0
 20
3705.0
 30
0.0
 11
2925.0
 21
3705.0
 31
0.0
  0
TEXT
  5
B5
100
AcDbEntity
  8
枠・表
  6
CONTINUOUS
 62
     2
100
AcDbText
 10
1890.0
 20
3716.25
 30
0.0
 40
60.0
  1
ＮＬ２２１-７５ＷＭＹ
 41
0.49719
  7
EXCADSTD
 72
     5
 11
2274.000006
 21
3716.25
 31
0.0
100
AcDbText
  0
TEXT
  5
B6
100
AcDbEntity
  8
枠・表
  6
CONTINUOUS
 62
     2
100
AcDbText
 10
2816.25
 20
3716.25
 30
0.0
 40
60.0
  1
２
 41
0.945
  7
EXCADSTD
 72
     5
 11
2870.25
 21
3716.25
 31
0.0
100
AcDbText
  0
LINE
  5
B7
100
AcDbEntity
  8
枠・表
  6
CONTINUOUS
 62
     6
100
AcDbLine
 10
1875.0
 20
3787.5
 30
0.0
 11
2925.0
 21
3787.5
 31
0.0
  0
LINE
  5
B8
100
AcDbEntity
  8
枠・表
  6
CONTINUOUS
 62
     6
100
AcDbLine
 10
1875.0
 20
3705.0
 30
0.0
 11
1875.0
 21
3870.0
 31
0.0
  0
LINE
  5
B9
100
AcDbEntity
  8
枠・表
  6
CONTINUOUS
 62
     6
100
AcDbLine
 10
2325.0
 20
3705.0
 30
0.0
 11
2325.0
 21
3870.0
 31
0.0
  0
LINE
  5
BA
100
AcDbEntity
  8
枠・表
  6
CONTINUOUS
 62
     6
100
AcDbLine
 10
2775.0
 20
3705.0
 30
0.0
 11
2775.0
 21
3870.0
 31
0.0
  0
LINE
  5
BB
100
AcDbEntity
  8
枠・表
  6
CONTINUOUS
 62
     6
100
AcDbLine
 10
2925.0
 20
3705.0
 30
0.0
 11
2925.0
 21
3870.0
 31
0.0
  0
TEXT
  5
BC
100
AcDbEntity
  8
枠・表
  6
CONTINUOUS
 62
     2
100
AcDbText
 10
2816.25
 20
3798.75
 30
0.0
 40
60.0
  1
２
 41
0.945
  7
EXCADSTD
 72
     5
 11
2870.25
 21
3798.75
 31
0.0
100
AcDbText
  0
TEXT
  5
BD
100
AcDbEntity
  8
枠・表
  6
CONTINUOUS
 62
     2
100
AcDbText
 10
1890.0
 20
3881.25
 30
0.0
 40
60.0
  1
止水栓手配品番（アングル形の場合）
 41
0.681882
  7
EXCADSTD
 72
     5
 11
2717.999997
 21
3881.25
 31
0.0
100
AcDbText
  0
LINE
  5
BE
100
AcDbEntity
  8
枠・表
  6
CONTINUOUS
 62
     6
100
AcDbLine
 10
1875.0
 20
3622.5
 30
0.0
 11
2925.0
 21
3622.5
 31
0.0
  0
TEXT
  5
BF
100
AcDbEntity
  8
枠・表
  6
CONTINUOUS
 62
     2
100
AcDbText
 10
1890.0
 20
3551.25
 30
0.0
 40
60.0
  1
ＮＬ３０Ｓ４０
 41
0.528
  7
EXCADSTD
 72
     5
 11
2154.000004
 21
3551.25
 31
0.0
100
AcDbText
  0
LINE
  5
C0
100
AcDbEntity
  8
枠・表
  6
CONTINUOUS
 62
     6
100
AcDbLine
 10
1875.0
 20
3457.5
 30
0.0
 11
2925.0
 21
3457.5
 31
0.0
  0
TEXT
  5
C1
100
AcDbEntity
  8
枠・表
  6
CONTINUOUS
 62
     2
100
AcDbText
 10
2816.25
 20
3468.75
 30
0.0
 40
60.0
  1
２
 41
0.945
  7
EXCADSTD
 72
     5
 11
2870.25
 21
3468.75
 31
0.0
100
AcDbText
  0
LINE
  5
C2
100
AcDbEntity
  8
枠・表
  6
CONTINUOUS
 62
     6
100
AcDbLine
 10
1875.0
 20
3540.0
 30
0.0
 11
2925.0
 21
3540.0
 31
0.0
  0
LINE
  5
C3
100
AcDbEntity
  8
枠・表
  6
CONTINUOUS
 62
     6
100
AcDbLine
 10
1875.0
 20
3457.5
 30
0.0
 11
1875.0
 21
3622.5
 31
0.0
  0
LINE
  5
C4
100
AcDbEntity
  8
枠・表
  6
CONTINUOUS
 62
     6
100
AcDbLine
 10
2325.0
 20
3457.5
 30
0.0
 11
2325.0
 21
3622.5
 31
0.0
  0
LINE
  5
C5
100
AcDbEntity
  8
枠・表
  6
CONTINUOUS
 62
     6
100
AcDbLine
 10
2775.0
 20
3457.5
 30
0.0
 11
2775.0
 21
3622.5
 31
0.0
  0
LINE
  5
C6
100
AcDbEntity
  8
枠・表
  6
CONTINUOUS
 62
     6
100
AcDbLine
 10
2925.0
 20
3457.5
 30
0.0
 11
2925.0
 21
3622.5
 31
0.0
  0
TEXT
  5
C7
100
AcDbEntity
  8
枠・表
  6
CONTINUOUS
 62
     2
100
AcDbText
 10
2816.25
 20
3551.25
 30
0.0
 40
60.0
  1
２
 41
0.945
  7
EXCADSTD
 72
     5
 11
2870.25
 21
3551.25
 31
0.0
100
AcDbText
  0
TEXT
  5
C8
100
AcDbEntity
  8
枠・表
  6
CONTINUOUS
 62
     2
100
AcDbText
 10
1890.0
 20
3633.75
 30
0.0
 40
60.0
  1
止水栓手配品番（ストレート形の場合）
 41
0.681333
  7
EXCADSTD
 72
     5
 11
2765.999997
 21
3633.75
 31
0.0
100
AcDbText
  0
TEXT
  5
C9
100
AcDbEntity
  8
枠・表
  6
CONTINUOUS
 62
     2
100
AcDbText
 10
1890.0
 20
3468.75
 30
0.0
 40
60.0
  1
ＮＬ２１１-３３０ＷＭＹ
 41
0.518222
  7
EXCADSTD
 72
     5
 11
2327.24999
 21
3468.75
 31
0.0
100
AcDbText
  0
TEXT
  5
CA
100
AcDbEntity
  8
枠・表
  6
CONTINUOUS
 62
     2
100
AcDbText
 10
2340.0
 20
3468.75
 30
0.0
 40
60.0
  1
ストレート形止水栓（共用形）
 41
0.435
  7
EXCADSTD
 72
     5
 11
2775.00005
 21
3468.75
 31
0.0
100
AcDbText
  0
TEXT
  5
CB
100
AcDbEntity
  8
枠・表
  6
CONTINUOUS
 62
     2
100
AcDbText
 10
2340.0
 20
3551.25
 30
0.0
 40
60.0
  1
フレキシブルパイプ
 41
0.648667
  7
EXCADSTD
 72
     5
 11
2756.999992
 21
3551.25
 31
0.0
100
AcDbText
  0
TEXT
  5
CC
100
AcDbEntity
  8
枠・表
  6
CONTINUOUS
 62
     2
100
AcDbText
 10
2341.5
 20
4046.25
 30
0.0
 40
60.0
  1
洗面化粧台・寒冷地
 41
0.651
  7
EXCADSTD
 72
     5
 11
2760.000016
 21
4046.25
 31
0.0
100
AcDbText
  0
LINE
  5
CD
100
AcDbEntity
  8
枠・表
  6
CONTINUOUS
 62
     6
100
AcDbLine
 10
1875.0
 20
4117.5
 30
0.0
 11
2775.0
 21
4117.5
 31
0.0
  0
TEXT
  5
CE
100
AcDbEntity
  8
枠・表
  6
CONTINUOUS
 62
     2
100
AcDbText
 10
2816.25
 20
4087.5
 30
0.0
 40
60.0
  1
１
 41
0.945
  7
EXCADSTD
 72
     5
 11
2870.25
 21
4087.5
 31
0.0
100
AcDbText
  0
LINE
  5
CF
100
AcDbEntity
  8
枠・表
  6
CONTINUOUS
 62
     6
100
AcDbLine
 10
1875.0
 20
3952.5
 30
0.0
 11
1875.0
 21
4282.5
 31
0.0
  0
LINE
  5
D0
100
AcDbEntity
  8
枠・表
  6
CONTINUOUS
 62
     6
100
AcDbLine
 10
2325.0
 20
3952.5
 30
0.0
 11
2325.0
 21
4282.5
 31
0.0
  0
LINE
  5
D1
100
AcDbEntity
  8
枠・表
  6
CONTINUOUS
 62
     6
100
AcDbLine
 10
2775.0
 20
3952.5
 30
0.0
 11
2775.0
 21
4282.5
 31
0.0
  0
LINE
  5
D2
100
AcDbEntity
  8
枠・表
  6
CONTINUOUS
 62
     6
100
AcDbLine
 10
2925.0
 20
3952.5
 30
0.0
 11
2925.0
 21
4282.5
 31
0.0
  0
LINE
  5
D3
100
AcDbEntity
  8
枠・表
  6
CONTINUOUS
 62
     6
100
AcDbLine
 10
1875.0
 20
4035.0
 30
0.0
 11
2925.0
 21
4035.0
 31
0.0
  0
TEXT
  5
D4
100
AcDbEntity
  8
枠・表
  6
CONTINUOUS
 62
     2
100
AcDbText
 10
1890.0
 20
3798.75
 30
0.0
 40
60.0
  1
ＮＬ３０Ｓ４０
 41
0.528
  7
EXCADSTD
 72
     5
 11
2154.000004
 21
3798.75
 31
0.0
100
AcDbText
  0
TEXT
  5
D5
100
AcDbEntity
  8
枠・表
  6
CONTINUOUS
 62
     2
100
AcDbText
 10
276.75
 20
210.0
 30
0.0
 40
60.0
  1
09
 41
0.5
  7
EXCADSTD
 72
     5
 11
324.75
 21
210.0
 31
0.0
100
AcDbText
  0
TEXT
  5
D6
100
AcDbEntity
  8
枠・表
  6
CONTINUOUS
 62
     2
100
AcDbText
 10
352.5
 20
210.0
 30
0.0
 40
60.0
  1
10
 41
0.5
  7
EXCADSTD
 72
     5
 11
400.5
 21
210.0
 31
0.0
100
AcDbText
  0
TEXT
  5
D7
100
AcDbEntity
  8
枠・表
  6
CONTINUOUS
 62
     2
100
AcDbText
 10
445.125
 20
210.0
 30
0.0
 40
60.0
  1
5
 41
0.5625
  7
EXCADSTD
 72
     5
 11
467.0625
 21
210.0
 31
0.0
100
AcDbText
  0
TEXT
  5
D8
100
AcDbEntity
  8
枠・表
  6
CONTINUOUS
 62
     2
100
AcDbText
 10
311.25
 20
330.0
 30
0.0
 40
75.0
  1
中村
 41
0.882
  7
EXCADSTD
 72
     5
 11
455.6145
 21
330.0
 31
0.0
100
AcDbText
  0
TEXT
  5
D9
100
AcDbEntity
  8
枠・表
  6
CONTINUOUS
 62
     2
100
AcDbText
 10
2340.0
 20
3798.75
 30
0.0
 40
60.0
  1
フレキシブルパイプ
 41
0.648667
  7
EXCADSTD
 72
     5
 11
2756.999992
 21
3798.75
 31
0.0
100
AcDbText
  0
TEXT
  5
DA
100
AcDbEntity
  8
枠・表
  6
CONTINUOUS
 62
     2
100
AcDbText
 10
2340.0
 20
3716.25
 30
0.0
 40
60.0
  1
アングル形止水栓（共用形）
 41
0.474923
  7
EXCADSTD
 72
     5
 11
2780.999998
 21
3716.25
 31
0.0
100
AcDbText
  0
TEXT
  5
DB
100
AcDbEntity
  8
枠・表
  6
CONTINUOUS
 62
     2
100
AcDbText
 10
1215.0
 20
442.5
 30
0.0
 40
75.0
  1
600㎜幅
 41
0.72072
  7
EXCADSTD
 72
     5
 11
1503.75
 21
442.5
 31
0.0
100
AcDbText
  0
TEXT
  5
DC
100
AcDbEntity
  8
枠・表
  6
CONTINUOUS
 62
     2
100
AcDbText
 10
1215.0
 20
367.5
 30
0.0
 40
75.0
  1
　洗面化粧ユニット
 41
0.924
  7
EXCADSTD
 72
     5
 11
1957.5
 21
367.5
 31
0.0
100
AcDbText
  0
TEXT
  5
DD
100
AcDbEntity
  8
枠・表
  6
CONTINUOUS
 62
     2
100
AcDbText
 10
1890.0
 20
4128.75
 30
0.0
 40
60.0
  1
ＬＵ６０１ＲＳＣ
 41
0.525
  7
EXCADSTD
 72
     5
 11
2190.000004
 21
4128.75
 31
0.0
100
AcDbText
  0
TEXT
  5
DE
100
AcDbEntity
  8
枠・表
  6
CONTINUOUS
 62
     2
100
AcDbText
 10
1890.0
 20
4046.25
 30
0.0
 40
60.0
  1
ＬＵ６０１ＲＳＣＹ
 41
0.522667
  7
EXCADSTD
 72
     5
 11
2226.000005
 21
4046.25
 31
0.0
100
AcDbText
  0
TEXT
  5
DF
100
AcDbEntity
  8
枠・表
  6
CONTINUOUS
 62
     2
100
AcDbText
 10
1905.0
 20
3381.0
 30
0.0
 40
52.5
  1
※止水栓・フレキシブルパイプは別途
 41
0.659294
  7
EXCADSTD
 72
     5
 11
2605.499997
 21
3381.0
 31
0.0
100
AcDbText
  0
TEXT
  5
E0
100
AcDbEntity
  8
枠・表
  6
CONTINUOUS
 62
     2
100
AcDbText
 10
1905.0
 20
3328.5
 30
0.0
 40
52.5
  1
※化粧鏡台
 41
0.6864
  7
EXCADSTD
 72
     5
 11
2119.499999
 21
3328.5
 31
0.0
100
AcDbText
  0
TEXT
  5
E1
100
AcDbEntity
  8
枠・表
  6
CONTINUOUS
 62
     2
100
AcDbText
 10
1905.0
 20
3276.0
 30
0.0
 40
52.5
  1
・電源：１００Ｖ，５０/６０Ｈｚ
 41
0.641295
  7
EXCADSTD
 72
     5
 11
2538.749997
 21
3276.0
 31
0.0
100
AcDbText
  0
TEXT
  5
E2
100
AcDbEntity
  8
枠・表
  6
CONTINUOUS
 62
     2
100
AcDbText
 10
1905.0
 20
3223.5
 30
0.0
 40
52.5
  1
・コンセント容量：１２００Ｗ
 41
0.661714
  7
EXCADSTD
 72
     5
 11
2483.999998
 21
3223.5
 31
0.0
100
AcDbText
  0
TEXT
  5
E3
100
AcDbEntity
  8
枠・表
  6
CONTINUOUS
 62
     2
100
AcDbText
 10
1905.0
 20
3171.0
 30
0.0
 40
52.5
  1
・電源コードの取出しは、左右及び上側
 41
0.658667
  7
EXCADSTD
 72
     5
 11
2645.999997
 21
3171.0
 31
0.0
100
AcDbText
  0
TEXT
  5
E4
100
AcDbEntity
  8
枠・表
  6
CONTINUOUS
 62
     2
100
AcDbText
 10
1905.0
 20
3118.5
 30
0.0
 40
52.5
  1
・品番末尾にＨの付く場合は、くもり止めヒーター付　
 41
0.65568
  7
EXCADSTD
 72
     5
 11
2929.499996
 21
3118.5
 31
0.0
100
AcDbText
  0
TEXT
  5
E5
100
AcDbEntity
  8
枠・表
  6
CONTINUOUS
 62
     2
100
AcDbText
 10
1890.0
 20
3963.75
 30
0.0
 40
60.0
  1
ＬＵＭ６０１Ｋ（Ｈ）
 41
0.5208
  7
EXCADSTD
 72
     5
 11
2262.000006
 21
3963.75
 31
0.0
100
AcDbText
  0
TEXT
  5
E6
100
AcDbEntity
  8
枠・表
  6
CONTINUOUS
 62
     2
100
AcDbText
 10
2175.0
 20
442.5
 30
0.0
 40
75.0
  1
ＬＵ６０１ＲＳＣ（Ｙ）
 41
0.519273
  7
EXCADSTD
 72
     5
 11
2685.0
 21
442.5
 31
0.0
100
AcDbText
  0
TEXT
  5
E7
100
AcDbEntity
  8
枠・表
  6
CONTINUOUS
 62
     2
100
AcDbText
 10
2175.0
 20
367.5
 30
0.0
 40
75.0
  1
ＬＵＭ６０１Ｋ（Ｈ）
 41
0.5208
  7
EXCADSTD
 72
     5
 11
2640.0
 21
367.5
 31
0.0
100
AcDbText
  0
TEXT
  5
E8
100
AcDbEntity
  8
枠・表
  6
CONTINUOUS
 62
     7
100
AcDbText
 10
2178.000003
 20
227.25
 30
0.0
 40
105.0
  1
ＬＵ２１６３４０
 41
0.804
  7
EXCADSTD
 72
     5
 11
2981.999997
 21
227.25
 31
0.0
100
AcDbText
  0
TEXT
  5
EA
100
AcDbEntity
  8
枠・表
  6
CONTINUOUS
 62
     2
100
AcDbText
 10
1155.0
 20
232.5
 30
0.0
 40
67.5
  1
ジャニス工業株式会社
 41
1.0
  7
EXCADTTF1
 72
     5
 11
2055.0
 21
232.5
 31
0.0
100
AcDbText
  0
LINE
  5
EB
100
AcDbEntity
  8
枠・表
  6
EXLTYPE2
 62
     1
100
AcDbLine
 10
270.0
 20
2265.0
 30
0.0
 11
-10.5
 21
2265.0
 31
0.0
  0
POLYLINE
  5
EC
100
AcDbEntity
  8
化粧台
  6
CONTINUOUS
 62
     3
100
AcDb2dPolyline
 66
     1
 10
0.0
 20
0.0
 30
0.0
 70
   128
  0
VERTEX
  5
ED
100
AcDbEntity
  8
化粧台
  6
CONTINUOUS
 62
     3
100
AcDbVertex
100
AcDb2dVertex
 10
1452.0
 20
3973.0
 30
0.0
  0
VERTEX
  5
EE
100
AcDbEntity
  8
化粧台
  6
CONTINUOUS
 62
     3
100
AcDbVertex
100
AcDb2dVertex
 10
1475.0
 20
3923.5
 30
0.0
  0
SEQEND
  5
EF
100
AcDbEntity
  8
化粧台
  6
CONTINUOUS
 62
     3
  0
LINE
  5
F0
100
AcDbEntity
  8
化粧台
  6
CONTINUOUS
 62
     3
100
AcDbLine
 10
1477.763749
 20
3935.350575
 30
0.0
 11
1452.0
 21
3973.0
 31
0.0
  0
LINE
  5
F1
100
AcDbEntity
  8
化粧台
  6
CONTINUOUS
 62
     3
100
AcDbLine
 10
1452.0
 20
3973.0
 30
0.0
 11
1464.16049
 21
3929.029868
 31
0.0
  0
POLYLINE
  5
F2
100
AcDbEntity
  8
化粧台
  6
CONTINUOUS
 62
     3
100
AcDb2dPolyline
 66
     1
 10
0.0
 20
0.0
 30
0.0
 70
   128
  0
VERTEX
  5
F3
100
AcDbEntity
  8
化粧台
  6
CONTINUOUS
 62
     3
100
AcDbVertex
100
AcDb2dVertex
 10
2465.0
 20
2935.0
 30
0.0
  0
VERTEX
  5
F4
100
AcDbEntity
  8
化粧台
  6
CONTINUOUS
 62
     3
100
AcDbVertex
100
AcDb2dVertex
 10
2419.0
 20
2955.0
 30
0.0
  0
SEQEND
  5
F5
100
AcDbEntity
  8
化粧台
  6
CONTINUOUS
 62
     3
  0
LINE
  5
F6
100
AcDbEntity
  8
化粧台
  6
CONTINUOUS
 62
     3
100
AcDbLine
 10
2420.741402
 20
2946.06465
 30
0.0
 11
2465.0
 21
2935.0
 31
0.0
  0
LINE
  5
F7
100
AcDbEntity
  8
化粧台
  6
CONTINUOUS
 62
     3
100
AcDbLine
 10
2465.0
 20
2935.0
 30
0.0
 11
2426.722293
 21
2959.8207
 31
0.0
  0
POLYLINE
  5
F8
100
AcDbEntity
  8
化粧台
  6
CONTINUOUS
 62
     3
100
AcDb2dPolyline
 66
     1
 10
0.0
 20
0.0
 30
0.0
 70
   128
  0
VERTEX
  5
F9
100
AcDbEntity
  8
化粧台
  6
CONTINUOUS
 62
     3
100
AcDbVertex
100
AcDb2dVertex
 10
1963.0
 20
948.5
 30
0.0
  0
VERTEX
  5
FA
100
AcDbEntity
  8
化粧台
  6
CONTINUOUS
 62
     3
100
AcDbVertex
100
AcDb2dVertex
 10
1944.0
 20
997.5
 30
0.0
  0
SEQEND
  5
FB
100
AcDbEntity
  8
化粧台
  6
CONTINUOUS
 62
     3
  0
LINE
  5
FC
100
AcDbEntity
  8
化粧台
  6
CONTINUOUS
 62
     3
100
AcDbLine
 10
1939.738537
 20
987.7448
 30
0.0
 11
1963.0
 21
948.5
 31
0.0
  0
LINE
  5
FD
100
AcDbEntity
  8
化粧台
  6
CONTINUOUS
 62
     3
100
AcDbLine
 10
1963.0
 20
948.5
 30
0.0
 11
1953.723956
 21
993.167718
 31
0.0
  0
LINE
  5
FE
100
AcDbEntity
  8
化粧台
  6
EXLTYPE4
 62
     6
100
AcDbLine
 10
333.0
 20
3973.0
 30
0.0
 11
1593.0
 21
3973.0
 31
0.0
  0
TEXT
  5
FF
100
AcDbEntity
  8
化粧台
  6
CONTINUOUS
 62
     2
100
AcDbText
 10
1494.000001
 20
3913.0
 30
0.0
 40
60.0
  1
W.L.
 41
0.4125
  7
EXCADSTD
 72
     5
 11
1584.7434
 21
3913.0
 31
0.0
100
AcDbText
  0
LINE
  5
100
100
AcDbEntity
  8
化粧台
  6
EXLTYPE4
 62
     6
100
AcDbLine
 10
1729.0
 20
948.5
 30
0.0
 11
320.0
 21
948.5
 31
0.0
  0
LINE
  5
101
100
AcDbEntity
  8
化粧台
  6
EXLTYPE4
 62
     6
100
AcDbLine
 10
2465.0
 20
948.5
 30
0.0
 11
1836.5
 21
948.5
 31
0.0
  0
TEXT
  5
102
100
AcDbEntity
  8
化粧台
  6
CONTINUOUS
 62
     2
100
AcDbText
 10
1836.5
 20
948.5
 30
0.0
 40
60.0
  1
F.L.
 41
0.4125
  7
EXCADSTD
 72
     5
 11
1927.2434
 21
948.5
 31
0.0
100
AcDbText
  0
TEXT
  5
103
100
AcDbEntity
  8
化粧台
  6
CONTINUOUS
 62
     2
100
AcDbText
 10
2465.0
 20
2971.000001
 30
0.0
 40
60.0
  1
W.L.
 50
90.0
 41
0.4125
  7
EXCADSTD
 72
     5
 11
2465.0
 21
3061.7434
 31
0.0
100
AcDbText
  0
LINE
  5
104
100
AcDbEntity
  8
化粧台
  6
EXLTYPE4
 62
     6
100
AcDbLine
 10
2465.0
 20
948.5
 30
0.0
 11
2465.0
 21
3069.0
 31
0.0
  0
LINE
  5
105
100
AcDbEntity
  8
化粧台
  6
CONTINUOUS
 62
     2
100
AcDbLine
 10
620.0
 20
3973.0
 30
0.0
 11
1220.0
 21
3973.0
 31
0.0
  0
LINE
  5
106
100
AcDbEntity
  8
化粧台
  6
CONTINUOUS
 62
     2
100
AcDbLine
 10
620.0
 20
3973.0
 30
0.0
 11
620.0
 21
3532.457949
 31
0.0
  0
ARC
  5
107
100
AcDbEntity
  8
化粧台
  6
CONTINUOUS
 62
     2
100
AcDbCircle
 10
920.0
 20
4778.0
 30
0.0
 40
1285.0
100
AcDbArc
 50
256.675329
 51
283.324671
  0
LINE
  5
108
100
AcDbEntity
  8
化粧台
  6
CONTINUOUS
 62
     2
100
AcDbLine
 10
1220.0
 20
3973.0
 30
0.0
 11
1220.0
 21
3532.457949
 31
0.0
  0
ARC
  5
109
100
AcDbEntity
  8
化粧台
  6
CONTINUOUS
 62
     2
100
AcDbCircle
 10
920.0
 20
4778.0
 30
0.0
 40
1240.0
100
AcDbArc
 50
258.510579
 51
281.489421
  0
ARC
  5
10A
100
AcDbEntity
  8
化粧台
  6
CONTINUOUS
 62
     2
100
AcDbCircle
 10
675.0
 20
3862.245131
 30
0.0
 40
10.0
100
AcDbArc
 50
78.696853
 51
180.0
  0
ARC
  5
10B
100
AcDbEntity
  8
化粧台
  6
CONTINUOUS
 62
     2
100
AcDbCircle
 10
675.0
 20
3572.647355
 30
0.0
 40
10.0
100
AcDbArc
 50
180.0
 51
258.510579
  0
ARC
  5
10C
100
AcDbEntity
  8
化粧台
  6
CONTINUOUS
 62
     2
100
AcDbCircle
 10
1165.0
 20
3572.647355
 30
0.0
 40
10.0
100
AcDbArc
 50
281.489421
 51
0.0
  0
ARC
  5
10D
100
AcDbEntity
  8
化粧台
  6
CONTINUOUS
 62
     2
100
AcDbCircle
 10
1165.0
 20
3862.245131
 30
0.0
 40
10.0
100
AcDbArc
 50
0.0
 51
101.303147
  0
ARC
  5
10E
100
AcDbEntity
  8
化粧台
  6
CONTINUOUS
 62
     2
100
AcDbCircle
 10
625.0
 20
3532.457949
 30
0.0
 40
5.0
100
AcDbArc
 50
180.0
 51
256.675329
  0
ARC
  5
10F
100
AcDbEntity
  8
化粧台
  6
CONTINUOUS
 62
     2
100
AcDbCircle
 10
1215.0
 20
3532.457949
 30
0.0
 40
5.0
100
AcDbArc
 50
283.324671
 51
0.0
  0
ARC
  5
110
100
AcDbEntity
  8
化粧台
  6
CONTINUOUS
 62
     2
100
AcDbCircle
 10
1215.0
 20
3955.0
 30
0.0
 40
5.0
100
AcDbArc
 50
270.0
 51
0.0
  0
ARC
  5
111
100
AcDbEntity
  8
化粧台
  6
CONTINUOUS
 62
     2
100
AcDbCircle
 10
625.0
 20
3955.0
 30
0.0
 40
5.0
100
AcDbArc
 50
180.0
 51
270.0
  0
LINE
  5
112
100
AcDbEntity
  8
化粧台
  6
CONTINUOUS
 62
     2
100
AcDbLine
 10
625.0
 20
3950.0
 30
0.0
 11
1215.0
 21
3950.0
 31
0.0
  0
LINE
  5
113
100
AcDbEntity
  8
化粧台
  6
CONTINUOUS
 62
     2
100
AcDbLine
 10
665.0
 20
3946.0
 30
0.0
 11
665.0
 21
3572.647355
 31
0.0
  0
LINE
  5
114
100
AcDbEntity
  8
化粧台
  6
CONTINUOUS
 62
     2
100
AcDbLine
 10
1175.0
 20
3946.0
 30
0.0
 11
1175.0
 21
3572.647355
 31
0.0
  0
LINE
  5
115
100
AcDbEntity
  8
化粧台
  6
CONTINUOUS
 62
     6
100
AcDbLine
 10
872.5
 20
3763.0
 30
0.0
 11
967.5
 21
3763.0
 31
0.0
  0
LINE
  5
116
100
AcDbEntity
  8
化粧台
  6
CONTINUOUS
 62
     6
100
AcDbLine
 10
723.0
 20
3973.0
 30
0.0
 11
725.0
 21
4005.5
 31
0.0
  0
LINE
  5
117
100
AcDbEntity
  8
化粧台
  6
CONTINUOUS
 62
     6
100
AcDbLine
 10
725.0
 20
4005.5
 30
0.0
 11
727.0
 21
3973.0
 31
0.0
  0
LINE
  5
118
100
AcDbEntity
  8
化粧台
  6
CONTINUOUS
 62
     6
100
AcDbLine
 10
725.0
 20
3963.0
 30
0.0
 11
725.0
 21
4015.5
 31
0.0
  0
LINE
  5
119
100
AcDbEntity
  8
化粧台
  6
CONTINUOUS
 62
     6
100
AcDbLine
 10
1113.0
 20
3973.0
 30
0.0
 11
1115.0
 21
4005.5
 31
0.0
  0
LINE
  5
11A
100
AcDbEntity
  8
化粧台
  6
CONTINUOUS
 62
     6
100
AcDbLine
 10
1115.0
 20
4005.5
 30
0.0
 11
1117.0
 21
3973.0
 31
0.0
  0
LINE
  5
11B
100
AcDbEntity
  8
化粧台
  6
CONTINUOUS
 62
     6
100
AcDbLine
 10
1115.0
 20
3963.0
 30
0.0
 11
1115.0
 21
4015.5
 31
0.0
  0
LINE
  5
11C
100
AcDbEntity
  8
化粧台
  6
CONTINUOUS
 62
     6
100
AcDbLine
 10
869.0
 20
3933.0
 30
0.0
 11
869.0
 21
3853.0
 31
0.0
  0
LINE
  5
11D
100
AcDbEntity
  8
化粧台
  6
CONTINUOUS
 62
     6
100
AcDbLine
 10
971.0
 20
3933.0
 30
0.0
 11
971.0
 21
3853.0
 31
0.0
  0
LINE
  5
11E
100
AcDbEntity
  8
化粧台
  6
EXLTYPE3
 62
     6
100
AcDbLine
 10
829.0
 20
3893.0
 30
0.0
 11
1011.0
 21
3893.0
 31
0.0
  0
CIRCLE
  5
11F
100
AcDbEntity
  8
化粧台
  6
CONTINUOUS
 62
     6
100
AcDbCircle
 10
920.0
 20
3763.0
 30
0.0
 40
4.0
  0
ARC
  5
120
100
AcDbEntity
  8
化粧台
  6
CONTINUOUS
 62
     6
100
AcDbCircle
 10
920.0
 20
3769.344289
 30
0.0
 40
7.5
100
AcDbArc
 50
302.230953
 51
237.769047
  0
CIRCLE
  5
121
100
AcDbEntity
  8
化粧台
  6
CONTINUOUS
 62
     6
100
AcDbCircle
 10
931.365501
 20
3775.906164
 30
0.0
 40
3.0
  0
CIRCLE
  5
122
100
AcDbEntity
  8
化粧台
  6
CONTINUOUS
 62
     6
100
AcDbCircle
 10
940.52877
 20
3781.19658
 30
0.0
 40
3.0
  0
CIRCLE
  5
123
100
AcDbEntity
  8
化粧台
  6
CONTINUOUS
 62
     6
100
AcDbCircle
 10
951.9
 20
3796.2
 30
0.0
 40
3.0
  0
CIRCLE
  5
124
100
AcDbEntity
  8
化粧台
  6
CONTINUOUS
 62
     6
100
AcDbCircle
 10
948.7
 20
3787.6
 30
0.0
 40
3.0
  0
CIRCLE
  5
125
100
AcDbEntity
  8
化粧台
  6
CONTINUOUS
 62
     6
100
AcDbCircle
 10
953.2
 20
3805.3
 30
0.0
 40
3.0
  0
CIRCLE
  5
126
100
AcDbEntity
  8
化粧台
  6
CONTINUOUS
 62
     6
100
AcDbCircle
 10
952.325514
 20
3814.346332
 30
0.0
 40
3.0
  0
CIRCLE
  5
127
100
AcDbEntity
  8
化粧台
  6
CONTINUOUS
 62
     6
100
AcDbCircle
 10
949.52132
 20
3822.47868
 30
0.0
 40
3.0
  0
CIRCLE
  5
128
100
AcDbEntity
  8
化粧台
  6
CONTINUOUS
 62
     6
100
AcDbCircle
 10
943.745399
 20
3829.81627
 30
0.0
 40
3.0
  0
LINE
  5
129
100
AcDbEntity
  8
化粧台
  6
CONTINUOUS
 62
     6
100
AcDbLine
 10
809.5
 20
3981.0
 30
0.0
 11
830.5
 21
3981.0
 31
0.0
  0
LINE
  5
12A
100
AcDbEntity
  8
化粧台
  6
CONTINUOUS
 62
     6
100
AcDbLine
 10
830.5
 20
3973.0
 30
0.0
 11
830.5
 21
3981.0
 31
0.0
  0
LINE
  5
12B
100
AcDbEntity
  8
化粧台
  6
CONTINUOUS
 62
     6
100
AcDbLine
 10
809.5
 20
3973.0
 30
0.0
 11
809.5
 21
3981.0
 31
0.0
  0
LINE
  5
12C
100
AcDbEntity
  8
化粧台
  6
CONTINUOUS
 62
     6
100
AcDbLine
 10
820.0
 20
3958.0
 30
0.0
 11
820.0
 21
3996.0
 31
0.0
  0
LINE
  5
12D
100
AcDbEntity
  8
化粧台
  6
CONTINUOUS
 62
     6
100
AcDbLine
 10
1009.5
 20
3981.0
 30
0.0
 11
1030.5
 21
3981.0
 31
0.0
  0
LINE
  5
12E
100
AcDbEntity
  8
化粧台
  6
CONTINUOUS
 62
     6
100
AcDbLine
 10
1030.5
 20
3973.0
 30
0.0
 11
1030.5
 21
3981.0
 31
0.0
  0
LINE
  5
12F
100
AcDbEntity
  8
化粧台
  6
CONTINUOUS
 62
     6
100
AcDbLine
 10
1009.5
 20
3973.0
 30
0.0
 11
1009.5
 21
3981.0
 31
0.0
  0
LINE
  5
130
100
AcDbEntity
  8
化粧台
  6
CONTINUOUS
 62
     6
100
AcDbLine
 10
1020.0
 20
3958.0
 30
0.0
 11
1020.0
 21
3996.0
 31
0.0
  0
LINE
  5
131
100
AcDbEntity
  8
化粧台
  6
CONTINUOUS
 62
     6
100
AcDbLine
 10
904.0
 20
3993.0
 30
0.0
 11
936.0
 21
3993.0
 31
0.0
  0
LINE
  5
132
100
AcDbEntity
  8
化粧台
  6
CONTINUOUS
 62
     6
100
AcDbLine
 10
904.0
 20
3993.0
 30
0.0
 11
904.0
 21
3973.0
 31
0.0
  0
LINE
  5
133
100
AcDbEntity
  8
化粧台
  6
CONTINUOUS
 62
     6
100
AcDbLine
 10
936.0
 20
3993.0
 30
0.0
 11
936.0
 21
3973.0
 31
0.0
  0
LINE
  5
134
100
AcDbEntity
  8
化粧台
  6
EXLTYPE3
 62
     6
100
AcDbLine
 10
920.0
 20
4008.0
 30
0.0
 11
920.0
 21
3478.0
 31
0.0
  0
LINE
  5
135
100
AcDbEntity
  8
化粧台
  6
CONTINUOUS
 62
     2
100
AcDbLine
 10
651.5
 20
1613.5
 30
0.0
 11
651.5
 21
1598.5
 31
0.0
  0
LINE
  5
136
100
AcDbEntity
  8
化粧台
  6
EXLTYPE2
 62
     6
100
AcDbLine
 10
651.5
 20
1598.5
 30
0.0
 11
651.5
 21
1043.5
 31
0.0
  0
LINE
  5
137
100
AcDbEntity
  8
化粧台
  6
CONTINUOUS
 62
     2
100
AcDbLine
 10
1188.5
 20
1613.5
 30
0.0
 11
1188.5
 21
1598.5
 31
0.0
  0
LINE
  5
138
100
AcDbEntity
  8
化粧台
  6
EXLTYPE2
 62
     6
100
AcDbLine
 10
1188.5
 20
1598.5
 30
0.0
 11
1188.5
 21
1043.5
 31
0.0
  0
LINE
  5
139
100
AcDbEntity
  8
化粧台
  6
CONTINUOUS
 62
     2
100
AcDbLine
 10
1200.0
 20
1598.5
 30
0.0
 11
1200.0
 21
1043.5
 31
0.0
  0
LINE
  5
13A
100
AcDbEntity
  8
化粧台
  6
CONTINUOUS
 62
     2
100
AcDbLine
 10
921.0
 20
1598.5
 30
0.0
 11
921.0
 21
1043.5
 31
0.0
  0
LINE
  5
13B
100
AcDbEntity
  8
化粧台
  6
CONTINUOUS
 62
     2
100
AcDbLine
 10
919.0
 20
1598.5
 30
0.0
 11
919.0
 21
1043.5
 31
0.0
  0
LINE
  5
13C
100
AcDbEntity
  8
化粧台
  6
CONTINUOUS
 62
     2
100
AcDbLine
 10
640.0
 20
1598.5
 30
0.0
 11
640.0
 21
1043.5
 31
0.0
  0
LINE
  5
13D
100
AcDbEntity
  8
化粧台
  6
CONTINUOUS
 62
     2
100
AcDbLine
 10
921.0
 20
1598.5
 30
0.0
 11
1200.0
 21
1598.5
 31
0.0
  0
LINE
  5
13E
100
AcDbEntity
  8
化粧台
  6
CONTINUOUS
 62
     2
100
AcDbLine
 10
919.0
 20
1598.5
 30
0.0
 11
640.0
 21
1598.5
 31
0.0
  0
LINE
  5
13F
100
AcDbEntity
  8
化粧台
  6
EXLTYPE2
 62
     6
100
AcDbLine
 10
920.0
 20
1511.0
 30
0.0
 11
920.0
 21
1528.0
 31
0.0
  0
LINE
  5
140
100
AcDbEntity
  8
化粧台
  6
EXLTYPE2
 62
     6
100
AcDbLine
 10
885.0
 20
1528.0
 30
0.0
 11
955.0
 21
1528.0
 31
0.0
  0
ARC
  5
141
100
AcDbEntity
  8
化粧台
  6
EXLTYPE2
 62
     6
100
AcDbCircle
 10
944.251838
 20
1512.385595
 30
0.0
 40
4.385595
100
AcDbArc
 50
198.417706
 51
270.0
  0
LINE
  5
142
100
AcDbEntity
  8
化粧台
  6
EXLTYPE2
 62
     6
100
AcDbLine
 10
940.09088
 20
1511.0
 30
0.0
 11
940.09088
 21
1528.0
 31
0.0
  0
ARC
  5
143
100
AcDbEntity
  8
化粧台
  6
EXLTYPE2
 62
     6
100
AcDbCircle
 10
930.04544
 20
1526.318478
 30
0.0
 40
18.318478
100
AcDbArc
 50
236.74423
 51
303.25577
  0
ARC
  5
144
100
AcDbEntity
  8
化粧台
  6
EXLTYPE2
 62
     6
100
AcDbCircle
 10
909.95456
 20
1526.318478
 30
0.0
 40
18.318478
100
AcDbArc
 50
236.74423
 51
303.25577
  0
LINE
  5
145
100
AcDbEntity
  8
化粧台
  6
EXLTYPE2
 62
     6
100
AcDbLine
 10
899.90912
 20
1511.0
 30
0.0
 11
899.90912
 21
1528.0
 31
0.0
  0
ARC
  5
146
100
AcDbEntity
  8
化粧台
  6
EXLTYPE2
 62
     6
100
AcDbCircle
 10
895.748162
 20
1512.385595
 30
0.0
 40
4.385595
100
AcDbArc
 50
270.0
 51
341.582294
  0
LINE
  5
147
100
AcDbEntity
  8
化粧台
  6
EXLTYPE2
 62
     6
100
AcDbLine
 10
955.0
 20
1535.5
 30
0.0
 11
950.813953
 21
1538.5
 31
0.0
  0
LINE
  5
148
100
AcDbEntity
  8
化粧台
  6
EXLTYPE2
 62
     6
100
AcDbLine
 10
885.0
 20
1535.5
 30
0.0
 11
889.186047
 21
1538.5
 31
0.0
  0
LINE
  5
149
100
AcDbEntity
  8
化粧台
  6
EXLTYPE2
 62
     6
100
AcDbLine
 10
955.0
 20
1535.5
 30
0.0
 11
955.0
 21
1528.0
 31
0.0
  0
LINE
  5
14A
100
AcDbEntity
  8
化粧台
  6
EXLTYPE2
 62
     6
100
AcDbLine
 10
885.0
 20
1535.5
 30
0.0
 11
885.0
 21
1528.0
 31
0.0
  0
LINE
  5
14B
100
AcDbEntity
  8
化粧台
  6
EXLTYPE2
 62
     6
100
AcDbLine
 10
948.412795
 20
1511.0
 30
0.0
 11
946.25
 21
1508.0
 31
0.0
  0
LINE
  5
14C
100
AcDbEntity
  8
化粧台
  6
EXLTYPE2
 62
     6
100
AcDbLine
 10
948.412795
 20
1528.0
 30
0.0
 11
948.412795
 21
1511.0
 31
0.0
  0
LINE
  5
14D
100
AcDbEntity
  8
化粧台
  6
EXLTYPE2
 62
     6
100
AcDbLine
 10
946.25
 20
1508.0
 30
0.0
 11
946.25
 21
1483.5
 31
0.0
  0
LINE
  5
14E
100
AcDbEntity
  8
化粧台
  6
EXLTYPE2
 62
     6
100
AcDbLine
 10
935.75
 20
1474.5
 30
0.0
 11
935.75
 21
1428.5
 31
0.0
  0
LINE
  5
14F
100
AcDbEntity
  8
化粧台
  6
EXLTYPE2
 62
     6
100
AcDbLine
 10
891.587205
 20
1511.0
 30
0.0
 11
893.75
 21
1508.0
 31
0.0
  0
LINE
  5
150
100
AcDbEntity
  8
化粧台
  6
EXLTYPE2
 62
     6
100
AcDbLine
 10
891.587205
 20
1528.0
 30
0.0
 11
891.587205
 21
1511.0
 31
0.0
  0
LINE
  5
151
100
AcDbEntity
  8
化粧台
  6
EXLTYPE2
 62
     6
100
AcDbLine
 10
904.25
 20
1474.5
 30
0.0
 11
904.25
 21
1428.5
 31
0.0
  0
LINE
  5
152
100
AcDbEntity
  8
化粧台
  6
EXLTYPE2
 62
     6
100
AcDbLine
 10
893.75
 20
1508.0
 30
0.0
 11
893.75
 21
1483.5
 31
0.0
  0
LINE
  5
153
100
AcDbEntity
  8
化粧台
  6
EXLTYPE2
 62
     6
100
AcDbLine
 10
893.75
 20
1508.0
 30
0.0
 11
946.25
 21
1508.0
 31
0.0
  0
LINE
  5
154
100
AcDbEntity
  8
化粧台
  6
EXLTYPE2
 62
     6
100
AcDbLine
 10
904.25
 20
1428.5
 30
0.0
 11
935.75
 21
1428.5
 31
0.0
  0
LINE
  5
155
100
AcDbEntity
  8
化粧台
  6
EXLTYPE2
 62
     2
100
AcDbLine
 10
1156.021588
 20
1562.353759
 30
0.0
 11
1161.923077
 21
1613.5
 31
0.0
  0
ARC
  5
156
100
AcDbEntity
  8
化粧台
  6
EXLTYPE2
 62
     2
100
AcDbCircle
 10
1146.087498
 20
1563.5
 30
0.0
 40
10.0
100
AcDbArc
 50
270.0
 51
353.418055
  0
LINE
  5
157
100
AcDbEntity
  8
化粧台
  6
EXLTYPE2
 62
     2
100
AcDbLine
 10
1093.299263
 20
1553.5
 30
0.0
 11
1146.087498
 21
1553.5
 31
0.0
  0
ARC
  5
158
100
AcDbEntity
  8
化粧台
  6
EXLTYPE2
 62
     2
100
AcDbCircle
 10
1093.299263
 20
1563.5
 30
0.0
 40
10.0
100
AcDbArc
 50
190.619655
 51
270.0
  0
LINE
  5
159
100
AcDbEntity
  8
化粧台
  6
EXLTYPE2
 62
     2
100
AcDbLine
 10
1078.034661
 20
1590.648473
 30
0.0
 11
1083.470541
 21
1561.657115
 31
0.0
  0
ARC
  5
15A
100
AcDbEntity
  8
化粧台
  6
EXLTYPE2
 62
     2
100
AcDbCircle
 10
1068.205939
 20
1588.805588
 30
0.0
 40
10.0
100
AcDbArc
 50
10.619655
 51
112.268127
  0
ARC
  5
15B
100
AcDbEntity
  8
化粧台
  6
EXLTYPE2
 62
     2
100
AcDbCircle
 10
985.217769
 20
1791.472713
 30
0.0
 40
209.0
100
AcDbArc
 50
280.0
 51
292.268127
  0
LINE
  5
15C
100
AcDbEntity
  8
化粧台
  6
EXLTYPE2
 62
     2
100
AcDbLine
 10
967.271902
 20
1576.08421
 30
0.0
 11
1021.510238
 21
1585.647893
 31
0.0
  0
ARC
  5
15D
100
AcDbEntity
  8
化粧台
  6
EXLTYPE2
 62
     2
100
AcDbCircle
 10
969.531699
 20
1567.372534
 30
0.0
 40
9.0
100
AcDbArc
 50
100.832119
 51
172.213817
  0
LINE
  5
15E
100
AcDbEntity
  8
化粧台
  6
EXLTYPE2
 62
     2
100
AcDbLine
 10
960.614675
 20
1568.591823
 30
0.0
 11
957.091063
 21
1542.822617
 31
0.0
  0
ARC
  5
15F
100
AcDbEntity
  8
化粧台
  6
EXLTYPE2
 62
     2
100
AcDbCircle
 10
952.13716
 20
1543.5
 30
0.0
 40
5.0
100
AcDbArc
 50
270.0
 51
352.213817
  0
LINE
  5
160
100
AcDbEntity
  8
化粧台
  6
EXLTYPE2
 62
     2
100
AcDbLine
 10
952.13716
 20
1538.5
 30
0.0
 11
887.86284
 21
1538.5
 31
0.0
  0
ARC
  5
161
100
AcDbEntity
  8
化粧台
  6
EXLTYPE2
 62
     2
100
AcDbCircle
 10
887.86284
 20
1543.5
 30
0.0
 40
5.0
100
AcDbArc
 50
187.786183
 51
270.0
  0
LINE
  5
162
100
AcDbEntity
  8
化粧台
  6
EXLTYPE2
 62
     2
100
AcDbLine
 10
879.385325
 20
1568.591823
 30
0.0
 11
882.908937
 21
1542.822617
 31
0.0
  0
ARC
  5
163
100
AcDbEntity
  8
化粧台
  6
EXLTYPE2
 62
     2
100
AcDbCircle
 10
870.468301
 20
1567.372534
 30
0.0
 40
9.0
100
AcDbArc
 50
7.786183
 51
79.167881
  0
LINE
  5
164
100
AcDbEntity
  8
化粧台
  6
EXLTYPE2
 62
     2
100
AcDbLine
 10
872.728098
 20
1576.08421
 30
0.0
 11
818.489762
 21
1585.647893
 31
0.0
  0
ARC
  5
165
100
AcDbEntity
  8
化粧台
  6
EXLTYPE2
 62
     2
100
AcDbCircle
 10
854.782231
 20
1791.472713
 30
0.0
 40
209.0
100
AcDbArc
 50
247.731873
 51
260.0
  0
ARC
  5
166
100
AcDbEntity
  8
化粧台
  6
EXLTYPE2
 62
     2
100
AcDbCircle
 10
771.794061
 20
1588.805588
 30
0.0
 40
10.0
100
AcDbArc
 50
67.731873
 51
169.380345
  0
LINE
  5
167
100
AcDbEntity
  8
化粧台
  6
EXLTYPE2
 62
     2
100
AcDbLine
 10
761.965339
 20
1590.648473
 30
0.0
 11
756.529459
 21
1561.657115
 31
0.0
  0
ARC
  5
168
100
AcDbEntity
  8
化粧台
  6
EXLTYPE2
 62
     2
100
AcDbCircle
 10
746.700737
 20
1563.5
 30
0.0
 40
10.0
100
AcDbArc
 50
270.0
 51
349.380345
  0
LINE
  5
169
100
AcDbEntity
  8
化粧台
  6
EXLTYPE2
 62
     2
100
AcDbLine
 10
746.700737
 20
1553.5
 30
0.0
 11
693.912502
 21
1553.5
 31
0.0
  0
ARC
  5
16A
100
AcDbEntity
  8
化粧台
  6
EXLTYPE2
 62
     2
100
AcDbCircle
 10
693.912502
 20
1563.5
 30
0.0
 40
10.0
100
AcDbArc
 50
186.581945
 51
270.0
  0
LINE
  5
16B
100
AcDbEntity
  8
化粧台
  6
EXLTYPE2
 62
     2
100
AcDbLine
 10
683.978412
 20
1562.353759
 30
0.0
 11
678.076923
 21
1613.5
 31
0.0
  0
LINE
  5
16C
100
AcDbEntity
  8
化粧台
  6
CONTINUOUS
 62
     2
100
AcDbLine
 10
1203.5
 20
1613.5
 30
0.0
 11
1203.5
 21
948.5
 31
0.0
  0
LINE
  5
16D
100
AcDbEntity
  8
化粧台
  6
CONTINUOUS
 62
     2
100
AcDbLine
 10
636.5
 20
1613.5
 30
0.0
 11
636.5
 21
948.5
 31
0.0
  0
LINE
  5
16E
100
AcDbEntity
  8
化粧台
  6
CONTINUOUS
 62
     2
100
AcDbLine
 10
1212.118616
 20
1613.5
 30
0.0
 11
627.881384
 21
1613.5
 31
0.0
  0
ARC
  5
16F
100
AcDbEntity
  8
化粧台
  6
CONTINUOUS
 62
     2
100
AcDbCircle
 10
1214.759885
 20
1728.5
 30
0.0
 40
5.0
100
AcDbArc
 50
358.624505
 51
91.943626
  0
ARC
  5
170
100
AcDbEntity
  8
化粧台
  6
CONTINUOUS
 62
     2
100
AcDbCircle
 10
920.0
 20
10414.338963
 30
0.0
 40
8685.838963
100
AcDbArc
 50
268.056374
 51
271.943626
  0
LINE
  5
171
100
AcDbEntity
  8
化粧台
  6
CONTINUOUS
 62
     2
100
AcDbLine
 10
1219.998559
 20
1738.379977
 30
0.0
 11
1217.117176
 21
1618.379977
 31
0.0
  0
ARC
  5
172
100
AcDbEntity
  8
化粧台
  6
CONTINUOUS
 62
     2
100
AcDbCircle
 10
1212.118616
 20
1618.5
 30
0.0
 40
5.0
100
AcDbArc
 50
270.0
 51
358.624505
  0
ARC
  5
173
100
AcDbEntity
  8
化粧台
  6
CONTINUOUS
 62
     2
100
AcDbCircle
 10
1215.0
 20
1738.5
 30
0.0
 40
5.0
100
AcDbArc
 50
358.624505
 51
90.0
  0
ARC
  5
174
100
AcDbEntity
  8
化粧台
  6
CONTINUOUS
 62
     2
100
AcDbCircle
 10
625.240115
 20
1728.5
 30
0.0
 40
5.0
100
AcDbArc
 50
88.056374
 51
181.375495
  0
LINE
  5
175
100
AcDbEntity
  8
化粧台
  6
CONTINUOUS
 62
     2
100
AcDbLine
 10
620.001441
 20
1738.379977
 30
0.0
 11
622.882824
 21
1618.379977
 31
0.0
  0
ARC
  5
176
100
AcDbEntity
  8
化粧台
  6
CONTINUOUS
 62
     2
100
AcDbCircle
 10
627.881384
 20
1618.5
 30
0.0
 40
5.0
100
AcDbArc
 50
181.375495
 51
270.0
  0
ARC
  5
177
100
AcDbEntity
  8
化粧台
  6
CONTINUOUS
 62
     2
100
AcDbCircle
 10
625.0
 20
1738.5
 30
0.0
 40
5.0
100
AcDbArc
 50
90.0
 51
181.375495
  0
LINE
  5
178
100
AcDbEntity
  8
化粧台
  6
EXLTYPE2
 62
     6
100
AcDbLine
 10
1188.5
 20
1568.5
 30
0.0
 11
651.5
 21
1568.5
 31
0.0
  0
LINE
  5
179
100
AcDbEntity
  8
化粧台
  6
CONTINUOUS
 62
     6
100
AcDbLine
 10
1120.5
 20
1503.5
 30
0.0
 11
1109.5
 21
1503.5
 31
0.0
  0
LINE
  5
17A
100
AcDbEntity
  8
化粧台
  6
CONTINUOUS
 62
     6
100
AcDbLine
 10
730.5
 20
1503.5
 30
0.0
 11
719.5
 21
1503.5
 31
0.0
  0
LINE
  5
17B
100
AcDbEntity
  8
化粧台
  6
CONTINUOUS
 62
     6
100
AcDbLine
 10
725.0
 20
1509.0
 30
0.0
 11
725.0
 21
1498.0
 31
0.0
  0
CIRCLE
  5
17C
100
AcDbEntity
  8
化粧台
  6
CONTINUOUS
 62
     6
100
AcDbCircle
 10
725.0
 20
1503.5
 30
0.0
 40
2.5
  0
LINE
  5
17D
100
AcDbEntity
  8
化粧台
  6
CONTINUOUS
 62
     6
100
AcDbLine
 10
1115.0
 20
1509.0
 30
0.0
 11
1115.0
 21
1498.0
 31
0.0
  0
CIRCLE
  5
17E
100
AcDbEntity
  8
化粧台
  6
CONTINUOUS
 62
     6
100
AcDbCircle
 10
1115.0
 20
1503.5
 30
0.0
 40
2.5
  0
LINE
  5
17F
100
AcDbEntity
  8
化粧台
  6
CONTINUOUS
 62
     2
100
AcDbLine
 10
1188.5
 20
1043.5
 30
0.0
 11
1188.5
 21
948.5
 31
0.0
  0
LINE
  5
180
100
AcDbEntity
  8
化粧台
  6
CONTINUOUS
 62
     2
100
AcDbLine
 10
651.5
 20
1043.5
 30
0.0
 11
651.5
 21
948.5
 31
0.0
  0
LINE
  5
181
100
AcDbEntity
  8
化粧台
  6
CONTINUOUS
 62
     2
100
AcDbLine
 10
919.0
 20
1043.5
 30
0.0
 11
640.0
 21
1043.5
 31
0.0
  0
LINE
  5
182
100
AcDbEntity
  8
化粧台
  6
CONTINUOUS
 62
     2
100
AcDbLine
 10
921.0
 20
1043.5
 30
0.0
 11
1200.0
 21
1043.5
 31
0.0
  0
LINE
  5
183
100
AcDbEntity
  8
化粧台
  6
EXLTYPE2
 62
     6
100
AcDbLine
 10
1188.5
 20
1056.25
 30
0.0
 11
651.5
 21
1056.25
 31
0.0
  0
LINE
  5
184
100
AcDbEntity
  8
化粧台
  6
CONTINUOUS
 62
     2
100
AcDbLine
 10
1188.5
 20
1038.75
 30
0.0
 11
651.5
 21
1038.75
 31
0.0
  0
LINE
  5
185
100
AcDbEntity
  8
化粧台
  6
CONTINUOUS
 62
     2
100
AcDbLine
 10
1188.5
 20
952.5
 30
0.0
 11
651.5
 21
952.5
 31
0.0
  0
LINE
  5
186
100
AcDbEntity
  8
化粧台
  6
CONTINUOUS
 62
     2
100
AcDbLine
 10
1188.5
 20
952.0
 30
0.0
 11
1203.5
 21
952.0
 31
0.0
  0
LINE
  5
187
100
AcDbEntity
  8
化粧台
  6
CONTINUOUS
 62
     2
100
AcDbLine
 10
1203.5
 20
948.5
 30
0.0
 11
1188.5
 21
948.5
 31
0.0
  0
LINE
  5
188
100
AcDbEntity
  8
化粧台
  6
CONTINUOUS
 62
     2
100
AcDbLine
 10
651.5
 20
952.0
 30
0.0
 11
636.5
 21
952.0
 31
0.0
  0
LINE
  5
189
100
AcDbEntity
  8
化粧台
  6
CONTINUOUS
 62
     2
100
AcDbLine
 10
636.5
 20
948.5
 30
0.0
 11
651.5
 21
948.5
 31
0.0
  0
LINE
  5
18A
100
AcDbEntity
  8
化粧台
  6
EXLTYPE2
 62
     6
100
AcDbLine
 10
946.25
 20
1483.5
 30
0.0
 11
935.75
 21
1474.5
 31
0.0
  0
LINE
  5
18B
100
AcDbEntity
  8
化粧台
  6
EXLTYPE2
 62
     6
100
AcDbLine
 10
893.75
 20
1483.5
 30
0.0
 11
904.25
 21
1474.5
 31
0.0
  0
LINE
  5
18C
100
AcDbEntity
  8
化粧台
  6
EXLTYPE2
 62
     6
100
AcDbLine
 10
893.75
 20
1483.5
 30
0.0
 11
946.25
 21
1483.5
 31
0.0
  0
LINE
  5
18D
100
AcDbEntity
  8
化粧台
  6
EXLTYPE2
 62
     6
100
AcDbLine
 10
904.25
 20
1474.5
 30
0.0
 11
935.75
 21
1474.5
 31
0.0
  0
LINE
  5
18E
100
AcDbEntity
  8
化粧台
  6
EXLTYPE2
 62
     6
100
AcDbLine
 10
938.25
 20
1446.7
 30
0.0
 11
938.25
 21
1406.611864
 31
0.0
  0
LINE
  5
18F
100
AcDbEntity
  8
化粧台
  6
EXLTYPE2
 62
     6
100
AcDbLine
 10
901.75
 20
1446.7
 30
0.0
 11
901.75
 21
1406.611864
 31
0.0
  0
LINE
  5
190
100
AcDbEntity
  8
化粧台
  6
EXLTYPE2
 62
     6
100
AcDbLine
 10
938.25
 20
1406.611864
 30
0.0
 11
937.0
 21
1405.611864
 31
0.0
  0
LINE
  5
191
100
AcDbEntity
  8
化粧台
  6
EXLTYPE2
 62
     6
100
AcDbLine
 10
903.0
 20
1405.611864
 30
0.0
 11
901.75
 21
1406.611864
 31
0.0
  0
LINE
  5
192
100
AcDbEntity
  8
化粧台
  6
EXLTYPE2
 62
     6
100
AcDbLine
 10
937.0
 20
1405.611864
 30
0.0
 11
903.0
 21
1405.611864
 31
0.0
  0
LINE
  5
193
100
AcDbEntity
  8
化粧台
  6
EXLTYPE2
 62
     6
100
AcDbLine
 10
944.25
 20
1446.7
 30
0.0
 11
895.75
 21
1446.7
 31
0.0
  0
LINE
  5
194
100
AcDbEntity
  8
化粧台
  6
EXLTYPE2
 62
     6
100
AcDbLine
 10
944.25
 20
1461.5
 30
0.0
 11
944.25
 21
1446.7
 31
0.0
  0
LINE
  5
195
100
AcDbEntity
  8
化粧台
  6
EXLTYPE2
 62
     6
100
AcDbLine
 10
941.25
 20
1464.5
 30
0.0
 11
898.75
 21
1464.5
 31
0.0
  0
LINE
  5
196
100
AcDbEntity
  8
化粧台
  6
EXLTYPE2
 62
     6
100
AcDbLine
 10
895.75
 20
1461.5
 30
0.0
 11
895.75
 21
1446.7
 31
0.0
  0
ARC
  5
197
100
AcDbEntity
  8
化粧台
  6
EXLTYPE2
 62
     6
100
AcDbCircle
 10
941.25
 20
1461.5
 30
0.0
 40
3.0
100
AcDbArc
 50
0.0
 51
90.0
  0
ARC
  5
198
100
AcDbEntity
  8
化粧台
  6
EXLTYPE2
 62
     6
100
AcDbCircle
 10
898.75
 20
1461.5
 30
0.0
 40
3.0
100
AcDbArc
 50
90.0
 51
180.0
  0
LINE
  5
199
100
AcDbEntity
  8
化粧台
  6
EXLTYPE2
 62
     6
100
AcDbLine
 10
903.0
 20
1405.611864
 30
0.0
 11
903.0
 21
1371.986862
 31
0.0
  0
LINE
  5
19A
100
AcDbEntity
  8
化粧台
  6
EXLTYPE2
 62
     6
100
AcDbLine
 10
856.223169
 20
1408.811312
 30
0.0
 11
856.223169
 21
1394.011312
 31
0.0
  0
ARC
  5
19B
100
AcDbEntity
  8
化粧台
  6
EXLTYPE2
 62
     6
100
AcDbCircle
 10
859.223169
 20
1408.811312
 30
0.0
 40
3.0
100
AcDbArc
 50
90.0
 51
180.0
  0
LINE
  5
19C
100
AcDbEntity
  8
化粧台
  6
EXLTYPE2
 62
     6
100
AcDbLine
 10
898.723169
 20
1394.011312
 30
0.0
 11
898.723169
 21
1371.986862
 31
0.0
  0
LINE
  5
19D
100
AcDbEntity
  8
化粧台
  6
EXLTYPE2
 62
     6
100
AcDbLine
 10
862.223169
 20
1394.011312
 30
0.0
 11
862.223169
 21
1365.911862
 31
0.0
  0
LINE
  5
19E
100
AcDbEntity
  8
化粧台
  6
EXLTYPE2
 62
     6
100
AcDbLine
 10
937.0
 20
1405.611864
 30
0.0
 11
937.0
 21
1373.918262
 31
0.0
  0
ARC
  5
19F
100
AcDbEntity
  8
化粧台
  6
EXLTYPE2
 62
     6
100
AcDbCircle
 10
900.236585
 20
1442.148448
 30
0.0
 40
3.763415
100
AcDbArc
 50
66.288047
 51
180.0
  0
LINE
  5
1A0
100
AcDbEntity
  8
化粧台
  6
EXLTYPE2
 62
     6
100
AcDbLine
 10
896.473169
 20
1442.148448
 30
0.0
 11
896.473169
 21
1411.811312
 31
0.0
  0
LINE
  5
1A1
100
AcDbEntity
  8
化粧台
  6
EXLTYPE2
 62
     6
100
AcDbLine
 10
864.473169
 20
1442.148448
 30
0.0
 11
864.473169
 21
1411.811312
 31
0.0
  0
LINE
  5
1A2
100
AcDbEntity
  8
化粧台
  6
EXLTYPE2
 62
     6
100
AcDbLine
 10
901.75
 20
1411.811312
 30
0.0
 11
859.223169
 21
1411.811312
 31
0.0
  0
LINE
  5
1A3
100
AcDbEntity
  8
化粧台
  6
EXLTYPE2
 62
     6
100
AcDbLine
 10
903.0
 20
1394.011312
 30
0.0
 11
856.223169
 21
1394.011312
 31
0.0
  0
ARC
  5
1A4
100
AcDbEntity
  8
化粧台
  6
EXLTYPE2
 62
     6
100
AcDbCircle
 10
900.236585
 20
1442.148448
 30
0.0
 40
35.763415
100
AcDbArc
 50
89.947251
 51
180.0
  0
LINE
  5
1A5
100
AcDbEntity
  8
化粧台
  6
EXLTYPE2
 62
     6
100
AcDbLine
 10
953.500004
 20
988.500002
 30
0.0
 11
953.500004
 21
969.0
 31
0.0
  0
ARC
  5
1A6
100
AcDbEntity
  8
化粧台
  6
EXLTYPE2
 62
     6
100
AcDbCircle
 10
953.000004
 20
969.0
 30
0.0
 40
0.5
100
AcDbArc
 50
270.0
 51
0.0
  0
LINE
  5
1A7
100
AcDbEntity
  8
化粧台
  6
EXLTYPE2
 62
     6
100
AcDbLine
 10
886.499996
 20
988.500002
 30
0.0
 11
886.499996
 21
969.0
 31
0.0
  0
ARC
  5
1A8
100
AcDbEntity
  8
化粧台
  6
EXLTYPE2
 62
     6
100
AcDbCircle
 10
886.999996
 20
969.0
 30
0.0
 40
0.5
100
AcDbArc
 50
180.0
 51
270.0
  0
LINE
  5
1A9
100
AcDbEntity
  8
化粧台
  6
EXLTYPE2
 62
     6
100
AcDbLine
 10
953.000004
 20
968.5
 30
0.0
 11
886.999996
 21
968.5
 31
0.0
  0
LINE
  5
1AA
100
AcDbEntity
  8
化粧台
  6
EXLTYPE2
 62
     6
100
AcDbLine
 10
947.0
 20
1003.500004
 30
0.0
 11
947.0
 21
992.500002
 31
0.0
  0
ARC
  5
1AB
100
AcDbEntity
  8
化粧台
  6
EXLTYPE2
 62
     6
100
AcDbCircle
 10
944.0
 20
1003.500004
 30
0.0
 40
3.0
100
AcDbArc
 50
359.999995
 51
89.999997
  0
ARC
  5
1AC
100
AcDbEntity
  8
化粧台
  6
EXLTYPE2
 62
     6
100
AcDbCircle
 10
948.0
 20
992.500002
 30
0.0
 40
1.0
100
AcDbArc
 50
180.0
 51
270.0
  0
ARC
  5
1AD
100
AcDbEntity
  8
化粧台
  6
EXLTYPE2
 62
     6
100
AcDbCircle
 10
950.500004
 20
988.500002
 30
0.0
 40
3.0
100
AcDbArc
 50
359.999995
 51
89.999997
  0
LINE
  5
1AE
100
AcDbEntity
  8
化粧台
  6
EXLTYPE2
 62
     6
100
AcDbLine
 10
942.999996
 20
1024.346519
 30
0.0
 11
942.999996
 21
1008.54652
 31
0.0
  0
ARC
  5
1AF
100
AcDbEntity
  8
化粧台
  6
EXLTYPE2
 62
     6
100
AcDbCircle
 10
940.999996
 20
1024.346519
 30
0.0
 40
2.0
100
AcDbArc
 50
0.000009
 51
90.000004
  0
LINE
  5
1B0
100
AcDbEntity
  8
化粧台
  6
EXLTYPE2
 62
     6
100
AcDbLine
 10
893.0
 20
1003.500004
 30
0.0
 11
893.0
 21
992.500002
 31
0.0
  0
ARC
  5
1B1
100
AcDbEntity
  8
化粧台
  6
EXLTYPE2
 62
     6
100
AcDbCircle
 10
896.0
 20
1003.500004
 30
0.0
 40
3.0
100
AcDbArc
 50
90.000003
 51
180.000005
  0
ARC
  5
1B2
100
AcDbEntity
  8
化粧台
  6
EXLTYPE2
 62
     6
100
AcDbCircle
 10
892.0
 20
992.500002
 30
0.0
 40
1.0
100
AcDbArc
 50
270.0
 51
0.0
  0
ARC
  5
1B3
100
AcDbEntity
  8
化粧台
  6
EXLTYPE2
 62
     6
100
AcDbCircle
 10
889.499996
 20
988.500002
 30
0.0
 40
3.0
100
AcDbArc
 50
90.000003
 51
180.000005
  0
LINE
  5
1B4
100
AcDbEntity
  8
化粧台
  6
EXLTYPE2
 62
     6
100
AcDbLine
 10
897.000004
 20
1024.346519
 30
0.0
 11
897.000004
 21
1008.54652
 31
0.0
  0
ARC
  5
1B5
100
AcDbEntity
  8
化粧台
  6
EXLTYPE2
 62
     6
100
AcDbCircle
 10
899.000004
 20
1024.346519
 30
0.0
 40
2.0
100
AcDbArc
 50
89.999996
 51
179.999991
  0
LINE
  5
1B6
100
AcDbEntity
  8
化粧台
  6
EXLTYPE2
 62
     6
100
AcDbLine
 10
940.999996
 20
1026.346519
 30
0.0
 11
899.000004
 21
1026.346519
 31
0.0
  0
LINE
  5
1B7
100
AcDbEntity
  8
化粧台
  6
EXLTYPE2
 62
     6
100
AcDbLine
 10
942.999996
 20
1008.54652
 30
0.0
 11
897.000004
 21
1008.54652
 31
0.0
  0
LINE
  5
1B8
100
AcDbEntity
  8
化粧台
  6
EXLTYPE2
 62
     6
100
AcDbLine
 10
944.0
 20
1006.500004
 30
0.0
 11
896.0
 21
1006.500004
 31
0.0
  0
LINE
  5
1B9
100
AcDbEntity
  8
化粧台
  6
EXLTYPE2
 62
     6
100
AcDbLine
 10
950.500004
 20
991.500002
 30
0.0
 11
889.499996
 21
991.500002
 31
0.0
  0
LINE
  5
1BA
100
AcDbEntity
  8
化粧台
  6
EXLTYPE2
 62
     6
100
AcDbLine
 10
915.236585
 20
1332.611861
 30
0.0
 11
885.236585
 21
1332.611861
 31
0.0
  0
LINE
  5
1BB
100
AcDbEntity
  8
化粧台
  6
EXLTYPE2
 62
     6
100
AcDbLine
 10
915.236585
 20
1335.381771
 30
0.0
 11
885.236585
 21
1335.381771
 31
0.0
  0
LINE
  5
1BC
100
AcDbEntity
  8
化粧台
  6
EXLTYPE2
 62
     6
100
AcDbLine
 10
915.236585
 20
1335.381771
 30
0.0
 11
915.236585
 21
1320.111865
 31
0.0
  0
LINE
  5
1BD
100
AcDbEntity
  8
化粧台
  6
EXLTYPE2
 62
     6
100
AcDbLine
 10
913.736585
 20
1318.611865
 30
0.0
 11
886.736585
 21
1318.611865
 31
0.0
  0
LINE
  5
1BE
100
AcDbEntity
  8
化粧台
  6
EXLTYPE2
 62
     6
100
AcDbLine
 10
885.236585
 20
1335.381771
 30
0.0
 11
885.236585
 21
1320.111865
 31
0.0
  0
ARC
  5
1BF
100
AcDbEntity
  8
化粧台
  6
EXLTYPE2
 62
     6
100
AcDbCircle
 10
913.736585
 20
1320.111865
 30
0.0
 40
1.5
100
AcDbArc
 50
270.0
 51
0.0
  0
ARC
  5
1C0
100
AcDbEntity
  8
化粧台
  6
EXLTYPE2
 62
     6
100
AcDbCircle
 10
886.736585
 20
1320.111865
 30
0.0
 40
1.5
100
AcDbArc
 50
180.0
 51
270.0
  0
ARC
  5
1C1
100
AcDbEntity
  8
化粧台
  6
EXLTYPE2
 62
     6
100
AcDbCircle
 10
863.223169
 20
1365.911862
 30
0.0
 40
1.0
100
AcDbArc
 50
180.0
 51
270.0
  0
ARC
  5
1C2
100
AcDbEntity
  8
化粧台
  6
EXLTYPE2
 62
     6
100
AcDbCircle
 10
906.598169
 20
1371.986862
 30
0.0
 40
7.875
100
AcDbArc
 50
180.0
 51
223.242956
  0
ARC
  5
1C3
100
AcDbEntity
  8
化粧台
  6
EXLTYPE2
 62
     6
100
AcDbCircle
 10
895.125
 20
1371.986862
 30
0.0
 40
7.875
100
AcDbArc
 50
284.057614
 51
0.0
  0
ARC
  5
1C4
100
AcDbEntity
  8
化粧台
  6
EXLTYPE2
 62
     6
100
AcDbCircle
 10
909.868122
 20
1373.041927
 30
0.0
 40
45.0
100
AcDbArc
 50
190.408677
 51
236.813401
  0
ARC
  5
1C5
100
AcDbEntity
  8
化粧台
  6
EXLTYPE2
 62
     6
100
AcDbCircle
 10
892.0
 20
1373.918262
 30
0.0
 40
45.0
100
AcDbArc
 50
301.088975
 51
0.0
  0
LINE
  5
1C6
100
AcDbEntity
  8
化粧台
  6
EXLTYPE2
 62
     6
100
AcDbLine
 10
873.9
 20
1364.911862
 30
0.0
 11
863.223169
 21
1364.911862
 31
0.0
  0
LINE
  5
1C7
100
AcDbEntity
  8
化粧台
  6
EXLTYPE2
 62
     6
100
AcDbLine
 10
904.0
 20
952.5
 30
0.0
 11
904.0
 21
1318.611865
 31
0.0
  0
LINE
  5
1C8
100
AcDbEntity
  8
化粧台
  6
EXLTYPE2
 62
     6
100
AcDbLine
 10
936.0
 20
952.5
 30
0.0
 11
936.0
 21
1364.484281
 31
0.0
  0
LINE
  5
1C9
100
AcDbEntity
  8
化粧台
  6
CONTINUOUS
 62
     2
100
AcDbLine
 10
941.5
 20
1547.0
 30
0.0
 11
1046.5
 21
1547.0
 31
0.0
  0
LINE
  5
1CA
100
AcDbEntity
  8
化粧台
  6
CONTINUOUS
 62
     2
100
AcDbLine
 10
941.5
 20
1560.0
 30
0.0
 11
1046.5
 21
1560.0
 31
0.0
  0
LINE
  5
1CB
100
AcDbEntity
  8
化粧台
  6
CONTINUOUS
 62
     2
100
AcDbLine
 10
941.5
 20
1547.0
 30
0.0
 11
941.5
 21
1560.0
 31
0.0
  0
LINE
  5
1CC
100
AcDbEntity
  8
化粧台
  6
CONTINUOUS
 62
     2
100
AcDbLine
 10
1046.5
 20
1547.0
 30
0.0
 11
1046.5
 21
1560.0
 31
0.0
  0
LINE
  5
1CD
100
AcDbEntity
  8
化粧台
  6
CONTINUOUS
 62
     2
100
AcDbLine
 10
945.0
 20
1547.0
 30
0.0
 11
945.0
 21
1560.0
 31
0.0
  0
LINE
  5
1CE
100
AcDbEntity
  8
化粧台
  6
CONTINUOUS
 62
     2
100
AcDbLine
 10
1043.0
 20
1547.0
 30
0.0
 11
1043.0
 21
1560.0
 31
0.0
  0
LINE
  5
1CF
100
AcDbEntity
  8
化粧台
  6
CONTINUOUS
 62
     2
100
AcDbLine
 10
898.5
 20
1547.0
 30
0.0
 11
793.5
 21
1547.0
 31
0.0
  0
LINE
  5
1D0
100
AcDbEntity
  8
化粧台
  6
CONTINUOUS
 62
     2
100
AcDbLine
 10
898.5
 20
1560.0
 30
0.0
 11
793.5
 21
1560.0
 31
0.0
  0
LINE
  5
1D1
100
AcDbEntity
  8
化粧台
  6
CONTINUOUS
 62
     2
100
AcDbLine
 10
898.5
 20
1547.0
 30
0.0
 11
898.5
 21
1560.0
 31
0.0
  0
LINE
  5
1D2
100
AcDbEntity
  8
化粧台
  6
CONTINUOUS
 62
     2
100
AcDbLine
 10
793.5
 20
1547.0
 30
0.0
 11
793.5
 21
1560.0
 31
0.0
  0
LINE
  5
1D3
100
AcDbEntity
  8
化粧台
  6
CONTINUOUS
 62
     2
100
AcDbLine
 10
895.0
 20
1547.0
 30
0.0
 11
895.0
 21
1560.0
 31
0.0
  0
LINE
  5
1D4
100
AcDbEntity
  8
化粧台
  6
CONTINUOUS
 62
     2
100
AcDbLine
 10
797.0
 20
1547.0
 30
0.0
 11
797.0
 21
1560.0
 31
0.0
  0
LINE
  5
1D5
100
AcDbEntity
  8
化粧台
  6
CONTINUOUS
 62
     6
100
AcDbLine
 10
904.0
 20
918.5
 30
0.0
 11
936.0
 21
918.5
 31
0.0
  0
LINE
  5
1D6
100
AcDbEntity
  8
化粧台
  6
CONTINUOUS
 62
     6
100
AcDbLine
 10
904.0
 20
918.5
 30
0.0
 11
904.0
 21
952.5
 31
0.0
  0
LINE
  5
1D7
100
AcDbEntity
  8
化粧台
  6
CONTINUOUS
 62
     6
100
AcDbLine
 10
936.0
 20
918.5
 30
0.0
 11
936.0
 21
952.5
 31
0.0
  0
LINE
  5
1D8
100
AcDbEntity
  8
化粧台
  6
CONTINUOUS
 62
     6
100
AcDbLine
 10
792.5
 20
1298.5
 30
0.0
 11
847.5
 21
1298.5
 31
0.0
  0
LINE
  5
1D9
100
AcDbEntity
  8
化粧台
  6
CONTINUOUS
 62
     6
100
AcDbLine
 10
830.5
 20
940.5
 30
0.0
 11
809.5
 21
940.5
 31
0.0
  0
ARC
  5
1DA
100
AcDbEntity
  8
化粧台
  6
EXLTYPE2
 62
     6
100
AcDbCircle
 10
769.5
 20
1318.343135
 30
0.0
 40
40.0
100
AcDbArc
 50
345.638488
 51
0.0
  0
ARC
  5
1DB
100
AcDbEntity
  8
化粧台
  6
EXLTYPE2
 62
     6
100
AcDbCircle
 10
870.5
 20
1318.343135
 30
0.0
 40
40.0
100
AcDbArc
 50
180.0
 51
194.361512
  0
LINE
  5
1DC
100
AcDbEntity
  8
化粧台
  6
EXLTYPE2
 62
     6
100
AcDbLine
 10
807.75
 20
1263.5
 30
0.0
 11
832.25
 21
1263.5
 31
0.0
  0
LINE
  5
1DD
100
AcDbEntity
  8
化粧台
  6
EXLTYPE2
 62
     6
100
AcDbLine
 10
807.25
 20
1263.788675
 30
0.0
 11
807.25
 21
1275.672807
 31
0.0
  0
LINE
  5
1DE
100
AcDbEntity
  8
化粧台
  6
EXLTYPE2
 62
     6
100
AcDbLine
 10
832.75
 20
1263.788675
 30
0.0
 11
832.75
 21
1275.672807
 31
0.0
  0
ARC
  5
1DF
100
AcDbEntity
  8
化粧台
  6
EXLTYPE2
 62
     6
100
AcDbCircle
 10
800.25
 20
1278.365389
 30
0.0
 40
7.5
100
AcDbArc
 50
338.96053
 51
0.0
  0
LINE
  5
1E0
100
AcDbEntity
  8
化粧台
  6
EXLTYPE2
 62
     6
100
AcDbLine
 10
807.75
 20
1263.5
 30
0.0
 11
807.25
 21
1263.788675
 31
0.0
  0
LINE
  5
1E1
100
AcDbEntity
  8
化粧台
  6
EXLTYPE2
 62
     6
100
AcDbLine
 10
832.25
 20
1263.5
 30
0.0
 11
832.75
 21
1263.788675
 31
0.0
  0
ARC
  5
1E2
100
AcDbEntity
  8
化粧台
  6
EXLTYPE2
 62
     6
100
AcDbCircle
 10
839.75
 20
1278.365389
 30
0.0
 40
7.5
100
AcDbArc
 50
180.0
 51
201.03947
  0
LINE
  5
1E3
100
AcDbEntity
  8
化粧台
  6
EXLTYPE2
 62
     6
100
AcDbLine
 10
833.0
 20
1292.663691
 30
0.0
 11
833.0
 21
1304.336309
 31
0.0
  0
LINE
  5
1E4
100
AcDbEntity
  8
化粧台
  6
EXLTYPE2
 62
     6
100
AcDbLine
 10
831.554392
 20
1306.840176
 30
0.0
 11
821.445608
 21
1312.676485
 31
0.0
  0
LINE
  5
1E5
100
AcDbEntity
  8
化粧台
  6
EXLTYPE2
 62
     6
100
AcDbLine
 10
818.554392
 20
1312.676485
 30
0.0
 11
808.445608
 21
1306.840176
 31
0.0
  0
LINE
  5
1E6
100
AcDbEntity
  8
化粧台
  6
EXLTYPE2
 62
     6
100
AcDbLine
 10
807.0
 20
1304.336309
 30
0.0
 11
807.0
 21
1292.663691
 31
0.0
  0
LINE
  5
1E7
100
AcDbEntity
  8
化粧台
  6
EXLTYPE2
 62
     6
100
AcDbLine
 10
808.445608
 20
1290.159824
 30
0.0
 11
818.554392
 21
1284.323515
 31
0.0
  0
LINE
  5
1E8
100
AcDbEntity
  8
化粧台
  6
EXLTYPE2
 62
     6
100
AcDbLine
 10
821.445608
 20
1284.323515
 30
0.0
 11
831.554392
 21
1290.159824
 31
0.0
  0
ARC
  5
1E9
100
AcDbEntity
  8
化粧台
  6
EXLTYPE2
 62
     6
100
AcDbCircle
 10
820.0
 20
1298.5
 30
0.0
 40
14.25
100
AcDbArc
 50
264.177545
 51
275.822455
  0
ARC
  5
1EA
100
AcDbEntity
  8
化粧台
  6
EXLTYPE2
 62
     6
100
AcDbCircle
 10
820.0
 20
1298.5
 30
0.0
 40
14.25
100
AcDbArc
 50
324.177545
 51
335.822455
  0
ARC
  5
1EB
100
AcDbEntity
  8
化粧台
  6
EXLTYPE2
 62
     6
100
AcDbCircle
 10
820.0
 20
1298.5
 30
0.0
 40
14.25
100
AcDbArc
 50
24.177545
 51
35.822455
  0
ARC
  5
1EC
100
AcDbEntity
  8
化粧台
  6
EXLTYPE2
 62
     6
100
AcDbCircle
 10
820.0
 20
1298.5
 30
0.0
 40
14.25
100
AcDbArc
 50
84.177545
 51
95.822455
  0
ARC
  5
1ED
100
AcDbEntity
  8
化粧台
  6
EXLTYPE2
 62
     6
100
AcDbCircle
 10
820.0
 20
1298.5
 30
0.0
 40
14.25
100
AcDbArc
 50
144.177545
 51
155.822455
  0
ARC
  5
1EE
100
AcDbEntity
  8
化粧台
  6
EXLTYPE2
 62
     6
100
AcDbCircle
 10
820.0
 20
1298.5
 30
0.0
 40
14.25
100
AcDbArc
 50
204.177545
 51
215.822455
  0
CIRCLE
  5
1EF
100
AcDbEntity
  8
化粧台
  6
EXLTYPE2
 62
     6
100
AcDbCircle
 10
820.0
 20
1298.5
 30
0.0
 40
4.75
  0
ARC
  5
1F0
100
AcDbEntity
  8
化粧台
  6
EXLTYPE2
 62
     6
100
AcDbCircle
 10
847.0
 20
1298.5
 30
0.0
 40
40.0
100
AcDbArc
 50
165.638488
 51
169.811239
  0
ARC
  5
1F1
100
AcDbEntity
  8
化粧台
  6
EXLTYPE2
 62
     6
100
AcDbCircle
 10
793.0
 20
1298.5
 30
0.0
 40
40.0
100
AcDbArc
 50
10.188761
 51
14.361512
  0
LINE
  5
1F2
100
AcDbEntity
  8
化粧台
  6
EXLTYPE2
 62
     6
100
AcDbLine
 10
807.75
 20
1291.21989
 30
0.0
 11
807.75
 21
1278.365389
 31
0.0
  0
LINE
  5
1F3
100
AcDbEntity
  8
化粧台
  6
EXLTYPE2
 62
     6
100
AcDbLine
 10
832.25
 20
1291.21989
 30
0.0
 11
832.25
 21
1278.365389
 31
0.0
  0
LINE
  5
1F4
100
AcDbEntity
  8
化粧台
  6
EXLTYPE2
 62
     6
100
AcDbLine
 10
809.030456
 20
1321.2
 30
0.0
 11
830.969544
 21
1321.2
 31
0.0
  0
LINE
  5
1F5
100
AcDbEntity
  8
化粧台
  6
EXLTYPE2
 62
     6
100
AcDbLine
 10
809.030456
 20
1333.2
 30
0.0
 11
830.969544
 21
1333.2
 31
0.0
  0
LINE
  5
1F6
100
AcDbEntity
  8
化粧台
  6
EXLTYPE2
 62
     6
100
AcDbLine
 10
808.5
 20
1332.292887
 30
0.0
 11
808.5
 21
1322.107113
 31
0.0
  0
LINE
  5
1F7
100
AcDbEntity
  8
化粧台
  6
EXLTYPE2
 62
     6
100
AcDbLine
 10
831.5
 20
1332.292887
 30
0.0
 11
831.5
 21
1322.107113
 31
0.0
  0
ARC
  5
1F8
100
AcDbEntity
  8
化粧台
  6
EXLTYPE2
 62
     6
100
AcDbCircle
 10
818.25
 20
1327.2
 30
0.0
 40
11.0
100
AcDbArc
 50
146.944269
 51
152.419801
  0
ARC
  5
1F9
100
AcDbEntity
  8
化粧台
  6
EXLTYPE2
 62
     6
100
AcDbCircle
 10
818.25
 20
1327.2
 30
0.0
 40
11.0
100
AcDbArc
 50
207.580199
 51
213.055731
  0
ARC
  5
1FA
100
AcDbEntity
  8
化粧台
  6
EXLTYPE2
 62
     6
100
AcDbCircle
 10
821.75
 20
1327.2
 30
0.0
 40
11.0
100
AcDbArc
 50
326.944269
 51
332.419801
  0
ARC
  5
1FB
100
AcDbEntity
  8
化粧台
  6
EXLTYPE2
 62
     6
100
AcDbCircle
 10
821.75
 20
1327.2
 30
0.0
 40
11.0
100
AcDbArc
 50
27.580199
 51
33.055731
  0
LINE
  5
1FC
100
AcDbEntity
  8
化粧台
  6
EXLTYPE2
 62
     6
100
AcDbLine
 10
809.5
 20
1321.2
 30
0.0
 11
809.5
 21
1318.343135
 31
0.0
  0
LINE
  5
1FD
100
AcDbEntity
  8
化粧台
  6
EXLTYPE2
 62
     6
100
AcDbLine
 10
830.5
 20
1321.2
 30
0.0
 11
830.5
 21
1318.343135
 31
0.0
  0
LINE
  5
1FE
100
AcDbEntity
  8
化粧台
  6
EXLTYPE3
 62
     6
100
AcDbLine
 10
820.0
 20
1348.2
 30
0.0
 11
820.0
 21
925.5
 31
0.0
  0
LINE
  5
1FF
100
AcDbEntity
  8
化粧台
  6
CONTINUOUS
 62
     6
100
AcDbLine
 10
809.5
 20
952.5
 30
0.0
 11
809.5
 21
940.5
 31
0.0
  0
LINE
  5
200
100
AcDbEntity
  8
化粧台
  6
CONTINUOUS
 62
     6
100
AcDbLine
 10
830.5
 20
952.5
 30
0.0
 11
830.5
 21
940.5
 31
0.0
  0
LINE
  5
201
100
AcDbEntity
  8
化粧台
  6
EXLTYPE2
 62
     6
100
AcDbLine
 10
830.5
 20
1263.5
 30
0.0
 11
830.5
 21
952.5
 31
0.0
  0
LINE
  5
202
100
AcDbEntity
  8
化粧台
  6
EXLTYPE2
 62
     6
100
AcDbLine
 10
809.5
 20
1263.5
 30
0.0
 11
809.5
 21
952.5
 31
0.0
  0
LINE
  5
203
100
AcDbEntity
  8
化粧台
  6
CONTINUOUS
 62
     6
100
AcDbLine
 10
992.5
 20
1298.5
 30
0.0
 11
1047.5
 21
1298.5
 31
0.0
  0
LINE
  5
204
100
AcDbEntity
  8
化粧台
  6
CONTINUOUS
 62
     6
100
AcDbLine
 10
1030.5
 20
940.5
 30
0.0
 11
1009.5
 21
940.5
 31
0.0
  0
ARC
  5
205
100
AcDbEntity
  8
化粧台
  6
EXLTYPE2
 62
     6
100
AcDbCircle
 10
969.5
 20
1318.343135
 30
0.0
 40
40.0
100
AcDbArc
 50
345.638488
 51
0.0
  0
ARC
  5
206
100
AcDbEntity
  8
化粧台
  6
EXLTYPE2
 62
     6
100
AcDbCircle
 10
1070.5
 20
1318.343135
 30
0.0
 40
40.0
100
AcDbArc
 50
180.0
 51
194.361512
  0
LINE
  5
207
100
AcDbEntity
  8
化粧台
  6
EXLTYPE2
 62
     6
100
AcDbLine
 10
1007.75
 20
1263.5
 30
0.0
 11
1032.25
 21
1263.5
 31
0.0
  0
LINE
  5
208
100
AcDbEntity
  8
化粧台
  6
EXLTYPE2
 62
     6
100
AcDbLine
 10
1007.25
 20
1263.788675
 30
0.0
 11
1007.25
 21
1275.672807
 31
0.0
  0
LINE
  5
209
100
AcDbEntity
  8
化粧台
  6
EXLTYPE2
 62
     6
100
AcDbLine
 10
1032.75
 20
1263.788675
 30
0.0
 11
1032.75
 21
1275.672807
 31
0.0
  0
ARC
  5
20A
100
AcDbEntity
  8
化粧台
  6
EXLTYPE2
 62
     6
100
AcDbCircle
 10
1000.25
 20
1278.365389
 30
0.0
 40
7.5
100
AcDbArc
 50
338.96053
 51
0.0
  0
LINE
  5
20B
100
AcDbEntity
  8
化粧台
  6
EXLTYPE2
 62
     6
100
AcDbLine
 10
1007.75
 20
1263.5
 30
0.0
 11
1007.25
 21
1263.788675
 31
0.0
  0
LINE
  5
20C
100
AcDbEntity
  8
化粧台
  6
EXLTYPE2
 62
     6
100
AcDbLine
 10
1032.25
 20
1263.5
 30
0.0
 11
1032.75
 21
1263.788675
 31
0.0
  0
ARC
  5
20D
100
AcDbEntity
  8
化粧台
  6
EXLTYPE2
 62
     6
100
AcDbCircle
 10
1039.75
 20
1278.365389
 30
0.0
 40
7.5
100
AcDbArc
 50
180.0
 51
201.03947
  0
LINE
  5
20E
100
AcDbEntity
  8
化粧台
  6
EXLTYPE2
 62
     6
100
AcDbLine
 10
1033.0
 20
1292.663691
 30
0.0
 11
1033.0
 21
1304.336309
 31
0.0
  0
LINE
  5
20F
100
AcDbEntity
  8
化粧台
  6
EXLTYPE2
 62
     6
100
AcDbLine
 10
1031.554392
 20
1306.840176
 30
0.0
 11
1021.445608
 21
1312.676485
 31
0.0
  0
LINE
  5
210
100
AcDbEntity
  8
化粧台
  6
EXLTYPE2
 62
     6
100
AcDbLine
 10
1018.554392
 20
1312.676485
 30
0.0
 11
1008.445608
 21
1306.840176
 31
0.0
  0
LINE
  5
211
100
AcDbEntity
  8
化粧台
  6
EXLTYPE2
 62
     6
100
AcDbLine
 10
1007.0
 20
1304.336309
 30
0.0
 11
1007.0
 21
1292.663691
 31
0.0
  0
LINE
  5
212
100
AcDbEntity
  8
化粧台
  6
EXLTYPE2
 62
     6
100
AcDbLine
 10
1008.445608
 20
1290.159824
 30
0.0
 11
1018.554392
 21
1284.323515
 31
0.0
  0
LINE
  5
213
100
AcDbEntity
  8
化粧台
  6
EXLTYPE2
 62
     6
100
AcDbLine
 10
1021.445608
 20
1284.323515
 30
0.0
 11
1031.554392
 21
1290.159824
 31
0.0
  0
ARC
  5
214
100
AcDbEntity
  8
化粧台
  6
EXLTYPE2
 62
     6
100
AcDbCircle
 10
1020.0
 20
1298.5
 30
0.0
 40
14.25
100
AcDbArc
 50
264.177545
 51
275.822455
  0
ARC
  5
215
100
AcDbEntity
  8
化粧台
  6
EXLTYPE2
 62
     6
100
AcDbCircle
 10
1020.0
 20
1298.5
 30
0.0
 40
14.25
100
AcDbArc
 50
324.177545
 51
335.822455
  0
ARC
  5
216
100
AcDbEntity
  8
化粧台
  6
EXLTYPE2
 62
     6
100
AcDbCircle
 10
1020.0
 20
1298.5
 30
0.0
 40
14.25
100
AcDbArc
 50
24.177545
 51
35.822455
  0
ARC
  5
217
100
AcDbEntity
  8
化粧台
  6
EXLTYPE2
 62
     6
100
AcDbCircle
 10
1020.0
 20
1298.5
 30
0.0
 40
14.25
100
AcDbArc
 50
84.177545
 51
95.822455
  0
ARC
  5
218
100
AcDbEntity
  8
化粧台
  6
EXLTYPE2
 62
     6
100
AcDbCircle
 10
1020.0
 20
1298.5
 30
0.0
 40
14.25
100
AcDbArc
 50
144.177545
 51
155.822455
  0
ARC
  5
219
100
AcDbEntity
  8
化粧台
  6
EXLTYPE2
 62
     6
100
AcDbCircle
 10
1020.0
 20
1298.5
 30
0.0
 40
14.25
100
AcDbArc
 50
204.177545
 51
215.822455
  0
CIRCLE
  5
21A
100
AcDbEntity
  8
化粧台
  6
EXLTYPE2
 62
     6
100
AcDbCircle
 10
1020.0
 20
1298.5
 30
0.0
 40
4.75
  0
ARC
  5
21B
100
AcDbEntity
  8
化粧台
  6
EXLTYPE2
 62
     6
100
AcDbCircle
 10
1047.0
 20
1298.5
 30
0.0
 40
40.0
100
AcDbArc
 50
165.638488
 51
169.811239
  0
ARC
  5
21C
100
AcDbEntity
  8
化粧台
  6
EXLTYPE2
 62
     6
100
AcDbCircle
 10
993.0
 20
1298.5
 30
0.0
 40
40.0
100
AcDbArc
 50
10.188761
 51
14.361512
  0
LINE
  5
21D
100
AcDbEntity
  8
化粧台
  6
EXLTYPE2
 62
     6
100
AcDbLine
 10
1007.75
 20
1291.21989
 30
0.0
 11
1007.75
 21
1278.365389
 31
0.0
  0
LINE
  5
21E
100
AcDbEntity
  8
化粧台
  6
EXLTYPE2
 62
     6
100
AcDbLine
 10
1032.25
 20
1291.21989
 30
0.0
 11
1032.25
 21
1278.365389
 31
0.0
  0
LINE
  5
21F
100
AcDbEntity
  8
化粧台
  6
EXLTYPE2
 62
     6
100
AcDbLine
 10
1009.030456
 20
1321.2
 30
0.0
 11
1030.969544
 21
1321.2
 31
0.0
  0
LINE
  5
220
100
AcDbEntity
  8
化粧台
  6
EXLTYPE2
 62
     6
100
AcDbLine
 10
1009.030456
 20
1333.2
 30
0.0
 11
1030.969544
 21
1333.2
 31
0.0
  0
LINE
  5
221
100
AcDbEntity
  8
化粧台
  6
EXLTYPE2
 62
     6
100
AcDbLine
 10
1008.5
 20
1332.292887
 30
0.0
 11
1008.5
 21
1322.107113
 31
0.0
  0
LINE
  5
222
100
AcDbEntity
  8
化粧台
  6
EXLTYPE2
 62
     6
100
AcDbLine
 10
1031.5
 20
1332.292887
 30
0.0
 11
1031.5
 21
1322.107113
 31
0.0
  0
ARC
  5
223
100
AcDbEntity
  8
化粧台
  6
EXLTYPE2
 62
     6
100
AcDbCircle
 10
1018.25
 20
1327.2
 30
0.0
 40
11.0
100
AcDbArc
 50
146.944269
 51
152.419801
  0
ARC
  5
224
100
AcDbEntity
  8
化粧台
  6
EXLTYPE2
 62
     6
100
AcDbCircle
 10
1018.25
 20
1327.2
 30
0.0
 40
11.0
100
AcDbArc
 50
207.580199
 51
213.055731
  0
ARC
  5
225
100
AcDbEntity
  8
化粧台
  6
EXLTYPE2
 62
     6
100
AcDbCircle
 10
1021.75
 20
1327.2
 30
0.0
 40
11.0
100
AcDbArc
 50
326.944269
 51
332.419801
  0
ARC
  5
226
100
AcDbEntity
  8
化粧台
  6
EXLTYPE2
 62
     6
100
AcDbCircle
 10
1021.75
 20
1327.2
 30
0.0
 40
11.0
100
AcDbArc
 50
27.580199
 51
33.055731
  0
LINE
  5
227
100
AcDbEntity
  8
化粧台
  6
EXLTYPE2
 62
     6
100
AcDbLine
 10
1009.5
 20
1321.2
 30
0.0
 11
1009.5
 21
1318.343135
 31
0.0
  0
LINE
  5
228
100
AcDbEntity
  8
化粧台
  6
EXLTYPE2
 62
     6
100
AcDbLine
 10
1030.5
 20
1321.2
 30
0.0
 11
1030.5
 21
1318.343135
 31
0.0
  0
LINE
  5
229
100
AcDbEntity
  8
化粧台
  6
EXLTYPE3
 62
     6
100
AcDbLine
 10
1020.0
 20
1348.2
 30
0.0
 11
1020.0
 21
925.5
 31
0.0
  0
LINE
  5
22A
100
AcDbEntity
  8
化粧台
  6
CONTINUOUS
 62
     6
100
AcDbLine
 10
1009.5
 20
952.5
 30
0.0
 11
1009.5
 21
940.5
 31
0.0
  0
LINE
  5
22B
100
AcDbEntity
  8
化粧台
  6
CONTINUOUS
 62
     6
100
AcDbLine
 10
1030.5
 20
952.5
 30
0.0
 11
1030.5
 21
940.5
 31
0.0
  0
LINE
  5
22C
100
AcDbEntity
  8
化粧台
  6
EXLTYPE2
 62
     6
100
AcDbLine
 10
1030.5
 20
1263.5
 30
0.0
 11
1030.5
 21
952.5
 31
0.0
  0
LINE
  5
22D
100
AcDbEntity
  8
化粧台
  6
EXLTYPE2
 62
     6
100
AcDbLine
 10
1009.5
 20
1263.5
 30
0.0
 11
1009.5
 21
952.5
 31
0.0
  0
LINE
  5
22E
100
AcDbEntity
  8
化粧台
  6
CONTINUOUS
 62
     6
100
AcDbLine
 10
1116.473063
 20
1730.722388
 30
0.0
 11
723.526937
 21
1730.722388
 31
0.0
  0
ARC
  5
22F
100
AcDbEntity
  8
化粧台
  6
EXLTYPE2
 62
     6
100
AcDbCircle
 10
1027.0
 20
1454.355042
 30
0.0
 40
214.0
100
AcDbArc
 50
144.21447
 51
180.0
  0
LINE
  5
230
100
AcDbEntity
  8
化粧台
  6
EXLTYPE2
 62
     6
100
AcDbLine
 10
813.0
 20
1333.2
 30
0.0
 11
813.0
 21
1454.355042
 31
0.0
  0
ARC
  5
231
100
AcDbEntity
  8
化粧台
  6
EXLTYPE2
 62
     6
100
AcDbCircle
 10
1027.0
 20
1454.355042
 30
0.0
 40
200.0
100
AcDbArc
 50
142.260394
 51
180.0
  0
LINE
  5
232
100
AcDbEntity
  8
化粧台
  6
EXLTYPE2
 62
     6
100
AcDbLine
 10
827.0
 20
1333.2
 30
0.0
 11
827.0
 21
1454.355042
 31
0.0
  0
ARC
  5
233
100
AcDbEntity
  8
化粧台
  6
EXLTYPE2
 62
     6
100
AcDbCircle
 10
813.0
 20
1454.355042
 30
0.0
 40
200.0
100
AcDbArc
 50
0.0
 51
37.739606
  0
LINE
  5
234
100
AcDbEntity
  8
化粧台
  6
EXLTYPE2
 62
     6
100
AcDbLine
 10
1013.0
 20
1333.2
 30
0.0
 11
1013.0
 21
1454.355042
 31
0.0
  0
ARC
  5
235
100
AcDbEntity
  8
化粧台
  6
EXLTYPE2
 62
     6
100
AcDbCircle
 10
813.0
 20
1454.355042
 30
0.0
 40
214.0
100
AcDbArc
 50
0.0
 51
35.78553
  0
LINE
  5
236
100
AcDbEntity
  8
化粧台
  6
EXLTYPE2
 62
     6
100
AcDbLine
 10
1027.0
 20
1333.2
 30
0.0
 11
1027.0
 21
1454.355042
 31
0.0
  0
LINE
  5
237
100
AcDbEntity
  8
化粧台
  6
CONTINUOUS
 62
     2
100
AcDbLine
 10
2058.0
 20
1598.5
 30
0.0
 11
2058.0
 21
1043.5
 31
0.0
  0
LINE
  5
238
100
AcDbEntity
  8
化粧台
  6
CONTINUOUS
 62
     2
100
AcDbLine
 10
2073.0
 20
1598.5
 30
0.0
 11
2073.0
 21
1043.5
 31
0.0
  0
LINE
  5
239
100
AcDbEntity
  8
化粧台
  6
CONTINUOUS
 62
     2
100
AcDbLine
 10
2073.0
 20
1598.5
 30
0.0
 11
2058.0
 21
1598.5
 31
0.0
  0
LINE
  5
23A
100
AcDbEntity
  8
化粧台
  6
EXLTYPE3
 62
     6
100
AcDbLine
 10
2255.0
 20
1588.5
 30
0.0
 11
2255.0
 21
1423.5
 31
0.0
  0
LINE
  5
23B
100
AcDbEntity
  8
化粧台
  6
CONTINUOUS
 62
     2
100
AcDbLine
 10
2465.0
 20
1533.5
 30
0.0
 11
2465.0
 21
1493.5
 31
0.0
  0
LINE
  5
23C
100
AcDbEntity
  8
化粧台
  6
CONTINUOUS
 62
     2
100
AcDbLine
 10
2073.0
 20
1043.5
 30
0.0
 11
2058.0
 21
1043.5
 31
0.0
  0
LINE
  5
23D
100
AcDbEntity
  8
化粧台
  6
CONTINUOUS
 62
     2
100
AcDbLine
 10
2403.25
 20
948.5
 30
0.0
 11
2416.75
 21
948.5
 31
0.0
  0
LINE
  5
23E
100
AcDbEntity
  8
化粧台
  6
CONTINUOUS
 62
     2
100
AcDbLine
 10
2416.75
 20
948.5
 30
0.0
 11
2416.75
 21
952.0
 31
0.0
  0
LINE
  5
23F
100
AcDbEntity
  8
化粧台
  6
CONTINUOUS
 62
     2
100
AcDbLine
 10
2403.25
 20
948.5
 30
0.0
 11
2403.25
 21
952.0
 31
0.0
  0
LINE
  5
240
100
AcDbEntity
  8
化粧台
  6
CONTINUOUS
 62
     2
100
AcDbLine
 10
2123.25
 20
948.5
 30
0.0
 11
2136.75
 21
948.5
 31
0.0
  0
LINE
  5
241
100
AcDbEntity
  8
化粧台
  6
CONTINUOUS
 62
     2
100
AcDbLine
 10
2136.75
 20
948.5
 30
0.0
 11
2136.75
 21
952.0
 31
0.0
  0
LINE
  5
242
100
AcDbEntity
  8
化粧台
  6
CONTINUOUS
 62
     2
100
AcDbLine
 10
2123.25
 20
948.5
 30
0.0
 11
2123.25
 21
952.0
 31
0.0
  0
LINE
  5
243
100
AcDbEntity
  8
化粧台
  6
CONTINUOUS
 62
     2
100
AcDbLine
 10
2033.0
 20
1560.0
 30
0.0
 11
2058.0
 21
1560.0
 31
0.0
  0
LINE
  5
244
100
AcDbEntity
  8
化粧台
  6
CONTINUOUS
 62
     2
100
AcDbLine
 10
2033.0
 20
1547.0
 30
0.0
 11
2033.0
 21
1560.0
 31
0.0
  0
LINE
  5
245
100
AcDbEntity
  8
化粧台
  6
CONTINUOUS
 62
     2
100
AcDbLine
 10
2033.0
 20
1547.0
 30
0.0
 11
2058.0
 21
1547.0
 31
0.0
  0
LINE
  5
246
100
AcDbEntity
  8
化粧台
  6
CONTINUOUS
 62
     2
100
AcDbLine
 10
2040.0
 20
1547.0
 30
0.0
 11
2040.0
 21
1560.0
 31
0.0
  0
LINE
  5
247
100
AcDbEntity
  8
化粧台
  6
CONTINUOUS
 62
     2
100
AcDbLine
 10
2075.0
 20
952.0
 30
0.0
 11
2465.0
 21
952.0
 31
0.0
  0
LINE
  5
248
100
AcDbEntity
  8
化粧台
  6
EXLTYPE2
 62
     6
100
AcDbLine
 10
2078.0
 20
1038.75
 30
0.0
 11
2078.0
 21
952.0
 31
0.0
  0
LINE
  5
249
100
AcDbEntity
  8
化粧台
  6
EXLTYPE2
 62
     6
100
AcDbLine
 10
2093.0
 20
1038.75
 30
0.0
 11
2093.0
 21
952.0
 31
0.0
  0
LINE
  5
24A
100
AcDbEntity
  8
化粧台
  6
EXLTYPE2
 62
     6
100
AcDbLine
 10
2450.0
 20
1038.75
 30
0.0
 11
2075.0
 21
1038.75
 31
0.0
  0
LINE
  5
24B
100
AcDbEntity
  8
化粧台
  6
EXLTYPE2
 62
     6
100
AcDbLine
 10
2447.5
 20
1053.75
 30
0.0
 11
2075.0
 21
1053.75
 31
0.0
  0
LINE
  5
24C
100
AcDbEntity
  8
化粧台
  6
EXLTYPE2
 62
     6
100
AcDbLine
 10
2447.5
 20
1056.25
 30
0.0
 11
2075.0
 21
1056.25
 31
0.0
  0
LINE
  5
24D
100
AcDbEntity
  8
化粧台
  6
EXLTYPE2
 62
     6
100
AcDbLine
 10
2447.5
 20
1533.5
 30
0.0
 11
2447.5
 21
1038.75
 31
0.0
  0
LINE
  5
24E
100
AcDbEntity
  8
化粧台
  6
EXLTYPE2
 62
     6
100
AcDbLine
 10
2450.0
 20
1533.5
 30
0.0
 11
2450.0
 21
1038.75
 31
0.0
  0
LINE
  5
24F
100
AcDbEntity
  8
化粧台
  6
CONTINUOUS
 62
     6
100
AcDbLine
 10
2195.0
 20
1053.75
 30
0.0
 11
2195.0
 21
1038.75
 31
0.0
  0
LINE
  5
250
100
AcDbEntity
  8
化粧台
  6
CONTINUOUS
 62
     6
100
AcDbLine
 10
2160.0
 20
1053.75
 30
0.0
 11
2160.0
 21
1038.75
 31
0.0
  0
LINE
  5
251
100
AcDbEntity
  8
化粧台
  6
CONTINUOUS
 62
     6
100
AcDbLine
 10
2108.0
 20
1053.75
 30
0.0
 11
2108.0
 21
1038.75
 31
0.0
  0
LINE
  5
252
100
AcDbEntity
  8
化粧台
  6
CONTINUOUS
 62
     6
100
AcDbLine
 10
2415.0
 20
1053.75
 30
0.0
 11
2415.0
 21
1038.75
 31
0.0
  0
LINE
  5
253
100
AcDbEntity
  8
化粧台
  6
EXLTYPE2
 62
     6
100
AcDbLine
 10
2093.25
 20
1618.5
 30
0.0
 11
2093.25
 21
1568.5
 31
0.0
  0
LINE
  5
254
100
AcDbEntity
  8
化粧台
  6
EXLTYPE2
 62
     6
100
AcDbLine
 10
2075.0
 20
1618.5
 30
0.0
 11
2093.25
 21
1618.5
 31
0.0
  0
LINE
  5
255
100
AcDbEntity
  8
化粧台
  6
EXLTYPE2
 62
     6
100
AcDbLine
 10
2075.0
 20
1568.5
 30
0.0
 11
2093.25
 21
1568.5
 31
0.0
  0
LINE
  5
256
100
AcDbEntity
  8
化粧台
  6
EXLTYPE2
 62
     6
100
AcDbLine
 10
2450.0
 20
1493.5
 30
0.0
 11
2465.0
 21
1493.5
 31
0.0
  0
LINE
  5
257
100
AcDbEntity
  8
化粧台
  6
EXLTYPE2
 62
     6
100
AcDbLine
 10
2447.5
 20
1533.5
 30
0.0
 11
2465.0
 21
1533.5
 31
0.0
  0
LINE
  5
258
100
AcDbEntity
  8
化粧台
  6
CONTINUOUS
 62
     6
100
AcDbLine
 10
2465.0
 20
1505.5
 30
0.0
 11
2497.5
 21
1503.5
 31
0.0
  0
LINE
  5
259
100
AcDbEntity
  8
化粧台
  6
CONTINUOUS
 62
     6
100
AcDbLine
 10
2497.5
 20
1503.5
 30
0.0
 11
2465.0
 21
1501.5
 31
0.0
  0
LINE
  5
25A
100
AcDbEntity
  8
化粧台
  6
CONTINUOUS
 62
     6
100
AcDbLine
 10
2447.0
 20
1511.0
 30
0.0
 11
2446.0
 21
1511.0
 31
0.0
  0
LINE
  5
25B
100
AcDbEntity
  8
化粧台
  6
CONTINUOUS
 62
     6
100
AcDbLine
 10
2447.0
 20
1496.0
 30
0.0
 11
2446.0
 21
1496.0
 31
0.0
  0
ARC
  5
25C
100
AcDbEntity
  8
化粧台
  6
CONTINUOUS
 62
     6
100
AcDbCircle
 10
2447.039655
 20
1503.5
 30
0.0
 40
3.939655
100
AcDbArc
 50
105.301302
 51
254.698698
  0
LINE
  5
25D
100
AcDbEntity
  8
化粧台
  6
CONTINUOUS
 62
     6
100
AcDbLine
 10
2446.0
 20
1511.0
 30
0.0
 11
2446.0
 21
1496.0
 31
0.0
  0
LINE
  5
25E
100
AcDbEntity
  8
化粧台
  6
CONTINUOUS
 62
     6
100
AcDbLine
 10
2433.1
 20
1503.5
 30
0.0
 11
2507.5
 21
1503.5
 31
0.0
  0
LINE
  5
25F
100
AcDbEntity
  8
化粧台
  6
EXLTYPE3
 62
     6
100
AcDbLine
 10
2345.0
 20
1119.0
 30
0.0
 11
2345.0
 21
903.5
 31
0.0
  0
LINE
  5
260
100
AcDbEntity
  8
化粧台
  6
EXLTYPE2
 62
     6
100
AcDbLine
 10
2220.0
 20
1535.5
 30
0.0
 11
2224.186047
 21
1538.5
 31
0.0
  0
LINE
  5
261
100
AcDbEntity
  8
化粧台
  6
EXLTYPE2
 62
     6
100
AcDbLine
 10
2220.0
 20
1535.5
 30
0.0
 11
2220.0
 21
1528.0
 31
0.0
  0
LINE
  5
262
100
AcDbEntity
  8
化粧台
  6
EXLTYPE2
 62
     6
100
AcDbLine
 10
2281.25
 20
1483.5
 30
0.0
 11
2270.75
 21
1474.5
 31
0.0
  0
LINE
  5
263
100
AcDbEntity
  8
化粧台
  6
EXLTYPE2
 62
     6
100
AcDbLine
 10
2283.412795
 20
1511.0
 30
0.0
 11
2281.25
 21
1508.0
 31
0.0
  0
LINE
  5
264
100
AcDbEntity
  8
化粧台
  6
EXLTYPE2
 62
     6
100
AcDbLine
 10
2283.412795
 20
1528.0
 30
0.0
 11
2283.412795
 21
1511.0
 31
0.0
  0
LINE
  5
265
100
AcDbEntity
  8
化粧台
  6
EXLTYPE2
 62
     6
100
AcDbLine
 10
2281.25
 20
1508.0
 30
0.0
 11
2281.25
 21
1483.5
 31
0.0
  0
LINE
  5
266
100
AcDbEntity
  8
化粧台
  6
EXLTYPE2
 62
     6
100
AcDbLine
 10
2228.75
 20
1483.5
 30
0.0
 11
2239.25
 21
1474.5
 31
0.0
  0
LINE
  5
267
100
AcDbEntity
  8
化粧台
  6
EXLTYPE2
 62
     6
100
AcDbLine
 10
2226.587205
 20
1511.0
 30
0.0
 11
2228.75
 21
1508.0
 31
0.0
  0
LINE
  5
268
100
AcDbEntity
  8
化粧台
  6
EXLTYPE2
 62
     6
100
AcDbLine
 10
2226.587205
 20
1528.0
 30
0.0
 11
2226.587205
 21
1511.0
 31
0.0
  0
LINE
  5
269
100
AcDbEntity
  8
化粧台
  6
EXLTYPE2
 62
     6
100
AcDbLine
 10
2228.75
 20
1508.0
 30
0.0
 11
2228.75
 21
1483.5
 31
0.0
  0
LINE
  5
26A
100
AcDbEntity
  8
化粧台
  6
EXLTYPE2
 62
     6
100
AcDbLine
 10
2220.0
 20
1528.0
 30
0.0
 11
2290.0
 21
1528.0
 31
0.0
  0
LINE
  5
26B
100
AcDbEntity
  8
化粧台
  6
EXLTYPE2
 62
     6
100
AcDbLine
 10
2228.75
 20
1508.0
 30
0.0
 11
2281.25
 21
1508.0
 31
0.0
  0
LINE
  5
26C
100
AcDbEntity
  8
化粧台
  6
EXLTYPE2
 62
     6
100
AcDbLine
 10
2228.75
 20
1483.5
 30
0.0
 11
2281.25
 21
1483.5
 31
0.0
  0
LINE
  5
26D
100
AcDbEntity
  8
化粧台
  6
EXLTYPE2
 62
     6
100
AcDbLine
 10
2239.25
 20
1474.5
 30
0.0
 11
2270.75
 21
1474.5
 31
0.0
  0
LINE
  5
26E
100
AcDbEntity
  8
化粧台
  6
EXLTYPE2
 62
     6
100
AcDbLine
 10
2372.0
 20
1003.500004
 30
0.0
 11
2372.0
 21
992.500002
 31
0.0
  0
LINE
  5
26F
100
AcDbEntity
  8
化粧台
  6
EXLTYPE2
 62
     6
100
AcDbLine
 10
2378.500004
 20
988.500002
 30
0.0
 11
2378.500004
 21
969.0
 31
0.0
  0
ARC
  5
270
100
AcDbEntity
  8
化粧台
  6
EXLTYPE2
 62
     6
100
AcDbCircle
 10
2369.0
 20
1003.500004
 30
0.0
 40
3.0
100
AcDbArc
 50
359.999995
 51
89.999997
  0
ARC
  5
271
100
AcDbEntity
  8
化粧台
  6
EXLTYPE2
 62
     6
100
AcDbCircle
 10
2373.0
 20
992.500002
 30
0.0
 40
1.0
100
AcDbArc
 50
180.0
 51
270.0
  0
ARC
  5
272
100
AcDbEntity
  8
化粧台
  6
EXLTYPE2
 62
     6
100
AcDbCircle
 10
2375.500004
 20
988.500002
 30
0.0
 40
3.0
100
AcDbArc
 50
359.999995
 51
89.999997
  0
ARC
  5
273
100
AcDbEntity
  8
化粧台
  6
EXLTYPE2
 62
     6
100
AcDbCircle
 10
2378.000004
 20
969.0
 30
0.0
 40
0.5
100
AcDbArc
 50
270.0
 51
0.0
  0
LINE
  5
274
100
AcDbEntity
  8
化粧台
  6
EXLTYPE2
 62
     6
100
AcDbLine
 10
2367.999996
 20
1024.346519
 30
0.0
 11
2367.999996
 21
1008.54652
 31
0.0
  0
ARC
  5
275
100
AcDbEntity
  8
化粧台
  6
EXLTYPE2
 62
     6
100
AcDbCircle
 10
2365.999996
 20
1024.346519
 30
0.0
 40
2.0
100
AcDbArc
 50
0.000009
 51
90.000004
  0
LINE
  5
276
100
AcDbEntity
  8
化粧台
  6
EXLTYPE2
 62
     6
100
AcDbLine
 10
2318.0
 20
1003.500004
 30
0.0
 11
2318.0
 21
992.500002
 31
0.0
  0
LINE
  5
277
100
AcDbEntity
  8
化粧台
  6
EXLTYPE2
 62
     6
100
AcDbLine
 10
2311.499996
 20
988.500002
 30
0.0
 11
2311.499996
 21
969.0
 31
0.0
  0
ARC
  5
278
100
AcDbEntity
  8
化粧台
  6
EXLTYPE2
 62
     6
100
AcDbCircle
 10
2321.0
 20
1003.500004
 30
0.0
 40
3.0
100
AcDbArc
 50
90.000003
 51
180.000005
  0
ARC
  5
279
100
AcDbEntity
  8
化粧台
  6
EXLTYPE2
 62
     6
100
AcDbCircle
 10
2317.0
 20
992.500002
 30
0.0
 40
1.0
100
AcDbArc
 50
270.0
 51
0.0
  0
ARC
  5
27A
100
AcDbEntity
  8
化粧台
  6
EXLTYPE2
 62
     6
100
AcDbCircle
 10
2314.499996
 20
988.500002
 30
0.0
 40
3.0
100
AcDbArc
 50
90.000003
 51
180.000005
  0
ARC
  5
27B
100
AcDbEntity
  8
化粧台
  6
EXLTYPE2
 62
     6
100
AcDbCircle
 10
2311.999996
 20
969.0
 30
0.0
 40
0.5
100
AcDbArc
 50
180.0
 51
270.0
  0
LINE
  5
27C
100
AcDbEntity
  8
化粧台
  6
EXLTYPE2
 62
     6
100
AcDbLine
 10
2322.000004
 20
1024.346519
 30
0.0
 11
2322.000004
 21
1008.54652
 31
0.0
  0
ARC
  5
27D
100
AcDbEntity
  8
化粧台
  6
EXLTYPE2
 62
     6
100
AcDbCircle
 10
2324.000004
 20
1024.346519
 30
0.0
 40
2.0
100
AcDbArc
 50
89.999996
 51
179.999991
  0
LINE
  5
27E
100
AcDbEntity
  8
化粧台
  6
EXLTYPE2
 62
     6
100
AcDbLine
 10
2365.999996
 20
1026.346519
 30
0.0
 11
2324.000004
 21
1026.346519
 31
0.0
  0
LINE
  5
27F
100
AcDbEntity
  8
化粧台
  6
EXLTYPE2
 62
     6
100
AcDbLine
 10
2367.999996
 20
1008.54652
 30
0.0
 11
2322.000004
 21
1008.54652
 31
0.0
  0
LINE
  5
280
100
AcDbEntity
  8
化粧台
  6
EXLTYPE2
 62
     6
100
AcDbLine
 10
2369.0
 20
1006.500004
 30
0.0
 11
2321.0
 21
1006.500004
 31
0.0
  0
LINE
  5
281
100
AcDbEntity
  8
化粧台
  6
EXLTYPE2
 62
     6
100
AcDbLine
 10
2375.500004
 20
991.500002
 30
0.0
 11
2314.499996
 21
991.500002
 31
0.0
  0
LINE
  5
282
100
AcDbEntity
  8
化粧台
  6
EXLTYPE2
 62
     6
100
AcDbLine
 10
2378.000004
 20
968.5
 30
0.0
 11
2311.999996
 21
968.5
 31
0.0
  0
LINE
  5
283
100
AcDbEntity
  8
化粧台
  6
EXLTYPE2
 62
     6
100
AcDbLine
 10
2236.75
 20
1446.7
 30
0.0
 11
2236.75
 21
1406.611864
 31
0.0
  0
LINE
  5
284
100
AcDbEntity
  8
化粧台
  6
EXLTYPE2
 62
     6
100
AcDbLine
 10
2273.25
 20
1446.7
 30
0.0
 11
2273.25
 21
1406.611864
 31
0.0
  0
LINE
  5
285
100
AcDbEntity
  8
化粧台
  6
EXLTYPE2
 62
     6
100
AcDbLine
 10
2236.75
 20
1406.611864
 30
0.0
 11
2238.0
 21
1405.611864
 31
0.0
  0
LINE
  5
286
100
AcDbEntity
  8
化粧台
  6
EXLTYPE2
 62
     6
100
AcDbLine
 10
2272.0
 20
1405.611864
 30
0.0
 11
2273.25
 21
1406.611864
 31
0.0
  0
LINE
  5
287
100
AcDbEntity
  8
化粧台
  6
EXLTYPE2
 62
     6
100
AcDbLine
 10
2238.0
 20
1405.611864
 30
0.0
 11
2272.0
 21
1405.611864
 31
0.0
  0
LINE
  5
288
100
AcDbEntity
  8
化粧台
  6
EXLTYPE2
 62
     6
100
AcDbLine
 10
2230.75
 20
1446.7
 30
0.0
 11
2279.25
 21
1446.7
 31
0.0
  0
LINE
  5
289
100
AcDbEntity
  8
化粧台
  6
EXLTYPE2
 62
     6
100
AcDbLine
 10
2230.75
 20
1461.5
 30
0.0
 11
2230.75
 21
1446.7
 31
0.0
  0
LINE
  5
28A
100
AcDbEntity
  8
化粧台
  6
EXLTYPE2
 62
     6
100
AcDbLine
 10
2233.75
 20
1464.5
 30
0.0
 11
2276.25
 21
1464.5
 31
0.0
  0
LINE
  5
28B
100
AcDbEntity
  8
化粧台
  6
EXLTYPE2
 62
     6
100
AcDbLine
 10
2279.25
 20
1461.5
 30
0.0
 11
2279.25
 21
1446.7
 31
0.0
  0
ARC
  5
28C
100
AcDbEntity
  8
化粧台
  6
EXLTYPE2
 62
     6
100
AcDbCircle
 10
2233.75
 20
1461.5
 30
0.0
 40
3.0
100
AcDbArc
 50
90.0
 51
180.0
  0
ARC
  5
28D
100
AcDbEntity
  8
化粧台
  6
EXLTYPE2
 62
     6
100
AcDbCircle
 10
2276.25
 20
1461.5
 30
0.0
 40
3.0
100
AcDbArc
 50
0.0
 51
90.0
  0
LINE
  5
28E
100
AcDbEntity
  8
化粧台
  6
EXLTYPE2
 62
     6
100
AcDbLine
 10
2256.113889
 20
1332.611861
 30
0.0
 11
2286.113889
 21
1332.611861
 31
0.0
  0
LINE
  5
28F
100
AcDbEntity
  8
化粧台
  6
EXLTYPE2
 62
     6
100
AcDbLine
 10
2256.113889
 20
1335.381771
 30
0.0
 11
2286.113889
 21
1335.381771
 31
0.0
  0
LINE
  5
290
100
AcDbEntity
  8
化粧台
  6
EXLTYPE2
 62
     6
100
AcDbLine
 10
2256.113889
 20
1335.381771
 30
0.0
 11
2256.113889
 21
1320.111865
 31
0.0
  0
LINE
  5
291
100
AcDbEntity
  8
化粧台
  6
EXLTYPE2
 62
     6
100
AcDbLine
 10
2257.613889
 20
1318.611865
 30
0.0
 11
2284.613889
 21
1318.611865
 31
0.0
  0
LINE
  5
292
100
AcDbEntity
  8
化粧台
  6
EXLTYPE2
 62
     6
100
AcDbLine
 10
2286.113889
 20
1335.381771
 30
0.0
 11
2286.113889
 21
1320.111865
 31
0.0
  0
ARC
  5
293
100
AcDbEntity
  8
化粧台
  6
EXLTYPE2
 62
     6
100
AcDbCircle
 10
2257.613889
 20
1320.111865
 30
0.0
 40
1.5
100
AcDbArc
 50
180.0
 51
270.0
  0
ARC
  5
294
100
AcDbEntity
  8
化粧台
  6
EXLTYPE2
 62
     6
100
AcDbCircle
 10
2284.613889
 20
1320.111865
 30
0.0
 40
1.5
100
AcDbArc
 50
270.0
 51
0.0
  0
LINE
  5
295
100
AcDbEntity
  8
化粧台
  6
EXLTYPE2
 62
     6
100
AcDbLine
 10
2311.477778
 20
1408.811312
 30
0.0
 11
2311.477778
 21
1394.011312
 31
0.0
  0
ARC
  5
296
100
AcDbEntity
  8
化粧台
  6
EXLTYPE2
 62
     6
100
AcDbCircle
 10
2308.477778
 20
1408.811312
 30
0.0
 40
3.0
100
AcDbArc
 50
0.0
 51
90.0
  0
LINE
  5
297
100
AcDbEntity
  8
化粧台
  6
EXLTYPE2
 62
     6
100
AcDbLine
 10
2305.477778
 20
1394.011312
 30
0.0
 11
2305.477778
 21
1365.911862
 31
0.0
  0
ARC
  5
298
100
AcDbEntity
  8
化粧台
  6
EXLTYPE2
 62
     6
100
AcDbCircle
 10
2304.477778
 20
1365.911862
 30
0.0
 40
1.0
100
AcDbArc
 50
270.0
 51
0.0
  0
LINE
  5
299
100
AcDbEntity
  8
化粧台
  6
EXLTYPE2
 62
     6
100
AcDbLine
 10
2238.0
 20
1405.611864
 30
0.0
 11
2238.0
 21
1373.895092
 31
0.0
  0
LINE
  5
29A
100
AcDbEntity
  8
化粧台
  6
EXLTYPE2
 62
     6
100
AcDbLine
 10
2272.0
 20
1405.611864
 30
0.0
 11
2272.0
 21
1365.959507
 31
0.0
  0
LINE
  5
29B
100
AcDbEntity
  8
化粧台
  6
EXLTYPE2
 62
     6
100
AcDbLine
 10
2298.4
 20
1364.911862
 30
0.0
 11
2304.477778
 21
1364.911862
 31
0.0
  0
LINE
  5
29C
100
AcDbEntity
  8
化粧台
  6
EXLTYPE2
 62
     6
100
AcDbLine
 10
2273.25
 20
1411.811312
 30
0.0
 11
2308.477778
 21
1411.811312
 31
0.0
  0
LINE
  5
29D
100
AcDbEntity
  8
化粧台
  6
EXLTYPE2
 62
     6
100
AcDbLine
 10
2272.0
 20
1394.011312
 30
0.0
 11
2311.477778
 21
1394.011312
 31
0.0
  0
ARC
  5
29E
100
AcDbEntity
  8
化粧台
  6
EXLTYPE2
 62
     6
100
AcDbCircle
 10
2273.847644
 20
1365.959507
 30
0.0
 40
1.847644
100
AcDbArc
 50
180.0
 51
0.0
  0
ARC
  5
29F
100
AcDbEntity
  8
化粧台
  6
EXLTYPE2
 62
     6
100
AcDbCircle
 10
2288.0
 20
1373.895092
 30
0.0
 40
50.0
100
AcDbArc
 50
180.0
 51
230.37782
  0
ARC
  5
2A0
100
AcDbEntity
  8
化粧台
  6
EXLTYPE2
 62
     6
100
AcDbCircle
 10
2264.705101
 20
1369.170287
 30
0.0
 40
40.0
100
AcDbArc
 50
302.358812
 51
353.888675
  0
LINE
  5
2A1
100
AcDbEntity
  8
化粧台
  6
EXLTYPE2
 62
     6
100
AcDbLine
 10
2303.227778
 20
1433.025752
 30
0.0
 11
2303.227778
 21
1411.811312
 31
0.0
  0
ARC
  5
2A2
100
AcDbEntity
  8
化粧台
  6
EXLTYPE2
 62
     6
100
AcDbCircle
 10
2316.113889
 20
1433.025752
 30
0.0
 40
12.886111
100
AcDbArc
 50
0.0
 51
180.0
  0
ARC
  5
2A3
100
AcDbEntity
  8
化粧台
  6
EXLTYPE2
 62
     6
100
AcDbCircle
 10
2316.113889
 20
1433.025752
 30
0.0
 40
44.886111
100
AcDbArc
 50
0.0
 51
145.212738
  0
LINE
  5
2A4
100
AcDbEntity
  8
化粧台
  6
EXLTYPE2
 62
     6
100
AcDbLine
 10
2239.25
 20
1474.5
 30
0.0
 11
2239.25
 21
1464.5
 31
0.0
  0
LINE
  5
2A5
100
AcDbEntity
  8
化粧台
  6
EXLTYPE2
 62
     6
100
AcDbLine
 10
2270.75
 20
1474.5
 30
0.0
 11
2270.75
 21
1464.5
 31
0.0
  0
LINE
  5
2A6
100
AcDbEntity
  8
化粧台
  6
EXLTYPE2
 62
     6
100
AcDbLine
 10
2290.0
 20
1535.5
 30
0.0
 11
2290.0
 21
1528.0
 31
0.0
  0
LINE
  5
2A7
100
AcDbEntity
  8
化粧台
  6
EXLTYPE2
 62
     6
100
AcDbLine
 10
2290.0
 20
1535.5
 30
0.0
 11
2285.813953
 21
1538.5
 31
0.0
  0
LINE
  5
2A8
100
AcDbEntity
  8
化粧台
  6
EXLTYPE2
 62
     6
100
AcDbLine
 10
2329.0
 20
952.0
 30
0.0
 11
2329.0
 21
1433.025752
 31
0.0
  0
LINE
  5
2A9
100
AcDbEntity
  8
化粧台
  6
EXLTYPE2
 62
     6
100
AcDbLine
 10
2361.0
 20
952.0
 30
0.0
 11
2361.0
 21
1433.025752
 31
0.0
  0
LINE
  5
2AA
100
AcDbEntity
  8
化粧台
  6
EXLTYPE3
 62
     6
100
AcDbLine
 10
2375.75
 20
1448.5
 30
0.0
 11
2501.0
 21
1448.5
 31
0.0
  0
LINE
  5
2AB
100
AcDbEntity
  8
化粧台
  6
EXLTYPE4
 62
     6
100
AcDbLine
 10
2486.0
 20
1432.5
 30
0.0
 11
2390.75
 21
1432.5
 31
0.0
  0
LINE
  5
2AC
100
AcDbEntity
  8
化粧台
  6
EXLTYPE4
 62
     6
100
AcDbLine
 10
2486.0
 20
1464.5
 30
0.0
 11
2390.75
 21
1464.5
 31
0.0
  0
LINE
  5
2AD
100
AcDbEntity
  8
化粧台
  6
CONTINUOUS
 62
     6
100
AcDbLine
 10
2486.0
 20
1464.5
 30
0.0
 11
2486.0
 21
1432.5
 31
0.0
  0
LINE
  5
2AE
100
AcDbEntity
  8
化粧台
  6
CONTINUOUS
 62
     6
100
AcDbLine
 10
2390.5
 20
940.5
 30
0.0
 11
2369.5
 21
940.5
 31
0.0
  0
ARC
  5
2AF
100
AcDbEntity
  8
化粧台
  6
EXLTYPE2
 62
     6
100
AcDbCircle
 10
2430.5
 20
1318.343135
 30
0.0
 40
40.0
100
AcDbArc
 50
180.0
 51
194.361512
  0
ARC
  5
2B0
100
AcDbEntity
  8
化粧台
  6
EXLTYPE2
 62
     6
100
AcDbCircle
 10
2353.0
 20
1298.5
 30
0.0
 40
40.0
100
AcDbArc
 50
352.14831
 51
14.361512
  0
ARC
  5
2B1
100
AcDbEntity
  8
化粧台
  6
EXLTYPE2
 62
     6
100
AcDbCircle
 10
2432.25
 20
1287.571254
 30
0.0
 40
40.0
100
AcDbArc
 50
172.14831
 51
180.0
  0
LINE
  5
2B2
100
AcDbEntity
  8
化粧台
  6
EXLTYPE2
 62
     6
100
AcDbLine
 10
2392.25
 20
1263.5
 30
0.0
 11
2394.722432
 21
1264.927459
 31
0.0
  0
ARC
  5
2B3
100
AcDbEntity
  8
化粧台
  6
EXLTYPE2
 62
     6
100
AcDbCircle
 10
2399.75
 20
1278.365389
 30
0.0
 40
7.5
100
AcDbArc
 50
180.0
 51
227.906502
  0
LINE
  5
2B4
100
AcDbEntity
  8
化粧台
  6
EXLTYPE2
 62
     6
100
AcDbLine
 10
2392.25
 20
1287.571254
 30
0.0
 11
2392.25
 21
1278.365389
 31
0.0
  0
LINE
  5
2B5
100
AcDbEntity
  8
化粧台
  6
EXLTYPE2
 62
     6
100
AcDbLine
 10
2394.722432
 20
1264.927459
 30
0.0
 11
2394.722432
 21
1272.8
 31
0.0
  0
LINE
  5
2B6
100
AcDbEntity
  8
化粧台
  6
EXLTYPE2
 62
     6
100
AcDbLine
 10
2367.75
 20
1263.5
 30
0.0
 11
2365.277568
 21
1264.927459
 31
0.0
  0
ARC
  5
2B7
100
AcDbEntity
  8
化粧台
  6
EXLTYPE2
 62
     6
100
AcDbCircle
 10
2360.25
 20
1278.365389
 30
0.0
 40
7.5
100
AcDbArc
 50
312.093498
 51
0.0
  0
LINE
  5
2B8
100
AcDbEntity
  8
化粧台
  6
EXLTYPE2
 62
     6
100
AcDbLine
 10
2365.277568
 20
1264.927459
 30
0.0
 11
2365.277568
 21
1272.8
 31
0.0
  0
LINE
  5
2B9
100
AcDbEntity
  8
化粧台
  6
EXLTYPE2
 62
     6
100
AcDbLine
 10
2392.25
 20
1263.5
 30
0.0
 11
2367.75
 21
1263.5
 31
0.0
  0
ARC
  5
2BA
100
AcDbEntity
  8
化粧台
  6
EXLTYPE2
 62
     6
100
AcDbCircle
 10
2362.0
 20
1318.0
 30
0.0
 40
7.5
100
AcDbArc
 50
270.0
 51
0.0
  0
ARC
  5
2BB
100
AcDbEntity
  8
化粧台
  6
EXLTYPE2
 62
     6
100
AcDbCircle
 10
2360.25
 20
1279.0
 30
0.0
 40
7.5
100
AcDbArc
 50
0.0
 51
90.0
  0
LINE
  5
2BC
100
AcDbEntity
  8
化粧台
  6
EXLTYPE2
 62
     6
100
AcDbLine
 10
2367.75
 20
1279.0
 30
0.0
 11
2367.75
 21
1278.365389
 31
0.0
  0
LINE
  5
2BD
100
AcDbEntity
  8
化粧台
  6
EXLTYPE2
 62
     6
100
AcDbLine
 10
2356.5
 20
1310.5
 30
0.0
 11
2362.0
 21
1310.5
 31
0.0
  0
LINE
  5
2BE
100
AcDbEntity
  8
化粧台
  6
EXLTYPE2
 62
     6
100
AcDbLine
 10
2356.5
 20
1286.5
 30
0.0
 11
2360.25
 21
1286.5
 31
0.0
  0
LINE
  5
2BF
100
AcDbEntity
  8
化粧台
  6
EXLTYPE2
 62
     6
100
AcDbLine
 10
2343.6
 20
1303.8
 30
0.0
 11
2343.6
 21
1293.2
 31
0.0
  0
LINE
  5
2C0
100
AcDbEntity
  8
化粧台
  6
EXLTYPE2
 62
     6
100
AcDbLine
 10
2356.5
 20
1311.25
 30
0.0
 11
2356.5
 21
1285.75
 31
0.0
  0
ARC
  5
2C1
100
AcDbEntity
  8
化粧台
  6
EXLTYPE2
 62
     6
100
AcDbCircle
 10
2352.725083
 20
1307.25
 30
0.0
 40
5.5
100
AcDbArc
 50
46.658242
 51
142.812374
  0
LINE
  5
2C2
100
AcDbEntity
  8
化粧台
  6
EXLTYPE2
 62
     6
100
AcDbLine
 10
2343.6
 20
1303.8
 30
0.0
 11
2348.34345
 21
1310.574349
 31
0.0
  0
ARC
  5
2C3
100
AcDbEntity
  8
化粧台
  6
EXLTYPE2
 62
     6
100
AcDbCircle
 10
2352.725083
 20
1289.75
 30
0.0
 40
5.5
100
AcDbArc
 50
217.187626
 51
313.341758
  0
LINE
  5
2C4
100
AcDbEntity
  8
化粧台
  6
EXLTYPE2
 62
     6
100
AcDbLine
 10
2343.6
 20
1293.2
 30
0.0
 11
2348.34345
 21
1286.425651
 31
0.0
  0
LINE
  5
2C5
100
AcDbEntity
  8
化粧台
  6
EXLTYPE2
 62
     6
100
AcDbLine
 10
2348.34345
 20
1310.574349
 30
0.0
 11
2348.34345
 21
1286.425651
 31
0.0
  0
ARC
  5
2C6
100
AcDbEntity
  8
化粧台
  6
EXLTYPE2
 62
     6
100
AcDbCircle
 10
2381.75
 20
1327.2
 30
0.0
 40
11.0
100
AcDbArc
 50
326.944269
 51
33.055731
  0
LINE
  5
2C7
100
AcDbEntity
  8
化粧台
  6
EXLTYPE2
 62
     6
100
AcDbLine
 10
2390.969544
 20
1321.2
 30
0.0
 11
2369.030456
 21
1321.2
 31
0.0
  0
LINE
  5
2C8
100
AcDbEntity
  8
化粧台
  6
EXLTYPE2
 62
     6
100
AcDbLine
 10
2390.969544
 20
1333.2
 30
0.0
 11
2369.030456
 21
1333.2
 31
0.0
  0
ARC
  5
2C9
100
AcDbEntity
  8
化粧台
  6
EXLTYPE2
 62
     6
100
AcDbCircle
 10
2378.25
 20
1327.2
 30
0.0
 40
11.0
100
AcDbArc
 50
146.944269
 51
213.055731
  0
LINE
  5
2CA
100
AcDbEntity
  8
化粧台
  6
EXLTYPE2
 62
     6
100
AcDbLine
 10
2369.5
 20
1321.2
 30
0.0
 11
2369.5
 21
1318.0
 31
0.0
  0
LINE
  5
2CB
100
AcDbEntity
  8
化粧台
  6
EXLTYPE2
 62
     6
100
AcDbLine
 10
2390.5
 20
1321.2
 30
0.0
 11
2390.5
 21
1318.343135
 31
0.0
  0
LINE
  5
2CC
100
AcDbEntity
  8
化粧台
  6
EXLTYPE2
 62
     6
100
AcDbLine
 10
2338.0
 20
1293.75
 30
0.0
 11
2343.6
 21
1293.75
 31
0.0
  0
LINE
  5
2CD
100
AcDbEntity
  8
化粧台
  6
EXLTYPE2
 62
     6
100
AcDbLine
 10
2338.0
 20
1303.25
 30
0.0
 11
2343.6
 21
1303.25
 31
0.0
  0
LINE
  5
2CE
100
AcDbEntity
  8
化粧台
  6
EXLTYPE2
 62
     6
100
AcDbLine
 10
2338.0
 20
1303.25
 30
0.0
 11
2338.0
 21
1293.75
 31
0.0
  0
LINE
  5
2CF
100
AcDbEntity
  8
化粧台
  6
EXLTYPE3
 62
     6
100
AcDbLine
 10
2380.0
 20
1348.2
 30
0.0
 11
2380.0
 21
925.5
 31
0.0
  0
LINE
  5
2D0
100
AcDbEntity
  8
化粧台
  6
CONTINUOUS
 62
     6
100
AcDbLine
 10
2369.5
 20
952.0
 30
0.0
 11
2369.5
 21
940.5
 31
0.0
  0
LINE
  5
2D1
100
AcDbEntity
  8
化粧台
  6
CONTINUOUS
 62
     6
100
AcDbLine
 10
2390.5
 20
952.0
 30
0.0
 11
2390.5
 21
940.5
 31
0.0
  0
LINE
  5
2D2
100
AcDbEntity
  8
化粧台
  6
EXLTYPE2
 62
     6
100
AcDbLine
 10
2390.5
 20
1263.5
 30
0.0
 11
2390.5
 21
952.0
 31
0.0
  0
LINE
  5
2D3
100
AcDbEntity
  8
化粧台
  6
EXLTYPE2
 62
     6
100
AcDbLine
 10
2369.5
 20
1263.5
 30
0.0
 11
2369.5
 21
952.0
 31
0.0
  0
LINE
  5
2D4
100
AcDbEntity
  8
化粧台
  6
EXLTYPE2
 62
     6
100
AcDbLine
 10
2411.5
 20
1288.0
 30
0.0
 11
2473.0
 21
1288.0
 31
0.0
  0
LINE
  5
2D5
100
AcDbEntity
  8
化粧台
  6
EXLTYPE2
 62
     6
100
AcDbLine
 10
2411.5
 20
1309.0
 30
0.0
 11
2473.0
 21
1309.0
 31
0.0
  0
LINE
  5
2D6
100
AcDbEntity
  8
化粧台
  6
CONTINUOUS
 62
     6
100
AcDbLine
 10
2473.0
 20
1309.0
 30
0.0
 11
2473.0
 21
1288.0
 31
0.0
  0
LINE
  5
2D7
100
AcDbEntity
  8
化粧台
  6
EXLTYPE3
 62
     6
100
AcDbLine
 10
2328.0
 20
1298.5
 30
0.0
 11
2488.0
 21
1298.5
 31
0.0
  0
LINE
  5
2D8
100
AcDbEntity
  8
化粧台
  6
CONTINUOUS
 62
     2
100
AcDbLine
 10
2465.0
 20
1743.5
 30
0.0
 11
2465.0
 21
952.0
 31
0.0
  0
ARC
  5
2D9
100
AcDbEntity
  8
化粧台
  6
CONTINUOUS
 62
     2
100
AcDbCircle
 10
2065.0
 20
1618.5
 30
0.0
 40
5.0
100
AcDbArc
 50
270.0
 51
0.0
  0
LINE
  5
2DA
100
AcDbEntity
  8
化粧台
  6
CONTINUOUS
 62
     2
100
AcDbLine
 10
1985.456008
 20
1721.413822
 30
0.0
 11
2033.662244
 21
1616.413822
 31
0.0
  0
LINE
  5
2DB
100
AcDbEntity
  8
化粧台
  6
CONTINUOUS
 62
     2
100
AcDbLine
 10
2065.0
 20
1613.5
 30
0.0
 11
2038.206236
 21
1613.5
 31
0.0
  0
LINE
  5
2DC
100
AcDbEntity
  8
化粧台
  6
CONTINUOUS
 62
     2
100
AcDbLine
 10
2465.0
 20
1743.5
 30
0.0
 11
2445.385165
 21
1743.5
 31
0.0
  0
ARC
  5
2DD
100
AcDbEntity
  8
化粧台
  6
CONTINUOUS
 62
     2
100
AcDbCircle
 10
2445.385165
 20
1738.5
 30
0.0
 40
5.0
100
AcDbArc
 50
90.0
 51
158.198591
  0
LINE
  5
2DE
100
AcDbEntity
  8
化粧台
  6
CONTINUOUS
 62
     2
100
AcDbLine
 10
2440.742781
 20
1740.356953
 30
0.0
 11
2439.257219
 21
1736.643047
 31
0.0
  0
ARC
  5
2DF
100
AcDbEntity
  8
化粧台
  6
CONTINUOUS
 62
     2
100
AcDbCircle
 10
2434.614835
 20
1738.5
 30
0.0
 40
5.0
100
AcDbArc
 50
270.0
 51
338.198591
  0
ARC
  5
2E0
100
AcDbEntity
  8
化粧台
  6
CONTINUOUS
 62
     2
100
AcDbCircle
 10
1990.0
 20
1723.5
 30
0.0
 40
5.0
100
AcDbArc
 50
99.188024
 51
204.660187
  0
LINE
  5
2E1
100
AcDbEntity
  8
化粧台
  6
CONTINUOUS
 62
     2
100
AcDbLine
 10
2015.000783
 20
1732.608866
 30
0.0
 11
1989.201626
 21
1728.435848
 31
0.0
  0
LINE
  5
2E2
100
AcDbEntity
  8
化粧台
  6
CONTINUOUS
 62
     2
100
AcDbLine
 10
2070.0
 20
1668.5
 30
0.0
 11
2070.0
 21
1618.5
 31
0.0
  0
ARC
  5
2E3
100
AcDbEntity
  8
化粧台
  6
CONTINUOUS
 62
     2
100
AcDbCircle
 10
2080.0
 20
1668.5
 30
0.0
 40
10.0
100
AcDbArc
 50
90.0
 51
180.0
  0
LINE
  5
2E4
100
AcDbEntity
  8
化粧台
  6
CONTINUOUS
 62
     2
100
AcDbLine
 10
2434.614835
 20
1733.5
 30
0.0
 11
2026.09103
 21
1733.5
 31
0.0
  0
ARC
  5
2E5
100
AcDbEntity
  8
化粧台
  6
CONTINUOUS
 62
     2
100
AcDbCircle
 10
2038.206236
 20
1618.5
 30
0.0
 40
5.0
100
AcDbArc
 50
186.285124
 51
270.0
  0
LINE
  5
2E6
100
AcDbEntity
  8
化粧台
  6
CONTINUOUS
 62
     2
100
AcDbLine
 10
2021.121083
 20
1727.952619
 30
0.0
 11
2033.236289
 21
1617.952619
 31
0.0
  0
ARC
  5
2E7
100
AcDbEntity
  8
化粧台
  6
CONTINUOUS
 62
     2
100
AcDbCircle
 10
2026.09103
 20
1664.044818
 30
0.0
 40
69.455182
100
AcDbArc
 50
90.0
 51
99.188024
  0
ARC
  5
2E8
100
AcDbEntity
  8
化粧台
  6
CONTINUOUS
 62
     2
100
AcDbCircle
 10
2026.09103
 20
1728.5
 30
0.0
 40
5.0
100
AcDbArc
 50
90.0
 51
186.285124
  0
ARC
  5
2E9
100
AcDbEntity
  8
化粧台
  6
CONTINUOUS
 62
     6
100
AcDbCircle
 10
2078.0
 20
1631.438977
 30
0.0
 40
8.0
100
AcDbArc
 50
48.237442
 51
180.0
  0
ARC
  5
2EA
100
AcDbEntity
  8
化粧台
  6
EXLTYPE2
 62
     6
100
AcDbCircle
 10
2205.468301
 20
1567.372534
 30
0.0
 40
9.0
100
AcDbArc
 50
7.786183
 51
79.167881
  0
LINE
  5
2EB
100
AcDbEntity
  8
化粧台
  6
EXLTYPE2
 62
     6
100
AcDbLine
 10
2214.385325
 20
1568.591823
 30
0.0
 11
2217.908937
 21
1542.822617
 31
0.0
  0
ARC
  5
2EC
100
AcDbEntity
  8
化粧台
  6
EXLTYPE2
 62
     6
100
AcDbCircle
 10
2222.86284
 20
1543.5
 30
0.0
 40
5.0
100
AcDbArc
 50
187.786183
 51
270.0
  0
LINE
  5
2ED
100
AcDbEntity
  8
化粧台
  6
EXLTYPE2
 62
     6
100
AcDbLine
 10
2287.13716
 20
1538.5
 30
0.0
 11
2222.86284
 21
1538.5
 31
0.0
  0
ARC
  5
2EE
100
AcDbEntity
  8
化粧台
  6
EXLTYPE2
 62
     6
100
AcDbCircle
 10
2295.802606
 20
1538.509003
 30
0.0
 40
5.0
100
AcDbArc
 50
91.036711
 51
150.059546
  0
ARC
  5
2EF
100
AcDbEntity
  8
化粧台
  6
EXLTYPE2
 62
     6
100
AcDbCircle
 10
2287.13716
 20
1543.5
 30
0.0
 40
5.0
100
AcDbArc
 50
270.0
 51
330.059546
  0
ARC
  5
2F0
100
AcDbEntity
  8
化粧台
  6
EXLTYPE2
 62
     6
100
AcDbCircle
 10
2255.834059
 20
1830.597324
 30
0.0
 40
259.0
100
AcDbArc
 50
228.237442
 51
259.167881
  0
ARC
  5
2F1
100
AcDbEntity
  8
化粧台
  6
EXLTYPE2
 62
     6
100
AcDbCircle
 10
2294.807489
 20
1593.5
 30
0.0
 40
50.0
100
AcDbArc
 50
271.036711
 51
309.391198
  0
ARC
  5
2F2
100
AcDbEntity
  8
化粧台
  6
EXLTYPE2
 62
     6
100
AcDbCircle
 10
2338.113883
 20
1603.5
 30
0.0
 40
50.0
100
AcDbArc
 50
251.565051
 51
270.0
  0
LINE
  5
2F3
100
AcDbEntity
  8
化粧台
  6
EXLTYPE2
 62
     6
100
AcDbLine
 10
2125.711846
 20
1621.596051
 30
0.0
 11
2322.302495
 21
1556.065835
 31
0.0
  0
ARC
  5
2F4
100
AcDbEntity
  8
化粧台
  6
EXLTYPE2
 62
     6
100
AcDbCircle
 10
2128.874123
 20
1631.082884
 30
0.0
 40
10.0
100
AcDbArc
 50
189.462322
 51
251.565051
  0
LINE
  5
2F5
100
AcDbEntity
  8
化粧台
  6
EXLTYPE2
 62
     6
100
AcDbLine
 10
2110.833333
 20
1678.5
 30
0.0
 11
2119.010184
 21
1629.438894
 31
0.0
  0
LINE
  5
2F6
100
AcDbEntity
  8
化粧台
  6
EXLTYPE2
 62
     6
100
AcDbLine
 10
2455.0
 20
1553.5
 30
0.0
 11
2338.113883
 21
1553.5
 31
0.0
  0
ARC
  5
2F7
100
AcDbEntity
  8
化粧台
  6
EXLTYPE2
 62
     6
100
AcDbCircle
 10
2455.0
 20
1563.5
 30
0.0
 40
10.0
100
AcDbArc
 50
270.0
 51
0.0
  0
LINE
  5
2F8
100
AcDbEntity
  8
化粧台
  6
CONTINUOUS
 62
     2
100
AcDbLine
 10
2465.0
 20
1678.5
 30
0.0
 11
2080.0
 21
1678.5
 31
0.0
  0
LINE
  5
2F9
100
AcDbEntity
  8
化粧台
  6
CONTINUOUS
 62
     2
100
AcDbLine
 10
2075.0
 20
1677.160254
 30
0.0
 11
2075.0
 21
952.0
 31
0.0
  0
LINE
  5
2FA
100
AcDbEntity
  8
化粧台
  6
CONTINUOUS
 62
     6
100
AcDbLine
 10
2385.0
 20
1750.722388
 30
0.0
 11
2385.0
 21
1710.722388
 31
0.0
  0
LINE
  5
2FB
100
AcDbEntity
  8
化粧台
  6
EXLTYPE2
 62
     6
100
AcDbLine
 10
2373.0
 20
1553.5
 30
0.0
 11
2373.0
 21
1333.2
 31
0.0
  0
LINE
  5
2FC
100
AcDbEntity
  8
化粧台
  6
EXLTYPE2
 62
     6
100
AcDbLine
 10
2387.0
 20
1333.2
 30
0.0
 11
2387.0
 21
1553.5
 31
0.0
  0
LINE
  5
2FD
100
AcDbEntity
  8
化粧台
  6
CONTINUOUS
 62
     6
100
AcDbLine
 10
2329.0
 20
918.5
 30
0.0
 11
2361.0
 21
918.5
 31
0.0
  0
LINE
  5
2FE
100
AcDbEntity
  8
化粧台
  6
CONTINUOUS
 62
     6
100
AcDbLine
 10
2329.0
 20
918.5
 30
0.0
 11
2329.0
 21
952.0
 31
0.0
  0
LINE
  5
2FF
100
AcDbEntity
  8
化粧台
  6
CONTINUOUS
 62
     6
100
AcDbLine
 10
2361.0
 20
918.5
 30
0.0
 11
2361.0
 21
952.0
 31
0.0
  0
ARC
  5
300
100
AcDbEntity
  8
化粧台
  6
CONTINUOUS
 62
     6
100
AcDbCircle
 10
920.014
 20
3881.25
 30
0.0
 40
21.25
100
AcDbArc
 50
358.877826
 51
181.123
  0
ARC
  5
301
100
AcDbEntity
  8
化粧台
  6
CONTINUOUS
 62
     6
100
AcDbCircle
 10
920.0
 20
3801.134
 30
0.0
 40
22.5
100
AcDbArc
 50
236.399
 51
303.602455
  0
ARC
  5
302
100
AcDbEntity
  8
化粧台
  6
CONTINUOUS
 62
     6
100
AcDbCircle
 10
926.918
 20
3790.723
 30
0.0
 40
10.0
100
AcDbArc
 50
303.601
 51
355.495
  0
LINE
  5
303
100
AcDbEntity
  8
化粧台
  6
CONTINUOUS
 62
     6
100
AcDbLine
 10
965.167
 20
3867.896
 30
0.0
 11
966.67
 21
3870.5
 31
0.0
  0
ARC
  5
304
100
AcDbEntity
  8
化粧台
  6
CONTINUOUS
 62
     6
100
AcDbCircle
 10
968.47
 20
3865.617
 30
0.0
 40
4.0
100
AcDbArc
 50
84.72
 51
146.312
  0
ARC
  5
305
100
AcDbEntity
  8
化粧台
  6
CONTINUOUS
 62
     6
100
AcDbCircle
 10
992.651
 20
3855.5
 30
0.0
 40
30.0
100
AcDbArc
 50
133.896221
 51
150.001
  0
ARC
  5
306
100
AcDbEntity
  8
化粧台
  6
CONTINUOUS
 62
     6
100
AcDbCircle
 10
971.0
 20
3893.0
 30
0.0
 40
21.5
100
AcDbArc
 50
264.72
 51
312.657593
  0
ARC
  5
307
100
AcDbEntity
  8
化粧台
  6
CONTINUOUS
 62
     6
100
AcDbCircle
 10
971.0
 20
3893.0
 30
0.0
 40
23.5
100
AcDbArc
 50
264.72
 51
317.769121
  0
ARC
  5
308
100
AcDbEntity
  8
化粧台
  6
CONTINUOUS
 62
     6
100
AcDbCircle
 10
920.0
 20
3619.772
 30
0.0
 40
300.0
100
AcDbArc
 50
82.342877
 51
90.0
  0
CIRCLE
  5
309
100
AcDbEntity
  8
化粧台
  6
CONTINUOUS
 62
     6
100
AcDbCircle
 10
971.0
 20
3893.0
 30
0.0
 40
8.5
  0
ARC
  5
30A
100
AcDbEntity
  8
化粧台
  6
CONTINUOUS
 62
     6
100
AcDbCircle
 10
971.0
 20
3893.0
 30
0.0
 40
26.5
100
AcDbArc
 50
345.233
 51
0.0
  0
LINE
  5
30B
100
AcDbEntity
  8
化粧台
  6
CONTINUOUS
 62
     6
100
AcDbLine
 10
995.658
 20
3885.5
 30
0.0
 11
992.651
 21
3885.5
 31
0.0
  0
ARC
  5
30C
100
AcDbEntity
  8
化粧台
  6
CONTINUOUS
 62
     6
100
AcDbCircle
 10
995.658
 20
3886.5
 30
0.0
 40
1.0
100
AcDbArc
 50
270.0
 51
345.233
  0
ARC
  5
30D
100
AcDbEntity
  8
化粧台
  6
CONTINUOUS
 62
     6
100
AcDbCircle
 10
995.98
 20
3881.5
 30
0.0
 40
4.0
100
AcDbArc
 50
93.689
 51
155.281
  0
ARC
  5
30E
100
AcDbEntity
  8
化粧台
  6
CONTINUOUS
 62
     6
100
AcDbCircle
 10
995.98
 20
3904.5
 30
0.0
 40
4.0
100
AcDbArc
 50
204.721
 51
266.312
  0
ARC
  5
30F
100
AcDbEntity
  8
化粧台
  6
CONTINUOUS
 62
     6
100
AcDbCircle
 10
968.47
 20
3920.383
 30
0.0
 40
4.0
100
AcDbArc
 50
213.69
 51
275.28
  0
ARC
  5
310
100
AcDbEntity
  8
化粧台
  6
CONTINUOUS
 62
     6
100
AcDbCircle
 10
992.651
 20
3930.5
 30
0.0
 40
30.0
100
AcDbArc
 50
210.001
 51
270.0
  0
ARC
  5
311
100
AcDbEntity
  8
化粧台
  6
CONTINUOUS
 62
     6
100
AcDbCircle
 10
995.658
 20
3899.5
 30
0.0
 40
1.0
100
AcDbArc
 50
14.768
 51
90.0
  0
LINE
  5
312
100
AcDbEntity
  8
化粧台
  6
CONTINUOUS
 62
     6
100
AcDbLine
 10
995.658
 20
3900.5
 30
0.0
 11
992.651
 21
3900.5
 31
0.0
  0
ARC
  5
313
100
AcDbEntity
  8
化粧台
  6
CONTINUOUS
 62
     6
100
AcDbCircle
 10
964.301
 20
3917.604
 30
0.0
 40
1.0
100
AcDbArc
 50
30.0
 51
105.233
  0
LINE
  5
314
100
AcDbEntity
  8
化粧台
  6
CONTINUOUS
 62
     6
100
AcDbLine
 10
965.167
 20
3918.104
 30
0.0
 11
966.67
 21
3915.5
 31
0.0
  0
ARC
  5
315
100
AcDbEntity
  8
化粧台
  6
CONTINUOUS
 62
     6
100
AcDbCircle
 10
971.0
 20
3893.0
 30
0.0
 40
23.5
100
AcDbArc
 50
24.72
 51
95.281
  0
ARC
  5
316
100
AcDbEntity
  8
化粧台
  6
CONTINUOUS
 62
     6
100
AcDbCircle
 10
971.0
 20
3893.0
 30
0.0
 40
26.5
100
AcDbArc
 50
0.0
 51
14.768
  0
ARC
  5
317
100
AcDbEntity
  8
化粧台
  6
CONTINUOUS
 62
     6
100
AcDbCircle
 10
971.0
 20
3893.0
 30
0.0
 40
26.5
100
AcDbArc
 50
105.233
 51
120.001
  0
ARC
  5
318
100
AcDbEntity
  8
化粧台
  6
CONTINUOUS
 62
     6
100
AcDbCircle
 10
971.0
 20
3893.0
 30
0.0
 40
24.5
100
AcDbArc
 50
0.0
 51
14.768
  0
ARC
  5
319
100
AcDbEntity
  8
化粧台
  6
CONTINUOUS
 62
     6
100
AcDbCircle
 10
971.0
 20
3893.0
 30
0.0
 40
24.5
100
AcDbArc
 50
105.233
 51
120.001
  0
ARC
  5
31A
100
AcDbEntity
  8
化粧台
  6
CONTINUOUS
 62
     6
100
AcDbCircle
 10
971.0
 20
3893.0
 30
0.0
 40
21.5
100
AcDbArc
 50
24.72
 51
95.281
  0
ARC
  5
31B
100
AcDbEntity
  8
化粧台
  6
CONTINUOUS
 62
     6
100
AcDbCircle
 10
971.0
 20
3893.0
 30
0.0
 40
24.5
100
AcDbArc
 50
345.233
 51
0.0
  0
ARC
  5
31C
100
AcDbEntity
  8
化粧台
  6
CONTINUOUS
 62
     6
100
AcDbCircle
 10
971.0
 20
3893.0
 30
0.0
 40
21.5
100
AcDbArc
 50
312.657593
 51
335.281
  0
ARC
  5
31D
100
AcDbEntity
  8
化粧台
  6
CONTINUOUS
 62
     6
100
AcDbCircle
 10
971.0
 20
3893.0
 30
0.0
 40
23.5
100
AcDbArc
 50
317.769121
 51
335.281
  0
ARC
  5
31E
100
AcDbEntity
  8
化粧台
  6
CONTINUOUS
 62
     6
100
AcDbCircle
 10
992.651
 20
3855.5
 30
0.0
 40
30.0
100
AcDbArc
 50
90.0
 51
133.896221
  0
ARC
  5
31F
100
AcDbEntity
  8
化粧台
  6
CONTINUOUS
 62
     6
100
AcDbCircle
 10
-558.48
 20
3907.745
 30
0.0
 40
1500.0
100
AcDbArc
 50
355.491781
 51
357.300464
  0
ARC
  5
320
100
AcDbEntity
  8
化粧台
  6
CONTINUOUS
 62
     6
100
AcDbCircle
 10
950.695
 20
3857.819
 30
0.0
 40
10.0
100
AcDbArc
 50
95.97
 51
178.105
  0
ARC
  5
321
100
AcDbEntity
  8
化粧台
  6
CONTINUOUS
 62
     6
100
AcDbCircle
 10
910.133
 20
4245.704
 30
0.0
 40
380.0
100
AcDbArc
 50
275.97
 51
277.515121
  0
ARC
  5
322
100
AcDbEntity
  8
化粧台
  6
CONTINUOUS
 62
     6
100
AcDbCircle
 10
971.0
 20
3893.0
 30
0.0
 40
26.5
100
AcDbArc
 50
240.0
 51
254.768
  0
ARC
  5
323
100
AcDbEntity
  8
化粧台
  6
CONTINUOUS
 62
     6
100
AcDbCircle
 10
964.301
 20
3868.396
 30
0.0
 40
1.0
100
AcDbArc
 50
254.768
 51
330.0
  0
ARC
  5
324
100
AcDbEntity
  8
化粧台
  6
CONTINUOUS
 62
     6
100
AcDbCircle
 10
953.042
 20
3874.896
 30
0.0
 40
1.0
100
AcDbArc
 50
150.001
 51
225.233
  0
ARC
  5
325
100
AcDbEntity
  8
化粧台
  6
CONTINUOUS
 62
     6
100
AcDbCircle
 10
971.0
 20
3893.0
 30
0.0
 40
26.5
100
AcDbArc
 50
225.233
 51
240.0
  0
ARC
  5
326
100
AcDbEntity
  8
化粧台
  6
CONTINUOUS
 62
     6
100
AcDbCircle
 10
971.0
 20
3893.0
 30
0.0
 40
24.5
100
AcDbArc
 50
225.233
 51
240.0
  0
ARC
  5
327
100
AcDbEntity
  8
化粧台
  6
CONTINUOUS
 62
     6
100
AcDbCircle
 10
971.0
 20
3893.0
 30
0.0
 40
24.5
100
AcDbArc
 50
240.0
 51
254.768
  0
ARC
  5
328
100
AcDbEntity
  8
化粧台
  6
CONTINUOUS
 62
     6
100
AcDbCircle
 10
948.551
 20
3877.117
 30
0.0
 40
4.0
100
AcDbArc
 50
333.689
 51
358.989629
  0
LINE
  5
329
100
AcDbEntity
  8
化粧台
  6
CONTINUOUS
 62
     6
100
AcDbLine
 10
952.176
 20
3875.396
 30
0.0
 11
953.13023
 21
3877.048137
 31
0.0
  0
ARC
  5
32A
100
AcDbEntity
  8
化粧台
  6
CONTINUOUS
 62
     6
100
AcDbCircle
 10
920.015
 20
3881.25
 30
0.0
 40
21.25
100
AcDbArc
 50
90.0
 51
90.038
  0
ARC
  5
32B
100
AcDbEntity
  8
化粧台
  6
CONTINUOUS
 62
     6
100
AcDbCircle
 10
948.551
 20
3908.883
 30
0.0
 40
4.0
100
AcDbArc
 50
324.72
 51
26.312
  0
ARC
  5
32C
100
AcDbEntity
  8
化粧台
  6
CONTINUOUS
 62
     6
100
AcDbCircle
 10
927.699
 20
3893.0
 30
0.0
 40
30.0
100
AcDbArc
 50
330.001
 51
30.0
  0
ARC
  5
32D
100
AcDbEntity
  8
化粧台
  6
CONTINUOUS
 62
     6
100
AcDbCircle
 10
953.042
 20
3911.104
 30
0.0
 40
1.0
100
AcDbArc
 50
134.768
 51
210.001
  0
LINE
  5
32E
100
AcDbEntity
  8
化粧台
  6
CONTINUOUS
 62
     6
100
AcDbLine
 10
952.176
 20
3910.604
 30
0.0
 11
953.68
 21
3908.0
 31
0.0
  0
ARC
  5
32F
100
AcDbEntity
  8
化粧台
  6
CONTINUOUS
 62
     6
100
AcDbCircle
 10
971.0
 20
3893.0
 30
0.0
 40
26.5
100
AcDbArc
 50
120.001
 51
134.768
  0
ARC
  5
330
100
AcDbEntity
  8
化粧台
  6
CONTINUOUS
 62
     6
100
AcDbCircle
 10
971.0
 20
3893.0
 30
0.0
 40
24.5
100
AcDbArc
 50
120.001
 51
134.768
  0
ARC
  5
331
100
AcDbEntity
  8
化粧台
  6
CONTINUOUS
 62
     6
100
AcDbCircle
 10
971.0
 20
3893.0
 30
0.0
 40
21.5
100
AcDbArc
 50
144.721
 51
215.281
  0
ARC
  5
332
100
AcDbEntity
  8
化粧台
  6
CONTINUOUS
 62
     6
100
AcDbCircle
 10
971.0
 20
3893.0
 30
0.0
 40
23.5
100
AcDbArc
 50
144.721
 51
215.281
  0
ARC
  5
333
100
AcDbEntity
  8
化粧台
  6
CONTINUOUS
 62
     6
100
AcDbCircle
 10
948.551
 20
3877.117
 30
0.0
 40
4.0
100
AcDbArc
 50
358.989629
 51
35.28
  0
LINE
  5
334
100
AcDbEntity
  8
化粧台
  6
CONTINUOUS
 62
     6
100
AcDbLine
 10
953.13023
 20
3877.048137
 30
0.0
 11
953.68
 21
3878.0
 31
0.0
  0
ARC
  5
335
100
AcDbEntity
  8
化粧台
  6
CONTINUOUS
 62
     6
100
AcDbCircle
 10
-558.48
 20
3907.745
 30
0.0
 40
1500.0
100
AcDbArc
 50
358.826299
 51
358.972
  0
ARC
  5
336
100
AcDbEntity
  8
化粧台
  6
CONTINUOUS
 62
     6
100
AcDbCircle
 10
-558.48
 20
3907.745
 30
0.0
 40
1500.0
100
AcDbArc
 50
357.300464
 51
358.826299
  0
ARC
  5
337
100
AcDbEntity
  8
化粧台
  6
CONTINUOUS
 62
     6
100
AcDbCircle
 10
2398.48
 20
3907.745
 30
0.0
 40
1500.0
100
AcDbArc
 50
181.173701
 51
182.699561
  0
ARC
  5
338
100
AcDbEntity
  8
化粧台
  6
CONTINUOUS
 62
     6
100
AcDbCircle
 10
890.651
 20
3855.5
 30
0.0
 40
30.0
100
AcDbArc
 50
90.0
 51
133.917078
  0
ARC
  5
339
100
AcDbEntity
  8
化粧台
  6
CONTINUOUS
 62
     6
100
AcDbCircle
 10
869.0
 20
3893.0
 30
0.0
 40
21.5
100
AcDbArc
 50
312.144275
 51
335.281
  0
ARC
  5
33A
100
AcDbEntity
  8
化粧台
  6
CONTINUOUS
 62
     6
100
AcDbCircle
 10
869.0
 20
3893.0
 30
0.0
 40
23.5
100
AcDbArc
 50
317.255803
 51
335.281
  0
ARC
  5
33B
100
AcDbEntity
  8
化粧台
  6
CONTINUOUS
 62
     6
100
AcDbCircle
 10
2398.48
 20
3907.745
 30
0.0
 40
1500.0
100
AcDbArc
 50
181.028
 51
181.173701
  0
ARC
  5
33C
100
AcDbEntity
  8
化粧台
  6
CONTINUOUS
 62
     6
100
AcDbCircle
 10
869.0
 20
3893.0
 30
0.0
 40
24.5
100
AcDbArc
 50
345.233
 51
0.0
  0
ARC
  5
33D
100
AcDbEntity
  8
化粧台
  6
CONTINUOUS
 62
     6
100
AcDbCircle
 10
869.0
 20
3893.0
 30
0.0
 40
21.5
100
AcDbArc
 50
24.72
 51
95.281
  0
ARC
  5
33E
100
AcDbEntity
  8
化粧台
  6
CONTINUOUS
 62
     6
100
AcDbCircle
 10
869.0
 20
3893.0
 30
0.0
 40
24.5
100
AcDbArc
 50
0.0
 51
14.768
  0
ARC
  5
33F
100
AcDbEntity
  8
化粧台
  6
CONTINUOUS
 62
     6
100
AcDbCircle
 10
869.0
 20
3893.0
 30
0.0
 40
26.5
100
AcDbArc
 50
0.0
 51
14.768
  0
LINE
  5
340
100
AcDbEntity
  8
化粧台
  6
CONTINUOUS
 62
     6
100
AcDbLine
 10
893.658
 20
3900.5
 30
0.0
 11
890.651
 21
3900.5
 31
0.0
  0
ARC
  5
341
100
AcDbEntity
  8
化粧台
  6
CONTINUOUS
 62
     6
100
AcDbCircle
 10
893.658
 20
3899.5
 30
0.0
 40
1.0
100
AcDbArc
 50
14.768
 51
90.0
  0
ARC
  5
342
100
AcDbEntity
  8
化粧台
  6
CONTINUOUS
 62
     6
100
AcDbCircle
 10
893.98
 20
3904.5
 30
0.0
 40
4.0
100
AcDbArc
 50
204.721
 51
266.312
  0
ARC
  5
343
100
AcDbEntity
  8
化粧台
  6
CONTINUOUS
 62
     6
100
AcDbCircle
 10
893.98
 20
3881.5
 30
0.0
 40
4.0
100
AcDbArc
 50
93.689
 51
155.281
  0
ARC
  5
344
100
AcDbEntity
  8
化粧台
  6
CONTINUOUS
 62
     6
100
AcDbCircle
 10
893.658
 20
3886.5
 30
0.0
 40
1.0
100
AcDbArc
 50
270.0
 51
345.233
  0
LINE
  5
345
100
AcDbEntity
  8
化粧台
  6
CONTINUOUS
 62
     6
100
AcDbLine
 10
893.658
 20
3885.5
 30
0.0
 11
890.651
 21
3885.5
 31
0.0
  0
ARC
  5
346
100
AcDbEntity
  8
化粧台
  6
CONTINUOUS
 62
     6
100
AcDbCircle
 10
869.0
 20
3893.0
 30
0.0
 40
26.5
100
AcDbArc
 50
345.233
 51
0.0
  0
ARC
  5
347
100
AcDbEntity
  8
化粧台
  6
CONTINUOUS
 62
     6
100
AcDbCircle
 10
869.0
 20
3893.0
 30
0.0
 40
21.5
100
AcDbArc
 50
264.72
 51
312.144275
  0
ARC
  5
348
100
AcDbEntity
  8
化粧台
  6
CONTINUOUS
 62
     6
100
AcDbCircle
 10
889.306
 20
3857.819
 30
0.0
 40
10.0
100
AcDbArc
 50
1.895
 51
84.03
  0
ARC
  5
349
100
AcDbEntity
  8
化粧台
  6
CONTINUOUS
 62
     6
100
AcDbCircle
 10
929.867
 20
4245.704
 30
0.0
 40
380.0
100
AcDbArc
 50
261.457589
 51
264.03
  0
ARC
  5
34A
100
AcDbEntity
  8
化粧台
  6
CONTINUOUS
 62
     6
100
AcDbCircle
 10
2398.48
 20
3907.745
 30
0.0
 40
1500.0
100
AcDbArc
 50
182.699561
 51
184.508219
  0
ARC
  5
34B
100
AcDbEntity
  8
化粧台
  6
CONTINUOUS
 62
     6
100
AcDbCircle
 10
846.551
 20
3877.117
 30
0.0
 40
4.0
100
AcDbArc
 50
1.354205
 51
35.28
  0
LINE
  5
34C
100
AcDbEntity
  8
化粧台
  6
CONTINUOUS
 62
     6
100
AcDbLine
 10
851.222248
 20
3877.207457
 30
0.0
 11
851.68
 21
3878.0
 31
0.0
  0
ARC
  5
34D
100
AcDbEntity
  8
化粧台
  6
CONTINUOUS
 62
     6
100
AcDbCircle
 10
869.0
 20
3893.0
 30
0.0
 40
21.5
100
AcDbArc
 50
144.721
 51
215.281
  0
ARC
  5
34E
100
AcDbEntity
  8
化粧台
  6
CONTINUOUS
 62
     6
100
AcDbCircle
 10
869.0
 20
3893.0
 30
0.0
 40
23.5
100
AcDbArc
 50
144.721
 51
215.281
  0
ARC
  5
34F
100
AcDbEntity
  8
化粧台
  6
CONTINUOUS
 62
     6
100
AcDbCircle
 10
869.0
 20
3893.0
 30
0.0
 40
24.5
100
AcDbArc
 50
105.233
 51
120.001
  0
ARC
  5
350
100
AcDbEntity
  8
化粧台
  6
CONTINUOUS
 62
     6
100
AcDbCircle
 10
869.0
 20
3893.0
 30
0.0
 40
26.5
100
AcDbArc
 50
105.233
 51
120.001
  0
ARC
  5
351
100
AcDbEntity
  8
化粧台
  6
CONTINUOUS
 62
     6
100
AcDbCircle
 10
869.0
 20
3893.0
 30
0.0
 40
23.5
100
AcDbArc
 50
24.72
 51
95.281
  0
LINE
  5
352
100
AcDbEntity
  8
化粧台
  6
CONTINUOUS
 62
     6
100
AcDbLine
 10
863.167
 20
3918.104
 30
0.0
 11
864.67
 21
3915.5
 31
0.0
  0
ARC
  5
353
100
AcDbEntity
  8
化粧台
  6
CONTINUOUS
 62
     6
100
AcDbCircle
 10
862.301
 20
3917.604
 30
0.0
 40
1.0
100
AcDbArc
 50
30.0
 51
105.233
  0
ARC
  5
354
100
AcDbEntity
  8
化粧台
  6
CONTINUOUS
 62
     6
100
AcDbCircle
 10
890.651
 20
3930.5
 30
0.0
 40
30.0
100
AcDbArc
 50
210.001
 51
270.0
  0
ARC
  5
355
100
AcDbEntity
  8
化粧台
  6
CONTINUOUS
 62
     6
100
AcDbCircle
 10
869.0
 20
3893.0
 30
0.0
 40
24.5
100
AcDbArc
 50
120.001
 51
134.768
  0
ARC
  5
356
100
AcDbEntity
  8
化粧台
  6
CONTINUOUS
 62
     6
100
AcDbCircle
 10
869.0
 20
3893.0
 30
0.0
 40
26.5
100
AcDbArc
 50
120.001
 51
134.768
  0
LINE
  5
357
100
AcDbEntity
  8
化粧台
  6
CONTINUOUS
 62
     6
100
AcDbLine
 10
850.176
 20
3910.604
 30
0.0
 11
851.68
 21
3908.0
 31
0.0
  0
ARC
  5
358
100
AcDbEntity
  8
化粧台
  6
CONTINUOUS
 62
     6
100
AcDbCircle
 10
851.042
 20
3911.104
 30
0.0
 40
1.0
100
AcDbArc
 50
134.768
 51
210.001
  0
ARC
  5
359
100
AcDbEntity
  8
化粧台
  6
CONTINUOUS
 62
     6
100
AcDbCircle
 10
825.699
 20
3893.0
 30
0.0
 40
30.0
100
AcDbArc
 50
330.001
 51
30.0
  0
ARC
  5
35A
100
AcDbEntity
  8
化粧台
  6
CONTINUOUS
 62
     6
100
AcDbCircle
 10
846.551
 20
3908.883
 30
0.0
 40
4.0
100
AcDbArc
 50
324.72
 51
26.312
  0
ARC
  5
35B
100
AcDbEntity
  8
化粧台
  6
CONTINUOUS
 62
     6
100
AcDbCircle
 10
866.47
 20
3920.383
 30
0.0
 40
4.0
100
AcDbArc
 50
213.69
 51
275.28
  0
CIRCLE
  5
35C
100
AcDbEntity
  8
化粧台
  6
CONTINUOUS
 62
     6
100
AcDbCircle
 10
869.0
 20
3893.0
 30
0.0
 40
8.5
  0
ARC
  5
35D
100
AcDbEntity
  8
化粧台
  6
CONTINUOUS
 62
     6
100
AcDbCircle
 10
920.0
 20
3619.772
 30
0.0
 40
300.0
100
AcDbArc
 50
90.0
 51
98.962027
  0
ARC
  5
35E
100
AcDbEntity
  8
化粧台
  6
CONTINUOUS
 62
     6
100
AcDbCircle
 10
846.551
 20
3877.117
 30
0.0
 40
4.0
100
AcDbArc
 50
333.689
 51
1.354205
  0
LINE
  5
35F
100
AcDbEntity
  8
化粧台
  6
CONTINUOUS
 62
     6
100
AcDbLine
 10
850.176
 20
3875.396
 30
0.0
 11
851.222248
 21
3877.207457
 31
0.0
  0
ARC
  5
360
100
AcDbEntity
  8
化粧台
  6
CONTINUOUS
 62
     6
100
AcDbCircle
 10
890.651
 20
3855.5
 30
0.0
 40
30.0
100
AcDbArc
 50
133.917078
 51
150.001
  0
ARC
  5
361
100
AcDbEntity
  8
化粧台
  6
CONTINUOUS
 62
     6
100
AcDbCircle
 10
869.0
 20
3893.0
 30
0.0
 40
23.5
100
AcDbArc
 50
264.72
 51
317.255803
  0
ARC
  5
362
100
AcDbEntity
  8
化粧台
  6
CONTINUOUS
 62
     6
100
AcDbCircle
 10
866.47
 20
3865.617
 30
0.0
 40
4.0
100
AcDbArc
 50
84.72
 51
146.312
  0
ARC
  5
363
100
AcDbEntity
  8
化粧台
  6
CONTINUOUS
 62
     6
100
AcDbCircle
 10
862.301
 20
3868.396
 30
0.0
 40
1.0
100
AcDbArc
 50
254.768
 51
330.0
  0
LINE
  5
364
100
AcDbEntity
  8
化粧台
  6
CONTINUOUS
 62
     6
100
AcDbLine
 10
863.167
 20
3867.896
 30
0.0
 11
864.67
 21
3870.5
 31
0.0
  0
ARC
  5
365
100
AcDbEntity
  8
化粧台
  6
CONTINUOUS
 62
     6
100
AcDbCircle
 10
869.0
 20
3893.0
 30
0.0
 40
26.5
100
AcDbArc
 50
240.0
 51
254.768
  0
ARC
  5
366
100
AcDbEntity
  8
化粧台
  6
CONTINUOUS
 62
     6
100
AcDbCircle
 10
869.0
 20
3893.0
 30
0.0
 40
24.5
100
AcDbArc
 50
240.0
 51
254.768
  0
ARC
  5
367
100
AcDbEntity
  8
化粧台
  6
CONTINUOUS
 62
     6
100
AcDbCircle
 10
869.0
 20
3893.0
 30
0.0
 40
24.5
100
AcDbArc
 50
225.233
 51
240.0
  0
ARC
  5
368
100
AcDbEntity
  8
化粧台
  6
CONTINUOUS
 62
     6
100
AcDbCircle
 10
869.0
 20
3893.0
 30
0.0
 40
26.5
100
AcDbArc
 50
225.233
 51
240.0
  0
ARC
  5
369
100
AcDbEntity
  8
化粧台
  6
CONTINUOUS
 62
     6
100
AcDbCircle
 10
851.042
 20
3874.896
 30
0.0
 40
1.0
100
AcDbArc
 50
150.001
 51
225.233
  0
ARC
  5
36A
100
AcDbEntity
  8
化粧台
  6
CONTINUOUS
 62
     6
100
AcDbCircle
 10
913.082
 20
3790.723
 30
0.0
 40
10.0
100
AcDbArc
 50
184.505
 51
236.399
  0
LINE
  5
36B
100
AcDbEntity
  8
化粧台
  6
CONTINUOUS
 62
     6
100
AcDbLine
 10
849.0
 20
1730.722388
 30
0.0
 11
849.0
 21
1748.478388
 31
0.0
  0
LINE
  5
36C
100
AcDbEntity
  8
化粧台
  6
CONTINUOUS
 62
     6
100
AcDbLine
 10
899.89
 20
1730.722388
 30
0.0
 11
900.058
 21
1737.478388
 31
0.0
  0
LINE
  5
36D
100
AcDbEntity
  8
化粧台
  6
CONTINUOUS
 62
     6
100
AcDbLine
 10
900.058
 20
1737.478388
 30
0.0
 11
901.322
 21
1767.370388
 31
0.0
  0
LINE
  5
36E
100
AcDbEntity
  8
化粧台
  6
CONTINUOUS
 62
     6
100
AcDbLine
 10
939.943
 20
1737.478388
 30
0.0
 11
938.679
 21
1767.370388
 31
0.0
  0
LINE
  5
36F
100
AcDbEntity
  8
化粧台
  6
CONTINUOUS
 62
     6
100
AcDbLine
 10
940.111
 20
1730.722388
 30
0.0
 11
939.943
 21
1737.478388
 31
0.0
  0
LINE
  5
370
100
AcDbEntity
  8
化粧台
  6
CONTINUOUS
 62
     6
100
AcDbLine
 10
991.0
 20
1730.722388
 30
0.0
 11
991.0
 21
1748.478388
 31
0.0
  0
ARC
  5
371
100
AcDbEntity
  8
化粧台
  6
CONTINUOUS
 62
     6
100
AcDbCircle
 10
888.501
 20
1761.619388
 30
0.0
 40
4.0
100
AcDbArc
 50
180.0
 51
274.705
  0
LINE
  5
372
100
AcDbEntity
  8
化粧台
  6
CONTINUOUS
 62
     6
100
AcDbLine
 10
853.501
 20
1761.722388
 30
0.0
 11
853.501
 21
1755.978388
 31
0.0
  0
ARC
  5
373
100
AcDbEntity
  8
化粧台
  6
CONTINUOUS
 62
     6
100
AcDbCircle
 10
853.5
 20
1748.478388
 30
0.0
 40
4.5
100
AcDbArc
 50
100.201
 51
180.0
  0
ARC
  5
374
100
AcDbEntity
  8
化粧台
  6
CONTINUOUS
 62
     6
100
AcDbCircle
 10
849.501
 20
1755.978388
 30
0.0
 40
4.0
100
AcDbArc
 50
298.07
 51
0.0
  0
ARC
  5
375
100
AcDbEntity
  8
化粧台
  6
CONTINUOUS
 62
     6
100
AcDbCircle
 10
920.0
 20
1378.914388
 30
0.0
 40
380.0
100
AcDbArc
 50
94.206
 51
100.201
  0
ARC
  5
376
100
AcDbEntity
  8
化粧台
  6
CONTINUOUS
 62
     6
100
AcDbCircle
 10
986.5
 20
1748.478388
 30
0.0
 40
4.5
100
AcDbArc
 50
0.0
 51
79.799
  0
ARC
  5
377
100
AcDbEntity
  8
化粧台
  6
CONTINUOUS
 62
     6
100
AcDbCircle
 10
995.938
 20
1763.222388
 30
0.0
 40
1.5
100
AcDbArc
 50
270.0
 51
2.337
  0
LINE
  5
378
100
AcDbEntity
  8
化粧台
  6
CONTINUOUS
 62
     6
100
AcDbLine
 10
995.938
 20
1761.722388
 30
0.0
 11
971.0
 21
1761.722388
 31
0.0
  0
ARC
  5
379
100
AcDbEntity
  8
化粧台
  6
CONTINUOUS
 62
     6
100
AcDbCircle
 10
985.875
 20
1801.340388
 30
0.0
 40
10.0
100
AcDbArc
 50
2.337
 51
87.06
  0
LINE
  5
37A
100
AcDbEntity
  8
化粧台
  6
CONTINUOUS
 62
     6
100
AcDbLine
 10
995.866
 20
1801.748388
 30
0.0
 11
997.436
 21
1763.283388
 31
0.0
  0
LINE
  5
37B
100
AcDbEntity
  8
化粧台
  6
CONTINUOUS
 62
     6
100
AcDbLine
 10
869.001
 20
1811.641388
 30
0.0
 11
860.501
 21
1811.641388
 31
0.0
  0
LINE
  5
37C
100
AcDbEntity
  8
化粧台
  6
CONTINUOUS
 62
     6
100
AcDbLine
 10
860.501
 20
1811.641388
 30
0.0
 11
860.501
 21
1812.490388
 31
0.0
  0
ARC
  5
37D
100
AcDbEntity
  8
化粧台
  6
CONTINUOUS
 62
     6
100
AcDbCircle
 10
869.001
 20
1763.641388
 30
0.0
 40
50.0
100
AcDbArc
 50
90.0
 51
99.302
  0
ARC
  5
37E
100
AcDbEntity
  8
化粧台
  6
CONTINUOUS
 62
     6
100
AcDbCircle
 10
861.001
 20
1812.490388
 30
0.0
 40
0.5
100
AcDbArc
 50
99.302
 51
180.002
  0
ARC
  5
37F
100
AcDbEntity
  8
化粧台
  6
CONTINUOUS
 62
     6
100
AcDbCircle
 10
869.001
 20
1511.722388
 30
0.0
 40
300.0
100
AcDbArc
 50
91.374
 51
92.185
  0
LINE
  5
380
100
AcDbEntity
  8
化粧台
  6
CONTINUOUS
 62
     6
100
AcDbLine
 10
847.119
 20
1802.163388
 30
0.0
 11
845.563
 21
1763.282388
 31
0.0
  0
LINE
  5
381
100
AcDbEntity
  8
化粧台
  6
CONTINUOUS
 62
     6
100
AcDbLine
 10
847.062
 20
1761.722388
 30
0.0
 11
869.001
 21
1761.722388
 31
0.0
  0
ARC
  5
382
100
AcDbEntity
  8
化粧台
  6
CONTINUOUS
 62
     6
100
AcDbCircle
 10
847.062
 20
1763.222388
 30
0.0
 40
1.5
100
AcDbArc
 50
177.712
 51
270.0
  0
ARC
  5
383
100
AcDbEntity
  8
化粧台
  6
CONTINUOUS
 62
     6
100
AcDbCircle
 10
883.876
 20
1801.340388
 30
0.0
 40
10.0
100
AcDbArc
 50
2.337
 51
87.06
  0
LINE
  5
384
100
AcDbEntity
  8
化粧台
  6
CONTINUOUS
 62
     6
100
AcDbLine
 10
893.939
 20
1761.722388
 30
0.0
 11
869.001
 21
1761.722388
 31
0.0
  0
ARC
  5
385
100
AcDbEntity
  8
化粧台
  6
CONTINUOUS
 62
     6
100
AcDbCircle
 10
857.799
 20
1805.508388
 30
0.0
 40
6.0
100
AcDbArc
 50
92.185
 51
177.711
  0
ARC
  5
386
100
AcDbEntity
  8
化粧台
  6
CONTINUOUS
 62
     6
100
AcDbCircle
 10
851.604
 20
1763.222388
 30
0.0
 40
1.5
100
AcDbArc
 50
177.711
 51
270.0
  0
ARC
  5
387
100
AcDbEntity
  8
化粧台
  6
CONTINUOUS
 62
     6
100
AcDbCircle
 10
854.113
 20
1801.883388
 30
0.0
 40
7.0
100
AcDbArc
 50
101.232
 51
177.712
  0
LINE
  5
388
100
AcDbEntity
  8
化粧台
  6
CONTINUOUS
 62
     6
100
AcDbLine
 10
850.105
 20
1763.282388
 30
0.0
 11
851.804
 21
1805.748388
 31
0.0
  0
LINE
  5
389
100
AcDbEntity
  8
化粧台
  6
CONTINUOUS
 62
     6
100
AcDbLine
 10
853.502
 20
1761.619388
 30
0.0
 11
853.502
 21
1761.722388
 31
0.0
  0
ARC
  5
38A
100
AcDbEntity
  8
化粧台
  6
CONTINUOUS
 62
     6
100
AcDbCircle
 10
868.797
 20
1806.722388
 30
0.0
 40
5.0
100
AcDbArc
 50
100.643
 51
179.014
  0
ARC
  5
38B
100
AcDbEntity
  8
化粧台
  6
CONTINUOUS
 62
     6
100
AcDbCircle
 10
880.679
 20
1801.487388
 30
0.0
 40
10.0
100
AcDbArc
 50
2.337
 51
87.692
  0
ARC
  5
38C
100
AcDbEntity
  8
化粧台
  6
CONTINUOUS
 62
     6
100
AcDbCircle
 10
864.038
 20
1762.722388
 30
0.0
 40
1.0
100
AcDbArc
 50
179.014
 51
270.0
  0
LINE
  5
38D
100
AcDbEntity
  8
化粧台
  6
CONTINUOUS
 62
     6
100
AcDbLine
 10
863.038
 20
1762.739388
 30
0.0
 11
863.798
 21
1806.808388
 31
0.0
  0
ARC
  5
38E
100
AcDbEntity
  8
化粧台
  6
CONTINUOUS
 62
     6
100
AcDbCircle
 10
877.001
 20
1812.490388
 30
0.0
 40
0.5
100
AcDbArc
 50
0.0
 51
80.699
  0
ARC
  5
38F
100
AcDbEntity
  8
化粧台
  6
CONTINUOUS
 62
     6
100
AcDbCircle
 10
869.001
 20
1763.641388
 30
0.0
 40
50.0
100
AcDbArc
 50
80.699
 51
90.0
  0
LINE
  5
390
100
AcDbEntity
  8
化粧台
  6
CONTINUOUS
 62
     6
100
AcDbLine
 10
877.501
 20
1811.641388
 30
0.0
 11
877.501
 21
1812.490388
 31
0.0
  0
LINE
  5
391
100
AcDbEntity
  8
化粧台
  6
CONTINUOUS
 62
     6
100
AcDbLine
 10
869.001
 20
1811.641388
 30
0.0
 11
877.501
 21
1811.641388
 31
0.0
  0
ARC
  5
392
100
AcDbEntity
  8
化粧台
  6
CONTINUOUS
 62
     6
100
AcDbCircle
 10
869.001
 20
1511.722388
 30
0.0
 40
300.0
100
AcDbArc
 50
87.06
 51
88.627
  0
ARC
  5
393
100
AcDbEntity
  8
化粧台
  6
CONTINUOUS
 62
     6
100
AcDbCircle
 10
982.678
 20
1801.487388
 30
0.0
 40
10.0
100
AcDbArc
 50
2.337
 51
87.692
  0
LINE
  5
394
100
AcDbEntity
  8
化粧台
  6
CONTINUOUS
 62
     6
100
AcDbLine
 10
994.245
 20
1763.283388
 30
0.0
 11
992.681
 21
1801.618388
 31
0.0
  0
ARC
  5
395
100
AcDbEntity
  8
化粧台
  6
CONTINUOUS
 62
     6
100
AcDbCircle
 10
992.747
 20
1763.222388
 30
0.0
 40
1.5
100
AcDbArc
 50
270.0
 51
2.337
  0
LINE
  5
396
100
AcDbEntity
  8
化粧台
  6
CONTINUOUS
 62
     6
100
AcDbLine
 10
989.512
 20
1801.489388
 30
0.0
 11
991.135
 21
1761.722388
 31
0.0
  0
ARC
  5
397
100
AcDbEntity
  8
化粧台
  6
CONTINUOUS
 62
     6
100
AcDbCircle
 10
982.502
 20
1801.594388
 30
0.0
 40
7.0
100
AcDbArc
 50
2.337
 51
90.0
  0
LINE
  5
398
100
AcDbEntity
  8
化粧台
  6
CONTINUOUS
 62
     6
100
AcDbLine
 10
887.513
 20
1801.489388
 30
0.0
 11
889.136
 21
1761.722388
 31
0.0
  0
ARC
  5
399
100
AcDbEntity
  8
化粧台
  6
CONTINUOUS
 62
     6
100
AcDbCircle
 10
880.503
 20
1801.594388
 30
0.0
 40
7.0
100
AcDbArc
 50
2.337
 51
90.0
  0
LINE
  5
39A
100
AcDbEntity
  8
化粧台
  6
CONTINUOUS
 62
     6
100
AcDbLine
 10
870.346
 20
1808.594388
 30
0.0
 11
880.503
 21
1808.594388
 31
0.0
  0
ARC
  5
39B
100
AcDbEntity
  8
化粧台
  6
CONTINUOUS
 62
     6
100
AcDbCircle
 10
870.346
 20
1803.594388
 30
0.0
 40
5.0
100
AcDbArc
 50
90.0
 51
178.664
  0
LINE
  5
39C
100
AcDbEntity
  8
化粧台
  6
CONTINUOUS
 62
     6
100
AcDbLine
 10
865.348
 20
1803.711388
 30
0.0
 11
864.367
 21
1761.722388
 31
0.0
  0
LINE
  5
39D
100
AcDbEntity
  8
化粧台
  6
CONTINUOUS
 62
     6
100
AcDbLine
 10
909.0
 20
1773.774388
 30
0.0
 11
909.0
 21
1782.628388
 31
0.0
  0
ARC
  5
39E
100
AcDbEntity
  8
化粧台
  6
CONTINUOUS
 62
     6
100
AcDbCircle
 10
891.397
 20
1767.863388
 30
0.0
 40
10.0
100
AcDbArc
 50
274.206
 51
357.58
  0
LINE
  5
39F
100
AcDbEntity
  8
化粧台
  6
CONTINUOUS
 62
     6
100
AcDbLine
 10
904.021
 20
1796.976388
 30
0.0
 11
903.006
 21
1790.850388
 31
0.0
  0
LINE
  5
3A0
100
AcDbEntity
  8
化粧台
  6
CONTINUOUS
 62
     6
100
AcDbLine
 10
905.333
 20
1800.289388
 30
0.0
 11
904.021
 21
1796.976388
 31
0.0
  0
LINE
  5
3A1
100
AcDbEntity
  8
化粧台
  6
CONTINUOUS
 62
     6
100
AcDbLine
 10
907.473
 20
1802.636388
 30
0.0
 11
905.333
 21
1800.289388
 31
0.0
  0
LINE
  5
3A2
100
AcDbEntity
  8
化粧台
  6
CONTINUOUS
 62
     6
100
AcDbLine
 10
902.585
 20
1788.263388
 30
0.0
 11
901.322
 21
1767.370388
 31
0.0
  0
LINE
  5
3A3
100
AcDbEntity
  8
化粧台
  6
CONTINUOUS
 62
     6
100
AcDbLine
 10
904.307
 20
1791.991388
 30
0.0
 11
903.006
 21
1790.850388
 31
0.0
  0
LINE
  5
3A4
100
AcDbEntity
  8
化粧台
  6
CONTINUOUS
 62
     6
100
AcDbLine
 10
902.795
 20
1789.561388
 30
0.0
 11
903.006
 21
1790.850388
 31
0.0
  0
LINE
  5
3A5
100
AcDbEntity
  8
化粧台
  6
CONTINUOUS
 62
     6
100
AcDbLine
 10
902.585
 20
1788.263388
 30
0.0
 11
902.795
 21
1789.561388
 31
0.0
  0
LINE
  5
3A6
100
AcDbEntity
  8
化粧台
  6
CONTINUOUS
 62
     6
100
AcDbLine
 10
902.585
 20
1780.462388
 30
0.0
 11
902.795
 21
1781.760388
 31
0.0
  0
LINE
  5
3A7
100
AcDbEntity
  8
化粧台
  6
CONTINUOUS
 62
     6
100
AcDbLine
 10
902.795
 20
1781.760388
 30
0.0
 11
903.006
 21
1783.050388
 31
0.0
  0
LINE
  5
3A8
100
AcDbEntity
  8
化粧台
  6
CONTINUOUS
 62
     6
100
AcDbLine
 10
904.307
 20
1784.190388
 30
0.0
 11
903.006
 21
1783.050388
 31
0.0
  0
LINE
  5
3A9
100
AcDbEntity
  8
化粧台
  6
CONTINUOUS
 62
     6
100
AcDbLine
 10
902.584
 20
1780.450388
 30
0.0
 11
901.322
 21
1767.370388
 31
0.0
  0
LINE
  5
3AA
100
AcDbEntity
  8
化粧台
  6
CONTINUOUS
 62
     6
100
AcDbLine
 10
937.417
 20
1780.450388
 30
0.0
 11
938.679
 21
1767.370388
 31
0.0
  0
LINE
  5
3AB
100
AcDbEntity
  8
化粧台
  6
CONTINUOUS
 62
     6
100
AcDbLine
 10
935.694
 20
1784.190388
 30
0.0
 11
936.995
 21
1783.050388
 31
0.0
  0
LINE
  5
3AC
100
AcDbEntity
  8
化粧台
  6
CONTINUOUS
 62
     6
100
AcDbLine
 10
937.206
 20
1781.760388
 30
0.0
 11
936.995
 21
1783.050388
 31
0.0
  0
LINE
  5
3AD
100
AcDbEntity
  8
化粧台
  6
CONTINUOUS
 62
     6
100
AcDbLine
 10
937.416
 20
1780.462388
 30
0.0
 11
937.206
 21
1781.760388
 31
0.0
  0
LINE
  5
3AE
100
AcDbEntity
  8
化粧台
  6
CONTINUOUS
 62
     6
100
AcDbLine
 10
937.416
 20
1788.263388
 30
0.0
 11
937.206
 21
1789.561388
 31
0.0
  0
LINE
  5
3AF
100
AcDbEntity
  8
化粧台
  6
CONTINUOUS
 62
     6
100
AcDbLine
 10
937.206
 20
1789.561388
 30
0.0
 11
936.995
 21
1790.850388
 31
0.0
  0
LINE
  5
3B0
100
AcDbEntity
  8
化粧台
  6
CONTINUOUS
 62
     6
100
AcDbLine
 10
935.694
 20
1791.991388
 30
0.0
 11
936.995
 21
1790.850388
 31
0.0
  0
LINE
  5
3B1
100
AcDbEntity
  8
化粧台
  6
CONTINUOUS
 62
     6
100
AcDbLine
 10
937.416
 20
1788.263388
 30
0.0
 11
938.679
 21
1767.370388
 31
0.0
  0
LINE
  5
3B2
100
AcDbEntity
  8
化粧台
  6
CONTINUOUS
 62
     6
100
AcDbLine
 10
932.528
 20
1802.636388
 30
0.0
 11
934.668
 21
1800.289388
 31
0.0
  0
LINE
  5
3B3
100
AcDbEntity
  8
化粧台
  6
CONTINUOUS
 62
     6
100
AcDbLine
 10
934.668
 20
1800.289388
 30
0.0
 11
935.98
 21
1796.976388
 31
0.0
  0
LINE
  5
3B4
100
AcDbEntity
  8
化粧台
  6
CONTINUOUS
 62
     6
100
AcDbLine
 10
935.98
 20
1796.976388
 30
0.0
 11
936.995
 21
1790.850388
 31
0.0
  0
ARC
  5
3B5
100
AcDbEntity
  8
化粧台
  6
CONTINUOUS
 62
     6
100
AcDbCircle
 10
920.0
 20
1378.914388
 30
0.0
 40
380.0
100
AcDbArc
 50
79.799
 51
85.794
  0
ARC
  5
3B6
100
AcDbEntity
  8
化粧台
  6
CONTINUOUS
 62
     6
100
AcDbCircle
 10
948.604
 20
1767.863388
 30
0.0
 40
10.0
100
AcDbArc
 50
182.42
 51
265.794
  0
ARC
  5
3B7
100
AcDbEntity
  8
化粧台
  6
CONTINUOUS
 62
     6
100
AcDbCircle
 10
990.5
 20
1755.978388
 30
0.0
 40
4.0
100
AcDbArc
 50
180.0
 51
241.93
  0
LINE
  5
3B8
100
AcDbEntity
  8
化粧台
  6
CONTINUOUS
 62
     6
100
AcDbLine
 10
986.5
 20
1761.722388
 30
0.0
 11
986.5
 21
1755.978388
 31
0.0
  0
ARC
  5
3B9
100
AcDbEntity
  8
化粧台
  6
CONTINUOUS
 62
     6
100
AcDbCircle
 10
951.5
 20
1761.619388
 30
0.0
 40
4.0
100
AcDbArc
 50
265.295
 51
0.0
  0
LINE
  5
3BA
100
AcDbEntity
  8
化粧台
  6
CONTINUOUS
 62
     6
100
AcDbLine
 10
955.501
 20
1761.619388
 30
0.0
 11
955.501
 21
1761.722388
 31
0.0
  0
LINE
  5
3BB
100
AcDbEntity
  8
化粧台
  6
CONTINUOUS
 62
     6
100
AcDbLine
 10
931.0
 20
1773.774388
 30
0.0
 11
931.0
 21
1782.628388
 31
0.0
  0
LINE
  5
3BC
100
AcDbEntity
  8
化粧台
  6
CONTINUOUS
 62
     6
100
AcDbLine
 10
952.105
 20
1763.282388
 30
0.0
 11
953.803
 21
1805.748388
 31
0.0
  0
ARC
  5
3BD
100
AcDbEntity
  8
化粧台
  6
CONTINUOUS
 62
     6
100
AcDbCircle
 10
956.112
 20
1801.883388
 30
0.0
 40
7.0
100
AcDbArc
 50
101.232
 51
177.712
  0
ARC
  5
3BE
100
AcDbEntity
  8
化粧台
  6
CONTINUOUS
 62
     6
100
AcDbCircle
 10
953.603
 20
1763.222388
 30
0.0
 40
1.5
100
AcDbArc
 50
177.711
 51
270.0
  0
ARC
  5
3BF
100
AcDbEntity
  8
化粧台
  6
CONTINUOUS
 62
     6
100
AcDbCircle
 10
959.798
 20
1805.508388
 30
0.0
 40
6.0
100
AcDbArc
 50
92.185
 51
177.711
  0
ARC
  5
3C0
100
AcDbEntity
  8
化粧台
  6
CONTINUOUS
 62
     6
100
AcDbCircle
 10
949.061
 20
1763.222388
 30
0.0
 40
1.5
100
AcDbArc
 50
177.712
 51
270.0
  0
LINE
  5
3C1
100
AcDbEntity
  8
化粧台
  6
CONTINUOUS
 62
     6
100
AcDbLine
 10
949.061
 20
1761.722388
 30
0.0
 11
971.0
 21
1761.722388
 31
0.0
  0
LINE
  5
3C2
100
AcDbEntity
  8
化粧台
  6
CONTINUOUS
 62
     6
100
AcDbLine
 10
949.118
 20
1802.163388
 30
0.0
 11
947.563
 21
1763.282388
 31
0.0
  0
ARC
  5
3C3
100
AcDbEntity
  8
化粧台
  6
CONTINUOUS
 62
     6
100
AcDbCircle
 10
971.0
 20
1511.722388
 30
0.0
 40
300.0
100
AcDbArc
 50
91.374
 51
92.185
  0
LINE
  5
3C4
100
AcDbEntity
  8
化粧台
  6
CONTINUOUS
 62
     6
100
AcDbLine
 10
979.5
 20
1811.641388
 30
0.0
 11
979.5
 21
1812.490388
 31
0.0
  0
ARC
  5
3C5
100
AcDbEntity
  8
化粧台
  6
CONTINUOUS
 62
     6
100
AcDbCircle
 10
971.0
 20
1763.641388
 30
0.0
 40
50.0
100
AcDbArc
 50
80.699
 51
90.0
  0
ARC
  5
3C6
100
AcDbEntity
  8
化粧台
  6
CONTINUOUS
 62
     6
100
AcDbCircle
 10
979.0
 20
1812.490388
 30
0.0
 40
0.5
100
AcDbArc
 50
0.0
 51
80.699
  0
ARC
  5
3C7
100
AcDbEntity
  8
化粧台
  6
CONTINUOUS
 62
     6
100
AcDbCircle
 10
963.0
 20
1812.490388
 30
0.0
 40
0.5
100
AcDbArc
 50
99.302
 51
180.002
  0
ARC
  5
3C8
100
AcDbEntity
  8
化粧台
  6
CONTINUOUS
 62
     6
100
AcDbCircle
 10
971.0
 20
1763.641388
 30
0.0
 40
50.0
100
AcDbArc
 50
90.0
 51
99.302
  0
LINE
  5
3C9
100
AcDbEntity
  8
化粧台
  6
CONTINUOUS
 62
     6
100
AcDbLine
 10
962.5
 20
1811.641388
 30
0.0
 11
962.5
 21
1812.490388
 31
0.0
  0
LINE
  5
3CA
100
AcDbEntity
  8
化粧台
  6
CONTINUOUS
 62
     6
100
AcDbLine
 10
893.867
 20
1801.748388
 30
0.0
 11
895.437
 21
1763.283388
 31
0.0
  0
ARC
  5
3CB
100
AcDbEntity
  8
化粧台
  6
CONTINUOUS
 62
     6
100
AcDbCircle
 10
893.939
 20
1763.222388
 30
0.0
 40
1.5
100
AcDbArc
 50
270.0
 51
2.337
  0
ARC
  5
3CC
100
AcDbEntity
  8
化粧台
  6
CONTINUOUS
 62
     6
100
AcDbCircle
 10
890.748
 20
1763.222388
 30
0.0
 40
1.5
100
AcDbArc
 50
270.0
 51
2.337
  0
LINE
  5
3CD
100
AcDbEntity
  8
化粧台
  6
CONTINUOUS
 62
     6
100
AcDbLine
 10
892.246
 20
1763.283388
 30
0.0
 11
890.682
 21
1801.618388
 31
0.0
  0
LINE
  5
3CE
100
AcDbEntity
  8
化粧台
  6
CONTINUOUS
 62
     6
100
AcDbLine
 10
965.037
 20
1762.739388
 30
0.0
 11
965.797
 21
1806.808388
 31
0.0
  0
ARC
  5
3CF
100
AcDbEntity
  8
化粧台
  6
CONTINUOUS
 62
     6
100
AcDbCircle
 10
966.037
 20
1762.722388
 30
0.0
 40
1.0
100
AcDbArc
 50
179.014
 51
270.0
  0
ARC
  5
3D0
100
AcDbEntity
  8
化粧台
  6
CONTINUOUS
 62
     6
100
AcDbCircle
 10
970.796
 20
1806.722388
 30
0.0
 40
5.0
100
AcDbArc
 50
100.643
 51
179.014
  0
LINE
  5
3D1
100
AcDbEntity
  8
化粧台
  6
CONTINUOUS
 62
     6
100
AcDbLine
 10
971.0
 20
1811.641388
 30
0.0
 11
962.5
 21
1811.641388
 31
0.0
  0
LINE
  5
3D2
100
AcDbEntity
  8
化粧台
  6
CONTINUOUS
 62
     6
100
AcDbLine
 10
971.0
 20
1811.641388
 30
0.0
 11
979.5
 21
1811.641388
 31
0.0
  0
ARC
  5
3D3
100
AcDbEntity
  8
化粧台
  6
CONTINUOUS
 62
     6
100
AcDbCircle
 10
971.0
 20
1511.722388
 30
0.0
 40
300.0
100
AcDbArc
 50
87.06
 51
88.627
  0
LINE
  5
3D4
100
AcDbEntity
  8
化粧台
  6
CONTINUOUS
 62
     6
100
AcDbLine
 10
972.346
 20
1808.594388
 30
0.0
 11
982.502
 21
1808.594388
 31
0.0
  0
ARC
  5
3D5
100
AcDbEntity
  8
化粧台
  6
CONTINUOUS
 62
     6
100
AcDbCircle
 10
972.346
 20
1803.594388
 30
0.0
 40
5.0
100
AcDbArc
 50
90.0
 51
178.664
  0
LINE
  5
3D6
100
AcDbEntity
  8
化粧台
  6
CONTINUOUS
 62
     6
100
AcDbLine
 10
967.347
 20
1803.711388
 30
0.0
 11
966.366
 21
1761.722388
 31
0.0
  0
LINE
  5
3D7
100
AcDbEntity
  8
化粧台
  6
CONTINUOUS
 62
     6
100
AcDbLine
 10
932.444
 20
1802.703388
 30
0.0
 11
930.193
 21
1803.383388
 31
0.0
  0
LINE
  5
3D8
100
AcDbEntity
  8
化粧台
  6
CONTINUOUS
 62
     6
100
AcDbLine
 10
930.193
 20
1803.383388
 30
0.0
 11
928.284
 21
1803.771388
 31
0.0
  0
LINE
  5
3D9
100
AcDbEntity
  8
化粧台
  6
CONTINUOUS
 62
     6
100
AcDbLine
 10
928.284
 20
1803.771388
 30
0.0
 11
926.777
 21
1803.998388
 31
0.0
  0
LINE
  5
3DA
100
AcDbEntity
  8
化粧台
  6
CONTINUOUS
 62
     6
100
AcDbLine
 10
926.777
 20
1803.998388
 30
0.0
 11
925.59
 21
1804.137388
 31
0.0
  0
LINE
  5
3DB
100
AcDbEntity
  8
化粧台
  6
CONTINUOUS
 62
     6
100
AcDbLine
 10
925.59
 20
1804.137388
 30
0.0
 11
924.637
 21
1804.227388
 31
0.0
  0
LINE
  5
3DC
100
AcDbEntity
  8
化粧台
  6
CONTINUOUS
 62
     6
100
AcDbLine
 10
924.637
 20
1804.227388
 30
0.0
 11
923.851
 21
1804.287388
 31
0.0
  0
LINE
  5
3DD
100
AcDbEntity
  8
化粧台
  6
CONTINUOUS
 62
     6
100
AcDbLine
 10
923.851
 20
1804.287388
 30
0.0
 11
923.185
 21
1804.329388
 31
0.0
  0
LINE
  5
3DE
100
AcDbEntity
  8
化粧台
  6
CONTINUOUS
 62
     6
100
AcDbLine
 10
923.185
 20
1804.329388
 30
0.0
 11
922.606
 21
1804.358388
 31
0.0
  0
LINE
  5
3DF
100
AcDbEntity
  8
化粧台
  6
CONTINUOUS
 62
     6
100
AcDbLine
 10
922.606
 20
1804.358388
 30
0.0
 11
922.092
 21
1804.379388
 31
0.0
  0
LINE
  5
3E0
100
AcDbEntity
  8
化粧台
  6
CONTINUOUS
 62
     6
100
AcDbLine
 10
922.092
 20
1804.379388
 30
0.0
 11
921.624
 21
1804.394388
 31
0.0
  0
LINE
  5
3E1
100
AcDbEntity
  8
化粧台
  6
CONTINUOUS
 62
     6
100
AcDbLine
 10
921.624
 20
1804.394388
 30
0.0
 11
921.19
 21
1804.405388
 31
0.0
  0
LINE
  5
3E2
100
AcDbEntity
  8
化粧台
  6
CONTINUOUS
 62
     6
100
AcDbLine
 10
921.19
 20
1804.405388
 30
0.0
 11
920.779
 21
1804.412388
 31
0.0
  0
LINE
  5
3E3
100
AcDbEntity
  8
化粧台
  6
CONTINUOUS
 62
     6
100
AcDbLine
 10
920.779
 20
1804.412388
 30
0.0
 11
920.383
 21
1804.416388
 31
0.0
  0
LINE
  5
3E4
100
AcDbEntity
  8
化粧台
  6
CONTINUOUS
 62
     6
100
AcDbLine
 10
920.383
 20
1804.416388
 30
0.0
 11
920.0
 21
1804.417388
 31
0.0
  0
LINE
  5
3E5
100
AcDbEntity
  8
化粧台
  6
CONTINUOUS
 62
     6
100
AcDbLine
 10
935.418
 20
1792.233388
 30
0.0
 11
931.809
 21
1792.760388
 31
0.0
  0
LINE
  5
3E6
100
AcDbEntity
  8
化粧台
  6
CONTINUOUS
 62
     6
100
AcDbLine
 10
931.809
 20
1792.760388
 30
0.0
 11
929.254
 21
1793.019388
 31
0.0
  0
LINE
  5
3E7
100
AcDbEntity
  8
化粧台
  6
CONTINUOUS
 62
     6
100
AcDbLine
 10
929.254
 20
1793.019388
 30
0.0
 11
927.418
 21
1793.159388
 31
0.0
  0
LINE
  5
3E8
100
AcDbEntity
  8
化粧台
  6
CONTINUOUS
 62
     6
100
AcDbLine
 10
927.418
 20
1793.159388
 30
0.0
 11
926.044
 21
1793.241388
 31
0.0
  0
LINE
  5
3E9
100
AcDbEntity
  8
化粧台
  6
CONTINUOUS
 62
     6
100
AcDbLine
 10
926.044
 20
1793.241388
 30
0.0
 11
924.971
 21
1793.293388
 31
0.0
  0
LINE
  5
3EA
100
AcDbEntity
  8
化粧台
  6
CONTINUOUS
 62
     6
100
AcDbLine
 10
924.971
 20
1793.293388
 30
0.0
 11
924.099
 21
1793.327388
 31
0.0
  0
LINE
  5
3EB
100
AcDbEntity
  8
化粧台
  6
CONTINUOUS
 62
     6
100
AcDbLine
 10
924.099
 20
1793.327388
 30
0.0
 11
923.368
 21
1793.351388
 31
0.0
  0
LINE
  5
3EC
100
AcDbEntity
  8
化粧台
  6
CONTINUOUS
 62
     6
100
AcDbLine
 10
923.368
 20
1793.351388
 30
0.0
 11
922.736
 21
1793.367388
 31
0.0
  0
LINE
  5
3ED
100
AcDbEntity
  8
化粧台
  6
CONTINUOUS
 62
     6
100
AcDbLine
 10
922.736
 20
1793.367388
 30
0.0
 11
922.175
 21
1793.379388
 31
0.0
  0
LINE
  5
3EE
100
AcDbEntity
  8
化粧台
  6
CONTINUOUS
 62
     6
100
AcDbLine
 10
922.175
 20
1793.379388
 30
0.0
 11
921.664
 21
1793.387388
 31
0.0
  0
LINE
  5
3EF
100
AcDbEntity
  8
化粧台
  6
CONTINUOUS
 62
     6
100
AcDbLine
 10
921.664
 20
1793.387388
 30
0.0
 11
921.19
 21
1793.393388
 31
0.0
  0
LINE
  5
3F0
100
AcDbEntity
  8
化粧台
  6
CONTINUOUS
 62
     6
100
AcDbLine
 10
921.19
 20
1793.393388
 30
0.0
 11
920.74
 21
1793.397388
 31
0.0
  0
LINE
  5
3F1
100
AcDbEntity
  8
化粧台
  6
CONTINUOUS
 62
     6
100
AcDbLine
 10
920.74
 20
1793.397388
 30
0.0
 11
920.304
 21
1793.399388
 31
0.0
  0
LINE
  5
3F2
100
AcDbEntity
  8
化粧台
  6
CONTINUOUS
 62
     6
100
AcDbLine
 10
920.304
 20
1793.399388
 30
0.0
 11
920.0
 21
1793.399388
 31
0.0
  0
LINE
  5
3F3
100
AcDbEntity
  8
化粧台
  6
CONTINUOUS
 62
     6
100
AcDbLine
 10
935.694
 20
1784.190388
 30
0.0
 11
932.009
 21
1784.744388
 31
0.0
  0
LINE
  5
3F4
100
AcDbEntity
  8
化粧台
  6
CONTINUOUS
 62
     6
100
AcDbLine
 10
932.009
 20
1784.744388
 30
0.0
 11
929.395
 21
1785.014388
 31
0.0
  0
LINE
  5
3F5
100
AcDbEntity
  8
化粧台
  6
CONTINUOUS
 62
     6
100
AcDbLine
 10
929.395
 20
1785.014388
 30
0.0
 11
927.521
 21
1785.160388
 31
0.0
  0
LINE
  5
3F6
100
AcDbEntity
  8
化粧台
  6
CONTINUOUS
 62
     6
100
AcDbLine
 10
927.521
 20
1785.160388
 30
0.0
 11
926.123
 21
1785.245388
 31
0.0
  0
LINE
  5
3F7
100
AcDbEntity
  8
化粧台
  6
CONTINUOUS
 62
     6
100
AcDbLine
 10
926.123
 20
1785.245388
 30
0.0
 11
925.034
 21
1785.298388
 31
0.0
  0
LINE
  5
3F8
100
AcDbEntity
  8
化粧台
  6
CONTINUOUS
 62
     6
100
AcDbLine
 10
925.034
 20
1785.298388
 30
0.0
 11
924.151
 21
1785.333388
 31
0.0
  0
LINE
  5
3F9
100
AcDbEntity
  8
化粧台
  6
CONTINUOUS
 62
     6
100
AcDbLine
 10
924.151
 20
1785.333388
 30
0.0
 11
923.413
 21
1785.357388
 31
0.0
  0
LINE
  5
3FA
100
AcDbEntity
  8
化粧台
  6
CONTINUOUS
 62
     6
100
AcDbLine
 10
923.413
 20
1785.357388
 30
0.0
 11
922.775
 21
1785.374388
 31
0.0
  0
LINE
  5
3FB
100
AcDbEntity
  8
化粧台
  6
CONTINUOUS
 62
     6
100
AcDbLine
 10
922.775
 20
1785.374388
 30
0.0
 11
922.21
 21
1785.386388
 31
0.0
  0
LINE
  5
3FC
100
AcDbEntity
  8
化粧台
  6
CONTINUOUS
 62
     6
100
AcDbLine
 10
922.21
 20
1785.386388
 30
0.0
 11
921.697
 21
1785.394388
 31
0.0
  0
LINE
  5
3FD
100
AcDbEntity
  8
化粧台
  6
CONTINUOUS
 62
     6
100
AcDbLine
 10
921.697
 20
1785.394388
 30
0.0
 11
921.22
 21
1785.400388
 31
0.0
  0
LINE
  5
3FE
100
AcDbEntity
  8
化粧台
  6
CONTINUOUS
 62
     6
100
AcDbLine
 10
921.22
 20
1785.400388
 30
0.0
 11
920.769
 21
1785.404388
 31
0.0
  0
LINE
  5
3FF
100
AcDbEntity
  8
化粧台
  6
CONTINUOUS
 62
     6
100
AcDbLine
 10
920.769
 20
1785.404388
 30
0.0
 11
920.333
 21
1785.406388
 31
0.0
  0
LINE
  5
400
100
AcDbEntity
  8
化粧台
  6
CONTINUOUS
 62
     6
100
AcDbLine
 10
920.333
 20
1785.406388
 30
0.0
 11
920.0
 21
1785.407388
 31
0.0
  0
LINE
  5
401
100
AcDbEntity
  8
化粧台
  6
CONTINUOUS
 62
     6
100
AcDbLine
 10
920.0
 20
1770.927388
 30
0.0
 11
920.286
 21
1770.928388
 31
0.0
  0
LINE
  5
402
100
AcDbEntity
  8
化粧台
  6
CONTINUOUS
 62
     6
100
AcDbLine
 10
920.286
 20
1770.928388
 30
0.0
 11
920.577
 21
1770.931388
 31
0.0
  0
LINE
  5
403
100
AcDbEntity
  8
化粧台
  6
CONTINUOUS
 62
     6
100
AcDbLine
 10
920.577
 20
1770.931388
 30
0.0
 11
920.878
 21
1770.936388
 31
0.0
  0
LINE
  5
404
100
AcDbEntity
  8
化粧台
  6
CONTINUOUS
 62
     6
100
AcDbLine
 10
920.878
 20
1770.936388
 30
0.0
 11
921.197
 21
1770.944388
 31
0.0
  0
LINE
  5
405
100
AcDbEntity
  8
化粧台
  6
CONTINUOUS
 62
     6
100
AcDbLine
 10
921.197
 20
1770.944388
 30
0.0
 11
921.54
 21
1770.955388
 31
0.0
  0
LINE
  5
406
100
AcDbEntity
  8
化粧台
  6
CONTINUOUS
 62
     6
100
AcDbLine
 10
921.54
 20
1770.955388
 30
0.0
 11
921.918
 21
1770.971388
 31
0.0
  0
LINE
  5
407
100
AcDbEntity
  8
化粧台
  6
CONTINUOUS
 62
     6
100
AcDbLine
 10
921.918
 20
1770.971388
 30
0.0
 11
922.343
 21
1770.993388
 31
0.0
  0
LINE
  5
408
100
AcDbEntity
  8
化粧台
  6
CONTINUOUS
 62
     6
100
AcDbLine
 10
922.343
 20
1770.993388
 30
0.0
 11
922.833
 21
1771.023388
 31
0.0
  0
LINE
  5
409
100
AcDbEntity
  8
化粧台
  6
CONTINUOUS
 62
     6
100
AcDbLine
 10
922.833
 20
1771.023388
 30
0.0
 11
923.411
 21
1771.068388
 31
0.0
  0
LINE
  5
40A
100
AcDbEntity
  8
化粧台
  6
CONTINUOUS
 62
     6
100
AcDbLine
 10
923.411
 20
1771.068388
 30
0.0
 11
924.113
 21
1771.134388
 31
0.0
  0
LINE
  5
40B
100
AcDbEntity
  8
化粧台
  6
CONTINUOUS
 62
     6
100
AcDbLine
 10
924.113
 20
1771.134388
 30
0.0
 11
924.986
 21
1771.237388
 31
0.0
  0
LINE
  5
40C
100
AcDbEntity
  8
化粧台
  6
CONTINUOUS
 62
     6
100
AcDbLine
 10
924.986
 20
1771.237388
 30
0.0
 11
926.096
 21
1771.404388
 31
0.0
  0
LINE
  5
40D
100
AcDbEntity
  8
化粧台
  6
CONTINUOUS
 62
     6
100
AcDbLine
 10
926.096
 20
1771.404388
 30
0.0
 11
927.501
 21
1771.692388
 31
0.0
  0
LINE
  5
40E
100
AcDbEntity
  8
化粧台
  6
CONTINUOUS
 62
     6
100
AcDbLine
 10
927.501
 20
1771.692388
 30
0.0
 11
929.154
 21
1772.195388
 31
0.0
  0
LINE
  5
40F
100
AcDbEntity
  8
化粧台
  6
CONTINUOUS
 62
     6
100
AcDbLine
 10
929.154
 20
1772.195388
 30
0.0
 11
930.609
 21
1773.022388
 31
0.0
  0
LINE
  5
410
100
AcDbEntity
  8
化粧台
  6
CONTINUOUS
 62
     6
100
AcDbLine
 10
930.609
 20
1773.022388
 30
0.0
 11
931.0
 21
1773.774388
 31
0.0
  0
LINE
  5
411
100
AcDbEntity
  8
化粧台
  6
CONTINUOUS
 62
     6
100
AcDbLine
 10
931.0
 20
1773.774388
 30
0.0
 11
930.931
 21
1774.094388
 31
0.0
  0
LINE
  5
412
100
AcDbEntity
  8
化粧台
  6
CONTINUOUS
 62
     6
100
AcDbLine
 10
930.931
 20
1774.094388
 30
0.0
 11
929.831
 21
1775.052388
 31
0.0
  0
LINE
  5
413
100
AcDbEntity
  8
化粧台
  6
CONTINUOUS
 62
     6
100
AcDbLine
 10
929.831
 20
1775.052388
 30
0.0
 11
928.171
 21
1775.680388
 31
0.0
  0
LINE
  5
414
100
AcDbEntity
  8
化粧台
  6
CONTINUOUS
 62
     6
100
AcDbLine
 10
928.171
 20
1775.680388
 30
0.0
 11
926.643
 21
1776.044388
 31
0.0
  0
LINE
  5
415
100
AcDbEntity
  8
化粧台
  6
CONTINUOUS
 62
     6
100
AcDbLine
 10
926.643
 20
1776.044388
 30
0.0
 11
925.415
 21
1776.252388
 31
0.0
  0
LINE
  5
416
100
AcDbEntity
  8
化粧台
  6
CONTINUOUS
 62
     6
100
AcDbLine
 10
925.415
 20
1776.252388
 30
0.0
 11
924.452
 21
1776.378388
 31
0.0
  0
LINE
  5
417
100
AcDbEntity
  8
化粧台
  6
CONTINUOUS
 62
     6
100
AcDbLine
 10
924.452
 20
1776.378388
 30
0.0
 11
923.686
 21
1776.457388
 31
0.0
  0
LINE
  5
418
100
AcDbEntity
  8
化粧台
  6
CONTINUOUS
 62
     6
100
AcDbLine
 10
923.686
 20
1776.457388
 30
0.0
 11
923.061
 21
1776.509388
 31
0.0
  0
LINE
  5
419
100
AcDbEntity
  8
化粧台
  6
CONTINUOUS
 62
     6
100
AcDbLine
 10
923.061
 20
1776.509388
 30
0.0
 11
922.538
 21
1776.544388
 31
0.0
  0
LINE
  5
41A
100
AcDbEntity
  8
化粧台
  6
CONTINUOUS
 62
     6
100
AcDbLine
 10
922.538
 20
1776.544388
 30
0.0
 11
922.089
 21
1776.570388
 31
0.0
  0
LINE
  5
41B
100
AcDbEntity
  8
化粧台
  6
CONTINUOUS
 62
     6
100
AcDbLine
 10
922.089
 20
1776.570388
 30
0.0
 11
921.693
 21
1776.587388
 31
0.0
  0
LINE
  5
41C
100
AcDbEntity
  8
化粧台
  6
CONTINUOUS
 62
     6
100
AcDbLine
 10
921.693
 20
1776.587388
 30
0.0
 11
921.336
 21
1776.600388
 31
0.0
  0
LINE
  5
41D
100
AcDbEntity
  8
化粧台
  6
CONTINUOUS
 62
     6
100
AcDbLine
 10
921.336
 20
1776.600388
 30
0.0
 11
921.008
 21
1776.609388
 31
0.0
  0
LINE
  5
41E
100
AcDbEntity
  8
化粧台
  6
CONTINUOUS
 62
     6
100
AcDbLine
 10
921.008
 20
1776.609388
 30
0.0
 11
920.701
 21
1776.616388
 31
0.0
  0
LINE
  5
41F
100
AcDbEntity
  8
化粧台
  6
CONTINUOUS
 62
     6
100
AcDbLine
 10
920.701
 20
1776.616388
 30
0.0
 11
920.406
 21
1776.619388
 31
0.0
  0
LINE
  5
420
100
AcDbEntity
  8
化粧台
  6
CONTINUOUS
 62
     6
100
AcDbLine
 10
920.406
 20
1776.619388
 30
0.0
 11
920.119
 21
1776.621388
 31
0.0
  0
LINE
  5
421
100
AcDbEntity
  8
化粧台
  6
CONTINUOUS
 62
     6
100
AcDbLine
 10
920.119
 20
1776.621388
 30
0.0
 11
920.0
 21
1776.621388
 31
0.0
  0
LINE
  5
422
100
AcDbEntity
  8
化粧台
  6
CONTINUOUS
 62
     6
100
AcDbLine
 10
920.0
 20
1804.417388
 30
0.0
 11
919.611
 21
1804.416388
 31
0.0
  0
LINE
  5
423
100
AcDbEntity
  8
化粧台
  6
CONTINUOUS
 62
     6
100
AcDbLine
 10
919.611
 20
1804.416388
 30
0.0
 11
919.215
 21
1804.412388
 31
0.0
  0
LINE
  5
424
100
AcDbEntity
  8
化粧台
  6
CONTINUOUS
 62
     6
100
AcDbLine
 10
919.215
 20
1804.412388
 30
0.0
 11
918.803
 21
1804.405388
 31
0.0
  0
LINE
  5
425
100
AcDbEntity
  8
化粧台
  6
CONTINUOUS
 62
     6
100
AcDbLine
 10
918.803
 20
1804.405388
 30
0.0
 11
918.369
 21
1804.394388
 31
0.0
  0
LINE
  5
426
100
AcDbEntity
  8
化粧台
  6
CONTINUOUS
 62
     6
100
AcDbLine
 10
918.369
 20
1804.394388
 30
0.0
 11
917.9
 21
1804.379388
 31
0.0
  0
LINE
  5
427
100
AcDbEntity
  8
化粧台
  6
CONTINUOUS
 62
     6
100
AcDbLine
 10
917.9
 20
1804.379388
 30
0.0
 11
917.385
 21
1804.358388
 31
0.0
  0
LINE
  5
428
100
AcDbEntity
  8
化粧台
  6
CONTINUOUS
 62
     6
100
AcDbLine
 10
917.385
 20
1804.358388
 30
0.0
 11
916.806
 21
1804.328388
 31
0.0
  0
LINE
  5
429
100
AcDbEntity
  8
化粧台
  6
CONTINUOUS
 62
     6
100
AcDbLine
 10
916.806
 20
1804.328388
 30
0.0
 11
916.138
 21
1804.286388
 31
0.0
  0
LINE
  5
42A
100
AcDbEntity
  8
化粧台
  6
CONTINUOUS
 62
     6
100
AcDbLine
 10
916.138
 20
1804.286388
 30
0.0
 11
915.349
 21
1804.226388
 31
0.0
  0
LINE
  5
42B
100
AcDbEntity
  8
化粧台
  6
CONTINUOUS
 62
     6
100
AcDbLine
 10
915.349
 20
1804.226388
 30
0.0
 11
914.393
 21
1804.135388
 31
0.0
  0
LINE
  5
42C
100
AcDbEntity
  8
化粧台
  6
CONTINUOUS
 62
     6
100
AcDbLine
 10
914.393
 20
1804.135388
 30
0.0
 11
913.201
 21
1803.995388
 31
0.0
  0
LINE
  5
42D
100
AcDbEntity
  8
化粧台
  6
CONTINUOUS
 62
     6
100
AcDbLine
 10
913.201
 20
1803.995388
 30
0.0
 11
911.688
 21
1803.766388
 31
0.0
  0
LINE
  5
42E
100
AcDbEntity
  8
化粧台
  6
CONTINUOUS
 62
     6
100
AcDbLine
 10
911.688
 20
1803.766388
 30
0.0
 11
909.772
 21
1803.374388
 31
0.0
  0
LINE
  5
42F
100
AcDbEntity
  8
化粧台
  6
CONTINUOUS
 62
     6
100
AcDbLine
 10
909.772
 20
1803.374388
 30
0.0
 11
907.557
 21
1802.703388
 31
0.0
  0
LINE
  5
430
100
AcDbEntity
  8
化粧台
  6
CONTINUOUS
 62
     6
100
AcDbLine
 10
920.0
 20
1793.399388
 30
0.0
 11
919.57
 21
1793.398388
 31
0.0
  0
LINE
  5
431
100
AcDbEntity
  8
化粧台
  6
CONTINUOUS
 62
     6
100
AcDbLine
 10
919.57
 20
1793.398388
 30
0.0
 11
919.131
 21
1793.396388
 31
0.0
  0
LINE
  5
432
100
AcDbEntity
  8
化粧台
  6
CONTINUOUS
 62
     6
100
AcDbLine
 10
919.131
 20
1793.396388
 30
0.0
 11
918.675
 21
1793.391388
 31
0.0
  0
LINE
  5
433
100
AcDbEntity
  8
化粧台
  6
CONTINUOUS
 62
     6
100
AcDbLine
 10
918.675
 20
1793.391388
 30
0.0
 11
918.191
 21
1793.385388
 31
0.0
  0
LINE
  5
434
100
AcDbEntity
  8
化粧台
  6
CONTINUOUS
 62
     6
100
AcDbLine
 10
918.191
 20
1793.385388
 30
0.0
 11
917.668
 21
1793.376388
 31
0.0
  0
LINE
  5
435
100
AcDbEntity
  8
化粧台
  6
CONTINUOUS
 62
     6
100
AcDbLine
 10
917.668
 20
1793.376388
 30
0.0
 11
917.088
 21
1793.363388
 31
0.0
  0
LINE
  5
436
100
AcDbEntity
  8
化粧台
  6
CONTINUOUS
 62
     6
100
AcDbLine
 10
917.088
 20
1793.363388
 30
0.0
 11
916.43
 21
1793.345388
 31
0.0
  0
LINE
  5
437
100
AcDbEntity
  8
化粧台
  6
CONTINUOUS
 62
     6
100
AcDbLine
 10
916.43
 20
1793.345388
 30
0.0
 11
915.663
 21
1793.318388
 31
0.0
  0
LINE
  5
438
100
AcDbEntity
  8
化粧台
  6
CONTINUOUS
 62
     6
100
AcDbLine
 10
915.663
 20
1793.318388
 30
0.0
 11
914.74
 21
1793.280388
 31
0.0
  0
LINE
  5
439
100
AcDbEntity
  8
化粧台
  6
CONTINUOUS
 62
     6
100
AcDbLine
 10
914.74
 20
1793.280388
 30
0.0
 11
913.591
 21
1793.221388
 31
0.0
  0
LINE
  5
43A
100
AcDbEntity
  8
化粧台
  6
CONTINUOUS
 62
     6
100
AcDbLine
 10
913.591
 20
1793.221388
 30
0.0
 11
912.102
 21
1793.126388
 31
0.0
  0
LINE
  5
43B
100
AcDbEntity
  8
化粧台
  6
CONTINUOUS
 62
     6
100
AcDbLine
 10
912.102
 20
1793.126388
 30
0.0
 11
910.087
 21
1792.960388
 31
0.0
  0
LINE
  5
43C
100
AcDbEntity
  8
化粧台
  6
CONTINUOUS
 62
     6
100
AcDbLine
 10
910.087
 20
1792.960388
 30
0.0
 11
907.256
 21
1792.644388
 31
0.0
  0
LINE
  5
43D
100
AcDbEntity
  8
化粧台
  6
CONTINUOUS
 62
     6
100
AcDbLine
 10
907.256
 20
1792.644388
 30
0.0
 11
904.583
 21
1792.233388
 31
0.0
  0
LINE
  5
43E
100
AcDbEntity
  8
化粧台
  6
CONTINUOUS
 62
     6
100
AcDbLine
 10
920.0
 20
1785.407388
 30
0.0
 11
919.57
 21
1785.406388
 31
0.0
  0
LINE
  5
43F
100
AcDbEntity
  8
化粧台
  6
CONTINUOUS
 62
     6
100
AcDbLine
 10
919.57
 20
1785.406388
 30
0.0
 11
919.131
 21
1785.403388
 31
0.0
  0
LINE
  5
440
100
AcDbEntity
  8
化粧台
  6
CONTINUOUS
 62
     6
100
AcDbLine
 10
919.131
 20
1785.403388
 30
0.0
 11
918.675
 21
1785.399388
 31
0.0
  0
LINE
  5
441
100
AcDbEntity
  8
化粧台
  6
CONTINUOUS
 62
     6
100
AcDbLine
 10
918.675
 20
1785.399388
 30
0.0
 11
918.191
 21
1785.393388
 31
0.0
  0
LINE
  5
442
100
AcDbEntity
  8
化粧台
  6
CONTINUOUS
 62
     6
100
AcDbLine
 10
918.191
 20
1785.393388
 30
0.0
 11
917.668
 21
1785.383388
 31
0.0
  0
LINE
  5
443
100
AcDbEntity
  8
化粧台
  6
CONTINUOUS
 62
     6
100
AcDbLine
 10
917.668
 20
1785.383388
 30
0.0
 11
917.088
 21
1785.370388
 31
0.0
  0
LINE
  5
444
100
AcDbEntity
  8
化粧台
  6
CONTINUOUS
 62
     6
100
AcDbLine
 10
917.088
 20
1785.370388
 30
0.0
 11
916.43
 21
1785.352388
 31
0.0
  0
LINE
  5
445
100
AcDbEntity
  8
化粧台
  6
CONTINUOUS
 62
     6
100
AcDbLine
 10
916.43
 20
1785.352388
 30
0.0
 11
915.663
 21
1785.326388
 31
0.0
  0
LINE
  5
446
100
AcDbEntity
  8
化粧台
  6
CONTINUOUS
 62
     6
100
AcDbLine
 10
915.663
 20
1785.326388
 30
0.0
 11
914.74
 21
1785.288388
 31
0.0
  0
LINE
  5
447
100
AcDbEntity
  8
化粧台
  6
CONTINUOUS
 62
     6
100
AcDbLine
 10
914.74
 20
1785.288388
 30
0.0
 11
913.591
 21
1785.229388
 31
0.0
  0
LINE
  5
448
100
AcDbEntity
  8
化粧台
  6
CONTINUOUS
 62
     6
100
AcDbLine
 10
913.591
 20
1785.229388
 30
0.0
 11
912.102
 21
1785.133388
 31
0.0
  0
LINE
  5
449
100
AcDbEntity
  8
化粧台
  6
CONTINUOUS
 62
     6
100
AcDbLine
 10
912.102
 20
1785.133388
 30
0.0
 11
910.087
 21
1784.967388
 31
0.0
  0
LINE
  5
44A
100
AcDbEntity
  8
化粧台
  6
CONTINUOUS
 62
     6
100
AcDbLine
 10
910.087
 20
1784.967388
 30
0.0
 11
907.256
 21
1784.651388
 31
0.0
  0
LINE
  5
44B
100
AcDbEntity
  8
化粧台
  6
CONTINUOUS
 62
     6
100
AcDbLine
 10
907.256
 20
1784.651388
 30
0.0
 11
904.307
 21
1784.190388
 31
0.0
  0
LINE
  5
44C
100
AcDbEntity
  8
化粧台
  6
CONTINUOUS
 62
     6
100
AcDbLine
 10
920.0
 20
1776.621388
 30
0.0
 11
919.715
 21
1776.620388
 31
0.0
  0
LINE
  5
44D
100
AcDbEntity
  8
化粧台
  6
CONTINUOUS
 62
     6
100
AcDbLine
 10
919.715
 20
1776.620388
 30
0.0
 11
919.424
 21
1776.617388
 31
0.0
  0
LINE
  5
44E
100
AcDbEntity
  8
化粧台
  6
CONTINUOUS
 62
     6
100
AcDbLine
 10
919.424
 20
1776.617388
 30
0.0
 11
919.123
 21
1776.612388
 31
0.0
  0
LINE
  5
44F
100
AcDbEntity
  8
化粧台
  6
CONTINUOUS
 62
     6
100
AcDbLine
 10
919.123
 20
1776.612388
 30
0.0
 11
918.804
 21
1776.604388
 31
0.0
  0
LINE
  5
450
100
AcDbEntity
  8
化粧台
  6
CONTINUOUS
 62
     6
100
AcDbLine
 10
918.804
 20
1776.604388
 30
0.0
 11
918.46
 21
1776.593388
 31
0.0
  0
LINE
  5
451
100
AcDbEntity
  8
化粧台
  6
CONTINUOUS
 62
     6
100
AcDbLine
 10
918.46
 20
1776.593388
 30
0.0
 11
918.083
 21
1776.578388
 31
0.0
  0
LINE
  5
452
100
AcDbEntity
  8
化粧台
  6
CONTINUOUS
 62
     6
100
AcDbLine
 10
918.083
 20
1776.578388
 30
0.0
 11
917.657
 21
1776.556388
 31
0.0
  0
LINE
  5
453
100
AcDbEntity
  8
化粧台
  6
CONTINUOUS
 62
     6
100
AcDbLine
 10
917.657
 20
1776.556388
 30
0.0
 11
917.168
 21
1776.525388
 31
0.0
  0
LINE
  5
454
100
AcDbEntity
  8
化粧台
  6
CONTINUOUS
 62
     6
100
AcDbLine
 10
917.168
 20
1776.525388
 30
0.0
 11
916.59
 21
1776.481388
 31
0.0
  0
LINE
  5
455
100
AcDbEntity
  8
化粧台
  6
CONTINUOUS
 62
     6
100
AcDbLine
 10
916.59
 20
1776.481388
 30
0.0
 11
915.888
 21
1776.415388
 31
0.0
  0
LINE
  5
456
100
AcDbEntity
  8
化粧台
  6
CONTINUOUS
 62
     6
100
AcDbLine
 10
915.888
 20
1776.415388
 30
0.0
 11
915.014
 21
1776.312388
 31
0.0
  0
LINE
  5
457
100
AcDbEntity
  8
化粧台
  6
CONTINUOUS
 62
     6
100
AcDbLine
 10
915.014
 20
1776.312388
 30
0.0
 11
913.905
 21
1776.144388
 31
0.0
  0
LINE
  5
458
100
AcDbEntity
  8
化粧台
  6
CONTINUOUS
 62
     6
100
AcDbLine
 10
913.905
 20
1776.144388
 30
0.0
 11
912.499
 21
1775.857388
 31
0.0
  0
LINE
  5
459
100
AcDbEntity
  8
化粧台
  6
CONTINUOUS
 62
     6
100
AcDbLine
 10
912.499
 20
1775.857388
 30
0.0
 11
910.847
 21
1775.353388
 31
0.0
  0
LINE
  5
45A
100
AcDbEntity
  8
化粧台
  6
CONTINUOUS
 62
     6
100
AcDbLine
 10
910.847
 20
1775.353388
 30
0.0
 11
909.391
 21
1774.527388
 31
0.0
  0
LINE
  5
45B
100
AcDbEntity
  8
化粧台
  6
CONTINUOUS
 62
     6
100
AcDbLine
 10
909.391
 20
1774.527388
 30
0.0
 11
909.0
 21
1773.774388
 31
0.0
  0
LINE
  5
45C
100
AcDbEntity
  8
化粧台
  6
CONTINUOUS
 62
     6
100
AcDbLine
 10
909.0
 20
1773.774388
 30
0.0
 11
909.07
 21
1773.455388
 31
0.0
  0
LINE
  5
45D
100
AcDbEntity
  8
化粧台
  6
CONTINUOUS
 62
     6
100
AcDbLine
 10
909.07
 20
1773.455388
 30
0.0
 11
910.17
 21
1772.497388
 31
0.0
  0
LINE
  5
45E
100
AcDbEntity
  8
化粧台
  6
CONTINUOUS
 62
     6
100
AcDbLine
 10
910.17
 20
1772.497388
 30
0.0
 11
911.83
 21
1771.868388
 31
0.0
  0
LINE
  5
45F
100
AcDbEntity
  8
化粧台
  6
CONTINUOUS
 62
     6
100
AcDbLine
 10
911.83
 20
1771.868388
 30
0.0
 11
913.358
 21
1771.505388
 31
0.0
  0
LINE
  5
460
100
AcDbEntity
  8
化粧台
  6
CONTINUOUS
 62
     6
100
AcDbLine
 10
913.358
 20
1771.505388
 30
0.0
 11
914.586
 21
1771.296388
 31
0.0
  0
LINE
  5
461
100
AcDbEntity
  8
化粧台
  6
CONTINUOUS
 62
     6
100
AcDbLine
 10
914.586
 20
1771.296388
 30
0.0
 11
915.549
 21
1771.171388
 31
0.0
  0
LINE
  5
462
100
AcDbEntity
  8
化粧台
  6
CONTINUOUS
 62
     6
100
AcDbLine
 10
915.549
 20
1771.171388
 30
0.0
 11
916.315
 21
1771.092388
 31
0.0
  0
LINE
  5
463
100
AcDbEntity
  8
化粧台
  6
CONTINUOUS
 62
     6
100
AcDbLine
 10
916.315
 20
1771.092388
 30
0.0
 11
916.94
 21
1771.040388
 31
0.0
  0
LINE
  5
464
100
AcDbEntity
  8
化粧台
  6
CONTINUOUS
 62
     6
100
AcDbLine
 10
916.94
 20
1771.040388
 30
0.0
 11
917.463
 21
1771.004388
 31
0.0
  0
LINE
  5
465
100
AcDbEntity
  8
化粧台
  6
CONTINUOUS
 62
     6
100
AcDbLine
 10
917.463
 20
1771.004388
 30
0.0
 11
917.912
 21
1770.979388
 31
0.0
  0
LINE
  5
466
100
AcDbEntity
  8
化粧台
  6
CONTINUOUS
 62
     6
100
AcDbLine
 10
917.912
 20
1770.979388
 30
0.0
 11
918.308
 21
1770.961388
 31
0.0
  0
LINE
  5
467
100
AcDbEntity
  8
化粧台
  6
CONTINUOUS
 62
     6
100
AcDbLine
 10
918.308
 20
1770.961388
 30
0.0
 11
918.665
 21
1770.948388
 31
0.0
  0
LINE
  5
468
100
AcDbEntity
  8
化粧台
  6
CONTINUOUS
 62
     6
100
AcDbLine
 10
918.665
 20
1770.948388
 30
0.0
 11
918.993
 21
1770.939388
 31
0.0
  0
LINE
  5
469
100
AcDbEntity
  8
化粧台
  6
CONTINUOUS
 62
     6
100
AcDbLine
 10
918.993
 20
1770.939388
 30
0.0
 11
919.3
 21
1770.933388
 31
0.0
  0
LINE
  5
46A
100
AcDbEntity
  8
化粧台
  6
CONTINUOUS
 62
     6
100
AcDbLine
 10
919.3
 20
1770.933388
 30
0.0
 11
919.595
 21
1770.929388
 31
0.0
  0
LINE
  5
46B
100
AcDbEntity
  8
化粧台
  6
CONTINUOUS
 62
     6
100
AcDbLine
 10
919.595
 20
1770.929388
 30
0.0
 11
919.882
 21
1770.927388
 31
0.0
  0
LINE
  5
46C
100
AcDbEntity
  8
化粧台
  6
CONTINUOUS
 62
     6
100
AcDbLine
 10
919.882
 20
1770.927388
 30
0.0
 11
920.0
 21
1770.927388
 31
0.0
  0
LINE
  5
46D
100
AcDbEntity
  8
化粧台
  6
CONTINUOUS
 62
     6
100
AcDbLine
 10
920.0
 20
1737.043388
 30
0.0
 11
920.168
 21
1737.048388
 31
0.0
  0
LINE
  5
46E
100
AcDbEntity
  8
化粧台
  6
CONTINUOUS
 62
     6
100
AcDbLine
 10
920.168
 20
1737.048388
 30
0.0
 11
920.336
 21
1737.065388
 31
0.0
  0
LINE
  5
46F
100
AcDbEntity
  8
化粧台
  6
CONTINUOUS
 62
     6
100
AcDbLine
 10
920.336
 20
1737.065388
 30
0.0
 11
920.504
 21
1737.094388
 31
0.0
  0
LINE
  5
470
100
AcDbEntity
  8
化粧台
  6
CONTINUOUS
 62
     6
100
AcDbLine
 10
920.504
 20
1737.094388
 30
0.0
 11
920.671
 21
1737.135388
 31
0.0
  0
LINE
  5
471
100
AcDbEntity
  8
化粧台
  6
CONTINUOUS
 62
     6
100
AcDbLine
 10
920.671
 20
1737.135388
 30
0.0
 11
920.838
 21
1737.189388
 31
0.0
  0
LINE
  5
472
100
AcDbEntity
  8
化粧台
  6
CONTINUOUS
 62
     6
100
AcDbLine
 10
920.838
 20
1737.189388
 30
0.0
 11
921.003
 21
1737.257388
 31
0.0
  0
LINE
  5
473
100
AcDbEntity
  8
化粧台
  6
CONTINUOUS
 62
     6
100
AcDbLine
 10
921.003
 20
1737.257388
 30
0.0
 11
921.165
 21
1737.340388
 31
0.0
  0
LINE
  5
474
100
AcDbEntity
  8
化粧台
  6
CONTINUOUS
 62
     6
100
AcDbLine
 10
921.165
 20
1737.340388
 30
0.0
 11
921.322
 21
1737.438388
 31
0.0
  0
LINE
  5
475
100
AcDbEntity
  8
化粧台
  6
CONTINUOUS
 62
     6
100
AcDbLine
 10
921.322
 20
1737.438388
 30
0.0
 11
921.473
 21
1737.553388
 31
0.0
  0
LINE
  5
476
100
AcDbEntity
  8
化粧台
  6
CONTINUOUS
 62
     6
100
AcDbLine
 10
921.473
 20
1737.553388
 30
0.0
 11
921.614
 21
1737.686388
 31
0.0
  0
LINE
  5
477
100
AcDbEntity
  8
化粧台
  6
CONTINUOUS
 62
     6
100
AcDbLine
 10
921.614
 20
1737.686388
 30
0.0
 11
921.742
 21
1737.836388
 31
0.0
  0
LINE
  5
478
100
AcDbEntity
  8
化粧台
  6
CONTINUOUS
 62
     6
100
AcDbLine
 10
921.742
 20
1737.836388
 30
0.0
 11
921.852
 21
1738.002388
 31
0.0
  0
LINE
  5
479
100
AcDbEntity
  8
化粧台
  6
CONTINUOUS
 62
     6
100
AcDbLine
 10
921.852
 20
1738.002388
 30
0.0
 11
921.942
 21
1738.183388
 31
0.0
  0
LINE
  5
47A
100
AcDbEntity
  8
化粧台
  6
CONTINUOUS
 62
     6
100
AcDbLine
 10
921.942
 20
1738.183388
 30
0.0
 11
922.006
 21
1738.376388
 31
0.0
  0
LINE
  5
47B
100
AcDbEntity
  8
化粧台
  6
CONTINUOUS
 62
     6
100
AcDbLine
 10
922.006
 20
1738.376388
 30
0.0
 11
922.043
 21
1738.577388
 31
0.0
  0
LINE
  5
47C
100
AcDbEntity
  8
化粧台
  6
CONTINUOUS
 62
     6
100
AcDbLine
 10
922.043
 20
1738.577388
 30
0.0
 11
922.05
 21
1738.722388
 31
0.0
  0
LINE
  5
47D
100
AcDbEntity
  8
化粧台
  6
CONTINUOUS
 62
     6
100
AcDbLine
 10
922.05
 20
1738.722388
 30
0.0
 11
922.049
 21
1738.782388
 31
0.0
  0
LINE
  5
47E
100
AcDbEntity
  8
化粧台
  6
CONTINUOUS
 62
     6
100
AcDbLine
 10
922.049
 20
1738.782388
 30
0.0
 11
922.025
 21
1738.985388
 31
0.0
  0
LINE
  5
47F
100
AcDbEntity
  8
化粧台
  6
CONTINUOUS
 62
     6
100
AcDbLine
 10
922.025
 20
1738.985388
 30
0.0
 11
921.972
 21
1739.182388
 31
0.0
  0
LINE
  5
480
100
AcDbEntity
  8
化粧台
  6
CONTINUOUS
 62
     6
100
AcDbLine
 10
921.972
 20
1739.182388
 30
0.0
 11
921.893
 21
1739.368388
 31
0.0
  0
LINE
  5
481
100
AcDbEntity
  8
化粧台
  6
CONTINUOUS
 62
     6
100
AcDbLine
 10
921.893
 20
1739.368388
 30
0.0
 11
921.79
 21
1739.541388
 31
0.0
  0
LINE
  5
482
100
AcDbEntity
  8
化粧台
  6
CONTINUOUS
 62
     6
100
AcDbLine
 10
921.79
 20
1739.541388
 30
0.0
 11
921.669
 21
1739.698388
 31
0.0
  0
LINE
  5
483
100
AcDbEntity
  8
化粧台
  6
CONTINUOUS
 62
     6
100
AcDbLine
 10
921.669
 20
1739.698388
 30
0.0
 11
921.533
 21
1739.837388
 31
0.0
  0
LINE
  5
484
100
AcDbEntity
  8
化粧台
  6
CONTINUOUS
 62
     6
100
AcDbLine
 10
921.533
 20
1739.837388
 30
0.0
 11
921.386
 21
1739.960388
 31
0.0
  0
LINE
  5
485
100
AcDbEntity
  8
化粧台
  6
CONTINUOUS
 62
     6
100
AcDbLine
 10
921.386
 20
1739.960388
 30
0.0
 11
921.231
 21
1740.065388
 31
0.0
  0
LINE
  5
486
100
AcDbEntity
  8
化粧台
  6
CONTINUOUS
 62
     6
100
AcDbLine
 10
921.231
 20
1740.065388
 30
0.0
 11
921.07
 21
1740.154388
 31
0.0
  0
LINE
  5
487
100
AcDbEntity
  8
化粧台
  6
CONTINUOUS
 62
     6
100
AcDbLine
 10
921.07
 20
1740.154388
 30
0.0
 11
920.907
 21
1740.228388
 31
0.0
  0
LINE
  5
488
100
AcDbEntity
  8
化粧台
  6
CONTINUOUS
 62
     6
100
AcDbLine
 10
920.907
 20
1740.228388
 30
0.0
 11
920.741
 21
1740.288388
 31
0.0
  0
LINE
  5
489
100
AcDbEntity
  8
化粧台
  6
CONTINUOUS
 62
     6
100
AcDbLine
 10
920.741
 20
1740.288388
 30
0.0
 11
920.574
 21
1740.334388
 31
0.0
  0
LINE
  5
48A
100
AcDbEntity
  8
化粧台
  6
CONTINUOUS
 62
     6
100
AcDbLine
 10
920.574
 20
1740.334388
 30
0.0
 11
920.406
 21
1740.368388
 31
0.0
  0
LINE
  5
48B
100
AcDbEntity
  8
化粧台
  6
CONTINUOUS
 62
     6
100
AcDbLine
 10
920.406
 20
1740.368388
 30
0.0
 11
920.238
 21
1740.390388
 31
0.0
  0
LINE
  5
48C
100
AcDbEntity
  8
化粧台
  6
CONTINUOUS
 62
     6
100
AcDbLine
 10
920.238
 20
1740.390388
 30
0.0
 11
920.07
 21
1740.400388
 31
0.0
  0
LINE
  5
48D
100
AcDbEntity
  8
化粧台
  6
CONTINUOUS
 62
     6
100
AcDbLine
 10
920.07
 20
1740.400388
 30
0.0
 11
920.0
 21
1740.401388
 31
0.0
  0
LINE
  5
48E
100
AcDbEntity
  8
化粧台
  6
CONTINUOUS
 62
     6
100
AcDbLine
 10
920.0
 20
1737.043388
 30
0.0
 11
919.832
 21
1737.048388
 31
0.0
  0
LINE
  5
48F
100
AcDbEntity
  8
化粧台
  6
CONTINUOUS
 62
     6
100
AcDbLine
 10
919.832
 20
1737.048388
 30
0.0
 11
919.664
 21
1737.065388
 31
0.0
  0
LINE
  5
490
100
AcDbEntity
  8
化粧台
  6
CONTINUOUS
 62
     6
100
AcDbLine
 10
919.664
 20
1737.065388
 30
0.0
 11
919.496
 21
1737.094388
 31
0.0
  0
LINE
  5
491
100
AcDbEntity
  8
化粧台
  6
CONTINUOUS
 62
     6
100
AcDbLine
 10
919.496
 20
1737.094388
 30
0.0
 11
919.329
 21
1737.135388
 31
0.0
  0
LINE
  5
492
100
AcDbEntity
  8
化粧台
  6
CONTINUOUS
 62
     6
100
AcDbLine
 10
919.329
 20
1737.135388
 30
0.0
 11
919.162
 21
1737.189388
 31
0.0
  0
LINE
  5
493
100
AcDbEntity
  8
化粧台
  6
CONTINUOUS
 62
     6
100
AcDbLine
 10
919.162
 20
1737.189388
 30
0.0
 11
918.997
 21
1737.257388
 31
0.0
  0
LINE
  5
494
100
AcDbEntity
  8
化粧台
  6
CONTINUOUS
 62
     6
100
AcDbLine
 10
918.997
 20
1737.257388
 30
0.0
 11
918.835
 21
1737.340388
 31
0.0
  0
LINE
  5
495
100
AcDbEntity
  8
化粧台
  6
CONTINUOUS
 62
     6
100
AcDbLine
 10
918.835
 20
1737.340388
 30
0.0
 11
918.678
 21
1737.438388
 31
0.0
  0
LINE
  5
496
100
AcDbEntity
  8
化粧台
  6
CONTINUOUS
 62
     6
100
AcDbLine
 10
918.678
 20
1737.438388
 30
0.0
 11
918.527
 21
1737.553388
 31
0.0
  0
LINE
  5
497
100
AcDbEntity
  8
化粧台
  6
CONTINUOUS
 62
     6
100
AcDbLine
 10
918.527
 20
1737.553388
 30
0.0
 11
918.386
 21
1737.686388
 31
0.0
  0
LINE
  5
498
100
AcDbEntity
  8
化粧台
  6
CONTINUOUS
 62
     6
100
AcDbLine
 10
918.386
 20
1737.686388
 30
0.0
 11
918.258
 21
1737.836388
 31
0.0
  0
LINE
  5
499
100
AcDbEntity
  8
化粧台
  6
CONTINUOUS
 62
     6
100
AcDbLine
 10
918.258
 20
1737.836388
 30
0.0
 11
918.148
 21
1738.002388
 31
0.0
  0
LINE
  5
49A
100
AcDbEntity
  8
化粧台
  6
CONTINUOUS
 62
     6
100
AcDbLine
 10
918.148
 20
1738.002388
 30
0.0
 11
918.058
 21
1738.183388
 31
0.0
  0
LINE
  5
49B
100
AcDbEntity
  8
化粧台
  6
CONTINUOUS
 62
     6
100
AcDbLine
 10
918.058
 20
1738.183388
 30
0.0
 11
917.994
 21
1738.376388
 31
0.0
  0
LINE
  5
49C
100
AcDbEntity
  8
化粧台
  6
CONTINUOUS
 62
     6
100
AcDbLine
 10
917.994
 20
1738.376388
 30
0.0
 11
917.957
 21
1738.577388
 31
0.0
  0
LINE
  5
49D
100
AcDbEntity
  8
化粧台
  6
CONTINUOUS
 62
     6
100
AcDbLine
 10
917.957
 20
1738.577388
 30
0.0
 11
917.95
 21
1738.722388
 31
0.0
  0
LINE
  5
49E
100
AcDbEntity
  8
化粧台
  6
CONTINUOUS
 62
     6
100
AcDbLine
 10
917.95
 20
1738.722388
 30
0.0
 11
917.951
 21
1738.782388
 31
0.0
  0
LINE
  5
49F
100
AcDbEntity
  8
化粧台
  6
CONTINUOUS
 62
     6
100
AcDbLine
 10
917.951
 20
1738.782388
 30
0.0
 11
917.975
 21
1738.985388
 31
0.0
  0
LINE
  5
4A0
100
AcDbEntity
  8
化粧台
  6
CONTINUOUS
 62
     6
100
AcDbLine
 10
917.975
 20
1738.985388
 30
0.0
 11
918.028
 21
1739.182388
 31
0.0
  0
LINE
  5
4A1
100
AcDbEntity
  8
化粧台
  6
CONTINUOUS
 62
     6
100
AcDbLine
 10
918.028
 20
1739.182388
 30
0.0
 11
918.107
 21
1739.368388
 31
0.0
  0
LINE
  5
4A2
100
AcDbEntity
  8
化粧台
  6
CONTINUOUS
 62
     6
100
AcDbLine
 10
918.107
 20
1739.368388
 30
0.0
 11
918.21
 21
1739.541388
 31
0.0
  0
LINE
  5
4A3
100
AcDbEntity
  8
化粧台
  6
CONTINUOUS
 62
     6
100
AcDbLine
 10
918.21
 20
1739.541388
 30
0.0
 11
918.331
 21
1739.698388
 31
0.0
  0
LINE
  5
4A4
100
AcDbEntity
  8
化粧台
  6
CONTINUOUS
 62
     6
100
AcDbLine
 10
918.331
 20
1739.698388
 30
0.0
 11
918.467
 21
1739.837388
 31
0.0
  0
LINE
  5
4A5
100
AcDbEntity
  8
化粧台
  6
CONTINUOUS
 62
     6
100
AcDbLine
 10
918.467
 20
1739.837388
 30
0.0
 11
918.614
 21
1739.960388
 31
0.0
  0
LINE
  5
4A6
100
AcDbEntity
  8
化粧台
  6
CONTINUOUS
 62
     6
100
AcDbLine
 10
918.614
 20
1739.960388
 30
0.0
 11
918.769
 21
1740.065388
 31
0.0
  0
LINE
  5
4A7
100
AcDbEntity
  8
化粧台
  6
CONTINUOUS
 62
     6
100
AcDbLine
 10
918.769
 20
1740.065388
 30
0.0
 11
918.93
 21
1740.154388
 31
0.0
  0
LINE
  5
4A8
100
AcDbEntity
  8
化粧台
  6
CONTINUOUS
 62
     6
100
AcDbLine
 10
918.93
 20
1740.154388
 30
0.0
 11
919.093
 21
1740.228388
 31
0.0
  0
LINE
  5
4A9
100
AcDbEntity
  8
化粧台
  6
CONTINUOUS
 62
     6
100
AcDbLine
 10
919.093
 20
1740.228388
 30
0.0
 11
919.259
 21
1740.288388
 31
0.0
  0
LINE
  5
4AA
100
AcDbEntity
  8
化粧台
  6
CONTINUOUS
 62
     6
100
AcDbLine
 10
919.259
 20
1740.288388
 30
0.0
 11
919.426
 21
1740.334388
 31
0.0
  0
LINE
  5
4AB
100
AcDbEntity
  8
化粧台
  6
CONTINUOUS
 62
     6
100
AcDbLine
 10
919.426
 20
1740.334388
 30
0.0
 11
919.594
 21
1740.368388
 31
0.0
  0
LINE
  5
4AC
100
AcDbEntity
  8
化粧台
  6
CONTINUOUS
 62
     6
100
AcDbLine
 10
919.594
 20
1740.368388
 30
0.0
 11
919.762
 21
1740.390388
 31
0.0
  0
LINE
  5
4AD
100
AcDbEntity
  8
化粧台
  6
CONTINUOUS
 62
     6
100
AcDbLine
 10
919.762
 20
1740.390388
 30
0.0
 11
919.93
 21
1740.400388
 31
0.0
  0
LINE
  5
4AE
100
AcDbEntity
  8
化粧台
  6
CONTINUOUS
 62
     6
100
AcDbLine
 10
919.93
 20
1740.400388
 30
0.0
 11
920.0
 21
1740.401388
 31
0.0
  0
ARC
  5
4AF
100
AcDbEntity
  8
化粧台
  6
CONTINUOUS
 62
     6
100
AcDbCircle
 10
2398.87491
 20
1763.493456
 30
0.0
 40
1.0
100
AcDbArc
 50
273.0
 51
4.323
  0
ARC
  5
4B0
100
AcDbEntity
  8
化粧台
  6
CONTINUOUS
 62
     6
100
AcDbCircle
 10
2395.878023
 20
1763.336396
 30
0.0
 40
1.0
100
AcDbArc
 50
273.0
 51
4.323
  0
ARC
  5
4B1
100
AcDbEntity
  8
化粧台
  6
CONTINUOUS
 62
     6
100
AcDbCircle
 10
2370.772476
 20
1762.02067
 30
0.0
 40
1.0
100
AcDbArc
 50
181.677
 51
273.0
  0
ARC
  5
4B2
100
AcDbEntity
  8
化粧台
  6
CONTINUOUS
 62
     6
100
AcDbCircle
 10
2367.775589
 20
1761.86361
 30
0.0
 40
1.0
100
AcDbArc
 50
181.677
 51
273.0
  0
LINE
  5
4B3
100
AcDbEntity
  8
化粧台
  6
CONTINUOUS
 62
     6
100
AcDbLine
 10
2399.872336
 20
1763.56876
 30
0.0
 11
2396.700836
 21
1805.512259
 31
0.0
  0
ARC
  5
4B4
100
AcDbEntity
  8
化粧台
  6
CONTINUOUS
 62
     6
100
AcDbCircle
 10
2378.612344
 20
1852.606121
 30
0.0
 40
101.051
100
AcDbArc
 50
264.39
 51
281.337
  0
ARC
  5
4B5
100
AcDbEntity
  8
化粧台
  6
CONTINUOUS
 62
     6
100
AcDbCircle
 10
2372.54248
 20
1804.083951
 30
0.0
 40
7.0
100
AcDbArc
 50
94.678
 51
181.676
  0
ARC
  5
4B6
100
AcDbEntity
  8
化粧台
  6
CONTINUOUS
 62
     6
100
AcDbCircle
 10
2372.54248
 20
1804.083951
 30
0.0
 40
4.0
100
AcDbArc
 50
94.678
 51
181.676
  0
ARC
  5
4B7
100
AcDbEntity
  8
化粧台
  6
CONTINUOUS
 62
     6
100
AcDbCircle
 10
2396.438562
 20
1512.060367
 30
0.0
 40
297.0
100
AcDbArc
 50
93.0
 51
94.678
  0
ARC
  5
4B8
100
AcDbEntity
  8
化粧台
  6
CONTINUOUS
 62
     6
100
AcDbCircle
 10
2396.479506
 20
1512.062513
 30
0.0
 40
297.0
100
AcDbArc
 50
91.322
 51
93.0
  0
ARC
  5
4B9
100
AcDbEntity
  8
化粧台
  6
CONTINUOUS
 62
     6
100
AcDbCircle
 10
2389.720905
 20
1804.984234
 30
0.0
 40
4.0
100
AcDbArc
 50
4.324
 51
91.322
  0
ARC
  5
4BA
100
AcDbEntity
  8
化粧台
  6
CONTINUOUS
 62
     6
100
AcDbCircle
 10
2389.720905
 20
1804.984234
 30
0.0
 40
7.0
100
AcDbArc
 50
4.324
 51
91.322
  0
LINE
  5
4BB
100
AcDbEntity
  8
化粧台
  6
CONTINUOUS
 62
     6
100
AcDbLine
 10
2396.875448
 20
1763.4117
 30
0.0
 11
2393.70961
 21
1805.285399
 31
0.0
  0
LINE
  5
4BC
100
AcDbEntity
  8
化粧台
  6
CONTINUOUS
 62
     6
100
AcDbLine
 10
2369.772643
 20
1761.991302
 30
0.0
 11
2368.544145
 21
1803.966533
 31
0.0
  0
LINE
  5
4BD
100
AcDbEntity
  8
化粧台
  6
CONTINUOUS
 62
     6
100
AcDbLine
 10
2366.775756
 20
1761.834242
 30
0.0
 11
2365.545592
 21
1803.879482
 31
0.0
  0
ARC
  5
4BE
100
AcDbEntity
  8
化粧台
  6
CONTINUOUS
 62
     6
100
AcDbCircle
 10
2403.035378
 20
1759.56181
 30
0.0
 40
4.0
100
AcDbArc
 50
183.0
 51
251.832
  0
ARC
  5
4BF
100
AcDbEntity
  8
化粧台
  6
CONTINUOUS
 62
     6
100
AcDbCircle
 10
2406.361476
 20
1749.042468
 30
0.0
 40
4.5
100
AcDbArc
 50
3.0
 51
63.694
  0
LINE
  5
4C0
100
AcDbEntity
  8
化粧台
  6
CONTINUOUS
 62
     6
100
AcDbLine
 10
2399.04086
 20
1759.352466
 30
0.0
 11
2398.876316
 21
1762.492157
 31
0.0
  0
ARC
  5
4C1
100
AcDbEntity
  8
化粧台
  6
CONTINUOUS
 62
     6
100
AcDbCircle
 10
2364.859768
 20
1757.561111
 30
0.0
 40
4.0
100
AcDbArc
 50
294.168
 51
3.0
  0
ARC
  5
4C2
100
AcDbEntity
  8
化粧台
  6
CONTINUOUS
 62
     6
100
AcDbCircle
 10
2362.650463
 20
1746.751671
 30
0.0
 40
4.5
100
AcDbArc
 50
122.306
 51
183.0
  0
LINE
  5
4C3
100
AcDbEntity
  8
化粧台
  6
CONTINUOUS
 62
     6
100
AcDbLine
 10
2368.854286
 20
1757.770455
 30
0.0
 11
2368.689742
 21
1760.910146
 31
0.0
  0
ARC
  5
4C4
100
AcDbEntity
  8
化粧台
  6
CONTINUOUS
 62
     6
100
AcDbCircle
 10
2386.967475
 20
1708.294621
 30
0.0
 40
50.0
100
AcDbArc
 50
114.168
 51
122.306
  0
ARC
  5
4C5
100
AcDbEntity
  8
化粧台
  6
CONTINUOUS
 62
     6
100
AcDbCircle
 10
2386.197532
 20
1708.25427
 30
0.0
 40
50.0
100
AcDbArc
 50
63.694
 51
71.832
  0
ARC
  5
4C6
100
AcDbEntity
  8
化粧台
  6
CONTINUOUS
 62
     6
100
AcDbCircle
 10
2276.950517
 20
1619.907647
 30
0.0
 40
180.0
100
AcDbArc
 50
63.402
 51
85.938
  0
ARC
  5
4C7
100
AcDbEntity
  8
化粧台
  6
CONTINUOUS
 62
     6
100
AcDbCircle
 10
2396.479506
 20
1512.062513
 30
0.0
 40
300.0
100
AcDbArc
 50
90.227
 51
91.376
  0
ARC
  5
4C8
100
AcDbEntity
  8
化粧台
  6
CONTINUOUS
 62
     6
100
AcDbCircle
 10
2407.841604
 20
1763.963381
 30
0.0
 40
1.0
100
AcDbArc
 50
273.0
 51
5.21
  0
ARC
  5
4C9
100
AcDbEntity
  8
化粧台
  6
CONTINUOUS
 62
     6
100
AcDbCircle
 10
2395.330645
 20
1802.059817
 30
0.0
 40
10.0
100
AcDbArc
 50
5.21
 51
90.227
  0
LINE
  5
4CA
100
AcDbEntity
  8
化粧台
  6
CONTINUOUS
 62
     6
100
AcDbLine
 10
2405.28875
 20
1802.968229
 30
0.0
 11
2408.837247
 21
1764.053612
 31
0.0
  0
ARC
  5
4CB
100
AcDbEntity
  8
化粧台
  6
CONTINUOUS
 62
     6
100
AcDbCircle
 10
2396.479506
 20
1512.062513
 30
0.0
 40
297.0
100
AcDbArc
 50
93.0
 51
93.004
  0
LINE
  5
4CC
100
AcDbEntity
  8
化粧台
  6
CONTINUOUS
 62
     6
100
AcDbLine
 10
2383.377585
 20
1761.679903
 30
0.0
 11
2407.89394
 21
1762.964751
 31
0.0
  0
LINE
  5
4CD
100
AcDbEntity
  8
化粧台
  6
CONTINUOUS
 62
     6
100
AcDbLine
 10
2383.377585
 20
1761.679903
 30
0.0
 11
2358.86123
 21
1760.395056
 31
0.0
  0
LINE
  5
4CE
100
AcDbEntity
  8
化粧台
  6
CONTINUOUS
 62
     6
100
AcDbLine
 10
2357.270647
 20
1800.451707
 30
0.0
 11
2357.809275
 21
1761.379349
 31
0.0
  0
ARC
  5
4CF
100
AcDbEntity
  8
化粧台
  6
CONTINUOUS
 62
     6
100
AcDbCircle
 10
2367.269155
 20
1800.589177
 30
0.0
 40
10.0
100
AcDbArc
 50
95.773
 51
180.79
  0
ARC
  5
4D0
100
AcDbEntity
  8
化粧台
  6
CONTINUOUS
 62
     6
100
AcDbCircle
 10
2358.808894
 20
1761.393685
 30
0.0
 40
1.0
100
AcDbArc
 50
180.79
 51
273.0
  0
ARC
  5
4D1
100
AcDbEntity
  8
化粧台
  6
CONTINUOUS
 62
     6
100
AcDbCircle
 10
2396.438562
 20
1512.060367
 30
0.0
 40
300.0
100
AcDbArc
 50
94.624
 51
95.773
  0
LINE
  5
4D2
100
AcDbEntity
  8
化粧台
  6
CONTINUOUS
 62
     6
100
AcDbLine
 10
2380.765027
 20
1811.530491
 30
0.0
 11
2372.276676
 21
1811.085635
 31
0.0
  0
LINE
  5
4D3
100
AcDbEntity
  8
化粧台
  6
CONTINUOUS
 62
     6
100
AcDbLine
 10
2372.276676
 20
1811.085635
 30
0.0
 11
2372.232242
 21
1811.933472
 31
0.0
  0
ARC
  5
4D4
100
AcDbEntity
  8
化粧台
  6
CONTINUOUS
 62
     6
100
AcDbCircle
 10
2383.277153
 20
1763.596273
 30
0.0
 40
50.0
100
AcDbArc
 50
93.0
 51
102.302
  0
ARC
  5
4D5
100
AcDbEntity
  8
化粧台
  6
CONTINUOUS
 62
     6
100
AcDbCircle
 10
2372.731557
 20
1811.95964
 30
0.0
 40
0.5
100
AcDbArc
 50
102.302
 51
183.002
  0
ARC
  5
4D6
100
AcDbEntity
  8
化粧台
  6
CONTINUOUS
 62
     6
100
AcDbCircle
 10
2388.70963
 20
1812.797015
 30
0.0
 40
0.5
100
AcDbArc
 50
3.0
 51
83.699
  0
ARC
  5
4D7
100
AcDbEntity
  8
化粧台
  6
CONTINUOUS
 62
     6
100
AcDbCircle
 10
2383.277153
 20
1763.596273
 30
0.0
 40
50.0
100
AcDbArc
 50
83.699
 51
93.0
  0
LINE
  5
4D8
100
AcDbEntity
  8
化粧台
  6
CONTINUOUS
 62
     6
100
AcDbLine
 10
2389.253378
 20
1811.975347
 30
0.0
 11
2389.208945
 21
1812.823183
 31
0.0
  0
LINE
  5
4D9
100
AcDbEntity
  8
化粧台
  6
CONTINUOUS
 62
     6
100
AcDbLine
 10
2380.765027
 20
1811.530491
 30
0.0
 11
2389.253378
 21
1811.975347
 31
0.0
  0
LINE
  5
4DA
100
AcDbEntity
  8
化粧台
  6
CONTINUOUS
 62
     6
100
AcDbLine
 10
2268.166099
 20
1780.760349
 30
0.0
 11
2269.513334
 21
1787.096541
 31
0.0
  0
ARC
  5
4DB
100
AcDbEntity
  8
化粧台
  6
CONTINUOUS
 62
     6
100
AcDbCircle
 10
2269.14433
 20
1780.552261
 30
0.0
 40
1.0
100
AcDbArc
 50
168.0
 51
264.432
  0
ARC
  5
4DC
100
AcDbEntity
  8
化粧台
  6
CONTINUOUS
 62
     6
100
AcDbCircle
 10
2251.583374
 20
1600.406307
 30
0.0
 40
180.0
100
AcDbArc
 50
73.965
 51
84.432
  0
ARC
  5
4DD
100
AcDbEntity
  8
化粧台
  6
CONTINUOUS
 62
     6
100
AcDbCircle
 10
2276.462434
 20
1771.704134
 30
0.0
 40
1.0
100
AcDbArc
 50
168.0
 51
258.0
  0
LINE
  5
4DE
100
AcDbEntity
  8
化粧台
  6
CONTINUOUS
 62
     6
100
AcDbLine
 10
2276.254346
 20
1770.725903
 30
0.0
 11
2286.035554
 21
1768.646963
 31
0.0
  0
ARC
  5
4DF
100
AcDbEntity
  8
化粧台
  6
CONTINUOUS
 62
     6
100
AcDbCircle
 10
2296.02485
 20
1767.546254
 30
0.0
 40
1.0
100
AcDbArc
 50
258.0
 51
348.0
  0
LINE
  5
4E0
100
AcDbEntity
  8
化粧台
  6
CONTINUOUS
 62
     6
100
AcDbLine
 10
2295.816762
 20
1766.568023
 30
0.0
 11
2286.035554
 21
1768.646963
 31
0.0
  0
LINE
  5
4E1
100
AcDbEntity
  8
化粧台
  6
CONTINUOUS
 62
     6
100
AcDbLine
 10
2298.460229
 20
1774.194823
 30
0.0
 11
2297.003082
 21
1767.338165
 31
0.0
  0
LINE
  5
4E2
100
AcDbEntity
  8
化粧台
  6
CONTINUOUS
 62
     6
100
AcDbLine
 10
2276.909308
 20
1778.615994
 30
0.0
 11
2275.484203
 21
1771.912223
 31
0.0
  0
LINE
  5
4E3
100
AcDbEntity
  8
化粧台
  6
CONTINUOUS
 62
     6
100
AcDbLine
 10
2290.9729
 20
1799.360456
 30
0.0
 11
2289.603765
 21
1799.460938
 31
0.0
  0
LINE
  5
4E4
100
AcDbEntity
  8
化粧台
  6
CONTINUOUS
 62
     6
100
AcDbLine
 10
2289.603765
 20
1799.460938
 30
0.0
 11
2288.321537
 21
1799.450818
 31
0.0
  0
LINE
  5
4E5
100
AcDbEntity
  8
化粧台
  6
CONTINUOUS
 62
     6
100
AcDbLine
 10
2288.321537
 20
1799.450818
 30
0.0
 11
2287.130534
 21
1799.362364
 31
0.0
  0
LINE
  5
4E6
100
AcDbEntity
  8
化粧台
  6
CONTINUOUS
 62
     6
100
AcDbLine
 10
2287.130534
 20
1799.362364
 30
0.0
 11
2286.02561
 21
1799.217338
 31
0.0
  0
LINE
  5
4E7
100
AcDbEntity
  8
化粧台
  6
CONTINUOUS
 62
     6
100
AcDbLine
 10
2286.02561
 20
1799.217338
 30
0.0
 11
2284.997991
 21
1799.030301
 31
0.0
  0
LINE
  5
4E8
100
AcDbEntity
  8
化粧台
  6
CONTINUOUS
 62
     6
100
AcDbLine
 10
2284.997991
 20
1799.030301
 30
0.0
 11
2284.035117
 21
1798.811608
 31
0.0
  0
LINE
  5
4E9
100
AcDbEntity
  8
化粧台
  6
CONTINUOUS
 62
     6
100
AcDbLine
 10
2284.035117
 20
1798.811608
 30
0.0
 11
2283.127634
 21
1798.56778
 31
0.0
  0
LINE
  5
4EA
100
AcDbEntity
  8
化粧台
  6
CONTINUOUS
 62
     6
100
AcDbLine
 10
2283.127634
 20
1798.56778
 30
0.0
 11
2282.263454
 21
1798.300185
 31
0.0
  0
LINE
  5
4EB
100
AcDbEntity
  8
化粧台
  6
CONTINUOUS
 62
     6
100
AcDbLine
 10
2282.263454
 20
1798.300185
 30
0.0
 11
2281.432435
 21
1798.011297
 31
0.0
  0
LINE
  5
4EC
100
AcDbEntity
  8
化粧台
  6
CONTINUOUS
 62
     6
100
AcDbLine
 10
2281.432435
 20
1798.011297
 30
0.0
 11
2280.624641
 21
1797.699593
 31
0.0
  0
LINE
  5
4ED
100
AcDbEntity
  8
化粧台
  6
CONTINUOUS
 62
     6
100
AcDbLine
 10
2280.624641
 20
1797.699593
 30
0.0
 11
2279.832189
 21
1797.362658
 31
0.0
  0
LINE
  5
4EE
100
AcDbEntity
  8
化粧台
  6
CONTINUOUS
 62
     6
100
AcDbLine
 10
2279.832189
 20
1797.362658
 30
0.0
 11
2279.047194
 21
1796.998075
 31
0.0
  0
LINE
  5
4EF
100
AcDbEntity
  8
化粧台
  6
CONTINUOUS
 62
     6
100
AcDbLine
 10
2279.047194
 20
1796.998075
 30
0.0
 11
2278.261876
 21
1796.601431
 31
0.0
  0
LINE
  5
4F0
100
AcDbEntity
  8
化粧台
  6
CONTINUOUS
 62
     6
100
AcDbLine
 10
2278.261876
 20
1796.601431
 30
0.0
 11
2277.468666
 21
1796.164318
 31
0.0
  0
LINE
  5
4F1
100
AcDbEntity
  8
化粧台
  6
CONTINUOUS
 62
     6
100
AcDbLine
 10
2277.468666
 20
1796.164318
 30
0.0
 11
2276.662831
 21
1795.681483
 31
0.0
  0
LINE
  5
4F2
100
AcDbEntity
  8
化粧台
  6
CONTINUOUS
 62
     6
100
AcDbLine
 10
2276.662831
 20
1795.681483
 30
0.0
 11
2275.837011
 21
1795.140521
 31
0.0
  0
LINE
  5
4F3
100
AcDbEntity
  8
化粧台
  6
CONTINUOUS
 62
     6
100
AcDbLine
 10
2275.837011
 20
1795.140521
 30
0.0
 11
2274.988786
 21
1794.530292
 31
0.0
  0
LINE
  5
4F4
100
AcDbEntity
  8
化粧台
  6
CONTINUOUS
 62
     6
100
AcDbLine
 10
2274.988786
 20
1794.530292
 30
0.0
 11
2274.11689
 21
1793.83671
 31
0.0
  0
LINE
  5
4F5
100
AcDbEntity
  8
化粧台
  6
CONTINUOUS
 62
     6
100
AcDbLine
 10
2274.11689
 20
1793.83671
 30
0.0
 11
2273.225367
 21
1793.039959
 31
0.0
  0
LINE
  5
4F6
100
AcDbEntity
  8
化粧台
  6
CONTINUOUS
 62
     6
100
AcDbLine
 10
2273.225367
 20
1793.039959
 30
0.0
 11
2272.32709
 21
1792.123692
 31
0.0
  0
LINE
  5
4F7
100
AcDbEntity
  8
化粧台
  6
CONTINUOUS
 62
     6
100
AcDbLine
 10
2272.32709
 20
1792.123692
 30
0.0
 11
2271.448123
 21
1791.068244
 31
0.0
  0
LINE
  5
4F8
100
AcDbEntity
  8
化粧台
  6
CONTINUOUS
 62
     6
100
AcDbLine
 10
2271.448123
 20
1791.068244
 30
0.0
 11
2270.635084
 21
1789.863041
 31
0.0
  0
LINE
  5
4F9
100
AcDbEntity
  8
化粧台
  6
CONTINUOUS
 62
     6
100
AcDbLine
 10
2270.635084
 20
1789.863041
 30
0.0
 11
2269.956983
 21
1788.509697
 31
0.0
  0
LINE
  5
4FA
100
AcDbEntity
  8
化粧台
  6
CONTINUOUS
 62
     6
100
AcDbLine
 10
2269.956983
 20
1788.509697
 30
0.0
 11
2269.50733
 21
1787.039149
 31
0.0
  0
LINE
  5
4FB
100
AcDbEntity
  8
化粧台
  6
CONTINUOUS
 62
     6
100
AcDbLine
 10
2269.50733
 20
1787.039149
 30
0.0
 11
2269.503279
 21
1787.020912
 31
0.0
  0
LINE
  5
4FC
100
AcDbEntity
  8
化粧台
  6
CONTINUOUS
 62
     6
100
AcDbLine
 10
869.0
 20
1763.5
 30
0.0
 11
869.0
 21
1710.722388
 31
0.0
  0
LINE
  5
4FD
100
AcDbEntity
  8
化粧台
  6
CONTINUOUS
 62
     6
100
AcDbLine
 10
971.0
 20
1763.5
 30
0.0
 11
971.0
 21
1710.722388
 31
0.0
  0
ARC
  5
4FE
100
AcDbEntity
  8
化粧台
  6
CONTINUOUS
 62
     2
100
AcDbCircle
 10
920.0
 20
5088.0
 30
0.0
 40
1240.0
100
AcDbArc
 50
258.696853
 51
269.060291
  0
ARC
  5
4FF
100
AcDbEntity
  8
化粧台
  6
CONTINUOUS
 62
     2
100
AcDbCircle
 10
920.0
 20
5088.0
 30
0.0
 40
1240.0
100
AcDbArc
 50
270.939709
 51
281.303147
  0
ARC
  5
500
100
AcDbEntity
  8
化粧台
  6
CONTINUOUS
 62
     6
100
AcDbCircle
 10
920.0
 20
4587.864959
 30
0.0
 40
765.864959
100
AcDbArc
 50
271.427622
 51
288.656862
  0
ARC
  5
501
100
AcDbEntity
  8
化粧台
  6
CONTINUOUS
 62
     6
100
AcDbCircle
 10
920.0
 20
4587.864959
 30
0.0
 40
765.864959
100
AcDbArc
 50
251.343138
 51
268.572378
  0
ARC
  5
502
100
AcDbEntity
  8
化粧台
  6
CONTINUOUS
 62
     2
100
AcDbCircle
 10
920.0
 20
3763.0
 30
0.0
 40
32.3
100
AcDbArc
 50
121.61381
 51
58.38619
  0
ARC
  5
503
100
AcDbEntity
  8
化粧台
  6
CONTINUOUS
 62
     2
100
AcDbCircle
 10
920.0
 20
3763.0
 30
0.0
 40
22.6
100
AcDbArc
 50
122.189684
 51
57.810316
  0
LINE
  5
504
100
AcDbEntity
  8
化粧台
  6
CONTINUOUS
 62
     2
100
AcDbLine
 10
625.0
 20
1743.5
 30
0.0
 11
849.0
 21
1743.5
 31
0.0
  0
LINE
  5
505
100
AcDbEntity
  8
化粧台
  6
CONTINUOUS
 62
     2
100
AcDbLine
 10
849.0
 20
1733.5
 30
0.0
 11
625.240115
 21
1733.5
 31
0.0
  0
LINE
  5
506
100
AcDbEntity
  8
化粧台
  6
CONTINUOUS
 62
     2
100
AcDbLine
 10
1214.759885
 20
1733.5
 30
0.0
 11
991.0
 21
1733.5
 31
0.0
  0
LINE
  5
507
100
AcDbEntity
  8
化粧台
  6
CONTINUOUS
 62
     2
100
AcDbLine
 10
991.0
 20
1743.5
 30
0.0
 11
1215.0
 21
1743.5
 31
0.0
  0
LINE
  5
508
100
AcDbEntity
  8
化粧台
  6
EXLTYPE3
 62
     6
100
AcDbLine
 10
920.0
 20
1819.412388
 30
0.0
 11
920.0
 21
903.5
 31
0.0
  0
ARC
  5
509
100
AcDbEntity
  8
化粧台
  6
CONTINUOUS
 62
     6
100
AcDbCircle
 10
2273.680658
 20
1677.294162
 30
0.0
 40
100.0
100
AcDbArc
 50
34.198268
 51
73.965
  0
LINE
  5
50A
100
AcDbEntity
  8
化粧台
  6
CONTINUOUS
 62
     6
100
AcDbLine
 10
2358.838778
 20
1733.5
 30
0.0
 11
2358.15663
 21
1746.516159
 31
0.0
  0
LINE
  5
50B
100
AcDbEntity
  8
化粧台
  6
CONTINUOUS
 62
     6
100
AcDbLine
 10
2411.682198
 20
1733.5
 30
0.0
 11
2410.855309
 21
1749.27798
 31
0.0
  0
LINE
  5
50C
100
AcDbEntity
  8
鏡台
  6
CONTINUOUS
 62
     6
100
AcDbLine
 10
1190.0
 20
1873.5
 30
0.0
 11
1263.076697
 21
1873.5
 31
0.0
  0
LINE
  5
50D
100
AcDbEntity
  8
鏡台
  6
CONTINUOUS
 62
     6
100
AcDbLine
 10
695.0
 20
1808.5
 30
0.0
 11
635.0
 21
1808.5
 31
0.0
  0
LINE
  5
50E
100
AcDbEntity
  8
鏡台
  6
CONTINUOUS
 62
     6
100
AcDbLine
 10
665.0
 20
1838.5
 30
0.0
 11
665.0
 21
1778.5
 31
0.0
  0
LINE
  5
50F
100
AcDbEntity
  8
鏡台
  6
CONTINUOUS
 62
     6
100
AcDbLine
 10
1205.0
 20
1808.5
 30
0.0
 11
1145.0
 21
1808.5
 31
0.0
  0
LINE
  5
510
100
AcDbEntity
  8
鏡台
  6
CONTINUOUS
 62
     6
100
AcDbLine
 10
1175.0
 20
1838.5
 30
0.0
 11
1175.0
 21
1778.5
 31
0.0
  0
LINE
  5
511
100
AcDbEntity
  8
鏡台
  6
CONTINUOUS
 62
     6
100
AcDbLine
 10
868.833009
 20
2583.333009
 30
0.0
 11
815.8
 21
2530.3
 31
0.0
  0
LINE
  5
512
100
AcDbEntity
  8
鏡台
  6
CONTINUOUS
 62
     6
100
AcDbLine
 10
846.193146
 20
2572.006854
 30
0.0
 11
827.243146
 21
2553.056854
 31
0.0
  0
LINE
  5
513
100
AcDbEntity
  8
鏡台
  6
CONTINUOUS
 62
     6
100
AcDbLine
 10
862.706854
 20
2565.893146
 30
0.0
 11
833.006854
 21
2536.193146
 31
0.0
  0
LINE
  5
514
100
AcDbEntity
  8
鏡台
  6
CONTINUOUS
 62
     6
100
AcDbLine
 10
1030.833009
 20
2410.333009
 30
0.0
 11
977.8
 21
2357.3
 31
0.0
  0
LINE
  5
515
100
AcDbEntity
  8
鏡台
  6
CONTINUOUS
 62
     6
100
AcDbLine
 10
1008.193146
 20
2399.006854
 30
0.0
 11
989.243146
 21
2380.056854
 31
0.0
  0
LINE
  5
516
100
AcDbEntity
  8
鏡台
  6
CONTINUOUS
 62
     6
100
AcDbLine
 10
1024.706854
 20
2392.893146
 30
0.0
 11
995.006854
 21
2363.193146
 31
0.0
  0
LINE
  5
517
100
AcDbEntity
  8
鏡台
  6
CONTINUOUS
 62
     6
100
AcDbLine
 10
894.833009
 20
2228.333009
 30
0.0
 11
841.8
 21
2175.3
 31
0.0
  0
LINE
  5
518
100
AcDbEntity
  8
鏡台
  6
CONTINUOUS
 62
     6
100
AcDbLine
 10
872.193146
 20
2217.006854
 30
0.0
 11
853.243146
 21
2198.056854
 31
0.0
  0
LINE
  5
519
100
AcDbEntity
  8
鏡台
  6
CONTINUOUS
 62
     6
100
AcDbLine
 10
888.706854
 20
2210.893146
 30
0.0
 11
859.006854
 21
2181.193146
 31
0.0
  0
ARC
  5
51A
100
AcDbEntity
  8
鏡台
  6
CONTINUOUS
 62
     6
100
AcDbCircle
 10
1074.8
 20
2320.5
 30
0.0
 40
3.0
100
AcDbArc
 50
90.0
 51
180.0
  0
LINE
  5
51B
100
AcDbEntity
  8
鏡台
  6
CONTINUOUS
 62
     6
100
AcDbLine
 10
1071.8
 20
2281.5
 30
0.0
 11
1071.8
 21
2320.5
 31
0.0
  0
ARC
  5
51C
100
AcDbEntity
  8
鏡台
  6
CONTINUOUS
 62
     6
100
AcDbCircle
 10
1074.8
 20
2281.5
 30
0.0
 40
3.0
100
AcDbArc
 50
180.0
 51
270.0
  0
ARC
  5
51D
100
AcDbEntity
  8
鏡台
  6
CONTINUOUS
 62
     6
100
AcDbCircle
 10
1214.7
 20
2281.5
 30
0.0
 40
3.0
100
AcDbArc
 50
270.0
 51
0.0
  0
LINE
  5
51E
100
AcDbEntity
  8
鏡台
  6
CONTINUOUS
 62
     6
100
AcDbLine
 10
1217.7
 20
2281.5
 30
0.0
 11
1217.7
 21
2320.5
 31
0.0
  0
ARC
  5
51F
100
AcDbEntity
  8
鏡台
  6
CONTINUOUS
 62
     6
100
AcDbCircle
 10
1214.7
 20
2320.5
 30
0.0
 40
3.0
100
AcDbArc
 50
0.0
 51
90.0
  0
LINE
  5
520
100
AcDbEntity
  8
鏡台
  6
CONTINUOUS
 62
     6
100
AcDbLine
 10
1153.75
 20
2307.5
 30
0.0
 11
1181.75
 21
2307.5
 31
0.0
  0
LINE
  5
521
100
AcDbEntity
  8
鏡台
  6
CONTINUOUS
 62
     6
100
AcDbLine
 10
1153.75
 20
2307.5
 30
0.0
 11
1153.75
 21
2284.5
 31
0.0
  0
LINE
  5
522
100
AcDbEntity
  8
鏡台
  6
CONTINUOUS
 62
     6
100
AcDbLine
 10
1153.75
 20
2284.5
 30
0.0
 11
1181.75
 21
2284.5
 31
0.0
  0
LINE
  5
523
100
AcDbEntity
  8
鏡台
  6
CONTINUOUS
 62
     6
100
AcDbLine
 10
1181.75
 20
2307.5
 30
0.0
 11
1181.75
 21
2284.5
 31
0.0
  0
LINE
  5
524
100
AcDbEntity
  8
鏡台
  6
CONTINUOUS
 62
     6
100
AcDbLine
 10
1107.75
 20
2307.5
 30
0.0
 11
1135.75
 21
2307.5
 31
0.0
  0
LINE
  5
525
100
AcDbEntity
  8
鏡台
  6
CONTINUOUS
 62
     6
100
AcDbLine
 10
1107.75
 20
2307.5
 30
0.0
 11
1107.75
 21
2284.5
 31
0.0
  0
LINE
  5
526
100
AcDbEntity
  8
鏡台
  6
CONTINUOUS
 62
     6
100
AcDbLine
 10
1107.75
 20
2284.5
 30
0.0
 11
1135.75
 21
2284.5
 31
0.0
  0
LINE
  5
527
100
AcDbEntity
  8
鏡台
  6
CONTINUOUS
 62
     6
100
AcDbLine
 10
1135.75
 20
2307.5
 30
0.0
 11
1135.75
 21
2284.5
 31
0.0
  0
LINE
  5
528
100
AcDbEntity
  8
鏡台
  6
CONTINUOUS
 62
     6
100
AcDbLine
 10
1130.25
 20
2300.359087
 30
0.0
 11
1130.25
 21
2291.359087
 31
0.0
  0
LINE
  5
529
100
AcDbEntity
  8
鏡台
  6
CONTINUOUS
 62
     6
100
AcDbLine
 10
1160.75
 20
2299.859087
 30
0.0
 11
1160.75
 21
2291.859087
 31
0.0
  0
LINE
  5
52A
100
AcDbEntity
  8
鏡台
  6
CONTINUOUS
 62
     6
100
AcDbLine
 10
1174.75
 20
2300.359087
 30
0.0
 11
1174.75
 21
2291.359087
 31
0.0
  0
LINE
  5
52B
100
AcDbEntity
  8
鏡台
  6
CONTINUOUS
 62
     6
100
AcDbLine
 10
665.0
 20
2718.5
 30
0.0
 11
665.0
 21
2658.5
 31
0.0
  0
LINE
  5
52C
100
AcDbEntity
  8
鏡台
  6
CONTINUOUS
 62
     6
100
AcDbLine
 10
695.0
 20
2688.5
 30
0.0
 11
635.0
 21
2688.5
 31
0.0
  0
CIRCLE
  5
52D
100
AcDbEntity
  8
鏡台
  6
CONTINUOUS
 62
     6
100
AcDbCircle
 10
665.0
 20
2688.5
 30
0.0
 40
8.5
  0
LINE
  5
52E
100
AcDbEntity
  8
鏡台
  6
CONTINUOUS
 62
     6
100
AcDbLine
 10
1175.0
 20
2718.5
 30
0.0
 11
1175.0
 21
2658.5
 31
0.0
  0
LINE
  5
52F
100
AcDbEntity
  8
鏡台
  6
CONTINUOUS
 62
     6
100
AcDbLine
 10
1145.0
 20
2688.5
 30
0.0
 11
1205.0
 21
2688.5
 31
0.0
  0
CIRCLE
  5
530
100
AcDbEntity
  8
鏡台
  6
CONTINUOUS
 62
     6
100
AcDbCircle
 10
1175.0
 20
2688.5
 30
0.0
 40
8.5
  0
LINE
  5
531
100
AcDbEntity
  8
鏡台
  6
CONTINUOUS
 62
     6
100
AcDbLine
 10
1079.75
 20
2313.5
 30
0.0
 11
1079.75
 21
2278.5
 31
0.0
  0
LINE
  5
532
100
AcDbEntity
  8
鏡台
  6
CONTINUOUS
 62
     6
100
AcDbLine
 10
1209.75
 20
2313.5
 30
0.0
 11
1209.75
 21
2278.5
 31
0.0
  0
LINE
  5
533
100
AcDbEntity
  8
鏡台
  6
CONTINUOUS
 62
     6
100
AcDbLine
 10
1079.75
 20
2313.5
 30
0.0
 11
1209.75
 21
2313.5
 31
0.0
  0
ARC
  5
534
100
AcDbEntity
  8
鏡台
  6
CONTINUOUS
 62
     6
100
AcDbCircle
 10
919.983882
 20
42196.124482
 30
0.0
 40
39467.148438
100
AcDbArc
 50
269.604393
 51
270.395607
  0
ARC
  5
535
100
AcDbEntity
  8
鏡台
  6
CONTINUOUS
 62
     6
100
AcDbCircle
 10
647.410133
 20
2719.91706
 30
0.0
 40
10.0
100
AcDbArc
 50
89.604393
 51
182.037575
  0
ARC
  5
536
100
AcDbEntity
  8
鏡台
  6
CONTINUOUS
 62
     6
100
AcDbCircle
 10
-181.117436
 20
2690.440216
 30
0.0
 40
819.051758
100
AcDbArc
 50
357.95171
 51
2.037575
  0
ARC
  5
537
100
AcDbEntity
  8
鏡台
  6
CONTINUOUS
 62
     6
100
AcDbCircle
 10
647.404606
 20
2660.808426
 30
0.0
 40
10.0
100
AcDbArc
 50
177.95171
 51
270.395615
  0
ARC
  5
538
100
AcDbEntity
  8
鏡台
  6
CONTINUOUS
 62
     6
100
AcDbCircle
 10
919.983882
 20
-36815.398956
 30
0.0
 40
39467.148438
100
AcDbArc
 50
89.604385
 51
90.395615
  0
ARC
  5
539
100
AcDbEntity
  8
鏡台
  6
CONTINUOUS
 62
     6
100
AcDbCircle
 10
1192.563158
 20
2660.808426
 30
0.0
 40
10.0
100
AcDbArc
 50
269.604385
 51
2.04829
  0
ARC
  5
53A
100
AcDbEntity
  8
鏡台
  6
CONTINUOUS
 62
     6
100
AcDbCircle
 10
2021.0852
 20
2690.440216
 30
0.0
 40
819.051758
100
AcDbArc
 50
177.962425
 51
182.04829
  0
ARC
  5
53B
100
AcDbEntity
  8
鏡台
  6
CONTINUOUS
 62
     6
100
AcDbCircle
 10
1192.557631
 20
2719.91706
 30
0.0
 40
10.0
100
AcDbArc
 50
357.962425
 51
90.395607
  0
LINE
  5
53C
100
AcDbEntity
  8
鏡台
  6
CONTINUOUS
 62
     6
100
AcDbLine
 10
1275.607802
 20
1758.912733
 30
0.0
 11
1264.982689
 21
1756.065732
 31
0.0
  0
LINE
  5
53D
100
AcDbEntity
  8
鏡台
  6
CONTINUOUS
 62
     6
100
AcDbLine
 10
1271.854862
 20
1772.918608
 30
0.0
 11
1258.004666
 21
1768.585072
 31
0.0
  0
LINE
  5
53E
100
AcDbEntity
  8
鏡台
  6
CONTINUOUS
 62
     6
100
AcDbLine
 10
1266.052539
 20
1776.022674
 30
0.0
 11
1256.99753
 21
1773.596338
 31
0.0
  0
LINE
  5
53F
100
AcDbEntity
  8
鏡台
  6
CONTINUOUS
 62
     6
100
AcDbLine
 10
1258.004666
 20
1768.585072
 30
0.0
 11
1253.529978
 21
1790.850197
 31
0.0
  0
LINE
  5
540
100
AcDbEntity
  8
鏡台
  6
CONTINUOUS
 62
     6
100
AcDbLine
 10
1260.407174
 20
1792.694229
 30
0.0
 11
1266.614596
 21
1774.362756
 31
0.0
  0
LINE
  5
541
100
AcDbEntity
  8
鏡台
  6
CONTINUOUS
 62
     6
100
AcDbLine
 10
1290.674427
 20
1764.502698
 30
0.0
 11
1275.219542
 21
1760.361631
 31
0.0
  0
LINE
  5
542
100
AcDbEntity
  8
鏡台
  6
CONTINUOUS
 62
     6
100
AcDbLine
 10
1288.344994
 20
1773.196077
 30
0.0
 11
1272.89023
 21
1769.055
 31
0.0
  0
LINE
  5
543
100
AcDbEntity
  8
鏡台
  6
CONTINUOUS
 62
     6
100
AcDbLine
 10
1264.982568
 20
1756.065743
 30
0.0
 11
1261.876849
 21
1767.656776
 31
0.0
  0
LINE
  5
544
100
AcDbEntity
  8
鏡台
  6
CONTINUOUS
 62
     6
100
AcDbLine
 10
1272.501972
 20
1770.503899
 30
0.0
 11
1261.876849
 21
1767.656776
 31
0.0
  0
LINE
  5
545
100
AcDbEntity
  8
鏡台
  6
CONTINUOUS
 62
     6
100
AcDbLine
 10
1271.854862
 20
1772.918608
 30
0.0
 11
1270.328637
 21
1772.454647
 31
0.0
  0
LINE
  5
546
100
AcDbEntity
  8
鏡台
  6
CONTINUOUS
 62
     6
100
AcDbLine
 10
1276.384198
 20
1756.014947
 30
0.0
 11
1262.554394
 21
1753.280077
 31
0.0
  0
LINE
  5
547
100
AcDbEntity
  8
鏡台
  6
CONTINUOUS
 62
     6
100
AcDbLine
 10
1271.854862
 20
1772.918608
 30
0.0
 11
1276.384198
 21
1756.014947
 31
0.0
  0
LINE
  5
548
100
AcDbEntity
  8
鏡台
  6
CONTINUOUS
 62
     6
100
AcDbLine
 10
1257.745785
 20
1767.619096
 30
0.0
 11
1261.394412
 21
1754.00221
 31
0.0
  0
LINE
  5
549
100
AcDbEntity
  8
鏡台
  6
CONTINUOUS
 62
     6
100
AcDbLine
 10
1259.201124
 20
1793.339395
 30
0.0
 11
1254.251516
 21
1792.013172
 31
0.0
  0
ARC
  5
54A
100
AcDbEntity
  8
鏡台
  6
CONTINUOUS
 62
     6
100
AcDbCircle
 10
1401.656677
 20
1818.665039
 30
0.0
 40
150.0
100
AcDbArc
 50
184.010986
 51
190.263581
  0
ARC
  5
54B
100
AcDbEntity
  8
鏡台
  6
CONTINUOUS
 62
     6
100
AcDbCircle
 10
1407.149475
 20
1818.383301
 30
0.0
 40
150.0
100
AcDbArc
 50
184.385864
 51
189.606282
  0
ARC
  5
54C
100
AcDbEntity
  8
鏡台
  6
CONTINUOUS
 62
     6
100
AcDbCircle
 10
1269.456095
 20
1775.324941
 30
0.0
 40
3.0
100
AcDbArc
 50
198.707275
 51
286.909241
  0
ARC
  5
54D
100
AcDbEntity
  8
鏡台
  6
CONTINUOUS
 62
     6
100
AcDbCircle
 10
1254.510355
 20
1791.047239
 30
0.0
 40
1.0
100
AcDbArc
 50
105.000061
 51
191.363464
  0
ARC
  5
54E
100
AcDbEntity
  8
鏡台
  6
CONTINUOUS
 62
     6
100
AcDbCircle
 10
1259.459963
 20
1792.373463
 30
0.0
 40
1.0
100
AcDbArc
 50
18.707275
 51
105.0
  0
ARC
  5
54F
100
AcDbEntity
  8
鏡台
  6
CONTINUOUS
 62
     6
100
AcDbCircle
 10
1280.883657
 20
1766.538081
 30
0.0
 40
10.0
100
AcDbArc
 50
348.256348
 51
41.743622
  0
ARC
  5
550
100
AcDbEntity
  8
鏡台
  6
CONTINUOUS
 62
     6
100
AcDbCircle
 10
1262.360344
 20
1754.261049
 30
0.0
 40
1.0
100
AcDbArc
 50
195.0
 51
281.186218
  0
ARC
  5
551
100
AcDbEntity
  8
鏡台
  6
CONTINUOUS
 62
     6
100
AcDbCircle
 10
1258.711717
 20
1767.877935
 30
0.0
 40
1.0
100
AcDbArc
 50
106.909119
 51
195.0
  0
ARC
  5
552
100
AcDbEntity
  8
鏡台
  6
CONTINUOUS
 62
     6
100
AcDbCircle
 10
1131.748657
 20
1806.689941
 30
0.0
 40
120.0
100
AcDbArc
 50
4.590393
 51
27.576874
  0
ARC
  5
553
100
AcDbEntity
  8
鏡台
  6
CONTINUOUS
 62
     6
100
AcDbCircle
 10
1137.644653
 20
1807.916992
 30
0.0
 40
120.0
100
AcDbArc
 50
3.349121
 51
29.221863
  0
ARC
  5
554
100
AcDbEntity
  8
鏡台
  6
CONTINUOUS
 62
     6
100
AcDbCircle
 10
1220.0
 20
1846.5
 30
0.0
 40
30.0
100
AcDbArc
 50
41.793671
 51
90.0
  0
ARC
  5
555
100
AcDbEntity
  8
鏡台
  6
CONTINUOUS
 62
     6
100
AcDbCircle
 10
1269.456095
 20
1775.324941
 30
0.0
 40
3.0
100
AcDbArc
 50
198.707275
 51
286.909241
  0
ARC
  5
556
100
AcDbEntity
  8
鏡台
  6
CONTINUOUS
 62
     6
100
AcDbCircle
 10
1254.510355
 20
1791.047239
 30
0.0
 40
1.0
100
AcDbArc
 50
105.000061
 51
191.363464
  0
ARC
  5
557
100
AcDbEntity
  8
鏡台
  6
CONTINUOUS
 62
     6
100
AcDbCircle
 10
1259.459963
 20
1792.373463
 30
0.0
 40
1.0
100
AcDbArc
 50
18.707275
 51
105.0
  0
ARC
  5
558
100
AcDbEntity
  8
鏡台
  6
CONTINUOUS
 62
     6
100
AcDbCircle
 10
1280.883657
 20
1766.538081
 30
0.0
 40
10.0
100
AcDbArc
 50
348.256348
 51
41.743622
  0
ARC
  5
559
100
AcDbEntity
  8
鏡台
  6
CONTINUOUS
 62
     6
100
AcDbCircle
 10
1262.360344
 20
1754.261049
 30
0.0
 40
1.0
100
AcDbArc
 50
195.0
 51
281.186218
  0
ARC
  5
55A
100
AcDbEntity
  8
鏡台
  6
CONTINUOUS
 62
     6
100
AcDbCircle
 10
1258.711717
 20
1767.877935
 30
0.0
 40
1.0
100
AcDbArc
 50
106.909119
 51
195.0
  0
ARC
  5
55B
100
AcDbEntity
  8
鏡台
  6
CONTINUOUS
 62
     6
100
AcDbCircle
 10
1220.0
 20
1846.5
 30
0.0
 40
24.0
100
AcDbArc
 50
40.990967
 51
90.0
  0
ARC
  5
55C
100
AcDbEntity
  8
鏡台
  6
CONTINUOUS
 62
     6
100
AcDbCircle
 10
1248.627808
 20
1799.515259
 30
0.0
 40
17.00025
100
AcDbArc
 50
71.928894
 51
128.072876
  0
ARC
  5
55D
100
AcDbEntity
  8
鏡台
  6
CONTINUOUS
 62
     6
100
AcDbCircle
 10
1259.174561
 20
1831.838562
 30
0.0
 40
17.000208
100
AcDbArc
 50
251.928955
 51
280.001038
  0
ARC
  5
55E
100
AcDbEntity
  8
鏡台
  6
CONTINUOUS
 62
     6
100
AcDbCircle
 10
1259.174683
 20
1831.838379
 30
0.0
 40
17.000029
100
AcDbArc
 50
280.001038
 51
308.073608
  0
ARC
  5
55F
100
AcDbEntity
  8
鏡台
  6
CONTINUOUS
 62
     6
100
AcDbCircle
 10
1248.627808
 20
1791.515259
 30
0.0
 40
17.00025
100
AcDbArc
 50
71.928894
 51
128.072876
  0
ARC
  5
560
100
AcDbEntity
  8
鏡台
  6
CONTINUOUS
 62
     6
100
AcDbCircle
 10
1259.174561
 20
1823.838562
 30
0.0
 40
17.000208
100
AcDbArc
 50
251.928955
 51
280.001038
  0
ARC
  5
561
100
AcDbEntity
  8
鏡台
  6
CONTINUOUS
 62
     6
100
AcDbCircle
 10
1259.174683
 20
1823.838379
 30
0.0
 40
17.000029
100
AcDbArc
 50
280.001038
 51
308.073608
  0
ARC
  5
562
100
AcDbEntity
  8
鏡台
  6
CONTINUOUS
 62
     2
100
AcDbCircle
 10
625.0
 20
2738.5
 30
0.0
 40
5.0
100
AcDbArc
 50
90.0
 51
180.0
  0
LINE
  5
563
100
AcDbEntity
  8
鏡台
  6
CONTINUOUS
 62
     2
100
AcDbLine
 10
1215.0
 20
2743.5
 30
0.0
 11
625.0
 21
2743.5
 31
0.0
  0
ARC
  5
564
100
AcDbEntity
  8
鏡台
  6
CONTINUOUS
 62
     2
100
AcDbCircle
 10
1215.0
 20
2738.5
 30
0.0
 40
5.0
100
AcDbArc
 50
0.0
 51
90.0
  0
LINE
  5
565
100
AcDbEntity
  8
鏡台
  6
CONTINUOUS
 62
     2
100
AcDbLine
 10
620.0
 20
2738.5
 30
0.0
 11
620.0
 21
1748.5
 31
0.0
  0
ARC
  5
566
100
AcDbEntity
  8
鏡台
  6
CONTINUOUS
 62
     2
100
AcDbCircle
 10
625.0
 20
1748.5
 30
0.0
 40
5.0
100
AcDbArc
 50
180.0
 51
270.0
  0
LINE
  5
567
100
AcDbEntity
  8
鏡台
  6
CONTINUOUS
 62
     2
100
AcDbLine
 10
1220.0
 20
1748.5
 30
0.0
 11
1220.0
 21
2738.5
 31
0.0
  0
ARC
  5
568
100
AcDbEntity
  8
鏡台
  6
CONTINUOUS
 62
     2
100
AcDbCircle
 10
1215.0
 20
1748.5
 30
0.0
 40
5.0
100
AcDbArc
 50
270.0
 51
0.0
  0
CIRCLE
  5
569
100
AcDbEntity
  8
鏡台
  6
CONTINUOUS
 62
     2
100
AcDbCircle
 10
665.0
 20
1808.5
 30
0.0
 40
8.5
  0
CIRCLE
  5
56A
100
AcDbEntity
  8
鏡台
  6
CONTINUOUS
 62
     2
100
AcDbCircle
 10
1175.0
 20
1808.5
 30
0.0
 40
8.5
  0
LINE
  5
56B
100
AcDbEntity
  8
鏡台
  6
CONTINUOUS
 62
     2
100
AcDbLine
 10
763.029197
 20
2022.318897
 30
0.0
 11
1077.0
 21
2022.318897
 31
0.0
  0
LINE
  5
56C
100
AcDbEntity
  8
鏡台
  6
CONTINUOUS
 62
     2
100
AcDbLine
 10
769.5
 20
2053.0
 30
0.0
 11
1071.0
 21
2053.0
 31
0.0
  0
LINE
  5
56D
100
AcDbEntity
  8
鏡台
  6
CONTINUOUS
 62
     2
100
AcDbLine
 10
1070.0
 20
1858.5
 30
0.0
 11
1070.0
 21
1840.460349
 31
0.0
  0
LINE
  5
56E
100
AcDbEntity
  8
鏡台
  6
CONTINUOUS
 62
     2
100
AcDbLine
 10
1220.0
 20
1858.5
 30
0.0
 11
620.0
 21
1858.5
 31
0.0
  0
LINE
  5
56F
100
AcDbEntity
  8
鏡台
  6
CONTINUOUS
 62
     2
100
AcDbLine
 10
620.0
 20
1843.5
 30
0.0
 11
769.9
 21
1843.5
 31
0.0
  0
LINE
  5
570
100
AcDbEntity
  8
鏡台
  6
CONTINUOUS
 62
     2
100
AcDbLine
 10
769.9
 20
1858.5
 30
0.0
 11
769.9
 21
1840.460349
 31
0.0
  0
LINE
  5
571
100
AcDbEntity
  8
鏡台
  6
CONTINUOUS
 62
     2
100
AcDbLine
 10
769.9
 20
1840.460349
 30
0.0
 11
1070.0
 21
1840.460349
 31
0.0
  0
LINE
  5
572
100
AcDbEntity
  8
鏡台
  6
CONTINUOUS
 62
     2
100
AcDbLine
 10
1070.0
 20
1843.5
 30
0.0
 11
1220.0
 21
1843.5
 31
0.0
  0
LINE
  5
573
100
AcDbEntity
  8
鏡台
  6
CONTINUOUS
 62
     2
100
AcDbLine
 10
628.20437
 20
2593.5
 30
0.0
 11
763.00437
 21
2593.5
 31
0.0
  0
LINE
  5
574
100
AcDbEntity
  8
鏡台
  6
CONTINUOUS
 62
     2
100
AcDbLine
 10
628.213933
 20
2373.5
 30
0.0
 11
628.202609
 21
2634.029253
 31
0.0
  0
LINE
  5
575
100
AcDbEntity
  8
鏡台
  6
CONTINUOUS
 62
     2
100
AcDbLine
 10
763.013933
 20
2373.5
 30
0.0
 11
763.002609
 21
2634.029253
 31
0.0
  0
LINE
  5
576
100
AcDbEntity
  8
鏡台
  6
CONTINUOUS
 62
     2
100
AcDbLine
 10
767.232539
 20
2373.5
 30
0.0
 11
622.267461
 21
2373.5
 31
0.0
  0
LINE
  5
577
100
AcDbEntity
  8
鏡台
  6
CONTINUOUS
 62
     2
100
AcDbLine
 10
622.267461
 20
2373.5
 30
0.0
 11
622.267461
 21
2323.5
 31
0.0
  0
LINE
  5
578
100
AcDbEntity
  8
鏡台
  6
CONTINUOUS
 62
     2
100
AcDbLine
 10
767.232539
 20
2323.5
 30
0.0
 11
622.267461
 21
2323.5
 31
0.0
  0
LINE
  5
579
100
AcDbEntity
  8
鏡台
  6
CONTINUOUS
 62
     2
100
AcDbLine
 10
767.232539
 20
2373.5
 30
0.0
 11
767.232539
 21
2323.5
 31
0.0
  0
LINE
  5
57A
100
AcDbEntity
  8
鏡台
  6
CONTINUOUS
 62
     2
100
AcDbLine
 10
628.2
 20
2078.0
 30
0.0
 11
628.2
 21
2323.5
 31
0.0
  0
LINE
  5
57B
100
AcDbEntity
  8
鏡台
  6
CONTINUOUS
 62
     2
100
AcDbLine
 10
763.026777
 20
2078.0
 30
0.0
 11
763.016106
 21
2323.5
 31
0.0
  0
LINE
  5
57C
100
AcDbEntity
  8
鏡台
  6
CONTINUOUS
 62
     2
100
AcDbLine
 10
767.232539
 20
2078.0
 30
0.0
 11
622.267461
 21
2078.0
 31
0.0
  0
LINE
  5
57D
100
AcDbEntity
  8
鏡台
  6
CONTINUOUS
 62
     2
100
AcDbLine
 10
622.267461
 20
2078.0
 30
0.0
 11
622.267461
 21
2028.0
 31
0.0
  0
LINE
  5
57E
100
AcDbEntity
  8
鏡台
  6
CONTINUOUS
 62
     2
100
AcDbLine
 10
767.232539
 20
2028.0
 30
0.0
 11
622.267461
 21
2028.0
 31
0.0
  0
LINE
  5
57F
100
AcDbEntity
  8
鏡台
  6
CONTINUOUS
 62
     2
100
AcDbLine
 10
767.232539
 20
2028.0
 30
0.0
 11
767.232539
 21
2078.0
 31
0.0
  0
LINE
  5
580
100
AcDbEntity
  8
鏡台
  6
CONTINUOUS
 62
     2
100
AcDbLine
 10
628.2
 20
1858.5
 30
0.0
 11
628.2
 21
2028.0
 31
0.0
  0
LINE
  5
581
100
AcDbEntity
  8
鏡台
  6
CONTINUOUS
 62
     2
100
AcDbLine
 10
1211.8
 20
1858.5
 30
0.0
 11
1211.8
 21
2028.0
 31
0.0
  0
LINE
  5
582
100
AcDbEntity
  8
鏡台
  6
CONTINUOUS
 62
     2
100
AcDbLine
 10
1072.767461
 20
2078.0
 30
0.0
 11
1072.767461
 21
2028.0
 31
0.0
  0
LINE
  5
583
100
AcDbEntity
  8
鏡台
  6
CONTINUOUS
 62
     2
100
AcDbLine
 10
1072.767461
 20
2078.0
 30
0.0
 11
1217.732539
 21
2078.0
 31
0.0
  0
LINE
  5
584
100
AcDbEntity
  8
鏡台
  6
CONTINUOUS
 62
     2
100
AcDbLine
 10
1217.732539
 20
2078.0
 30
0.0
 11
1217.732539
 21
2028.0
 31
0.0
  0
LINE
  5
585
100
AcDbEntity
  8
鏡台
  6
CONTINUOUS
 62
     2
100
AcDbLine
 10
1217.732539
 20
2028.0
 30
0.0
 11
1072.767461
 21
2028.0
 31
0.0
  0
LINE
  5
586
100
AcDbEntity
  8
鏡台
  6
CONTINUOUS
 62
     2
100
AcDbLine
 10
1072.767461
 20
2373.5
 30
0.0
 11
1072.767461
 21
2323.5
 31
0.0
  0
LINE
  5
587
100
AcDbEntity
  8
鏡台
  6
CONTINUOUS
 62
     2
100
AcDbLine
 10
1072.767461
 20
2373.5
 30
0.0
 11
1217.732539
 21
2373.5
 31
0.0
  0
LINE
  5
588
100
AcDbEntity
  8
鏡台
  6
CONTINUOUS
 62
     2
100
AcDbLine
 10
1217.732539
 20
2323.5
 30
0.0
 11
1217.732539
 21
2373.5
 31
0.0
  0
LINE
  5
589
100
AcDbEntity
  8
鏡台
  6
CONTINUOUS
 62
     2
100
AcDbLine
 10
1077.0
 20
2373.5
 30
0.0
 11
1077.0
 21
2634.029253
 31
0.0
  0
LINE
  5
58A
100
AcDbEntity
  8
鏡台
  6
CONTINUOUS
 62
     2
100
AcDbLine
 10
1211.8
 20
2373.5
 30
0.0
 11
1211.8
 21
2634.029253
 31
0.0
  0
LINE
  5
58B
100
AcDbEntity
  8
鏡台
  6
CONTINUOUS
 62
     2
100
AcDbLine
 10
809.5
 20
2075.5
 30
0.0
 11
789.5
 21
2075.5
 31
0.0
  0
LINE
  5
58C
100
AcDbEntity
  8
鏡台
  6
CONTINUOUS
 62
     2
100
AcDbLine
 10
809.5
 20
2075.5
 30
0.0
 11
809.5
 21
2065.5
 31
0.0
  0
LINE
  5
58D
100
AcDbEntity
  8
鏡台
  6
CONTINUOUS
 62
     2
100
AcDbLine
 10
789.5
 20
2075.5
 30
0.0
 11
789.5
 21
2065.5
 31
0.0
  0
LINE
  5
58E
100
AcDbEntity
  8
鏡台
  6
CONTINUOUS
 62
     2
100
AcDbLine
 10
809.5
 20
2065.5
 30
0.0
 11
789.5
 21
2065.5
 31
0.0
  0
LINE
  5
58F
100
AcDbEntity
  8
鏡台
  6
CONTINUOUS
 62
     2
100
AcDbLine
 10
770.0
 20
2068.5
 30
0.0
 11
789.5
 21
2068.5
 31
0.0
  0
LINE
  5
590
100
AcDbEntity
  8
鏡台
  6
CONTINUOUS
 62
     2
100
AcDbLine
 10
1030.5
 20
2075.5
 30
0.0
 11
1030.5
 21
2065.5
 31
0.0
  0
LINE
  5
591
100
AcDbEntity
  8
鏡台
  6
CONTINUOUS
 62
     2
100
AcDbLine
 10
1050.5
 20
2065.5
 30
0.0
 11
1030.5
 21
2065.5
 31
0.0
  0
LINE
  5
592
100
AcDbEntity
  8
鏡台
  6
CONTINUOUS
 62
     2
100
AcDbLine
 10
1050.5
 20
2075.5
 30
0.0
 11
1030.5
 21
2075.5
 31
0.0
  0
LINE
  5
593
100
AcDbEntity
  8
鏡台
  6
CONTINUOUS
 62
     2
100
AcDbLine
 10
1050.5
 20
2075.5
 30
0.0
 11
1050.5
 21
2065.5
 31
0.0
  0
LINE
  5
594
100
AcDbEntity
  8
鏡台
  6
CONTINUOUS
 62
     2
100
AcDbLine
 10
1050.5
 20
2068.5
 30
0.0
 11
1070.0
 21
2068.5
 31
0.0
  0
LINE
  5
595
100
AcDbEntity
  8
鏡台
  6
CONTINUOUS
 62
     2
100
AcDbLine
 10
809.5
 20
2068.5
 30
0.0
 11
1030.5
 21
2068.5
 31
0.0
  0
LINE
  5
596
100
AcDbEntity
  8
鏡台
  6
CONTINUOUS
 62
     2
100
AcDbLine
 10
1077.0
 20
2078.0
 30
0.0
 11
1077.0
 21
2278.5
 31
0.0
  0
LINE
  5
597
100
AcDbEntity
  8
鏡台
  6
CONTINUOUS
 62
     2
100
AcDbLine
 10
1211.8
 20
2078.0
 30
0.0
 11
1211.8
 21
2278.5
 31
0.0
  0
LINE
  5
598
100
AcDbEntity
  8
鏡台
  6
CONTINUOUS
 62
     2
100
AcDbLine
 10
1077.0
 20
2593.5
 30
0.0
 11
1211.8
 21
2593.5
 31
0.0
  0
LINE
  5
599
100
AcDbEntity
  8
鏡台
  6
CONTINUOUS
 62
     2
100
AcDbLine
 10
763.036318
 20
1858.5
 30
0.0
 11
763.02895
 21
2028.0
 31
0.0
  0
LINE
  5
59A
100
AcDbEntity
  8
鏡台
  6
CONTINUOUS
 62
     2
100
AcDbLine
 10
1077.0
 20
1858.5
 30
0.0
 11
1077.0
 21
2028.0
 31
0.0
  0
ARC
  5
59B
100
AcDbEntity
  8
鏡台
  6
CONTINUOUS
 62
     2
100
AcDbCircle
 10
920.0
 20
-66979.5735
 30
0.0
 40
69012.5735
100
AcDbArc
 50
89.875051
 51
90.124949
  0
LINE
  5
59C
100
AcDbEntity
  8
鏡台
  6
CONTINUOUS
 62
     2
100
AcDbLine
 10
1070.5
 20
2278.5
 30
0.0
 11
1220.0
 21
2278.5
 31
0.0
  0
LINE
  5
59D
100
AcDbEntity
  8
鏡台
  6
CONTINUOUS
 62
     2
100
AcDbLine
 10
1220.0
 20
2323.5
 30
0.0
 11
1070.5
 21
2323.5
 31
0.0
  0
LINE
  5
59E
100
AcDbEntity
  8
鏡台
  6
CONTINUOUS
 62
     2
100
AcDbLine
 10
628.202609
 20
2634.029253
 30
0.0
 11
763.002609
 21
2634.029253
 31
0.0
  0
LINE
  5
59F
100
AcDbEntity
  8
鏡台
  6
CONTINUOUS
 62
     2
100
AcDbLine
 10
1077.0
 20
2634.029253
 30
0.0
 11
1211.8
 21
2634.029253
 31
0.0
  0
LINE
  5
5A0
100
AcDbEntity
  8
鏡台
  6
CONTINUOUS
 62
     2
100
AcDbLine
 10
769.5
 20
2634.029253
 30
0.0
 11
1070.5
 21
2634.029253
 31
0.0
  0
LINE
  5
5A1
100
AcDbEntity
  8
鏡台
  6
CONTINUOUS
 62
     2
100
AcDbLine
 10
769.5
 20
2022.318897
 30
0.0
 11
769.5
 21
2634.029253
 31
0.0
  0
LINE
  5
5A2
100
AcDbEntity
  8
鏡台
  6
CONTINUOUS
 62
     2
100
AcDbLine
 10
1070.5
 20
2022.318897
 30
0.0
 11
1070.5
 21
2634.029253
 31
0.0
  0
ARC
  5
5A3
100
AcDbEntity
  8
鏡台
  6
CONTINUOUS
 62
     2
100
AcDbCircle
 10
1197.483882
 20
2723.684234
 30
0.0
 40
10.0
100
AcDbArc
 50
0.0
 51
90.0
  0
LINE
  5
5A4
100
AcDbEntity
  8
鏡台
  6
CONTINUOUS
 62
     2
100
AcDbLine
 10
1197.483882
 20
2733.684234
 30
0.0
 11
641.965233
 21
2733.684234
 31
0.0
  0
ARC
  5
5A5
100
AcDbEntity
  8
鏡台
  6
CONTINUOUS
 62
     2
100
AcDbCircle
 10
641.965233
 20
2723.684234
 30
0.0
 40
10.0
100
AcDbArc
 50
90.0
 51
180.0
  0
LINE
  5
5A6
100
AcDbEntity
  8
鏡台
  6
CONTINUOUS
 62
     2
100
AcDbLine
 10
631.965233
 20
2723.684234
 30
0.0
 11
631.965233
 21
2657.0
 31
0.0
  0
ARC
  5
5A7
100
AcDbEntity
  8
鏡台
  6
CONTINUOUS
 62
     2
100
AcDbCircle
 10
641.965233
 20
2657.0
 30
0.0
 40
10.0
100
AcDbArc
 50
180.0
 51
270.0
  0
LINE
  5
5A8
100
AcDbEntity
  8
鏡台
  6
CONTINUOUS
 62
     2
100
AcDbLine
 10
1207.483882
 20
2657.0
 30
0.0
 11
1207.483882
 21
2723.684234
 31
0.0
  0
ARC
  5
5A9
100
AcDbEntity
  8
鏡台
  6
CONTINUOUS
 62
     2
100
AcDbCircle
 10
1197.483882
 20
2657.0
 30
0.0
 40
10.0
100
AcDbArc
 50
270.0
 51
0.0
  0
LINE
  5
5AA
100
AcDbEntity
  8
鏡台
  6
CONTINUOUS
 62
     2
100
AcDbLine
 10
1220.0
 20
2647.0
 30
0.0
 11
620.0
 21
2647.0
 31
0.0
  0
LINE
  5
5AB
100
AcDbEntity
  8
鏡台
  6
CONTINUOUS
 62
     2
100
AcDbLine
 10
1220.0
 20
2637.0
 30
0.0
 11
620.0
 21
2637.0
 31
0.0
  0
LINE
  5
5AC
100
AcDbEntity
  8
鏡台
  6
CONTINUOUS
 62
     6
100
AcDbLine
 10
2450.0
 20
1808.5
 30
0.0
 11
2512.5
 21
1808.5
 31
0.0
  0
LINE
  5
5AD
100
AcDbEntity
  8
鏡台
  6
CONTINUOUS
 62
     6
100
AcDbLine
 10
2392.0
 20
2284.5
 30
0.0
 11
2390.0
 21
2284.5
 31
0.0
  0
LINE
  5
5AE
100
AcDbEntity
  8
鏡台
  6
CONTINUOUS
 62
     6
100
AcDbLine
 10
2390.0
 20
2307.5
 30
0.0
 11
2390.0
 21
2284.5
 31
0.0
  0
LINE
  5
5AF
100
AcDbEntity
  8
鏡台
  6
CONTINUOUS
 62
     6
100
AcDbLine
 10
2392.0
 20
2307.5
 30
0.0
 11
2390.0
 21
2307.5
 31
0.0
  0
LINE
  5
5B0
100
AcDbEntity
  8
鏡台
  6
CONTINUOUS
 62
     6
100
AcDbLine
 10
2390.0
 20
2287.5
 30
0.0
 11
2387.0
 21
2287.5
 31
0.0
  0
LINE
  5
5B1
100
AcDbEntity
  8
鏡台
  6
CONTINUOUS
 62
     6
100
AcDbLine
 10
2387.0
 20
2304.5
 30
0.0
 11
2387.0
 21
2287.5
 31
0.0
  0
LINE
  5
5B2
100
AcDbEntity
  8
鏡台
  6
CONTINUOUS
 62
     6
100
AcDbLine
 10
2390.0
 20
2304.5
 30
0.0
 11
2387.0
 21
2304.5
 31
0.0
  0
LINE
  5
5B3
100
AcDbEntity
  8
鏡台
  6
CONTINUOUS
 62
     6
100
AcDbLine
 10
2450.0
 20
2688.5
 30
0.0
 11
2512.5
 21
2688.5
 31
0.0
  0
ARC
  5
5B4
100
AcDbEntity
  8
鏡台
  6
CONTINUOUS
 62
     6
100
AcDbCircle
 10
2352.007777
 20
2717.178943
 30
0.0
 40
10.0
100
AcDbArc
 50
94.000061
 51
187.019409
  0
ARC
  5
5B5
100
AcDbEntity
  8
鏡台
  6
CONTINUOUS
 62
     6
100
AcDbCircle
 10
2610.058895
 20
2748.952687
 30
0.0
 40
270.0
100
AcDbArc
 50
187.01947
 51
199.909058
  0
ARC
  5
5B6
100
AcDbEntity
  8
鏡台
  6
CONTINUOUS
 62
     6
100
AcDbCircle
 10
2370.299159
 20
2662.118052
 30
0.0
 40
15.0
100
AcDbArc
 50
199.909058
 51
270.0
  0
LINE
  5
5B7
100
AcDbEntity
  8
鏡台
  6
CONTINUOUS
 62
     6
100
AcDbLine
 10
2465.0
 20
1810.5
 30
0.0
 11
2497.5
 21
1808.5
 31
0.0
  0
LINE
  5
5B8
100
AcDbEntity
  8
鏡台
  6
CONTINUOUS
 62
     6
100
AcDbLine
 10
2497.5
 20
1808.5
 30
0.0
 11
2465.0
 21
1806.5
 31
0.0
  0
LINE
  5
5B9
100
AcDbEntity
  8
鏡台
  6
CONTINUOUS
 62
     6
100
AcDbLine
 10
2465.0
 20
2690.5
 30
0.0
 11
2497.5
 21
2688.5
 31
0.0
  0
LINE
  5
5BA
100
AcDbEntity
  8
鏡台
  6
CONTINUOUS
 62
     6
100
AcDbLine
 10
2497.5
 20
2688.5
 30
0.0
 11
2465.0
 21
2686.5
 31
0.0
  0
ARC
  5
5BB
100
AcDbEntity
  8
鏡台
  6
CONTINUOUS
 62
     2
100
AcDbCircle
 10
2416.85604
 20
2013.344209
 30
0.0
 40
15.0
100
AcDbArc
 50
28.805081
 51
82.0
  0
LINE
  5
5BC
100
AcDbEntity
  8
鏡台
  6
CONTINUOUS
 62
     2
100
AcDbLine
 10
2465.0
 20
2743.5
 30
0.0
 11
2465.0
 21
1743.5
 31
0.0
  0
LINE
  5
5BD
100
AcDbEntity
  8
鏡台
  6
CONTINUOUS
 62
     2
100
AcDbLine
 10
2377.0
 20
1843.5
 30
0.0
 11
2377.0
 21
1858.5
 31
0.0
  0
LINE
  5
5BE
100
AcDbEntity
  8
鏡台
  6
CONTINUOUS
 62
     2
100
AcDbLine
 10
2350.0
 20
2078.0
 30
0.0
 11
2350.0
 21
2028.0
 31
0.0
  0
LINE
  5
5BF
100
AcDbEntity
  8
鏡台
  6
CONTINUOUS
 62
     2
100
AcDbLine
 10
2350.0
 20
2078.0
 30
0.0
 11
2430.0
 21
2078.0
 31
0.0
  0
LINE
  5
5C0
100
AcDbEntity
  8
鏡台
  6
CONTINUOUS
 62
     2
100
AcDbLine
 10
2350.0
 20
2028.0
 30
0.0
 11
2430.0
 21
2028.0
 31
0.0
  0
LINE
  5
5C1
100
AcDbEntity
  8
鏡台
  6
CONTINUOUS
 62
     2
100
AcDbLine
 10
2399.0
 20
2323.5
 30
0.0
 11
2399.0
 21
2278.5
 31
0.0
  0
LINE
  5
5C2
100
AcDbEntity
  8
鏡台
  6
CONTINUOUS
 62
     2
100
AcDbLine
 10
2399.0
 20
2313.5
 30
0.0
 11
2392.0
 21
2313.5
 31
0.0
  0
LINE
  5
5C3
100
AcDbEntity
  8
鏡台
  6
CONTINUOUS
 62
     2
100
AcDbLine
 10
2392.0
 20
2313.5
 30
0.0
 11
2392.0
 21
2278.500299
 31
0.0
  0
LINE
  5
5C4
100
AcDbEntity
  8
鏡台
  6
CONTINUOUS
 62
     2
100
AcDbLine
 10
2399.0
 20
2278.500299
 30
0.0
 11
2392.0
 21
2278.500299
 31
0.0
  0
LINE
  5
5C5
100
AcDbEntity
  8
鏡台
  6
CONTINUOUS
 62
     2
100
AcDbLine
 10
2350.0
 20
2323.5
 30
0.0
 11
2430.0
 21
2323.5
 31
0.0
  0
LINE
  5
5C6
100
AcDbEntity
  8
鏡台
  6
CONTINUOUS
 62
     2
100
AcDbLine
 10
2350.0
 20
2373.5
 30
0.0
 11
2350.0
 21
2323.5
 31
0.0
  0
LINE
  5
5C7
100
AcDbEntity
  8
鏡台
  6
CONTINUOUS
 62
     2
100
AcDbLine
 10
2350.0
 20
2373.5
 30
0.0
 11
2430.0
 21
2373.5
 31
0.0
  0
ARC
  5
5C8
100
AcDbEntity
  8
鏡台
  6
CONTINUOUS
 62
     2
100
AcDbCircle
 10
2438.0
 20
1746.5
 30
0.0
 40
3.0
100
AcDbArc
 50
180.0
 51
270.0
  0
LINE
  5
5C9
100
AcDbEntity
  8
鏡台
  6
CONTINUOUS
 62
     2
100
AcDbLine
 10
2377.0
 20
1843.5
 30
0.0
 11
2430.26168
 21
1840.708674
 31
0.0
  0
LINE
  5
5CA
100
AcDbEntity
  8
鏡台
  6
CONTINUOUS
 62
     2
100
AcDbLine
 10
2435.0
 20
1746.5
 30
0.0
 11
2435.0
 21
1835.715526
 31
0.0
  0
ARC
  5
5CB
100
AcDbEntity
  8
鏡台
  6
CONTINUOUS
 62
     2
100
AcDbCircle
 10
2430.0
 20
1835.715526
 30
0.0
 40
5.0
100
AcDbArc
 50
0.0
 51
87.000001
  0
LINE
  5
5CC
100
AcDbEntity
  8
鏡台
  6
CONTINUOUS
 62
     2
100
AcDbLine
 10
2377.0
 20
1858.5
 30
0.0
 11
2425.0
 21
1858.5
 31
0.0
  0
ARC
  5
5CD
100
AcDbEntity
  8
鏡台
  6
CONTINUOUS
 62
     2
100
AcDbCircle
 10
2425.0
 20
1863.5
 30
0.0
 40
5.0
100
AcDbArc
 50
270.0
 51
0.0
  0
LINE
  5
5CE
100
AcDbEntity
  8
鏡台
  6
CONTINUOUS
 62
     2
100
AcDbLine
 10
2399.0
 20
2278.5
 30
0.0
 11
2425.087262
 21
2278.044645
 31
0.0
  0
ARC
  5
5CF
100
AcDbEntity
  8
鏡台
  6
CONTINUOUS
 62
     2
100
AcDbCircle
 10
2425.0
 20
2273.045407
 30
0.0
 40
5.0
100
AcDbArc
 50
0.0
 51
88.999999
  0
LINE
  5
5D0
100
AcDbEntity
  8
鏡台
  6
CONTINUOUS
 62
     2
100
AcDbLine
 10
2416.878458
 20
2647.118024
 30
0.0
 11
2348.869412
 21
2647.118045
 31
0.0
  0
ARC
  5
5D1
100
AcDbEntity
  8
鏡台
  6
CONTINUOUS
 62
     2
100
AcDbCircle
 10
2348.86942
 20
2667.118023
 30
0.0
 40
20.0
100
AcDbArc
 50
203.031494
 51
270.0
  0
ARC
  5
5D2
100
AcDbEntity
  8
鏡台
  6
CONTINUOUS
 62
     2
100
AcDbCircle
 10
2578.941904
 20
2764.927355
 30
0.0
 40
270.0
100
AcDbArc
 50
191.025757
 51
203.031494
  0
ARC
  5
5D3
100
AcDbEntity
  8
鏡台
  6
CONTINUOUS
 62
     2
100
AcDbCircle
 10
2323.74118
 20
2715.202357
 30
0.0
 40
10.0
100
AcDbArc
 50
94.000031
 51
191.025757
  0
LINE
  5
5D4
100
AcDbEntity
  8
鏡台
  6
CONTINUOUS
 62
     2
100
AcDbLine
 10
2323.043613
 20
2725.177985
 30
0.0
 11
2430.0
 21
2732.65711
 31
0.0
  0
LINE
  5
5D5
100
AcDbEntity
  8
鏡台
  6
CONTINUOUS
 62
     2
100
AcDbLine
 10
2430.0
 20
2661.578095
 30
0.0
 11
2430.0
 21
2742.312682
 31
0.0
  0
LINE
  5
5D6
100
AcDbEntity
  8
鏡台
  6
CONTINUOUS
 62
     2
100
AcDbLine
 10
2465.0
 20
2743.5
 30
0.0
 11
2430.0
 21
2742.312682
 31
0.0
  0
LINE
  5
5D7
100
AcDbEntity
  8
鏡台
  6
CONTINUOUS
 62
     2
100
AcDbLine
 10
2415.0
 20
2646.999939
 30
0.0
 11
2410.0
 21
2646.999939
 31
0.0
  0
ARC
  5
5D8
100
AcDbEntity
  8
鏡台
  6
CONTINUOUS
 62
     2
100
AcDbCircle
 10
2415.0
 20
2661.999939
 30
0.0
 40
15.0
100
AcDbArc
 50
270.0
 51
0.0
  0
LINE
  5
5D9
100
AcDbEntity
  8
鏡台
  6
CONTINUOUS
 62
     2
100
AcDbLine
 10
2410.0
 20
2636.999939
 30
0.0
 11
2410.0
 21
2646.999939
 31
0.0
  0
LINE
  5
5DA
100
AcDbEntity
  8
鏡台
  6
CONTINUOUS
 62
     2
100
AcDbLine
 10
2430.0
 20
2633.999939
 30
0.0
 11
2430.0
 21
1863.5
 31
0.0
  0
LINE
  5
5DB
100
AcDbEntity
  8
鏡台
  6
CONTINUOUS
 62
     2
100
AcDbLine
 10
2410.0
 20
2636.999939
 30
0.0
 11
2430.0
 21
2633.999939
 31
0.0
  0
DIMENSION
  5
5E8
100
AcDbEntity
  8
寸法
  6
CONTINUOUS
 62
     3
100
AcDbDimension
  2
*D14
 10
2465.0
 20
828.5
 30
0.0
 11
2675.0
 21
863.75
 31
0.0
 70
   160
  1
85（床給水）
  3
STANDARD
100
AcDbAlignedDimension
 13
2380.0
 23
940.5
 33
0.0
 14
2465.0
 24
948.5
 34
0.0
100
AcDbRotatedDimension
1001
ACAD
1000
DSTYLE
1002
{
1070
     6
1000
_EX_NORM
1070
     7
1000
_EX_NORM
1070
    41
1040
45.0
1070
    42
1040
10.5
1070
    44
1040
15.0
1070
    73
1070
     0
1070
    74
1070
     0
1070
    75
1070
     0
1070
    76
1070
     0
1070
    77
1070
     1
1070
    78
1070
     0
1070
   140
1040
60.0
1070
   147
1040
5.25
1070
   173
1070
     1
1070
   176
1070
     3
1070
   177
1070
     3
1070
   178
1070
     2
1070
   271
1070
     0
1070
   279
1070
     2
1070
   280
1070
     2
1070
   287
1070
     5
1070
   340
1005
5E7
1002
}
  0
DIMENSION
  5
5F4
100
AcDbEntity
  8
寸法
  6
CONTINUOUS
 62
     3
100
AcDbDimension
  2
*D15
 10
2570.0
 20
1298.5
 30
0.0
 11
2534.75
 21
1123.5
 31
0.0
 70
   160
  1
350（壁給水）
  3
STANDARD
100
AcDbAlignedDimension
 13
2465.0
 23
948.5
 33
0.0
 14
2473.0
 24
1298.5
 34
0.0
 50
90.0
100
AcDbRotatedDimension
1001
ACAD
1000
DSTYLE
1002
{
1070
     6
1000
_EX_NORM
1070
     7
1000
_EX_NORM
1070
    41
1040
45.0
1070
    42
1040
10.5
1070
    44
1040
15.0
1070
    73
1070
     0
1070
    74
1070
     0
1070
    75
1070
     0
1070
    76
1070
     0
1070
    77
1070
     1
1070
    78
1070
     0
1070
   140
1040
60.0
1070
   147
1040
5.25
1070
   173
1070
     1
1070
   176
1070
     3
1070
   177
1070
     3
1070
   178
1070
     2
1070
   271
1070
     0
1070
   279
1070
     2
1070
   280
1070
     0
1070
   287
1070
     5
1070
   340
1005
5E7
1002
}
  0
DIMENSION
  5
600
100
AcDbEntity
  8
寸法
  6
CONTINUOUS
 62
     3
100
AcDbDimension
  2
*D16
 10
2660.0
 20
1448.5
 30
0.0
 11
2624.75
 21
1198.5
 31
0.0
 70
   160
  1
500（壁排水）
  3
STANDARD
100
AcDbAlignedDimension
 13
2465.0
 23
948.5
 33
0.0
 14
2486.0
 24
1448.5
 34
0.0
 50
90.0
100
AcDbRotatedDimension
1001
ACAD
1000
DSTYLE
1002
{
1070
     6
1000
_EX_NORM
1070
     7
1000
_EX_NORM
1070
    41
1040
45.0
1070
    42
1040
10.5
1070
    44
1040
15.0
1070
    73
1070
     0
1070
    74
1070
     0
1070
    75
1070
     0
1070
    76
1070
     0
1070
    77
1070
     1
1070
    78
1070
     0
1070
   140
1040
60.0
1070
   147
1040
5.25
1070
   173
1070
     1
1070
   176
1070
     3
1070
   177
1070
     3
1070
   178
1070
     2
1070
   271
1070
     0
1070
   279
1070
     2
1070
   280
1070
     0
1070
   287
1070
     5
1070
   340
1005
5E7
1002
}
  0
DIMENSION
  5
60C
100
AcDbEntity
  8
寸法
  6
CONTINUOUS
 62
     3
100
AcDbDimension
  2
*D17
 10
2750.0
 20
1503.5
 30
0.0
 11
2714.75
 21
1226.0
 31
0.0
 70
   160
  1
555（壁固定）
  3
STANDARD
100
AcDbAlignedDimension
 13
2465.0
 23
948.5
 33
0.0
 14
2497.5
 24
1503.5
 34
0.0
 50
90.0
100
AcDbRotatedDimension
1001
ACAD
1000
DSTYLE
1002
{
1070
     6
1000
_EX_NORM
1070
     7
1000
_EX_NORM
1070
    41
1040
45.0
1070
    42
1040
10.5
1070
    44
1040
15.0
1070
    73
1070
     0
1070
    74
1070
     0
1070
    75
1070
     0
1070
    76
1070
     0
1070
    77
1070
     1
1070
    78
1070
     0
1070
   140
1040
60.0
1070
   147
1040
5.25
1070
   173
1070
     1
1070
   176
1070
     3
1070
   177
1070
     3
1070
   178
1070
     2
1070
   271
1070
     0
1070
   279
1070
     2
1070
   280
1070
     0
1070
   287
1070
     5
1070
   340
1005
5E7
1002
}
  0
DIMENSION
  5
618
100
AcDbEntity
  8
寸法
  6
CONTINUOUS
 62
     3
100
AcDbDimension
  2
*D18
 10
2840.0
 20
1808.5
 30
0.0
 11
2804.75
 21
1378.5
 31
0.0
 70
   160
  3
STANDARD
100
AcDbAlignedDimension
 13
2465.0
 23
948.5
 33
0.0
 14
2497.5
 24
1808.5
 34
0.0
 50
90.0
100
AcDbRotatedDimension
1001
ACAD
1000
DSTYLE
1002
{
1070
     6
1000
_EX_NORM
1070
     7
1000
_EX_NORM
1070
    41
1040
45.0
1070
    42
1040
10.5
1070
    44
1040
15.0
1070
    73
1070
     0
1070
    74
1070
     0
1070
    75
1070
     0
1070
    76
1070
     0
1070
    77
1070
     1
1070
    78
1070
     0
1070
   140
1040
60.0
1070
   147
1040
5.25
1070
   173
1070
     1
1070
   176
1070
     3
1070
   177
1070
     3
1070
   178
1070
     2
1070
   271
1070
     0
1070
   279
1070
     2
1070
   280
1070
     0
1070
   287
1070
     5
1070
   340
1005
5E7
1002
}
  0
DIMENSION
  5
624
100
AcDbEntity
  8
寸法
  6
CONTINUOUS
 62
     3
100
AcDbDimension
  2
*D19
 10
2465.0
 20
648.5
 30
0.0
 11
2270.0
 21
683.75
 31
0.0
 70
   160
  3
STANDARD
100
AcDbAlignedDimension
 13
2075.0
 23
952.0
 33
0.0
 14
2465.0
 24
948.5
 34
0.0
100
AcDbRotatedDimension
1001
ACAD
1000
DSTYLE
1002
{
1070
     6
1000
_EX_NORM
1070
     7
1000
_EX_NORM
1070
    41
1040
45.0
1070
    42
1040
10.5
1070
    44
1040
15.0
1070
    73
1070
     0
1070
    74
1070
     0
1070
    75
1070
     0
1070
    76
1070
     0
1070
    77
1070
     1
1070
    78
1070
     0
1070
   140
1040
60.0
1070
   147
1040
5.25
1070
   173
1070
     1
1070
   176
1070
     3
1070
   177
1070
     3
1070
   178
1070
     2
1070
   271
1070
     0
1070
   279
1070
     2
1070
   280
1070
     0
1070
   287
1070
     5
1070
   340
1005
5E7
1002
}
  0
TEXT
  5
625
100
AcDbEntity
  8
寸法
  6
CONTINUOUS
 62
     2
100
AcDbText
 10
618.0
 20
4055.25
 30
0.0
 40
60.0
  1
壁排水
 41
0.728
  7
EXCADSTD
 72
     5
 11
774.0
 21
4055.25
 31
0.0
100
AcDbText
  0
LEADER
  5
626
100
AcDbEntity
  8
寸法
  6
CONTINUOUS
 62
     3
100
AcDbLeader
  3
STANDARD
 73
     3
 74
     1
 75
     0
 40
0.0
 76
     3
 10
904.0
 20
3993.0
 30
0.0
 10
781.5
 20
4050.0
 30
0.0
 10
610.5
 20
4050.0
 30
0.0
 77
     3
1001
ACAD
1000
DSTYLE
1002
{
1070
    41
1040
45.0
1070
     5
1000
_EX_NORM
1070
     6
1000
_EX_NORM
1070
     7
1000
_EX_NORM
1070
   341
1005
2A
1002
}
  0
DIMENSION
  5
632
100
AcDbEntity
  8
寸法
  6
CONTINUOUS
 62
     3
100
AcDbDimension
  2
*D20
 10
971.0
 20
1935.0
 30
0.0
 11
920.0
 21
1970.25
 31
0.0
 70
   160
  3
STANDARD
100
AcDbAlignedDimension
 13
869.0
 23
1730.722388
 33
0.0
 14
971.0
 24
1740.222388
 34
0.0
100
AcDbRotatedDimension
1001
ACAD
1000
DSTYLE
1002
{
1070
     6
1000
_EX_NORM
1070
     7
1000
_EX_NORM
1070
    41
1040
45.0
1070
    42
1040
10.5
1070
    44
1040
15.0
1070
    73
1070
     0
1070
    74
1070
     0
1070
    75
1070
     0
1070
    76
1070
     0
1070
    77
1070
     1
1070
    78
1070
     0
1070
   140
1040
60.0
1070
   147
1040
5.25
1070
   173
1070
     1
1070
   176
1070
     3
1070
   177
1070
     3
1070
   178
1070
     2
1070
   271
1070
     0
1070
   279
1070
     2
1070
   280
1070
     0
1070
   287
1070
     5
1070
   340
1005
5E7
1002
}
  0
DIMENSION
  5
63D
100
AcDbEntity
  8
寸法
  6
CONTINUOUS
 62
     3
100
AcDbDimension
  2
*D21
 10
2465.0
 20
1935.0
 30
0.0
 11
2287.5
 21
1970.25
 31
0.0
 70
   160
  3
STANDARD
100
AcDbAlignedDimension
 13
2385.0
 23
1733.5
 33
0.0
 14
2465.0
 24
1743.5
 34
0.0
100
AcDbRotatedDimension
1001
ACAD
1000
DSTYLE
1002
{
1070
     6
1000
_EX_NORM
1070
     7
1000
_EX_NORM
1070
    41
1040
45.0
1070
    42
1040
10.5
1070
    44
1040
15.0
1070
    73
1070
     0
1070
    74
1070
     0
1070
    75
1070
     0
1070
    76
1070
     1
1070
    77
1070
     1
1070
    78
1070
     0
1070
   140
1040
60.0
1070
   147
1040
5.25
1070
   173
1070
     1
1070
   176
1070
     3
1070
   177
1070
     3
1070
   178
1070
     2
1070
   271
1070
     0
1070
   279
1070
     2
1070
   280
1070
     1
1070
   287
1070
     5
1070
   340
1005
5E7
1002
}
  0
TEXT
  5
63E
100
AcDbEntity
  8
寸法
  6
CONTINUOUS
 62
     2
100
AcDbText
 10
1587.000001
 20
804.75
 30
0.0
 40
60.0
  1
ＶＰ･ＶＵ４０･５０
 41
0.62784
  7
EXCADSTD
 72
     5
 11
2019.0
 21
804.75
 31
0.0
100
AcDbText
  0
TEXT
  5
63F
100
AcDbEntity
  8
寸法
  6
CONTINUOUS
 62
     2
100
AcDbText
 10
1587.000001
 20
744.75
 30
0.0
 40
60.0
  1
４０～５０㎜立上げ
 41
0.690667
  7
EXCADSTD
 72
     5
 11
2031.0
 21
744.75
 31
0.0
100
AcDbText
  0
LEADER
  5
640
100
AcDbEntity
  8
寸法
  6
CONTINUOUS
 62
     3
100
AcDbLeader
  3
STANDARD
 73
     3
 74
     1
 75
     0
 40
0.0
 76
     3
 10
2329.0
 20
948.5
 30
0.0
 10
2038.5
 20
739.5
 30
0.0
 10
1591.5
 20
739.5
 30
0.0
 77
     3
1001
ACAD
1000
DSTYLE
1002
{
1070
    41
1040
45.0
1070
     5
1000
_EX_NORM
1070
     6
1000
_EX_NORM
1070
     7
1000
_EX_NORM
1070
   341
1005
2A
1002
}
  0
TEXT
  5
641
100
AcDbEntity
  8
寸法
  6
CONTINUOUS
 62
     2
100
AcDbText
 10
2572.5
 20
1550.25
 30
0.0
 40
60.0
  1
Ｒ１/２
 41
0.638
  7
EXCADSTD
 72
     5
 11
2746.499999
 21
1550.25
 31
0.0
100
AcDbText
  0
LEADER
  5
642
100
AcDbEntity
  8
寸法
  6
CONTINUOUS
 62
     3
100
AcDbLeader
  3
STANDARD
 73
     3
 74
     1
 75
     0
 40
0.0
 76
     3
 10
2473.0
 20
1309.0
 30
0.0
 10
2565.0
 20
1545.0
 30
0.0
 10
2731.5
 20
1545.0
 30
0.0
 77
     3
1001
ACAD
1000
DSTYLE
1002
{
1070
    41
1040
45.0
1070
     5
1000
_EX_NORM
1070
     6
1000
_EX_NORM
1070
     7
1000
_EX_NORM
1070
   341
1005
2A
1002
}
  0
DIMENSION
  5
64E
100
AcDbEntity
  8
寸法
  6
CONTINUOUS
 62
     3
100
AcDbDimension
  2
*D22
 10
2465.0
 20
738.5
 30
0.0
 11
2697.5
 21
773.75
 31
0.0
 70
   160
  1
120（床排水）
  3
STANDARD
100
AcDbAlignedDimension
 13
2345.0
 23
918.5
 33
0.0
 14
2465.0
 24
948.5
 34
0.0
100
AcDbRotatedDimension
1001
ACAD
1000
DSTYLE
1002
{
1070
     6
1000
_EX_NORM
1070
     7
1000
_EX_NORM
1070
    41
1040
45.0
1070
    42
1040
10.5
1070
    44
1040
15.0
1070
    73
1070
     0
1070
    74
1070
     0
1070
    75
1070
     0
1070
    76
1070
     0
1070
    77
1070
     1
1070
    78
1070
     0
1070
   140
1040
60.0
1070
   147
1040
5.25
1070
   173
1070
     1
1070
   176
1070
     3
1070
   177
1070
     3
1070
   178
1070
     2
1070
   271
1070
     0
1070
   279
1070
     2
1070
   280
1070
     2
1070
   287
1070
     5
1070
   340
1005
5E7
1002
}
  0
DIMENSION
  5
65A
100
AcDbEntity
  8
寸法
  6
CONTINUOUS
 62
     3
100
AcDbDimension
  2
*D23
 10
1020.0
 20
738.5
 30
0.0
 11
1252.5
 21
773.75
 31
0.0
 70
   160
  1
200（床給水）
  3
STANDARD
100
AcDbAlignedDimension
 13
820.0
 23
940.5
 33
0.0
 14
1020.0
 24
940.5
 34
0.0
100
AcDbRotatedDimension
1001
ACAD
1000
DSTYLE
1002
{
1070
     6
1000
_EX_NORM
1070
     7
1000
_EX_NORM
1070
    41
1040
45.0
1070
    42
1040
10.5
1070
    44
1040
15.0
1070
    73
1070
     0
1070
    74
1070
     0
1070
    75
1070
     0
1070
    76
1070
     0
1070
    77
1070
     1
1070
    78
1070
     0
1070
   140
1040
60.0
1070
   147
1040
5.25
1070
   173
1070
     1
1070
   176
1070
     3
1070
   177
1070
     3
1070
   178
1070
     2
1070
   271
1070
     0
1070
   279
1070
     2
1070
   280
1070
     2
1070
   287
1070
     5
1070
   340
1005
5E7
1002
}
  0
TEXT
  5
65B
100
AcDbEntity
  8
寸法
  6
CONTINUOUS
 62
     2
100
AcDbText
 10
618.0
 20
810.75
 30
0.0
 40
60.0
  1
床排水
 41
0.728
  7
EXCADSTD
 72
     5
 11
774.0
 21
810.75
 31
0.0
100
AcDbText
  0
LEADER
  5
65C
100
AcDbEntity
  8
寸法
  6
CONTINUOUS
 62
     3
100
AcDbLeader
  3
STANDARD
 73
     3
 74
     1
 75
     0
 40
0.0
 76
     3
 10
904.0
 20
918.5
 30
0.0
 10
781.5
 20
805.5
 30
0.0
 10
606.0
 20
805.5
 30
0.0
 77
     3
1001
ACAD
1000
DSTYLE
1002
{
1070
    41
1040
45.0
1070
     5
1000
_EX_NORM
1070
     6
1000
_EX_NORM
1070
     7
1000
_EX_NORM
1070
   341
1005
2A
1002
}
  0
DIMENSION
  5
668
100
AcDbEntity
  8
寸法
  6
CONTINUOUS
 62
     3
100
AcDbDimension
  2
*D24
 10
1020.0
 20
4078.0
 30
0.0
 11
1252.5
 21
4113.25
 31
0.0
 70
   160
  1
200（壁給水）
  3
STANDARD
100
AcDbAlignedDimension
 13
820.0
 23
3981.0
 33
0.0
 14
1020.0
 24
3981.0
 34
0.0
100
AcDbRotatedDimension
1001
ACAD
1000
DSTYLE
1002
{
1070
     6
1000
_EX_NORM
1070
     7
1000
_EX_NORM
1070
    41
1040
45.0
1070
    42
1040
10.5
1070
    44
1040
15.0
1070
    73
1070
     0
1070
    74
1070
     0
1070
    75
1070
     0
1070
    76
1070
     0
1070
    77
1070
     1
1070
    78
1070
     0
1070
   140
1040
60.0
1070
   147
1040
5.25
1070
   173
1070
     1
1070
   176
1070
     3
1070
   177
1070
     3
1070
   178
1070
     2
1070
   271
1070
     0
1070
   279
1070
     2
1070
   280
1070
     2
1070
   287
1070
     5
1070
   340
1005
5E7
1002
}
  0
DIMENSION
  5
674
100
AcDbEntity
  8
寸法
  6
CONTINUOUS
 62
     3
100
AcDbDimension
  2
*D25
 10
1220.0
 20
3388.0
 30
0.0
 11
920.0
 21
3423.25
 31
0.0
 70
   160
  3
STANDARD
100
AcDbAlignedDimension
 13
620.0
 23
3532.457949
 33
0.0
 14
1220.0
 24
3532.457949
 34
0.0
100
AcDbRotatedDimension
1001
ACAD
1000
DSTYLE
1002
{
1070
     6
1000
_EX_NORM
1070
     7
1000
_EX_NORM
1070
    41
1040
45.0
1070
    42
1040
10.5
1070
    44
1040
15.0
1070
    73
1070
     0
1070
    74
1070
     0
1070
    75
1070
     0
1070
    76
1070
     0
1070
    77
1070
     1
1070
    78
1070
     0
1070
   140
1040
60.0
1070
   147
1040
5.25
1070
   173
1070
     1
1070
   176
1070
     3
1070
   177
1070
     3
1070
   178
1070
     2
1070
   271
1070
     0
1070
   279
1070
     2
1070
   280
1070
     0
1070
   287
1070
     5
1070
   340
1005
5E7
1002
}
  0
DIMENSION
  5
67F
100
AcDbEntity
  8
寸法
  6
CONTINUOUS
 62
     3
100
AcDbDimension
  2
*D26
 10
1325.0
 20
3973.0
 30
0.0
 11
1289.75
 21
3733.0
 31
0.0
 70
   160
  3
STANDARD
100
AcDbAlignedDimension
 13
920.0
 23
3493.0
 33
0.0
 14
1295.0
 24
3973.0
 34
0.0
 50
90.0
100
AcDbRotatedDimension
1001
ACAD
1000
DSTYLE
1002
{
1070
     6
1000
_EX_NORM
1070
     7
1000
_EX_NORM
1070
    41
1040
45.0
1070
    42
1040
10.5
1070
    44
1040
15.0
1070
    73
1070
     0
1070
    74
1070
     0
1070
    75
1070
     0
1070
    76
1070
     1
1070
    77
1070
     1
1070
    78
1070
     0
1070
   140
1040
60.0
1070
   147
1040
5.25
1070
   173
1070
     1
1070
   176
1070
     3
1070
   177
1070
     3
1070
   178
1070
     2
1070
   271
1070
     0
1070
   279
1070
     2
1070
   280
1070
     0
1070
   287
1070
     5
1070
   340
1005
5E7
1002
}
  0
DIMENSION
  5
68B
100
AcDbEntity
  8
寸法
  6
CONTINUOUS
 62
     3
100
AcDbDimension
  2
*D27
 10
1115.0
 20
4168.0
 30
0.0
 11
920.0
 21
4203.25
 31
0.0
 70
   160
  1
<>（壁固定）
  3
STANDARD
100
AcDbAlignedDimension
 13
725.0
 23
4005.5
 33
0.0
 14
1115.0
 24
4005.5
 34
0.0
100
AcDbRotatedDimension
1001
ACAD
1000
DSTYLE
1002
{
1070
     6
1000
_EX_NORM
1070
     7
1000
_EX_NORM
1070
    41
1040
45.0
1070
    42
1040
145.000005
1070
    44
1040
15.0
1070
    73
1070
     0
1070
    74
1070
     0
1070
    75
1070
     0
1070
    76
1070
     0
1070
    77
1070
     1
1070
    78
1070
     0
1070
   140
1040
60.0
1070
   147
1040
5.25
1070
   173
1070
     1
1070
   176
1070
     3
1070
   177
1070
     3
1070
   178
1070
     2
1070
   271
1070
     0
1070
   279
1070
     2
1070
   280
1070
     0
1070
   287
1070
     5
1070
   340
1005
5E7
1002
}
  0
DIMENSION
  5
697
100
AcDbEntity
  8
寸法
  6
CONTINUOUS
 62
     3
100
AcDbDimension
  2
*D28
 10
1203.5
 20
648.5
 30
0.0
 11
920.0
 21
683.75
 31
0.0
 70
   160
  3
STANDARD
100
AcDbAlignedDimension
 13
636.5
 23
948.5
 33
0.0
 14
1203.5
 24
948.5
 34
0.0
100
AcDbRotatedDimension
1001
ACAD
1000
DSTYLE
1002
{
1070
     6
1000
_EX_NORM
1070
     7
1000
_EX_NORM
1070
    41
1040
45.0
1070
    42
1040
237.499995
1070
    44
1040
15.0
1070
    73
1070
     0
1070
    74
1070
     0
1070
    75
1070
     0
1070
    76
1070
     0
1070
    77
1070
     1
1070
    78
1070
     0
1070
   140
1040
60.0
1070
   147
1040
5.25
1070
   173
1070
     1
1070
   176
1070
     3
1070
   177
1070
     3
1070
   178
1070
     2
1070
   271
1070
     0
1070
   279
1070
     2
1070
   280
1070
     0
1070
   287
1070
     5
1070
   340
1005
5E7
1002
}
  0
DIMENSION
  5
6A2
100
AcDbEntity
  8
寸法
  6
CONTINUOUS
 62
     3
100
AcDbDimension
  2
*D29
 10
1372.5
 20
1728.5
 30
0.0
 11
1337.25
 21
1338.5
 31
0.0
 70
   160
  3
STANDARD
100
AcDbAlignedDimension
 13
1278.5
 23
948.5
 33
0.0
 14
920.0
 24
1728.5
 34
0.0
 50
90.0
100
AcDbRotatedDimension
1001
ACAD
1000
DSTYLE
1002
{
1070
     6
1000
_EX_NORM
1070
     7
1000
_EX_NORM
1070
    41
1040
45.0
1070
    42
1040
10.5
1070
    44
1040
15.0
1070
    73
1070
     0
1070
    74
1070
     0
1070
    75
1070
     1
1070
    76
1070
     0
1070
    77
1070
     1
1070
    78
1070
     0
1070
   140
1040
60.0
1070
   147
1040
5.25
1070
   173
1070
     1
1070
   176
1070
     3
1070
   177
1070
     3
1070
   178
1070
     2
1070
   271
1070
     0
1070
   279
1070
     2
1070
   280
1070
     0
1070
   287
1070
     5
1070
   340
1005
5E7
1002
}
  0
DIMENSION
  5
6AD
100
AcDbEntity
  8
寸法
  6
CONTINUOUS
 62
     3
100
AcDbDimension
  2
*D30
 10
1462.5
 20
1743.5
 30
0.0
 11
1427.25
 21
1346.0
 31
0.0
 70
   160
  3
STANDARD
100
AcDbAlignedDimension
 13
1203.5
 23
948.5
 33
0.0
 14
1215.0
 24
1743.5
 34
0.0
 50
90.0
100
AcDbRotatedDimension
1001
ACAD
1000
DSTYLE
1002
{
1070
     6
1000
_EX_NORM
1070
     7
1000
_EX_NORM
1070
    41
1040
45.0
1070
    42
1040
10.5
1070
    44
1040
15.0
1070
    73
1070
     0
1070
    74
1070
     0
1070
    75
1070
     1
1070
    76
1070
     0
1070
    77
1070
     1
1070
    78
1070
     0
1070
   140
1040
60.0
1070
   147
1040
5.25
1070
   173
1070
     1
1070
   176
1070
     3
1070
   177
1070
     3
1070
   178
1070
     2
1070
   271
1070
     0
1070
   279
1070
     2
1070
   280
1070
     0
1070
   287
1070
     5
1070
   340
1005
5E7
1002
}
  0
DIMENSION
  5
6B8
100
AcDbEntity
  8
寸法
  6
CONTINUOUS
 62
     3
100
AcDbDimension
  2
*D31
 10
1552.5
 20
2743.5
 30
0.0
 11
1517.25
 21
1846.0
 31
0.0
 70
   160
  3
STANDARD
100
AcDbAlignedDimension
 13
1203.5
 23
948.5
 33
0.0
 14
1214.999985
 24
2743.5
 34
0.0
 50
90.0
100
AcDbRotatedDimension
1001
ACAD
1000
DSTYLE
1002
{
1070
     6
1000
_EX_NORM
1070
     7
1000
_EX_NORM
1070
    41
1040
45.0
1070
    42
1040
10.5
1070
    44
1040
15.0
1070
    73
1070
     0
1070
    74
1070
     0
1070
    75
1070
     1
1070
    76
1070
     0
1070
    77
1070
     1
1070
    78
1070
     0
1070
   140
1040
60.0
1070
   147
1040
5.25
1070
   173
1070
     1
1070
   176
1070
     3
1070
   177
1070
     3
1070
   178
1070
     2
1070
   271
1070
     0
1070
   279
1070
     2
1070
   280
1070
     0
1070
   287
1070
     5
1070
   340
1005
5E7
1002
}
  0
DIMENSION
  5
6C3
100
AcDbEntity
  8
寸法
  6
CONTINUOUS
 62
     3
100
AcDbDimension
  2
*D32
 10
1462.5
 20
2743.5
 30
0.0
 11
1427.25
 21
2243.5
 31
0.0
 70
   160
  3
STANDARD
100
AcDbAlignedDimension
 13
1215.0
 23
1743.5
 33
0.0
 14
1214.999985
 24
2743.5
 34
0.0
 50
90.0
100
AcDbRotatedDimension
1001
ACAD
1000
DSTYLE
1002
{
1070
     6
1000
_EX_NORM
1070
     7
1000
_EX_NORM
1070
    41
1040
45.0
1070
    42
1040
10.5
1070
    44
1040
15.0
1070
    73
1070
     0
1070
    74
1070
     0
1070
    75
1070
     1
1070
    76
1070
     0
1070
    77
1070
     1
1070
    78
1070
     0
1070
   140
1040
60.0
1070
   147
1040
5.25
1070
   173
1070
     1
1070
   176
1070
     3
1070
   177
1070
     3
1070
   178
1070
     2
1070
   271
1070
     0
1070
   279
1070
     2
1070
   280
1070
     0
1070
   287
1070
     5
1070
   340
1005
5E7
1002
}
  0
DIMENSION
  5
6CE
100
AcDbEntity
  8
寸法
  6
CONTINUOUS
 62
     3
100
AcDbDimension
  2
*D33
 10
1372.5
 20
1873.5
 30
0.0
 11
1337.25
 21
1808.5
 31
0.0
 70
   160
  3
STANDARD
100
AcDbAlignedDimension
 13
1215.0
 23
1743.5
 33
0.0
 14
1233.076697
 24
1873.5
 34
0.0
 50
90.0
100
AcDbRotatedDimension
1001
ACAD
1000
DSTYLE
1002
{
1070
     6
1000
_EX_NORM
1070
     7
1000
_EX_NORM
1070
    41
1040
45.0
1070
    42
1040
10.5
1070
    44
1040
15.0
1070
    73
1070
     0
1070
    74
1070
     0
1070
    75
1070
     1
1070
    76
1070
     0
1070
    77
1070
     1
1070
    78
1070
     0
1070
   140
1040
60.0
1070
   147
1040
5.25
1070
   173
1070
     1
1070
   176
1070
     3
1070
   177
1070
     3
1070
   178
1070
     2
1070
   271
1070
     0
1070
   279
1070
     2
1070
   280
1070
     0
1070
   287
1070
     5
1070
   340
1005
5E7
1002
}
  0
TEXT
  5
6CF
100
AcDbEntity
  8
寸法
  6
CONTINUOUS
 62
     2
100
AcDbText
 10
1331.25
 20
1957.5
 30
0.0
 40
60.0
  1
コード長さ；１ｍ
 50
90.0
 41
0.693
  7
EXCADSTD
 72
     5
 11
1331.25
 21
2353.499999
 31
0.0
100
AcDbText
  0
LEADER
  5
6D0
100
AcDbEntity
  8
寸法
  6
CONTINUOUS
 62
     3
100
AcDbLeader
  3
STANDARD
 73
     3
 74
     1
 75
     0
 40
0.0
 76
     3
 10
1242.372956
 20
1866.500118
 30
0.0
 10
1336.5
 20
1950.0
 30
0.0
 10
1336.5
 20
2344.5
 30
0.0
 77
     3
1001
ACAD
1000
DSTYLE
1002
{
1070
    41
1040
45.0
1070
     5
1000
_EX_NORM
1070
     6
1000
_EX_NORM
1070
     7
1000
_EX_NORM
1070
   341
1005
2A
1002
}
  0
DIMENSION
  5
6DC
100
AcDbEntity
  8
寸法
  6
CONTINUOUS
 62
     3
100
AcDbDimension
  2
*D34
 10
1175.0
 20
2838.75
 30
0.0
 11
920.0
 21
2874.0
 31
0.0
 70
   160
  1
510（壁固定）
  3
STANDARD
100
AcDbAlignedDimension
 13
665.0
 23
2672.0
 33
0.0
 14
1175.0
 24
2672.0
 34
0.0
100
AcDbRotatedDimension
1001
ACAD
1000
DSTYLE
1002
{
1070
     6
1000
_EX_NORM
1070
     7
1000
_EX_NORM
1070
    41
1040
45.0
1070
    42
1040
10.5
1070
    44
1040
15.0
1070
    73
1070
     0
1070
    74
1070
     0
1070
    75
1070
     0
1070
    76
1070
     0
1070
    77
1070
     1
1070
    78
1070
     0
1070
   140
1040
60.0
1070
   147
1040
5.25
1070
   173
1070
     1
1070
   176
1070
     3
1070
   177
1070
     3
1070
   178
1070
     2
1070
   271
1070
     0
1070
   279
1070
     2
1070
   280
1070
     0
1070
   287
1070
     5
1070
   340
1005
5E7
1002
}
  0
DIMENSION
  5
6E8
100
AcDbEntity
  8
寸法
  6
CONTINUOUS
 62
     3
100
AcDbDimension
  2
*D35
 10
1220.0
 20
2928.75
 30
0.0
 11
920.0
 21
2964.0
 31
0.0
 70
   160
  3
STANDARD
100
AcDbAlignedDimension
 13
620.0
 23
2738.5
 33
0.0
 14
1220.0
 24
2738.5
 34
0.0
100
AcDbRotatedDimension
1001
ACAD
1000
DSTYLE
1002
{
1070
     6
1000
_EX_NORM
1070
     7
1000
_EX_NORM
1070
    41
1040
45.0
1070
    42
1040
10.5
1070
    44
1040
15.0
1070
    73
1070
     0
1070
    74
1070
     0
1070
    75
1070
     0
1070
    76
1070
     0
1070
    77
1070
     1
1070
    78
1070
     0
1070
   140
1040
60.0
1070
   147
1040
5.25
1070
   173
1070
     1
1070
   176
1070
     3
1070
   177
1070
     3
1070
   178
1070
     2
1070
   271
1070
     0
1070
   279
1070
     2
1070
   280
1070
     0
1070
   287
1070
     5
1070
   340
1005
5E7
1002
}
  0
DIMENSION
  5
6F4
100
AcDbEntity
  8
寸法
  6
CONTINUOUS
 62
     3
100
AcDbDimension
  2
*D36
 10
2840.0
 20
2688.5
 30
0.0
 11
2804.75
 21
2248.5
 31
0.0
 70
   160
  1
880（壁固定）
  3
STANDARD
100
AcDbAlignedDimension
 13
2497.5
 23
1808.5
 33
0.0
 14
2497.5
 24
2688.5
 34
0.0
 50
90.0
100
AcDbRotatedDimension
1001
ACAD
1000
DSTYLE
1002
{
1070
     6
1000
_EX_NORM
1070
     7
1000
_EX_NORM
1070
    41
1040
45.0
1070
    42
1040
10.5
1070
    44
1040
15.0
1070
    73
1070
     0
1070
    74
1070
     0
1070
    75
1070
     0
1070
    76
1070
     0
1070
    77
1070
     1
1070
    78
1070
     0
1070
   140
1040
60.0
1070
   147
1040
5.25
1070
   173
1070
     1
1070
   176
1070
     3
1070
   177
1070
     3
1070
   178
1070
     2
1070
   271
1070
     0
1070
   279
1070
     2
1070
   280
1070
     0
1070
   287
1070
     5
1070
   340
1005
5E7
1002
}
  0
DIMENSION
  5
6FF
100
AcDbEntity
  8
寸法
  6
CONTINUOUS
 62
     3
100
AcDbDimension
  2
*D37
 10
2465.0
 20
2838.75
 30
0.0
 11
2389.37059
 21
2874.0
 31
0.0
 70
   160
  3
STANDARD
100
AcDbAlignedDimension
 13
2313.74118
 23
2715.202357
 33
0.0
 14
2465.0
 24
2743.5
 34
0.0
100
AcDbRotatedDimension
1001
ACAD
1000
DSTYLE
1002
{
1070
     6
1000
_EX_NORM
1070
     7
1000
_EX_NORM
1070
    41
1040
45.0
1070
    42
1040
10.5
1070
    44
1040
15.0
1070
    73
1070
     0
1070
    74
1070
     0
1070
    75
1070
     0
1070
    76
1070
     1
1070
    77
1070
     1
1070
    78
1070
     0
1070
   140
1040
60.0
1070
   147
1040
5.25
1070
   173
1070
     1
1070
   176
1070
     3
1070
   177
1070
     3
1070
   178
1070
     2
1070
   271
1070
     0
1070
   279
1070
     2
1070
   280
1070
     0
1070
   287
1070
     5
1070
   340
1005
5E7
1002
}
  0
ENDSEC
  0
SECTION
  2
OBJECTS
  0
DICTIONARY
  5
19
100
AcDbDictionary
  3
ACAD_GROUP
350
1A
  3
ACAD_MLINESTYLE
350
1B
  0
DICTIONARY
  5
1A
102
{ACAD_REACTORS
330
19
102
}
100
AcDbDictionary
  0
DICTIONARY
  5
1B
102
{ACAD_REACTORS
330
19
102
}
100
AcDbDictionary
  3
STANDARD
350
1C
  0
MLINESTYLE
  5
1C
102
{ACAD_REACTORS
330
1B
102
}
100
AcDbMlineStyle
  2
Standard
 70
     0
  3

 62
     0
 51
90.0
 52
90.0
 71
     2
 49
0.5
 62
   256
  6
ByLayer
 49
-0.5
 62
   256
  6
ByLayer
  0
ENDSEC
  0
EOF
