  0
SECTION
  2
HEADER
  9
$ACADVER
  1
AC1014
  9
$ACADMAINTVER
 70
     0
  9
$DWGCODEPAGE
  3
ANSI_932
  9
$INSBASE
 10
0.0
 20
0.0
 30
0.0
  9
$EXTMIN
 10
2.2
 20
13.5
 30
0.0
  9
$EXTMAX
 10
199.0
 20
288.5
 30
0.0
  9
$LIMMIN
 10
0.0
 20
0.0
  9
$LIMMAX
 10
210.0
 20
297.0
  9
$ORTHOMODE
 70
     0
  9
$REGENMODE
 70
     1
  9
$FILLMODE
 70
     1
  9
$QTEXTMODE
 70
     0
  9
$MIRRTEXT
 70
     1
  9
$DRAGMODE
 70
     2
  9
$LTSCALE
 40
1.0
  9
$OSMODE
 70
     0
  9
$ATTMODE
 70
     1
  9
$TEXTSIZE
 40
0.2
  9
$TRACEWID
 40
0.05
  9
$TEXTSTYLE
  7
STANDARD
  9
$CLAYER
  8
化粧台
  9
$CELTYPE
  6
CONTINUOUS
  9
$CECOLOR
 62
   256
  9
$CELTSCALE
 40
1.0
  9
$DELOBJ
 70
     1
  9
$DISPSILH
 70
     0
  9
$DIMSCALE
 40
1.0
  9
$DIMASZ
 40
0.18
  9
$DIMEXO
 40
0.0625
  9
$DIMDLI
 40
0.38
  9
$DIMRND
 40
0.0
  9
$DIMDLE
 40
0.0
  9
$DIMEXE
 40
0.18
  9
$DIMTP
 40
0.0
  9
$DIMTM
 40
0.0
  9
$DIMTXT
 40
0.18
  9
$DIMCEN
 40
0.09
  9
$DIMTSZ
 40
0.0
  9
$DIMTOL
 70
     0
  9
$DIMLIM
 70
     0
  9
$DIMTIH
 70
     1
  9
$DIMTOH
 70
     1
  9
$DIMSE1
 70
     0
  9
$DIMSE2
 70
     0
  9
$DIMTAD
 70
     0
  9
$DIMZIN
 70
     0
  9
$DIMBLK
  1

  9
$DIMASO
 70
     1
  9
$DIMSHO
 70
     1
  9
$DIMPOST
  1

  9
$DIMAPOST
  1

  9
$DIMALT
 70
     0
  9
$DIMALTD
 70
     2
  9
$DIMALTF
 40
25.4
  9
$DIMLFAC
 40
1.0
  9
$DIMTOFL
 70
     0
  9
$DIMTVP
 40
0.0
  9
$DIMTIX
 70
     0
  9
$DIMSOXD
 70
     0
  9
$DIMSAH
 70
     0
  9
$DIMBLK1
  1

  9
$DIMBLK2
  1

  9
$DIMSTYLE
  2
STANDARD
  9
$DIMCLRD
 70
     0
  9
$DIMCLRE
 70
     0
  9
$DIMCLRT
 70
     0
  9
$DIMTFAC
 40
1.0
  9
$DIMGAP
 40
0.09
  9
$DIMJUST
 70
     0
  9
$DIMSD1
 70
     0
  9
$DIMSD2
 70
     0
  9
$DIMTOLJ
 70
     1
  9
$DIMTZIN
 70
     0
  9
$DIMALTZ
 70
     0
  9
$DIMALTTZ
 70
     0
  9
$DIMFIT
 70
     3
  9
$DIMUPT
 70
     0
  9
$DIMUNIT
 70
     2
  9
$DIMDEC
 70
     4
  9
$DIMTDEC
 70
     4
  9
$DIMALTU
 70
     2
  9
$DIMALTTD
 70
     2
  9
$DIMTXSTY
  7
STANDARD
  9
$DIMAUNIT
 70
     0
  9
$LUNITS
 70
     2
  9
$LUPREC
 70
     4
  9
$SKETCHINC
 40
0.1
  9
$FILLETRAD
 40
0.0
  9
$AUNITS
 70
     0
  9
$AUPREC
 70
     0
  9
$MENU
  1
acad
  9
$ELEVATION
 40
0.0
  9
$PELEVATION
 40
0.0
  9
$THICKNESS
 40
0.0
  9
$LIMCHECK
 70
     0
  9
$BLIPMODE
 70
     1
  9
$CHAMFERA
 40
0.0
  9
$CHAMFERB
 40
0.0
  9
$CHAMFERC
 40
0.0
  9
$CHAMFERD
 40
0.0
  9
$SKPOLY
 70
     0
  9
$TDCREATE
 40
2455240.329605544
  9
$TDUPDATE
 40
2455240.329605544
  9
$TDINDWG
 40
0.0000000000
  9
$TDUSRTIMER
 40
0.0000000000
  9
$USRTIMER
 70
     1
  9
$ANGBASE
 50
0.0
  9
$ANGDIR
 70
     0
  9
$PDMODE
 70
     0
  9
$PDSIZE
 40
0.0
  9
$PLINEWID
 40
0.0
  9
$COORDS
 70
     1
  9
$SPLFRAME
 70
     0
  9
$SPLINETYPE
 70
     6
  9
$SPLINESEGS
 70
     8
  9
$ATTDIA
 70
     0
  9
$ATTREQ
 70
     1
  9
$HANDLING
 70
     1
  9
$HANDSEED
  5
6F1
  9
$SURFTAB1
 70
     6
  9
$SURFTAB2
 70
     6
  9
$SURFTYPE
 70
     6
  9
$SURFU
 70
     6
  9
$SURFV
 70
     6
  9
$UCSNAME
  2

  9
$UCSORG
 10
0.0
 20
0.0
 30
0.0
  9
$UCSXDIR
 10
1.0
 20
0.0
 30
0.0
  9
$UCSYDIR
 10
0.0
 20
1.0
 30
0.0
  9
$PUCSNAME
  2

  9
$PUCSORG
 10
0.0
 20
0.0
 30
0.0
  9
$PUCSXDIR
 10
1.0
 20
0.0
 30
0.0
  9
$PUCSYDIR
 10
0.0
 20
1.0
 30
0.0
  9
$USERI1
 70
     0
  9
$USERI2
 70
     0
  9
$USERI3
 70
     0
  9
$USERI4
 70
     0
  9
$USERI5
 70
     0
  9
$USERR1
 40
0.0
  9
$USERR2
 40
0.0
  9
$USERR3
 40
0.0
  9
$USERR4
 40
0.0
  9
$USERR5
 40
0.0
  9
$WORLDVIEW
 70
     1
  9
$SHADEDGE
 70
     3
  9
$SHADEDIF
 70
    70
  9
$TILEMODE
 70
     1
  9
$MAXACTVP
 70
    16
  9
$PINSBASE
 10
0.0
 20
0.0
 30
0.0
  9
$PLIMCHECK
 70
     0
  9
$PEXTMIN
 10
1.000000E+20
 20
1.000000E+20
 30
1.000000E+20
  9
$PEXTMAX
 10
-1.000000E+20
 20
-1.000000E+20
 30
-1.000000E+20
  9
$PLIMMIN
 10
0.0
 20
0.0
  9
$PLIMMAX
 10
12.0
 20
9.0
  9
$UNITMODE
 70
     0
  9
$VISRETAIN
 70
     0
  9
$PLINEGEN
 70
     1
  9
$PSLTSCALE
 70
     0
  9
$TREEDEPTH
 70
  3020
  9
$PICKSTYLE
 70
     1
  9
$CMLSTYLE
  2
Standard
  9
$CMLJUST
 70
     0
  9
$CMLSCALE
 40
1.0
  9
$PROXYGRAPHICS
 70
     0
  9
$MEASUREMENT
 70
     0
  0
ENDSEC
  0
SECTION
  2
CLASSES
  0
CLASS
  1
LWPOLYLINE
  2
AcDbPolyline
  3
"AutoCAD"
 90
        0
280
     0
281
     1
  0
CLASS
  1
IMAGE
  2
AcDbRasterImage
  3
ISM
 90
      127
280
     0
281
     1
  0
CLASS
  1
OLE2FRAME
  2
AcDbOle2Frame
  3
""
 90
        0
280
     0
281
     1
  0
CLASS
  1
HATCH
  2
AcDbHatch
  3
"ACAD_SEDONA"
 90
        0
280
     0
281
     1
  0
CLASS
  1
DICTIONARYVAR
  2
AcDbDictionaryVar
  3
"AutoCAD"
 90
        0
280
     0
281
     0
  0
CLASS
  1
RASTERVARIABLES
  2
AcDbRasterVariables
  3
ISM
 90
        0
280
     0
281
     0
  0
CLASS
  1
IMAGEDEF
  2
AcDbRasterImageDef
  3
ISM
 90
        0
280
     0
281
     0
  0
CLASS
  1
IMAGEDEF_REACTOR
  2
AcDbRasterImageDefReactor
  3
ISM
 90
        1
280
     0
281
     0
  0
CLASS
  1
IDBUFFER
  2
AcDbIdBuffer
  3
"Acad"
 90
        0
280
     0
281
     0
  0
CLASS
  1
SPATIAL_FILTER
  2
AcDbSpatialFilter
  3
"Acad"
 90
        0
280
     0
281
     0
  0
CLASS
  1
XRECORD
  2
AcDbXrecord
  3
"<Built In>"
 90
        0
280
     0
281
     0
  0
CLASS
  1
SORTENTSTABLE
  2
AcDbSortentsTable
  3
"AutoCAD"
 90
        0
280
     0
281
     0
  0
CLASS
  1
LAYER_INDEX
  2
AcDbLayerIndex
  3
"Acad"
 90
        0
280
     0
281
     0
  0
CLASS
  1
SPATIAL_INDEX
  2
AcDbSpatialIndex
  3
"Acad"
 90
        0
280
     0
281
     0
  0
CLASS
  1
OBJECT_PTR
  2
CAseDLPNTableRecord
  3
"ASE-LPNTableRecord"
 90
        1
280
     0
281
     0
  0
CLASS
  1
LAYOUT
  2
AcDbLayout
  3
"AutoCAD 2000"
 90
        1
280
     0
281
     0
  0
CLASS
  1
PLOTSETTINGS
  2
AcDbPlotSettings
  3
"AutoCAD 2000"
 90
        1
280
     0
281
     0
  0
CLASS
  1
ACDBDICTIONARYWDFLT
  2
AcDbDictionaryWithDefault
  3
"AutoCAD 2000"
 90
        1
280
     0
281
     0
  0
CLASS
  1
ACDBPLACEHOLDER
  2
AcDbPlaceHolder
  3
"AutoCAD 2000"
 90
        1
280
     0
281
     0
  0
CLASS
  1
VBA_PROJECT
  2
AcDbVbaProject
  3
"acadvba"
 90
        1
280
     0
281
     0
  0
CLASS
  1
WIPEOUT
  2
AcDbWipeout
  3
WipeOut|AutoCAD Express Tool|expresstools@autodesk.com
 90
      127
280
     0
281
     1
  0
CLASS
  1
WIPEOUTVARIABLES
  2
AcDbWipeoutVariables
  3
WipeOut|AutoCAD Express Tool|expresstools@autodesk.com
 90
        0
280
     0
281
     0
  0
CLASS
  1
RTEXT
  2
RText
  3
RText|AutoCAD Express Tool|expresstools@autodesk.com
 90
        0
280
     0
281
     1
  0
CLASS
  1
ARCALIGNEDTEXT
  2
AcDbArcAlignedText
  3
ATEXT|AutoCAD Express Tool|expresstools@autodesk.com
 90
        0
280
     0
281
     1
  0
ENDSEC
  0
SECTION
  2
TABLES
  0
TABLE
  2
VPORT
  5
7
100
AcDbSymbolTable
 70
     1
  0
VPORT
  5
15
100
AcDbSymbolTableRecord
100
AcDbViewportTableRecord
  2
*ACTIVE
 70
     0
 10
0.0
 20
0.0
 11
1.0
 21
1.0
 12
1509.0
 22
2265.0
 13
0.0
 23
0.0
 14
1.0
 24
1.0
 15
0.0
 25
0.0
 16
0.0
 26
0.0
 36
1.0
 17
0.0
 27
0.0
 37
0.0
 40
4125.0
 41
1.722533
 42
50.0
 43
0.0
 44
0.0
 50
0.0
 51
0.0
 71
     0
 72
   100
 73
     1
 74
     1
 75
     0
 76
     0
 77
     0
 78
     0
  0
ENDTAB
  0
TABLE
  2
LTYPE
  5
4
100
AcDbSymbolTable
 70
     9
  0
LTYPE
  5
11
100
AcDbSymbolTableRecord
100
AcDbLinetypeTableRecord
  2
BYBLOCK
 70
    64
  3

 72
    65
 73
     0
 40
0.0
  0
LTYPE
  5
12
100
AcDbSymbolTableRecord
100
AcDbLinetypeTableRecord
  2
BYLAYER
 70
    64
  3

 72
    65
 73
     0
 40
0.0
  0
LTYPE
  5
13
100
AcDbSymbolTableRecord
100
AcDbLinetypeTableRecord
  2
CONTINUOUS
 70
    64
  3
実線
 72
    65
 73
     0
 40
0.0
  0
LTYPE
  5
1D
100
AcDbSymbolTableRecord
100
AcDbLinetypeTableRecord
  2
EXLTYPE1
 70
    64
  3
破線
 72
    65
 73
     2
 40
3.0
 49
2.0
 74
     0
 49
-1.0
 74
     0
  0
LTYPE
  5
1E
100
AcDbSymbolTableRecord
100
AcDbLinetypeTableRecord
  2
EXLTYPE2
 70
    64
  3
点線
 72
    65
 73
     2
 40
2.0
 49
1.0
 74
     0
 49
-1.0
 74
     0
  0
LTYPE
  5
1F
100
AcDbSymbolTableRecord
100
AcDbLinetypeTableRecord
  2
EXLTYPE3
 70
    64
  3
一点鎖線
 72
    65
 73
     4
 40
10.0
 49
7.0
 74
     0
 49
-1.0
 74
     0
 49
1.0
 74
     0
 49
-1.0
 74
     0
  0
LTYPE
  5
20
100
AcDbSymbolTableRecord
100
AcDbLinetypeTableRecord
  2
EXLTYPE4
 70
    64
  3
二点鎖線
 72
    65
 73
     6
 40
12.0
 49
7.0
 74
     0
 49
-1.0
 74
     0
 49
1.0
 74
     0
 49
-1.0
 74
     0
 49
1.0
 74
     0
 49
-1.0
 74
     0
  0
LTYPE
  5
21
100
AcDbSymbolTableRecord
100
AcDbLinetypeTableRecord
  2
EXLTYPE5
 70
    64
  3
三点鎖線
 72
    65
 73
     8
 40
37.0
 49
30.0
 74
     0
 49
-1.0
 74
     0
 49
1.0
 74
     0
 49
-1.0
 74
     0
 49
1.0
 74
     0
 49
-1.0
 74
     0
 49
1.0
 74
     0
 49
-1.0
 74
     0
  0
LTYPE
  5
22
100
AcDbSymbolTableRecord
100
AcDbLinetypeTableRecord
  2
EXLTYPE6
 70
    64
  3
四点鎖線
 72
    65
 73
    10
 40
39.0
 49
30.0
 74
     0
 49
-1.0
 74
     0
 49
1.0
 74
     0
 49
-1.0
 74
     0
 49
1.0
 74
     0
 49
-1.0
 74
     0
 49
1.0
 74
     0
 49
-1.0
 74
     0
 49
1.0
 74
     0
 49
-1.0
 74
     0
  0
ENDTAB
  0
TABLE
  2
LAYER
  5
2
100
AcDbSymbolTable
 70
     6
  0
LAYER
  5
14
100
AcDbSymbolTableRecord
100
AcDbLayerTableRecord
  2
0
 70
     0
 62
     7
  6
CONTINUOUS
  0
LAYER
  5
25
100
AcDbSymbolTableRecord
100
AcDbLayerTableRecord
  2
枠・表
 70
    64
 62
     7
  6
CONTINUOUS
  0
LAYER
  5
26
100
AcDbSymbolTableRecord
100
AcDbLayerTableRecord
  2
化粧台
 70
    64
 62
     7
  6
CONTINUOUS
  0
LAYER
  5
27
100
AcDbSymbolTableRecord
100
AcDbLayerTableRecord
  2
鏡台
 70
    64
 62
     7
  6
CONTINUOUS
  0
LAYER
  5
28
100
AcDbSymbolTableRecord
100
AcDbLayerTableRecord
  2
付属金具
 70
    64
 62
     7
  6
CONTINUOUS
  0
LAYER
  5
29
100
AcDbSymbolTableRecord
100
AcDbLayerTableRecord
  2
寸法
 70
    64
 62
     7
  6
CONTINUOUS
  0
ENDTAB
  0
TABLE
  2
STYLE
  5
3
100
AcDbSymbolTable
 70
     5
  0
STYLE
  5
17
100
AcDbSymbolTableRecord
100
AcDbTextStyleTableRecord
  2
STANDARD
 70
     0
 40
0.0
 41
1.0
 50
0.0
 71
     0
 42
0.0
  3
monotxt
  4
extfont
  0
STYLE
  5
23
100
AcDbSymbolTableRecord
100
AcDbTextStyleTableRecord
  2
EXCADSTD
 70
    64
 40
0.0
 41
1.0
 50
0.0
 71
     0
 42
0.2
  3
monotxt
  4
extfont
  0
STYLE
  5
24
100
AcDbSymbolTableRecord
100
AcDbTextStyleTableRecord
  2
EXCADVERT
 70
    68
 40
0.0
 41
1.0
 50
0.0
 71
     0
 42
0.286885
  3
monotxt
  4
extfont
  0
STYLE
  5
E9
100
AcDbSymbolTableRecord
100
AcDbTextStyleTableRecord
  2
EXCADTTF1
 70
    64
 40
0.0
 41
1.0
 50
0.0
 71
     0
 42
0.2
  3
MS Gothic.ttf
  4

1001
ACAD
1000
MS Gothic
1071
    32817
  0
STYLE
  5
5D7
100
AcDbSymbolTableRecord
100
AcDbTextStyleTableRecord
  2
EXCADDIM1
 70
    64
 40
0.0
 41
0.84
 50
0.0
 71
     0
 42
0.2
  3
monotxt
  4
extfont
  0
ENDTAB
  0
TABLE
  2
VIEW
  5
5
100
AcDbSymbolTable
 70
     0
  0
ENDTAB
  0
TABLE
  2
UCS
  5
6
100
AcDbSymbolTable
 70
     0
  0
ENDTAB
  0
TABLE
  2
APPID
  5
8
100
AcDbSymbolTable
 70
     1
  0
APPID
  5
16
100
AcDbSymbolTableRecord
100
AcDbRegAppTableRecord
  2
ACAD
 70
     0
  0
ENDTAB
  0
TABLE
  2
DIMSTYLE
  5
9
100
AcDbSymbolTable
 70
     1
  0
DIMSTYLE
105
18
100
AcDbSymbolTableRecord
100
AcDbDimStyleTableRecord
  2
STANDARD
 70
     0
  3

  4

  5

  6

  7

 40
1.0
 41
0.18
 42
0.0625
 43
0.38
 44
0.18
 45
0.0
 46
0.0
 47
0.0
 48
0.0
 71
     0
 72
     0
 73
     1
 74
     1
 75
     0
 76
     0
 77
     0
 78
     0
140
0.18
141
0.09
142
0.0
143
25.4
144
1.0
145
0.0
146
1.0
147
0.09
170
     0
171
     2
172
     1
173
     0
174
     0
175
     0
176
     0
177
     0
178
     0
270
     2
271
     4
272
     4
273
     2
274
     2
275
     0
280
     0
281
     0
282
     0
283
     1
284
     0
285
     0
286
     0
287
     0
288
     0
340
17
  0
ENDTAB
  0
TABLE
  2
BLOCK_RECORD
  5
1
100
AcDbSymbolTable
 70
    38
  0
BLOCK_RECORD
  5
A
100
AcDbSymbolTableRecord
100
AcDbBlockTableRecord
  2
*MODEL_SPACE
  0
BLOCK_RECORD
  5
B
100
AcDbSymbolTableRecord
100
AcDbBlockTableRecord
  2
*PAPER_SPACE
  0
BLOCK_RECORD
  5
2A
100
AcDbSymbolTableRecord
100
AcDbBlockTableRecord
  2
_EX_NORM
  0
BLOCK_RECORD
  5
2B
100
AcDbSymbolTableRecord
100
AcDbBlockTableRecord
  2
_EX_BNORM
  0
BLOCK_RECORD
  5
2C
100
AcDbSymbolTableRecord
100
AcDbBlockTableRecord
  2
_EX_BCIR
  0
BLOCK_RECORD
  5
2D
100
AcDbSymbolTableRecord
100
AcDbBlockTableRecord
  2
_EX_RCIVIL
  0
BLOCK_RECORD
  5
2E
100
AcDbSymbolTableRecord
100
AcDbBlockTableRecord
  2
_EX_SLANT
  0
BLOCK_RECORD
  5
2F
100
AcDbSymbolTableRecord
100
AcDbBlockTableRecord
  2
_EX_NONE
  0
BLOCK_RECORD
  5
30
100
AcDbSymbolTableRecord
100
AcDbBlockTableRecord
  2
_EX_CIVIL
  0
BLOCK_RECORD
  5
31
100
AcDbSymbolTableRecord
100
AcDbBlockTableRecord
  2
_EX_WCIR
  0
BLOCK_RECORD
  5
32
100
AcDbSymbolTableRecord
100
AcDbBlockTableRecord
  2
_EX_WCIR2
  0
BLOCK_RECORD
  5
33
100
AcDbSymbolTableRecord
100
AcDbBlockTableRecord
  2
_EX_WNORM
  0
BLOCK_RECORD
  5
34
100
AcDbSymbolTableRecord
100
AcDbBlockTableRecord
  2
_EX_NNORM
  0
BLOCK_RECORD
  5
35
100
AcDbSymbolTableRecord
100
AcDbBlockTableRecord
  2
_EX_BBOX
  0
BLOCK_RECORD
  5
36
100
AcDbSymbolTableRecord
100
AcDbBlockTableRecord
  2
_EX_WBOX
  0
BLOCK_RECORD
  5
37
100
AcDbSymbolTableRecord
100
AcDbBlockTableRecord
  2
_EX_INTEGRAL
  0
BLOCK_RECORD
  5
5CD
100
AcDbSymbolTableRecord
100
AcDbBlockTableRecord
  2
*D14
  0
BLOCK_RECORD
  5
5D9
100
AcDbSymbolTableRecord
100
AcDbBlockTableRecord
  2
*D15
  0
BLOCK_RECORD
  5
5E5
100
AcDbSymbolTableRecord
100
AcDbBlockTableRecord
  2
*D16
  0
BLOCK_RECORD
  5
5F0
100
AcDbSymbolTableRecord
100
AcDbBlockTableRecord
  2
*D17
  0
BLOCK_RECORD
  5
5FC
100
AcDbSymbolTableRecord
100
AcDbBlockTableRecord
  2
*D18
  0
BLOCK_RECORD
  5
608
100
AcDbSymbolTableRecord
100
AcDbBlockTableRecord
  2
*D19
  0
BLOCK_RECORD
  5
613
100
AcDbSymbolTableRecord
100
AcDbBlockTableRecord
  2
*D20
  0
BLOCK_RECORD
  5
61E
100
AcDbSymbolTableRecord
100
AcDbBlockTableRecord
  2
*D21
  0
BLOCK_RECORD
  5
629
100
AcDbSymbolTableRecord
100
AcDbBlockTableRecord
  2
*D22
  0
BLOCK_RECORD
  5
634
100
AcDbSymbolTableRecord
100
AcDbBlockTableRecord
  2
*D23
  0
BLOCK_RECORD
  5
641
100
AcDbSymbolTableRecord
100
AcDbBlockTableRecord
  2
*D24
  0
BLOCK_RECORD
  5
64D
100
AcDbSymbolTableRecord
100
AcDbBlockTableRecord
  2
*D25
  0
BLOCK_RECORD
  5
659
100
AcDbSymbolTableRecord
100
AcDbBlockTableRecord
  2
*D26
  0
BLOCK_RECORD
  5
665
100
AcDbSymbolTableRecord
100
AcDbBlockTableRecord
  2
*D27
  0
BLOCK_RECORD
  5
671
100
AcDbSymbolTableRecord
100
AcDbBlockTableRecord
  2
*D28
  0
BLOCK_RECORD
  5
67D
100
AcDbSymbolTableRecord
100
AcDbBlockTableRecord
  2
*D29
  0
BLOCK_RECORD
  5
689
100
AcDbSymbolTableRecord
100
AcDbBlockTableRecord
  2
*D30
  0
BLOCK_RECORD
  5
694
100
AcDbSymbolTableRecord
100
AcDbBlockTableRecord
  2
*D31
  0
BLOCK_RECORD
  5
6A2
100
AcDbSymbolTableRecord
100
AcDbBlockTableRecord
  2
*D32
  0
BLOCK_RECORD
  5
6AE
100
AcDbSymbolTableRecord
100
AcDbBlockTableRecord
  2
*D33
  0
BLOCK_RECORD
  5
6BA
100
AcDbSymbolTableRecord
100
AcDbBlockTableRecord
  2
*D34
  0
BLOCK_RECORD
  5
6CA
100
AcDbSymbolTableRecord
100
AcDbBlockTableRecord
  2
*D35
  0
BLOCK_RECORD
  5
6D6
100
AcDbSymbolTableRecord
100
AcDbBlockTableRecord
  2
*D36
  0
BLOCK_RECORD
  5
6E4
100
AcDbSymbolTableRecord
100
AcDbBlockTableRecord
  2
*D37
  0
ENDTAB
  0
ENDSEC
  0
SECTION
  2
BLOCKS
  0
BLOCK
  5
D
100
AcDbEntity
  8
0
100
AcDbBlockBegin
  2
*MODEL_SPACE
 70
     0
 10
0.0
 20
0.0
 30
0.0
  3
*MODEL_SPACE
  1

  0
ENDBLK
  5
E
100
AcDbEntity
  8
0
100
AcDbBlockEnd
  0
BLOCK
  5
F
100
AcDbEntity
 67
     1
  8
0
100
AcDbBlockBegin
  2
*PAPER_SPACE
 70
     0
 10
0.0
 20
0.0
 30
0.0
  3
*PAPER_SPACE
  1

  0
ENDBLK
  5
10
100
AcDbEntity
 67
     1
  8
0
100
AcDbBlockEnd
  0
BLOCK
  5
38
100
AcDbEntity
  8
0
100
AcDbBlockBegin
  2
_EX_NORM
 70
     0
 10
0.0
 20
0.0
 30
0.0
  3
_EX_NORM
  1

  0
LINE
  5
39
100
AcDbEntity
  8
0
  6
CONTINUOUS
 62
     0
100
AcDbLine
 10
0.0
 20
0.0
 30
0.0
 11
-1.0
 21
0.0
 31
0.0
  0
LINE
  5
3A
100
AcDbEntity
  8
0
  6
CONTINUOUS
 62
     0
100
AcDbLine
 10
0.0
 20
0.0
 30
0.0
 11
-1.0
 21
0.166667
 31
0.0
  0
LINE
  5
3B
100
AcDbEntity
  8
0
  6
CONTINUOUS
 62
     0
100
AcDbLine
 10
0.0
 20
0.0
 30
0.0
 11
-1.0
 21
-0.166667
 31
0.0
  0
ENDBLK
  5
3C
100
AcDbEntity
  8
0
100
AcDbBlockEnd
  0
BLOCK
  5
3D
100
AcDbEntity
  8
0
100
AcDbBlockBegin
  2
_EX_BNORM
 70
     0
 10
0.0
 20
0.0
 30
0.0
  3
_EX_BNORM
  1

  0
LINE
  5
3E
100
AcDbEntity
  8
0
  6
CONTINUOUS
 62
     0
100
AcDbLine
 10
0.0
 20
0.0
 30
0.0
 11
-1.0
 21
0.0
 31
0.0
  0
LINE
  5
3F
100
AcDbEntity
  8
0
  6
CONTINUOUS
 62
     0
100
AcDbLine
 10
0.0
 20
0.0
 30
0.0
 11
-1.0
 21
0.166667
 31
0.0
  0
LINE
  5
40
100
AcDbEntity
  8
0
  6
CONTINUOUS
 62
     0
100
AcDbLine
 10
0.0
 20
0.0
 30
0.0
 11
-1.0
 21
-0.166667
 31
0.0
  0
LINE
  5
41
100
AcDbEntity
  8
0
  6
CONTINUOUS
 62
     0
100
AcDbLine
 10
0.0
 20
0.0
 30
0.0
 11
-1.0
 21
0.083333
 31
0.0
  0
LINE
  5
42
100
AcDbEntity
  8
0
  6
CONTINUOUS
 62
     0
100
AcDbLine
 10
0.0
 20
0.0
 30
0.0
 11
-1.0
 21
-0.083333
 31
0.0
  0
LINE
  5
43
100
AcDbEntity
  8
0
  6
CONTINUOUS
 62
     0
100
AcDbLine
 10
-1.0
 20
0.166667
 30
0.0
 11
-1.0
 21
-0.166667
 31
0.0
  0
ENDBLK
  5
44
100
AcDbEntity
  8
0
100
AcDbBlockEnd
  0
BLOCK
  5
45
100
AcDbEntity
  8
0
100
AcDbBlockBegin
  2
_EX_BCIR
 70
     0
 10
0.0
 20
0.0
 30
0.0
  3
_EX_BCIR
  1

  0
LINE
  5
46
100
AcDbEntity
  8
0
  6
CONTINUOUS
 62
     0
100
AcDbLine
 10
0.0
 20
0.0
 30
0.0
 11
-1.0
 21
0.0
 31
0.0
  0
CIRCLE
  5
47
100
AcDbEntity
  8
0
  6
CONTINUOUS
 62
     0
100
AcDbCircle
 10
0.0
 20
0.0
 30
0.0
 40
0.5
  0
CIRCLE
  5
48
100
AcDbEntity
  8
0
  6
CONTINUOUS
 62
     0
100
AcDbCircle
 10
0.0
 20
0.0
 30
0.0
 40
0.25
  0
ENDBLK
  5
49
100
AcDbEntity
  8
0
100
AcDbBlockEnd
  0
BLOCK
  5
4A
100
AcDbEntity
  8
0
100
AcDbBlockBegin
  2
_EX_RCIVIL
 70
     0
 10
0.0
 20
0.0
 30
0.0
  3
_EX_RCIVIL
  1

  0
LINE
  5
4B
100
AcDbEntity
  8
0
  6
CONTINUOUS
 62
     0
100
AcDbLine
 10
0.0
 20
0.0
 30
0.0
 11
-1.0
 21
0.0
 31
0.0
  0
LINE
  5
4C
100
AcDbEntity
  8
0
  6
CONTINUOUS
 62
     0
100
AcDbLine
 10
-1.0
 20
-0.25
 30
0.0
 11
0.0
 21
-0.25
 31
0.0
  0
LINE
  5
4D
100
AcDbEntity
  8
0
  6
CONTINUOUS
 62
     0
100
AcDbLine
 10
-1.0
 20
-0.125
 30
0.0
 11
0.0
 21
-0.125
 31
0.0
  0
ENDBLK
  5
4E
100
AcDbEntity
  8
0
100
AcDbBlockEnd
  0
BLOCK
  5
4F
100
AcDbEntity
  8
0
100
AcDbBlockBegin
  2
_EX_SLANT
 70
     0
 10
0.0
 20
0.0
 30
0.0
  3
_EX_SLANT
  1

  0
LINE
  5
50
100
AcDbEntity
  8
0
  6
CONTINUOUS
 62
     0
100
AcDbLine
 10
0.0
 20
0.0
 30
0.0
 11
-1.0
 21
0.0
 31
0.0
  0
LINE
  5
51
100
AcDbEntity
  8
0
  6
CONTINUOUS
 62
     0
100
AcDbLine
 10
0.707107
 20
0.707107
 30
0.0
 11
-0.707107
 21
-0.707107
 31
0.0
  0
ENDBLK
  5
52
100
AcDbEntity
  8
0
100
AcDbBlockEnd
  0
BLOCK
  5
53
100
AcDbEntity
  8
0
100
AcDbBlockBegin
  2
_EX_NONE
 70
     0
 10
0.0
 20
0.0
 30
0.0
  3
_EX_NONE
  1

  0
LINE
  5
54
100
AcDbEntity
  8
0
  6
CONTINUOUS
 62
     0
100
AcDbLine
 10
0.0
 20
0.0
 30
0.0
 11
-1.0
 21
0.0
 31
0.0
  0
ENDBLK
  5
55
100
AcDbEntity
  8
0
100
AcDbBlockEnd
  0
BLOCK
  5
56
100
AcDbEntity
  8
0
100
AcDbBlockBegin
  2
_EX_CIVIL
 70
     0
 10
0.0
 20
0.0
 30
0.0
  3
_EX_CIVIL
  1

  0
LINE
  5
57
100
AcDbEntity
  8
0
  6
CONTINUOUS
 62
     0
100
AcDbLine
 10
0.0
 20
0.0
 30
0.0
 11
-1.0
 21
0.0
 31
0.0
  0
LINE
  5
58
100
AcDbEntity
  8
0
  6
CONTINUOUS
 62
     0
100
AcDbLine
 10
-1.0
 20
0.25
 30
0.0
 11
0.0
 21
0.25
 31
0.0
  0
LINE
  5
59
100
AcDbEntity
  8
0
  6
CONTINUOUS
 62
     0
100
AcDbLine
 10
-1.0
 20
0.125
 30
0.0
 11
0.0
 21
0.125
 31
0.0
  0
ENDBLK
  5
5A
100
AcDbEntity
  8
0
100
AcDbBlockEnd
  0
BLOCK
  5
5B
100
AcDbEntity
  8
0
100
AcDbBlockBegin
  2
_EX_WCIR
 70
     0
 10
0.0
 20
0.0
 30
0.0
  3
_EX_WCIR
  1

  0
LINE
  5
5C
100
AcDbEntity
  8
0
  6
CONTINUOUS
 62
     0
100
AcDbLine
 10
0.0
 20
0.0
 30
0.0
 11
-1.0
 21
0.0
 31
0.0
  0
CIRCLE
  5
5D
100
AcDbEntity
  8
0
  6
CONTINUOUS
 62
     0
100
AcDbCircle
 10
0.0
 20
0.0
 30
0.0
 40
0.5
  0
ENDBLK
  5
5E
100
AcDbEntity
  8
0
100
AcDbBlockEnd
  0
BLOCK
  5
5F
100
AcDbEntity
  8
0
100
AcDbBlockBegin
  2
_EX_WCIR2
 70
     0
 10
0.0
 20
0.0
 30
0.0
  3
_EX_WCIR2
  1

  0
LINE
  5
60
100
AcDbEntity
  8
0
  6
CONTINUOUS
 62
     0
100
AcDbLine
 10
-0.5
 20
0.0
 30
0.0
 11
-1.0
 21
0.0
 31
0.0
  0
CIRCLE
  5
61
100
AcDbEntity
  8
0
  6
CONTINUOUS
 62
     0
100
AcDbCircle
 10
0.0
 20
0.0
 30
0.0
 40
0.5
  0
ENDBLK
  5
62
100
AcDbEntity
  8
0
100
AcDbBlockEnd
  0
BLOCK
  5
63
100
AcDbEntity
  8
0
100
AcDbBlockBegin
  2
_EX_WNORM
 70
     0
 10
0.0
 20
0.0
 30
0.0
  3
_EX_WNORM
  1

  0
LINE
  5
64
100
AcDbEntity
  8
0
  6
CONTINUOUS
 62
     0
100
AcDbLine
 10
-1.0
 20
0.0
 30
0.0
 11
-1.0
 21
0.0
 31
0.0
  0
LINE
  5
65
100
AcDbEntity
  8
0
  6
CONTINUOUS
 62
     0
100
AcDbLine
 10
0.0
 20
0.0
 30
0.0
 11
-1.0
 21
0.166667
 31
0.0
  0
LINE
  5
66
100
AcDbEntity
  8
0
  6
CONTINUOUS
 62
     0
100
AcDbLine
 10
0.0
 20
0.0
 30
0.0
 11
-1.0
 21
-0.166667
 31
0.0
  0
LINE
  5
67
100
AcDbEntity
  8
0
  6
CONTINUOUS
 62
     0
100
AcDbLine
 10
-1.0
 20
0.166667
 30
0.0
 11
-1.0
 21
-0.166667
 31
0.0
  0
ENDBLK
  5
68
100
AcDbEntity
  8
0
100
AcDbBlockEnd
  0
BLOCK
  5
69
100
AcDbEntity
  8
0
100
AcDbBlockBegin
  2
_EX_NNORM
 70
     0
 10
0.0
 20
0.0
 30
0.0
  3
_EX_NNORM
  1

  0
LINE
  5
6A
100
AcDbEntity
  8
0
  6
CONTINUOUS
 62
     0
100
AcDbLine
 10
0.0
 20
0.0
 30
0.0
 11
-1.0
 21
0.0
 31
0.0
  0
LINE
  5
6B
100
AcDbEntity
  8
0
  6
CONTINUOUS
 62
     0
100
AcDbLine
 10
0.0
 20
0.0
 30
0.0
 11
-1.0
 21
0.166667
 31
0.0
  0
LINE
  5
6C
100
AcDbEntity
  8
0
  6
CONTINUOUS
 62
     0
100
AcDbLine
 10
0.0
 20
0.0
 30
0.0
 11
-1.0
 21
-0.166667
 31
0.0
  0
LINE
  5
6D
100
AcDbEntity
  8
0
  6
CONTINUOUS
 62
     0
100
AcDbLine
 10
-1.0
 20
0.166667
 30
0.0
 11
-1.0
 21
-0.166667
 31
0.0
  0
ENDBLK
  5
6E
100
AcDbEntity
  8
0
100
AcDbBlockEnd
  0
BLOCK
  5
6F
100
AcDbEntity
  8
0
100
AcDbBlockBegin
  2
_EX_BBOX
 70
     0
 10
0.0
 20
0.0
 30
0.0
  3
_EX_BBOX
  1

  0
LINE
  5
70
100
AcDbEntity
  8
0
  6
CONTINUOUS
 62
     0
100
AcDbLine
 10
0.0
 20
0.0
 30
0.0
 11
-1.0
 21
0.0
 31
0.0
  0
LINE
  5
71
100
AcDbEntity
  8
0
  6
CONTINUOUS
 62
     0
100
AcDbLine
 10
-0.5
 20
0.5
 30
0.0
 11
0.5
 21
0.5
 31
0.0
  0
LINE
  5
72
100
AcDbEntity
  8
0
  6
CONTINUOUS
 62
     0
100
AcDbLine
 10
0.5
 20
0.5
 30
0.0
 11
0.5
 21
-0.5
 31
0.0
  0
LINE
  5
73
100
AcDbEntity
  8
0
  6
CONTINUOUS
 62
     0
100
AcDbLine
 10
0.5
 20
-0.5
 30
0.0
 11
-0.5
 21
-0.5
 31
0.0
  0
LINE
  5
74
100
AcDbEntity
  8
0
  6
CONTINUOUS
 62
     0
100
AcDbLine
 10
-0.5
 20
-0.5
 30
0.0
 11
-0.5
 21
0.5
 31
0.0
  0
LINE
  5
75
100
AcDbEntity
  8
0
  6
CONTINUOUS
 62
     0
100
AcDbLine
 10
-0.25
 20
0.25
 30
0.0
 11
0.25
 21
0.25
 31
0.0
  0
LINE
  5
76
100
AcDbEntity
  8
0
  6
CONTINUOUS
 62
     0
100
AcDbLine
 10
0.25
 20
0.25
 30
0.0
 11
0.25
 21
-0.25
 31
0.0
  0
LINE
  5
77
100
AcDbEntity
  8
0
  6
CONTINUOUS
 62
     0
100
AcDbLine
 10
0.25
 20
-0.25
 30
0.0
 11
-0.25
 21
-0.25
 31
0.0
  0
LINE
  5
78
100
AcDbEntity
  8
0
  6
CONTINUOUS
 62
     0
100
AcDbLine
 10
-0.25
 20
-0.25
 30
0.0
 11
-0.25
 21
0.25
 31
0.0
  0
ENDBLK
  5
79
100
AcDbEntity
  8
0
100
AcDbBlockEnd
  0
BLOCK
  5
7A
100
AcDbEntity
  8
0
100
AcDbBlockBegin
  2
_EX_WBOX
 70
     0
 10
0.0
 20
0.0
 30
0.0
  3
_EX_WBOX
  1

  0
LINE
  5
7B
100
AcDbEntity
  8
0
  6
CONTINUOUS
 62
     0
100
AcDbLine
 10
-0.5
 20
0.0
 30
0.0
 11
-1.0
 21
0.0
 31
0.0
  0
LINE
  5
7C
100
AcDbEntity
  8
0
  6
CONTINUOUS
 62
     0
100
AcDbLine
 10
-0.5
 20
0.5
 30
0.0
 11
0.5
 21
0.5
 31
0.0
  0
LINE
  5
7D
100
AcDbEntity
  8
0
  6
CONTINUOUS
 62
     0
100
AcDbLine
 10
0.5
 20
0.5
 30
0.0
 11
0.5
 21
-0.5
 31
0.0
  0
LINE
  5
7E
100
AcDbEntity
  8
0
  6
CONTINUOUS
 62
     0
100
AcDbLine
 10
0.5
 20
-0.5
 30
0.0
 11
-0.5
 21
-0.5
 31
0.0
  0
LINE
  5
7F
100
AcDbEntity
  8
0
  6
CONTINUOUS
 62
     0
100
AcDbLine
 10
-0.5
 20
-0.5
 30
0.0
 11
-0.5
 21
0.5
 31
0.0
  0
ENDBLK
  5
80
100
AcDbEntity
  8
0
100
AcDbBlockEnd
  0
BLOCK
  5
81
100
AcDbEntity
  8
0
100
AcDbBlockBegin
  2
_EX_INTEGRAL
 70
     0
 10
0.0
 20
0.0
 30
0.0
  3
_EX_INTEGRAL
  1

  0
LINE
  5
82
100
AcDbEntity
  8
0
  6
CONTINUOUS
 62
     0
100
AcDbLine
 10
0.0
 20
0.0
 30
0.0
 11
-1.0
 21
0.0
 31
0.0
  0
ARC
  5
83
100
AcDbEntity
  8
0
  6
CONTINUOUS
 62
     0
100
AcDbCircle
 10
0.542115
 20
0.164992
 30
0.0
 40
0.56667
100
AcDbArc
 50
73.07249
 51
196.927513
  0
ARC
  5
84
100
AcDbEntity
  8
0
  6
CONTINUOUS
 62
     0
100
AcDbCircle
 10
-0.542115
 20
-0.164992
 30
0.0
 40
0.56667
100
AcDbArc
 50
253.072487
 51
16.927513
  0
ENDBLK
  5
85
100
AcDbEntity
  8
0
100
AcDbBlockEnd
  0
BLOCK
  5
5CE
100
AcDbEntity
  8
0
100
AcDbBlockBegin
  2
*D14
 70
    65
 10
0.0
 20
0.0
 30
0.0
  3
*D14
  1

  0
LINE
  5
5CF
100
AcDbEntity
  8
寸法
  6
CONTINUOUS
 62
     3
100
AcDbLine
 10
635.0
 20
4151.999996
 30
0.0
 11
635.0
 21
4183.0
 31
0.0
  0
TEXT
  5
5D0
100
AcDbEntity
  8
寸法
  6
CONTINUOUS
 62
     2
100
AcDbText
 10
747.5
 20
4173.25
 30
0.0
 40
60.0
  1
540（壁固定）
 41
0.84
  7
EXCADSTD
 72
     1
 11
905.0
 21
4173.25
 31
0.0
100
AcDbText
  0
LINE
  5
5D1
100
AcDbEntity
  8
寸法
  6
CONTINUOUS
 62
     3
100
AcDbLine
 10
635.0
 20
4168.0
 30
0.0
 11
1175.0
 21
4168.0
 31
0.0
  0
LINE
  5
5D2
100
AcDbEntity
  8
寸法
  6
CONTINUOUS
 62
     3
100
AcDbLine
 10
680.0
 20
4175.5
 30
0.0
 11
635.0
 21
4168.0
 31
0.0
  0
LINE
  5
5D3
100
AcDbEntity
  8
寸法
  6
CONTINUOUS
 62
     3
100
AcDbLine
 10
635.0
 20
4168.0
 30
0.0
 11
680.0
 21
4160.5
 31
0.0
  0
LINE
  5
5D4
100
AcDbEntity
  8
寸法
  6
CONTINUOUS
 62
     3
100
AcDbLine
 10
1130.0
 20
4160.5
 30
0.0
 11
1175.0
 21
4168.0
 31
0.0
  0
LINE
  5
5D5
100
AcDbEntity
  8
寸法
  6
CONTINUOUS
 62
     3
100
AcDbLine
 10
1175.0
 20
4168.0
 30
0.0
 11
1130.0
 21
4175.5
 31
0.0
  0
ENDBLK
  5
5D6
100
AcDbEntity
  8
0
100
AcDbBlockEnd
  0
BLOCK
  5
5DA
100
AcDbEntity
  8
0
100
AcDbBlockBegin
  2
*D15
 70
    65
 10
0.0
 20
0.0
 30
0.0
  3
*D15
  1

  0
LINE
  5
5DB
100
AcDbEntity
  8
寸法
  6
CONTINUOUS
 62
     3
100
AcDbLine
 10
530.0
 20
3512.098405
 30
0.0
 11
530.0
 21
3373.0
 31
0.0
  0
LINE
  5
5DC
100
AcDbEntity
  8
寸法
  6
CONTINUOUS
 62
     3
100
AcDbLine
 10
1280.0
 20
3512.098405
 30
0.0
 11
1280.0
 21
3373.0
 31
0.0
  0
TEXT
  5
5DD
100
AcDbEntity
  8
寸法
  6
CONTINUOUS
 62
     2
100
AcDbText
 10
842.0
 20
3393.25
 30
0.0
 40
60.0
  1
750
 41
0.84
  7
EXCADSTD
 72
     1
 11
905.0
 21
3393.25
 31
0.0
100
AcDbText
  0
LINE
  5
5DE
100
AcDbEntity
  8
寸法
  6
CONTINUOUS
 62
     3
100
AcDbLine
 10
530.0
 20
3388.0
 30
0.0
 11
1280.0
 21
3388.0
 31
0.0
  0
LINE
  5
5DF
100
AcDbEntity
  8
寸法
  6
CONTINUOUS
 62
     3
100
AcDbLine
 10
575.0
 20
3395.5
 30
0.0
 11
530.0
 21
3388.0
 31
0.0
  0
LINE
  5
5E0
100
AcDbEntity
  8
寸法
  6
CONTINUOUS
 62
     3
100
AcDbLine
 10
530.0
 20
3388.0
 30
0.0
 11
575.0
 21
3380.5
 31
0.0
  0
LINE
  5
5E1
100
AcDbEntity
  8
寸法
  6
CONTINUOUS
 62
     3
100
AcDbLine
 10
1235.0
 20
3380.5
 30
0.0
 11
1280.0
 21
3388.0
 31
0.0
  0
LINE
  5
5E2
100
AcDbEntity
  8
寸法
  6
CONTINUOUS
 62
     3
100
AcDbLine
 10
1280.0
 20
3388.0
 30
0.0
 11
1235.0
 21
3395.5
 31
0.0
  0
ENDBLK
  5
5E3
100
AcDbEntity
  8
0
100
AcDbBlockEnd
  0
BLOCK
  5
5E6
100
AcDbEntity
  8
0
100
AcDbBlockBegin
  2
*D16
 70
    65
 10
0.0
 20
0.0
 30
0.0
  3
*D16
  1

  0
LINE
  5
5E7
100
AcDbEntity
  8
寸法
  6
CONTINUOUS
 62
     3
100
AcDbLine
 10
915.5
 20
3493.0
 30
0.0
 11
1400.0
 21
3493.0
 31
0.0
  0
TEXT
  5
5E8
100
AcDbEntity
  8
寸法
  6
CONTINUOUS
 62
     2
100
AcDbText
 10
1379.75
 20
3670.0
 30
0.0
 40
60.0
  1
480
 50
90.0
 41
0.84
  7
EXCADSTD
 72
     1
 11
1379.75
 21
3733.0
 31
0.0
100
AcDbText
  0
LINE
  5
5E9
100
AcDbEntity
  8
寸法
  6
CONTINUOUS
 62
     3
100
AcDbLine
 10
1385.0
 20
3493.0
 30
0.0
 11
1385.0
 21
3973.0
 31
0.0
  0
LINE
  5
5EA
100
AcDbEntity
  8
寸法
  6
CONTINUOUS
 62
     3
100
AcDbLine
 10
1377.5
 20
3538.0
 30
0.0
 11
1385.0
 21
3493.0
 31
0.0
  0
LINE
  5
5EB
100
AcDbEntity
  8
寸法
  6
CONTINUOUS
 62
     3
100
AcDbLine
 10
1385.0
 20
3493.0
 30
0.0
 11
1392.5
 21
3538.0
 31
0.0
  0
LINE
  5
5EC
100
AcDbEntity
  8
寸法
  6
CONTINUOUS
 62
     3
100
AcDbLine
 10
1392.5
 20
3928.0
 30
0.0
 11
1385.0
 21
3973.0
 31
0.0
  0
LINE
  5
5ED
100
AcDbEntity
  8
寸法
  6
CONTINUOUS
 62
     3
100
AcDbLine
 10
1385.0
 20
3973.0
 30
0.0
 11
1377.5
 21
3928.0
 31
0.0
  0
ENDBLK
  5
5EE
100
AcDbEntity
  8
0
100
AcDbBlockEnd
  0
BLOCK
  5
5F1
100
AcDbEntity
  8
0
100
AcDbBlockBegin
  2
*D17
 70
    65
 10
0.0
 20
0.0
 30
0.0
  3
*D17
  1

  0
LINE
  5
5F2
100
AcDbEntity
  8
寸法
  6
CONTINUOUS
 62
     3
100
AcDbLine
 10
610.0
 20
2682.5
 30
0.0
 11
610.0
 21
2848.5
 31
0.0
  0
LINE
  5
5F3
100
AcDbEntity
  8
寸法
  6
CONTINUOUS
 62
     3
100
AcDbLine
 10
1200.0
 20
2682.5
 30
0.0
 11
1200.0
 21
2848.5
 31
0.0
  0
TEXT
  5
5F4
100
AcDbEntity
  8
寸法
  6
CONTINUOUS
 62
     2
100
AcDbText
 10
747.5
 20
2838.75
 30
0.0
 40
60.0
  1
590（壁固定）
 41
0.84
  7
EXCADSTD
 72
     1
 11
905.0
 21
2838.75
 31
0.0
100
AcDbText
  0
LINE
  5
5F5
100
AcDbEntity
  8
寸法
  6
CONTINUOUS
 62
     3
100
AcDbLine
 10
610.0
 20
2833.5
 30
0.0
 11
1200.0
 21
2833.5
 31
0.0
  0
LINE
  5
5F6
100
AcDbEntity
  8
寸法
  6
CONTINUOUS
 62
     3
100
AcDbLine
 10
655.0
 20
2841.0
 30
0.0
 11
610.0
 21
2833.5
 31
0.0
  0
LINE
  5
5F7
100
AcDbEntity
  8
寸法
  6
CONTINUOUS
 62
     3
100
AcDbLine
 10
610.0
 20
2833.5
 30
0.0
 11
655.0
 21
2826.0
 31
0.0
  0
LINE
  5
5F8
100
AcDbEntity
  8
寸法
  6
CONTINUOUS
 62
     3
100
AcDbLine
 10
1155.0
 20
2826.0
 30
0.0
 11
1200.0
 21
2833.5
 31
0.0
  0
LINE
  5
5F9
100
AcDbEntity
  8
寸法
  6
CONTINUOUS
 62
     3
100
AcDbLine
 10
1200.0
 20
2833.5
 30
0.0
 11
1155.0
 21
2841.0
 31
0.0
  0
ENDBLK
  5
5FA
100
AcDbEntity
  8
0
100
AcDbBlockEnd
  0
BLOCK
  5
5FD
100
AcDbEntity
  8
0
100
AcDbBlockBegin
  2
*D18
 70
    65
 10
0.0
 20
0.0
 30
0.0
  3
*D18
  1

  0
LINE
  5
5FE
100
AcDbEntity
  8
寸法
  6
CONTINUOUS
 62
     3
100
AcDbLine
 10
530.0
 20
2749.0
 30
0.0
 11
530.0
 21
2938.5
 31
0.0
  0
LINE
  5
5FF
100
AcDbEntity
  8
寸法
  6
CONTINUOUS
 62
     3
100
AcDbLine
 10
1280.0
 20
2749.0
 30
0.0
 11
1280.0
 21
2938.5
 31
0.0
  0
TEXT
  5
600
100
AcDbEntity
  8
寸法
  6
CONTINUOUS
 62
     2
100
AcDbText
 10
842.0
 20
2928.75
 30
0.0
 40
60.0
  1
750
 41
0.84
  7
EXCADSTD
 72
     1
 11
905.0
 21
2928.75
 31
0.0
100
AcDbText
  0
LINE
  5
601
100
AcDbEntity
  8
寸法
  6
CONTINUOUS
 62
     3
100
AcDbLine
 10
530.0
 20
2923.5
 30
0.0
 11
1280.0
 21
2923.5
 31
0.0
  0
LINE
  5
602
100
AcDbEntity
  8
寸法
  6
CONTINUOUS
 62
     3
100
AcDbLine
 10
575.0
 20
2931.0
 30
0.0
 11
530.0
 21
2923.5
 31
0.0
  0
LINE
  5
603
100
AcDbEntity
  8
寸法
  6
CONTINUOUS
 62
     3
100
AcDbLine
 10
530.0
 20
2923.5
 30
0.0
 11
575.0
 21
2916.0
 31
0.0
  0
LINE
  5
604
100
AcDbEntity
  8
寸法
  6
CONTINUOUS
 62
     3
100
AcDbLine
 10
1235.0
 20
2916.0
 30
0.0
 11
1280.0
 21
2923.5
 31
0.0
  0
LINE
  5
605
100
AcDbEntity
  8
寸法
  6
CONTINUOUS
 62
     3
100
AcDbLine
 10
1280.0
 20
2923.5
 30
0.0
 11
1235.0
 21
2931.0
 31
0.0
  0
ENDBLK
  5
606
100
AcDbEntity
  8
0
100
AcDbBlockEnd
  0
BLOCK
  5
609
100
AcDbEntity
  8
0
100
AcDbBlockBegin
  2
*D19
 70
    65
 10
0.0
 20
0.0
 30
0.0
  3
*D19
  1

  0
LINE
  5
60A
100
AcDbEntity
  8
寸法
  6
CONTINUOUS
 62
     3
100
AcDbLine
 10
915.5
 20
1728.5
 30
0.0
 11
1447.5
 21
1728.5
 31
0.0
  0
TEXT
  5
60B
100
AcDbEntity
  8
寸法
  6
CONTINUOUS
 62
     2
100
AcDbText
 10
1427.25
 20
1275.5
 30
0.0
 40
60.0
  1
780
 50
90.0
 41
0.84
  7
EXCADSTD
 72
     1
 11
1427.25
 21
1338.5
 31
0.0
100
AcDbText
  0
LINE
  5
60C
100
AcDbEntity
  8
寸法
  6
CONTINUOUS
 62
     3
100
AcDbLine
 10
1432.5
 20
948.5
 30
0.0
 11
1432.5
 21
1728.5
 31
0.0
  0
LINE
  5
60D
100
AcDbEntity
  8
寸法
  6
CONTINUOUS
 62
     3
100
AcDbLine
 10
1425.0
 20
993.5
 30
0.0
 11
1432.5
 21
948.5
 31
0.0
  0
LINE
  5
60E
100
AcDbEntity
  8
寸法
  6
CONTINUOUS
 62
     3
100
AcDbLine
 10
1432.5
 20
948.5
 30
0.0
 11
1440.0
 21
993.5
 31
0.0
  0
LINE
  5
60F
100
AcDbEntity
  8
寸法
  6
CONTINUOUS
 62
     3
100
AcDbLine
 10
1440.0
 20
1683.5
 30
0.0
 11
1432.5
 21
1728.5
 31
0.0
  0
LINE
  5
610
100
AcDbEntity
  8
寸法
  6
CONTINUOUS
 62
     3
100
AcDbLine
 10
1432.5
 20
1728.5
 30
0.0
 11
1425.0
 21
1683.5
 31
0.0
  0
ENDBLK
  5
611
100
AcDbEntity
  8
0
100
AcDbBlockEnd
  0
BLOCK
  5
614
100
AcDbEntity
  8
0
100
AcDbBlockBegin
  2
*D20
 70
    65
 10
0.0
 20
0.0
 30
0.0
  3
*D20
  1

  0
LINE
  5
615
100
AcDbEntity
  8
寸法
  6
CONTINUOUS
 62
     3
100
AcDbLine
 10
1285.5
 20
1743.5
 30
0.0
 11
1537.5
 21
1743.5
 31
0.0
  0
TEXT
  5
616
100
AcDbEntity
  8
寸法
  6
CONTINUOUS
 62
     2
100
AcDbText
 10
1517.25
 20
1283.0
 30
0.0
 40
60.0
  1
795
 50
90.0
 41
0.84
  7
EXCADSTD
 72
     1
 11
1517.25
 21
1346.0
 31
0.0
100
AcDbText
  0
LINE
  5
617
100
AcDbEntity
  8
寸法
  6
CONTINUOUS
 62
     3
100
AcDbLine
 10
1522.5
 20
948.5
 30
0.0
 11
1522.5
 21
1743.5
 31
0.0
  0
LINE
  5
618
100
AcDbEntity
  8
寸法
  6
CONTINUOUS
 62
     3
100
AcDbLine
 10
1515.0
 20
993.5
 30
0.0
 11
1522.5
 21
948.5
 31
0.0
  0
LINE
  5
619
100
AcDbEntity
  8
寸法
  6
CONTINUOUS
 62
     3
100
AcDbLine
 10
1522.5
 20
948.5
 30
0.0
 11
1530.0
 21
993.5
 31
0.0
  0
LINE
  5
61A
100
AcDbEntity
  8
寸法
  6
CONTINUOUS
 62
     3
100
AcDbLine
 10
1530.0
 20
1698.5
 30
0.0
 11
1522.5
 21
1743.5
 31
0.0
  0
LINE
  5
61B
100
AcDbEntity
  8
寸法
  6
CONTINUOUS
 62
     3
100
AcDbLine
 10
1522.5
 20
1743.5
 30
0.0
 11
1515.0
 21
1698.5
 31
0.0
  0
ENDBLK
  5
61C
100
AcDbEntity
  8
0
100
AcDbBlockEnd
  0
BLOCK
  5
61F
100
AcDbEntity
  8
0
100
AcDbBlockBegin
  2
*D21
 70
    65
 10
0.0
 20
0.0
 30
0.0
  3
*D21
  1

  0
LINE
  5
620
100
AcDbEntity
  8
寸法
  6
CONTINUOUS
 62
     3
100
AcDbLine
 10
1285.499805
 20
2743.499996
 30
0.0
 11
1537.5
 21
2743.499996
 31
0.0
  0
TEXT
  5
621
100
AcDbEntity
  8
寸法
  6
CONTINUOUS
 62
     2
100
AcDbText
 10
1517.25
 20
2161.599998
 30
0.0
 40
60.0
  1
1000
 50
90.0
 41
0.84
  7
EXCADSTD
 72
     1
 11
1517.25
 21
2243.499998
 31
0.0
100
AcDbText
  0
LINE
  5
622
100
AcDbEntity
  8
寸法
  6
CONTINUOUS
 62
     3
100
AcDbLine
 10
1522.5
 20
1743.5
 30
0.0
 11
1522.5
 21
2743.499996
 31
0.0
  0
LINE
  5
623
100
AcDbEntity
  8
寸法
  6
CONTINUOUS
 62
     3
100
AcDbLine
 10
1515.0
 20
1788.5
 30
0.0
 11
1522.5
 21
1743.5
 31
0.0
  0
LINE
  5
624
100
AcDbEntity
  8
寸法
  6
CONTINUOUS
 62
     3
100
AcDbLine
 10
1522.5
 20
1743.5
 30
0.0
 11
1530.0
 21
1788.5
 31
0.0
  0
LINE
  5
625
100
AcDbEntity
  8
寸法
  6
CONTINUOUS
 62
     3
100
AcDbLine
 10
1530.0
 20
2698.499996
 30
0.0
 11
1522.5
 21
2743.499996
 31
0.0
  0
LINE
  5
626
100
AcDbEntity
  8
寸法
  6
CONTINUOUS
 62
     3
100
AcDbLine
 10
1522.5
 20
2743.499996
 30
0.0
 11
1515.0
 21
2698.499996
 31
0.0
  0
ENDBLK
  5
627
100
AcDbEntity
  8
0
100
AcDbBlockEnd
  0
BLOCK
  5
62A
100
AcDbEntity
  8
0
100
AcDbBlockBegin
  2
*D22
 70
    65
 10
0.0
 20
0.0
 30
0.0
  3
*D22
  1

  0
LINE
  5
62B
100
AcDbEntity
  8
寸法
  6
CONTINUOUS
 62
     3
100
AcDbLine
 10
1285.499805
 20
2743.499996
 30
0.0
 11
1627.5
 21
2743.499996
 31
0.0
  0
TEXT
  5
62C
100
AcDbEntity
  8
寸法
  6
CONTINUOUS
 62
     2
100
AcDbText
 10
1607.25
 20
1764.099998
 30
0.0
 40
60.0
  1
1795
 50
90.0
 41
0.84
  7
EXCADSTD
 72
     1
 11
1607.25
 21
1845.999998
 31
0.0
100
AcDbText
  0
LINE
  5
62D
100
AcDbEntity
  8
寸法
  6
CONTINUOUS
 62
     3
100
AcDbLine
 10
1612.5
 20
948.5
 30
0.0
 11
1612.5
 21
2743.499996
 31
0.0
  0
LINE
  5
62E
100
AcDbEntity
  8
寸法
  6
CONTINUOUS
 62
     3
100
AcDbLine
 10
1605.0
 20
993.5
 30
0.0
 11
1612.5
 21
948.5
 31
0.0
  0
LINE
  5
62F
100
AcDbEntity
  8
寸法
  6
CONTINUOUS
 62
     3
100
AcDbLine
 10
1612.5
 20
948.5
 30
0.0
 11
1620.0
 21
993.5
 31
0.0
  0
LINE
  5
630
100
AcDbEntity
  8
寸法
  6
CONTINUOUS
 62
     3
100
AcDbLine
 10
1620.0
 20
2698.499996
 30
0.0
 11
1612.5
 21
2743.499996
 31
0.0
  0
LINE
  5
631
100
AcDbEntity
  8
寸法
  6
CONTINUOUS
 62
     3
100
AcDbLine
 10
1612.5
 20
2743.499996
 30
0.0
 11
1605.0
 21
2698.499996
 31
0.0
  0
ENDBLK
  5
632
100
AcDbEntity
  8
0
100
AcDbBlockEnd
  0
BLOCK
  5
635
100
AcDbEntity
  8
0
100
AcDbBlockBegin
  2
*D23
 70
    65
 10
0.0
 20
0.0
 30
0.0
  3
*D23
  1

  0
LINE
  5
636
100
AcDbEntity
  8
寸法
  6
CONTINUOUS
 62
     3
100
AcDbLine
 10
1303.576697
 20
1873.5
 30
0.0
 11
1447.5
 21
1873.5
 31
0.0
  0
TEXT
  5
637
100
AcDbEntity
  8
寸法
  6
CONTINUOUS
 62
     2
100
AcDbText
 10
1427.25
 20
1745.5
 30
0.0
 40
60.0
  1
130
 50
90.0
 41
0.84
  7
EXCADSTD
 72
     1
 11
1427.25
 21
1808.5
 31
0.0
100
AcDbText
  0
LINE
  5
638
100
AcDbEntity
  8
寸法
  6
CONTINUOUS
 62
     3
100
AcDbLine
 10
1432.5
 20
1743.5
 30
0.0
 11
1432.5
 21
1873.5
 31
0.0
  0
LINE
  5
639
100
AcDbEntity
  8
寸法
  6
CONTINUOUS
 62
     3
100
AcDbLine
 10
1425.0
 20
1788.5
 30
0.0
 11
1432.5
 21
1743.5
 31
0.0
  0
LINE
  5
63A
100
AcDbEntity
  8
寸法
  6
CONTINUOUS
 62
     3
100
AcDbLine
 10
1432.5
 20
1743.5
 30
0.0
 11
1440.0
 21
1788.5
 31
0.0
  0
LINE
  5
63B
100
AcDbEntity
  8
寸法
  6
CONTINUOUS
 62
     3
100
AcDbLine
 10
1440.0
 20
1828.5
 30
0.0
 11
1432.5
 21
1873.5
 31
0.0
  0
LINE
  5
63C
100
AcDbEntity
  8
寸法
  6
CONTINUOUS
 62
     3
100
AcDbLine
 10
1432.5
 20
1873.5
 30
0.0
 11
1425.0
 21
1828.5
 31
0.0
  0
ENDBLK
  5
63D
100
AcDbEntity
  8
0
100
AcDbBlockEnd
  0
BLOCK
  5
642
100
AcDbEntity
  8
0
100
AcDbBlockBegin
  2
*D24
 70
    65
 10
0.0
 20
0.0
 30
0.0
  3
*D24
  1

  0
LINE
  5
643
100
AcDbEntity
  8
寸法
  6
CONTINUOUS
 62
     3
100
AcDbLine
 10
2365.0
 20
930.0
 30
0.0
 11
2365.0
 21
813.5
 31
0.0
  0
LINE
  5
644
100
AcDbEntity
  8
寸法
  6
CONTINUOUS
 62
     3
100
AcDbLine
 10
2450.0
 20
938.0
 30
0.0
 11
2450.0
 21
813.5
 31
0.0
  0
TEXT
  5
645
100
AcDbEntity
  8
寸法
  6
CONTINUOUS
 62
     2
100
AcDbText
 10
2521.4
 20
833.75
 30
0.0
 40
60.0
  1
85（床給水）
 41
0.84
  7
EXCADSTD
 72
     1
 11
2660.0
 21
833.75
 31
0.0
100
AcDbText
  0
LINE
  5
646
100
AcDbEntity
  8
寸法
  6
CONTINUOUS
 62
     3
100
AcDbLine
 10
2320.0
 20
828.5
 30
0.0
 11
2830.250006
 21
828.5
 31
0.0
  0
LINE
  5
647
100
AcDbEntity
  8
寸法
  6
CONTINUOUS
 62
     3
100
AcDbLine
 10
2320.0
 20
821.0
 30
0.0
 11
2365.0
 21
828.5
 31
0.0
  0
LINE
  5
648
100
AcDbEntity
  8
寸法
  6
CONTINUOUS
 62
     3
100
AcDbLine
 10
2365.0
 20
828.5
 30
0.0
 11
2320.0
 21
836.0
 31
0.0
  0
LINE
  5
649
100
AcDbEntity
  8
寸法
  6
CONTINUOUS
 62
     3
100
AcDbLine
 10
2495.0
 20
836.0
 30
0.0
 11
2450.0
 21
828.5
 31
0.0
  0
LINE
  5
64A
100
AcDbEntity
  8
寸法
  6
CONTINUOUS
 62
     3
100
AcDbLine
 10
2450.0
 20
828.5
 30
0.0
 11
2495.0
 21
821.0
 31
0.0
  0
ENDBLK
  5
64B
100
AcDbEntity
  8
0
100
AcDbBlockEnd
  0
BLOCK
  5
64E
100
AcDbEntity
  8
0
100
AcDbBlockBegin
  2
*D25
 70
    65
 10
0.0
 20
0.0
 30
0.0
  3
*D25
  1

  0
LINE
  5
64F
100
AcDbEntity
  8
寸法
  6
CONTINUOUS
 62
     3
100
AcDbLine
 10
2460.5
 20
948.5
 30
0.0
 11
2570.0
 21
948.5
 31
0.0
  0
LINE
  5
650
100
AcDbEntity
  8
寸法
  6
CONTINUOUS
 62
     3
100
AcDbLine
 10
2468.5
 20
1298.5
 30
0.0
 11
2570.0
 21
1298.5
 31
0.0
  0
TEXT
  5
651
100
AcDbEntity
  8
寸法
  6
CONTINUOUS
 62
     2
100
AcDbText
 10
2549.75
 20
966.0
 30
0.0
 40
60.0
  1
350（壁給水）
 50
90.0
 41
0.84
  7
EXCADSTD
 72
     1
 11
2549.75
 21
1123.5
 31
0.0
100
AcDbText
  0
LINE
  5
652
100
AcDbEntity
  8
寸法
  6
CONTINUOUS
 62
     3
100
AcDbLine
 10
2555.0
 20
948.5
 30
0.0
 11
2555.0
 21
1298.5
 31
0.0
  0
LINE
  5
653
100
AcDbEntity
  8
寸法
  6
CONTINUOUS
 62
     3
100
AcDbLine
 10
2547.5
 20
993.5
 30
0.0
 11
2555.0
 21
948.5
 31
0.0
  0
LINE
  5
654
100
AcDbEntity
  8
寸法
  6
CONTINUOUS
 62
     3
100
AcDbLine
 10
2555.0
 20
948.5
 30
0.0
 11
2562.5
 21
993.5
 31
0.0
  0
LINE
  5
655
100
AcDbEntity
  8
寸法
  6
CONTINUOUS
 62
     3
100
AcDbLine
 10
2562.5
 20
1253.5
 30
0.0
 11
2555.0
 21
1298.5
 31
0.0
  0
LINE
  5
656
100
AcDbEntity
  8
寸法
  6
CONTINUOUS
 62
     3
100
AcDbLine
 10
2555.0
 20
1298.5
 30
0.0
 11
2547.5
 21
1253.5
 31
0.0
  0
ENDBLK
  5
657
100
AcDbEntity
  8
0
100
AcDbBlockEnd
  0
BLOCK
  5
65A
100
AcDbEntity
  8
0
100
AcDbBlockBegin
  2
*D26
 70
    65
 10
0.0
 20
0.0
 30
0.0
  3
*D26
  1

  0
LINE
  5
65B
100
AcDbEntity
  8
寸法
  6
CONTINUOUS
 62
     3
100
AcDbLine
 10
2460.5
 20
948.5
 30
0.0
 11
2660.0
 21
948.5
 31
0.0
  0
LINE
  5
65C
100
AcDbEntity
  8
寸法
  6
CONTINUOUS
 62
     3
100
AcDbLine
 10
2481.5
 20
1448.5
 30
0.0
 11
2660.0
 21
1448.5
 31
0.0
  0
TEXT
  5
65D
100
AcDbEntity
  8
寸法
  6
CONTINUOUS
 62
     2
100
AcDbText
 10
2639.75
 20
1041.0
 30
0.0
 40
60.0
  1
500（壁排水）
 50
90.0
 41
0.84
  7
EXCADSTD
 72
     1
 11
2639.75
 21
1198.5
 31
0.0
100
AcDbText
  0
LINE
  5
65E
100
AcDbEntity
  8
寸法
  6
CONTINUOUS
 62
     3
100
AcDbLine
 10
2645.0
 20
948.5
 30
0.0
 11
2645.0
 21
1448.5
 31
0.0
  0
LINE
  5
65F
100
AcDbEntity
  8
寸法
  6
CONTINUOUS
 62
     3
100
AcDbLine
 10
2637.5
 20
993.5
 30
0.0
 11
2645.0
 21
948.5
 31
0.0
  0
LINE
  5
660
100
AcDbEntity
  8
寸法
  6
CONTINUOUS
 62
     3
100
AcDbLine
 10
2645.0
 20
948.5
 30
0.0
 11
2652.5
 21
993.5
 31
0.0
  0
LINE
  5
661
100
AcDbEntity
  8
寸法
  6
CONTINUOUS
 62
     3
100
AcDbLine
 10
2652.5
 20
1403.5
 30
0.0
 11
2645.0
 21
1448.5
 31
0.0
  0
LINE
  5
662
100
AcDbEntity
  8
寸法
  6
CONTINUOUS
 62
     3
100
AcDbLine
 10
2645.0
 20
1448.5
 30
0.0
 11
2637.5
 21
1403.5
 31
0.0
  0
ENDBLK
  5
663
100
AcDbEntity
  8
0
100
AcDbBlockEnd
  0
BLOCK
  5
666
100
AcDbEntity
  8
0
100
AcDbBlockBegin
  2
*D27
 70
    65
 10
0.0
 20
0.0
 30
0.0
  3
*D27
  1

  0
LINE
  5
667
100
AcDbEntity
  8
寸法
  6
CONTINUOUS
 62
     3
100
AcDbLine
 10
2460.5
 20
948.5
 30
0.0
 11
2750.0
 21
948.5
 31
0.0
  0
LINE
  5
668
100
AcDbEntity
  8
寸法
  6
CONTINUOUS
 62
     3
100
AcDbLine
 10
2493.0
 20
1503.5
 30
0.0
 11
2750.0
 21
1503.5
 31
0.0
  0
TEXT
  5
669
100
AcDbEntity
  8
寸法
  6
CONTINUOUS
 62
     2
100
AcDbText
 10
2729.75
 20
1068.5
 30
0.0
 40
60.0
  1
555（壁固定）
 50
90.0
 41
0.84
  7
EXCADSTD
 72
     1
 11
2729.75
 21
1226.0
 31
0.0
100
AcDbText
  0
LINE
  5
66A
100
AcDbEntity
  8
寸法
  6
CONTINUOUS
 62
     3
100
AcDbLine
 10
2735.0
 20
948.5
 30
0.0
 11
2735.0
 21
1503.5
 31
0.0
  0
LINE
  5
66B
100
AcDbEntity
  8
寸法
  6
CONTINUOUS
 62
     3
100
AcDbLine
 10
2727.5
 20
993.5
 30
0.0
 11
2735.0
 21
948.5
 31
0.0
  0
LINE
  5
66C
100
AcDbEntity
  8
寸法
  6
CONTINUOUS
 62
     3
100
AcDbLine
 10
2735.0
 20
948.5
 30
0.0
 11
2742.5
 21
993.5
 31
0.0
  0
LINE
  5
66D
100
AcDbEntity
  8
寸法
  6
CONTINUOUS
 62
     3
100
AcDbLine
 10
2742.5
 20
1458.5
 30
0.0
 11
2735.0
 21
1503.5
 31
0.0
  0
LINE
  5
66E
100
AcDbEntity
  8
寸法
  6
CONTINUOUS
 62
     3
100
AcDbLine
 10
2735.0
 20
1503.5
 30
0.0
 11
2727.5
 21
1458.5
 31
0.0
  0
ENDBLK
  5
66F
100
AcDbEntity
  8
0
100
AcDbBlockEnd
  0
BLOCK
  5
672
100
AcDbEntity
  8
0
100
AcDbBlockBegin
  2
*D28
 70
    65
 10
0.0
 20
0.0
 30
0.0
  3
*D28
  1

  0
LINE
  5
673
100
AcDbEntity
  8
寸法
  6
CONTINUOUS
 62
     3
100
AcDbLine
 10
2460.5
 20
948.5
 30
0.0
 11
2840.0
 21
948.5
 31
0.0
  0
LINE
  5
674
100
AcDbEntity
  8
寸法
  6
CONTINUOUS
 62
     3
100
AcDbLine
 10
2493.0
 20
1808.5
 30
0.0
 11
2840.0
 21
1808.5
 31
0.0
  0
TEXT
  5
675
100
AcDbEntity
  8
寸法
  6
CONTINUOUS
 62
     2
100
AcDbText
 10
2819.75
 20
1315.5
 30
0.0
 40
60.0
  1
860
 50
90.0
 41
0.84
  7
EXCADSTD
 72
     1
 11
2819.75
 21
1378.5
 31
0.0
100
AcDbText
  0
LINE
  5
676
100
AcDbEntity
  8
寸法
  6
CONTINUOUS
 62
     3
100
AcDbLine
 10
2825.0
 20
948.5
 30
0.0
 11
2825.0
 21
1808.5
 31
0.0
  0
LINE
  5
677
100
AcDbEntity
  8
寸法
  6
CONTINUOUS
 62
     3
100
AcDbLine
 10
2817.5
 20
993.5
 30
0.0
 11
2825.0
 21
948.5
 31
0.0
  0
LINE
  5
678
100
AcDbEntity
  8
寸法
  6
CONTINUOUS
 62
     3
100
AcDbLine
 10
2825.0
 20
948.5
 30
0.0
 11
2832.5
 21
993.5
 31
0.0
  0
LINE
  5
679
100
AcDbEntity
  8
寸法
  6
CONTINUOUS
 62
     3
100
AcDbLine
 10
2832.5
 20
1763.5
 30
0.0
 11
2825.0
 21
1808.5
 31
0.0
  0
LINE
  5
67A
100
AcDbEntity
  8
寸法
  6
CONTINUOUS
 62
     3
100
AcDbLine
 10
2825.0
 20
1808.5
 30
0.0
 11
2817.5
 21
1763.5
 31
0.0
  0
ENDBLK
  5
67B
100
AcDbEntity
  8
0
100
AcDbBlockEnd
  0
BLOCK
  5
67E
100
AcDbEntity
  8
0
100
AcDbBlockBegin
  2
*D29
 70
    65
 10
0.0
 20
0.0
 30
0.0
  3
*D29
  1

  0
LINE
  5
67F
100
AcDbEntity
  8
寸法
  6
CONTINUOUS
 62
     3
100
AcDbLine
 10
2493.0
 20
1808.5
 30
0.0
 11
2840.0
 21
1808.5
 31
0.0
  0
LINE
  5
680
100
AcDbEntity
  8
寸法
  6
CONTINUOUS
 62
     3
100
AcDbLine
 10
2493.0
 20
2663.5
 30
0.0
 11
2840.0
 21
2663.5
 31
0.0
  0
TEXT
  5
681
100
AcDbEntity
  8
寸法
  6
CONTINUOUS
 62
     2
100
AcDbText
 10
2819.75
 20
2078.5
 30
0.0
 40
60.0
  1
855（壁固定）
 50
90.0
 41
0.84
  7
EXCADSTD
 72
     1
 11
2819.75
 21
2236.0
 31
0.0
100
AcDbText
  0
LINE
  5
682
100
AcDbEntity
  8
寸法
  6
CONTINUOUS
 62
     3
100
AcDbLine
 10
2825.0
 20
1808.5
 30
0.0
 11
2825.0
 21
2663.5
 31
0.0
  0
LINE
  5
683
100
AcDbEntity
  8
寸法
  6
CONTINUOUS
 62
     3
100
AcDbLine
 10
2817.5
 20
1853.5
 30
0.0
 11
2825.0
 21
1808.5
 31
0.0
  0
LINE
  5
684
100
AcDbEntity
  8
寸法
  6
CONTINUOUS
 62
     3
100
AcDbLine
 10
2825.0
 20
1808.5
 30
0.0
 11
2832.5
 21
1853.5
 31
0.0
  0
LINE
  5
685
100
AcDbEntity
  8
寸法
  6
CONTINUOUS
 62
     3
100
AcDbLine
 10
2832.5
 20
2618.5
 30
0.0
 11
2825.0
 21
2663.5
 31
0.0
  0
LINE
  5
686
100
AcDbEntity
  8
寸法
  6
CONTINUOUS
 62
     3
100
AcDbLine
 10
2825.0
 20
2663.5
 30
0.0
 11
2817.5
 21
2618.5
 31
0.0
  0
ENDBLK
  5
687
100
AcDbEntity
  8
0
100
AcDbBlockEnd
  0
BLOCK
  5
68A
100
AcDbEntity
  8
0
100
AcDbBlockBegin
  2
*D30
 70
    65
 10
0.0
 20
0.0
 30
0.0
  3
*D30
  1

  0
LINE
  5
68B
100
AcDbEntity
  8
寸法
  6
CONTINUOUS
 62
     3
100
AcDbLine
 10
2288.0
 20
2648.98257
 30
0.0
 11
2288.0
 21
2848.5
 31
0.0
  0
TEXT
  5
68C
100
AcDbEntity
  8
寸法
  6
CONTINUOUS
 62
     2
100
AcDbText
 10
2306.0
 20
2838.75
 30
0.0
 40
60.0
  1
162
 41
0.84
  7
EXCADSTD
 72
     1
 11
2369.0
 21
2838.75
 31
0.0
100
AcDbText
  0
LINE
  5
68D
100
AcDbEntity
  8
寸法
  6
CONTINUOUS
 62
     3
100
AcDbLine
 10
2288.0
 20
2833.5
 30
0.0
 11
2450.0
 21
2833.5
 31
0.0
  0
LINE
  5
68E
100
AcDbEntity
  8
寸法
  6
CONTINUOUS
 62
     3
100
AcDbLine
 10
2333.0
 20
2841.0
 30
0.0
 11
2288.0
 21
2833.5
 31
0.0
  0
LINE
  5
68F
100
AcDbEntity
  8
寸法
  6
CONTINUOUS
 62
     3
100
AcDbLine
 10
2288.0
 20
2833.5
 30
0.0
 11
2333.0
 21
2826.0
 31
0.0
  0
LINE
  5
690
100
AcDbEntity
  8
寸法
  6
CONTINUOUS
 62
     3
100
AcDbLine
 10
2405.0
 20
2826.0
 30
0.0
 11
2450.0
 21
2833.5
 31
0.0
  0
LINE
  5
691
100
AcDbEntity
  8
寸法
  6
CONTINUOUS
 62
     3
100
AcDbLine
 10
2450.0
 20
2833.5
 30
0.0
 11
2405.0
 21
2841.0
 31
0.0
  0
ENDBLK
  5
692
100
AcDbEntity
  8
0
100
AcDbBlockEnd
  0
BLOCK
  5
695
100
AcDbEntity
  8
0
100
AcDbBlockBegin
  2
*D31
 70
    65
 10
0.0
 20
0.0
 30
0.0
  3
*D31
  1

  0
LINE
  5
696
100
AcDbEntity
  8
寸法
  6
CONTINUOUS
 62
     3
100
AcDbLine
 10
2060.0
 20
941.5
 30
0.0
 11
2060.0
 21
633.5
 31
0.0
  0
LINE
  5
697
100
AcDbEntity
  8
寸法
  6
CONTINUOUS
 62
     3
100
AcDbLine
 10
2450.0
 20
938.0
 30
0.0
 11
2450.0
 21
633.5
 31
0.0
  0
TEXT
  5
698
100
AcDbEntity
  8
寸法
  6
CONTINUOUS
 62
     2
100
AcDbText
 10
2192.0
 20
653.75
 30
0.0
 40
60.0
  1
390
 41
0.84
  7
EXCADSTD
 72
     1
 11
2255.0
 21
653.75
 31
0.0
100
AcDbText
  0
LINE
  5
699
100
AcDbEntity
  8
寸法
  6
CONTINUOUS
 62
     3
100
AcDbLine
 10
2060.0
 20
648.5
 30
0.0
 11
2450.0
 21
648.5
 31
0.0
  0
LINE
  5
69A
100
AcDbEntity
  8
寸法
  6
CONTINUOUS
 62
     3
100
AcDbLine
 10
2105.0
 20
656.0
 30
0.0
 11
2060.0
 21
648.5
 31
0.0
  0
LINE
  5
69B
100
AcDbEntity
  8
寸法
  6
CONTINUOUS
 62
     3
100
AcDbLine
 10
2060.0
 20
648.5
 30
0.0
 11
2105.0
 21
641.0
 31
0.0
  0
LINE
  5
69C
100
AcDbEntity
  8
寸法
  6
CONTINUOUS
 62
     3
100
AcDbLine
 10
2405.0
 20
641.0
 30
0.0
 11
2450.0
 21
648.5
 31
0.0
  0
LINE
  5
69D
100
AcDbEntity
  8
寸法
  6
CONTINUOUS
 62
     3
100
AcDbLine
 10
2450.0
 20
648.5
 30
0.0
 11
2405.0
 21
656.0
 31
0.0
  0
ENDBLK
  5
69E
100
AcDbEntity
  8
0
100
AcDbBlockEnd
  0
BLOCK
  5
6A3
100
AcDbEntity
  8
0
100
AcDbBlockBegin
  2
*D32
 70
    65
 10
0.0
 20
0.0
 30
0.0
  3
*D32
  1

  0
LINE
  5
6A4
100
AcDbEntity
  8
寸法
  6
CONTINUOUS
 62
     3
100
AcDbLine
 10
546.5
 20
719.999996
 30
0.0
 11
546.5
 21
633.5
 31
0.0
  0
LINE
  5
6A5
100
AcDbEntity
  8
寸法
  6
CONTINUOUS
 62
     3
100
AcDbLine
 10
1263.5
 20
719.999996
 30
0.0
 11
1263.5
 21
633.5
 31
0.0
  0
TEXT
  5
6A6
100
AcDbEntity
  8
寸法
  6
CONTINUOUS
 62
     2
100
AcDbText
 10
842.0
 20
653.75
 30
0.0
 40
60.0
  1
717
 41
0.84
  7
EXCADSTD
 72
     1
 11
905.0
 21
653.75
 31
0.0
100
AcDbText
  0
LINE
  5
6A7
100
AcDbEntity
  8
寸法
  6
CONTINUOUS
 62
     3
100
AcDbLine
 10
546.5
 20
648.5
 30
0.0
 11
1263.5
 21
648.5
 31
0.0
  0
LINE
  5
6A8
100
AcDbEntity
  8
寸法
  6
CONTINUOUS
 62
     3
100
AcDbLine
 10
591.5
 20
656.0
 30
0.0
 11
546.5
 21
648.5
 31
0.0
  0
LINE
  5
6A9
100
AcDbEntity
  8
寸法
  6
CONTINUOUS
 62
     3
100
AcDbLine
 10
546.5
 20
648.5
 30
0.0
 11
591.5
 21
641.0
 31
0.0
  0
LINE
  5
6AA
100
AcDbEntity
  8
寸法
  6
CONTINUOUS
 62
     3
100
AcDbLine
 10
1218.5
 20
641.0
 30
0.0
 11
1263.5
 21
648.5
 31
0.0
  0
LINE
  5
6AB
100
AcDbEntity
  8
寸法
  6
CONTINUOUS
 62
     3
100
AcDbLine
 10
1263.5
 20
648.5
 30
0.0
 11
1218.5
 21
656.0
 31
0.0
  0
ENDBLK
  5
6AC
100
AcDbEntity
  8
0
100
AcDbBlockEnd
  0
BLOCK
  5
6AF
100
AcDbEntity
  8
0
100
AcDbBlockBegin
  2
*D33
 70
    65
 10
0.0
 20
0.0
 30
0.0
  3
*D33
  1

  0
LINE
  5
6B0
100
AcDbEntity
  8
寸法
  6
CONTINUOUS
 62
     3
100
AcDbLine
 10
854.0
 20
1741.222388
 30
0.0
 11
854.0
 21
1950.0
 31
0.0
  0
LINE
  5
6B1
100
AcDbEntity
  8
寸法
  6
CONTINUOUS
 62
     3
100
AcDbLine
 10
956.0
 20
1750.722388
 30
0.0
 11
956.0
 21
1950.0
 31
0.0
  0
TEXT
  5
6B2
100
AcDbEntity
  8
寸法
  6
CONTINUOUS
 62
     2
100
AcDbText
 10
842.0
 20
1940.25
 30
0.0
 40
60.0
  1
102
 41
0.84
  7
EXCADSTD
 72
     1
 11
905.0
 21
1940.25
 31
0.0
100
AcDbText
  0
LINE
  5
6B3
100
AcDbEntity
  8
寸法
  6
CONTINUOUS
 62
     3
100
AcDbLine
 10
809.0
 20
1935.0
 30
0.0
 11
1001.0
 21
1935.0
 31
0.0
  0
LINE
  5
6B4
100
AcDbEntity
  8
寸法
  6
CONTINUOUS
 62
     3
100
AcDbLine
 10
809.0
 20
1927.5
 30
0.0
 11
854.0
 21
1935.0
 31
0.0
  0
LINE
  5
6B5
100
AcDbEntity
  8
寸法
  6
CONTINUOUS
 62
     3
100
AcDbLine
 10
854.0
 20
1935.0
 30
0.0
 11
809.0
 21
1942.5
 31
0.0
  0
LINE
  5
6B6
100
AcDbEntity
  8
寸法
  6
CONTINUOUS
 62
     3
100
AcDbLine
 10
1001.0
 20
1942.5
 30
0.0
 11
956.0
 21
1935.0
 31
0.0
  0
LINE
  5
6B7
100
AcDbEntity
  8
寸法
  6
CONTINUOUS
 62
     3
100
AcDbLine
 10
956.0
 20
1935.0
 30
0.0
 11
1001.0
 21
1927.5
 31
0.0
  0
ENDBLK
  5
6B8
100
AcDbEntity
  8
0
100
AcDbBlockEnd
  0
BLOCK
  5
6BB
100
AcDbEntity
  8
0
100
AcDbBlockBegin
  2
*D34
 70
    65
 10
0.0
 20
0.0
 30
0.0
  3
*D34
  1

  0
LINE
  5
6BC
100
AcDbEntity
  8
寸法
  6
CONTINUOUS
 62
     3
100
AcDbLine
 10
2370.0
 20
1744.0
 30
0.0
 11
2370.0
 21
1950.0
 31
0.0
  0
TEXT
  5
6BD
100
AcDbEntity
  8
寸法
  6
CONTINUOUS
 62
     2
100
AcDbText
 10
2228.4
 20
1940.25
 30
0.0
 40
60.0
  1
80
 41
0.84
  7
EXCADSTD
 72
     1
 11
2272.5
 21
1940.25
 31
0.0
100
AcDbText
  0
LINE
  5
6BE
100
AcDbEntity
  8
寸法
  6
CONTINUOUS
 62
     3
100
AcDbLine
 10
2214.749994
 20
1935.0
 30
0.0
 11
2495.0
 21
1935.0
 31
0.0
  0
LINE
  5
6BF
100
AcDbEntity
  8
寸法
  6
CONTINUOUS
 62
     3
100
AcDbLine
 10
2325.0
 20
1927.5
 30
0.0
 11
2370.0
 21
1935.0
 31
0.0
  0
LINE
  5
6C0
100
AcDbEntity
  8
寸法
  6
CONTINUOUS
 62
     3
100
AcDbLine
 10
2370.0
 20
1935.0
 30
0.0
 11
2325.0
 21
1942.5
 31
0.0
  0
LINE
  5
6C1
100
AcDbEntity
  8
寸法
  6
CONTINUOUS
 62
     3
100
AcDbLine
 10
2495.0
 20
1942.5
 30
0.0
 11
2450.0
 21
1935.0
 31
0.0
  0
LINE
  5
6C2
100
AcDbEntity
  8
寸法
  6
CONTINUOUS
 62
     3
100
AcDbLine
 10
2450.0
 20
1935.0
 30
0.0
 11
2495.0
 21
1927.5
 31
0.0
  0
ENDBLK
  5
6C3
100
AcDbEntity
  8
0
100
AcDbBlockEnd
  0
BLOCK
  5
6CB
100
AcDbEntity
  8
0
100
AcDbBlockBegin
  2
*D35
 70
    65
 10
0.0
 20
0.0
 30
0.0
  3
*D35
  1

  0
LINE
  5
6CC
100
AcDbEntity
  8
寸法
  6
CONTINUOUS
 62
     3
100
AcDbLine
 10
2330.0
 20
908.0
 30
0.0
 11
2330.0
 21
723.5
 31
0.0
  0
LINE
  5
6CD
100
AcDbEntity
  8
寸法
  6
CONTINUOUS
 62
     3
100
AcDbLine
 10
2450.0
 20
938.0
 30
0.0
 11
2450.0
 21
723.5
 31
0.0
  0
TEXT
  5
6CE
100
AcDbEntity
  8
寸法
  6
CONTINUOUS
 62
     2
100
AcDbText
 10
2525.0
 20
743.75
 30
0.0
 40
60.0
  1
120（床排水）
 41
0.84
  7
EXCADSTD
 72
     1
 11
2682.5
 21
743.75
 31
0.0
100
AcDbText
  0
LINE
  5
6CF
100
AcDbEntity
  8
寸法
  6
CONTINUOUS
 62
     3
100
AcDbLine
 10
2285.0
 20
738.5
 30
0.0
 11
2875.250006
 21
738.5
 31
0.0
  0
LINE
  5
6D0
100
AcDbEntity
  8
寸法
  6
CONTINUOUS
 62
     3
100
AcDbLine
 10
2285.0
 20
731.0
 30
0.0
 11
2330.0
 21
738.5
 31
0.0
  0
LINE
  5
6D1
100
AcDbEntity
  8
寸法
  6
CONTINUOUS
 62
     3
100
AcDbLine
 10
2330.0
 20
738.5
 30
0.0
 11
2285.0
 21
746.0
 31
0.0
  0
LINE
  5
6D2
100
AcDbEntity
  8
寸法
  6
CONTINUOUS
 62
     3
100
AcDbLine
 10
2495.0
 20
746.0
 30
0.0
 11
2450.0
 21
738.5
 31
0.0
  0
LINE
  5
6D3
100
AcDbEntity
  8
寸法
  6
CONTINUOUS
 62
     3
100
AcDbLine
 10
2450.0
 20
738.5
 30
0.0
 11
2495.0
 21
731.0
 31
0.0
  0
ENDBLK
  5
6D4
100
AcDbEntity
  8
0
100
AcDbBlockEnd
  0
BLOCK
  5
6D7
100
AcDbEntity
  8
0
100
AcDbBlockBegin
  2
*D36
 70
    65
 10
0.0
 20
0.0
 30
0.0
  3
*D36
  1

  0
LINE
  5
6D8
100
AcDbEntity
  8
寸法
  6
CONTINUOUS
 62
     3
100
AcDbLine
 10
805.0
 20
930.0
 30
0.0
 11
805.0
 21
723.5
 31
0.0
  0
LINE
  5
6D9
100
AcDbEntity
  8
寸法
  6
CONTINUOUS
 62
     3
100
AcDbLine
 10
1005.0
 20
930.0
 30
0.0
 11
1005.0
 21
723.5
 31
0.0
  0
TEXT
  5
6DA
100
AcDbEntity
  8
寸法
  6
CONTINUOUS
 62
     2
100
AcDbText
 10
1080.0
 20
743.75
 30
0.0
 40
60.0
  1
200（床給水）
 41
0.84
  7
EXCADSTD
 72
     1
 11
1237.5
 21
743.75
 31
0.0
100
AcDbText
  0
LINE
  5
6DB
100
AcDbEntity
  8
寸法
  6
CONTINUOUS
 62
     3
100
AcDbLine
 10
760.0
 20
738.5
 30
0.0
 11
1430.250006
 21
738.5
 31
0.0
  0
LINE
  5
6DC
100
AcDbEntity
  8
寸法
  6
CONTINUOUS
 62
     3
100
AcDbLine
 10
760.0
 20
731.0
 30
0.0
 11
805.0
 21
738.5
 31
0.0
  0
LINE
  5
6DD
100
AcDbEntity
  8
寸法
  6
CONTINUOUS
 62
     3
100
AcDbLine
 10
805.0
 20
738.5
 30
0.0
 11
760.0
 21
746.0
 31
0.0
  0
LINE
  5
6DE
100
AcDbEntity
  8
寸法
  6
CONTINUOUS
 62
     3
100
AcDbLine
 10
1050.0
 20
746.0
 30
0.0
 11
1005.0
 21
738.5
 31
0.0
  0
LINE
  5
6DF
100
AcDbEntity
  8
寸法
  6
CONTINUOUS
 62
     3
100
AcDbLine
 10
1005.0
 20
738.5
 30
0.0
 11
1050.0
 21
731.0
 31
0.0
  0
ENDBLK
  5
6E0
100
AcDbEntity
  8
0
100
AcDbBlockEnd
  0
BLOCK
  5
6E5
100
AcDbEntity
  8
0
100
AcDbBlockBegin
  2
*D37
 70
    65
 10
0.0
 20
0.0
 30
0.0
  3
*D37
  1

  0
LINE
  5
6E6
100
AcDbEntity
  8
寸法
  6
CONTINUOUS
 62
     3
100
AcDbLine
 10
805.0
 20
3991.5
 30
0.0
 11
805.0
 21
4093.0
 31
0.0
  0
LINE
  5
6E7
100
AcDbEntity
  8
寸法
  6
CONTINUOUS
 62
     3
100
AcDbLine
 10
1005.0
 20
3991.5
 30
0.0
 11
1005.0
 21
4093.0
 31
0.0
  0
TEXT
  5
6E8
100
AcDbEntity
  8
寸法
  6
CONTINUOUS
 62
     2
100
AcDbText
 10
1080.0
 20
4083.25
 30
0.0
 40
60.0
  1
200（壁給水）
 41
0.84
  7
EXCADSTD
 72
     1
 11
1237.5
 21
4083.25
 31
0.0
100
AcDbText
  0
LINE
  5
6E9
100
AcDbEntity
  8
寸法
  6
CONTINUOUS
 62
     3
100
AcDbLine
 10
760.0
 20
4078.0
 30
0.0
 11
1430.250006
 21
4078.0
 31
0.0
  0
LINE
  5
6EA
100
AcDbEntity
  8
寸法
  6
CONTINUOUS
 62
     3
100
AcDbLine
 10
760.0
 20
4070.5
 30
0.0
 11
805.0
 21
4078.0
 31
0.0
  0
LINE
  5
6EB
100
AcDbEntity
  8
寸法
  6
CONTINUOUS
 62
     3
100
AcDbLine
 10
805.0
 20
4078.0
 30
0.0
 11
760.0
 21
4085.5
 31
0.0
  0
LINE
  5
6EC
100
AcDbEntity
  8
寸法
  6
CONTINUOUS
 62
     3
100
AcDbLine
 10
1050.0
 20
4085.5
 30
0.0
 11
1005.0
 21
4078.0
 31
0.0
  0
LINE
  5
6ED
100
AcDbEntity
  8
寸法
  6
CONTINUOUS
 62
     3
100
AcDbLine
 10
1005.0
 20
4078.0
 30
0.0
 11
1050.0
 21
4070.5
 31
0.0
  0
ENDBLK
  5
6EE
100
AcDbEntity
  8
0
100
AcDbBlockEnd
  0
ENDSEC
  0
SECTION
  2
ENTITIES
  0
LINE
  5
86
100
AcDbEntity
  8
枠・表
  6
CONTINUOUS
 62
     7
100
AcDbLine
 10
255.0
 20
202.5
 30
0.0
 11
2985.0
 21
202.5
 31
0.0
  0
LINE
  5
87
100
AcDbEntity
  8
枠・表
  6
CONTINUOUS
 62
     7
100
AcDbLine
 10
2985.0
 20
202.5
 30
0.0
 11
2985.0
 21
4327.5
 31
0.0
  0
LINE
  5
88
100
AcDbEntity
  8
枠・表
  6
CONTINUOUS
 62
     7
100
AcDbLine
 10
255.0
 20
202.5
 30
0.0
 11
255.0
 21
4327.5
 31
0.0
  0
LINE
  5
89
100
AcDbEntity
  8
枠・表
  6
CONTINUOUS
 62
     7
100
AcDbLine
 10
255.0
 20
4327.5
 30
0.0
 11
2985.0
 21
4327.5
 31
0.0
  0
LINE
  5
8A
100
AcDbEntity
  8
枠・表
  6
CONTINUOUS
 62
     7
100
AcDbLine
 10
255.0
 20
532.5
 30
0.0
 11
2985.0
 21
532.5
 31
0.0
  0
LINE
  5
8B
100
AcDbEntity
  8
枠・表
  6
CONTINUOUS
 62
     6
100
AcDbLine
 10
2985.0
 20
352.5
 30
0.0
 11
1110.0
 21
352.5
 31
0.0
  0
LINE
  5
8C
100
AcDbEntity
  8
枠・表
  6
CONTINUOUS
 62
     6
100
AcDbLine
 10
2775.0
 20
532.5
 30
0.0
 11
2775.0
 21
352.5
 31
0.0
  0
LINE
  5
8D
100
AcDbEntity
  8
枠・表
  6
CONTINUOUS
 62
     6
100
AcDbLine
 10
2700.0
 20
532.5
 30
0.0
 11
2700.0
 21
352.5
 31
0.0
  0
LINE
  5
8E
100
AcDbEntity
  8
枠・表
  6
CONTINUOUS
 62
     6
100
AcDbLine
 10
2145.0
 20
532.5
 30
0.0
 11
2145.0
 21
202.5
 31
0.0
  0
LINE
  5
8F
100
AcDbEntity
  8
枠・表
  6
CONTINUOUS
 62
     6
100
AcDbLine
 10
2070.0
 20
532.5
 30
0.0
 11
2070.0
 21
202.5
 31
0.0
  0
LINE
  5
90
100
AcDbEntity
  8
枠・表
  6
CONTINUOUS
 62
     6
100
AcDbLine
 10
1185.0
 20
532.5
 30
0.0
 11
1185.0
 21
352.5
 31
0.0
  0
LINE
  5
91
100
AcDbEntity
  8
枠・表
  6
CONTINUOUS
 62
     6
100
AcDbLine
 10
1110.0
 20
532.5
 30
0.0
 11
1110.0
 21
202.5
 31
0.0
  0
LINE
  5
92
100
AcDbEntity
  8
枠・表
  6
CONTINUOUS
 62
     6
100
AcDbLine
 10
915.0
 20
532.5
 30
0.0
 11
915.0
 21
202.5
 31
0.0
  0
LINE
  5
93
100
AcDbEntity
  8
枠・表
  6
CONTINUOUS
 62
     6
100
AcDbLine
 10
720.0
 20
532.5
 30
0.0
 11
720.0
 21
202.5
 31
0.0
  0
LINE
  5
94
100
AcDbEntity
  8
枠・表
  6
CONTINUOUS
 62
     6
100
AcDbLine
 10
487.5
 20
532.5
 30
0.0
 11
487.5
 21
202.5
 31
0.0
  0
LINE
  5
95
100
AcDbEntity
  8
枠・表
  6
CONTINUOUS
 62
     6
100
AcDbLine
 10
255.0
 20
457.5
 30
0.0
 11
1110.0
 21
457.5
 31
0.0
  0
LINE
  5
96
100
AcDbEntity
  8
枠・表
  6
CONTINUOUS
 62
     6
100
AcDbLine
 10
2823.980713
 20
387.004395
 30
0.0
 11
2939.990845
 21
505.049744
 31
0.0
  0
CIRCLE
  5
97
100
AcDbEntity
  8
枠・表
  6
CONTINUOUS
 62
     6
100
AcDbCircle
 10
330.0
 20
240.0
 30
0.0
 40
1.5
  0
CIRCLE
  5
98
100
AcDbEntity
  8
枠・表
  6
CONTINUOUS
 62
     6
100
AcDbCircle
 10
405.0
 20
240.0
 30
0.0
 40
1.5
  0
CIRCLE
  5
99
100
AcDbEntity
  8
枠・表
  6
CONTINUOUS
 62
     6
100
AcDbCircle
 10
562.5
 20
240.0
 30
0.0
 40
1.5
  0
CIRCLE
  5
9A
100
AcDbEntity
  8
枠・表
  6
CONTINUOUS
 62
     6
100
AcDbCircle
 10
637.5
 20
240.0
 30
0.0
 40
1.5
  0
LINE
  5
9B
100
AcDbEntity
  8
枠・表
  6
EXLTYPE2
 62
     6
100
AcDbLine
 10
255.0
 20
277.5
 30
0.0
 11
720.0
 21
277.5
 31
0.0
  0
TEXT
  5
9C
100
AcDbEntity
  8
枠・表
  6
CONTINUOUS
 62
     2
100
AcDbText
 10
2820.805664
 20
454.084167
 30
0.0
 40
45.0
  1
１
 41
0.826
  7
EXCADSTD
 72
     5
 11
2856.205665
 21
454.084167
 31
0.0
100
AcDbText
  0
TEXT
  5
9D
100
AcDbEntity
  8
枠・表
  6
CONTINUOUS
 62
     2
100
AcDbText
 10
2881.918945
 20
387.52327
 30
0.0
 40
45.0
  1
１５
 41
0.791
  7
EXCADSTD
 72
     5
 11
2959.600797
 21
387.52327
 31
0.0
100
AcDbText
  0
TEXT
  5
9E
100
AcDbEntity
  8
枠・表
  6
CONTINUOUS
 62
     2
100
AcDbText
 10
288.75
 20
463.125
 30
0.0
 40
63.75
  1
製図
 41
1.087059
  7
EXCADSTD
 72
     5
 11
439.989
 21
463.125
 31
0.0
100
AcDbText
  0
TEXT
  5
9F
100
AcDbEntity
  8
枠・表
  6
CONTINUOUS
 62
     2
100
AcDbText
 10
521.25
 20
463.125
 30
0.0
 40
63.75
  1
写図
 41
1.087059
  7
EXCADSTD
 72
     5
 11
672.489
 21
463.125
 31
0.0
100
AcDbText
  0
TEXT
  5
A0
100
AcDbEntity
  8
枠・表
  6
CONTINUOUS
 62
     2
100
AcDbText
 10
746.25
 20
463.125
 30
0.0
 40
63.75
  1
検図
 41
0.938824
  7
EXCADSTD
 72
     5
 11
876.8655
 21
463.125
 31
0.0
100
AcDbText
  0
TEXT
  5
A1
100
AcDbEntity
  8
枠・表
  6
CONTINUOUS
 62
     2
100
AcDbText
 10
941.25
 20
463.125
 30
0.0
 40
63.75
  1
承認
 41
0.938824
  7
EXCADSTD
 72
     5
 11
1071.8655
 21
463.125
 31
0.0
100
AcDbText
  0
TEXT
  5
A2
100
AcDbEntity
  8
枠・表
  6
CONTINUOUS
 62
     2
100
AcDbText
 10
1118.625
 20
448.125
 30
0.0
 40
63.75
  1
品
 41
0.84
  7
EXCADSTD
 72
     5
 11
1169.625
 21
448.125
 31
0.0
100
AcDbText
  0
TEXT
  5
A3
100
AcDbEntity
  8
枠・表
  6
CONTINUOUS
 62
     2
100
AcDbText
 10
1118.625
 20
373.125
 30
0.0
 40
63.75
  1
名
 41
0.84
  7
EXCADSTD
 72
     5
 11
1169.625
 21
373.125
 31
0.0
100
AcDbText
  0
TEXT
  5
A4
100
AcDbEntity
  8
枠・表
  6
CONTINUOUS
 62
     2
100
AcDbText
 10
2078.625
 20
448.125
 30
0.0
 40
63.75
  1
品
 41
0.84
  7
EXCADSTD
 72
     5
 11
2129.625
 21
448.125
 31
0.0
100
AcDbText
  0
TEXT
  5
A5
100
AcDbEntity
  8
枠・表
  6
CONTINUOUS
 62
     2
100
AcDbText
 10
2078.625
 20
373.125
 30
0.0
 40
63.75
  1
番
 41
0.84
  7
EXCADSTD
 72
     5
 11
2129.625
 21
373.125
 31
0.0
100
AcDbText
  0
TEXT
  5
A6
100
AcDbEntity
  8
枠・表
  6
CONTINUOUS
 62
     2
100
AcDbText
 10
2710.125
 20
448.125
 30
0.0
 40
63.75
  1
尺
 41
0.84
  7
EXCADSTD
 72
     5
 11
2761.125
 21
448.125
 31
0.0
100
AcDbText
  0
TEXT
  5
A7
100
AcDbEntity
  8
枠・表
  6
CONTINUOUS
 62
     2
100
AcDbText
 10
2710.125
 20
373.125
 30
0.0
 40
63.75
  1
度
 41
0.84
  7
EXCADSTD
 72
     5
 11
2761.125
 21
373.125
 31
0.0
100
AcDbText
  0
TEXT
  5
A8
100
AcDbEntity
  8
枠・表
  6
CONTINUOUS
 62
     2
100
AcDbText
 10
2078.625
 20
278.625
 30
0.0
 40
63.75
  1
図
 41
0.84
  7
EXCADSTD
 72
     5
 11
2129.625
 21
278.625
 31
0.0
100
AcDbText
  0
TEXT
  5
A9
100
AcDbEntity
  8
枠・表
  6
CONTINUOUS
 62
     2
100
AcDbText
 10
2078.625
 20
214.125
 30
0.0
 40
63.75
  1
番
 41
0.84
  7
EXCADSTD
 72
     5
 11
2129.625
 21
214.125
 31
0.0
100
AcDbText
  0
TEXT
  5
AA
100
AcDbEntity
  8
枠・表
  6
CONTINUOUS
 62
     2
100
AcDbText
 10
1200.0
 20
442.5
 30
0.0
 40
75.0
  1
750㎜幅
 41
0.72072
  7
EXCADSTD
 72
     5
 11
1488.75
 21
442.5
 31
0.0
100
AcDbText
  0
TEXT
  5
AB
100
AcDbEntity
  8
枠・表
  6
CONTINUOUS
 62
     2
100
AcDbText
 10
1200.0
 20
367.5
 30
0.0
 40
75.0
  1
　洗面化粧ユニット
 41
0.924
  7
EXCADSTD
 72
     5
 11
1942.5
 21
367.5
 31
0.0
100
AcDbText
  0
LINE
  5
AC
100
AcDbEntity
  8
枠・表
  6
CONTINUOUS
 62
     6
100
AcDbLine
 10
1860.0
 20
4282.5
 30
0.0
 11
2910.0
 21
4282.5
 31
0.0
  0
LINE
  5
AD
100
AcDbEntity
  8
枠・表
  6
CONTINUOUS
 62
     6
100
AcDbLine
 10
1860.0
 20
4200.0
 30
0.0
 11
2910.0
 21
4200.0
 31
0.0
  0
TEXT
  5
AE
100
AcDbEntity
  8
枠・表
  6
CONTINUOUS
 62
     2
100
AcDbText
 10
1980.0
 20
4211.25
 30
0.0
 40
60.0
  1
品番
 41
1.47
  7
EXCADSTD
 72
     5
 11
2172.486
 21
4211.25
 31
0.0
100
AcDbText
  0
TEXT
  5
AF
100
AcDbEntity
  8
枠・表
  6
CONTINUOUS
 62
     2
100
AcDbText
 10
2430.0
 20
4211.25
 30
0.0
 40
60.0
  1
品名
 41
1.47
  7
EXCADSTD
 72
     5
 11
2622.486
 21
4211.25
 31
0.0
100
AcDbText
  0
TEXT
  5
B0
100
AcDbEntity
  8
枠・表
  6
CONTINUOUS
 62
     2
100
AcDbText
 10
2773.5
 20
4211.25
 30
0.0
 40
60.0
  1
個数
 41
0.861
  7
EXCADSTD
 72
     5
 11
2886.2418
 21
4211.25
 31
0.0
100
AcDbText
  0
TEXT
  5
B1
100
AcDbEntity
  8
枠・表
  6
CONTINUOUS
 62
     2
100
AcDbText
 10
2325.0
 20
4128.75
 30
0.0
 40
60.0
  1
洗面化粧台
 41
0.8106
  7
EXCADSTD
 72
     5
 11
2614.499999
 21
4128.75
 31
0.0
100
AcDbText
  0
TEXT
  5
B2
100
AcDbEntity
  8
枠・表
  6
CONTINUOUS
 62
     2
100
AcDbText
 10
2325.0
 20
3963.75
 30
0.0
 40
60.0
  1
化粧鏡台
 41
0.819
  7
EXCADSTD
 72
     5
 11
2558.999999
 21
3963.75
 31
0.0
100
AcDbText
  0
TEXT
  5
B3
100
AcDbEntity
  8
枠・表
  6
CONTINUOUS
 62
     2
100
AcDbText
 10
2801.25
 20
3963.75
 30
0.0
 40
60.0
  1
１
 41
0.945
  7
EXCADSTD
 72
     5
 11
2855.25
 21
3963.75
 31
0.0
100
AcDbText
  0
LINE
  5
B4
100
AcDbEntity
  8
枠・表
  6
CONTINUOUS
 62
     6
100
AcDbLine
 10
1860.0
 20
3870.0
 30
0.0
 11
2910.0
 21
3870.0
 31
0.0
  0
LINE
  5
B5
100
AcDbEntity
  8
枠・表
  6
CONTINUOUS
 62
     6
100
AcDbLine
 10
1860.0
 20
3952.5
 30
0.0
 11
2910.0
 21
3952.5
 31
0.0
  0
LINE
  5
B6
100
AcDbEntity
  8
枠・表
  6
CONTINUOUS
 62
     6
100
AcDbLine
 10
1860.0
 20
3705.0
 30
0.0
 11
2910.0
 21
3705.0
 31
0.0
  0
TEXT
  5
B7
100
AcDbEntity
  8
枠・表
  6
CONTINUOUS
 62
     2
100
AcDbText
 10
1875.0
 20
3716.25
 30
0.0
 40
60.0
  1
ＮＬ２２１-７５ＷＭＹ
 41
0.49719
  7
EXCADSTD
 72
     5
 11
2259.000006
 21
3716.25
 31
0.0
100
AcDbText
  0
TEXT
  5
B8
100
AcDbEntity
  8
枠・表
  6
CONTINUOUS
 62
     2
100
AcDbText
 10
2801.25
 20
3716.25
 30
0.0
 40
60.0
  1
２
 41
0.945
  7
EXCADSTD
 72
     5
 11
2855.25
 21
3716.25
 31
0.0
100
AcDbText
  0
LINE
  5
B9
100
AcDbEntity
  8
枠・表
  6
CONTINUOUS
 62
     6
100
AcDbLine
 10
1860.0
 20
3787.5
 30
0.0
 11
2910.0
 21
3787.5
 31
0.0
  0
LINE
  5
BA
100
AcDbEntity
  8
枠・表
  6
CONTINUOUS
 62
     6
100
AcDbLine
 10
1860.0
 20
3705.0
 30
0.0
 11
1860.0
 21
3870.0
 31
0.0
  0
LINE
  5
BB
100
AcDbEntity
  8
枠・表
  6
CONTINUOUS
 62
     6
100
AcDbLine
 10
2310.0
 20
3705.0
 30
0.0
 11
2310.0
 21
3870.0
 31
0.0
  0
LINE
  5
BC
100
AcDbEntity
  8
枠・表
  6
CONTINUOUS
 62
     6
100
AcDbLine
 10
2760.0
 20
3705.0
 30
0.0
 11
2760.0
 21
3870.0
 31
0.0
  0
LINE
  5
BD
100
AcDbEntity
  8
枠・表
  6
CONTINUOUS
 62
     6
100
AcDbLine
 10
2910.0
 20
3705.0
 30
0.0
 11
2910.0
 21
3870.0
 31
0.0
  0
TEXT
  5
BE
100
AcDbEntity
  8
枠・表
  6
CONTINUOUS
 62
     2
100
AcDbText
 10
2801.25
 20
3798.75
 30
0.0
 40
60.0
  1
２
 41
0.945
  7
EXCADSTD
 72
     5
 11
2855.25
 21
3798.75
 31
0.0
100
AcDbText
  0
TEXT
  5
BF
100
AcDbEntity
  8
枠・表
  6
CONTINUOUS
 62
     2
100
AcDbText
 10
1875.0
 20
3881.25
 30
0.0
 40
60.0
  1
止水栓手配品番（アングル形の場合）
 41
0.681882
  7
EXCADSTD
 72
     5
 11
2702.999997
 21
3881.25
 31
0.0
100
AcDbText
  0
LINE
  5
C0
100
AcDbEntity
  8
枠・表
  6
CONTINUOUS
 62
     6
100
AcDbLine
 10
1860.0
 20
3622.5
 30
0.0
 11
2910.0
 21
3622.5
 31
0.0
  0
TEXT
  5
C1
100
AcDbEntity
  8
枠・表
  6
CONTINUOUS
 62
     2
100
AcDbText
 10
1875.0
 20
3551.25
 30
0.0
 40
60.0
  1
ＮＬ３０Ｓ４０
 41
0.528
  7
EXCADSTD
 72
     5
 11
2139.000004
 21
3551.25
 31
0.0
100
AcDbText
  0
LINE
  5
C2
100
AcDbEntity
  8
枠・表
  6
CONTINUOUS
 62
     6
100
AcDbLine
 10
1860.0
 20
3457.5
 30
0.0
 11
2910.0
 21
3457.5
 31
0.0
  0
TEXT
  5
C3
100
AcDbEntity
  8
枠・表
  6
CONTINUOUS
 62
     2
100
AcDbText
 10
2801.25
 20
3468.75
 30
0.0
 40
60.0
  1
２
 41
0.945
  7
EXCADSTD
 72
     5
 11
2855.25
 21
3468.75
 31
0.0
100
AcDbText
  0
LINE
  5
C4
100
AcDbEntity
  8
枠・表
  6
CONTINUOUS
 62
     6
100
AcDbLine
 10
1860.0
 20
3540.0
 30
0.0
 11
2910.0
 21
3540.0
 31
0.0
  0
LINE
  5
C5
100
AcDbEntity
  8
枠・表
  6
CONTINUOUS
 62
     6
100
AcDbLine
 10
1860.0
 20
3457.5
 30
0.0
 11
1860.0
 21
3622.5
 31
0.0
  0
LINE
  5
C6
100
AcDbEntity
  8
枠・表
  6
CONTINUOUS
 62
     6
100
AcDbLine
 10
2310.0
 20
3457.5
 30
0.0
 11
2310.0
 21
3622.5
 31
0.0
  0
LINE
  5
C7
100
AcDbEntity
  8
枠・表
  6
CONTINUOUS
 62
     6
100
AcDbLine
 10
2760.0
 20
3457.5
 30
0.0
 11
2760.0
 21
3622.5
 31
0.0
  0
LINE
  5
C8
100
AcDbEntity
  8
枠・表
  6
CONTINUOUS
 62
     6
100
AcDbLine
 10
2910.0
 20
3457.5
 30
0.0
 11
2910.0
 21
3622.5
 31
0.0
  0
TEXT
  5
C9
100
AcDbEntity
  8
枠・表
  6
CONTINUOUS
 62
     2
100
AcDbText
 10
2801.25
 20
3551.25
 30
0.0
 40
60.0
  1
２
 41
0.945
  7
EXCADSTD
 72
     5
 11
2855.25
 21
3551.25
 31
0.0
100
AcDbText
  0
TEXT
  5
CA
100
AcDbEntity
  8
枠・表
  6
CONTINUOUS
 62
     2
100
AcDbText
 10
1875.0
 20
3633.75
 30
0.0
 40
60.0
  1
止水栓手配品番（ストレート形の場合）
 41
0.681333
  7
EXCADSTD
 72
     5
 11
2750.999997
 21
3633.75
 31
0.0
100
AcDbText
  0
TEXT
  5
CB
100
AcDbEntity
  8
枠・表
  6
CONTINUOUS
 62
     2
100
AcDbText
 10
1875.0
 20
3468.75
 30
0.0
 40
60.0
  1
ＮＬ２１１-３３０ＷＭＹ
 41
0.518222
  7
EXCADSTD
 72
     5
 11
2312.24999
 21
3468.75
 31
0.0
100
AcDbText
  0
TEXT
  5
CC
100
AcDbEntity
  8
枠・表
  6
CONTINUOUS
 62
     2
100
AcDbText
 10
2325.0
 20
3468.75
 30
0.0
 40
60.0
  1
ストレート形止水栓（共用形）
 41
0.435
  7
EXCADSTD
 72
     5
 11
2760.00005
 21
3468.75
 31
0.0
100
AcDbText
  0
TEXT
  5
CD
100
AcDbEntity
  8
枠・表
  6
CONTINUOUS
 62
     2
100
AcDbText
 10
2325.0
 20
3551.25
 30
0.0
 40
60.0
  1
フレキシブルパイプ
 41
0.648667
  7
EXCADSTD
 72
     5
 11
2741.999992
 21
3551.25
 31
0.0
100
AcDbText
  0
TEXT
  5
CE
100
AcDbEntity
  8
枠・表
  6
CONTINUOUS
 62
     2
100
AcDbText
 10
2326.5
 20
4046.25
 30
0.0
 40
60.0
  1
洗面化粧台・寒冷地
 41
0.651
  7
EXCADSTD
 72
     5
 11
2745.000016
 21
4046.25
 31
0.0
100
AcDbText
  0
LINE
  5
CF
100
AcDbEntity
  8
枠・表
  6
CONTINUOUS
 62
     6
100
AcDbLine
 10
1860.0
 20
4117.5
 30
0.0
 11
2760.0
 21
4117.5
 31
0.0
  0
TEXT
  5
D0
100
AcDbEntity
  8
枠・表
  6
CONTINUOUS
 62
     2
100
AcDbText
 10
2801.25
 20
4087.5
 30
0.0
 40
60.0
  1
１
 41
0.945
  7
EXCADSTD
 72
     5
 11
2855.25
 21
4087.5
 31
0.0
100
AcDbText
  0
LINE
  5
D1
100
AcDbEntity
  8
枠・表
  6
CONTINUOUS
 62
     6
100
AcDbLine
 10
1860.0
 20
3952.5
 30
0.0
 11
1860.0
 21
4282.5
 31
0.0
  0
LINE
  5
D2
100
AcDbEntity
  8
枠・表
  6
CONTINUOUS
 62
     6
100
AcDbLine
 10
2310.0
 20
3952.5
 30
0.0
 11
2310.0
 21
4282.5
 31
0.0
  0
LINE
  5
D3
100
AcDbEntity
  8
枠・表
  6
CONTINUOUS
 62
     6
100
AcDbLine
 10
2760.0
 20
3952.5
 30
0.0
 11
2760.0
 21
4282.5
 31
0.0
  0
LINE
  5
D4
100
AcDbEntity
  8
枠・表
  6
CONTINUOUS
 62
     6
100
AcDbLine
 10
2910.0
 20
3952.5
 30
0.0
 11
2910.0
 21
4282.5
 31
0.0
  0
LINE
  5
D5
100
AcDbEntity
  8
枠・表
  6
CONTINUOUS
 62
     6
100
AcDbLine
 10
1860.0
 20
4035.0
 30
0.0
 11
2910.0
 21
4035.0
 31
0.0
  0
TEXT
  5
D6
100
AcDbEntity
  8
枠・表
  6
CONTINUOUS
 62
     2
100
AcDbText
 10
1875.0
 20
3963.75
 30
0.0
 40
60.0
  1
ＬＵＭ７５１Ａ（Ｈ）
 41
0.5208
  7
EXCADSTD
 72
     5
 11
2247.000006
 21
3963.75
 31
0.0
100
AcDbText
  0
TEXT
  5
D7
100
AcDbEntity
  8
枠・表
  6
CONTINUOUS
 62
     2
100
AcDbText
 10
1875.0
 20
3798.75
 30
0.0
 40
60.0
  1
ＮＬ３０Ｓ４０
 41
0.528
  7
EXCADSTD
 72
     5
 11
2139.000004
 21
3798.75
 31
0.0
100
AcDbText
  0
TEXT
  5
D8
100
AcDbEntity
  8
枠・表
  6
CONTINUOUS
 62
     2
100
AcDbText
 10
261.75
 20
210.0
 30
0.0
 40
60.0
  1
09
 41
0.5
  7
EXCADSTD
 72
     5
 11
309.75
 21
210.0
 31
0.0
100
AcDbText
  0
TEXT
  5
D9
100
AcDbEntity
  8
枠・表
  6
CONTINUOUS
 62
     2
100
AcDbText
 10
337.5
 20
210.0
 30
0.0
 40
60.0
  1
10
 41
0.5
  7
EXCADSTD
 72
     5
 11
385.5
 21
210.0
 31
0.0
100
AcDbText
  0
TEXT
  5
DA
100
AcDbEntity
  8
枠・表
  6
CONTINUOUS
 62
     2
100
AcDbText
 10
430.125
 20
210.0
 30
0.0
 40
60.0
  1
5
 41
0.5625
  7
EXCADSTD
 72
     5
 11
452.0625
 21
210.0
 31
0.0
100
AcDbText
  0
TEXT
  5
DB
100
AcDbEntity
  8
枠・表
  6
CONTINUOUS
 62
     2
100
AcDbText
 10
296.25
 20
330.0
 30
0.0
 40
75.0
  1
中村
 41
0.882
  7
EXCADSTD
 72
     5
 11
440.6145
 21
330.0
 31
0.0
100
AcDbText
  0
TEXT
  5
DC
100
AcDbEntity
  8
枠・表
  6
CONTINUOUS
 62
     2
100
AcDbText
 10
2325.0
 20
3798.75
 30
0.0
 40
60.0
  1
フレキシブルパイプ
 41
0.648667
  7
EXCADSTD
 72
     5
 11
2741.999992
 21
3798.75
 31
0.0
100
AcDbText
  0
TEXT
  5
DD
100
AcDbEntity
  8
枠・表
  6
CONTINUOUS
 62
     2
100
AcDbText
 10
2325.0
 20
3716.25
 30
0.0
 40
60.0
  1
アングル形止水栓（共用形）
 41
0.474923
  7
EXCADSTD
 72
     5
 11
2765.999998
 21
3716.25
 31
0.0
100
AcDbText
  0
TEXT
  5
DE
100
AcDbEntity
  8
枠・表
  6
CONTINUOUS
 62
     2
100
AcDbText
 10
1875.0
 20
4128.75
 30
0.0
 40
60.0
  1
ＬＵ７５１ＲＳＣ
 41
0.525
  7
EXCADSTD
 72
     5
 11
2175.000004
 21
4128.75
 31
0.0
100
AcDbText
  0
TEXT
  5
DF
100
AcDbEntity
  8
枠・表
  6
CONTINUOUS
 62
     2
100
AcDbText
 10
1875.0
 20
4046.25
 30
0.0
 40
60.0
  1
ＬＵ７５１ＲＳＣＹ
 41
0.522667
  7
EXCADSTD
 72
     5
 11
2211.000005
 21
4046.25
 31
0.0
100
AcDbText
  0
TEXT
  5
E0
100
AcDbEntity
  8
枠・表
  6
CONTINUOUS
 62
     2
100
AcDbText
 10
2160.0
 20
442.5
 30
0.0
 40
75.0
  1
ＬＵ７５１ＲＳＣ（Ｙ）
 41
0.519273
  7
EXCADSTD
 72
     5
 11
2670.0
 21
442.5
 31
0.0
100
AcDbText
  0
TEXT
  5
E1
100
AcDbEntity
  8
枠・表
  6
CONTINUOUS
 62
     2
100
AcDbText
 10
2160.0
 20
367.5
 30
0.0
 40
75.0
  1
ＬＵＭ７５１Ａ（Ｈ）
 41
0.5208
  7
EXCADSTD
 72
     5
 11
2625.0
 21
367.5
 31
0.0
100
AcDbText
  0
TEXT
  5
E2
100
AcDbEntity
  8
枠・表
  6
CONTINUOUS
 62
     2
100
AcDbText
 10
1890.0
 20
3381.0
 30
0.0
 40
52.5
  1
※止水栓・フレキシブルパイプは別途
 41
0.659294
  7
EXCADSTD
 72
     5
 11
2590.499997
 21
3381.0
 31
0.0
100
AcDbText
  0
TEXT
  5
E3
100
AcDbEntity
  8
枠・表
  6
CONTINUOUS
 62
     2
100
AcDbText
 10
1890.0
 20
3328.5
 30
0.0
 40
52.5
  1
※化粧鏡台
 41
0.6864
  7
EXCADSTD
 72
     5
 11
2104.499999
 21
3328.5
 31
0.0
100
AcDbText
  0
TEXT
  5
E4
100
AcDbEntity
  8
枠・表
  6
CONTINUOUS
 62
     2
100
AcDbText
 10
1890.0
 20
3276.0
 30
0.0
 40
52.5
  1
・電源：１００Ｖ，５０/６０Ｈｚ
 41
0.641295
  7
EXCADSTD
 72
     5
 11
2523.749997
 21
3276.0
 31
0.0
100
AcDbText
  0
TEXT
  5
E5
100
AcDbEntity
  8
枠・表
  6
CONTINUOUS
 62
     2
100
AcDbText
 10
1890.0
 20
3223.5
 30
0.0
 40
52.5
  1
・コンセント容量：１２００Ｗ
 41
0.661714
  7
EXCADSTD
 72
     5
 11
2468.999998
 21
3223.5
 31
0.0
100
AcDbText
  0
TEXT
  5
E6
100
AcDbEntity
  8
枠・表
  6
CONTINUOUS
 62
     2
100
AcDbText
 10
1890.0
 20
3171.0
 30
0.0
 40
52.5
  1
・電源コードの取出しは、左右及び上側
 41
0.658667
  7
EXCADSTD
 72
     5
 11
2630.999997
 21
3171.0
 31
0.0
100
AcDbText
  0
TEXT
  5
E7
100
AcDbEntity
  8
枠・表
  6
CONTINUOUS
 62
     2
100
AcDbText
 10
1890.0
 20
3118.5
 30
0.0
 40
52.5
  1
・品番末尾にＨの付く場合は、くもり止めヒーター付　
 41
0.65568
  7
EXCADSTD
 72
     5
 11
2914.499996
 21
3118.5
 31
0.0
100
AcDbText
  0
TEXT
  5
E8
100
AcDbEntity
  8
枠・表
  6
CONTINUOUS
 62
     7
100
AcDbText
 10
2163.000003
 20
227.25
 30
0.0
 40
105.0
  1
ＬＵ３１６８１０
 41
0.804
  7
EXCADSTD
 72
     5
 11
2966.999997
 21
227.25
 31
0.0
100
AcDbText
  0
TEXT
  5
EA
100
AcDbEntity
  8
枠・表
  6
CONTINUOUS
 62
     2
100
AcDbText
 10
1140.0
 20
232.5
 30
0.0
 40
67.5
  1
ジャニス工業株式会社
 41
1.0
  7
EXCADTTF1
 72
     5
 11
2040.0
 21
232.5
 31
0.0
100
AcDbText
  0
LINE
  5
EB
100
AcDbEntity
  8
枠・表
  6
EXLTYPE2
 62
     1
100
AcDbLine
 10
255.0
 20
2265.0
 30
0.0
 11
33.0
 21
2265.0
 31
0.0
  0
POLYLINE
  5
EC
100
AcDbEntity
  8
化粧台
  6
CONTINUOUS
 62
     3
100
AcDb2dPolyline
 66
     1
 10
0.0
 20
0.0
 30
0.0
 70
   128
  0
VERTEX
  5
ED
100
AcDbEntity
  8
化粧台
  6
CONTINUOUS
 62
     3
100
AcDbVertex
100
AcDb2dVertex
 10
1437.0
 20
3973.0
 30
0.0
  0
VERTEX
  5
EE
100
AcDbEntity
  8
化粧台
  6
CONTINUOUS
 62
     3
100
AcDbVertex
100
AcDb2dVertex
 10
1460.0
 20
3923.5
 30
0.0
  0
SEQEND
  5
EF
100
AcDbEntity
  8
化粧台
  6
CONTINUOUS
 62
     3
  0
LINE
  5
F0
100
AcDbEntity
  8
化粧台
  6
CONTINUOUS
 62
     3
100
AcDbLine
 10
1462.763749
 20
3935.350575
 30
0.0
 11
1437.0
 21
3973.0
 31
0.0
  0
LINE
  5
F1
100
AcDbEntity
  8
化粧台
  6
CONTINUOUS
 62
     3
100
AcDbLine
 10
1437.0
 20
3973.0
 30
0.0
 11
1449.16049
 21
3929.029868
 31
0.0
  0
POLYLINE
  5
F2
100
AcDbEntity
  8
化粧台
  6
CONTINUOUS
 62
     3
100
AcDb2dPolyline
 66
     1
 10
0.0
 20
0.0
 30
0.0
 70
   128
  0
VERTEX
  5
F3
100
AcDbEntity
  8
化粧台
  6
CONTINUOUS
 62
     3
100
AcDbVertex
100
AcDb2dVertex
 10
2450.0
 20
2935.0
 30
0.0
  0
VERTEX
  5
F4
100
AcDbEntity
  8
化粧台
  6
CONTINUOUS
 62
     3
100
AcDbVertex
100
AcDb2dVertex
 10
2404.0
 20
2955.0
 30
0.0
  0
SEQEND
  5
F5
100
AcDbEntity
  8
化粧台
  6
CONTINUOUS
 62
     3
  0
LINE
  5
F6
100
AcDbEntity
  8
化粧台
  6
CONTINUOUS
 62
     3
100
AcDbLine
 10
2405.741402
 20
2946.06465
 30
0.0
 11
2450.0
 21
2935.0
 31
0.0
  0
LINE
  5
F7
100
AcDbEntity
  8
化粧台
  6
CONTINUOUS
 62
     3
100
AcDbLine
 10
2450.0
 20
2935.0
 30
0.0
 11
2411.722293
 21
2959.8207
 31
0.0
  0
POLYLINE
  5
F8
100
AcDbEntity
  8
化粧台
  6
CONTINUOUS
 62
     3
100
AcDb2dPolyline
 66
     1
 10
0.0
 20
0.0
 30
0.0
 70
   128
  0
VERTEX
  5
F9
100
AcDbEntity
  8
化粧台
  6
CONTINUOUS
 62
     3
100
AcDbVertex
100
AcDb2dVertex
 10
1948.0
 20
948.5
 30
0.0
  0
VERTEX
  5
FA
100
AcDbEntity
  8
化粧台
  6
CONTINUOUS
 62
     3
100
AcDbVertex
100
AcDb2dVertex
 10
1929.0
 20
997.5
 30
0.0
  0
SEQEND
  5
FB
100
AcDbEntity
  8
化粧台
  6
CONTINUOUS
 62
     3
  0
LINE
  5
FC
100
AcDbEntity
  8
化粧台
  6
CONTINUOUS
 62
     3
100
AcDbLine
 10
1924.738537
 20
987.7448
 30
0.0
 11
1948.0
 21
948.5
 31
0.0
  0
LINE
  5
FD
100
AcDbEntity
  8
化粧台
  6
CONTINUOUS
 62
     3
100
AcDbLine
 10
1948.0
 20
948.5
 30
0.0
 11
1938.723956
 21
993.167718
 31
0.0
  0
LINE
  5
FE
100
AcDbEntity
  8
化粧台
  6
EXLTYPE4
 62
     6
100
AcDbLine
 10
318.0
 20
3973.0
 30
0.0
 11
1578.0
 21
3973.0
 31
0.0
  0
TEXT
  5
FF
100
AcDbEntity
  8
化粧台
  6
CONTINUOUS
 62
     2
100
AcDbText
 10
1479.000001
 20
3913.0
 30
0.0
 40
60.0
  1
W.L.
 41
0.4125
  7
EXCADSTD
 72
     5
 11
1569.7434
 21
3913.0
 31
0.0
100
AcDbText
  0
LINE
  5
100
100
AcDbEntity
  8
化粧台
  6
EXLTYPE4
 62
     6
100
AcDbLine
 10
1714.0
 20
948.5
 30
0.0
 11
305.0
 21
948.5
 31
0.0
  0
LINE
  5
101
100
AcDbEntity
  8
化粧台
  6
EXLTYPE4
 62
     6
100
AcDbLine
 10
2450.0
 20
948.5
 30
0.0
 11
1821.5
 21
948.5
 31
0.0
  0
TEXT
  5
102
100
AcDbEntity
  8
化粧台
  6
CONTINUOUS
 62
     2
100
AcDbText
 10
1821.5
 20
948.5
 30
0.0
 40
60.0
  1
F.L.
 41
0.4125
  7
EXCADSTD
 72
     5
 11
1912.2434
 21
948.5
 31
0.0
100
AcDbText
  0
TEXT
  5
103
100
AcDbEntity
  8
化粧台
  6
CONTINUOUS
 62
     2
100
AcDbText
 10
2450.0
 20
2971.000001
 30
0.0
 40
60.0
  1
W.L.
 50
90.0
 41
0.4125
  7
EXCADSTD
 72
     5
 11
2450.0
 21
3061.7434
 31
0.0
100
AcDbText
  0
LINE
  5
104
100
AcDbEntity
  8
化粧台
  6
EXLTYPE4
 62
     6
100
AcDbLine
 10
2450.0
 20
948.5
 30
0.0
 11
2450.0
 21
3069.0
 31
0.0
  0
ARC
  5
105
100
AcDbEntity
  8
化粧台
  6
CONTINUOUS
 62
     2
100
AcDbCircle
 10
1275.0
 20
3955.0
 30
0.0
 40
5.0
100
AcDbArc
 50
270.0
 51
0.0
  0
ARC
  5
106
100
AcDbEntity
  8
化粧台
  6
CONTINUOUS
 62
     2
100
AcDbCircle
 10
535.0
 20
3955.0
 30
0.0
 40
5.0
100
AcDbArc
 50
180.0
 51
270.0
  0
LINE
  5
107
100
AcDbEntity
  8
化粧台
  6
CONTINUOUS
 62
     2
100
AcDbLine
 10
530.0
 20
3973.0
 30
0.0
 11
1280.0
 21
3973.0
 31
0.0
  0
LINE
  5
108
100
AcDbEntity
  8
化粧台
  6
CONTINUOUS
 62
     2
100
AcDbLine
 10
535.0
 20
3950.0
 30
0.0
 11
1275.0
 21
3950.0
 31
0.0
  0
LINE
  5
109
100
AcDbEntity
  8
化粧台
  6
CONTINUOUS
 62
     2
100
AcDbLine
 10
530.0
 20
3973.0
 30
0.0
 11
530.0
 21
3522.598405
 31
0.0
  0
LINE
  5
10A
100
AcDbEntity
  8
化粧台
  6
CONTINUOUS
 62
     2
100
AcDbLine
 10
1280.0
 20
3973.0
 30
0.0
 11
1280.0
 21
3522.598405
 31
0.0
  0
LINE
  5
10B
100
AcDbEntity
  8
化粧台
  6
CONTINUOUS
 62
     2
100
AcDbLine
 10
575.0
 20
3946.0
 30
0.0
 11
575.0
 21
3566.715899
 31
0.0
  0
LINE
  5
10C
100
AcDbEntity
  8
化粧台
  6
CONTINUOUS
 62
     2
100
AcDbLine
 10
1235.0
 20
3946.0
 30
0.0
 11
1235.0
 21
3566.715899
 31
0.0
  0
ARC
  5
10D
100
AcDbEntity
  8
化粧台
  6
CONTINUOUS
 62
     2
100
AcDbCircle
 10
535.0
 20
3522.598405
 30
0.0
 40
5.0
100
AcDbArc
 50
180.0
 51
262.392898
  0
ARC
  5
10E
100
AcDbEntity
  8
化粧台
  6
CONTINUOUS
 62
     2
100
AcDbCircle
 10
905.0
 20
6293.0
 30
0.0
 40
2800.0
100
AcDbArc
 50
262.392898
 51
277.607102
  0
ARC
  5
10F
100
AcDbEntity
  8
化粧台
  6
CONTINUOUS
 62
     2
100
AcDbCircle
 10
1275.0
 20
3522.598405
 30
0.0
 40
5.0
100
AcDbArc
 50
277.607102
 51
0.0
  0
ARC
  5
110
100
AcDbEntity
  8
化粧台
  6
CONTINUOUS
 62
     2
100
AcDbCircle
 10
585.0
 20
3566.715899
 30
0.0
 40
10.0
100
AcDbArc
 50
180.0
 51
263.305489
  0
ARC
  5
111
100
AcDbEntity
  8
化粧台
  6
CONTINUOUS
 62
     2
100
AcDbCircle
 10
905.0
 20
6293.0
 30
0.0
 40
2755.0
100
AcDbArc
 50
263.305489
 51
276.694511
  0
ARC
  5
112
100
AcDbEntity
  8
化粧台
  6
CONTINUOUS
 62
     2
100
AcDbCircle
 10
1225.0
 20
3566.715899
 30
0.0
 40
10.0
100
AcDbArc
 50
276.694511
 51
0.0
  0
ARC
  5
113
100
AcDbEntity
  8
化粧台
  6
CONTINUOUS
 62
     2
100
AcDbCircle
 10
585.0
 20
3856.579602
 30
0.0
 40
10.0
100
AcDbArc
 50
83.354131
 51
180.0
  0
ARC
  5
114
100
AcDbEntity
  8
化粧台
  6
CONTINUOUS
 62
     2
100
AcDbCircle
 10
1225.0
 20
3856.579602
 30
0.0
 40
10.0
100
AcDbArc
 50
0.0
 51
96.645869
  0
LINE
  5
115
100
AcDbEntity
  8
化粧台
  6
CONTINUOUS
 62
     6
100
AcDbLine
 10
857.5
 20
3763.0
 30
0.0
 11
952.5
 21
3763.0
 31
0.0
  0
LINE
  5
116
100
AcDbEntity
  8
化粧台
  6
CONTINUOUS
 62
     6
100
AcDbLine
 10
633.0
 20
3973.0
 30
0.0
 11
635.0
 21
4005.5
 31
0.0
  0
LINE
  5
117
100
AcDbEntity
  8
化粧台
  6
CONTINUOUS
 62
     6
100
AcDbLine
 10
635.0
 20
4005.5
 30
0.0
 11
637.0
 21
3973.0
 31
0.0
  0
LINE
  5
118
100
AcDbEntity
  8
化粧台
  6
CONTINUOUS
 62
     6
100
AcDbLine
 10
635.0
 20
3963.0
 30
0.0
 11
635.0
 21
4015.5
 31
0.0
  0
LINE
  5
119
100
AcDbEntity
  8
化粧台
  6
CONTINUOUS
 62
     6
100
AcDbLine
 10
1177.0
 20
3973.0
 30
0.0
 11
1175.0
 21
4005.5
 31
0.0
  0
LINE
  5
11A
100
AcDbEntity
  8
化粧台
  6
CONTINUOUS
 62
     6
100
AcDbLine
 10
1175.0
 20
4005.5
 30
0.0
 11
1173.0
 21
3973.0
 31
0.0
  0
LINE
  5
11B
100
AcDbEntity
  8
化粧台
  6
CONTINUOUS
 62
     6
100
AcDbLine
 10
1175.0
 20
3963.0
 30
0.0
 11
1175.0
 21
4015.5
 31
0.0
  0
CIRCLE
  5
11C
100
AcDbEntity
  8
化粧台
  6
CONTINUOUS
 62
     6
100
AcDbCircle
 10
905.0
 20
3763.0
 30
0.0
 40
4.0
  0
ARC
  5
11D
100
AcDbEntity
  8
化粧台
  6
CONTINUOUS
 62
     6
100
AcDbCircle
 10
905.0
 20
3769.344289
 30
0.0
 40
7.5
100
AcDbArc
 50
302.230953
 51
237.769047
  0
CIRCLE
  5
11E
100
AcDbEntity
  8
化粧台
  6
CONTINUOUS
 62
     6
100
AcDbCircle
 10
916.365501
 20
3775.906164
 30
0.0
 40
3.0
  0
CIRCLE
  5
11F
100
AcDbEntity
  8
化粧台
  6
CONTINUOUS
 62
     6
100
AcDbCircle
 10
925.52877
 20
3781.19658
 30
0.0
 40
3.0
  0
CIRCLE
  5
120
100
AcDbEntity
  8
化粧台
  6
CONTINUOUS
 62
     6
100
AcDbCircle
 10
936.9
 20
3796.2
 30
0.0
 40
3.0
  0
CIRCLE
  5
121
100
AcDbEntity
  8
化粧台
  6
CONTINUOUS
 62
     6
100
AcDbCircle
 10
933.7
 20
3787.6
 30
0.0
 40
3.0
  0
CIRCLE
  5
122
100
AcDbEntity
  8
化粧台
  6
CONTINUOUS
 62
     6
100
AcDbCircle
 10
938.2
 20
3805.3
 30
0.0
 40
3.0
  0
CIRCLE
  5
123
100
AcDbEntity
  8
化粧台
  6
CONTINUOUS
 62
     6
100
AcDbCircle
 10
937.325514
 20
3814.346332
 30
0.0
 40
3.0
  0
CIRCLE
  5
124
100
AcDbEntity
  8
化粧台
  6
CONTINUOUS
 62
     6
100
AcDbCircle
 10
934.52132
 20
3822.47868
 30
0.0
 40
3.0
  0
CIRCLE
  5
125
100
AcDbEntity
  8
化粧台
  6
CONTINUOUS
 62
     6
100
AcDbCircle
 10
928.745399
 20
3829.81627
 30
0.0
 40
3.0
  0
LINE
  5
126
100
AcDbEntity
  8
化粧台
  6
CONTINUOUS
 62
     6
100
AcDbLine
 10
854.0
 20
3933.0
 30
0.0
 11
854.0
 21
3853.0
 31
0.0
  0
LINE
  5
127
100
AcDbEntity
  8
化粧台
  6
CONTINUOUS
 62
     6
100
AcDbLine
 10
956.0
 20
3933.0
 30
0.0
 11
956.0
 21
3853.0
 31
0.0
  0
LINE
  5
128
100
AcDbEntity
  8
化粧台
  6
EXLTYPE3
 62
     6
100
AcDbLine
 10
814.0
 20
3893.0
 30
0.0
 11
996.0
 21
3893.0
 31
0.0
  0
LINE
  5
129
100
AcDbEntity
  8
化粧台
  6
CONTINUOUS
 62
     6
100
AcDbLine
 10
794.5
 20
3981.0
 30
0.0
 11
815.5
 21
3981.0
 31
0.0
  0
LINE
  5
12A
100
AcDbEntity
  8
化粧台
  6
CONTINUOUS
 62
     6
100
AcDbLine
 10
815.5
 20
3973.0
 30
0.0
 11
815.5
 21
3981.0
 31
0.0
  0
LINE
  5
12B
100
AcDbEntity
  8
化粧台
  6
CONTINUOUS
 62
     6
100
AcDbLine
 10
794.5
 20
3973.0
 30
0.0
 11
794.5
 21
3981.0
 31
0.0
  0
LINE
  5
12C
100
AcDbEntity
  8
化粧台
  6
CONTINUOUS
 62
     6
100
AcDbLine
 10
805.0
 20
3958.0
 30
0.0
 11
805.0
 21
3996.0
 31
0.0
  0
LINE
  5
12D
100
AcDbEntity
  8
化粧台
  6
CONTINUOUS
 62
     6
100
AcDbLine
 10
994.5
 20
3981.0
 30
0.0
 11
1015.5
 21
3981.0
 31
0.0
  0
LINE
  5
12E
100
AcDbEntity
  8
化粧台
  6
CONTINUOUS
 62
     6
100
AcDbLine
 10
1015.5
 20
3973.0
 30
0.0
 11
1015.5
 21
3981.0
 31
0.0
  0
LINE
  5
12F
100
AcDbEntity
  8
化粧台
  6
CONTINUOUS
 62
     6
100
AcDbLine
 10
994.5
 20
3973.0
 30
0.0
 11
994.5
 21
3981.0
 31
0.0
  0
LINE
  5
130
100
AcDbEntity
  8
化粧台
  6
CONTINUOUS
 62
     6
100
AcDbLine
 10
1005.0
 20
3958.0
 30
0.0
 11
1005.0
 21
3996.0
 31
0.0
  0
LINE
  5
131
100
AcDbEntity
  8
化粧台
  6
CONTINUOUS
 62
     6
100
AcDbLine
 10
889.0
 20
3993.0
 30
0.0
 11
921.0
 21
3993.0
 31
0.0
  0
LINE
  5
132
100
AcDbEntity
  8
化粧台
  6
CONTINUOUS
 62
     6
100
AcDbLine
 10
889.0
 20
3993.0
 30
0.0
 11
889.0
 21
3973.0
 31
0.0
  0
LINE
  5
133
100
AcDbEntity
  8
化粧台
  6
CONTINUOUS
 62
     6
100
AcDbLine
 10
921.0
 20
3993.0
 30
0.0
 11
921.0
 21
3973.0
 31
0.0
  0
LINE
  5
134
100
AcDbEntity
  8
化粧台
  6
EXLTYPE3
 62
     6
100
AcDbLine
 10
905.0
 20
4008.0
 30
0.0
 11
905.0
 21
3478.0
 31
0.0
  0
LINE
  5
135
100
AcDbEntity
  8
化粧台
  6
CONTINUOUS
 62
     2
100
AcDbLine
 10
561.5
 20
1613.5
 30
0.0
 11
561.5
 21
1598.5
 31
0.0
  0
LINE
  5
136
100
AcDbEntity
  8
化粧台
  6
EXLTYPE2
 62
     6
100
AcDbLine
 10
561.5
 20
1598.5
 30
0.0
 11
561.5
 21
1043.5
 31
0.0
  0
LINE
  5
137
100
AcDbEntity
  8
化粧台
  6
CONTINUOUS
 62
     2
100
AcDbLine
 10
1248.5
 20
1613.5
 30
0.0
 11
1248.5
 21
1598.5
 31
0.0
  0
LINE
  5
138
100
AcDbEntity
  8
化粧台
  6
EXLTYPE2
 62
     6
100
AcDbLine
 10
1248.5
 20
1598.5
 30
0.0
 11
1248.5
 21
1043.5
 31
0.0
  0
LINE
  5
139
100
AcDbEntity
  8
化粧台
  6
CONTINUOUS
 62
     2
100
AcDbLine
 10
1260.0
 20
1598.5
 30
0.0
 11
1260.0
 21
1043.5
 31
0.0
  0
LINE
  5
13A
100
AcDbEntity
  8
化粧台
  6
CONTINUOUS
 62
     2
100
AcDbLine
 10
906.0
 20
1598.5
 30
0.0
 11
906.0
 21
1043.5
 31
0.0
  0
LINE
  5
13B
100
AcDbEntity
  8
化粧台
  6
CONTINUOUS
 62
     2
100
AcDbLine
 10
904.0
 20
1598.5
 30
0.0
 11
904.0
 21
1043.5
 31
0.0
  0
LINE
  5
13C
100
AcDbEntity
  8
化粧台
  6
CONTINUOUS
 62
     2
100
AcDbLine
 10
550.0
 20
1598.5
 30
0.0
 11
550.0
 21
1043.5
 31
0.0
  0
LINE
  5
13D
100
AcDbEntity
  8
化粧台
  6
CONTINUOUS
 62
     2
100
AcDbLine
 10
906.0
 20
1598.5
 30
0.0
 11
1260.0
 21
1598.5
 31
0.0
  0
LINE
  5
13E
100
AcDbEntity
  8
化粧台
  6
CONTINUOUS
 62
     2
100
AcDbLine
 10
904.0
 20
1598.5
 30
0.0
 11
550.0
 21
1598.5
 31
0.0
  0
LINE
  5
13F
100
AcDbEntity
  8
化粧台
  6
EXLTYPE2
 62
     2
100
AcDbLine
 10
937.13716
 20
1538.5
 30
0.0
 11
872.86284
 21
1538.5
 31
0.0
  0
LINE
  5
140
100
AcDbEntity
  8
化粧台
  6
EXLTYPE2
 62
     6
100
AcDbLine
 10
905.0
 20
1511.0
 30
0.0
 11
905.0
 21
1528.0
 31
0.0
  0
LINE
  5
141
100
AcDbEntity
  8
化粧台
  6
EXLTYPE2
 62
     6
100
AcDbLine
 10
870.0
 20
1528.0
 30
0.0
 11
940.0
 21
1528.0
 31
0.0
  0
ARC
  5
142
100
AcDbEntity
  8
化粧台
  6
EXLTYPE2
 62
     6
100
AcDbCircle
 10
929.251838
 20
1512.385595
 30
0.0
 40
4.385595
100
AcDbArc
 50
198.417706
 51
270.0
  0
LINE
  5
143
100
AcDbEntity
  8
化粧台
  6
EXLTYPE2
 62
     6
100
AcDbLine
 10
925.09088
 20
1511.0
 30
0.0
 11
925.09088
 21
1528.0
 31
0.0
  0
ARC
  5
144
100
AcDbEntity
  8
化粧台
  6
EXLTYPE2
 62
     6
100
AcDbCircle
 10
915.04544
 20
1526.318478
 30
0.0
 40
18.318478
100
AcDbArc
 50
236.74423
 51
303.25577
  0
ARC
  5
145
100
AcDbEntity
  8
化粧台
  6
EXLTYPE2
 62
     6
100
AcDbCircle
 10
894.95456
 20
1526.318478
 30
0.0
 40
18.318478
100
AcDbArc
 50
236.74423
 51
303.25577
  0
LINE
  5
146
100
AcDbEntity
  8
化粧台
  6
EXLTYPE2
 62
     6
100
AcDbLine
 10
884.90912
 20
1511.0
 30
0.0
 11
884.90912
 21
1528.0
 31
0.0
  0
ARC
  5
147
100
AcDbEntity
  8
化粧台
  6
EXLTYPE2
 62
     6
100
AcDbCircle
 10
880.748162
 20
1512.385595
 30
0.0
 40
4.385595
100
AcDbArc
 50
270.0
 51
341.582294
  0
LINE
  5
148
100
AcDbEntity
  8
化粧台
  6
EXLTYPE2
 62
     6
100
AcDbLine
 10
940.0
 20
1535.5
 30
0.0
 11
935.813953
 21
1538.5
 31
0.0
  0
LINE
  5
149
100
AcDbEntity
  8
化粧台
  6
EXLTYPE2
 62
     6
100
AcDbLine
 10
870.0
 20
1535.5
 30
0.0
 11
874.186047
 21
1538.5
 31
0.0
  0
LINE
  5
14A
100
AcDbEntity
  8
化粧台
  6
EXLTYPE2
 62
     6
100
AcDbLine
 10
940.0
 20
1535.5
 30
0.0
 11
940.0
 21
1528.0
 31
0.0
  0
LINE
  5
14B
100
AcDbEntity
  8
化粧台
  6
EXLTYPE2
 62
     6
100
AcDbLine
 10
870.0
 20
1535.5
 30
0.0
 11
870.0
 21
1528.0
 31
0.0
  0
LINE
  5
14C
100
AcDbEntity
  8
化粧台
  6
EXLTYPE2
 62
     6
100
AcDbLine
 10
933.412795
 20
1511.0
 30
0.0
 11
931.25
 21
1508.0
 31
0.0
  0
LINE
  5
14D
100
AcDbEntity
  8
化粧台
  6
EXLTYPE2
 62
     6
100
AcDbLine
 10
933.412795
 20
1528.0
 30
0.0
 11
933.412795
 21
1511.0
 31
0.0
  0
LINE
  5
14E
100
AcDbEntity
  8
化粧台
  6
EXLTYPE2
 62
     6
100
AcDbLine
 10
931.25
 20
1508.0
 30
0.0
 11
931.25
 21
1483.5
 31
0.0
  0
LINE
  5
14F
100
AcDbEntity
  8
化粧台
  6
EXLTYPE2
 62
     6
100
AcDbLine
 10
876.587205
 20
1511.0
 30
0.0
 11
878.75
 21
1508.0
 31
0.0
  0
LINE
  5
150
100
AcDbEntity
  8
化粧台
  6
EXLTYPE2
 62
     6
100
AcDbLine
 10
876.587205
 20
1528.0
 30
0.0
 11
876.587205
 21
1511.0
 31
0.0
  0
LINE
  5
151
100
AcDbEntity
  8
化粧台
  6
EXLTYPE2
 62
     6
100
AcDbLine
 10
878.75
 20
1508.0
 30
0.0
 11
878.75
 21
1483.5
 31
0.0
  0
LINE
  5
152
100
AcDbEntity
  8
化粧台
  6
EXLTYPE2
 62
     6
100
AcDbLine
 10
878.75
 20
1508.0
 30
0.0
 11
931.25
 21
1508.0
 31
0.0
  0
LINE
  5
153
100
AcDbEntity
  8
化粧台
  6
EXLTYPE2
 62
     2
100
AcDbLine
 10
1216.021588
 20
1562.353759
 30
0.0
 11
1221.923077
 21
1613.5
 31
0.0
  0
ARC
  5
154
100
AcDbEntity
  8
化粧台
  6
EXLTYPE2
 62
     2
100
AcDbCircle
 10
1206.087498
 20
1563.5
 30
0.0
 40
10.0
100
AcDbArc
 50
270.0
 51
353.418055
  0
LINE
  5
155
100
AcDbEntity
  8
化粧台
  6
EXLTYPE2
 62
     2
100
AcDbLine
 10
1151.930005
 20
1553.5
 30
0.0
 11
1206.087498
 21
1553.5
 31
0.0
  0
ARC
  5
156
100
AcDbEntity
  8
化粧台
  6
EXLTYPE2
 62
     2
100
AcDbCircle
 10
1151.930005
 20
1563.5
 30
0.0
 40
10.0
100
AcDbArc
 50
200.556045
 51
270.0
  0
LINE
  5
157
100
AcDbEntity
  8
化粧台
  6
EXLTYPE2
 62
     2
100
AcDbLine
 10
1142.566713
 20
1559.988766
 30
0.0
 11
1122.5
 21
1613.5
 31
0.0
  0
ARC
  5
158
100
AcDbEntity
  8
化粧台
  6
EXLTYPE2
 62
     2
100
AcDbCircle
 10
895.083254
 20
2184.395115
 30
0.0
 40
609.0
100
AcDbArc
 50
280.0
 51
290.375591
  0
LINE
  5
159
100
AcDbEntity
  8
化粧台
  6
EXLTYPE2
 62
     2
100
AcDbLine
 10
952.964845
 20
1576.206395
 30
0.0
 11
1000.834994
 21
1584.647194
 31
0.0
  0
ARC
  5
15A
100
AcDbEntity
  8
化粧台
  6
EXLTYPE2
 62
     2
100
AcDbCircle
 10
954.527678
 20
1567.343125
 30
0.0
 40
9.0
100
AcDbArc
 50
100.0
 51
172.213817
  0
LINE
  5
15B
100
AcDbEntity
  8
化粧台
  6
EXLTYPE2
 62
     2
100
AcDbLine
 10
945.610653
 20
1568.562415
 30
0.0
 11
942.091063
 21
1542.822617
 31
0.0
  0
ARC
  5
15C
100
AcDbEntity
  8
化粧台
  6
EXLTYPE2
 62
     2
100
AcDbCircle
 10
937.13716
 20
1543.5
 30
0.0
 40
5.0
100
AcDbArc
 50
270.0
 51
352.213817
  0
ARC
  5
15D
100
AcDbEntity
  8
化粧台
  6
EXLTYPE2
 62
     2
100
AcDbCircle
 10
872.86284
 20
1543.5
 30
0.0
 40
5.0
100
AcDbArc
 50
187.786183
 51
270.0
  0
LINE
  5
15E
100
AcDbEntity
  8
化粧台
  6
EXLTYPE2
 62
     2
100
AcDbLine
 10
864.389347
 20
1568.562415
 30
0.0
 11
867.908937
 21
1542.822617
 31
0.0
  0
ARC
  5
15F
100
AcDbEntity
  8
化粧台
  6
EXLTYPE2
 62
     2
100
AcDbCircle
 10
855.472322
 20
1567.343125
 30
0.0
 40
9.0
100
AcDbArc
 50
7.786183
 51
80.0
  0
LINE
  5
160
100
AcDbEntity
  8
化粧台
  6
EXLTYPE2
 62
     2
100
AcDbLine
 10
857.035155
 20
1576.206395
 30
0.0
 11
809.165006
 21
1584.647194
 31
0.0
  0
ARC
  5
161
100
AcDbEntity
  8
化粧台
  6
EXLTYPE2
 62
     2
100
AcDbCircle
 10
914.916746
 20
2184.395115
 30
0.0
 40
609.0
100
AcDbArc
 50
249.624409
 51
260.0
  0
LINE
  5
162
100
AcDbEntity
  8
化粧台
  6
EXLTYPE2
 62
     2
100
AcDbLine
 10
667.433287
 20
1559.988766
 30
0.0
 11
687.5
 21
1613.5
 31
0.0
  0
ARC
  5
163
100
AcDbEntity
  8
化粧台
  6
EXLTYPE2
 62
     2
100
AcDbCircle
 10
658.069995
 20
1563.5
 30
0.0
 40
10.0
100
AcDbArc
 50
270.0
 51
339.443955
  0
LINE
  5
164
100
AcDbEntity
  8
化粧台
  6
EXLTYPE2
 62
     2
100
AcDbLine
 10
658.069995
 20
1553.5
 30
0.0
 11
603.912502
 21
1553.5
 31
0.0
  0
ARC
  5
165
100
AcDbEntity
  8
化粧台
  6
EXLTYPE2
 62
     2
100
AcDbCircle
 10
603.912502
 20
1563.5
 30
0.0
 40
10.0
100
AcDbArc
 50
186.581945
 51
270.0
  0
LINE
  5
166
100
AcDbEntity
  8
化粧台
  6
EXLTYPE2
 62
     2
100
AcDbLine
 10
593.978412
 20
1562.353759
 30
0.0
 11
588.076923
 21
1613.5
 31
0.0
  0
LINE
  5
167
100
AcDbEntity
  8
化粧台
  6
CONTINUOUS
 62
     2
100
AcDbLine
 10
546.5
 20
1613.5
 30
0.0
 11
546.5
 21
948.5
 31
0.0
  0
LINE
  5
168
100
AcDbEntity
  8
化粧台
  6
CONTINUOUS
 62
     2
100
AcDbLine
 10
1263.5
 20
1613.5
 30
0.0
 11
1263.5
 21
948.5
 31
0.0
  0
LINE
  5
169
100
AcDbEntity
  8
化粧台
  6
CONTINUOUS
 62
     2
100
AcDbLine
 10
1272.118616
 20
1613.5
 30
0.0
 11
537.881384
 21
1613.5
 31
0.0
  0
ARC
  5
16A
100
AcDbEntity
  8
化粧台
  6
CONTINUOUS
 62
     2
100
AcDbCircle
 10
1274.759885
 20
1728.5
 30
0.0
 40
5.0
100
AcDbArc
 50
358.624505
 51
91.549446
  0
ARC
  5
16B
100
AcDbEntity
  8
化粧台
  6
CONTINUOUS
 62
     2
100
AcDbCircle
 10
1272.118616
 20
1618.5
 30
0.0
 40
5.0
100
AcDbArc
 50
270.0
 51
358.624505
  0
ARC
  5
16C
100
AcDbEntity
  8
化粧台
  6
CONTINUOUS
 62
     2
100
AcDbCircle
 10
1275.0
 20
1738.5
 30
0.0
 40
5.0
100
AcDbArc
 50
358.624505
 51
90.0
  0
LINE
  5
16D
100
AcDbEntity
  8
化粧台
  6
CONTINUOUS
 62
     2
100
AcDbLine
 10
1279.998559
 20
1738.379977
 30
0.0
 11
1277.117176
 21
1618.379977
 31
0.0
  0
ARC
  5
16E
100
AcDbEntity
  8
化粧台
  6
CONTINUOUS
 62
     2
100
AcDbCircle
 10
535.240115
 20
1728.5
 30
0.0
 40
5.0
100
AcDbArc
 50
88.450554
 51
181.375495
  0
ARC
  5
16F
100
AcDbEntity
  8
化粧台
  6
CONTINUOUS
 62
     2
100
AcDbCircle
 10
537.881384
 20
1618.5
 30
0.0
 40
5.0
100
AcDbArc
 50
181.375495
 51
270.0
  0
ARC
  5
170
100
AcDbEntity
  8
化粧台
  6
CONTINUOUS
 62
     2
100
AcDbCircle
 10
535.0
 20
1738.5
 30
0.0
 40
5.0
100
AcDbArc
 50
90.0
 51
181.375495
  0
LINE
  5
171
100
AcDbEntity
  8
化粧台
  6
CONTINUOUS
 62
     2
100
AcDbLine
 10
530.001441
 20
1738.379977
 30
0.0
 11
532.882824
 21
1618.379977
 31
0.0
  0
LINE
  5
172
100
AcDbEntity
  8
化粧台
  6
CONTINUOUS
 62
     6
100
AcDbLine
 10
640.5
 20
1503.5
 30
0.0
 11
629.5
 21
1503.5
 31
0.0
  0
LINE
  5
173
100
AcDbEntity
  8
化粧台
  6
CONTINUOUS
 62
     6
100
AcDbLine
 10
635.0
 20
1509.0
 30
0.0
 11
635.0
 21
1498.0
 31
0.0
  0
CIRCLE
  5
174
100
AcDbEntity
  8
化粧台
  6
CONTINUOUS
 62
     6
100
AcDbCircle
 10
635.0
 20
1503.5
 30
0.0
 40
2.5
  0
LINE
  5
175
100
AcDbEntity
  8
化粧台
  6
CONTINUOUS
 62
     6
100
AcDbLine
 10
1180.5
 20
1503.5
 30
0.0
 11
1169.5
 21
1503.5
 31
0.0
  0
LINE
  5
176
100
AcDbEntity
  8
化粧台
  6
CONTINUOUS
 62
     6
100
AcDbLine
 10
1175.0
 20
1509.0
 30
0.0
 11
1175.0
 21
1498.0
 31
0.0
  0
CIRCLE
  5
177
100
AcDbEntity
  8
化粧台
  6
CONTINUOUS
 62
     6
100
AcDbCircle
 10
1175.0
 20
1503.5
 30
0.0
 40
2.5
  0
LINE
  5
178
100
AcDbEntity
  8
化粧台
  6
EXLTYPE2
 62
     6
100
AcDbLine
 10
1248.5
 20
1056.25
 30
0.0
 11
561.5
 21
1056.25
 31
0.0
  0
LINE
  5
179
100
AcDbEntity
  8
化粧台
  6
CONTINUOUS
 62
     2
100
AcDbLine
 10
1248.5
 20
1038.75
 30
0.0
 11
561.5
 21
1038.75
 31
0.0
  0
LINE
  5
17A
100
AcDbEntity
  8
化粧台
  6
CONTINUOUS
 62
     2
100
AcDbLine
 10
1248.5
 20
952.5
 30
0.0
 11
561.5
 21
952.5
 31
0.0
  0
LINE
  5
17B
100
AcDbEntity
  8
化粧台
  6
CONTINUOUS
 62
     2
100
AcDbLine
 10
561.5
 20
1043.5
 30
0.0
 11
561.5
 21
948.5
 31
0.0
  0
LINE
  5
17C
100
AcDbEntity
  8
化粧台
  6
CONTINUOUS
 62
     2
100
AcDbLine
 10
904.0
 20
1043.5
 30
0.0
 11
550.0
 21
1043.5
 31
0.0
  0
LINE
  5
17D
100
AcDbEntity
  8
化粧台
  6
CONTINUOUS
 62
     2
100
AcDbLine
 10
561.5
 20
952.0
 30
0.0
 11
546.5
 21
952.0
 31
0.0
  0
LINE
  5
17E
100
AcDbEntity
  8
化粧台
  6
CONTINUOUS
 62
     2
100
AcDbLine
 10
546.5
 20
948.5
 30
0.0
 11
561.5
 21
948.5
 31
0.0
  0
LINE
  5
17F
100
AcDbEntity
  8
化粧台
  6
CONTINUOUS
 62
     2
100
AcDbLine
 10
1248.5
 20
1043.5
 30
0.0
 11
1248.5
 21
948.5
 31
0.0
  0
LINE
  5
180
100
AcDbEntity
  8
化粧台
  6
CONTINUOUS
 62
     2
100
AcDbLine
 10
906.0
 20
1043.5
 30
0.0
 11
1260.0
 21
1043.5
 31
0.0
  0
LINE
  5
181
100
AcDbEntity
  8
化粧台
  6
CONTINUOUS
 62
     2
100
AcDbLine
 10
1248.5
 20
952.0
 30
0.0
 11
1263.5
 21
952.0
 31
0.0
  0
LINE
  5
182
100
AcDbEntity
  8
化粧台
  6
CONTINUOUS
 62
     2
100
AcDbLine
 10
1263.5
 20
948.5
 30
0.0
 11
1248.5
 21
948.5
 31
0.0
  0
LINE
  5
183
100
AcDbEntity
  8
化粧台
  6
EXLTYPE2
 62
     6
100
AcDbLine
 10
931.25
 20
1483.5
 30
0.0
 11
920.75
 21
1474.5
 31
0.0
  0
LINE
  5
184
100
AcDbEntity
  8
化粧台
  6
EXLTYPE2
 62
     6
100
AcDbLine
 10
878.75
 20
1483.5
 30
0.0
 11
889.25
 21
1474.5
 31
0.0
  0
LINE
  5
185
100
AcDbEntity
  8
化粧台
  6
EXLTYPE2
 62
     6
100
AcDbLine
 10
878.75
 20
1483.5
 30
0.0
 11
931.25
 21
1483.5
 31
0.0
  0
LINE
  5
186
100
AcDbEntity
  8
化粧台
  6
EXLTYPE2
 62
     6
100
AcDbLine
 10
889.25
 20
1474.5
 30
0.0
 11
920.75
 21
1474.5
 31
0.0
  0
LINE
  5
187
100
AcDbEntity
  8
化粧台
  6
EXLTYPE2
 62
     6
100
AcDbLine
 10
923.25
 20
1446.7
 30
0.0
 11
923.25
 21
1406.611864
 31
0.0
  0
LINE
  5
188
100
AcDbEntity
  8
化粧台
  6
EXLTYPE2
 62
     6
100
AcDbLine
 10
886.75
 20
1446.7
 30
0.0
 11
886.75
 21
1406.611864
 31
0.0
  0
LINE
  5
189
100
AcDbEntity
  8
化粧台
  6
EXLTYPE2
 62
     6
100
AcDbLine
 10
923.25
 20
1406.611864
 30
0.0
 11
922.0
 21
1405.611864
 31
0.0
  0
LINE
  5
18A
100
AcDbEntity
  8
化粧台
  6
EXLTYPE2
 62
     6
100
AcDbLine
 10
888.0
 20
1405.611864
 30
0.0
 11
886.75
 21
1406.611864
 31
0.0
  0
LINE
  5
18B
100
AcDbEntity
  8
化粧台
  6
EXLTYPE2
 62
     6
100
AcDbLine
 10
922.0
 20
1405.611864
 30
0.0
 11
888.0
 21
1405.611864
 31
0.0
  0
LINE
  5
18C
100
AcDbEntity
  8
化粧台
  6
EXLTYPE2
 62
     6
100
AcDbLine
 10
929.25
 20
1446.7
 30
0.0
 11
880.75
 21
1446.7
 31
0.0
  0
LINE
  5
18D
100
AcDbEntity
  8
化粧台
  6
EXLTYPE2
 62
     6
100
AcDbLine
 10
929.25
 20
1461.5
 30
0.0
 11
929.25
 21
1446.7
 31
0.0
  0
LINE
  5
18E
100
AcDbEntity
  8
化粧台
  6
EXLTYPE2
 62
     6
100
AcDbLine
 10
926.25
 20
1464.5
 30
0.0
 11
883.75
 21
1464.5
 31
0.0
  0
LINE
  5
18F
100
AcDbEntity
  8
化粧台
  6
EXLTYPE2
 62
     6
100
AcDbLine
 10
880.75
 20
1461.5
 30
0.0
 11
880.75
 21
1446.7
 31
0.0
  0
ARC
  5
190
100
AcDbEntity
  8
化粧台
  6
EXLTYPE2
 62
     6
100
AcDbCircle
 10
926.25
 20
1461.5
 30
0.0
 40
3.0
100
AcDbArc
 50
0.0
 51
90.0
  0
ARC
  5
191
100
AcDbEntity
  8
化粧台
  6
EXLTYPE2
 62
     6
100
AcDbCircle
 10
883.75
 20
1461.5
 30
0.0
 40
3.0
100
AcDbArc
 50
90.0
 51
180.0
  0
LINE
  5
192
100
AcDbEntity
  8
化粧台
  6
EXLTYPE2
 62
     6
100
AcDbLine
 10
888.0
 20
1405.611864
 30
0.0
 11
888.0
 21
1371.986862
 31
0.0
  0
LINE
  5
193
100
AcDbEntity
  8
化粧台
  6
EXLTYPE2
 62
     6
100
AcDbLine
 10
841.223169
 20
1408.811312
 30
0.0
 11
841.223169
 21
1394.011312
 31
0.0
  0
ARC
  5
194
100
AcDbEntity
  8
化粧台
  6
EXLTYPE2
 62
     6
100
AcDbCircle
 10
844.223169
 20
1408.811312
 30
0.0
 40
3.0
100
AcDbArc
 50
90.0
 51
180.0
  0
LINE
  5
195
100
AcDbEntity
  8
化粧台
  6
EXLTYPE2
 62
     6
100
AcDbLine
 10
883.723169
 20
1394.011312
 30
0.0
 11
883.723169
 21
1371.986862
 31
0.0
  0
LINE
  5
196
100
AcDbEntity
  8
化粧台
  6
EXLTYPE2
 62
     6
100
AcDbLine
 10
847.223169
 20
1394.011312
 30
0.0
 11
847.223169
 21
1365.911862
 31
0.0
  0
LINE
  5
197
100
AcDbEntity
  8
化粧台
  6
EXLTYPE2
 62
     6
100
AcDbLine
 10
922.0
 20
1405.611864
 30
0.0
 11
922.0
 21
1373.918262
 31
0.0
  0
ARC
  5
198
100
AcDbEntity
  8
化粧台
  6
EXLTYPE2
 62
     6
100
AcDbCircle
 10
885.236585
 20
1442.148448
 30
0.0
 40
3.763415
100
AcDbArc
 50
66.288047
 51
180.0
  0
LINE
  5
199
100
AcDbEntity
  8
化粧台
  6
EXLTYPE2
 62
     6
100
AcDbLine
 10
881.473169
 20
1442.148448
 30
0.0
 11
881.473169
 21
1411.811312
 31
0.0
  0
LINE
  5
19A
100
AcDbEntity
  8
化粧台
  6
EXLTYPE2
 62
     6
100
AcDbLine
 10
849.473169
 20
1442.148448
 30
0.0
 11
849.473169
 21
1411.811312
 31
0.0
  0
LINE
  5
19B
100
AcDbEntity
  8
化粧台
  6
EXLTYPE2
 62
     6
100
AcDbLine
 10
886.75
 20
1411.811312
 30
0.0
 11
844.223169
 21
1411.811312
 31
0.0
  0
LINE
  5
19C
100
AcDbEntity
  8
化粧台
  6
EXLTYPE2
 62
     6
100
AcDbLine
 10
888.0
 20
1394.011312
 30
0.0
 11
841.223169
 21
1394.011312
 31
0.0
  0
ARC
  5
19D
100
AcDbEntity
  8
化粧台
  6
EXLTYPE2
 62
     6
100
AcDbCircle
 10
885.236585
 20
1442.148448
 30
0.0
 40
35.763415
100
AcDbArc
 50
89.947251
 51
180.0
  0
LINE
  5
19E
100
AcDbEntity
  8
化粧台
  6
EXLTYPE2
 62
     6
100
AcDbLine
 10
889.25
 20
1474.5
 30
0.0
 11
889.25
 21
1464.5
 31
0.0
  0
LINE
  5
19F
100
AcDbEntity
  8
化粧台
  6
EXLTYPE2
 62
     6
100
AcDbLine
 10
920.75
 20
1474.5
 30
0.0
 11
920.75
 21
1464.5
 31
0.0
  0
LINE
  5
1A0
100
AcDbEntity
  8
化粧台
  6
EXLTYPE2
 62
     6
100
AcDbLine
 10
938.500004
 20
988.500002
 30
0.0
 11
938.500004
 21
969.0
 31
0.0
  0
ARC
  5
1A1
100
AcDbEntity
  8
化粧台
  6
EXLTYPE2
 62
     6
100
AcDbCircle
 10
938.000004
 20
969.0
 30
0.0
 40
0.5
100
AcDbArc
 50
270.0
 51
0.0
  0
LINE
  5
1A2
100
AcDbEntity
  8
化粧台
  6
EXLTYPE2
 62
     6
100
AcDbLine
 10
871.499996
 20
988.500002
 30
0.0
 11
871.499996
 21
969.0
 31
0.0
  0
ARC
  5
1A3
100
AcDbEntity
  8
化粧台
  6
EXLTYPE2
 62
     6
100
AcDbCircle
 10
871.999996
 20
969.0
 30
0.0
 40
0.5
100
AcDbArc
 50
180.0
 51
270.0
  0
LINE
  5
1A4
100
AcDbEntity
  8
化粧台
  6
EXLTYPE2
 62
     6
100
AcDbLine
 10
938.000004
 20
968.5
 30
0.0
 11
871.999996
 21
968.5
 31
0.0
  0
LINE
  5
1A5
100
AcDbEntity
  8
化粧台
  6
EXLTYPE2
 62
     6
100
AcDbLine
 10
932.0
 20
1003.500004
 30
0.0
 11
932.0
 21
992.500002
 31
0.0
  0
ARC
  5
1A6
100
AcDbEntity
  8
化粧台
  6
EXLTYPE2
 62
     6
100
AcDbCircle
 10
929.0
 20
1003.500004
 30
0.0
 40
3.0
100
AcDbArc
 50
359.999995
 51
89.999997
  0
ARC
  5
1A7
100
AcDbEntity
  8
化粧台
  6
EXLTYPE2
 62
     6
100
AcDbCircle
 10
933.0
 20
992.500002
 30
0.0
 40
1.0
100
AcDbArc
 50
180.0
 51
270.0
  0
ARC
  5
1A8
100
AcDbEntity
  8
化粧台
  6
EXLTYPE2
 62
     6
100
AcDbCircle
 10
935.500004
 20
988.500002
 30
0.0
 40
3.0
100
AcDbArc
 50
359.999995
 51
89.999997
  0
LINE
  5
1A9
100
AcDbEntity
  8
化粧台
  6
EXLTYPE2
 62
     6
100
AcDbLine
 10
927.999996
 20
1024.346519
 30
0.0
 11
927.999996
 21
1008.54652
 31
0.0
  0
ARC
  5
1AA
100
AcDbEntity
  8
化粧台
  6
EXLTYPE2
 62
     6
100
AcDbCircle
 10
925.999996
 20
1024.346519
 30
0.0
 40
2.0
100
AcDbArc
 50
0.000009
 51
90.000004
  0
LINE
  5
1AB
100
AcDbEntity
  8
化粧台
  6
EXLTYPE2
 62
     6
100
AcDbLine
 10
878.0
 20
1003.500004
 30
0.0
 11
878.0
 21
992.500002
 31
0.0
  0
ARC
  5
1AC
100
AcDbEntity
  8
化粧台
  6
EXLTYPE2
 62
     6
100
AcDbCircle
 10
881.0
 20
1003.500004
 30
0.0
 40
3.0
100
AcDbArc
 50
90.000003
 51
180.000005
  0
ARC
  5
1AD
100
AcDbEntity
  8
化粧台
  6
EXLTYPE2
 62
     6
100
AcDbCircle
 10
877.0
 20
992.500002
 30
0.0
 40
1.0
100
AcDbArc
 50
270.0
 51
0.0
  0
ARC
  5
1AE
100
AcDbEntity
  8
化粧台
  6
EXLTYPE2
 62
     6
100
AcDbCircle
 10
874.499996
 20
988.500002
 30
0.0
 40
3.0
100
AcDbArc
 50
90.000003
 51
180.000005
  0
LINE
  5
1AF
100
AcDbEntity
  8
化粧台
  6
EXLTYPE2
 62
     6
100
AcDbLine
 10
882.000004
 20
1024.346519
 30
0.0
 11
882.000004
 21
1008.54652
 31
0.0
  0
ARC
  5
1B0
100
AcDbEntity
  8
化粧台
  6
EXLTYPE2
 62
     6
100
AcDbCircle
 10
884.000004
 20
1024.346519
 30
0.0
 40
2.0
100
AcDbArc
 50
89.999996
 51
179.999991
  0
LINE
  5
1B1
100
AcDbEntity
  8
化粧台
  6
EXLTYPE2
 62
     6
100
AcDbLine
 10
925.999996
 20
1026.346519
 30
0.0
 11
884.000004
 21
1026.346519
 31
0.0
  0
LINE
  5
1B2
100
AcDbEntity
  8
化粧台
  6
EXLTYPE2
 62
     6
100
AcDbLine
 10
927.999996
 20
1008.54652
 30
0.0
 11
882.000004
 21
1008.54652
 31
0.0
  0
LINE
  5
1B3
100
AcDbEntity
  8
化粧台
  6
EXLTYPE2
 62
     6
100
AcDbLine
 10
929.0
 20
1006.500004
 30
0.0
 11
881.0
 21
1006.500004
 31
0.0
  0
LINE
  5
1B4
100
AcDbEntity
  8
化粧台
  6
EXLTYPE2
 62
     6
100
AcDbLine
 10
935.500004
 20
991.500002
 30
0.0
 11
874.499996
 21
991.500002
 31
0.0
  0
LINE
  5
1B5
100
AcDbEntity
  8
化粧台
  6
EXLTYPE2
 62
     6
100
AcDbLine
 10
900.236585
 20
1332.611861
 30
0.0
 11
870.236585
 21
1332.611861
 31
0.0
  0
LINE
  5
1B6
100
AcDbEntity
  8
化粧台
  6
EXLTYPE2
 62
     6
100
AcDbLine
 10
900.236585
 20
1335.381771
 30
0.0
 11
870.236585
 21
1335.381771
 31
0.0
  0
LINE
  5
1B7
100
AcDbEntity
  8
化粧台
  6
EXLTYPE2
 62
     6
100
AcDbLine
 10
900.236585
 20
1335.381771
 30
0.0
 11
900.236585
 21
1320.111865
 31
0.0
  0
LINE
  5
1B8
100
AcDbEntity
  8
化粧台
  6
EXLTYPE2
 62
     6
100
AcDbLine
 10
898.736585
 20
1318.611865
 30
0.0
 11
871.736585
 21
1318.611865
 31
0.0
  0
LINE
  5
1B9
100
AcDbEntity
  8
化粧台
  6
EXLTYPE2
 62
     6
100
AcDbLine
 10
870.236585
 20
1335.381771
 30
0.0
 11
870.236585
 21
1320.111865
 31
0.0
  0
ARC
  5
1BA
100
AcDbEntity
  8
化粧台
  6
EXLTYPE2
 62
     6
100
AcDbCircle
 10
898.736585
 20
1320.111865
 30
0.0
 40
1.5
100
AcDbArc
 50
270.0
 51
0.0
  0
ARC
  5
1BB
100
AcDbEntity
  8
化粧台
  6
EXLTYPE2
 62
     6
100
AcDbCircle
 10
871.736585
 20
1320.111865
 30
0.0
 40
1.5
100
AcDbArc
 50
180.0
 51
270.0
  0
ARC
  5
1BC
100
AcDbEntity
  8
化粧台
  6
EXLTYPE2
 62
     6
100
AcDbCircle
 10
848.223169
 20
1365.911862
 30
0.0
 40
1.0
100
AcDbArc
 50
180.0
 51
270.0
  0
ARC
  5
1BD
100
AcDbEntity
  8
化粧台
  6
EXLTYPE2
 62
     6
100
AcDbCircle
 10
891.598169
 20
1371.986862
 30
0.0
 40
7.875
100
AcDbArc
 50
180.0
 51
223.242956
  0
ARC
  5
1BE
100
AcDbEntity
  8
化粧台
  6
EXLTYPE2
 62
     6
100
AcDbCircle
 10
880.125
 20
1371.986862
 30
0.0
 40
7.875
100
AcDbArc
 50
284.057614
 51
0.0
  0
ARC
  5
1BF
100
AcDbEntity
  8
化粧台
  6
EXLTYPE2
 62
     6
100
AcDbCircle
 10
894.868122
 20
1373.041927
 30
0.0
 40
45.0
100
AcDbArc
 50
190.408677
 51
236.813401
  0
ARC
  5
1C0
100
AcDbEntity
  8
化粧台
  6
EXLTYPE2
 62
     6
100
AcDbCircle
 10
877.0
 20
1373.918262
 30
0.0
 40
45.0
100
AcDbArc
 50
301.088975
 51
0.0
  0
LINE
  5
1C1
100
AcDbEntity
  8
化粧台
  6
EXLTYPE2
 62
     6
100
AcDbLine
 10
858.9
 20
1364.911862
 30
0.0
 11
848.223169
 21
1364.911862
 31
0.0
  0
LINE
  5
1C2
100
AcDbEntity
  8
化粧台
  6
EXLTYPE2
 62
     6
100
AcDbLine
 10
889.0
 20
952.5
 30
0.0
 11
889.0
 21
1318.611865
 31
0.0
  0
LINE
  5
1C3
100
AcDbEntity
  8
化粧台
  6
EXLTYPE2
 62
     6
100
AcDbLine
 10
921.0
 20
952.5
 30
0.0
 11
921.0
 21
1364.484281
 31
0.0
  0
LINE
  5
1C4
100
AcDbEntity
  8
化粧台
  6
CONTINUOUS
 62
     2
100
AcDbLine
 10
926.5
 20
1547.0
 30
0.0
 11
1031.5
 21
1547.0
 31
0.0
  0
LINE
  5
1C5
100
AcDbEntity
  8
化粧台
  6
CONTINUOUS
 62
     2
100
AcDbLine
 10
926.5
 20
1560.0
 30
0.0
 11
1031.5
 21
1560.0
 31
0.0
  0
LINE
  5
1C6
100
AcDbEntity
  8
化粧台
  6
CONTINUOUS
 62
     2
100
AcDbLine
 10
926.5
 20
1547.0
 30
0.0
 11
926.5
 21
1560.0
 31
0.0
  0
LINE
  5
1C7
100
AcDbEntity
  8
化粧台
  6
CONTINUOUS
 62
     2
100
AcDbLine
 10
1031.5
 20
1547.0
 30
0.0
 11
1031.5
 21
1560.0
 31
0.0
  0
LINE
  5
1C8
100
AcDbEntity
  8
化粧台
  6
CONTINUOUS
 62
     2
100
AcDbLine
 10
930.0
 20
1547.0
 30
0.0
 11
930.0
 21
1560.0
 31
0.0
  0
LINE
  5
1C9
100
AcDbEntity
  8
化粧台
  6
CONTINUOUS
 62
     2
100
AcDbLine
 10
1028.0
 20
1547.0
 30
0.0
 11
1028.0
 21
1560.0
 31
0.0
  0
LINE
  5
1CA
100
AcDbEntity
  8
化粧台
  6
CONTINUOUS
 62
     2
100
AcDbLine
 10
883.5
 20
1547.0
 30
0.0
 11
778.5
 21
1547.0
 31
0.0
  0
LINE
  5
1CB
100
AcDbEntity
  8
化粧台
  6
CONTINUOUS
 62
     2
100
AcDbLine
 10
883.5
 20
1560.0
 30
0.0
 11
778.5
 21
1560.0
 31
0.0
  0
LINE
  5
1CC
100
AcDbEntity
  8
化粧台
  6
CONTINUOUS
 62
     2
100
AcDbLine
 10
883.5
 20
1547.0
 30
0.0
 11
883.5
 21
1560.0
 31
0.0
  0
LINE
  5
1CD
100
AcDbEntity
  8
化粧台
  6
CONTINUOUS
 62
     2
100
AcDbLine
 10
778.5
 20
1547.0
 30
0.0
 11
778.5
 21
1560.0
 31
0.0
  0
LINE
  5
1CE
100
AcDbEntity
  8
化粧台
  6
CONTINUOUS
 62
     2
100
AcDbLine
 10
880.0
 20
1547.0
 30
0.0
 11
880.0
 21
1560.0
 31
0.0
  0
LINE
  5
1CF
100
AcDbEntity
  8
化粧台
  6
CONTINUOUS
 62
     2
100
AcDbLine
 10
782.0
 20
1547.0
 30
0.0
 11
782.0
 21
1560.0
 31
0.0
  0
LINE
  5
1D0
100
AcDbEntity
  8
化粧台
  6
CONTINUOUS
 62
     6
100
AcDbLine
 10
889.0
 20
918.5
 30
0.0
 11
921.0
 21
918.5
 31
0.0
  0
LINE
  5
1D1
100
AcDbEntity
  8
化粧台
  6
CONTINUOUS
 62
     6
100
AcDbLine
 10
889.0
 20
918.5
 30
0.0
 11
889.0
 21
952.5
 31
0.0
  0
LINE
  5
1D2
100
AcDbEntity
  8
化粧台
  6
CONTINUOUS
 62
     6
100
AcDbLine
 10
921.0
 20
918.5
 30
0.0
 11
921.0
 21
952.5
 31
0.0
  0
LINE
  5
1D3
100
AcDbEntity
  8
化粧台
  6
CONTINUOUS
 62
     6
100
AcDbLine
 10
977.5
 20
1298.5
 30
0.0
 11
1032.5
 21
1298.5
 31
0.0
  0
LINE
  5
1D4
100
AcDbEntity
  8
化粧台
  6
CONTINUOUS
 62
     6
100
AcDbLine
 10
1015.5
 20
940.5
 30
0.0
 11
994.5
 21
940.5
 31
0.0
  0
ARC
  5
1D5
100
AcDbEntity
  8
化粧台
  6
EXLTYPE2
 62
     6
100
AcDbCircle
 10
954.5
 20
1318.343135
 30
0.0
 40
40.0
100
AcDbArc
 50
345.638488
 51
0.0
  0
ARC
  5
1D6
100
AcDbEntity
  8
化粧台
  6
EXLTYPE2
 62
     6
100
AcDbCircle
 10
1055.5
 20
1318.343135
 30
0.0
 40
40.0
100
AcDbArc
 50
180.0
 51
194.361512
  0
LINE
  5
1D7
100
AcDbEntity
  8
化粧台
  6
EXLTYPE2
 62
     6
100
AcDbLine
 10
992.75
 20
1263.5
 30
0.0
 11
1017.25
 21
1263.5
 31
0.0
  0
LINE
  5
1D8
100
AcDbEntity
  8
化粧台
  6
EXLTYPE2
 62
     6
100
AcDbLine
 10
992.25
 20
1263.788675
 30
0.0
 11
992.25
 21
1275.672807
 31
0.0
  0
LINE
  5
1D9
100
AcDbEntity
  8
化粧台
  6
EXLTYPE2
 62
     6
100
AcDbLine
 10
1017.75
 20
1263.788675
 30
0.0
 11
1017.75
 21
1275.672807
 31
0.0
  0
ARC
  5
1DA
100
AcDbEntity
  8
化粧台
  6
EXLTYPE2
 62
     6
100
AcDbCircle
 10
985.25
 20
1278.365389
 30
0.0
 40
7.5
100
AcDbArc
 50
338.96053
 51
0.0
  0
LINE
  5
1DB
100
AcDbEntity
  8
化粧台
  6
EXLTYPE2
 62
     6
100
AcDbLine
 10
992.75
 20
1263.5
 30
0.0
 11
992.25
 21
1263.788675
 31
0.0
  0
LINE
  5
1DC
100
AcDbEntity
  8
化粧台
  6
EXLTYPE2
 62
     6
100
AcDbLine
 10
1017.25
 20
1263.5
 30
0.0
 11
1017.75
 21
1263.788675
 31
0.0
  0
ARC
  5
1DD
100
AcDbEntity
  8
化粧台
  6
EXLTYPE2
 62
     6
100
AcDbCircle
 10
1024.75
 20
1278.365389
 30
0.0
 40
7.5
100
AcDbArc
 50
180.0
 51
201.03947
  0
LINE
  5
1DE
100
AcDbEntity
  8
化粧台
  6
EXLTYPE2
 62
     6
100
AcDbLine
 10
1018.0
 20
1292.663691
 30
0.0
 11
1018.0
 21
1304.336309
 31
0.0
  0
LINE
  5
1DF
100
AcDbEntity
  8
化粧台
  6
EXLTYPE2
 62
     6
100
AcDbLine
 10
1016.554392
 20
1306.840176
 30
0.0
 11
1006.445608
 21
1312.676485
 31
0.0
  0
LINE
  5
1E0
100
AcDbEntity
  8
化粧台
  6
EXLTYPE2
 62
     6
100
AcDbLine
 10
1003.554392
 20
1312.676485
 30
0.0
 11
993.445608
 21
1306.840176
 31
0.0
  0
LINE
  5
1E1
100
AcDbEntity
  8
化粧台
  6
EXLTYPE2
 62
     6
100
AcDbLine
 10
992.0
 20
1304.336309
 30
0.0
 11
992.0
 21
1292.663691
 31
0.0
  0
LINE
  5
1E2
100
AcDbEntity
  8
化粧台
  6
EXLTYPE2
 62
     6
100
AcDbLine
 10
993.445608
 20
1290.159824
 30
0.0
 11
1003.554392
 21
1284.323515
 31
0.0
  0
LINE
  5
1E3
100
AcDbEntity
  8
化粧台
  6
EXLTYPE2
 62
     6
100
AcDbLine
 10
1006.445608
 20
1284.323515
 30
0.0
 11
1016.554392
 21
1290.159824
 31
0.0
  0
ARC
  5
1E4
100
AcDbEntity
  8
化粧台
  6
EXLTYPE2
 62
     6
100
AcDbCircle
 10
1005.0
 20
1298.5
 30
0.0
 40
14.25
100
AcDbArc
 50
264.177545
 51
275.822455
  0
ARC
  5
1E5
100
AcDbEntity
  8
化粧台
  6
EXLTYPE2
 62
     6
100
AcDbCircle
 10
1005.0
 20
1298.5
 30
0.0
 40
14.25
100
AcDbArc
 50
324.177545
 51
335.822455
  0
ARC
  5
1E6
100
AcDbEntity
  8
化粧台
  6
EXLTYPE2
 62
     6
100
AcDbCircle
 10
1005.0
 20
1298.5
 30
0.0
 40
14.25
100
AcDbArc
 50
24.177545
 51
35.822455
  0
ARC
  5
1E7
100
AcDbEntity
  8
化粧台
  6
EXLTYPE2
 62
     6
100
AcDbCircle
 10
1005.0
 20
1298.5
 30
0.0
 40
14.25
100
AcDbArc
 50
84.177545
 51
95.822455
  0
ARC
  5
1E8
100
AcDbEntity
  8
化粧台
  6
EXLTYPE2
 62
     6
100
AcDbCircle
 10
1005.0
 20
1298.5
 30
0.0
 40
14.25
100
AcDbArc
 50
144.177545
 51
155.822455
  0
ARC
  5
1E9
100
AcDbEntity
  8
化粧台
  6
EXLTYPE2
 62
     6
100
AcDbCircle
 10
1005.0
 20
1298.5
 30
0.0
 40
14.25
100
AcDbArc
 50
204.177545
 51
215.822455
  0
CIRCLE
  5
1EA
100
AcDbEntity
  8
化粧台
  6
EXLTYPE2
 62
     6
100
AcDbCircle
 10
1005.0
 20
1298.5
 30
0.0
 40
4.75
  0
ARC
  5
1EB
100
AcDbEntity
  8
化粧台
  6
EXLTYPE2
 62
     6
100
AcDbCircle
 10
1032.0
 20
1298.5
 30
0.0
 40
40.0
100
AcDbArc
 50
165.638488
 51
169.811239
  0
ARC
  5
1EC
100
AcDbEntity
  8
化粧台
  6
EXLTYPE2
 62
     6
100
AcDbCircle
 10
978.0
 20
1298.5
 30
0.0
 40
40.0
100
AcDbArc
 50
10.188761
 51
14.361512
  0
LINE
  5
1ED
100
AcDbEntity
  8
化粧台
  6
EXLTYPE2
 62
     6
100
AcDbLine
 10
992.75
 20
1291.21989
 30
0.0
 11
992.75
 21
1278.365389
 31
0.0
  0
LINE
  5
1EE
100
AcDbEntity
  8
化粧台
  6
EXLTYPE2
 62
     6
100
AcDbLine
 10
1017.25
 20
1291.21989
 30
0.0
 11
1017.25
 21
1278.365389
 31
0.0
  0
LINE
  5
1EF
100
AcDbEntity
  8
化粧台
  6
EXLTYPE2
 62
     6
100
AcDbLine
 10
994.030456
 20
1321.2
 30
0.0
 11
1015.969544
 21
1321.2
 31
0.0
  0
LINE
  5
1F0
100
AcDbEntity
  8
化粧台
  6
EXLTYPE2
 62
     6
100
AcDbLine
 10
994.030456
 20
1333.2
 30
0.0
 11
1015.969544
 21
1333.2
 31
0.0
  0
LINE
  5
1F1
100
AcDbEntity
  8
化粧台
  6
EXLTYPE2
 62
     6
100
AcDbLine
 10
993.5
 20
1332.292887
 30
0.0
 11
993.5
 21
1322.107113
 31
0.0
  0
LINE
  5
1F2
100
AcDbEntity
  8
化粧台
  6
EXLTYPE2
 62
     6
100
AcDbLine
 10
1016.5
 20
1332.292887
 30
0.0
 11
1016.5
 21
1322.107113
 31
0.0
  0
ARC
  5
1F3
100
AcDbEntity
  8
化粧台
  6
EXLTYPE2
 62
     6
100
AcDbCircle
 10
1003.25
 20
1327.2
 30
0.0
 40
11.0
100
AcDbArc
 50
146.944269
 51
152.419801
  0
ARC
  5
1F4
100
AcDbEntity
  8
化粧台
  6
EXLTYPE2
 62
     6
100
AcDbCircle
 10
1003.25
 20
1327.2
 30
0.0
 40
11.0
100
AcDbArc
 50
207.580199
 51
213.055731
  0
ARC
  5
1F5
100
AcDbEntity
  8
化粧台
  6
EXLTYPE2
 62
     6
100
AcDbCircle
 10
1006.75
 20
1327.2
 30
0.0
 40
11.0
100
AcDbArc
 50
326.944269
 51
332.419801
  0
ARC
  5
1F6
100
AcDbEntity
  8
化粧台
  6
EXLTYPE2
 62
     6
100
AcDbCircle
 10
1006.75
 20
1327.2
 30
0.0
 40
11.0
100
AcDbArc
 50
27.580199
 51
33.055731
  0
LINE
  5
1F7
100
AcDbEntity
  8
化粧台
  6
EXLTYPE2
 62
     6
100
AcDbLine
 10
994.5
 20
1321.2
 30
0.0
 11
994.5
 21
1318.343135
 31
0.0
  0
LINE
  5
1F8
100
AcDbEntity
  8
化粧台
  6
EXLTYPE2
 62
     6
100
AcDbLine
 10
1015.5
 20
1321.2
 30
0.0
 11
1015.5
 21
1318.343135
 31
0.0
  0
LINE
  5
1F9
100
AcDbEntity
  8
化粧台
  6
EXLTYPE3
 62
     6
100
AcDbLine
 10
1005.0
 20
1348.2
 30
0.0
 11
1005.0
 21
925.5
 31
0.0
  0
LINE
  5
1FA
100
AcDbEntity
  8
化粧台
  6
CONTINUOUS
 62
     6
100
AcDbLine
 10
777.5
 20
1298.5
 30
0.0
 11
832.5
 21
1298.5
 31
0.0
  0
LINE
  5
1FB
100
AcDbEntity
  8
化粧台
  6
CONTINUOUS
 62
     6
100
AcDbLine
 10
815.5
 20
940.5
 30
0.0
 11
794.5
 21
940.5
 31
0.0
  0
ARC
  5
1FC
100
AcDbEntity
  8
化粧台
  6
EXLTYPE2
 62
     6
100
AcDbCircle
 10
754.5
 20
1318.343135
 30
0.0
 40
40.0
100
AcDbArc
 50
345.638488
 51
0.0
  0
ARC
  5
1FD
100
AcDbEntity
  8
化粧台
  6
EXLTYPE2
 62
     6
100
AcDbCircle
 10
855.5
 20
1318.343135
 30
0.0
 40
40.0
100
AcDbArc
 50
180.0
 51
194.361512
  0
LINE
  5
1FE
100
AcDbEntity
  8
化粧台
  6
EXLTYPE2
 62
     6
100
AcDbLine
 10
792.75
 20
1263.5
 30
0.0
 11
817.25
 21
1263.5
 31
0.0
  0
LINE
  5
1FF
100
AcDbEntity
  8
化粧台
  6
EXLTYPE2
 62
     6
100
AcDbLine
 10
792.25
 20
1263.788675
 30
0.0
 11
792.25
 21
1275.672807
 31
0.0
  0
LINE
  5
200
100
AcDbEntity
  8
化粧台
  6
EXLTYPE2
 62
     6
100
AcDbLine
 10
817.75
 20
1263.788675
 30
0.0
 11
817.75
 21
1275.672807
 31
0.0
  0
ARC
  5
201
100
AcDbEntity
  8
化粧台
  6
EXLTYPE2
 62
     6
100
AcDbCircle
 10
785.25
 20
1278.365389
 30
0.0
 40
7.5
100
AcDbArc
 50
338.96053
 51
0.0
  0
LINE
  5
202
100
AcDbEntity
  8
化粧台
  6
EXLTYPE2
 62
     6
100
AcDbLine
 10
792.75
 20
1263.5
 30
0.0
 11
792.25
 21
1263.788675
 31
0.0
  0
LINE
  5
203
100
AcDbEntity
  8
化粧台
  6
EXLTYPE2
 62
     6
100
AcDbLine
 10
817.25
 20
1263.5
 30
0.0
 11
817.75
 21
1263.788675
 31
0.0
  0
ARC
  5
204
100
AcDbEntity
  8
化粧台
  6
EXLTYPE2
 62
     6
100
AcDbCircle
 10
824.75
 20
1278.365389
 30
0.0
 40
7.5
100
AcDbArc
 50
180.0
 51
201.03947
  0
LINE
  5
205
100
AcDbEntity
  8
化粧台
  6
EXLTYPE2
 62
     6
100
AcDbLine
 10
818.0
 20
1292.663691
 30
0.0
 11
818.0
 21
1304.336309
 31
0.0
  0
LINE
  5
206
100
AcDbEntity
  8
化粧台
  6
EXLTYPE2
 62
     6
100
AcDbLine
 10
816.554392
 20
1306.840176
 30
0.0
 11
806.445608
 21
1312.676485
 31
0.0
  0
LINE
  5
207
100
AcDbEntity
  8
化粧台
  6
EXLTYPE2
 62
     6
100
AcDbLine
 10
803.554392
 20
1312.676485
 30
0.0
 11
793.445608
 21
1306.840176
 31
0.0
  0
LINE
  5
208
100
AcDbEntity
  8
化粧台
  6
EXLTYPE2
 62
     6
100
AcDbLine
 10
792.0
 20
1304.336309
 30
0.0
 11
792.0
 21
1292.663691
 31
0.0
  0
LINE
  5
209
100
AcDbEntity
  8
化粧台
  6
EXLTYPE2
 62
     6
100
AcDbLine
 10
793.445608
 20
1290.159824
 30
0.0
 11
803.554392
 21
1284.323515
 31
0.0
  0
LINE
  5
20A
100
AcDbEntity
  8
化粧台
  6
EXLTYPE2
 62
     6
100
AcDbLine
 10
806.445608
 20
1284.323515
 30
0.0
 11
816.554392
 21
1290.159824
 31
0.0
  0
ARC
  5
20B
100
AcDbEntity
  8
化粧台
  6
EXLTYPE2
 62
     6
100
AcDbCircle
 10
805.0
 20
1298.5
 30
0.0
 40
14.25
100
AcDbArc
 50
264.177545
 51
275.822455
  0
ARC
  5
20C
100
AcDbEntity
  8
化粧台
  6
EXLTYPE2
 62
     6
100
AcDbCircle
 10
805.0
 20
1298.5
 30
0.0
 40
14.25
100
AcDbArc
 50
324.177545
 51
335.822455
  0
ARC
  5
20D
100
AcDbEntity
  8
化粧台
  6
EXLTYPE2
 62
     6
100
AcDbCircle
 10
805.0
 20
1298.5
 30
0.0
 40
14.25
100
AcDbArc
 50
24.177545
 51
35.822455
  0
ARC
  5
20E
100
AcDbEntity
  8
化粧台
  6
EXLTYPE2
 62
     6
100
AcDbCircle
 10
805.0
 20
1298.5
 30
0.0
 40
14.25
100
AcDbArc
 50
84.177545
 51
95.822455
  0
ARC
  5
20F
100
AcDbEntity
  8
化粧台
  6
EXLTYPE2
 62
     6
100
AcDbCircle
 10
805.0
 20
1298.5
 30
0.0
 40
14.25
100
AcDbArc
 50
144.177545
 51
155.822455
  0
ARC
  5
210
100
AcDbEntity
  8
化粧台
  6
EXLTYPE2
 62
     6
100
AcDbCircle
 10
805.0
 20
1298.5
 30
0.0
 40
14.25
100
AcDbArc
 50
204.177545
 51
215.822455
  0
CIRCLE
  5
211
100
AcDbEntity
  8
化粧台
  6
EXLTYPE2
 62
     6
100
AcDbCircle
 10
805.0
 20
1298.5
 30
0.0
 40
4.75
  0
ARC
  5
212
100
AcDbEntity
  8
化粧台
  6
EXLTYPE2
 62
     6
100
AcDbCircle
 10
832.0
 20
1298.5
 30
0.0
 40
40.0
100
AcDbArc
 50
165.638488
 51
169.811239
  0
ARC
  5
213
100
AcDbEntity
  8
化粧台
  6
EXLTYPE2
 62
     6
100
AcDbCircle
 10
778.0
 20
1298.5
 30
0.0
 40
40.0
100
AcDbArc
 50
10.188761
 51
14.361512
  0
LINE
  5
214
100
AcDbEntity
  8
化粧台
  6
EXLTYPE2
 62
     6
100
AcDbLine
 10
792.75
 20
1291.21989
 30
0.0
 11
792.75
 21
1278.365389
 31
0.0
  0
LINE
  5
215
100
AcDbEntity
  8
化粧台
  6
EXLTYPE2
 62
     6
100
AcDbLine
 10
817.25
 20
1291.21989
 30
0.0
 11
817.25
 21
1278.365389
 31
0.0
  0
LINE
  5
216
100
AcDbEntity
  8
化粧台
  6
EXLTYPE2
 62
     6
100
AcDbLine
 10
794.030456
 20
1321.2
 30
0.0
 11
815.969544
 21
1321.2
 31
0.0
  0
LINE
  5
217
100
AcDbEntity
  8
化粧台
  6
EXLTYPE2
 62
     6
100
AcDbLine
 10
794.030456
 20
1333.2
 30
0.0
 11
815.969544
 21
1333.2
 31
0.0
  0
LINE
  5
218
100
AcDbEntity
  8
化粧台
  6
EXLTYPE2
 62
     6
100
AcDbLine
 10
793.5
 20
1332.292887
 30
0.0
 11
793.5
 21
1322.107113
 31
0.0
  0
LINE
  5
219
100
AcDbEntity
  8
化粧台
  6
EXLTYPE2
 62
     6
100
AcDbLine
 10
816.5
 20
1332.292887
 30
0.0
 11
816.5
 21
1322.107113
 31
0.0
  0
ARC
  5
21A
100
AcDbEntity
  8
化粧台
  6
EXLTYPE2
 62
     6
100
AcDbCircle
 10
803.25
 20
1327.2
 30
0.0
 40
11.0
100
AcDbArc
 50
146.944269
 51
152.419801
  0
ARC
  5
21B
100
AcDbEntity
  8
化粧台
  6
EXLTYPE2
 62
     6
100
AcDbCircle
 10
803.25
 20
1327.2
 30
0.0
 40
11.0
100
AcDbArc
 50
207.580199
 51
213.055731
  0
ARC
  5
21C
100
AcDbEntity
  8
化粧台
  6
EXLTYPE2
 62
     6
100
AcDbCircle
 10
806.75
 20
1327.2
 30
0.0
 40
11.0
100
AcDbArc
 50
326.944269
 51
332.419801
  0
ARC
  5
21D
100
AcDbEntity
  8
化粧台
  6
EXLTYPE2
 62
     6
100
AcDbCircle
 10
806.75
 20
1327.2
 30
0.0
 40
11.0
100
AcDbArc
 50
27.580199
 51
33.055731
  0
LINE
  5
21E
100
AcDbEntity
  8
化粧台
  6
EXLTYPE2
 62
     6
100
AcDbLine
 10
794.5
 20
1321.2
 30
0.0
 11
794.5
 21
1318.343135
 31
0.0
  0
LINE
  5
21F
100
AcDbEntity
  8
化粧台
  6
EXLTYPE2
 62
     6
100
AcDbLine
 10
815.5
 20
1321.2
 30
0.0
 11
815.5
 21
1318.343135
 31
0.0
  0
LINE
  5
220
100
AcDbEntity
  8
化粧台
  6
EXLTYPE3
 62
     6
100
AcDbLine
 10
805.0
 20
1348.2
 30
0.0
 11
805.0
 21
925.5
 31
0.0
  0
LINE
  5
221
100
AcDbEntity
  8
化粧台
  6
CONTINUOUS
 62
     6
100
AcDbLine
 10
794.5
 20
952.5
 30
0.0
 11
794.5
 21
940.5
 31
0.0
  0
LINE
  5
222
100
AcDbEntity
  8
化粧台
  6
CONTINUOUS
 62
     6
100
AcDbLine
 10
815.5
 20
952.5
 30
0.0
 11
815.5
 21
940.5
 31
0.0
  0
LINE
  5
223
100
AcDbEntity
  8
化粧台
  6
EXLTYPE2
 62
     6
100
AcDbLine
 10
815.5
 20
1263.5
 30
0.0
 11
815.5
 21
952.5
 31
0.0
  0
LINE
  5
224
100
AcDbEntity
  8
化粧台
  6
EXLTYPE2
 62
     6
100
AcDbLine
 10
794.5
 20
1263.5
 30
0.0
 11
794.5
 21
952.5
 31
0.0
  0
LINE
  5
225
100
AcDbEntity
  8
化粧台
  6
CONTINUOUS
 62
     6
100
AcDbLine
 10
994.5
 20
952.5
 30
0.0
 11
994.5
 21
940.5
 31
0.0
  0
LINE
  5
226
100
AcDbEntity
  8
化粧台
  6
CONTINUOUS
 62
     6
100
AcDbLine
 10
1015.5
 20
952.5
 30
0.0
 11
1015.5
 21
940.5
 31
0.0
  0
LINE
  5
227
100
AcDbEntity
  8
化粧台
  6
EXLTYPE2
 62
     6
100
AcDbLine
 10
1015.5
 20
1263.5
 30
0.0
 11
1015.5
 21
952.5
 31
0.0
  0
LINE
  5
228
100
AcDbEntity
  8
化粧台
  6
EXLTYPE2
 62
     6
100
AcDbLine
 10
994.5
 20
1263.5
 30
0.0
 11
994.5
 21
952.5
 31
0.0
  0
LINE
  5
229
100
AcDbEntity
  8
化粧台
  6
EXLTYPE2
 62
     6
100
AcDbLine
 10
1248.5
 20
1568.5
 30
0.0
 11
561.5
 21
1568.5
 31
0.0
  0
ARC
  5
22A
100
AcDbEntity
  8
化粧台
  6
EXLTYPE2
 62
     6
100
AcDbCircle
 10
1012.0
 20
1454.355042
 30
0.0
 40
214.0
100
AcDbArc
 50
144.21447
 51
180.0
  0
LINE
  5
22B
100
AcDbEntity
  8
化粧台
  6
EXLTYPE2
 62
     6
100
AcDbLine
 10
798.0
 20
1333.2
 30
0.0
 11
798.0
 21
1454.355042
 31
0.0
  0
ARC
  5
22C
100
AcDbEntity
  8
化粧台
  6
EXLTYPE2
 62
     6
100
AcDbCircle
 10
1012.0
 20
1454.355042
 30
0.0
 40
200.0
100
AcDbArc
 50
142.260394
 51
180.0
  0
LINE
  5
22D
100
AcDbEntity
  8
化粧台
  6
EXLTYPE2
 62
     6
100
AcDbLine
 10
812.0
 20
1333.2
 30
0.0
 11
812.0
 21
1454.355042
 31
0.0
  0
ARC
  5
22E
100
AcDbEntity
  8
化粧台
  6
EXLTYPE2
 62
     6
100
AcDbCircle
 10
798.0
 20
1454.355042
 30
0.0
 40
200.0
100
AcDbArc
 50
0.0
 51
37.739606
  0
ARC
  5
22F
100
AcDbEntity
  8
化粧台
  6
EXLTYPE2
 62
     6
100
AcDbCircle
 10
798.0
 20
1454.355042
 30
0.0
 40
214.0
100
AcDbArc
 50
0.0
 51
35.78553
  0
LINE
  5
230
100
AcDbEntity
  8
化粧台
  6
EXLTYPE2
 62
     6
100
AcDbLine
 10
998.0
 20
1333.2
 30
0.0
 11
998.0
 21
1454.355042
 31
0.0
  0
LINE
  5
231
100
AcDbEntity
  8
化粧台
  6
EXLTYPE2
 62
     6
100
AcDbLine
 10
1012.0
 20
1333.2
 30
0.0
 11
1012.0
 21
1454.355042
 31
0.0
  0
LINE
  5
232
100
AcDbEntity
  8
化粧台
  6
CONTINUOUS
 62
     2
100
AcDbLine
 10
2043.0
 20
1598.5
 30
0.0
 11
2043.0
 21
1043.5
 31
0.0
  0
LINE
  5
233
100
AcDbEntity
  8
化粧台
  6
CONTINUOUS
 62
     2
100
AcDbLine
 10
2058.0
 20
1598.5
 30
0.0
 11
2058.0
 21
1043.5
 31
0.0
  0
LINE
  5
234
100
AcDbEntity
  8
化粧台
  6
CONTINUOUS
 62
     2
100
AcDbLine
 10
2058.0
 20
1598.5
 30
0.0
 11
2043.0
 21
1598.5
 31
0.0
  0
LINE
  5
235
100
AcDbEntity
  8
化粧台
  6
EXLTYPE3
 62
     6
100
AcDbLine
 10
2240.0
 20
1588.5
 30
0.0
 11
2240.0
 21
1423.5
 31
0.0
  0
LINE
  5
236
100
AcDbEntity
  8
化粧台
  6
CONTINUOUS
 62
     2
100
AcDbLine
 10
2450.0
 20
1533.5
 30
0.0
 11
2450.0
 21
1493.5
 31
0.0
  0
LINE
  5
237
100
AcDbEntity
  8
化粧台
  6
CONTINUOUS
 62
     2
100
AcDbLine
 10
2058.0
 20
1043.5
 30
0.0
 11
2043.0
 21
1043.5
 31
0.0
  0
LINE
  5
238
100
AcDbEntity
  8
化粧台
  6
CONTINUOUS
 62
     2
100
AcDbLine
 10
2388.25
 20
948.5
 30
0.0
 11
2401.75
 21
948.5
 31
0.0
  0
LINE
  5
239
100
AcDbEntity
  8
化粧台
  6
CONTINUOUS
 62
     2
100
AcDbLine
 10
2401.75
 20
948.5
 30
0.0
 11
2401.75
 21
952.0
 31
0.0
  0
LINE
  5
23A
100
AcDbEntity
  8
化粧台
  6
CONTINUOUS
 62
     2
100
AcDbLine
 10
2388.25
 20
948.5
 30
0.0
 11
2388.25
 21
952.0
 31
0.0
  0
LINE
  5
23B
100
AcDbEntity
  8
化粧台
  6
CONTINUOUS
 62
     2
100
AcDbLine
 10
2108.25
 20
948.5
 30
0.0
 11
2121.75
 21
948.5
 31
0.0
  0
LINE
  5
23C
100
AcDbEntity
  8
化粧台
  6
CONTINUOUS
 62
     2
100
AcDbLine
 10
2121.75
 20
948.5
 30
0.0
 11
2121.75
 21
952.0
 31
0.0
  0
LINE
  5
23D
100
AcDbEntity
  8
化粧台
  6
CONTINUOUS
 62
     2
100
AcDbLine
 10
2108.25
 20
948.5
 30
0.0
 11
2108.25
 21
952.0
 31
0.0
  0
LINE
  5
23E
100
AcDbEntity
  8
化粧台
  6
CONTINUOUS
 62
     2
100
AcDbLine
 10
2018.0
 20
1560.0
 30
0.0
 11
2043.0
 21
1560.0
 31
0.0
  0
LINE
  5
23F
100
AcDbEntity
  8
化粧台
  6
CONTINUOUS
 62
     2
100
AcDbLine
 10
2018.0
 20
1547.0
 30
0.0
 11
2018.0
 21
1560.0
 31
0.0
  0
LINE
  5
240
100
AcDbEntity
  8
化粧台
  6
CONTINUOUS
 62
     2
100
AcDbLine
 10
2018.0
 20
1547.0
 30
0.0
 11
2043.0
 21
1547.0
 31
0.0
  0
LINE
  5
241
100
AcDbEntity
  8
化粧台
  6
CONTINUOUS
 62
     2
100
AcDbLine
 10
2025.0
 20
1547.0
 30
0.0
 11
2025.0
 21
1560.0
 31
0.0
  0
LINE
  5
242
100
AcDbEntity
  8
化粧台
  6
CONTINUOUS
 62
     2
100
AcDbLine
 10
2060.0
 20
952.0
 30
0.0
 11
2450.0
 21
952.0
 31
0.0
  0
LINE
  5
243
100
AcDbEntity
  8
化粧台
  6
EXLTYPE2
 62
     6
100
AcDbLine
 10
2063.0
 20
1038.75
 30
0.0
 11
2063.0
 21
952.0
 31
0.0
  0
LINE
  5
244
100
AcDbEntity
  8
化粧台
  6
EXLTYPE2
 62
     6
100
AcDbLine
 10
2078.0
 20
1038.75
 30
0.0
 11
2078.0
 21
952.0
 31
0.0
  0
LINE
  5
245
100
AcDbEntity
  8
化粧台
  6
EXLTYPE2
 62
     6
100
AcDbLine
 10
2435.0
 20
1038.75
 30
0.0
 11
2060.0
 21
1038.75
 31
0.0
  0
LINE
  5
246
100
AcDbEntity
  8
化粧台
  6
EXLTYPE2
 62
     6
100
AcDbLine
 10
2432.5
 20
1053.75
 30
0.0
 11
2060.0
 21
1053.75
 31
0.0
  0
LINE
  5
247
100
AcDbEntity
  8
化粧台
  6
EXLTYPE2
 62
     6
100
AcDbLine
 10
2432.5
 20
1056.25
 30
0.0
 11
2060.0
 21
1056.25
 31
0.0
  0
LINE
  5
248
100
AcDbEntity
  8
化粧台
  6
EXLTYPE2
 62
     6
100
AcDbLine
 10
2432.5
 20
1533.5
 30
0.0
 11
2432.5
 21
1038.75
 31
0.0
  0
LINE
  5
249
100
AcDbEntity
  8
化粧台
  6
EXLTYPE2
 62
     6
100
AcDbLine
 10
2435.0
 20
1533.5
 30
0.0
 11
2435.0
 21
1038.75
 31
0.0
  0
LINE
  5
24A
100
AcDbEntity
  8
化粧台
  6
CONTINUOUS
 62
     6
100
AcDbLine
 10
2180.0
 20
1053.75
 30
0.0
 11
2180.0
 21
1038.75
 31
0.0
  0
LINE
  5
24B
100
AcDbEntity
  8
化粧台
  6
CONTINUOUS
 62
     6
100
AcDbLine
 10
2145.0
 20
1053.75
 30
0.0
 11
2145.0
 21
1038.75
 31
0.0
  0
LINE
  5
24C
100
AcDbEntity
  8
化粧台
  6
CONTINUOUS
 62
     6
100
AcDbLine
 10
2093.0
 20
1053.75
 30
0.0
 11
2093.0
 21
1038.75
 31
0.0
  0
LINE
  5
24D
100
AcDbEntity
  8
化粧台
  6
CONTINUOUS
 62
     6
100
AcDbLine
 10
2400.0
 20
1053.75
 30
0.0
 11
2400.0
 21
1038.75
 31
0.0
  0
LINE
  5
24E
100
AcDbEntity
  8
化粧台
  6
EXLTYPE2
 62
     6
100
AcDbLine
 10
2078.25
 20
1618.5
 30
0.0
 11
2078.25
 21
1568.5
 31
0.0
  0
LINE
  5
24F
100
AcDbEntity
  8
化粧台
  6
EXLTYPE2
 62
     6
100
AcDbLine
 10
2060.0
 20
1618.5
 30
0.0
 11
2078.25
 21
1618.5
 31
0.0
  0
LINE
  5
250
100
AcDbEntity
  8
化粧台
  6
EXLTYPE2
 62
     6
100
AcDbLine
 10
2060.0
 20
1568.5
 30
0.0
 11
2078.25
 21
1568.5
 31
0.0
  0
LINE
  5
251
100
AcDbEntity
  8
化粧台
  6
EXLTYPE2
 62
     6
100
AcDbLine
 10
2435.0
 20
1493.5
 30
0.0
 11
2450.0
 21
1493.5
 31
0.0
  0
LINE
  5
252
100
AcDbEntity
  8
化粧台
  6
EXLTYPE2
 62
     6
100
AcDbLine
 10
2432.5
 20
1533.5
 30
0.0
 11
2450.0
 21
1533.5
 31
0.0
  0
LINE
  5
253
100
AcDbEntity
  8
化粧台
  6
CONTINUOUS
 62
     6
100
AcDbLine
 10
2450.0
 20
1505.5
 30
0.0
 11
2482.5
 21
1503.5
 31
0.0
  0
LINE
  5
254
100
AcDbEntity
  8
化粧台
  6
CONTINUOUS
 62
     6
100
AcDbLine
 10
2482.5
 20
1503.5
 30
0.0
 11
2450.0
 21
1501.5
 31
0.0
  0
LINE
  5
255
100
AcDbEntity
  8
化粧台
  6
CONTINUOUS
 62
     6
100
AcDbLine
 10
2432.0
 20
1511.0
 30
0.0
 11
2431.0
 21
1511.0
 31
0.0
  0
LINE
  5
256
100
AcDbEntity
  8
化粧台
  6
CONTINUOUS
 62
     6
100
AcDbLine
 10
2432.0
 20
1496.0
 30
0.0
 11
2431.0
 21
1496.0
 31
0.0
  0
ARC
  5
257
100
AcDbEntity
  8
化粧台
  6
CONTINUOUS
 62
     6
100
AcDbCircle
 10
2432.039655
 20
1503.5
 30
0.0
 40
3.939655
100
AcDbArc
 50
105.301302
 51
254.698698
  0
LINE
  5
258
100
AcDbEntity
  8
化粧台
  6
CONTINUOUS
 62
     6
100
AcDbLine
 10
2431.0
 20
1511.0
 30
0.0
 11
2431.0
 21
1496.0
 31
0.0
  0
LINE
  5
259
100
AcDbEntity
  8
化粧台
  6
CONTINUOUS
 62
     6
100
AcDbLine
 10
2418.1
 20
1503.5
 30
0.0
 11
2492.5
 21
1503.5
 31
0.0
  0
LINE
  5
25A
100
AcDbEntity
  8
化粧台
  6
EXLTYPE3
 62
     6
100
AcDbLine
 10
2330.0
 20
1119.0
 30
0.0
 11
2330.0
 21
903.5
 31
0.0
  0
LINE
  5
25B
100
AcDbEntity
  8
化粧台
  6
EXLTYPE2
 62
     6
100
AcDbLine
 10
2205.0
 20
1535.5
 30
0.0
 11
2209.186047
 21
1538.5
 31
0.0
  0
LINE
  5
25C
100
AcDbEntity
  8
化粧台
  6
EXLTYPE2
 62
     6
100
AcDbLine
 10
2205.0
 20
1535.5
 30
0.0
 11
2205.0
 21
1528.0
 31
0.0
  0
LINE
  5
25D
100
AcDbEntity
  8
化粧台
  6
EXLTYPE2
 62
     6
100
AcDbLine
 10
2266.25
 20
1483.5
 30
0.0
 11
2255.75
 21
1474.5
 31
0.0
  0
LINE
  5
25E
100
AcDbEntity
  8
化粧台
  6
EXLTYPE2
 62
     6
100
AcDbLine
 10
2268.412795
 20
1511.0
 30
0.0
 11
2266.25
 21
1508.0
 31
0.0
  0
LINE
  5
25F
100
AcDbEntity
  8
化粧台
  6
EXLTYPE2
 62
     6
100
AcDbLine
 10
2268.412795
 20
1528.0
 30
0.0
 11
2268.412795
 21
1511.0
 31
0.0
  0
LINE
  5
260
100
AcDbEntity
  8
化粧台
  6
EXLTYPE2
 62
     6
100
AcDbLine
 10
2266.25
 20
1508.0
 30
0.0
 11
2266.25
 21
1483.5
 31
0.0
  0
LINE
  5
261
100
AcDbEntity
  8
化粧台
  6
EXLTYPE2
 62
     6
100
AcDbLine
 10
2213.75
 20
1483.5
 30
0.0
 11
2224.25
 21
1474.5
 31
0.0
  0
LINE
  5
262
100
AcDbEntity
  8
化粧台
  6
EXLTYPE2
 62
     6
100
AcDbLine
 10
2211.587205
 20
1511.0
 30
0.0
 11
2213.75
 21
1508.0
 31
0.0
  0
LINE
  5
263
100
AcDbEntity
  8
化粧台
  6
EXLTYPE2
 62
     6
100
AcDbLine
 10
2211.587205
 20
1528.0
 30
0.0
 11
2211.587205
 21
1511.0
 31
0.0
  0
LINE
  5
264
100
AcDbEntity
  8
化粧台
  6
EXLTYPE2
 62
     6
100
AcDbLine
 10
2213.75
 20
1508.0
 30
0.0
 11
2213.75
 21
1483.5
 31
0.0
  0
LINE
  5
265
100
AcDbEntity
  8
化粧台
  6
EXLTYPE2
 62
     6
100
AcDbLine
 10
2205.0
 20
1528.0
 30
0.0
 11
2275.0
 21
1528.0
 31
0.0
  0
LINE
  5
266
100
AcDbEntity
  8
化粧台
  6
EXLTYPE2
 62
     6
100
AcDbLine
 10
2213.75
 20
1508.0
 30
0.0
 11
2266.25
 21
1508.0
 31
0.0
  0
LINE
  5
267
100
AcDbEntity
  8
化粧台
  6
EXLTYPE2
 62
     6
100
AcDbLine
 10
2213.75
 20
1483.5
 30
0.0
 11
2266.25
 21
1483.5
 31
0.0
  0
LINE
  5
268
100
AcDbEntity
  8
化粧台
  6
EXLTYPE2
 62
     6
100
AcDbLine
 10
2224.25
 20
1474.5
 30
0.0
 11
2255.75
 21
1474.5
 31
0.0
  0
LINE
  5
269
100
AcDbEntity
  8
化粧台
  6
EXLTYPE2
 62
     6
100
AcDbLine
 10
2357.0
 20
1003.500004
 30
0.0
 11
2357.0
 21
992.500002
 31
0.0
  0
LINE
  5
26A
100
AcDbEntity
  8
化粧台
  6
EXLTYPE2
 62
     6
100
AcDbLine
 10
2363.500004
 20
988.500002
 30
0.0
 11
2363.500004
 21
969.0
 31
0.0
  0
ARC
  5
26B
100
AcDbEntity
  8
化粧台
  6
EXLTYPE2
 62
     6
100
AcDbCircle
 10
2354.0
 20
1003.500004
 30
0.0
 40
3.0
100
AcDbArc
 50
359.999995
 51
89.999997
  0
ARC
  5
26C
100
AcDbEntity
  8
化粧台
  6
EXLTYPE2
 62
     6
100
AcDbCircle
 10
2358.0
 20
992.500002
 30
0.0
 40
1.0
100
AcDbArc
 50
180.0
 51
270.0
  0
ARC
  5
26D
100
AcDbEntity
  8
化粧台
  6
EXLTYPE2
 62
     6
100
AcDbCircle
 10
2360.500004
 20
988.500002
 30
0.0
 40
3.0
100
AcDbArc
 50
359.999995
 51
89.999997
  0
ARC
  5
26E
100
AcDbEntity
  8
化粧台
  6
EXLTYPE2
 62
     6
100
AcDbCircle
 10
2363.000004
 20
969.0
 30
0.0
 40
0.5
100
AcDbArc
 50
270.0
 51
0.0
  0
LINE
  5
26F
100
AcDbEntity
  8
化粧台
  6
EXLTYPE2
 62
     6
100
AcDbLine
 10
2352.999996
 20
1024.346519
 30
0.0
 11
2352.999996
 21
1008.54652
 31
0.0
  0
ARC
  5
270
100
AcDbEntity
  8
化粧台
  6
EXLTYPE2
 62
     6
100
AcDbCircle
 10
2350.999996
 20
1024.346519
 30
0.0
 40
2.0
100
AcDbArc
 50
0.000009
 51
90.000004
  0
LINE
  5
271
100
AcDbEntity
  8
化粧台
  6
EXLTYPE2
 62
     6
100
AcDbLine
 10
2303.0
 20
1003.500004
 30
0.0
 11
2303.0
 21
992.500002
 31
0.0
  0
LINE
  5
272
100
AcDbEntity
  8
化粧台
  6
EXLTYPE2
 62
     6
100
AcDbLine
 10
2296.499996
 20
988.500002
 30
0.0
 11
2296.499996
 21
969.0
 31
0.0
  0
ARC
  5
273
100
AcDbEntity
  8
化粧台
  6
EXLTYPE2
 62
     6
100
AcDbCircle
 10
2306.0
 20
1003.500004
 30
0.0
 40
3.0
100
AcDbArc
 50
90.000003
 51
180.000005
  0
ARC
  5
274
100
AcDbEntity
  8
化粧台
  6
EXLTYPE2
 62
     6
100
AcDbCircle
 10
2302.0
 20
992.500002
 30
0.0
 40
1.0
100
AcDbArc
 50
270.0
 51
0.0
  0
ARC
  5
275
100
AcDbEntity
  8
化粧台
  6
EXLTYPE2
 62
     6
100
AcDbCircle
 10
2299.499996
 20
988.500002
 30
0.0
 40
3.0
100
AcDbArc
 50
90.000003
 51
180.000005
  0
ARC
  5
276
100
AcDbEntity
  8
化粧台
  6
EXLTYPE2
 62
     6
100
AcDbCircle
 10
2296.999996
 20
969.0
 30
0.0
 40
0.5
100
AcDbArc
 50
180.0
 51
270.0
  0
LINE
  5
277
100
AcDbEntity
  8
化粧台
  6
EXLTYPE2
 62
     6
100
AcDbLine
 10
2307.000004
 20
1024.346519
 30
0.0
 11
2307.000004
 21
1008.54652
 31
0.0
  0
ARC
  5
278
100
AcDbEntity
  8
化粧台
  6
EXLTYPE2
 62
     6
100
AcDbCircle
 10
2309.000004
 20
1024.346519
 30
0.0
 40
2.0
100
AcDbArc
 50
89.999996
 51
179.999991
  0
LINE
  5
279
100
AcDbEntity
  8
化粧台
  6
EXLTYPE2
 62
     6
100
AcDbLine
 10
2350.999996
 20
1026.346519
 30
0.0
 11
2309.000004
 21
1026.346519
 31
0.0
  0
LINE
  5
27A
100
AcDbEntity
  8
化粧台
  6
EXLTYPE2
 62
     6
100
AcDbLine
 10
2352.999996
 20
1008.54652
 30
0.0
 11
2307.000004
 21
1008.54652
 31
0.0
  0
LINE
  5
27B
100
AcDbEntity
  8
化粧台
  6
EXLTYPE2
 62
     6
100
AcDbLine
 10
2354.0
 20
1006.500004
 30
0.0
 11
2306.0
 21
1006.500004
 31
0.0
  0
LINE
  5
27C
100
AcDbEntity
  8
化粧台
  6
EXLTYPE2
 62
     6
100
AcDbLine
 10
2360.500004
 20
991.500002
 30
0.0
 11
2299.499996
 21
991.500002
 31
0.0
  0
LINE
  5
27D
100
AcDbEntity
  8
化粧台
  6
EXLTYPE2
 62
     6
100
AcDbLine
 10
2363.000004
 20
968.5
 30
0.0
 11
2296.999996
 21
968.5
 31
0.0
  0
LINE
  5
27E
100
AcDbEntity
  8
化粧台
  6
EXLTYPE2
 62
     6
100
AcDbLine
 10
2221.75
 20
1446.7
 30
0.0
 11
2221.75
 21
1406.611864
 31
0.0
  0
LINE
  5
27F
100
AcDbEntity
  8
化粧台
  6
EXLTYPE2
 62
     6
100
AcDbLine
 10
2258.25
 20
1446.7
 30
0.0
 11
2258.25
 21
1406.611864
 31
0.0
  0
LINE
  5
280
100
AcDbEntity
  8
化粧台
  6
EXLTYPE2
 62
     6
100
AcDbLine
 10
2221.75
 20
1406.611864
 30
0.0
 11
2223.0
 21
1405.611864
 31
0.0
  0
LINE
  5
281
100
AcDbEntity
  8
化粧台
  6
EXLTYPE2
 62
     6
100
AcDbLine
 10
2257.0
 20
1405.611864
 30
0.0
 11
2258.25
 21
1406.611864
 31
0.0
  0
LINE
  5
282
100
AcDbEntity
  8
化粧台
  6
EXLTYPE2
 62
     6
100
AcDbLine
 10
2223.0
 20
1405.611864
 30
0.0
 11
2257.0
 21
1405.611864
 31
0.0
  0
LINE
  5
283
100
AcDbEntity
  8
化粧台
  6
EXLTYPE2
 62
     6
100
AcDbLine
 10
2215.75
 20
1446.7
 30
0.0
 11
2264.25
 21
1446.7
 31
0.0
  0
LINE
  5
284
100
AcDbEntity
  8
化粧台
  6
EXLTYPE2
 62
     6
100
AcDbLine
 10
2215.75
 20
1461.5
 30
0.0
 11
2215.75
 21
1446.7
 31
0.0
  0
LINE
  5
285
100
AcDbEntity
  8
化粧台
  6
EXLTYPE2
 62
     6
100
AcDbLine
 10
2218.75
 20
1464.5
 30
0.0
 11
2261.25
 21
1464.5
 31
0.0
  0
LINE
  5
286
100
AcDbEntity
  8
化粧台
  6
EXLTYPE2
 62
     6
100
AcDbLine
 10
2264.25
 20
1461.5
 30
0.0
 11
2264.25
 21
1446.7
 31
0.0
  0
ARC
  5
287
100
AcDbEntity
  8
化粧台
  6
EXLTYPE2
 62
     6
100
AcDbCircle
 10
2218.75
 20
1461.5
 30
0.0
 40
3.0
100
AcDbArc
 50
90.0
 51
180.0
  0
ARC
  5
288
100
AcDbEntity
  8
化粧台
  6
EXLTYPE2
 62
     6
100
AcDbCircle
 10
2261.25
 20
1461.5
 30
0.0
 40
3.0
100
AcDbArc
 50
0.0
 51
90.0
  0
LINE
  5
289
100
AcDbEntity
  8
化粧台
  6
EXLTYPE2
 62
     6
100
AcDbLine
 10
2241.113889
 20
1332.611861
 30
0.0
 11
2271.113889
 21
1332.611861
 31
0.0
  0
LINE
  5
28A
100
AcDbEntity
  8
化粧台
  6
EXLTYPE2
 62
     6
100
AcDbLine
 10
2241.113889
 20
1335.381771
 30
0.0
 11
2271.113889
 21
1335.381771
 31
0.0
  0
LINE
  5
28B
100
AcDbEntity
  8
化粧台
  6
EXLTYPE2
 62
     6
100
AcDbLine
 10
2241.113889
 20
1335.381771
 30
0.0
 11
2241.113889
 21
1320.111865
 31
0.0
  0
LINE
  5
28C
100
AcDbEntity
  8
化粧台
  6
EXLTYPE2
 62
     6
100
AcDbLine
 10
2242.613889
 20
1318.611865
 30
0.0
 11
2269.613889
 21
1318.611865
 31
0.0
  0
LINE
  5
28D
100
AcDbEntity
  8
化粧台
  6
EXLTYPE2
 62
     6
100
AcDbLine
 10
2271.113889
 20
1335.381771
 30
0.0
 11
2271.113889
 21
1320.111865
 31
0.0
  0
ARC
  5
28E
100
AcDbEntity
  8
化粧台
  6
EXLTYPE2
 62
     6
100
AcDbCircle
 10
2242.613889
 20
1320.111865
 30
0.0
 40
1.5
100
AcDbArc
 50
180.0
 51
270.0
  0
ARC
  5
28F
100
AcDbEntity
  8
化粧台
  6
EXLTYPE2
 62
     6
100
AcDbCircle
 10
2269.613889
 20
1320.111865
 30
0.0
 40
1.5
100
AcDbArc
 50
270.0
 51
0.0
  0
LINE
  5
290
100
AcDbEntity
  8
化粧台
  6
EXLTYPE2
 62
     6
100
AcDbLine
 10
2296.477778
 20
1408.811312
 30
0.0
 11
2296.477778
 21
1394.011312
 31
0.0
  0
ARC
  5
291
100
AcDbEntity
  8
化粧台
  6
EXLTYPE2
 62
     6
100
AcDbCircle
 10
2293.477778
 20
1408.811312
 30
0.0
 40
3.0
100
AcDbArc
 50
0.0
 51
90.0
  0
LINE
  5
292
100
AcDbEntity
  8
化粧台
  6
EXLTYPE2
 62
     6
100
AcDbLine
 10
2290.477778
 20
1394.011312
 30
0.0
 11
2290.477778
 21
1365.911862
 31
0.0
  0
ARC
  5
293
100
AcDbEntity
  8
化粧台
  6
EXLTYPE2
 62
     6
100
AcDbCircle
 10
2289.477778
 20
1365.911862
 30
0.0
 40
1.0
100
AcDbArc
 50
270.0
 51
0.0
  0
LINE
  5
294
100
AcDbEntity
  8
化粧台
  6
EXLTYPE2
 62
     6
100
AcDbLine
 10
2223.0
 20
1405.611864
 30
0.0
 11
2223.0
 21
1373.895092
 31
0.0
  0
LINE
  5
295
100
AcDbEntity
  8
化粧台
  6
EXLTYPE2
 62
     6
100
AcDbLine
 10
2257.0
 20
1405.611864
 30
0.0
 11
2257.0
 21
1365.959507
 31
0.0
  0
LINE
  5
296
100
AcDbEntity
  8
化粧台
  6
EXLTYPE2
 62
     6
100
AcDbLine
 10
2283.4
 20
1364.911862
 30
0.0
 11
2289.477778
 21
1364.911862
 31
0.0
  0
LINE
  5
297
100
AcDbEntity
  8
化粧台
  6
EXLTYPE2
 62
     6
100
AcDbLine
 10
2258.25
 20
1411.811312
 30
0.0
 11
2293.477778
 21
1411.811312
 31
0.0
  0
LINE
  5
298
100
AcDbEntity
  8
化粧台
  6
EXLTYPE2
 62
     6
100
AcDbLine
 10
2257.0
 20
1394.011312
 30
0.0
 11
2296.477778
 21
1394.011312
 31
0.0
  0
ARC
  5
299
100
AcDbEntity
  8
化粧台
  6
EXLTYPE2
 62
     6
100
AcDbCircle
 10
2258.847644
 20
1365.959507
 30
0.0
 40
1.847644
100
AcDbArc
 50
180.0
 51
0.0
  0
ARC
  5
29A
100
AcDbEntity
  8
化粧台
  6
EXLTYPE2
 62
     6
100
AcDbCircle
 10
2273.0
 20
1373.895092
 30
0.0
 40
50.0
100
AcDbArc
 50
180.0
 51
230.37782
  0
ARC
  5
29B
100
AcDbEntity
  8
化粧台
  6
EXLTYPE2
 62
     6
100
AcDbCircle
 10
2249.705101
 20
1369.170287
 30
0.0
 40
40.0
100
AcDbArc
 50
302.358812
 51
353.888675
  0
LINE
  5
29C
100
AcDbEntity
  8
化粧台
  6
EXLTYPE2
 62
     6
100
AcDbLine
 10
2288.227778
 20
1433.025752
 30
0.0
 11
2288.227778
 21
1411.811312
 31
0.0
  0
ARC
  5
29D
100
AcDbEntity
  8
化粧台
  6
EXLTYPE2
 62
     6
100
AcDbCircle
 10
2301.113889
 20
1433.025752
 30
0.0
 40
12.886111
100
AcDbArc
 50
0.0
 51
180.0
  0
ARC
  5
29E
100
AcDbEntity
  8
化粧台
  6
EXLTYPE2
 62
     6
100
AcDbCircle
 10
2301.113889
 20
1433.025752
 30
0.0
 40
44.886111
100
AcDbArc
 50
0.0
 51
145.212738
  0
LINE
  5
29F
100
AcDbEntity
  8
化粧台
  6
EXLTYPE2
 62
     6
100
AcDbLine
 10
2224.25
 20
1474.5
 30
0.0
 11
2224.25
 21
1464.5
 31
0.0
  0
LINE
  5
2A0
100
AcDbEntity
  8
化粧台
  6
EXLTYPE2
 62
     6
100
AcDbLine
 10
2255.75
 20
1474.5
 30
0.0
 11
2255.75
 21
1464.5
 31
0.0
  0
LINE
  5
2A1
100
AcDbEntity
  8
化粧台
  6
EXLTYPE2
 62
     6
100
AcDbLine
 10
2275.0
 20
1535.5
 30
0.0
 11
2275.0
 21
1528.0
 31
0.0
  0
LINE
  5
2A2
100
AcDbEntity
  8
化粧台
  6
EXLTYPE2
 62
     6
100
AcDbLine
 10
2275.0
 20
1535.5
 30
0.0
 11
2270.813953
 21
1538.5
 31
0.0
  0
LINE
  5
2A3
100
AcDbEntity
  8
化粧台
  6
EXLTYPE2
 62
     6
100
AcDbLine
 10
2314.0
 20
952.0
 30
0.0
 11
2314.0
 21
1433.025752
 31
0.0
  0
LINE
  5
2A4
100
AcDbEntity
  8
化粧台
  6
EXLTYPE2
 62
     6
100
AcDbLine
 10
2346.0
 20
952.0
 30
0.0
 11
2346.0
 21
1433.025752
 31
0.0
  0
LINE
  5
2A5
100
AcDbEntity
  8
化粧台
  6
EXLTYPE3
 62
     6
100
AcDbLine
 10
2360.75
 20
1448.5
 30
0.0
 11
2486.0
 21
1448.5
 31
0.0
  0
LINE
  5
2A6
100
AcDbEntity
  8
化粧台
  6
EXLTYPE4
 62
     6
100
AcDbLine
 10
2471.0
 20
1432.5
 30
0.0
 11
2375.75
 21
1432.5
 31
0.0
  0
LINE
  5
2A7
100
AcDbEntity
  8
化粧台
  6
EXLTYPE4
 62
     6
100
AcDbLine
 10
2471.0
 20
1464.5
 30
0.0
 11
2375.75
 21
1464.5
 31
0.0
  0
LINE
  5
2A8
100
AcDbEntity
  8
化粧台
  6
CONTINUOUS
 62
     6
100
AcDbLine
 10
2471.0
 20
1464.5
 30
0.0
 11
2471.0
 21
1432.5
 31
0.0
  0
LINE
  5
2A9
100
AcDbEntity
  8
化粧台
  6
CONTINUOUS
 62
     6
100
AcDbLine
 10
2375.5
 20
940.5
 30
0.0
 11
2354.5
 21
940.5
 31
0.0
  0
ARC
  5
2AA
100
AcDbEntity
  8
化粧台
  6
EXLTYPE2
 62
     6
100
AcDbCircle
 10
2415.5
 20
1318.343135
 30
0.0
 40
40.0
100
AcDbArc
 50
180.0
 51
194.361512
  0
ARC
  5
2AB
100
AcDbEntity
  8
化粧台
  6
EXLTYPE2
 62
     6
100
AcDbCircle
 10
2338.0
 20
1298.5
 30
0.0
 40
40.0
100
AcDbArc
 50
352.14831
 51
14.361512
  0
ARC
  5
2AC
100
AcDbEntity
  8
化粧台
  6
EXLTYPE2
 62
     6
100
AcDbCircle
 10
2417.25
 20
1287.571254
 30
0.0
 40
40.0
100
AcDbArc
 50
172.14831
 51
180.0
  0
LINE
  5
2AD
100
AcDbEntity
  8
化粧台
  6
EXLTYPE2
 62
     6
100
AcDbLine
 10
2377.25
 20
1263.5
 30
0.0
 11
2379.722432
 21
1264.927459
 31
0.0
  0
ARC
  5
2AE
100
AcDbEntity
  8
化粧台
  6
EXLTYPE2
 62
     6
100
AcDbCircle
 10
2384.75
 20
1278.365389
 30
0.0
 40
7.5
100
AcDbArc
 50
180.0
 51
227.906502
  0
LINE
  5
2AF
100
AcDbEntity
  8
化粧台
  6
EXLTYPE2
 62
     6
100
AcDbLine
 10
2377.25
 20
1287.571254
 30
0.0
 11
2377.25
 21
1278.365389
 31
0.0
  0
LINE
  5
2B0
100
AcDbEntity
  8
化粧台
  6
EXLTYPE2
 62
     6
100
AcDbLine
 10
2379.722432
 20
1264.927459
 30
0.0
 11
2379.722432
 21
1272.8
 31
0.0
  0
LINE
  5
2B1
100
AcDbEntity
  8
化粧台
  6
EXLTYPE2
 62
     6
100
AcDbLine
 10
2352.75
 20
1263.5
 30
0.0
 11
2350.277568
 21
1264.927459
 31
0.0
  0
ARC
  5
2B2
100
AcDbEntity
  8
化粧台
  6
EXLTYPE2
 62
     6
100
AcDbCircle
 10
2345.25
 20
1278.365389
 30
0.0
 40
7.5
100
AcDbArc
 50
312.093498
 51
0.0
  0
LINE
  5
2B3
100
AcDbEntity
  8
化粧台
  6
EXLTYPE2
 62
     6
100
AcDbLine
 10
2350.277568
 20
1264.927459
 30
0.0
 11
2350.277568
 21
1272.8
 31
0.0
  0
LINE
  5
2B4
100
AcDbEntity
  8
化粧台
  6
EXLTYPE2
 62
     6
100
AcDbLine
 10
2377.25
 20
1263.5
 30
0.0
 11
2352.75
 21
1263.5
 31
0.0
  0
ARC
  5
2B5
100
AcDbEntity
  8
化粧台
  6
EXLTYPE2
 62
     6
100
AcDbCircle
 10
2347.0
 20
1318.0
 30
0.0
 40
7.5
100
AcDbArc
 50
270.0
 51
0.0
  0
ARC
  5
2B6
100
AcDbEntity
  8
化粧台
  6
EXLTYPE2
 62
     6
100
AcDbCircle
 10
2345.25
 20
1279.0
 30
0.0
 40
7.5
100
AcDbArc
 50
0.0
 51
90.0
  0
LINE
  5
2B7
100
AcDbEntity
  8
化粧台
  6
EXLTYPE2
 62
     6
100
AcDbLine
 10
2352.75
 20
1279.0
 30
0.0
 11
2352.75
 21
1278.365389
 31
0.0
  0
LINE
  5
2B8
100
AcDbEntity
  8
化粧台
  6
EXLTYPE2
 62
     6
100
AcDbLine
 10
2341.5
 20
1310.5
 30
0.0
 11
2347.0
 21
1310.5
 31
0.0
  0
LINE
  5
2B9
100
AcDbEntity
  8
化粧台
  6
EXLTYPE2
 62
     6
100
AcDbLine
 10
2341.5
 20
1286.5
 30
0.0
 11
2345.25
 21
1286.5
 31
0.0
  0
LINE
  5
2BA
100
AcDbEntity
  8
化粧台
  6
EXLTYPE2
 62
     6
100
AcDbLine
 10
2328.6
 20
1303.8
 30
0.0
 11
2328.6
 21
1293.2
 31
0.0
  0
LINE
  5
2BB
100
AcDbEntity
  8
化粧台
  6
EXLTYPE2
 62
     6
100
AcDbLine
 10
2341.5
 20
1311.25
 30
0.0
 11
2341.5
 21
1285.75
 31
0.0
  0
ARC
  5
2BC
100
AcDbEntity
  8
化粧台
  6
EXLTYPE2
 62
     6
100
AcDbCircle
 10
2337.725083
 20
1307.25
 30
0.0
 40
5.5
100
AcDbArc
 50
46.658242
 51
142.812374
  0
LINE
  5
2BD
100
AcDbEntity
  8
化粧台
  6
EXLTYPE2
 62
     6
100
AcDbLine
 10
2328.6
 20
1303.8
 30
0.0
 11
2333.34345
 21
1310.574349
 31
0.0
  0
ARC
  5
2BE
100
AcDbEntity
  8
化粧台
  6
EXLTYPE2
 62
     6
100
AcDbCircle
 10
2337.725083
 20
1289.75
 30
0.0
 40
5.5
100
AcDbArc
 50
217.187626
 51
313.341758
  0
LINE
  5
2BF
100
AcDbEntity
  8
化粧台
  6
EXLTYPE2
 62
     6
100
AcDbLine
 10
2328.6
 20
1293.2
 30
0.0
 11
2333.34345
 21
1286.425651
 31
0.0
  0
LINE
  5
2C0
100
AcDbEntity
  8
化粧台
  6
EXLTYPE2
 62
     6
100
AcDbLine
 10
2333.34345
 20
1310.574349
 30
0.0
 11
2333.34345
 21
1286.425651
 31
0.0
  0
ARC
  5
2C1
100
AcDbEntity
  8
化粧台
  6
EXLTYPE2
 62
     6
100
AcDbCircle
 10
2366.75
 20
1327.2
 30
0.0
 40
11.0
100
AcDbArc
 50
326.944269
 51
33.055731
  0
LINE
  5
2C2
100
AcDbEntity
  8
化粧台
  6
EXLTYPE2
 62
     6
100
AcDbLine
 10
2375.969544
 20
1321.2
 30
0.0
 11
2354.030456
 21
1321.2
 31
0.0
  0
LINE
  5
2C3
100
AcDbEntity
  8
化粧台
  6
EXLTYPE2
 62
     6
100
AcDbLine
 10
2375.969544
 20
1333.2
 30
0.0
 11
2354.030456
 21
1333.2
 31
0.0
  0
ARC
  5
2C4
100
AcDbEntity
  8
化粧台
  6
EXLTYPE2
 62
     6
100
AcDbCircle
 10
2363.25
 20
1327.2
 30
0.0
 40
11.0
100
AcDbArc
 50
146.944269
 51
213.055731
  0
LINE
  5
2C5
100
AcDbEntity
  8
化粧台
  6
EXLTYPE2
 62
     6
100
AcDbLine
 10
2354.5
 20
1321.2
 30
0.0
 11
2354.5
 21
1318.0
 31
0.0
  0
LINE
  5
2C6
100
AcDbEntity
  8
化粧台
  6
EXLTYPE2
 62
     6
100
AcDbLine
 10
2375.5
 20
1321.2
 30
0.0
 11
2375.5
 21
1318.343135
 31
0.0
  0
LINE
  5
2C7
100
AcDbEntity
  8
化粧台
  6
EXLTYPE2
 62
     6
100
AcDbLine
 10
2323.0
 20
1293.75
 30
0.0
 11
2328.6
 21
1293.75
 31
0.0
  0
LINE
  5
2C8
100
AcDbEntity
  8
化粧台
  6
EXLTYPE2
 62
     6
100
AcDbLine
 10
2323.0
 20
1303.25
 30
0.0
 11
2328.6
 21
1303.25
 31
0.0
  0
LINE
  5
2C9
100
AcDbEntity
  8
化粧台
  6
EXLTYPE2
 62
     6
100
AcDbLine
 10
2323.0
 20
1303.25
 30
0.0
 11
2323.0
 21
1293.75
 31
0.0
  0
LINE
  5
2CA
100
AcDbEntity
  8
化粧台
  6
EXLTYPE3
 62
     6
100
AcDbLine
 10
2365.0
 20
1348.2
 30
0.0
 11
2365.0
 21
925.5
 31
0.0
  0
LINE
  5
2CB
100
AcDbEntity
  8
化粧台
  6
CONTINUOUS
 62
     6
100
AcDbLine
 10
2354.5
 20
952.0
 30
0.0
 11
2354.5
 21
940.5
 31
0.0
  0
LINE
  5
2CC
100
AcDbEntity
  8
化粧台
  6
CONTINUOUS
 62
     6
100
AcDbLine
 10
2375.5
 20
952.0
 30
0.0
 11
2375.5
 21
940.5
 31
0.0
  0
LINE
  5
2CD
100
AcDbEntity
  8
化粧台
  6
EXLTYPE2
 62
     6
100
AcDbLine
 10
2375.5
 20
1263.5
 30
0.0
 11
2375.5
 21
952.0
 31
0.0
  0
LINE
  5
2CE
100
AcDbEntity
  8
化粧台
  6
EXLTYPE2
 62
     6
100
AcDbLine
 10
2354.5
 20
1263.5
 30
0.0
 11
2354.5
 21
952.0
 31
0.0
  0
LINE
  5
2CF
100
AcDbEntity
  8
化粧台
  6
EXLTYPE2
 62
     6
100
AcDbLine
 10
2396.5
 20
1288.0
 30
0.0
 11
2458.0
 21
1288.0
 31
0.0
  0
LINE
  5
2D0
100
AcDbEntity
  8
化粧台
  6
EXLTYPE2
 62
     6
100
AcDbLine
 10
2396.5
 20
1309.0
 30
0.0
 11
2458.0
 21
1309.0
 31
0.0
  0
LINE
  5
2D1
100
AcDbEntity
  8
化粧台
  6
CONTINUOUS
 62
     6
100
AcDbLine
 10
2458.0
 20
1309.0
 30
0.0
 11
2458.0
 21
1288.0
 31
0.0
  0
LINE
  5
2D2
100
AcDbEntity
  8
化粧台
  6
EXLTYPE3
 62
     6
100
AcDbLine
 10
2313.0
 20
1298.5
 30
0.0
 11
2473.0
 21
1298.5
 31
0.0
  0
LINE
  5
2D3
100
AcDbEntity
  8
化粧台
  6
CONTINUOUS
 62
     2
100
AcDbLine
 10
2450.0
 20
1743.5
 30
0.0
 11
2450.0
 21
952.0
 31
0.0
  0
ARC
  5
2D4
100
AcDbEntity
  8
化粧台
  6
CONTINUOUS
 62
     2
100
AcDbCircle
 10
2050.0
 20
1618.5
 30
0.0
 40
5.0
100
AcDbArc
 50
270.0
 51
0.0
  0
LINE
  5
2D5
100
AcDbEntity
  8
化粧台
  6
CONTINUOUS
 62
     2
100
AcDbLine
 10
2450.0
 20
1743.5
 30
0.0
 11
2430.385165
 21
1743.5
 31
0.0
  0
ARC
  5
2D6
100
AcDbEntity
  8
化粧台
  6
CONTINUOUS
 62
     2
100
AcDbCircle
 10
2430.385165
 20
1738.5
 30
0.0
 40
5.0
100
AcDbArc
 50
90.0
 51
158.198591
  0
LINE
  5
2D7
100
AcDbEntity
  8
化粧台
  6
CONTINUOUS
 62
     2
100
AcDbLine
 10
2425.742781
 20
1740.356953
 30
0.0
 11
2424.257219
 21
1736.643047
 31
0.0
  0
ARC
  5
2D8
100
AcDbEntity
  8
化粧台
  6
CONTINUOUS
 62
     2
100
AcDbCircle
 10
2419.614835
 20
1738.5
 30
0.0
 40
5.0
100
AcDbArc
 50
270.0
 51
338.198591
  0
LINE
  5
2D9
100
AcDbEntity
  8
化粧台
  6
CONTINUOUS
 62
     2
100
AcDbLine
 10
2055.0
 20
1668.5
 30
0.0
 11
2055.0
 21
1618.5
 31
0.0
  0
ARC
  5
2DA
100
AcDbEntity
  8
化粧台
  6
CONTINUOUS
 62
     2
100
AcDbCircle
 10
2065.0
 20
1668.5
 30
0.0
 40
10.0
100
AcDbArc
 50
90.0
 51
180.0
  0
LINE
  5
2DB
100
AcDbEntity
  8
化粧台
  6
CONTINUOUS
 62
     2
100
AcDbLine
 10
2450.0
 20
1678.5
 30
0.0
 11
2065.0
 21
1678.5
 31
0.0
  0
LINE
  5
2DC
100
AcDbEntity
  8
化粧台
  6
CONTINUOUS
 62
     2
100
AcDbLine
 10
2419.614835
 20
1733.5
 30
0.0
 11
2001.318171
 21
1733.5
 31
0.0
  0
LINE
  5
2DD
100
AcDbEntity
  8
化粧台
  6
CONTINUOUS
 62
     2
100
AcDbLine
 10
1970.456008
 20
1721.413822
 30
0.0
 11
2018.662244
 21
1616.413822
 31
0.0
  0
LINE
  5
2DE
100
AcDbEntity
  8
化粧台
  6
CONTINUOUS
 62
     2
100
AcDbLine
 10
2050.0
 20
1613.5
 30
0.0
 11
2023.206236
 21
1613.5
 31
0.0
  0
ARC
  5
2DF
100
AcDbEntity
  8
化粧台
  6
CONTINUOUS
 62
     2
100
AcDbCircle
 10
2023.206236
 20
1618.5
 30
0.0
 40
5.0
100
AcDbArc
 50
186.285124
 51
270.0
  0
ARC
  5
2E0
100
AcDbEntity
  8
化粧台
  6
CONTINUOUS
 62
     2
100
AcDbCircle
 10
1975.0
 20
1723.5
 30
0.0
 40
5.0
100
AcDbArc
 50
103.505761
 51
204.660187
  0
ARC
  5
2E1
100
AcDbEntity
  8
化粧台
  6
CONTINUOUS
 62
     2
100
AcDbCircle
 10
2001.318171
 20
1682.043204
 30
0.0
 40
51.456796
100
AcDbArc
 50
90.0
 51
103.505761
  0
LINE
  5
2E2
100
AcDbEntity
  8
化粧台
  6
CONTINUOUS
 62
     2
100
AcDbLine
 10
1989.30079
 20
1732.077037
 30
0.0
 11
1973.832284
 21
1728.361732
 31
0.0
  0
LINE
  5
2E3
100
AcDbEntity
  8
化粧台
  6
CONTINUOUS
 62
     2
100
AcDbLine
 10
1996.41431
 20
1727.524218
 30
0.0
 11
2018.302375
 21
1617.524218
 31
0.0
  0
ARC
  5
2E4
100
AcDbEntity
  8
化粧台
  6
CONTINUOUS
 62
     2
100
AcDbCircle
 10
2001.318171
 20
1728.5
 30
0.0
 40
5.0
100
AcDbArc
 50
90.0
 51
191.25386
  0
ARC
  5
2E5
100
AcDbEntity
  8
化粧台
  6
EXLTYPE2
 62
     6
100
AcDbCircle
 10
2190.468301
 20
1567.372534
 30
0.0
 40
9.0
100
AcDbArc
 50
7.786183
 51
79.167881
  0
LINE
  5
2E6
100
AcDbEntity
  8
化粧台
  6
EXLTYPE2
 62
     6
100
AcDbLine
 10
2199.385325
 20
1568.591823
 30
0.0
 11
2202.908937
 21
1542.822617
 31
0.0
  0
ARC
  5
2E7
100
AcDbEntity
  8
化粧台
  6
EXLTYPE2
 62
     6
100
AcDbCircle
 10
2207.86284
 20
1543.5
 30
0.0
 40
5.0
100
AcDbArc
 50
187.786183
 51
270.0
  0
LINE
  5
2E8
100
AcDbEntity
  8
化粧台
  6
EXLTYPE2
 62
     6
100
AcDbLine
 10
2272.13716
 20
1538.5
 30
0.0
 11
2207.86284
 21
1538.5
 31
0.0
  0
ARC
  5
2E9
100
AcDbEntity
  8
化粧台
  6
EXLTYPE2
 62
     6
100
AcDbCircle
 10
2280.802606
 20
1538.509003
 30
0.0
 40
5.0
100
AcDbArc
 50
91.036711
 51
150.059546
  0
ARC
  5
2EA
100
AcDbEntity
  8
化粧台
  6
EXLTYPE2
 62
     6
100
AcDbCircle
 10
2272.13716
 20
1543.5
 30
0.0
 40
5.0
100
AcDbArc
 50
270.0
 51
330.059546
  0
ARC
  5
2EB
100
AcDbEntity
  8
化粧台
  6
EXLTYPE2
 62
     6
100
AcDbCircle
 10
2279.807489
 20
1593.5
 30
0.0
 40
50.0
100
AcDbArc
 50
271.036711
 51
309.391198
  0
ARC
  5
2EC
100
AcDbEntity
  8
化粧台
  6
EXLTYPE2
 62
     6
100
AcDbCircle
 10
2323.113883
 20
1603.5
 30
0.0
 40
50.0
100
AcDbArc
 50
251.565051
 51
270.0
  0
LINE
  5
2ED
100
AcDbEntity
  8
化粧台
  6
EXLTYPE2
 62
     6
100
AcDbLine
 10
2110.711846
 20
1621.596051
 30
0.0
 11
2307.302495
 21
1556.065835
 31
0.0
  0
ARC
  5
2EE
100
AcDbEntity
  8
化粧台
  6
EXLTYPE2
 62
     6
100
AcDbCircle
 10
2113.874123
 20
1631.082884
 30
0.0
 40
10.0
100
AcDbArc
 50
189.462322
 51
251.565051
  0
LINE
  5
2EF
100
AcDbEntity
  8
化粧台
  6
EXLTYPE2
 62
     6
100
AcDbLine
 10
2095.833333
 20
1678.5
 30
0.0
 11
2104.010184
 21
1629.438894
 31
0.0
  0
LINE
  5
2F0
100
AcDbEntity
  8
化粧台
  6
EXLTYPE2
 62
     6
100
AcDbLine
 10
2440.0
 20
1553.5
 30
0.0
 11
2323.113883
 21
1553.5
 31
0.0
  0
ARC
  5
2F1
100
AcDbEntity
  8
化粧台
  6
EXLTYPE2
 62
     6
100
AcDbCircle
 10
2440.0
 20
1563.5
 30
0.0
 40
10.0
100
AcDbArc
 50
270.0
 51
0.0
  0
ARC
  5
2F2
100
AcDbEntity
  8
化粧台
  6
EXLTYPE2
 62
     6
100
AcDbCircle
 10
2240.834059
 20
1830.597324
 30
0.0
 40
259.0
100
AcDbArc
 50
228.237442
 51
259.167881
  0
ARC
  5
2F3
100
AcDbEntity
  8
化粧台
  6
CONTINUOUS
 62
     6
100
AcDbCircle
 10
2063.0
 20
1631.438977
 30
0.0
 40
8.0
100
AcDbArc
 50
48.237442
 51
180.0
  0
LINE
  5
2F4
100
AcDbEntity
  8
化粧台
  6
CONTINUOUS
 62
     2
100
AcDbLine
 10
2060.0
 20
1677.160254
 30
0.0
 11
2060.0
 21
952.0
 31
0.0
  0
LINE
  5
2F5
100
AcDbEntity
  8
化粧台
  6
CONTINUOUS
 62
     6
100
AcDbLine
 10
2370.0
 20
1750.722388
 30
0.0
 11
2370.0
 21
1710.722388
 31
0.0
  0
LINE
  5
2F6
100
AcDbEntity
  8
化粧台
  6
CONTINUOUS
 62
     6
100
AcDbLine
 10
2314.0
 20
918.5
 30
0.0
 11
2346.0
 21
918.5
 31
0.0
  0
LINE
  5
2F7
100
AcDbEntity
  8
化粧台
  6
CONTINUOUS
 62
     6
100
AcDbLine
 10
2314.0
 20
918.5
 30
0.0
 11
2314.0
 21
952.0
 31
0.0
  0
LINE
  5
2F8
100
AcDbEntity
  8
化粧台
  6
CONTINUOUS
 62
     6
100
AcDbLine
 10
2346.0
 20
918.5
 30
0.0
 11
2346.0
 21
952.0
 31
0.0
  0
LINE
  5
2F9
100
AcDbEntity
  8
化粧台
  6
CONTINUOUS
 62
     6
100
AcDbLine
 10
854.0
 20
1763.5
 30
0.0
 11
854.0
 21
1710.722388
 31
0.0
  0
LINE
  5
2FA
100
AcDbEntity
  8
化粧台
  6
CONTINUOUS
 62
     6
100
AcDbLine
 10
956.0
 20
1763.5
 30
0.0
 11
956.0
 21
1710.722388
 31
0.0
  0
ARC
  5
2FB
100
AcDbEntity
  8
化粧台
  6
CONTINUOUS
 62
     2
100
AcDbCircle
 10
905.0
 20
15398.237234
 30
0.0
 40
13669.737234
100
AcDbArc
 50
268.450554
 51
271.549446
  0
LINE
  5
2FC
100
AcDbEntity
  8
化粧台
  6
CONTINUOUS
 62
     6
100
AcDbLine
 10
1151.48321
 20
1730.722388
 30
0.0
 11
658.51679
 21
1730.722388
 31
0.0
  0
ARC
  5
2FD
100
AcDbEntity
  8
化粧台
  6
CONTINUOUS
 62
     6
100
AcDbCircle
 10
898.082
 20
3790.723
 30
0.0
 40
10.0
100
AcDbArc
 50
184.505
 51
236.399
  0
ARC
  5
2FE
100
AcDbEntity
  8
化粧台
  6
CONTINUOUS
 62
     6
100
AcDbCircle
 10
836.042
 20
3874.896
 30
0.0
 40
1.0
100
AcDbArc
 50
150.001
 51
225.233
  0
ARC
  5
2FF
100
AcDbEntity
  8
化粧台
  6
CONTINUOUS
 62
     6
100
AcDbCircle
 10
854.0
 20
3893.0
 30
0.0
 40
26.5
100
AcDbArc
 50
225.233
 51
240.0
  0
ARC
  5
300
100
AcDbEntity
  8
化粧台
  6
CONTINUOUS
 62
     6
100
AcDbCircle
 10
854.0
 20
3893.0
 30
0.0
 40
24.5
100
AcDbArc
 50
225.233
 51
240.0
  0
ARC
  5
301
100
AcDbEntity
  8
化粧台
  6
CONTINUOUS
 62
     6
100
AcDbCircle
 10
854.0
 20
3893.0
 30
0.0
 40
24.5
100
AcDbArc
 50
240.0
 51
254.768
  0
ARC
  5
302
100
AcDbEntity
  8
化粧台
  6
CONTINUOUS
 62
     6
100
AcDbCircle
 10
854.0
 20
3893.0
 30
0.0
 40
26.5
100
AcDbArc
 50
240.0
 51
254.768
  0
LINE
  5
303
100
AcDbEntity
  8
化粧台
  6
CONTINUOUS
 62
     6
100
AcDbLine
 10
848.167
 20
3867.896
 30
0.0
 11
849.67
 21
3870.5
 31
0.0
  0
ARC
  5
304
100
AcDbEntity
  8
化粧台
  6
CONTINUOUS
 62
     6
100
AcDbCircle
 10
847.301
 20
3868.396
 30
0.0
 40
1.0
100
AcDbArc
 50
254.768
 51
330.0
  0
ARC
  5
305
100
AcDbEntity
  8
化粧台
  6
CONTINUOUS
 62
     6
100
AcDbCircle
 10
851.47
 20
3865.617
 30
0.0
 40
4.0
100
AcDbArc
 50
84.72
 51
146.312
  0
ARC
  5
306
100
AcDbEntity
  8
化粧台
  6
CONTINUOUS
 62
     6
100
AcDbCircle
 10
854.0
 20
3893.0
 30
0.0
 40
23.5
100
AcDbArc
 50
264.72
 51
317.255803
  0
ARC
  5
307
100
AcDbEntity
  8
化粧台
  6
CONTINUOUS
 62
     6
100
AcDbCircle
 10
875.651
 20
3855.5
 30
0.0
 40
30.0
100
AcDbArc
 50
133.917078
 51
150.001
  0
LINE
  5
308
100
AcDbEntity
  8
化粧台
  6
CONTINUOUS
 62
     6
100
AcDbLine
 10
835.176
 20
3875.396
 30
0.0
 11
836.222248
 21
3877.207457
 31
0.0
  0
ARC
  5
309
100
AcDbEntity
  8
化粧台
  6
CONTINUOUS
 62
     6
100
AcDbCircle
 10
831.551
 20
3877.117
 30
0.0
 40
4.0
100
AcDbArc
 50
333.689
 51
1.354205
  0
ARC
  5
30A
100
AcDbEntity
  8
化粧台
  6
CONTINUOUS
 62
     6
100
AcDbCircle
 10
905.0
 20
3619.772
 30
0.0
 40
300.0
100
AcDbArc
 50
90.0
 51
98.962027
  0
CIRCLE
  5
30B
100
AcDbEntity
  8
化粧台
  6
CONTINUOUS
 62
     6
100
AcDbCircle
 10
854.0
 20
3893.0
 30
0.0
 40
8.5
  0
ARC
  5
30C
100
AcDbEntity
  8
化粧台
  6
CONTINUOUS
 62
     6
100
AcDbCircle
 10
851.47
 20
3920.383
 30
0.0
 40
4.0
100
AcDbArc
 50
213.69
 51
275.28
  0
ARC
  5
30D
100
AcDbEntity
  8
化粧台
  6
CONTINUOUS
 62
     6
100
AcDbCircle
 10
831.551
 20
3908.883
 30
0.0
 40
4.0
100
AcDbArc
 50
324.72
 51
26.312
  0
ARC
  5
30E
100
AcDbEntity
  8
化粧台
  6
CONTINUOUS
 62
     6
100
AcDbCircle
 10
810.699
 20
3893.0
 30
0.0
 40
30.0
100
AcDbArc
 50
330.001
 51
30.0
  0
ARC
  5
30F
100
AcDbEntity
  8
化粧台
  6
CONTINUOUS
 62
     6
100
AcDbCircle
 10
836.042
 20
3911.104
 30
0.0
 40
1.0
100
AcDbArc
 50
134.768
 51
210.001
  0
LINE
  5
310
100
AcDbEntity
  8
化粧台
  6
CONTINUOUS
 62
     6
100
AcDbLine
 10
835.176
 20
3910.604
 30
0.0
 11
836.68
 21
3908.0
 31
0.0
  0
ARC
  5
311
100
AcDbEntity
  8
化粧台
  6
CONTINUOUS
 62
     6
100
AcDbCircle
 10
854.0
 20
3893.0
 30
0.0
 40
26.5
100
AcDbArc
 50
120.001
 51
134.768
  0
ARC
  5
312
100
AcDbEntity
  8
化粧台
  6
CONTINUOUS
 62
     6
100
AcDbCircle
 10
854.0
 20
3893.0
 30
0.0
 40
24.5
100
AcDbArc
 50
120.001
 51
134.768
  0
ARC
  5
313
100
AcDbEntity
  8
化粧台
  6
CONTINUOUS
 62
     6
100
AcDbCircle
 10
875.651
 20
3930.5
 30
0.0
 40
30.0
100
AcDbArc
 50
210.001
 51
270.0
  0
ARC
  5
314
100
AcDbEntity
  8
化粧台
  6
CONTINUOUS
 62
     6
100
AcDbCircle
 10
847.301
 20
3917.604
 30
0.0
 40
1.0
100
AcDbArc
 50
30.0
 51
105.233
  0
LINE
  5
315
100
AcDbEntity
  8
化粧台
  6
CONTINUOUS
 62
     6
100
AcDbLine
 10
848.167
 20
3918.104
 30
0.0
 11
849.67
 21
3915.5
 31
0.0
  0
ARC
  5
316
100
AcDbEntity
  8
化粧台
  6
CONTINUOUS
 62
     6
100
AcDbCircle
 10
854.0
 20
3893.0
 30
0.0
 40
23.5
100
AcDbArc
 50
24.72
 51
95.281
  0
ARC
  5
317
100
AcDbEntity
  8
化粧台
  6
CONTINUOUS
 62
     6
100
AcDbCircle
 10
854.0
 20
3893.0
 30
0.0
 40
26.5
100
AcDbArc
 50
105.233
 51
120.001
  0
ARC
  5
318
100
AcDbEntity
  8
化粧台
  6
CONTINUOUS
 62
     6
100
AcDbCircle
 10
854.0
 20
3893.0
 30
0.0
 40
24.5
100
AcDbArc
 50
105.233
 51
120.001
  0
ARC
  5
319
100
AcDbEntity
  8
化粧台
  6
CONTINUOUS
 62
     6
100
AcDbCircle
 10
854.0
 20
3893.0
 30
0.0
 40
23.5
100
AcDbArc
 50
144.721
 51
215.281
  0
ARC
  5
31A
100
AcDbEntity
  8
化粧台
  6
CONTINUOUS
 62
     6
100
AcDbCircle
 10
854.0
 20
3893.0
 30
0.0
 40
21.5
100
AcDbArc
 50
144.721
 51
215.281
  0
LINE
  5
31B
100
AcDbEntity
  8
化粧台
  6
CONTINUOUS
 62
     6
100
AcDbLine
 10
836.222248
 20
3877.207457
 30
0.0
 11
836.68
 21
3878.0
 31
0.0
  0
ARC
  5
31C
100
AcDbEntity
  8
化粧台
  6
CONTINUOUS
 62
     6
100
AcDbCircle
 10
831.551
 20
3877.117
 30
0.0
 40
4.0
100
AcDbArc
 50
1.354205
 51
35.28
  0
ARC
  5
31D
100
AcDbEntity
  8
化粧台
  6
CONTINUOUS
 62
     6
100
AcDbCircle
 10
2383.48
 20
3907.745
 30
0.0
 40
1500.0
100
AcDbArc
 50
182.699561
 51
184.508219
  0
ARC
  5
31E
100
AcDbEntity
  8
化粧台
  6
CONTINUOUS
 62
     6
100
AcDbCircle
 10
914.867
 20
4245.704
 30
0.0
 40
380.0
100
AcDbArc
 50
261.457589
 51
264.03
  0
ARC
  5
31F
100
AcDbEntity
  8
化粧台
  6
CONTINUOUS
 62
     6
100
AcDbCircle
 10
874.306
 20
3857.819
 30
0.0
 40
10.0
100
AcDbArc
 50
1.895
 51
84.03
  0
ARC
  5
320
100
AcDbEntity
  8
化粧台
  6
CONTINUOUS
 62
     6
100
AcDbCircle
 10
854.0
 20
3893.0
 30
0.0
 40
21.5
100
AcDbArc
 50
264.72
 51
312.144275
  0
ARC
  5
321
100
AcDbEntity
  8
化粧台
  6
CONTINUOUS
 62
     6
100
AcDbCircle
 10
854.0
 20
3893.0
 30
0.0
 40
26.5
100
AcDbArc
 50
345.233
 51
0.0
  0
LINE
  5
322
100
AcDbEntity
  8
化粧台
  6
CONTINUOUS
 62
     6
100
AcDbLine
 10
878.658
 20
3885.5
 30
0.0
 11
875.651
 21
3885.5
 31
0.0
  0
ARC
  5
323
100
AcDbEntity
  8
化粧台
  6
CONTINUOUS
 62
     6
100
AcDbCircle
 10
878.658
 20
3886.5
 30
0.0
 40
1.0
100
AcDbArc
 50
270.0
 51
345.233
  0
ARC
  5
324
100
AcDbEntity
  8
化粧台
  6
CONTINUOUS
 62
     6
100
AcDbCircle
 10
878.98
 20
3881.5
 30
0.0
 40
4.0
100
AcDbArc
 50
93.689
 51
155.281
  0
ARC
  5
325
100
AcDbEntity
  8
化粧台
  6
CONTINUOUS
 62
     6
100
AcDbCircle
 10
878.98
 20
3904.5
 30
0.0
 40
4.0
100
AcDbArc
 50
204.721
 51
266.312
  0
ARC
  5
326
100
AcDbEntity
  8
化粧台
  6
CONTINUOUS
 62
     6
100
AcDbCircle
 10
878.658
 20
3899.5
 30
0.0
 40
1.0
100
AcDbArc
 50
14.768
 51
90.0
  0
LINE
  5
327
100
AcDbEntity
  8
化粧台
  6
CONTINUOUS
 62
     6
100
AcDbLine
 10
878.658
 20
3900.5
 30
0.0
 11
875.651
 21
3900.5
 31
0.0
  0
ARC
  5
328
100
AcDbEntity
  8
化粧台
  6
CONTINUOUS
 62
     6
100
AcDbCircle
 10
854.0
 20
3893.0
 30
0.0
 40
26.5
100
AcDbArc
 50
0.0
 51
14.768
  0
ARC
  5
329
100
AcDbEntity
  8
化粧台
  6
CONTINUOUS
 62
     6
100
AcDbCircle
 10
854.0
 20
3893.0
 30
0.0
 40
24.5
100
AcDbArc
 50
0.0
 51
14.768
  0
ARC
  5
32A
100
AcDbEntity
  8
化粧台
  6
CONTINUOUS
 62
     6
100
AcDbCircle
 10
854.0
 20
3893.0
 30
0.0
 40
21.5
100
AcDbArc
 50
24.72
 51
95.281
  0
ARC
  5
32B
100
AcDbEntity
  8
化粧台
  6
CONTINUOUS
 62
     6
100
AcDbCircle
 10
854.0
 20
3893.0
 30
0.0
 40
24.5
100
AcDbArc
 50
345.233
 51
0.0
  0
ARC
  5
32C
100
AcDbEntity
  8
化粧台
  6
CONTINUOUS
 62
     6
100
AcDbCircle
 10
2383.48
 20
3907.745
 30
0.0
 40
1500.0
100
AcDbArc
 50
181.028
 51
181.173701
  0
ARC
  5
32D
100
AcDbEntity
  8
化粧台
  6
CONTINUOUS
 62
     6
100
AcDbCircle
 10
854.0
 20
3893.0
 30
0.0
 40
23.5
100
AcDbArc
 50
317.255803
 51
335.281
  0
ARC
  5
32E
100
AcDbEntity
  8
化粧台
  6
CONTINUOUS
 62
     6
100
AcDbCircle
 10
854.0
 20
3893.0
 30
0.0
 40
21.5
100
AcDbArc
 50
312.144275
 51
335.281
  0
ARC
  5
32F
100
AcDbEntity
  8
化粧台
  6
CONTINUOUS
 62
     6
100
AcDbCircle
 10
875.651
 20
3855.5
 30
0.0
 40
30.0
100
AcDbArc
 50
90.0
 51
133.917078
  0
ARC
  5
330
100
AcDbEntity
  8
化粧台
  6
CONTINUOUS
 62
     6
100
AcDbCircle
 10
2383.48
 20
3907.745
 30
0.0
 40
1500.0
100
AcDbArc
 50
181.173701
 51
182.699561
  0
ARC
  5
331
100
AcDbEntity
  8
化粧台
  6
CONTINUOUS
 62
     6
100
AcDbCircle
 10
-573.48
 20
3907.745
 30
0.0
 40
1500.0
100
AcDbArc
 50
357.300464
 51
358.826299
  0
ARC
  5
332
100
AcDbEntity
  8
化粧台
  6
CONTINUOUS
 62
     6
100
AcDbCircle
 10
-573.48
 20
3907.745
 30
0.0
 40
1500.0
100
AcDbArc
 50
358.826299
 51
358.972
  0
LINE
  5
333
100
AcDbEntity
  8
化粧台
  6
CONTINUOUS
 62
     6
100
AcDbLine
 10
938.13023
 20
3877.048137
 30
0.0
 11
938.68
 21
3878.0
 31
0.0
  0
ARC
  5
334
100
AcDbEntity
  8
化粧台
  6
CONTINUOUS
 62
     6
100
AcDbCircle
 10
933.551
 20
3877.117
 30
0.0
 40
4.0
100
AcDbArc
 50
358.989629
 51
35.28
  0
ARC
  5
335
100
AcDbEntity
  8
化粧台
  6
CONTINUOUS
 62
     6
100
AcDbCircle
 10
956.0
 20
3893.0
 30
0.0
 40
23.5
100
AcDbArc
 50
144.721
 51
215.281
  0
ARC
  5
336
100
AcDbEntity
  8
化粧台
  6
CONTINUOUS
 62
     6
100
AcDbCircle
 10
956.0
 20
3893.0
 30
0.0
 40
21.5
100
AcDbArc
 50
144.721
 51
215.281
  0
ARC
  5
337
100
AcDbEntity
  8
化粧台
  6
CONTINUOUS
 62
     6
100
AcDbCircle
 10
956.0
 20
3893.0
 30
0.0
 40
24.5
100
AcDbArc
 50
120.001
 51
134.768
  0
ARC
  5
338
100
AcDbEntity
  8
化粧台
  6
CONTINUOUS
 62
     6
100
AcDbCircle
 10
956.0
 20
3893.0
 30
0.0
 40
26.5
100
AcDbArc
 50
120.001
 51
134.768
  0
LINE
  5
339
100
AcDbEntity
  8
化粧台
  6
CONTINUOUS
 62
     6
100
AcDbLine
 10
937.176
 20
3910.604
 30
0.0
 11
938.68
 21
3908.0
 31
0.0
  0
ARC
  5
33A
100
AcDbEntity
  8
化粧台
  6
CONTINUOUS
 62
     6
100
AcDbCircle
 10
938.042
 20
3911.104
 30
0.0
 40
1.0
100
AcDbArc
 50
134.768
 51
210.001
  0
ARC
  5
33B
100
AcDbEntity
  8
化粧台
  6
CONTINUOUS
 62
     6
100
AcDbCircle
 10
912.699
 20
3893.0
 30
0.0
 40
30.0
100
AcDbArc
 50
330.001
 51
30.0
  0
ARC
  5
33C
100
AcDbEntity
  8
化粧台
  6
CONTINUOUS
 62
     6
100
AcDbCircle
 10
933.551
 20
3908.883
 30
0.0
 40
4.0
100
AcDbArc
 50
324.72
 51
26.312
  0
ARC
  5
33D
100
AcDbEntity
  8
化粧台
  6
CONTINUOUS
 62
     6
100
AcDbCircle
 10
905.015
 20
3881.25
 30
0.0
 40
21.25
100
AcDbArc
 50
90.0
 51
90.038
  0
LINE
  5
33E
100
AcDbEntity
  8
化粧台
  6
CONTINUOUS
 62
     6
100
AcDbLine
 10
937.176
 20
3875.396
 30
0.0
 11
938.13023
 21
3877.048137
 31
0.0
  0
ARC
  5
33F
100
AcDbEntity
  8
化粧台
  6
CONTINUOUS
 62
     6
100
AcDbCircle
 10
933.551
 20
3877.117
 30
0.0
 40
4.0
100
AcDbArc
 50
333.689
 51
358.989629
  0
ARC
  5
340
100
AcDbEntity
  8
化粧台
  6
CONTINUOUS
 62
     6
100
AcDbCircle
 10
956.0
 20
3893.0
 30
0.0
 40
24.5
100
AcDbArc
 50
240.0
 51
254.768
  0
ARC
  5
341
100
AcDbEntity
  8
化粧台
  6
CONTINUOUS
 62
     6
100
AcDbCircle
 10
956.0
 20
3893.0
 30
0.0
 40
24.5
100
AcDbArc
 50
225.233
 51
240.0
  0
ARC
  5
342
100
AcDbEntity
  8
化粧台
  6
CONTINUOUS
 62
     6
100
AcDbCircle
 10
956.0
 20
3893.0
 30
0.0
 40
26.5
100
AcDbArc
 50
225.233
 51
240.0
  0
ARC
  5
343
100
AcDbEntity
  8
化粧台
  6
CONTINUOUS
 62
     6
100
AcDbCircle
 10
938.042
 20
3874.896
 30
0.0
 40
1.0
100
AcDbArc
 50
150.001
 51
225.233
  0
ARC
  5
344
100
AcDbEntity
  8
化粧台
  6
CONTINUOUS
 62
     6
100
AcDbCircle
 10
949.301
 20
3868.396
 30
0.0
 40
1.0
100
AcDbArc
 50
254.768
 51
330.0
  0
ARC
  5
345
100
AcDbEntity
  8
化粧台
  6
CONTINUOUS
 62
     6
100
AcDbCircle
 10
956.0
 20
3893.0
 30
0.0
 40
26.5
100
AcDbArc
 50
240.0
 51
254.768
  0
ARC
  5
346
100
AcDbEntity
  8
化粧台
  6
CONTINUOUS
 62
     6
100
AcDbCircle
 10
895.133
 20
4245.704
 30
0.0
 40
380.0
100
AcDbArc
 50
275.97
 51
277.515121
  0
ARC
  5
347
100
AcDbEntity
  8
化粧台
  6
CONTINUOUS
 62
     6
100
AcDbCircle
 10
935.695
 20
3857.819
 30
0.0
 40
10.0
100
AcDbArc
 50
95.97
 51
178.105
  0
ARC
  5
348
100
AcDbEntity
  8
化粧台
  6
CONTINUOUS
 62
     6
100
AcDbCircle
 10
-573.48
 20
3907.745
 30
0.0
 40
1500.0
100
AcDbArc
 50
355.491781
 51
357.300464
  0
ARC
  5
349
100
AcDbEntity
  8
化粧台
  6
CONTINUOUS
 62
     6
100
AcDbCircle
 10
977.651
 20
3855.5
 30
0.0
 40
30.0
100
AcDbArc
 50
90.0
 51
133.896221
  0
ARC
  5
34A
100
AcDbEntity
  8
化粧台
  6
CONTINUOUS
 62
     6
100
AcDbCircle
 10
956.0
 20
3893.0
 30
0.0
 40
23.5
100
AcDbArc
 50
317.769121
 51
335.281
  0
ARC
  5
34B
100
AcDbEntity
  8
化粧台
  6
CONTINUOUS
 62
     6
100
AcDbCircle
 10
956.0
 20
3893.0
 30
0.0
 40
21.5
100
AcDbArc
 50
312.657593
 51
335.281
  0
ARC
  5
34C
100
AcDbEntity
  8
化粧台
  6
CONTINUOUS
 62
     6
100
AcDbCircle
 10
956.0
 20
3893.0
 30
0.0
 40
24.5
100
AcDbArc
 50
345.233
 51
0.0
  0
ARC
  5
34D
100
AcDbEntity
  8
化粧台
  6
CONTINUOUS
 62
     6
100
AcDbCircle
 10
956.0
 20
3893.0
 30
0.0
 40
21.5
100
AcDbArc
 50
24.72
 51
95.281
  0
ARC
  5
34E
100
AcDbEntity
  8
化粧台
  6
CONTINUOUS
 62
     6
100
AcDbCircle
 10
956.0
 20
3893.0
 30
0.0
 40
24.5
100
AcDbArc
 50
105.233
 51
120.001
  0
ARC
  5
34F
100
AcDbEntity
  8
化粧台
  6
CONTINUOUS
 62
     6
100
AcDbCircle
 10
956.0
 20
3893.0
 30
0.0
 40
24.5
100
AcDbArc
 50
0.0
 51
14.768
  0
ARC
  5
350
100
AcDbEntity
  8
化粧台
  6
CONTINUOUS
 62
     6
100
AcDbCircle
 10
956.0
 20
3893.0
 30
0.0
 40
26.5
100
AcDbArc
 50
105.233
 51
120.001
  0
ARC
  5
351
100
AcDbEntity
  8
化粧台
  6
CONTINUOUS
 62
     6
100
AcDbCircle
 10
956.0
 20
3893.0
 30
0.0
 40
26.5
100
AcDbArc
 50
0.0
 51
14.768
  0
ARC
  5
352
100
AcDbEntity
  8
化粧台
  6
CONTINUOUS
 62
     6
100
AcDbCircle
 10
956.0
 20
3893.0
 30
0.0
 40
23.5
100
AcDbArc
 50
24.72
 51
95.281
  0
LINE
  5
353
100
AcDbEntity
  8
化粧台
  6
CONTINUOUS
 62
     6
100
AcDbLine
 10
950.167
 20
3918.104
 30
0.0
 11
951.67
 21
3915.5
 31
0.0
  0
ARC
  5
354
100
AcDbEntity
  8
化粧台
  6
CONTINUOUS
 62
     6
100
AcDbCircle
 10
949.301
 20
3917.604
 30
0.0
 40
1.0
100
AcDbArc
 50
30.0
 51
105.233
  0
LINE
  5
355
100
AcDbEntity
  8
化粧台
  6
CONTINUOUS
 62
     6
100
AcDbLine
 10
980.658
 20
3900.5
 30
0.0
 11
977.651
 21
3900.5
 31
0.0
  0
ARC
  5
356
100
AcDbEntity
  8
化粧台
  6
CONTINUOUS
 62
     6
100
AcDbCircle
 10
980.658
 20
3899.5
 30
0.0
 40
1.0
100
AcDbArc
 50
14.768
 51
90.0
  0
ARC
  5
357
100
AcDbEntity
  8
化粧台
  6
CONTINUOUS
 62
     6
100
AcDbCircle
 10
977.651
 20
3930.5
 30
0.0
 40
30.0
100
AcDbArc
 50
210.001
 51
270.0
  0
ARC
  5
358
100
AcDbEntity
  8
化粧台
  6
CONTINUOUS
 62
     6
100
AcDbCircle
 10
953.47
 20
3920.383
 30
0.0
 40
4.0
100
AcDbArc
 50
213.69
 51
275.28
  0
ARC
  5
359
100
AcDbEntity
  8
化粧台
  6
CONTINUOUS
 62
     6
100
AcDbCircle
 10
980.98
 20
3904.5
 30
0.0
 40
4.0
100
AcDbArc
 50
204.721
 51
266.312
  0
ARC
  5
35A
100
AcDbEntity
  8
化粧台
  6
CONTINUOUS
 62
     6
100
AcDbCircle
 10
980.98
 20
3881.5
 30
0.0
 40
4.0
100
AcDbArc
 50
93.689
 51
155.281
  0
ARC
  5
35B
100
AcDbEntity
  8
化粧台
  6
CONTINUOUS
 62
     6
100
AcDbCircle
 10
980.658
 20
3886.5
 30
0.0
 40
1.0
100
AcDbArc
 50
270.0
 51
345.233
  0
LINE
  5
35C
100
AcDbEntity
  8
化粧台
  6
CONTINUOUS
 62
     6
100
AcDbLine
 10
980.658
 20
3885.5
 30
0.0
 11
977.651
 21
3885.5
 31
0.0
  0
ARC
  5
35D
100
AcDbEntity
  8
化粧台
  6
CONTINUOUS
 62
     6
100
AcDbCircle
 10
956.0
 20
3893.0
 30
0.0
 40
26.5
100
AcDbArc
 50
345.233
 51
0.0
  0
CIRCLE
  5
35E
100
AcDbEntity
  8
化粧台
  6
CONTINUOUS
 62
     6
100
AcDbCircle
 10
956.0
 20
3893.0
 30
0.0
 40
8.5
  0
ARC
  5
35F
100
AcDbEntity
  8
化粧台
  6
CONTINUOUS
 62
     6
100
AcDbCircle
 10
905.0
 20
3619.772
 30
0.0
 40
300.0
100
AcDbArc
 50
82.342877
 51
90.0
  0
ARC
  5
360
100
AcDbEntity
  8
化粧台
  6
CONTINUOUS
 62
     6
100
AcDbCircle
 10
956.0
 20
3893.0
 30
0.0
 40
23.5
100
AcDbArc
 50
264.72
 51
317.769121
  0
ARC
  5
361
100
AcDbEntity
  8
化粧台
  6
CONTINUOUS
 62
     6
100
AcDbCircle
 10
956.0
 20
3893.0
 30
0.0
 40
21.5
100
AcDbArc
 50
264.72
 51
312.657593
  0
ARC
  5
362
100
AcDbEntity
  8
化粧台
  6
CONTINUOUS
 62
     6
100
AcDbCircle
 10
977.651
 20
3855.5
 30
0.0
 40
30.0
100
AcDbArc
 50
133.896221
 51
150.001
  0
ARC
  5
363
100
AcDbEntity
  8
化粧台
  6
CONTINUOUS
 62
     6
100
AcDbCircle
 10
953.47
 20
3865.617
 30
0.0
 40
4.0
100
AcDbArc
 50
84.72
 51
146.312
  0
LINE
  5
364
100
AcDbEntity
  8
化粧台
  6
CONTINUOUS
 62
     6
100
AcDbLine
 10
950.167
 20
3867.896
 30
0.0
 11
951.67
 21
3870.5
 31
0.0
  0
ARC
  5
365
100
AcDbEntity
  8
化粧台
  6
CONTINUOUS
 62
     6
100
AcDbCircle
 10
911.918
 20
3790.723
 30
0.0
 40
10.0
100
AcDbArc
 50
303.601
 51
355.495
  0
ARC
  5
366
100
AcDbEntity
  8
化粧台
  6
CONTINUOUS
 62
     6
100
AcDbCircle
 10
905.0
 20
3801.134
 30
0.0
 40
22.5
100
AcDbArc
 50
236.399
 51
303.602455
  0
ARC
  5
367
100
AcDbEntity
  8
化粧台
  6
CONTINUOUS
 62
     6
100
AcDbCircle
 10
905.014
 20
3881.25
 30
0.0
 40
21.25
100
AcDbArc
 50
358.877826
 51
181.123
  0
LINE
  5
368
100
AcDbEntity
  8
化粧台
  6
CONTINUOUS
 62
     6
100
AcDbLine
 10
834.0
 20
1730.722388
 30
0.0
 11
834.0
 21
1748.478388
 31
0.0
  0
LINE
  5
369
100
AcDbEntity
  8
化粧台
  6
CONTINUOUS
 62
     6
100
AcDbLine
 10
884.89
 20
1730.722388
 30
0.0
 11
885.058
 21
1737.478388
 31
0.0
  0
LINE
  5
36A
100
AcDbEntity
  8
化粧台
  6
CONTINUOUS
 62
     6
100
AcDbLine
 10
885.058
 20
1737.478388
 30
0.0
 11
886.322
 21
1767.370388
 31
0.0
  0
LINE
  5
36B
100
AcDbEntity
  8
化粧台
  6
CONTINUOUS
 62
     6
100
AcDbLine
 10
924.943
 20
1737.478388
 30
0.0
 11
923.679
 21
1767.370388
 31
0.0
  0
LINE
  5
36C
100
AcDbEntity
  8
化粧台
  6
CONTINUOUS
 62
     6
100
AcDbLine
 10
925.111
 20
1730.722388
 30
0.0
 11
924.943
 21
1737.478388
 31
0.0
  0
LINE
  5
36D
100
AcDbEntity
  8
化粧台
  6
CONTINUOUS
 62
     6
100
AcDbLine
 10
976.0
 20
1730.722388
 30
0.0
 11
976.0
 21
1748.478388
 31
0.0
  0
ARC
  5
36E
100
AcDbEntity
  8
化粧台
  6
CONTINUOUS
 62
     6
100
AcDbCircle
 10
873.501
 20
1761.619388
 30
0.0
 40
4.0
100
AcDbArc
 50
180.0
 51
274.705
  0
LINE
  5
36F
100
AcDbEntity
  8
化粧台
  6
CONTINUOUS
 62
     6
100
AcDbLine
 10
838.501
 20
1761.722388
 30
0.0
 11
838.501
 21
1755.978388
 31
0.0
  0
ARC
  5
370
100
AcDbEntity
  8
化粧台
  6
CONTINUOUS
 62
     6
100
AcDbCircle
 10
838.5
 20
1748.478388
 30
0.0
 40
4.5
100
AcDbArc
 50
100.201
 51
180.0
  0
ARC
  5
371
100
AcDbEntity
  8
化粧台
  6
CONTINUOUS
 62
     6
100
AcDbCircle
 10
834.501
 20
1755.978388
 30
0.0
 40
4.0
100
AcDbArc
 50
298.07
 51
0.0
  0
ARC
  5
372
100
AcDbEntity
  8
化粧台
  6
CONTINUOUS
 62
     6
100
AcDbCircle
 10
905.0
 20
1378.914388
 30
0.0
 40
380.0
100
AcDbArc
 50
94.206
 51
100.201
  0
ARC
  5
373
100
AcDbEntity
  8
化粧台
  6
CONTINUOUS
 62
     6
100
AcDbCircle
 10
971.5
 20
1748.478388
 30
0.0
 40
4.5
100
AcDbArc
 50
0.0
 51
79.799
  0
ARC
  5
374
100
AcDbEntity
  8
化粧台
  6
CONTINUOUS
 62
     6
100
AcDbCircle
 10
980.938
 20
1763.222388
 30
0.0
 40
1.5
100
AcDbArc
 50
270.0
 51
2.337
  0
LINE
  5
375
100
AcDbEntity
  8
化粧台
  6
CONTINUOUS
 62
     6
100
AcDbLine
 10
980.938
 20
1761.722388
 30
0.0
 11
956.0
 21
1761.722388
 31
0.0
  0
ARC
  5
376
100
AcDbEntity
  8
化粧台
  6
CONTINUOUS
 62
     6
100
AcDbCircle
 10
970.875
 20
1801.340388
 30
0.0
 40
10.0
100
AcDbArc
 50
2.337
 51
87.06
  0
LINE
  5
377
100
AcDbEntity
  8
化粧台
  6
CONTINUOUS
 62
     6
100
AcDbLine
 10
980.866
 20
1801.748388
 30
0.0
 11
982.436
 21
1763.283388
 31
0.0
  0
LINE
  5
378
100
AcDbEntity
  8
化粧台
  6
CONTINUOUS
 62
     6
100
AcDbLine
 10
854.001
 20
1811.641388
 30
0.0
 11
845.501
 21
1811.641388
 31
0.0
  0
LINE
  5
379
100
AcDbEntity
  8
化粧台
  6
CONTINUOUS
 62
     6
100
AcDbLine
 10
845.501
 20
1811.641388
 30
0.0
 11
845.501
 21
1812.490388
 31
0.0
  0
ARC
  5
37A
100
AcDbEntity
  8
化粧台
  6
CONTINUOUS
 62
     6
100
AcDbCircle
 10
854.001
 20
1763.641388
 30
0.0
 40
50.0
100
AcDbArc
 50
90.0
 51
99.302
  0
ARC
  5
37B
100
AcDbEntity
  8
化粧台
  6
CONTINUOUS
 62
     6
100
AcDbCircle
 10
846.001
 20
1812.490388
 30
0.0
 40
0.5
100
AcDbArc
 50
99.302
 51
180.002
  0
ARC
  5
37C
100
AcDbEntity
  8
化粧台
  6
CONTINUOUS
 62
     6
100
AcDbCircle
 10
854.001
 20
1511.722388
 30
0.0
 40
300.0
100
AcDbArc
 50
91.374
 51
92.185
  0
LINE
  5
37D
100
AcDbEntity
  8
化粧台
  6
CONTINUOUS
 62
     6
100
AcDbLine
 10
832.119
 20
1802.163388
 30
0.0
 11
830.563
 21
1763.282388
 31
0.0
  0
LINE
  5
37E
100
AcDbEntity
  8
化粧台
  6
CONTINUOUS
 62
     6
100
AcDbLine
 10
832.062
 20
1761.722388
 30
0.0
 11
854.001
 21
1761.722388
 31
0.0
  0
ARC
  5
37F
100
AcDbEntity
  8
化粧台
  6
CONTINUOUS
 62
     6
100
AcDbCircle
 10
832.062
 20
1763.222388
 30
0.0
 40
1.5
100
AcDbArc
 50
177.712
 51
270.0
  0
ARC
  5
380
100
AcDbEntity
  8
化粧台
  6
CONTINUOUS
 62
     6
100
AcDbCircle
 10
868.876
 20
1801.340388
 30
0.0
 40
10.0
100
AcDbArc
 50
2.337
 51
87.06
  0
LINE
  5
381
100
AcDbEntity
  8
化粧台
  6
CONTINUOUS
 62
     6
100
AcDbLine
 10
878.939
 20
1761.722388
 30
0.0
 11
854.001
 21
1761.722388
 31
0.0
  0
ARC
  5
382
100
AcDbEntity
  8
化粧台
  6
CONTINUOUS
 62
     6
100
AcDbCircle
 10
842.799
 20
1805.508388
 30
0.0
 40
6.0
100
AcDbArc
 50
92.185
 51
177.711
  0
ARC
  5
383
100
AcDbEntity
  8
化粧台
  6
CONTINUOUS
 62
     6
100
AcDbCircle
 10
836.604
 20
1763.222388
 30
0.0
 40
1.5
100
AcDbArc
 50
177.711
 51
270.0
  0
ARC
  5
384
100
AcDbEntity
  8
化粧台
  6
CONTINUOUS
 62
     6
100
AcDbCircle
 10
839.113
 20
1801.883388
 30
0.0
 40
7.0
100
AcDbArc
 50
101.232
 51
177.712
  0
LINE
  5
385
100
AcDbEntity
  8
化粧台
  6
CONTINUOUS
 62
     6
100
AcDbLine
 10
835.105
 20
1763.282388
 30
0.0
 11
836.804
 21
1805.748388
 31
0.0
  0
LINE
  5
386
100
AcDbEntity
  8
化粧台
  6
CONTINUOUS
 62
     6
100
AcDbLine
 10
838.502
 20
1761.619388
 30
0.0
 11
838.502
 21
1761.722388
 31
0.0
  0
ARC
  5
387
100
AcDbEntity
  8
化粧台
  6
CONTINUOUS
 62
     6
100
AcDbCircle
 10
853.797
 20
1806.722388
 30
0.0
 40
5.0
100
AcDbArc
 50
100.643
 51
179.014
  0
ARC
  5
388
100
AcDbEntity
  8
化粧台
  6
CONTINUOUS
 62
     6
100
AcDbCircle
 10
865.679
 20
1801.487388
 30
0.0
 40
10.0
100
AcDbArc
 50
2.337
 51
87.692
  0
ARC
  5
389
100
AcDbEntity
  8
化粧台
  6
CONTINUOUS
 62
     6
100
AcDbCircle
 10
849.038
 20
1762.722388
 30
0.0
 40
1.0
100
AcDbArc
 50
179.014
 51
270.0
  0
LINE
  5
38A
100
AcDbEntity
  8
化粧台
  6
CONTINUOUS
 62
     6
100
AcDbLine
 10
848.038
 20
1762.739388
 30
0.0
 11
848.798
 21
1806.808388
 31
0.0
  0
ARC
  5
38B
100
AcDbEntity
  8
化粧台
  6
CONTINUOUS
 62
     6
100
AcDbCircle
 10
862.001
 20
1812.490388
 30
0.0
 40
0.5
100
AcDbArc
 50
0.0
 51
80.699
  0
ARC
  5
38C
100
AcDbEntity
  8
化粧台
  6
CONTINUOUS
 62
     6
100
AcDbCircle
 10
854.001
 20
1763.641388
 30
0.0
 40
50.0
100
AcDbArc
 50
80.699
 51
90.0
  0
LINE
  5
38D
100
AcDbEntity
  8
化粧台
  6
CONTINUOUS
 62
     6
100
AcDbLine
 10
862.501
 20
1811.641388
 30
0.0
 11
862.501
 21
1812.490388
 31
0.0
  0
LINE
  5
38E
100
AcDbEntity
  8
化粧台
  6
CONTINUOUS
 62
     6
100
AcDbLine
 10
854.001
 20
1811.641388
 30
0.0
 11
862.501
 21
1811.641388
 31
0.0
  0
ARC
  5
38F
100
AcDbEntity
  8
化粧台
  6
CONTINUOUS
 62
     6
100
AcDbCircle
 10
854.001
 20
1511.722388
 30
0.0
 40
300.0
100
AcDbArc
 50
87.06
 51
88.627
  0
ARC
  5
390
100
AcDbEntity
  8
化粧台
  6
CONTINUOUS
 62
     6
100
AcDbCircle
 10
967.678
 20
1801.487388
 30
0.0
 40
10.0
100
AcDbArc
 50
2.337
 51
87.692
  0
LINE
  5
391
100
AcDbEntity
  8
化粧台
  6
CONTINUOUS
 62
     6
100
AcDbLine
 10
979.245
 20
1763.283388
 30
0.0
 11
977.681
 21
1801.618388
 31
0.0
  0
ARC
  5
392
100
AcDbEntity
  8
化粧台
  6
CONTINUOUS
 62
     6
100
AcDbCircle
 10
977.747
 20
1763.222388
 30
0.0
 40
1.5
100
AcDbArc
 50
270.0
 51
2.337
  0
LINE
  5
393
100
AcDbEntity
  8
化粧台
  6
CONTINUOUS
 62
     6
100
AcDbLine
 10
974.512
 20
1801.489388
 30
0.0
 11
976.135
 21
1761.722388
 31
0.0
  0
ARC
  5
394
100
AcDbEntity
  8
化粧台
  6
CONTINUOUS
 62
     6
100
AcDbCircle
 10
967.502
 20
1801.594388
 30
0.0
 40
7.0
100
AcDbArc
 50
2.337
 51
90.0
  0
LINE
  5
395
100
AcDbEntity
  8
化粧台
  6
CONTINUOUS
 62
     6
100
AcDbLine
 10
872.513
 20
1801.489388
 30
0.0
 11
874.136
 21
1761.722388
 31
0.0
  0
ARC
  5
396
100
AcDbEntity
  8
化粧台
  6
CONTINUOUS
 62
     6
100
AcDbCircle
 10
865.503
 20
1801.594388
 30
0.0
 40
7.0
100
AcDbArc
 50
2.337
 51
90.0
  0
LINE
  5
397
100
AcDbEntity
  8
化粧台
  6
CONTINUOUS
 62
     6
100
AcDbLine
 10
855.346
 20
1808.594388
 30
0.0
 11
865.503
 21
1808.594388
 31
0.0
  0
ARC
  5
398
100
AcDbEntity
  8
化粧台
  6
CONTINUOUS
 62
     6
100
AcDbCircle
 10
855.346
 20
1803.594388
 30
0.0
 40
5.0
100
AcDbArc
 50
90.0
 51
178.664
  0
LINE
  5
399
100
AcDbEntity
  8
化粧台
  6
CONTINUOUS
 62
     6
100
AcDbLine
 10
850.348
 20
1803.711388
 30
0.0
 11
849.367
 21
1761.722388
 31
0.0
  0
LINE
  5
39A
100
AcDbEntity
  8
化粧台
  6
CONTINUOUS
 62
     6
100
AcDbLine
 10
894.0
 20
1773.774388
 30
0.0
 11
894.0
 21
1782.628388
 31
0.0
  0
ARC
  5
39B
100
AcDbEntity
  8
化粧台
  6
CONTINUOUS
 62
     6
100
AcDbCircle
 10
876.397
 20
1767.863388
 30
0.0
 40
10.0
100
AcDbArc
 50
274.206
 51
357.58
  0
LINE
  5
39C
100
AcDbEntity
  8
化粧台
  6
CONTINUOUS
 62
     6
100
AcDbLine
 10
889.021
 20
1796.976388
 30
0.0
 11
888.006
 21
1790.850388
 31
0.0
  0
LINE
  5
39D
100
AcDbEntity
  8
化粧台
  6
CONTINUOUS
 62
     6
100
AcDbLine
 10
890.333
 20
1800.289388
 30
0.0
 11
889.021
 21
1796.976388
 31
0.0
  0
LINE
  5
39E
100
AcDbEntity
  8
化粧台
  6
CONTINUOUS
 62
     6
100
AcDbLine
 10
892.473
 20
1802.636388
 30
0.0
 11
890.333
 21
1800.289388
 31
0.0
  0
LINE
  5
39F
100
AcDbEntity
  8
化粧台
  6
CONTINUOUS
 62
     6
100
AcDbLine
 10
887.585
 20
1788.263388
 30
0.0
 11
886.322
 21
1767.370388
 31
0.0
  0
LINE
  5
3A0
100
AcDbEntity
  8
化粧台
  6
CONTINUOUS
 62
     6
100
AcDbLine
 10
889.307
 20
1791.991388
 30
0.0
 11
888.006
 21
1790.850388
 31
0.0
  0
LINE
  5
3A1
100
AcDbEntity
  8
化粧台
  6
CONTINUOUS
 62
     6
100
AcDbLine
 10
887.795
 20
1789.561388
 30
0.0
 11
888.006
 21
1790.850388
 31
0.0
  0
LINE
  5
3A2
100
AcDbEntity
  8
化粧台
  6
CONTINUOUS
 62
     6
100
AcDbLine
 10
887.585
 20
1788.263388
 30
0.0
 11
887.795
 21
1789.561388
 31
0.0
  0
LINE
  5
3A3
100
AcDbEntity
  8
化粧台
  6
CONTINUOUS
 62
     6
100
AcDbLine
 10
887.585
 20
1780.462388
 30
0.0
 11
887.795
 21
1781.760388
 31
0.0
  0
LINE
  5
3A4
100
AcDbEntity
  8
化粧台
  6
CONTINUOUS
 62
     6
100
AcDbLine
 10
887.795
 20
1781.760388
 30
0.0
 11
888.006
 21
1783.050388
 31
0.0
  0
LINE
  5
3A5
100
AcDbEntity
  8
化粧台
  6
CONTINUOUS
 62
     6
100
AcDbLine
 10
889.307
 20
1784.190388
 30
0.0
 11
888.006
 21
1783.050388
 31
0.0
  0
LINE
  5
3A6
100
AcDbEntity
  8
化粧台
  6
CONTINUOUS
 62
     6
100
AcDbLine
 10
887.584
 20
1780.450388
 30
0.0
 11
886.322
 21
1767.370388
 31
0.0
  0
LINE
  5
3A7
100
AcDbEntity
  8
化粧台
  6
CONTINUOUS
 62
     6
100
AcDbLine
 10
922.417
 20
1780.450388
 30
0.0
 11
923.679
 21
1767.370388
 31
0.0
  0
LINE
  5
3A8
100
AcDbEntity
  8
化粧台
  6
CONTINUOUS
 62
     6
100
AcDbLine
 10
920.694
 20
1784.190388
 30
0.0
 11
921.995
 21
1783.050388
 31
0.0
  0
LINE
  5
3A9
100
AcDbEntity
  8
化粧台
  6
CONTINUOUS
 62
     6
100
AcDbLine
 10
922.206
 20
1781.760388
 30
0.0
 11
921.995
 21
1783.050388
 31
0.0
  0
LINE
  5
3AA
100
AcDbEntity
  8
化粧台
  6
CONTINUOUS
 62
     6
100
AcDbLine
 10
922.416
 20
1780.462388
 30
0.0
 11
922.206
 21
1781.760388
 31
0.0
  0
LINE
  5
3AB
100
AcDbEntity
  8
化粧台
  6
CONTINUOUS
 62
     6
100
AcDbLine
 10
922.416
 20
1788.263388
 30
0.0
 11
922.206
 21
1789.561388
 31
0.0
  0
LINE
  5
3AC
100
AcDbEntity
  8
化粧台
  6
CONTINUOUS
 62
     6
100
AcDbLine
 10
922.206
 20
1789.561388
 30
0.0
 11
921.995
 21
1790.850388
 31
0.0
  0
LINE
  5
3AD
100
AcDbEntity
  8
化粧台
  6
CONTINUOUS
 62
     6
100
AcDbLine
 10
920.694
 20
1791.991388
 30
0.0
 11
921.995
 21
1790.850388
 31
0.0
  0
LINE
  5
3AE
100
AcDbEntity
  8
化粧台
  6
CONTINUOUS
 62
     6
100
AcDbLine
 10
922.416
 20
1788.263388
 30
0.0
 11
923.679
 21
1767.370388
 31
0.0
  0
LINE
  5
3AF
100
AcDbEntity
  8
化粧台
  6
CONTINUOUS
 62
     6
100
AcDbLine
 10
917.528
 20
1802.636388
 30
0.0
 11
919.668
 21
1800.289388
 31
0.0
  0
LINE
  5
3B0
100
AcDbEntity
  8
化粧台
  6
CONTINUOUS
 62
     6
100
AcDbLine
 10
919.668
 20
1800.289388
 30
0.0
 11
920.98
 21
1796.976388
 31
0.0
  0
LINE
  5
3B1
100
AcDbEntity
  8
化粧台
  6
CONTINUOUS
 62
     6
100
AcDbLine
 10
920.98
 20
1796.976388
 30
0.0
 11
921.995
 21
1790.850388
 31
0.0
  0
ARC
  5
3B2
100
AcDbEntity
  8
化粧台
  6
CONTINUOUS
 62
     6
100
AcDbCircle
 10
905.0
 20
1378.914388
 30
0.0
 40
380.0
100
AcDbArc
 50
79.799
 51
85.794
  0
ARC
  5
3B3
100
AcDbEntity
  8
化粧台
  6
CONTINUOUS
 62
     6
100
AcDbCircle
 10
933.604
 20
1767.863388
 30
0.0
 40
10.0
100
AcDbArc
 50
182.42
 51
265.794
  0
ARC
  5
3B4
100
AcDbEntity
  8
化粧台
  6
CONTINUOUS
 62
     6
100
AcDbCircle
 10
975.5
 20
1755.978388
 30
0.0
 40
4.0
100
AcDbArc
 50
180.0
 51
241.93
  0
LINE
  5
3B5
100
AcDbEntity
  8
化粧台
  6
CONTINUOUS
 62
     6
100
AcDbLine
 10
971.5
 20
1761.722388
 30
0.0
 11
971.5
 21
1755.978388
 31
0.0
  0
ARC
  5
3B6
100
AcDbEntity
  8
化粧台
  6
CONTINUOUS
 62
     6
100
AcDbCircle
 10
936.5
 20
1761.619388
 30
0.0
 40
4.0
100
AcDbArc
 50
265.295
 51
0.0
  0
LINE
  5
3B7
100
AcDbEntity
  8
化粧台
  6
CONTINUOUS
 62
     6
100
AcDbLine
 10
940.501
 20
1761.619388
 30
0.0
 11
940.501
 21
1761.722388
 31
0.0
  0
LINE
  5
3B8
100
AcDbEntity
  8
化粧台
  6
CONTINUOUS
 62
     6
100
AcDbLine
 10
916.0
 20
1773.774388
 30
0.0
 11
916.0
 21
1782.628388
 31
0.0
  0
LINE
  5
3B9
100
AcDbEntity
  8
化粧台
  6
CONTINUOUS
 62
     6
100
AcDbLine
 10
937.105
 20
1763.282388
 30
0.0
 11
938.803
 21
1805.748388
 31
0.0
  0
ARC
  5
3BA
100
AcDbEntity
  8
化粧台
  6
CONTINUOUS
 62
     6
100
AcDbCircle
 10
941.112
 20
1801.883388
 30
0.0
 40
7.0
100
AcDbArc
 50
101.232
 51
177.712
  0
ARC
  5
3BB
100
AcDbEntity
  8
化粧台
  6
CONTINUOUS
 62
     6
100
AcDbCircle
 10
938.603
 20
1763.222388
 30
0.0
 40
1.5
100
AcDbArc
 50
177.711
 51
270.0
  0
ARC
  5
3BC
100
AcDbEntity
  8
化粧台
  6
CONTINUOUS
 62
     6
100
AcDbCircle
 10
944.798
 20
1805.508388
 30
0.0
 40
6.0
100
AcDbArc
 50
92.185
 51
177.711
  0
ARC
  5
3BD
100
AcDbEntity
  8
化粧台
  6
CONTINUOUS
 62
     6
100
AcDbCircle
 10
934.061
 20
1763.222388
 30
0.0
 40
1.5
100
AcDbArc
 50
177.712
 51
270.0
  0
LINE
  5
3BE
100
AcDbEntity
  8
化粧台
  6
CONTINUOUS
 62
     6
100
AcDbLine
 10
934.061
 20
1761.722388
 30
0.0
 11
956.0
 21
1761.722388
 31
0.0
  0
LINE
  5
3BF
100
AcDbEntity
  8
化粧台
  6
CONTINUOUS
 62
     6
100
AcDbLine
 10
934.118
 20
1802.163388
 30
0.0
 11
932.563
 21
1763.282388
 31
0.0
  0
ARC
  5
3C0
100
AcDbEntity
  8
化粧台
  6
CONTINUOUS
 62
     6
100
AcDbCircle
 10
956.0
 20
1511.722388
 30
0.0
 40
300.0
100
AcDbArc
 50
91.374
 51
92.185
  0
LINE
  5
3C1
100
AcDbEntity
  8
化粧台
  6
CONTINUOUS
 62
     6
100
AcDbLine
 10
964.5
 20
1811.641388
 30
0.0
 11
964.5
 21
1812.490388
 31
0.0
  0
ARC
  5
3C2
100
AcDbEntity
  8
化粧台
  6
CONTINUOUS
 62
     6
100
AcDbCircle
 10
956.0
 20
1763.641388
 30
0.0
 40
50.0
100
AcDbArc
 50
80.699
 51
90.0
  0
ARC
  5
3C3
100
AcDbEntity
  8
化粧台
  6
CONTINUOUS
 62
     6
100
AcDbCircle
 10
964.0
 20
1812.490388
 30
0.0
 40
0.5
100
AcDbArc
 50
0.0
 51
80.699
  0
ARC
  5
3C4
100
AcDbEntity
  8
化粧台
  6
CONTINUOUS
 62
     6
100
AcDbCircle
 10
948.0
 20
1812.490388
 30
0.0
 40
0.5
100
AcDbArc
 50
99.302
 51
180.002
  0
ARC
  5
3C5
100
AcDbEntity
  8
化粧台
  6
CONTINUOUS
 62
     6
100
AcDbCircle
 10
956.0
 20
1763.641388
 30
0.0
 40
50.0
100
AcDbArc
 50
90.0
 51
99.302
  0
LINE
  5
3C6
100
AcDbEntity
  8
化粧台
  6
CONTINUOUS
 62
     6
100
AcDbLine
 10
947.5
 20
1811.641388
 30
0.0
 11
947.5
 21
1812.490388
 31
0.0
  0
LINE
  5
3C7
100
AcDbEntity
  8
化粧台
  6
CONTINUOUS
 62
     6
100
AcDbLine
 10
878.867
 20
1801.748388
 30
0.0
 11
880.437
 21
1763.283388
 31
0.0
  0
ARC
  5
3C8
100
AcDbEntity
  8
化粧台
  6
CONTINUOUS
 62
     6
100
AcDbCircle
 10
878.939
 20
1763.222388
 30
0.0
 40
1.5
100
AcDbArc
 50
270.0
 51
2.337
  0
ARC
  5
3C9
100
AcDbEntity
  8
化粧台
  6
CONTINUOUS
 62
     6
100
AcDbCircle
 10
875.748
 20
1763.222388
 30
0.0
 40
1.5
100
AcDbArc
 50
270.0
 51
2.337
  0
LINE
  5
3CA
100
AcDbEntity
  8
化粧台
  6
CONTINUOUS
 62
     6
100
AcDbLine
 10
877.246
 20
1763.283388
 30
0.0
 11
875.682
 21
1801.618388
 31
0.0
  0
LINE
  5
3CB
100
AcDbEntity
  8
化粧台
  6
CONTINUOUS
 62
     6
100
AcDbLine
 10
950.037
 20
1762.739388
 30
0.0
 11
950.797
 21
1806.808388
 31
0.0
  0
ARC
  5
3CC
100
AcDbEntity
  8
化粧台
  6
CONTINUOUS
 62
     6
100
AcDbCircle
 10
951.037
 20
1762.722388
 30
0.0
 40
1.0
100
AcDbArc
 50
179.014
 51
270.0
  0
ARC
  5
3CD
100
AcDbEntity
  8
化粧台
  6
CONTINUOUS
 62
     6
100
AcDbCircle
 10
955.796
 20
1806.722388
 30
0.0
 40
5.0
100
AcDbArc
 50
100.643
 51
179.014
  0
LINE
  5
3CE
100
AcDbEntity
  8
化粧台
  6
CONTINUOUS
 62
     6
100
AcDbLine
 10
956.0
 20
1811.641388
 30
0.0
 11
947.5
 21
1811.641388
 31
0.0
  0
LINE
  5
3CF
100
AcDbEntity
  8
化粧台
  6
CONTINUOUS
 62
     6
100
AcDbLine
 10
956.0
 20
1811.641388
 30
0.0
 11
964.5
 21
1811.641388
 31
0.0
  0
ARC
  5
3D0
100
AcDbEntity
  8
化粧台
  6
CONTINUOUS
 62
     6
100
AcDbCircle
 10
956.0
 20
1511.722388
 30
0.0
 40
300.0
100
AcDbArc
 50
87.06
 51
88.627
  0
LINE
  5
3D1
100
AcDbEntity
  8
化粧台
  6
CONTINUOUS
 62
     6
100
AcDbLine
 10
957.346
 20
1808.594388
 30
0.0
 11
967.502
 21
1808.594388
 31
0.0
  0
ARC
  5
3D2
100
AcDbEntity
  8
化粧台
  6
CONTINUOUS
 62
     6
100
AcDbCircle
 10
957.346
 20
1803.594388
 30
0.0
 40
5.0
100
AcDbArc
 50
90.0
 51
178.664
  0
LINE
  5
3D3
100
AcDbEntity
  8
化粧台
  6
CONTINUOUS
 62
     6
100
AcDbLine
 10
952.347
 20
1803.711388
 30
0.0
 11
951.366
 21
1761.722388
 31
0.0
  0
LINE
  5
3D4
100
AcDbEntity
  8
化粧台
  6
CONTINUOUS
 62
     6
100
AcDbLine
 10
917.444
 20
1802.703388
 30
0.0
 11
915.193
 21
1803.383388
 31
0.0
  0
LINE
  5
3D5
100
AcDbEntity
  8
化粧台
  6
CONTINUOUS
 62
     6
100
AcDbLine
 10
915.193
 20
1803.383388
 30
0.0
 11
913.284
 21
1803.771388
 31
0.0
  0
LINE
  5
3D6
100
AcDbEntity
  8
化粧台
  6
CONTINUOUS
 62
     6
100
AcDbLine
 10
913.284
 20
1803.771388
 30
0.0
 11
911.777
 21
1803.998388
 31
0.0
  0
LINE
  5
3D7
100
AcDbEntity
  8
化粧台
  6
CONTINUOUS
 62
     6
100
AcDbLine
 10
911.777
 20
1803.998388
 30
0.0
 11
910.59
 21
1804.137388
 31
0.0
  0
LINE
  5
3D8
100
AcDbEntity
  8
化粧台
  6
CONTINUOUS
 62
     6
100
AcDbLine
 10
910.59
 20
1804.137388
 30
0.0
 11
909.637
 21
1804.227388
 31
0.0
  0
LINE
  5
3D9
100
AcDbEntity
  8
化粧台
  6
CONTINUOUS
 62
     6
100
AcDbLine
 10
909.637
 20
1804.227388
 30
0.0
 11
908.851
 21
1804.287388
 31
0.0
  0
LINE
  5
3DA
100
AcDbEntity
  8
化粧台
  6
CONTINUOUS
 62
     6
100
AcDbLine
 10
908.851
 20
1804.287388
 30
0.0
 11
908.185
 21
1804.329388
 31
0.0
  0
LINE
  5
3DB
100
AcDbEntity
  8
化粧台
  6
CONTINUOUS
 62
     6
100
AcDbLine
 10
908.185
 20
1804.329388
 30
0.0
 11
907.606
 21
1804.358388
 31
0.0
  0
LINE
  5
3DC
100
AcDbEntity
  8
化粧台
  6
CONTINUOUS
 62
     6
100
AcDbLine
 10
907.606
 20
1804.358388
 30
0.0
 11
907.092
 21
1804.379388
 31
0.0
  0
LINE
  5
3DD
100
AcDbEntity
  8
化粧台
  6
CONTINUOUS
 62
     6
100
AcDbLine
 10
907.092
 20
1804.379388
 30
0.0
 11
906.624
 21
1804.394388
 31
0.0
  0
LINE
  5
3DE
100
AcDbEntity
  8
化粧台
  6
CONTINUOUS
 62
     6
100
AcDbLine
 10
906.624
 20
1804.394388
 30
0.0
 11
906.19
 21
1804.405388
 31
0.0
  0
LINE
  5
3DF
100
AcDbEntity
  8
化粧台
  6
CONTINUOUS
 62
     6
100
AcDbLine
 10
906.19
 20
1804.405388
 30
0.0
 11
905.779
 21
1804.412388
 31
0.0
  0
LINE
  5
3E0
100
AcDbEntity
  8
化粧台
  6
CONTINUOUS
 62
     6
100
AcDbLine
 10
905.779
 20
1804.412388
 30
0.0
 11
905.383
 21
1804.416388
 31
0.0
  0
LINE
  5
3E1
100
AcDbEntity
  8
化粧台
  6
CONTINUOUS
 62
     6
100
AcDbLine
 10
905.383
 20
1804.416388
 30
0.0
 11
905.0
 21
1804.417388
 31
0.0
  0
LINE
  5
3E2
100
AcDbEntity
  8
化粧台
  6
CONTINUOUS
 62
     6
100
AcDbLine
 10
920.418
 20
1792.233388
 30
0.0
 11
916.809
 21
1792.760388
 31
0.0
  0
LINE
  5
3E3
100
AcDbEntity
  8
化粧台
  6
CONTINUOUS
 62
     6
100
AcDbLine
 10
916.809
 20
1792.760388
 30
0.0
 11
914.254
 21
1793.019388
 31
0.0
  0
LINE
  5
3E4
100
AcDbEntity
  8
化粧台
  6
CONTINUOUS
 62
     6
100
AcDbLine
 10
914.254
 20
1793.019388
 30
0.0
 11
912.418
 21
1793.159388
 31
0.0
  0
LINE
  5
3E5
100
AcDbEntity
  8
化粧台
  6
CONTINUOUS
 62
     6
100
AcDbLine
 10
912.418
 20
1793.159388
 30
0.0
 11
911.044
 21
1793.241388
 31
0.0
  0
LINE
  5
3E6
100
AcDbEntity
  8
化粧台
  6
CONTINUOUS
 62
     6
100
AcDbLine
 10
911.044
 20
1793.241388
 30
0.0
 11
909.971
 21
1793.293388
 31
0.0
  0
LINE
  5
3E7
100
AcDbEntity
  8
化粧台
  6
CONTINUOUS
 62
     6
100
AcDbLine
 10
909.971
 20
1793.293388
 30
0.0
 11
909.099
 21
1793.327388
 31
0.0
  0
LINE
  5
3E8
100
AcDbEntity
  8
化粧台
  6
CONTINUOUS
 62
     6
100
AcDbLine
 10
909.099
 20
1793.327388
 30
0.0
 11
908.368
 21
1793.351388
 31
0.0
  0
LINE
  5
3E9
100
AcDbEntity
  8
化粧台
  6
CONTINUOUS
 62
     6
100
AcDbLine
 10
908.368
 20
1793.351388
 30
0.0
 11
907.736
 21
1793.367388
 31
0.0
  0
LINE
  5
3EA
100
AcDbEntity
  8
化粧台
  6
CONTINUOUS
 62
     6
100
AcDbLine
 10
907.736
 20
1793.367388
 30
0.0
 11
907.175
 21
1793.379388
 31
0.0
  0
LINE
  5
3EB
100
AcDbEntity
  8
化粧台
  6
CONTINUOUS
 62
     6
100
AcDbLine
 10
907.175
 20
1793.379388
 30
0.0
 11
906.664
 21
1793.387388
 31
0.0
  0
LINE
  5
3EC
100
AcDbEntity
  8
化粧台
  6
CONTINUOUS
 62
     6
100
AcDbLine
 10
906.664
 20
1793.387388
 30
0.0
 11
906.19
 21
1793.393388
 31
0.0
  0
LINE
  5
3ED
100
AcDbEntity
  8
化粧台
  6
CONTINUOUS
 62
     6
100
AcDbLine
 10
906.19
 20
1793.393388
 30
0.0
 11
905.74
 21
1793.397388
 31
0.0
  0
LINE
  5
3EE
100
AcDbEntity
  8
化粧台
  6
CONTINUOUS
 62
     6
100
AcDbLine
 10
905.74
 20
1793.397388
 30
0.0
 11
905.304
 21
1793.399388
 31
0.0
  0
LINE
  5
3EF
100
AcDbEntity
  8
化粧台
  6
CONTINUOUS
 62
     6
100
AcDbLine
 10
905.304
 20
1793.399388
 30
0.0
 11
905.0
 21
1793.399388
 31
0.0
  0
LINE
  5
3F0
100
AcDbEntity
  8
化粧台
  6
CONTINUOUS
 62
     6
100
AcDbLine
 10
920.694
 20
1784.190388
 30
0.0
 11
917.009
 21
1784.744388
 31
0.0
  0
LINE
  5
3F1
100
AcDbEntity
  8
化粧台
  6
CONTINUOUS
 62
     6
100
AcDbLine
 10
917.009
 20
1784.744388
 30
0.0
 11
914.395
 21
1785.014388
 31
0.0
  0
LINE
  5
3F2
100
AcDbEntity
  8
化粧台
  6
CONTINUOUS
 62
     6
100
AcDbLine
 10
914.395
 20
1785.014388
 30
0.0
 11
912.521
 21
1785.160388
 31
0.0
  0
LINE
  5
3F3
100
AcDbEntity
  8
化粧台
  6
CONTINUOUS
 62
     6
100
AcDbLine
 10
912.521
 20
1785.160388
 30
0.0
 11
911.123
 21
1785.245388
 31
0.0
  0
LINE
  5
3F4
100
AcDbEntity
  8
化粧台
  6
CONTINUOUS
 62
     6
100
AcDbLine
 10
911.123
 20
1785.245388
 30
0.0
 11
910.034
 21
1785.298388
 31
0.0
  0
LINE
  5
3F5
100
AcDbEntity
  8
化粧台
  6
CONTINUOUS
 62
     6
100
AcDbLine
 10
910.034
 20
1785.298388
 30
0.0
 11
909.151
 21
1785.333388
 31
0.0
  0
LINE
  5
3F6
100
AcDbEntity
  8
化粧台
  6
CONTINUOUS
 62
     6
100
AcDbLine
 10
909.151
 20
1785.333388
 30
0.0
 11
908.413
 21
1785.357388
 31
0.0
  0
LINE
  5
3F7
100
AcDbEntity
  8
化粧台
  6
CONTINUOUS
 62
     6
100
AcDbLine
 10
908.413
 20
1785.357388
 30
0.0
 11
907.775
 21
1785.374388
 31
0.0
  0
LINE
  5
3F8
100
AcDbEntity
  8
化粧台
  6
CONTINUOUS
 62
     6
100
AcDbLine
 10
907.775
 20
1785.374388
 30
0.0
 11
907.21
 21
1785.386388
 31
0.0
  0
LINE
  5
3F9
100
AcDbEntity
  8
化粧台
  6
CONTINUOUS
 62
     6
100
AcDbLine
 10
907.21
 20
1785.386388
 30
0.0
 11
906.697
 21
1785.394388
 31
0.0
  0
LINE
  5
3FA
100
AcDbEntity
  8
化粧台
  6
CONTINUOUS
 62
     6
100
AcDbLine
 10
906.697
 20
1785.394388
 30
0.0
 11
906.22
 21
1785.400388
 31
0.0
  0
LINE
  5
3FB
100
AcDbEntity
  8
化粧台
  6
CONTINUOUS
 62
     6
100
AcDbLine
 10
906.22
 20
1785.400388
 30
0.0
 11
905.769
 21
1785.404388
 31
0.0
  0
LINE
  5
3FC
100
AcDbEntity
  8
化粧台
  6
CONTINUOUS
 62
     6
100
AcDbLine
 10
905.769
 20
1785.404388
 30
0.0
 11
905.333
 21
1785.406388
 31
0.0
  0
LINE
  5
3FD
100
AcDbEntity
  8
化粧台
  6
CONTINUOUS
 62
     6
100
AcDbLine
 10
905.333
 20
1785.406388
 30
0.0
 11
905.0
 21
1785.407388
 31
0.0
  0
LINE
  5
3FE
100
AcDbEntity
  8
化粧台
  6
CONTINUOUS
 62
     6
100
AcDbLine
 10
905.0
 20
1770.927388
 30
0.0
 11
905.286
 21
1770.928388
 31
0.0
  0
LINE
  5
3FF
100
AcDbEntity
  8
化粧台
  6
CONTINUOUS
 62
     6
100
AcDbLine
 10
905.286
 20
1770.928388
 30
0.0
 11
905.577
 21
1770.931388
 31
0.0
  0
LINE
  5
400
100
AcDbEntity
  8
化粧台
  6
CONTINUOUS
 62
     6
100
AcDbLine
 10
905.577
 20
1770.931388
 30
0.0
 11
905.878
 21
1770.936388
 31
0.0
  0
LINE
  5
401
100
AcDbEntity
  8
化粧台
  6
CONTINUOUS
 62
     6
100
AcDbLine
 10
905.878
 20
1770.936388
 30
0.0
 11
906.197
 21
1770.944388
 31
0.0
  0
LINE
  5
402
100
AcDbEntity
  8
化粧台
  6
CONTINUOUS
 62
     6
100
AcDbLine
 10
906.197
 20
1770.944388
 30
0.0
 11
906.54
 21
1770.955388
 31
0.0
  0
LINE
  5
403
100
AcDbEntity
  8
化粧台
  6
CONTINUOUS
 62
     6
100
AcDbLine
 10
906.54
 20
1770.955388
 30
0.0
 11
906.918
 21
1770.971388
 31
0.0
  0
LINE
  5
404
100
AcDbEntity
  8
化粧台
  6
CONTINUOUS
 62
     6
100
AcDbLine
 10
906.918
 20
1770.971388
 30
0.0
 11
907.343
 21
1770.993388
 31
0.0
  0
LINE
  5
405
100
AcDbEntity
  8
化粧台
  6
CONTINUOUS
 62
     6
100
AcDbLine
 10
907.343
 20
1770.993388
 30
0.0
 11
907.833
 21
1771.023388
 31
0.0
  0
LINE
  5
406
100
AcDbEntity
  8
化粧台
  6
CONTINUOUS
 62
     6
100
AcDbLine
 10
907.833
 20
1771.023388
 30
0.0
 11
908.411
 21
1771.068388
 31
0.0
  0
LINE
  5
407
100
AcDbEntity
  8
化粧台
  6
CONTINUOUS
 62
     6
100
AcDbLine
 10
908.411
 20
1771.068388
 30
0.0
 11
909.113
 21
1771.134388
 31
0.0
  0
LINE
  5
408
100
AcDbEntity
  8
化粧台
  6
CONTINUOUS
 62
     6
100
AcDbLine
 10
909.113
 20
1771.134388
 30
0.0
 11
909.986
 21
1771.237388
 31
0.0
  0
LINE
  5
409
100
AcDbEntity
  8
化粧台
  6
CONTINUOUS
 62
     6
100
AcDbLine
 10
909.986
 20
1771.237388
 30
0.0
 11
911.096
 21
1771.404388
 31
0.0
  0
LINE
  5
40A
100
AcDbEntity
  8
化粧台
  6
CONTINUOUS
 62
     6
100
AcDbLine
 10
911.096
 20
1771.404388
 30
0.0
 11
912.501
 21
1771.692388
 31
0.0
  0
LINE
  5
40B
100
AcDbEntity
  8
化粧台
  6
CONTINUOUS
 62
     6
100
AcDbLine
 10
912.501
 20
1771.692388
 30
0.0
 11
914.154
 21
1772.195388
 31
0.0
  0
LINE
  5
40C
100
AcDbEntity
  8
化粧台
  6
CONTINUOUS
 62
     6
100
AcDbLine
 10
914.154
 20
1772.195388
 30
0.0
 11
915.609
 21
1773.022388
 31
0.0
  0
LINE
  5
40D
100
AcDbEntity
  8
化粧台
  6
CONTINUOUS
 62
     6
100
AcDbLine
 10
915.609
 20
1773.022388
 30
0.0
 11
916.0
 21
1773.774388
 31
0.0
  0
LINE
  5
40E
100
AcDbEntity
  8
化粧台
  6
CONTINUOUS
 62
     6
100
AcDbLine
 10
916.0
 20
1773.774388
 30
0.0
 11
915.931
 21
1774.094388
 31
0.0
  0
LINE
  5
40F
100
AcDbEntity
  8
化粧台
  6
CONTINUOUS
 62
     6
100
AcDbLine
 10
915.931
 20
1774.094388
 30
0.0
 11
914.831
 21
1775.052388
 31
0.0
  0
LINE
  5
410
100
AcDbEntity
  8
化粧台
  6
CONTINUOUS
 62
     6
100
AcDbLine
 10
914.831
 20
1775.052388
 30
0.0
 11
913.171
 21
1775.680388
 31
0.0
  0
LINE
  5
411
100
AcDbEntity
  8
化粧台
  6
CONTINUOUS
 62
     6
100
AcDbLine
 10
913.171
 20
1775.680388
 30
0.0
 11
911.643
 21
1776.044388
 31
0.0
  0
LINE
  5
412
100
AcDbEntity
  8
化粧台
  6
CONTINUOUS
 62
     6
100
AcDbLine
 10
911.643
 20
1776.044388
 30
0.0
 11
910.415
 21
1776.252388
 31
0.0
  0
LINE
  5
413
100
AcDbEntity
  8
化粧台
  6
CONTINUOUS
 62
     6
100
AcDbLine
 10
910.415
 20
1776.252388
 30
0.0
 11
909.452
 21
1776.378388
 31
0.0
  0
LINE
  5
414
100
AcDbEntity
  8
化粧台
  6
CONTINUOUS
 62
     6
100
AcDbLine
 10
909.452
 20
1776.378388
 30
0.0
 11
908.686
 21
1776.457388
 31
0.0
  0
LINE
  5
415
100
AcDbEntity
  8
化粧台
  6
CONTINUOUS
 62
     6
100
AcDbLine
 10
908.686
 20
1776.457388
 30
0.0
 11
908.061
 21
1776.509388
 31
0.0
  0
LINE
  5
416
100
AcDbEntity
  8
化粧台
  6
CONTINUOUS
 62
     6
100
AcDbLine
 10
908.061
 20
1776.509388
 30
0.0
 11
907.538
 21
1776.544388
 31
0.0
  0
LINE
  5
417
100
AcDbEntity
  8
化粧台
  6
CONTINUOUS
 62
     6
100
AcDbLine
 10
907.538
 20
1776.544388
 30
0.0
 11
907.089
 21
1776.570388
 31
0.0
  0
LINE
  5
418
100
AcDbEntity
  8
化粧台
  6
CONTINUOUS
 62
     6
100
AcDbLine
 10
907.089
 20
1776.570388
 30
0.0
 11
906.693
 21
1776.587388
 31
0.0
  0
LINE
  5
419
100
AcDbEntity
  8
化粧台
  6
CONTINUOUS
 62
     6
100
AcDbLine
 10
906.693
 20
1776.587388
 30
0.0
 11
906.336
 21
1776.600388
 31
0.0
  0
LINE
  5
41A
100
AcDbEntity
  8
化粧台
  6
CONTINUOUS
 62
     6
100
AcDbLine
 10
906.336
 20
1776.600388
 30
0.0
 11
906.008
 21
1776.609388
 31
0.0
  0
LINE
  5
41B
100
AcDbEntity
  8
化粧台
  6
CONTINUOUS
 62
     6
100
AcDbLine
 10
906.008
 20
1776.609388
 30
0.0
 11
905.701
 21
1776.616388
 31
0.0
  0
LINE
  5
41C
100
AcDbEntity
  8
化粧台
  6
CONTINUOUS
 62
     6
100
AcDbLine
 10
905.701
 20
1776.616388
 30
0.0
 11
905.406
 21
1776.619388
 31
0.0
  0
LINE
  5
41D
100
AcDbEntity
  8
化粧台
  6
CONTINUOUS
 62
     6
100
AcDbLine
 10
905.406
 20
1776.619388
 30
0.0
 11
905.119
 21
1776.621388
 31
0.0
  0
LINE
  5
41E
100
AcDbEntity
  8
化粧台
  6
CONTINUOUS
 62
     6
100
AcDbLine
 10
905.119
 20
1776.621388
 30
0.0
 11
905.0
 21
1776.621388
 31
0.0
  0
LINE
  5
41F
100
AcDbEntity
  8
化粧台
  6
CONTINUOUS
 62
     6
100
AcDbLine
 10
905.0
 20
1804.417388
 30
0.0
 11
904.611
 21
1804.416388
 31
0.0
  0
LINE
  5
420
100
AcDbEntity
  8
化粧台
  6
CONTINUOUS
 62
     6
100
AcDbLine
 10
904.611
 20
1804.416388
 30
0.0
 11
904.215
 21
1804.412388
 31
0.0
  0
LINE
  5
421
100
AcDbEntity
  8
化粧台
  6
CONTINUOUS
 62
     6
100
AcDbLine
 10
904.215
 20
1804.412388
 30
0.0
 11
903.803
 21
1804.405388
 31
0.0
  0
LINE
  5
422
100
AcDbEntity
  8
化粧台
  6
CONTINUOUS
 62
     6
100
AcDbLine
 10
903.803
 20
1804.405388
 30
0.0
 11
903.369
 21
1804.394388
 31
0.0
  0
LINE
  5
423
100
AcDbEntity
  8
化粧台
  6
CONTINUOUS
 62
     6
100
AcDbLine
 10
903.369
 20
1804.394388
 30
0.0
 11
902.9
 21
1804.379388
 31
0.0
  0
LINE
  5
424
100
AcDbEntity
  8
化粧台
  6
CONTINUOUS
 62
     6
100
AcDbLine
 10
902.9
 20
1804.379388
 30
0.0
 11
902.385
 21
1804.358388
 31
0.0
  0
LINE
  5
425
100
AcDbEntity
  8
化粧台
  6
CONTINUOUS
 62
     6
100
AcDbLine
 10
902.385
 20
1804.358388
 30
0.0
 11
901.806
 21
1804.328388
 31
0.0
  0
LINE
  5
426
100
AcDbEntity
  8
化粧台
  6
CONTINUOUS
 62
     6
100
AcDbLine
 10
901.806
 20
1804.328388
 30
0.0
 11
901.138
 21
1804.286388
 31
0.0
  0
LINE
  5
427
100
AcDbEntity
  8
化粧台
  6
CONTINUOUS
 62
     6
100
AcDbLine
 10
901.138
 20
1804.286388
 30
0.0
 11
900.349
 21
1804.226388
 31
0.0
  0
LINE
  5
428
100
AcDbEntity
  8
化粧台
  6
CONTINUOUS
 62
     6
100
AcDbLine
 10
900.349
 20
1804.226388
 30
0.0
 11
899.393
 21
1804.135388
 31
0.0
  0
LINE
  5
429
100
AcDbEntity
  8
化粧台
  6
CONTINUOUS
 62
     6
100
AcDbLine
 10
899.393
 20
1804.135388
 30
0.0
 11
898.201
 21
1803.995388
 31
0.0
  0
LINE
  5
42A
100
AcDbEntity
  8
化粧台
  6
CONTINUOUS
 62
     6
100
AcDbLine
 10
898.201
 20
1803.995388
 30
0.0
 11
896.688
 21
1803.766388
 31
0.0
  0
LINE
  5
42B
100
AcDbEntity
  8
化粧台
  6
CONTINUOUS
 62
     6
100
AcDbLine
 10
896.688
 20
1803.766388
 30
0.0
 11
894.772
 21
1803.374388
 31
0.0
  0
LINE
  5
42C
100
AcDbEntity
  8
化粧台
  6
CONTINUOUS
 62
     6
100
AcDbLine
 10
894.772
 20
1803.374388
 30
0.0
 11
892.557
 21
1802.703388
 31
0.0
  0
LINE
  5
42D
100
AcDbEntity
  8
化粧台
  6
CONTINUOUS
 62
     6
100
AcDbLine
 10
905.0
 20
1793.399388
 30
0.0
 11
904.57
 21
1793.398388
 31
0.0
  0
LINE
  5
42E
100
AcDbEntity
  8
化粧台
  6
CONTINUOUS
 62
     6
100
AcDbLine
 10
904.57
 20
1793.398388
 30
0.0
 11
904.131
 21
1793.396388
 31
0.0
  0
LINE
  5
42F
100
AcDbEntity
  8
化粧台
  6
CONTINUOUS
 62
     6
100
AcDbLine
 10
904.131
 20
1793.396388
 30
0.0
 11
903.675
 21
1793.391388
 31
0.0
  0
LINE
  5
430
100
AcDbEntity
  8
化粧台
  6
CONTINUOUS
 62
     6
100
AcDbLine
 10
903.675
 20
1793.391388
 30
0.0
 11
903.191
 21
1793.385388
 31
0.0
  0
LINE
  5
431
100
AcDbEntity
  8
化粧台
  6
CONTINUOUS
 62
     6
100
AcDbLine
 10
903.191
 20
1793.385388
 30
0.0
 11
902.668
 21
1793.376388
 31
0.0
  0
LINE
  5
432
100
AcDbEntity
  8
化粧台
  6
CONTINUOUS
 62
     6
100
AcDbLine
 10
902.668
 20
1793.376388
 30
0.0
 11
902.088
 21
1793.363388
 31
0.0
  0
LINE
  5
433
100
AcDbEntity
  8
化粧台
  6
CONTINUOUS
 62
     6
100
AcDbLine
 10
902.088
 20
1793.363388
 30
0.0
 11
901.43
 21
1793.345388
 31
0.0
  0
LINE
  5
434
100
AcDbEntity
  8
化粧台
  6
CONTINUOUS
 62
     6
100
AcDbLine
 10
901.43
 20
1793.345388
 30
0.0
 11
900.663
 21
1793.318388
 31
0.0
  0
LINE
  5
435
100
AcDbEntity
  8
化粧台
  6
CONTINUOUS
 62
     6
100
AcDbLine
 10
900.663
 20
1793.318388
 30
0.0
 11
899.74
 21
1793.280388
 31
0.0
  0
LINE
  5
436
100
AcDbEntity
  8
化粧台
  6
CONTINUOUS
 62
     6
100
AcDbLine
 10
899.74
 20
1793.280388
 30
0.0
 11
898.591
 21
1793.221388
 31
0.0
  0
LINE
  5
437
100
AcDbEntity
  8
化粧台
  6
CONTINUOUS
 62
     6
100
AcDbLine
 10
898.591
 20
1793.221388
 30
0.0
 11
897.102
 21
1793.126388
 31
0.0
  0
LINE
  5
438
100
AcDbEntity
  8
化粧台
  6
CONTINUOUS
 62
     6
100
AcDbLine
 10
897.102
 20
1793.126388
 30
0.0
 11
895.087
 21
1792.960388
 31
0.0
  0
LINE
  5
439
100
AcDbEntity
  8
化粧台
  6
CONTINUOUS
 62
     6
100
AcDbLine
 10
895.087
 20
1792.960388
 30
0.0
 11
892.256
 21
1792.644388
 31
0.0
  0
LINE
  5
43A
100
AcDbEntity
  8
化粧台
  6
CONTINUOUS
 62
     6
100
AcDbLine
 10
892.256
 20
1792.644388
 30
0.0
 11
889.583
 21
1792.233388
 31
0.0
  0
LINE
  5
43B
100
AcDbEntity
  8
化粧台
  6
CONTINUOUS
 62
     6
100
AcDbLine
 10
905.0
 20
1785.407388
 30
0.0
 11
904.57
 21
1785.406388
 31
0.0
  0
LINE
  5
43C
100
AcDbEntity
  8
化粧台
  6
CONTINUOUS
 62
     6
100
AcDbLine
 10
904.57
 20
1785.406388
 30
0.0
 11
904.131
 21
1785.403388
 31
0.0
  0
LINE
  5
43D
100
AcDbEntity
  8
化粧台
  6
CONTINUOUS
 62
     6
100
AcDbLine
 10
904.131
 20
1785.403388
 30
0.0
 11
903.675
 21
1785.399388
 31
0.0
  0
LINE
  5
43E
100
AcDbEntity
  8
化粧台
  6
CONTINUOUS
 62
     6
100
AcDbLine
 10
903.675
 20
1785.399388
 30
0.0
 11
903.191
 21
1785.393388
 31
0.0
  0
LINE
  5
43F
100
AcDbEntity
  8
化粧台
  6
CONTINUOUS
 62
     6
100
AcDbLine
 10
903.191
 20
1785.393388
 30
0.0
 11
902.668
 21
1785.383388
 31
0.0
  0
LINE
  5
440
100
AcDbEntity
  8
化粧台
  6
CONTINUOUS
 62
     6
100
AcDbLine
 10
902.668
 20
1785.383388
 30
0.0
 11
902.088
 21
1785.370388
 31
0.0
  0
LINE
  5
441
100
AcDbEntity
  8
化粧台
  6
CONTINUOUS
 62
     6
100
AcDbLine
 10
902.088
 20
1785.370388
 30
0.0
 11
901.43
 21
1785.352388
 31
0.0
  0
LINE
  5
442
100
AcDbEntity
  8
化粧台
  6
CONTINUOUS
 62
     6
100
AcDbLine
 10
901.43
 20
1785.352388
 30
0.0
 11
900.663
 21
1785.326388
 31
0.0
  0
LINE
  5
443
100
AcDbEntity
  8
化粧台
  6
CONTINUOUS
 62
     6
100
AcDbLine
 10
900.663
 20
1785.326388
 30
0.0
 11
899.74
 21
1785.288388
 31
0.0
  0
LINE
  5
444
100
AcDbEntity
  8
化粧台
  6
CONTINUOUS
 62
     6
100
AcDbLine
 10
899.74
 20
1785.288388
 30
0.0
 11
898.591
 21
1785.229388
 31
0.0
  0
LINE
  5
445
100
AcDbEntity
  8
化粧台
  6
CONTINUOUS
 62
     6
100
AcDbLine
 10
898.591
 20
1785.229388
 30
0.0
 11
897.102
 21
1785.133388
 31
0.0
  0
LINE
  5
446
100
AcDbEntity
  8
化粧台
  6
CONTINUOUS
 62
     6
100
AcDbLine
 10
897.102
 20
1785.133388
 30
0.0
 11
895.087
 21
1784.967388
 31
0.0
  0
LINE
  5
447
100
AcDbEntity
  8
化粧台
  6
CONTINUOUS
 62
     6
100
AcDbLine
 10
895.087
 20
1784.967388
 30
0.0
 11
892.256
 21
1784.651388
 31
0.0
  0
LINE
  5
448
100
AcDbEntity
  8
化粧台
  6
CONTINUOUS
 62
     6
100
AcDbLine
 10
892.256
 20
1784.651388
 30
0.0
 11
889.307
 21
1784.190388
 31
0.0
  0
LINE
  5
449
100
AcDbEntity
  8
化粧台
  6
CONTINUOUS
 62
     6
100
AcDbLine
 10
905.0
 20
1776.621388
 30
0.0
 11
904.715
 21
1776.620388
 31
0.0
  0
LINE
  5
44A
100
AcDbEntity
  8
化粧台
  6
CONTINUOUS
 62
     6
100
AcDbLine
 10
904.715
 20
1776.620388
 30
0.0
 11
904.424
 21
1776.617388
 31
0.0
  0
LINE
  5
44B
100
AcDbEntity
  8
化粧台
  6
CONTINUOUS
 62
     6
100
AcDbLine
 10
904.424
 20
1776.617388
 30
0.0
 11
904.123
 21
1776.612388
 31
0.0
  0
LINE
  5
44C
100
AcDbEntity
  8
化粧台
  6
CONTINUOUS
 62
     6
100
AcDbLine
 10
904.123
 20
1776.612388
 30
0.0
 11
903.804
 21
1776.604388
 31
0.0
  0
LINE
  5
44D
100
AcDbEntity
  8
化粧台
  6
CONTINUOUS
 62
     6
100
AcDbLine
 10
903.804
 20
1776.604388
 30
0.0
 11
903.46
 21
1776.593388
 31
0.0
  0
LINE
  5
44E
100
AcDbEntity
  8
化粧台
  6
CONTINUOUS
 62
     6
100
AcDbLine
 10
903.46
 20
1776.593388
 30
0.0
 11
903.083
 21
1776.578388
 31
0.0
  0
LINE
  5
44F
100
AcDbEntity
  8
化粧台
  6
CONTINUOUS
 62
     6
100
AcDbLine
 10
903.083
 20
1776.578388
 30
0.0
 11
902.657
 21
1776.556388
 31
0.0
  0
LINE
  5
450
100
AcDbEntity
  8
化粧台
  6
CONTINUOUS
 62
     6
100
AcDbLine
 10
902.657
 20
1776.556388
 30
0.0
 11
902.168
 21
1776.525388
 31
0.0
  0
LINE
  5
451
100
AcDbEntity
  8
化粧台
  6
CONTINUOUS
 62
     6
100
AcDbLine
 10
902.168
 20
1776.525388
 30
0.0
 11
901.59
 21
1776.481388
 31
0.0
  0
LINE
  5
452
100
AcDbEntity
  8
化粧台
  6
CONTINUOUS
 62
     6
100
AcDbLine
 10
901.59
 20
1776.481388
 30
0.0
 11
900.888
 21
1776.415388
 31
0.0
  0
LINE
  5
453
100
AcDbEntity
  8
化粧台
  6
CONTINUOUS
 62
     6
100
AcDbLine
 10
900.888
 20
1776.415388
 30
0.0
 11
900.014
 21
1776.312388
 31
0.0
  0
LINE
  5
454
100
AcDbEntity
  8
化粧台
  6
CONTINUOUS
 62
     6
100
AcDbLine
 10
900.014
 20
1776.312388
 30
0.0
 11
898.905
 21
1776.144388
 31
0.0
  0
LINE
  5
455
100
AcDbEntity
  8
化粧台
  6
CONTINUOUS
 62
     6
100
AcDbLine
 10
898.905
 20
1776.144388
 30
0.0
 11
897.499
 21
1775.857388
 31
0.0
  0
LINE
  5
456
100
AcDbEntity
  8
化粧台
  6
CONTINUOUS
 62
     6
100
AcDbLine
 10
897.499
 20
1775.857388
 30
0.0
 11
895.847
 21
1775.353388
 31
0.0
  0
LINE
  5
457
100
AcDbEntity
  8
化粧台
  6
CONTINUOUS
 62
     6
100
AcDbLine
 10
895.847
 20
1775.353388
 30
0.0
 11
894.391
 21
1774.527388
 31
0.0
  0
LINE
  5
458
100
AcDbEntity
  8
化粧台
  6
CONTINUOUS
 62
     6
100
AcDbLine
 10
894.391
 20
1774.527388
 30
0.0
 11
894.0
 21
1773.774388
 31
0.0
  0
LINE
  5
459
100
AcDbEntity
  8
化粧台
  6
CONTINUOUS
 62
     6
100
AcDbLine
 10
894.0
 20
1773.774388
 30
0.0
 11
894.07
 21
1773.455388
 31
0.0
  0
LINE
  5
45A
100
AcDbEntity
  8
化粧台
  6
CONTINUOUS
 62
     6
100
AcDbLine
 10
894.07
 20
1773.455388
 30
0.0
 11
895.17
 21
1772.497388
 31
0.0
  0
LINE
  5
45B
100
AcDbEntity
  8
化粧台
  6
CONTINUOUS
 62
     6
100
AcDbLine
 10
895.17
 20
1772.497388
 30
0.0
 11
896.83
 21
1771.868388
 31
0.0
  0
LINE
  5
45C
100
AcDbEntity
  8
化粧台
  6
CONTINUOUS
 62
     6
100
AcDbLine
 10
896.83
 20
1771.868388
 30
0.0
 11
898.358
 21
1771.505388
 31
0.0
  0
LINE
  5
45D
100
AcDbEntity
  8
化粧台
  6
CONTINUOUS
 62
     6
100
AcDbLine
 10
898.358
 20
1771.505388
 30
0.0
 11
899.586
 21
1771.296388
 31
0.0
  0
LINE
  5
45E
100
AcDbEntity
  8
化粧台
  6
CONTINUOUS
 62
     6
100
AcDbLine
 10
899.586
 20
1771.296388
 30
0.0
 11
900.549
 21
1771.171388
 31
0.0
  0
LINE
  5
45F
100
AcDbEntity
  8
化粧台
  6
CONTINUOUS
 62
     6
100
AcDbLine
 10
900.549
 20
1771.171388
 30
0.0
 11
901.315
 21
1771.092388
 31
0.0
  0
LINE
  5
460
100
AcDbEntity
  8
化粧台
  6
CONTINUOUS
 62
     6
100
AcDbLine
 10
901.315
 20
1771.092388
 30
0.0
 11
901.94
 21
1771.040388
 31
0.0
  0
LINE
  5
461
100
AcDbEntity
  8
化粧台
  6
CONTINUOUS
 62
     6
100
AcDbLine
 10
901.94
 20
1771.040388
 30
0.0
 11
902.463
 21
1771.004388
 31
0.0
  0
LINE
  5
462
100
AcDbEntity
  8
化粧台
  6
CONTINUOUS
 62
     6
100
AcDbLine
 10
902.463
 20
1771.004388
 30
0.0
 11
902.912
 21
1770.979388
 31
0.0
  0
LINE
  5
463
100
AcDbEntity
  8
化粧台
  6
CONTINUOUS
 62
     6
100
AcDbLine
 10
902.912
 20
1770.979388
 30
0.0
 11
903.308
 21
1770.961388
 31
0.0
  0
LINE
  5
464
100
AcDbEntity
  8
化粧台
  6
CONTINUOUS
 62
     6
100
AcDbLine
 10
903.308
 20
1770.961388
 30
0.0
 11
903.665
 21
1770.948388
 31
0.0
  0
LINE
  5
465
100
AcDbEntity
  8
化粧台
  6
CONTINUOUS
 62
     6
100
AcDbLine
 10
903.665
 20
1770.948388
 30
0.0
 11
903.993
 21
1770.939388
 31
0.0
  0
LINE
  5
466
100
AcDbEntity
  8
化粧台
  6
CONTINUOUS
 62
     6
100
AcDbLine
 10
903.993
 20
1770.939388
 30
0.0
 11
904.3
 21
1770.933388
 31
0.0
  0
LINE
  5
467
100
AcDbEntity
  8
化粧台
  6
CONTINUOUS
 62
     6
100
AcDbLine
 10
904.3
 20
1770.933388
 30
0.0
 11
904.595
 21
1770.929388
 31
0.0
  0
LINE
  5
468
100
AcDbEntity
  8
化粧台
  6
CONTINUOUS
 62
     6
100
AcDbLine
 10
904.595
 20
1770.929388
 30
0.0
 11
904.882
 21
1770.927388
 31
0.0
  0
LINE
  5
469
100
AcDbEntity
  8
化粧台
  6
CONTINUOUS
 62
     6
100
AcDbLine
 10
904.882
 20
1770.927388
 30
0.0
 11
905.0
 21
1770.927388
 31
0.0
  0
LINE
  5
46A
100
AcDbEntity
  8
化粧台
  6
CONTINUOUS
 62
     6
100
AcDbLine
 10
905.0
 20
1737.043388
 30
0.0
 11
905.168
 21
1737.048388
 31
0.0
  0
LINE
  5
46B
100
AcDbEntity
  8
化粧台
  6
CONTINUOUS
 62
     6
100
AcDbLine
 10
905.168
 20
1737.048388
 30
0.0
 11
905.336
 21
1737.065388
 31
0.0
  0
LINE
  5
46C
100
AcDbEntity
  8
化粧台
  6
CONTINUOUS
 62
     6
100
AcDbLine
 10
905.336
 20
1737.065388
 30
0.0
 11
905.504
 21
1737.094388
 31
0.0
  0
LINE
  5
46D
100
AcDbEntity
  8
化粧台
  6
CONTINUOUS
 62
     6
100
AcDbLine
 10
905.504
 20
1737.094388
 30
0.0
 11
905.671
 21
1737.135388
 31
0.0
  0
LINE
  5
46E
100
AcDbEntity
  8
化粧台
  6
CONTINUOUS
 62
     6
100
AcDbLine
 10
905.671
 20
1737.135388
 30
0.0
 11
905.838
 21
1737.189388
 31
0.0
  0
LINE
  5
46F
100
AcDbEntity
  8
化粧台
  6
CONTINUOUS
 62
     6
100
AcDbLine
 10
905.838
 20
1737.189388
 30
0.0
 11
906.003
 21
1737.257388
 31
0.0
  0
LINE
  5
470
100
AcDbEntity
  8
化粧台
  6
CONTINUOUS
 62
     6
100
AcDbLine
 10
906.003
 20
1737.257388
 30
0.0
 11
906.165
 21
1737.340388
 31
0.0
  0
LINE
  5
471
100
AcDbEntity
  8
化粧台
  6
CONTINUOUS
 62
     6
100
AcDbLine
 10
906.165
 20
1737.340388
 30
0.0
 11
906.322
 21
1737.438388
 31
0.0
  0
LINE
  5
472
100
AcDbEntity
  8
化粧台
  6
CONTINUOUS
 62
     6
100
AcDbLine
 10
906.322
 20
1737.438388
 30
0.0
 11
906.473
 21
1737.553388
 31
0.0
  0
LINE
  5
473
100
AcDbEntity
  8
化粧台
  6
CONTINUOUS
 62
     6
100
AcDbLine
 10
906.473
 20
1737.553388
 30
0.0
 11
906.614
 21
1737.686388
 31
0.0
  0
LINE
  5
474
100
AcDbEntity
  8
化粧台
  6
CONTINUOUS
 62
     6
100
AcDbLine
 10
906.614
 20
1737.686388
 30
0.0
 11
906.742
 21
1737.836388
 31
0.0
  0
LINE
  5
475
100
AcDbEntity
  8
化粧台
  6
CONTINUOUS
 62
     6
100
AcDbLine
 10
906.742
 20
1737.836388
 30
0.0
 11
906.852
 21
1738.002388
 31
0.0
  0
LINE
  5
476
100
AcDbEntity
  8
化粧台
  6
CONTINUOUS
 62
     6
100
AcDbLine
 10
906.852
 20
1738.002388
 30
0.0
 11
906.942
 21
1738.183388
 31
0.0
  0
LINE
  5
477
100
AcDbEntity
  8
化粧台
  6
CONTINUOUS
 62
     6
100
AcDbLine
 10
906.942
 20
1738.183388
 30
0.0
 11
907.006
 21
1738.376388
 31
0.0
  0
LINE
  5
478
100
AcDbEntity
  8
化粧台
  6
CONTINUOUS
 62
     6
100
AcDbLine
 10
907.006
 20
1738.376388
 30
0.0
 11
907.043
 21
1738.577388
 31
0.0
  0
LINE
  5
479
100
AcDbEntity
  8
化粧台
  6
CONTINUOUS
 62
     6
100
AcDbLine
 10
907.043
 20
1738.577388
 30
0.0
 11
907.05
 21
1738.722388
 31
0.0
  0
LINE
  5
47A
100
AcDbEntity
  8
化粧台
  6
CONTINUOUS
 62
     6
100
AcDbLine
 10
907.05
 20
1738.722388
 30
0.0
 11
907.049
 21
1738.782388
 31
0.0
  0
LINE
  5
47B
100
AcDbEntity
  8
化粧台
  6
CONTINUOUS
 62
     6
100
AcDbLine
 10
907.049
 20
1738.782388
 30
0.0
 11
907.025
 21
1738.985388
 31
0.0
  0
LINE
  5
47C
100
AcDbEntity
  8
化粧台
  6
CONTINUOUS
 62
     6
100
AcDbLine
 10
907.025
 20
1738.985388
 30
0.0
 11
906.972
 21
1739.182388
 31
0.0
  0
LINE
  5
47D
100
AcDbEntity
  8
化粧台
  6
CONTINUOUS
 62
     6
100
AcDbLine
 10
906.972
 20
1739.182388
 30
0.0
 11
906.893
 21
1739.368388
 31
0.0
  0
LINE
  5
47E
100
AcDbEntity
  8
化粧台
  6
CONTINUOUS
 62
     6
100
AcDbLine
 10
906.893
 20
1739.368388
 30
0.0
 11
906.79
 21
1739.541388
 31
0.0
  0
LINE
  5
47F
100
AcDbEntity
  8
化粧台
  6
CONTINUOUS
 62
     6
100
AcDbLine
 10
906.79
 20
1739.541388
 30
0.0
 11
906.669
 21
1739.698388
 31
0.0
  0
LINE
  5
480
100
AcDbEntity
  8
化粧台
  6
CONTINUOUS
 62
     6
100
AcDbLine
 10
906.669
 20
1739.698388
 30
0.0
 11
906.533
 21
1739.837388
 31
0.0
  0
LINE
  5
481
100
AcDbEntity
  8
化粧台
  6
CONTINUOUS
 62
     6
100
AcDbLine
 10
906.533
 20
1739.837388
 30
0.0
 11
906.386
 21
1739.960388
 31
0.0
  0
LINE
  5
482
100
AcDbEntity
  8
化粧台
  6
CONTINUOUS
 62
     6
100
AcDbLine
 10
906.386
 20
1739.960388
 30
0.0
 11
906.231
 21
1740.065388
 31
0.0
  0
LINE
  5
483
100
AcDbEntity
  8
化粧台
  6
CONTINUOUS
 62
     6
100
AcDbLine
 10
906.231
 20
1740.065388
 30
0.0
 11
906.07
 21
1740.154388
 31
0.0
  0
LINE
  5
484
100
AcDbEntity
  8
化粧台
  6
CONTINUOUS
 62
     6
100
AcDbLine
 10
906.07
 20
1740.154388
 30
0.0
 11
905.907
 21
1740.228388
 31
0.0
  0
LINE
  5
485
100
AcDbEntity
  8
化粧台
  6
CONTINUOUS
 62
     6
100
AcDbLine
 10
905.907
 20
1740.228388
 30
0.0
 11
905.741
 21
1740.288388
 31
0.0
  0
LINE
  5
486
100
AcDbEntity
  8
化粧台
  6
CONTINUOUS
 62
     6
100
AcDbLine
 10
905.741
 20
1740.288388
 30
0.0
 11
905.574
 21
1740.334388
 31
0.0
  0
LINE
  5
487
100
AcDbEntity
  8
化粧台
  6
CONTINUOUS
 62
     6
100
AcDbLine
 10
905.574
 20
1740.334388
 30
0.0
 11
905.406
 21
1740.368388
 31
0.0
  0
LINE
  5
488
100
AcDbEntity
  8
化粧台
  6
CONTINUOUS
 62
     6
100
AcDbLine
 10
905.406
 20
1740.368388
 30
0.0
 11
905.238
 21
1740.390388
 31
0.0
  0
LINE
  5
489
100
AcDbEntity
  8
化粧台
  6
CONTINUOUS
 62
     6
100
AcDbLine
 10
905.238
 20
1740.390388
 30
0.0
 11
905.07
 21
1740.400388
 31
0.0
  0
LINE
  5
48A
100
AcDbEntity
  8
化粧台
  6
CONTINUOUS
 62
     6
100
AcDbLine
 10
905.07
 20
1740.400388
 30
0.0
 11
905.0
 21
1740.401388
 31
0.0
  0
LINE
  5
48B
100
AcDbEntity
  8
化粧台
  6
CONTINUOUS
 62
     6
100
AcDbLine
 10
905.0
 20
1737.043388
 30
0.0
 11
904.832
 21
1737.048388
 31
0.0
  0
LINE
  5
48C
100
AcDbEntity
  8
化粧台
  6
CONTINUOUS
 62
     6
100
AcDbLine
 10
904.832
 20
1737.048388
 30
0.0
 11
904.664
 21
1737.065388
 31
0.0
  0
LINE
  5
48D
100
AcDbEntity
  8
化粧台
  6
CONTINUOUS
 62
     6
100
AcDbLine
 10
904.664
 20
1737.065388
 30
0.0
 11
904.496
 21
1737.094388
 31
0.0
  0
LINE
  5
48E
100
AcDbEntity
  8
化粧台
  6
CONTINUOUS
 62
     6
100
AcDbLine
 10
904.496
 20
1737.094388
 30
0.0
 11
904.329
 21
1737.135388
 31
0.0
  0
LINE
  5
48F
100
AcDbEntity
  8
化粧台
  6
CONTINUOUS
 62
     6
100
AcDbLine
 10
904.329
 20
1737.135388
 30
0.0
 11
904.162
 21
1737.189388
 31
0.0
  0
LINE
  5
490
100
AcDbEntity
  8
化粧台
  6
CONTINUOUS
 62
     6
100
AcDbLine
 10
904.162
 20
1737.189388
 30
0.0
 11
903.997
 21
1737.257388
 31
0.0
  0
LINE
  5
491
100
AcDbEntity
  8
化粧台
  6
CONTINUOUS
 62
     6
100
AcDbLine
 10
903.997
 20
1737.257388
 30
0.0
 11
903.835
 21
1737.340388
 31
0.0
  0
LINE
  5
492
100
AcDbEntity
  8
化粧台
  6
CONTINUOUS
 62
     6
100
AcDbLine
 10
903.835
 20
1737.340388
 30
0.0
 11
903.678
 21
1737.438388
 31
0.0
  0
LINE
  5
493
100
AcDbEntity
  8
化粧台
  6
CONTINUOUS
 62
     6
100
AcDbLine
 10
903.678
 20
1737.438388
 30
0.0
 11
903.527
 21
1737.553388
 31
0.0
  0
LINE
  5
494
100
AcDbEntity
  8
化粧台
  6
CONTINUOUS
 62
     6
100
AcDbLine
 10
903.527
 20
1737.553388
 30
0.0
 11
903.386
 21
1737.686388
 31
0.0
  0
LINE
  5
495
100
AcDbEntity
  8
化粧台
  6
CONTINUOUS
 62
     6
100
AcDbLine
 10
903.386
 20
1737.686388
 30
0.0
 11
903.258
 21
1737.836388
 31
0.0
  0
LINE
  5
496
100
AcDbEntity
  8
化粧台
  6
CONTINUOUS
 62
     6
100
AcDbLine
 10
903.258
 20
1737.836388
 30
0.0
 11
903.148
 21
1738.002388
 31
0.0
  0
LINE
  5
497
100
AcDbEntity
  8
化粧台
  6
CONTINUOUS
 62
     6
100
AcDbLine
 10
903.148
 20
1738.002388
 30
0.0
 11
903.058
 21
1738.183388
 31
0.0
  0
LINE
  5
498
100
AcDbEntity
  8
化粧台
  6
CONTINUOUS
 62
     6
100
AcDbLine
 10
903.058
 20
1738.183388
 30
0.0
 11
902.994
 21
1738.376388
 31
0.0
  0
LINE
  5
499
100
AcDbEntity
  8
化粧台
  6
CONTINUOUS
 62
     6
100
AcDbLine
 10
902.994
 20
1738.376388
 30
0.0
 11
902.957
 21
1738.577388
 31
0.0
  0
LINE
  5
49A
100
AcDbEntity
  8
化粧台
  6
CONTINUOUS
 62
     6
100
AcDbLine
 10
902.957
 20
1738.577388
 30
0.0
 11
902.95
 21
1738.722388
 31
0.0
  0
LINE
  5
49B
100
AcDbEntity
  8
化粧台
  6
CONTINUOUS
 62
     6
100
AcDbLine
 10
902.95
 20
1738.722388
 30
0.0
 11
902.951
 21
1738.782388
 31
0.0
  0
LINE
  5
49C
100
AcDbEntity
  8
化粧台
  6
CONTINUOUS
 62
     6
100
AcDbLine
 10
902.951
 20
1738.782388
 30
0.0
 11
902.975
 21
1738.985388
 31
0.0
  0
LINE
  5
49D
100
AcDbEntity
  8
化粧台
  6
CONTINUOUS
 62
     6
100
AcDbLine
 10
902.975
 20
1738.985388
 30
0.0
 11
903.028
 21
1739.182388
 31
0.0
  0
LINE
  5
49E
100
AcDbEntity
  8
化粧台
  6
CONTINUOUS
 62
     6
100
AcDbLine
 10
903.028
 20
1739.182388
 30
0.0
 11
903.107
 21
1739.368388
 31
0.0
  0
LINE
  5
49F
100
AcDbEntity
  8
化粧台
  6
CONTINUOUS
 62
     6
100
AcDbLine
 10
903.107
 20
1739.368388
 30
0.0
 11
903.21
 21
1739.541388
 31
0.0
  0
LINE
  5
4A0
100
AcDbEntity
  8
化粧台
  6
CONTINUOUS
 62
     6
100
AcDbLine
 10
903.21
 20
1739.541388
 30
0.0
 11
903.331
 21
1739.698388
 31
0.0
  0
LINE
  5
4A1
100
AcDbEntity
  8
化粧台
  6
CONTINUOUS
 62
     6
100
AcDbLine
 10
903.331
 20
1739.698388
 30
0.0
 11
903.467
 21
1739.837388
 31
0.0
  0
LINE
  5
4A2
100
AcDbEntity
  8
化粧台
  6
CONTINUOUS
 62
     6
100
AcDbLine
 10
903.467
 20
1739.837388
 30
0.0
 11
903.614
 21
1739.960388
 31
0.0
  0
LINE
  5
4A3
100
AcDbEntity
  8
化粧台
  6
CONTINUOUS
 62
     6
100
AcDbLine
 10
903.614
 20
1739.960388
 30
0.0
 11
903.769
 21
1740.065388
 31
0.0
  0
LINE
  5
4A4
100
AcDbEntity
  8
化粧台
  6
CONTINUOUS
 62
     6
100
AcDbLine
 10
903.769
 20
1740.065388
 30
0.0
 11
903.93
 21
1740.154388
 31
0.0
  0
LINE
  5
4A5
100
AcDbEntity
  8
化粧台
  6
CONTINUOUS
 62
     6
100
AcDbLine
 10
903.93
 20
1740.154388
 30
0.0
 11
904.093
 21
1740.228388
 31
0.0
  0
LINE
  5
4A6
100
AcDbEntity
  8
化粧台
  6
CONTINUOUS
 62
     6
100
AcDbLine
 10
904.093
 20
1740.228388
 30
0.0
 11
904.259
 21
1740.288388
 31
0.0
  0
LINE
  5
4A7
100
AcDbEntity
  8
化粧台
  6
CONTINUOUS
 62
     6
100
AcDbLine
 10
904.259
 20
1740.288388
 30
0.0
 11
904.426
 21
1740.334388
 31
0.0
  0
LINE
  5
4A8
100
AcDbEntity
  8
化粧台
  6
CONTINUOUS
 62
     6
100
AcDbLine
 10
904.426
 20
1740.334388
 30
0.0
 11
904.594
 21
1740.368388
 31
0.0
  0
LINE
  5
4A9
100
AcDbEntity
  8
化粧台
  6
CONTINUOUS
 62
     6
100
AcDbLine
 10
904.594
 20
1740.368388
 30
0.0
 11
904.762
 21
1740.390388
 31
0.0
  0
LINE
  5
4AA
100
AcDbEntity
  8
化粧台
  6
CONTINUOUS
 62
     6
100
AcDbLine
 10
904.762
 20
1740.390388
 30
0.0
 11
904.93
 21
1740.400388
 31
0.0
  0
LINE
  5
4AB
100
AcDbEntity
  8
化粧台
  6
CONTINUOUS
 62
     6
100
AcDbLine
 10
904.93
 20
1740.400388
 30
0.0
 11
905.0
 21
1740.401388
 31
0.0
  0
ARC
  5
4AC
100
AcDbEntity
  8
化粧台
  6
CONTINUOUS
 62
     6
100
AcDbCircle
 10
2383.87491
 20
1763.493456
 30
0.0
 40
1.0
100
AcDbArc
 50
273.0
 51
4.323
  0
ARC
  5
4AD
100
AcDbEntity
  8
化粧台
  6
CONTINUOUS
 62
     6
100
AcDbCircle
 10
2380.878023
 20
1763.336396
 30
0.0
 40
1.0
100
AcDbArc
 50
273.0
 51
4.323
  0
ARC
  5
4AE
100
AcDbEntity
  8
化粧台
  6
CONTINUOUS
 62
     6
100
AcDbCircle
 10
2355.772476
 20
1762.02067
 30
0.0
 40
1.0
100
AcDbArc
 50
181.677
 51
273.0
  0
ARC
  5
4AF
100
AcDbEntity
  8
化粧台
  6
CONTINUOUS
 62
     6
100
AcDbCircle
 10
2352.775589
 20
1761.86361
 30
0.0
 40
1.0
100
AcDbArc
 50
181.677
 51
273.0
  0
LINE
  5
4B0
100
AcDbEntity
  8
化粧台
  6
CONTINUOUS
 62
     6
100
AcDbLine
 10
2384.872336
 20
1763.56876
 30
0.0
 11
2381.700836
 21
1805.512259
 31
0.0
  0
ARC
  5
4B1
100
AcDbEntity
  8
化粧台
  6
CONTINUOUS
 62
     6
100
AcDbCircle
 10
2363.612344
 20
1852.606121
 30
0.0
 40
101.051
100
AcDbArc
 50
264.39
 51
281.337
  0
ARC
  5
4B2
100
AcDbEntity
  8
化粧台
  6
CONTINUOUS
 62
     6
100
AcDbCircle
 10
2357.54248
 20
1804.083951
 30
0.0
 40
7.0
100
AcDbArc
 50
94.678
 51
181.676
  0
ARC
  5
4B3
100
AcDbEntity
  8
化粧台
  6
CONTINUOUS
 62
     6
100
AcDbCircle
 10
2357.54248
 20
1804.083951
 30
0.0
 40
4.0
100
AcDbArc
 50
94.678
 51
181.676
  0
ARC
  5
4B4
100
AcDbEntity
  8
化粧台
  6
CONTINUOUS
 62
     6
100
AcDbCircle
 10
2381.438562
 20
1512.060367
 30
0.0
 40
297.0
100
AcDbArc
 50
93.0
 51
94.678
  0
ARC
  5
4B5
100
AcDbEntity
  8
化粧台
  6
CONTINUOUS
 62
     6
100
AcDbCircle
 10
2381.479506
 20
1512.062513
 30
0.0
 40
297.0
100
AcDbArc
 50
91.322
 51
93.0
  0
ARC
  5
4B6
100
AcDbEntity
  8
化粧台
  6
CONTINUOUS
 62
     6
100
AcDbCircle
 10
2374.720905
 20
1804.984234
 30
0.0
 40
4.0
100
AcDbArc
 50
4.324
 51
91.322
  0
ARC
  5
4B7
100
AcDbEntity
  8
化粧台
  6
CONTINUOUS
 62
     6
100
AcDbCircle
 10
2374.720905
 20
1804.984234
 30
0.0
 40
7.0
100
AcDbArc
 50
4.324
 51
91.322
  0
LINE
  5
4B8
100
AcDbEntity
  8
化粧台
  6
CONTINUOUS
 62
     6
100
AcDbLine
 10
2381.875448
 20
1763.4117
 30
0.0
 11
2378.70961
 21
1805.285399
 31
0.0
  0
LINE
  5
4B9
100
AcDbEntity
  8
化粧台
  6
CONTINUOUS
 62
     6
100
AcDbLine
 10
2354.772643
 20
1761.991302
 30
0.0
 11
2353.544145
 21
1803.966533
 31
0.0
  0
LINE
  5
4BA
100
AcDbEntity
  8
化粧台
  6
CONTINUOUS
 62
     6
100
AcDbLine
 10
2351.775756
 20
1761.834242
 30
0.0
 11
2350.545592
 21
1803.879482
 31
0.0
  0
ARC
  5
4BB
100
AcDbEntity
  8
化粧台
  6
CONTINUOUS
 62
     6
100
AcDbCircle
 10
2388.035378
 20
1759.56181
 30
0.0
 40
4.0
100
AcDbArc
 50
183.0
 51
251.832
  0
ARC
  5
4BC
100
AcDbEntity
  8
化粧台
  6
CONTINUOUS
 62
     6
100
AcDbCircle
 10
2391.361476
 20
1749.042468
 30
0.0
 40
4.5
100
AcDbArc
 50
3.0
 51
63.694
  0
LINE
  5
4BD
100
AcDbEntity
  8
化粧台
  6
CONTINUOUS
 62
     6
100
AcDbLine
 10
2384.04086
 20
1759.352466
 30
0.0
 11
2383.876316
 21
1762.492157
 31
0.0
  0
ARC
  5
4BE
100
AcDbEntity
  8
化粧台
  6
CONTINUOUS
 62
     6
100
AcDbCircle
 10
2349.859768
 20
1757.561111
 30
0.0
 40
4.0
100
AcDbArc
 50
294.168
 51
3.0
  0
ARC
  5
4BF
100
AcDbEntity
  8
化粧台
  6
CONTINUOUS
 62
     6
100
AcDbCircle
 10
2347.650463
 20
1746.751671
 30
0.0
 40
4.5
100
AcDbArc
 50
122.306
 51
183.0
  0
LINE
  5
4C0
100
AcDbEntity
  8
化粧台
  6
CONTINUOUS
 62
     6
100
AcDbLine
 10
2353.854286
 20
1757.770455
 30
0.0
 11
2353.689742
 21
1760.910146
 31
0.0
  0
ARC
  5
4C1
100
AcDbEntity
  8
化粧台
  6
CONTINUOUS
 62
     6
100
AcDbCircle
 10
2371.967475
 20
1708.294621
 30
0.0
 40
50.0
100
AcDbArc
 50
114.168
 51
122.306
  0
ARC
  5
4C2
100
AcDbEntity
  8
化粧台
  6
CONTINUOUS
 62
     6
100
AcDbCircle
 10
2371.197532
 20
1708.25427
 30
0.0
 40
50.0
100
AcDbArc
 50
63.694
 51
71.832
  0
ARC
  5
4C3
100
AcDbEntity
  8
化粧台
  6
CONTINUOUS
 62
     6
100
AcDbCircle
 10
2261.950517
 20
1619.907647
 30
0.0
 40
180.0
100
AcDbArc
 50
63.402
 51
85.938
  0
ARC
  5
4C4
100
AcDbEntity
  8
化粧台
  6
CONTINUOUS
 62
     6
100
AcDbCircle
 10
2381.479506
 20
1512.062513
 30
0.0
 40
300.0
100
AcDbArc
 50
90.227
 51
91.376
  0
ARC
  5
4C5
100
AcDbEntity
  8
化粧台
  6
CONTINUOUS
 62
     6
100
AcDbCircle
 10
2392.841604
 20
1763.963381
 30
0.0
 40
1.0
100
AcDbArc
 50
273.0
 51
5.21
  0
ARC
  5
4C6
100
AcDbEntity
  8
化粧台
  6
CONTINUOUS
 62
     6
100
AcDbCircle
 10
2380.330645
 20
1802.059817
 30
0.0
 40
10.0
100
AcDbArc
 50
5.21
 51
90.227
  0
LINE
  5
4C7
100
AcDbEntity
  8
化粧台
  6
CONTINUOUS
 62
     6
100
AcDbLine
 10
2390.28875
 20
1802.968229
 30
0.0
 11
2393.837247
 21
1764.053612
 31
0.0
  0
ARC
  5
4C8
100
AcDbEntity
  8
化粧台
  6
CONTINUOUS
 62
     6
100
AcDbCircle
 10
2381.479506
 20
1512.062513
 30
0.0
 40
297.0
100
AcDbArc
 50
93.0
 51
93.004
  0
LINE
  5
4C9
100
AcDbEntity
  8
化粧台
  6
CONTINUOUS
 62
     6
100
AcDbLine
 10
2368.377585
 20
1761.679903
 30
0.0
 11
2392.89394
 21
1762.964751
 31
0.0
  0
LINE
  5
4CA
100
AcDbEntity
  8
化粧台
  6
CONTINUOUS
 62
     6
100
AcDbLine
 10
2368.377585
 20
1761.679903
 30
0.0
 11
2343.86123
 21
1760.395056
 31
0.0
  0
LINE
  5
4CB
100
AcDbEntity
  8
化粧台
  6
CONTINUOUS
 62
     6
100
AcDbLine
 10
2342.270647
 20
1800.451707
 30
0.0
 11
2342.809275
 21
1761.379349
 31
0.0
  0
ARC
  5
4CC
100
AcDbEntity
  8
化粧台
  6
CONTINUOUS
 62
     6
100
AcDbCircle
 10
2352.269155
 20
1800.589177
 30
0.0
 40
10.0
100
AcDbArc
 50
95.773
 51
180.79
  0
ARC
  5
4CD
100
AcDbEntity
  8
化粧台
  6
CONTINUOUS
 62
     6
100
AcDbCircle
 10
2343.808894
 20
1761.393685
 30
0.0
 40
1.0
100
AcDbArc
 50
180.79
 51
273.0
  0
ARC
  5
4CE
100
AcDbEntity
  8
化粧台
  6
CONTINUOUS
 62
     6
100
AcDbCircle
 10
2381.438562
 20
1512.060367
 30
0.0
 40
300.0
100
AcDbArc
 50
94.624
 51
95.773
  0
LINE
  5
4CF
100
AcDbEntity
  8
化粧台
  6
CONTINUOUS
 62
     6
100
AcDbLine
 10
2365.765027
 20
1811.530491
 30
0.0
 11
2357.276676
 21
1811.085635
 31
0.0
  0
LINE
  5
4D0
100
AcDbEntity
  8
化粧台
  6
CONTINUOUS
 62
     6
100
AcDbLine
 10
2357.276676
 20
1811.085635
 30
0.0
 11
2357.232242
 21
1811.933472
 31
0.0
  0
ARC
  5
4D1
100
AcDbEntity
  8
化粧台
  6
CONTINUOUS
 62
     6
100
AcDbCircle
 10
2368.277153
 20
1763.596273
 30
0.0
 40
50.0
100
AcDbArc
 50
93.0
 51
102.302
  0
ARC
  5
4D2
100
AcDbEntity
  8
化粧台
  6
CONTINUOUS
 62
     6
100
AcDbCircle
 10
2357.731557
 20
1811.95964
 30
0.0
 40
0.5
100
AcDbArc
 50
102.302
 51
183.002
  0
ARC
  5
4D3
100
AcDbEntity
  8
化粧台
  6
CONTINUOUS
 62
     6
100
AcDbCircle
 10
2373.70963
 20
1812.797015
 30
0.0
 40
0.5
100
AcDbArc
 50
3.0
 51
83.699
  0
ARC
  5
4D4
100
AcDbEntity
  8
化粧台
  6
CONTINUOUS
 62
     6
100
AcDbCircle
 10
2368.277153
 20
1763.596273
 30
0.0
 40
50.0
100
AcDbArc
 50
83.699
 51
93.0
  0
LINE
  5
4D5
100
AcDbEntity
  8
化粧台
  6
CONTINUOUS
 62
     6
100
AcDbLine
 10
2374.253378
 20
1811.975347
 30
0.0
 11
2374.208945
 21
1812.823183
 31
0.0
  0
LINE
  5
4D6
100
AcDbEntity
  8
化粧台
  6
CONTINUOUS
 62
     6
100
AcDbLine
 10
2365.765027
 20
1811.530491
 30
0.0
 11
2374.253378
 21
1811.975347
 31
0.0
  0
LINE
  5
4D7
100
AcDbEntity
  8
化粧台
  6
CONTINUOUS
 62
     6
100
AcDbLine
 10
2253.166099
 20
1780.760349
 30
0.0
 11
2254.513334
 21
1787.096541
 31
0.0
  0
ARC
  5
4D8
100
AcDbEntity
  8
化粧台
  6
CONTINUOUS
 62
     6
100
AcDbCircle
 10
2254.14433
 20
1780.552261
 30
0.0
 40
1.0
100
AcDbArc
 50
168.0
 51
264.432
  0
ARC
  5
4D9
100
AcDbEntity
  8
化粧台
  6
CONTINUOUS
 62
     6
100
AcDbCircle
 10
2236.583374
 20
1600.406307
 30
0.0
 40
180.0
100
AcDbArc
 50
73.965
 51
84.432
  0
ARC
  5
4DA
100
AcDbEntity
  8
化粧台
  6
CONTINUOUS
 62
     6
100
AcDbCircle
 10
2261.462434
 20
1771.704134
 30
0.0
 40
1.0
100
AcDbArc
 50
168.0
 51
258.0
  0
LINE
  5
4DB
100
AcDbEntity
  8
化粧台
  6
CONTINUOUS
 62
     6
100
AcDbLine
 10
2261.254346
 20
1770.725903
 30
0.0
 11
2271.035554
 21
1768.646963
 31
0.0
  0
ARC
  5
4DC
100
AcDbEntity
  8
化粧台
  6
CONTINUOUS
 62
     6
100
AcDbCircle
 10
2281.02485
 20
1767.546254
 30
0.0
 40
1.0
100
AcDbArc
 50
258.0
 51
348.0
  0
LINE
  5
4DD
100
AcDbEntity
  8
化粧台
  6
CONTINUOUS
 62
     6
100
AcDbLine
 10
2280.816762
 20
1766.568023
 30
0.0
 11
2271.035554
 21
1768.646963
 31
0.0
  0
LINE
  5
4DE
100
AcDbEntity
  8
化粧台
  6
CONTINUOUS
 62
     6
100
AcDbLine
 10
2283.460229
 20
1774.194823
 30
0.0
 11
2282.003082
 21
1767.338165
 31
0.0
  0
LINE
  5
4DF
100
AcDbEntity
  8
化粧台
  6
CONTINUOUS
 62
     6
100
AcDbLine
 10
2261.909308
 20
1778.615994
 30
0.0
 11
2260.484203
 21
1771.912223
 31
0.0
  0
LINE
  5
4E0
100
AcDbEntity
  8
化粧台
  6
CONTINUOUS
 62
     6
100
AcDbLine
 10
2275.9729
 20
1799.360456
 30
0.0
 11
2274.603765
 21
1799.460938
 31
0.0
  0
LINE
  5
4E1
100
AcDbEntity
  8
化粧台
  6
CONTINUOUS
 62
     6
100
AcDbLine
 10
2274.603765
 20
1799.460938
 30
0.0
 11
2273.321537
 21
1799.450818
 31
0.0
  0
LINE
  5
4E2
100
AcDbEntity
  8
化粧台
  6
CONTINUOUS
 62
     6
100
AcDbLine
 10
2273.321537
 20
1799.450818
 30
0.0
 11
2272.130534
 21
1799.362364
 31
0.0
  0
LINE
  5
4E3
100
AcDbEntity
  8
化粧台
  6
CONTINUOUS
 62
     6
100
AcDbLine
 10
2272.130534
 20
1799.362364
 30
0.0
 11
2271.02561
 21
1799.217338
 31
0.0
  0
LINE
  5
4E4
100
AcDbEntity
  8
化粧台
  6
CONTINUOUS
 62
     6
100
AcDbLine
 10
2271.02561
 20
1799.217338
 30
0.0
 11
2269.997991
 21
1799.030301
 31
0.0
  0
LINE
  5
4E5
100
AcDbEntity
  8
化粧台
  6
CONTINUOUS
 62
     6
100
AcDbLine
 10
2269.997991
 20
1799.030301
 30
0.0
 11
2269.035117
 21
1798.811608
 31
0.0
  0
LINE
  5
4E6
100
AcDbEntity
  8
化粧台
  6
CONTINUOUS
 62
     6
100
AcDbLine
 10
2269.035117
 20
1798.811608
 30
0.0
 11
2268.127634
 21
1798.56778
 31
0.0
  0
LINE
  5
4E7
100
AcDbEntity
  8
化粧台
  6
CONTINUOUS
 62
     6
100
AcDbLine
 10
2268.127634
 20
1798.56778
 30
0.0
 11
2267.263454
 21
1798.300185
 31
0.0
  0
LINE
  5
4E8
100
AcDbEntity
  8
化粧台
  6
CONTINUOUS
 62
     6
100
AcDbLine
 10
2267.263454
 20
1798.300185
 30
0.0
 11
2266.432435
 21
1798.011297
 31
0.0
  0
LINE
  5
4E9
100
AcDbEntity
  8
化粧台
  6
CONTINUOUS
 62
     6
100
AcDbLine
 10
2266.432435
 20
1798.011297
 30
0.0
 11
2265.624641
 21
1797.699593
 31
0.0
  0
LINE
  5
4EA
100
AcDbEntity
  8
化粧台
  6
CONTINUOUS
 62
     6
100
AcDbLine
 10
2265.624641
 20
1797.699593
 30
0.0
 11
2264.832189
 21
1797.362658
 31
0.0
  0
LINE
  5
4EB
100
AcDbEntity
  8
化粧台
  6
CONTINUOUS
 62
     6
100
AcDbLine
 10
2264.832189
 20
1797.362658
 30
0.0
 11
2264.047194
 21
1796.998075
 31
0.0
  0
LINE
  5
4EC
100
AcDbEntity
  8
化粧台
  6
CONTINUOUS
 62
     6
100
AcDbLine
 10
2264.047194
 20
1796.998075
 30
0.0
 11
2263.261876
 21
1796.601431
 31
0.0
  0
LINE
  5
4ED
100
AcDbEntity
  8
化粧台
  6
CONTINUOUS
 62
     6
100
AcDbLine
 10
2263.261876
 20
1796.601431
 30
0.0
 11
2262.468666
 21
1796.164318
 31
0.0
  0
LINE
  5
4EE
100
AcDbEntity
  8
化粧台
  6
CONTINUOUS
 62
     6
100
AcDbLine
 10
2262.468666
 20
1796.164318
 30
0.0
 11
2261.662831
 21
1795.681483
 31
0.0
  0
LINE
  5
4EF
100
AcDbEntity
  8
化粧台
  6
CONTINUOUS
 62
     6
100
AcDbLine
 10
2261.662831
 20
1795.681483
 30
0.0
 11
2260.837011
 21
1795.140521
 31
0.0
  0
LINE
  5
4F0
100
AcDbEntity
  8
化粧台
  6
CONTINUOUS
 62
     6
100
AcDbLine
 10
2260.837011
 20
1795.140521
 30
0.0
 11
2259.988786
 21
1794.530292
 31
0.0
  0
LINE
  5
4F1
100
AcDbEntity
  8
化粧台
  6
CONTINUOUS
 62
     6
100
AcDbLine
 10
2259.988786
 20
1794.530292
 30
0.0
 11
2259.11689
 21
1793.83671
 31
0.0
  0
LINE
  5
4F2
100
AcDbEntity
  8
化粧台
  6
CONTINUOUS
 62
     6
100
AcDbLine
 10
2259.11689
 20
1793.83671
 30
0.0
 11
2258.225367
 21
1793.039959
 31
0.0
  0
LINE
  5
4F3
100
AcDbEntity
  8
化粧台
  6
CONTINUOUS
 62
     6
100
AcDbLine
 10
2258.225367
 20
1793.039959
 30
0.0
 11
2257.32709
 21
1792.123692
 31
0.0
  0
LINE
  5
4F4
100
AcDbEntity
  8
化粧台
  6
CONTINUOUS
 62
     6
100
AcDbLine
 10
2257.32709
 20
1792.123692
 30
0.0
 11
2256.448123
 21
1791.068244
 31
0.0
  0
LINE
  5
4F5
100
AcDbEntity
  8
化粧台
  6
CONTINUOUS
 62
     6
100
AcDbLine
 10
2256.448123
 20
1791.068244
 30
0.0
 11
2255.635084
 21
1789.863041
 31
0.0
  0
LINE
  5
4F6
100
AcDbEntity
  8
化粧台
  6
CONTINUOUS
 62
     6
100
AcDbLine
 10
2255.635084
 20
1789.863041
 30
0.0
 11
2254.956983
 21
1788.509697
 31
0.0
  0
LINE
  5
4F7
100
AcDbEntity
  8
化粧台
  6
CONTINUOUS
 62
     6
100
AcDbLine
 10
2254.956983
 20
1788.509697
 30
0.0
 11
2254.50733
 21
1787.039149
 31
0.0
  0
LINE
  5
4F8
100
AcDbEntity
  8
化粧台
  6
CONTINUOUS
 62
     6
100
AcDbLine
 10
2254.50733
 20
1787.039149
 30
0.0
 11
2254.503279
 21
1787.020912
 31
0.0
  0
ARC
  5
4F9
100
AcDbEntity
  8
化粧台
  6
CONTINUOUS
 62
     2
100
AcDbCircle
 10
905.0
 20
3763.0
 30
0.0
 40
22.6
100
AcDbArc
 50
122.189684
 51
57.810316
  0
ARC
  5
4FA
100
AcDbEntity
  8
化粧台
  6
CONTINUOUS
 62
     2
100
AcDbCircle
 10
905.0
 20
3763.0
 30
0.0
 40
32.3
100
AcDbArc
 50
121.61381
 51
58.38619
  0
ARC
  5
4FB
100
AcDbEntity
  8
化粧台
  6
CONTINUOUS
 62
     2
100
AcDbCircle
 10
905.0
 20
6603.0
 30
0.0
 40
2755.0
100
AcDbArc
 50
263.354131
 51
269.577137
  0
ARC
  5
4FC
100
AcDbEntity
  8
化粧台
  6
CONTINUOUS
 62
     2
100
AcDbCircle
 10
905.0
 20
6603.0
 30
0.0
 40
2755.0
100
AcDbArc
 50
270.422863
 51
276.645869
  0
ARC
  5
4FD
100
AcDbEntity
  8
化粧台
  6
CONTINUOUS
 62
     6
100
AcDbCircle
 10
905.0
 20
5319.931461
 30
0.0
 40
1497.931461
100
AcDbArc
 50
270.729607
 51
282.335044
  0
ARC
  5
4FE
100
AcDbEntity
  8
化粧台
  6
CONTINUOUS
 62
     6
100
AcDbCircle
 10
905.0
 20
5319.931461
 30
0.0
 40
1497.931461
100
AcDbArc
 50
257.664956
 51
269.270393
  0
LINE
  5
4FF
100
AcDbEntity
  8
化粧台
  6
CONTINUOUS
 62
     2
100
AcDbLine
 10
535.0
 20
1743.5
 30
0.0
 11
834.0
 21
1743.5
 31
0.0
  0
LINE
  5
500
100
AcDbEntity
  8
化粧台
  6
CONTINUOUS
 62
     2
100
AcDbLine
 10
834.0
 20
1733.5
 30
0.0
 11
535.240115
 21
1733.5
 31
0.0
  0
LINE
  5
501
100
AcDbEntity
  8
化粧台
  6
CONTINUOUS
 62
     2
100
AcDbLine
 10
1274.759885
 20
1733.5
 30
0.0
 11
976.0
 21
1733.5
 31
0.0
  0
LINE
  5
502
100
AcDbEntity
  8
化粧台
  6
CONTINUOUS
 62
     2
100
AcDbLine
 10
976.0
 20
1743.5
 30
0.0
 11
1275.0
 21
1743.5
 31
0.0
  0
LINE
  5
503
100
AcDbEntity
  8
化粧台
  6
EXLTYPE3
 62
     6
100
AcDbLine
 10
905.0
 20
1819.412388
 30
0.0
 11
905.0
 21
903.5
 31
0.0
  0
ARC
  5
504
100
AcDbEntity
  8
化粧台
  6
CONTINUOUS
 62
     6
100
AcDbCircle
 10
2258.680658
 20
1677.294162
 30
0.0
 40
100.0
100
AcDbArc
 50
34.198268
 51
73.965
  0
LINE
  5
505
100
AcDbEntity
  8
化粧台
  6
CONTINUOUS
 62
     6
100
AcDbLine
 10
2343.838778
 20
1733.5
 30
0.0
 11
2343.15663
 21
1746.516159
 31
0.0
  0
LINE
  5
506
100
AcDbEntity
  8
化粧台
  6
CONTINUOUS
 62
     6
100
AcDbLine
 10
2396.682198
 20
1733.5
 30
0.0
 11
2395.855309
 21
1749.27798
 31
0.0
  0
ARC
  5
507
100
AcDbEntity
  8
鏡台
  6
CONTINUOUS
 62
     6
100
AcDbCircle
 10
905.0
 20
26075.773552
 30
0.0
 40
23335.207073
100
AcDbArc
 50
269.091488
 51
270.908512
  0
LINE
  5
508
100
AcDbEntity
  8
鏡台
  6
CONTINUOUS
 62
     6
100
AcDbLine
 10
1250.0
 20
1873.5
 30
0.0
 11
1323.076697
 21
1873.5
 31
0.0
  0
LINE
  5
509
100
AcDbEntity
  8
鏡台
  6
CONTINUOUS
 62
     6
100
AcDbLine
 10
640.0
 20
1808.5
 30
0.0
 11
580.0
 21
1808.5
 31
0.0
  0
LINE
  5
50A
100
AcDbEntity
  8
鏡台
  6
CONTINUOUS
 62
     6
100
AcDbLine
 10
610.0
 20
1838.5
 30
0.0
 11
610.0
 21
1778.5
 31
0.0
  0
LINE
  5
50B
100
AcDbEntity
  8
鏡台
  6
CONTINUOUS
 62
     6
100
AcDbLine
 10
1230.0
 20
1808.5
 30
0.0
 11
1170.0
 21
1808.5
 31
0.0
  0
LINE
  5
50C
100
AcDbEntity
  8
鏡台
  6
CONTINUOUS
 62
     6
100
AcDbLine
 10
1200.0
 20
1838.5
 30
0.0
 11
1200.0
 21
1778.5
 31
0.0
  0
LINE
  5
50D
100
AcDbEntity
  8
鏡台
  6
CONTINUOUS
 62
     6
100
AcDbLine
 10
1230.0
 20
2663.5
 30
0.0
 11
1170.0
 21
2663.5
 31
0.0
  0
LINE
  5
50E
100
AcDbEntity
  8
鏡台
  6
CONTINUOUS
 62
     6
100
AcDbLine
 10
1200.0
 20
2693.5
 30
0.0
 11
1200.0
 21
2633.5
 31
0.0
  0
LINE
  5
50F
100
AcDbEntity
  8
鏡台
  6
CONTINUOUS
 62
     6
100
AcDbLine
 10
640.0
 20
2663.5
 30
0.0
 11
580.0
 21
2663.5
 31
0.0
  0
LINE
  5
510
100
AcDbEntity
  8
鏡台
  6
CONTINUOUS
 62
     6
100
AcDbLine
 10
610.0
 20
2693.5
 30
0.0
 11
610.0
 21
2633.5
 31
0.0
  0
LINE
  5
511
100
AcDbEntity
  8
鏡台
  6
CONTINUOUS
 62
     6
100
AcDbLine
 10
831.833009
 20
2585.333009
 30
0.0
 11
778.8
 21
2532.3
 31
0.0
  0
LINE
  5
512
100
AcDbEntity
  8
鏡台
  6
CONTINUOUS
 62
     6
100
AcDbLine
 10
809.193146
 20
2574.006854
 30
0.0
 11
790.243146
 21
2555.056854
 31
0.0
  0
LINE
  5
513
100
AcDbEntity
  8
鏡台
  6
CONTINUOUS
 62
     6
100
AcDbLine
 10
825.706854
 20
2567.893146
 30
0.0
 11
796.006854
 21
2538.193146
 31
0.0
  0
LINE
  5
514
100
AcDbEntity
  8
鏡台
  6
CONTINUOUS
 62
     6
100
AcDbLine
 10
866.833009
 20
2245.333009
 30
0.0
 11
813.8
 21
2192.3
 31
0.0
  0
LINE
  5
515
100
AcDbEntity
  8
鏡台
  6
CONTINUOUS
 62
     6
100
AcDbLine
 10
844.193146
 20
2234.006854
 30
0.0
 11
825.243146
 21
2215.056854
 31
0.0
  0
LINE
  5
516
100
AcDbEntity
  8
鏡台
  6
CONTINUOUS
 62
     6
100
AcDbLine
 10
860.706854
 20
2227.893146
 30
0.0
 11
831.006854
 21
2198.193146
 31
0.0
  0
LINE
  5
517
100
AcDbEntity
  8
鏡台
  6
CONTINUOUS
 62
     6
100
AcDbLine
 10
1022.833009
 20
2434.333009
 30
0.0
 11
969.8
 21
2381.3
 31
0.0
  0
LINE
  5
518
100
AcDbEntity
  8
鏡台
  6
CONTINUOUS
 62
     6
100
AcDbLine
 10
1000.193146
 20
2423.006854
 30
0.0
 11
981.243146
 21
2404.056854
 31
0.0
  0
LINE
  5
519
100
AcDbEntity
  8
鏡台
  6
CONTINUOUS
 62
     6
100
AcDbLine
 10
1016.706854
 20
2416.893146
 30
0.0
 11
987.006854
 21
2387.193146
 31
0.0
  0
ARC
  5
51A
100
AcDbEntity
  8
鏡台
  6
CONTINUOUS
 62
     6
100
AcDbCircle
 10
1109.05
 20
2318.5
 30
0.0
 40
5.0
100
AcDbArc
 50
90.0
 51
180.0
  0
LINE
  5
51B
100
AcDbEntity
  8
鏡台
  6
CONTINUOUS
 62
     6
100
AcDbLine
 10
1104.05
 20
2318.5
 30
0.0
 11
1104.05
 21
2283.5
 31
0.0
  0
ARC
  5
51C
100
AcDbEntity
  8
鏡台
  6
CONTINUOUS
 62
     6
100
AcDbCircle
 10
1109.05
 20
2283.5
 30
0.0
 40
5.0
100
AcDbArc
 50
180.0
 51
270.0
  0
ARC
  5
51D
100
AcDbEntity
  8
鏡台
  6
CONTINUOUS
 62
     6
100
AcDbCircle
 10
1244.95
 20
2283.5
 30
0.0
 40
5.0
100
AcDbArc
 50
270.0
 51
0.0
  0
LINE
  5
51E
100
AcDbEntity
  8
鏡台
  6
CONTINUOUS
 62
     6
100
AcDbLine
 10
1249.95
 20
2283.5
 30
0.0
 11
1249.95
 21
2318.5
 31
0.0
  0
ARC
  5
51F
100
AcDbEntity
  8
鏡台
  6
CONTINUOUS
 62
     6
100
AcDbCircle
 10
1244.95
 20
2318.5
 30
0.0
 40
5.0
100
AcDbArc
 50
0.0
 51
90.0
  0
LINE
  5
520
100
AcDbEntity
  8
鏡台
  6
CONTINUOUS
 62
     6
100
AcDbLine
 10
1214.249783
 20
2307.359087
 30
0.0
 11
1214.249783
 21
2284.359087
 31
0.0
  0
LINE
  5
521
100
AcDbEntity
  8
鏡台
  6
CONTINUOUS
 62
     6
100
AcDbLine
 10
1214.249783
 20
2284.359087
 30
0.0
 11
1186.249783
 21
2284.359087
 31
0.0
  0
LINE
  5
522
100
AcDbEntity
  8
鏡台
  6
CONTINUOUS
 62
     6
100
AcDbLine
 10
1186.249783
 20
2307.359087
 30
0.0
 11
1186.249783
 21
2284.359087
 31
0.0
  0
LINE
  5
523
100
AcDbEntity
  8
鏡台
  6
CONTINUOUS
 62
     6
100
AcDbLine
 10
1214.249783
 20
2307.359087
 30
0.0
 11
1186.249783
 21
2307.359087
 31
0.0
  0
LINE
  5
524
100
AcDbEntity
  8
鏡台
  6
CONTINUOUS
 62
     6
100
AcDbLine
 10
1168.249783
 20
2307.359087
 30
0.0
 11
1140.249783
 21
2307.359087
 31
0.0
  0
LINE
  5
525
100
AcDbEntity
  8
鏡台
  6
CONTINUOUS
 62
     6
100
AcDbLine
 10
1140.249783
 20
2307.359087
 30
0.0
 11
1140.249783
 21
2284.359087
 31
0.0
  0
LINE
  5
526
100
AcDbEntity
  8
鏡台
  6
CONTINUOUS
 62
     6
100
AcDbLine
 10
1168.249783
 20
2284.359087
 30
0.0
 11
1140.249783
 21
2284.359087
 31
0.0
  0
LINE
  5
527
100
AcDbEntity
  8
鏡台
  6
CONTINUOUS
 62
     6
100
AcDbLine
 10
1168.249783
 20
2307.359087
 30
0.0
 11
1168.249783
 21
2284.359087
 31
0.0
  0
LINE
  5
528
100
AcDbEntity
  8
鏡台
  6
CONTINUOUS
 62
     6
100
AcDbLine
 10
1193.249783
 20
2299.859087
 30
0.0
 11
1193.249783
 21
2291.859087
 31
0.0
  0
LINE
  5
529
100
AcDbEntity
  8
鏡台
  6
CONTINUOUS
 62
     6
100
AcDbLine
 10
1207.249783
 20
2300.359087
 30
0.0
 11
1207.249783
 21
2291.359087
 31
0.0
  0
LINE
  5
52A
100
AcDbEntity
  8
鏡台
  6
CONTINUOUS
 62
     6
100
AcDbLine
 10
1162.749783
 20
2300.359087
 30
0.0
 11
1162.749783
 21
2291.359087
 31
0.0
  0
LINE
  5
52B
100
AcDbEntity
  8
鏡台
  6
CONTINUOUS
 62
     6
100
AcDbLine
 10
1112.249783
 20
2313.359087
 30
0.0
 11
1112.249783
 21
2278.672015
 31
0.0
  0
LINE
  5
52C
100
AcDbEntity
  8
鏡台
  6
CONTINUOUS
 62
     6
100
AcDbLine
 10
1242.249783
 20
2313.359087
 30
0.0
 11
1242.249783
 21
2278.835155
 31
0.0
  0
LINE
  5
52D
100
AcDbEntity
  8
鏡台
  6
CONTINUOUS
 62
     6
100
AcDbLine
 10
1112.249783
 20
2313.359087
 30
0.0
 11
1242.249783
 21
2313.359087
 31
0.0
  0
LINE
  5
52E
100
AcDbEntity
  8
鏡台
  6
CONTINUOUS
 62
     6
100
AcDbLine
 10
1335.607802
 20
1758.912733
 30
0.0
 11
1324.982689
 21
1756.065732
 31
0.0
  0
LINE
  5
52F
100
AcDbEntity
  8
鏡台
  6
CONTINUOUS
 62
     6
100
AcDbLine
 10
1331.854862
 20
1772.918608
 30
0.0
 11
1318.004666
 21
1768.585072
 31
0.0
  0
LINE
  5
530
100
AcDbEntity
  8
鏡台
  6
CONTINUOUS
 62
     6
100
AcDbLine
 10
1326.052539
 20
1776.022674
 30
0.0
 11
1316.99753
 21
1773.596338
 31
0.0
  0
LINE
  5
531
100
AcDbEntity
  8
鏡台
  6
CONTINUOUS
 62
     6
100
AcDbLine
 10
1318.004666
 20
1768.585072
 30
0.0
 11
1313.529978
 21
1790.850197
 31
0.0
  0
LINE
  5
532
100
AcDbEntity
  8
鏡台
  6
CONTINUOUS
 62
     6
100
AcDbLine
 10
1320.407174
 20
1792.694229
 30
0.0
 11
1326.614596
 21
1774.362756
 31
0.0
  0
LINE
  5
533
100
AcDbEntity
  8
鏡台
  6
CONTINUOUS
 62
     6
100
AcDbLine
 10
1350.674427
 20
1764.502698
 30
0.0
 11
1335.219542
 21
1760.361631
 31
0.0
  0
LINE
  5
534
100
AcDbEntity
  8
鏡台
  6
CONTINUOUS
 62
     6
100
AcDbLine
 10
1348.344994
 20
1773.196077
 30
0.0
 11
1332.89023
 21
1769.055
 31
0.0
  0
LINE
  5
535
100
AcDbEntity
  8
鏡台
  6
CONTINUOUS
 62
     6
100
AcDbLine
 10
1324.982568
 20
1756.065743
 30
0.0
 11
1321.876849
 21
1767.656776
 31
0.0
  0
LINE
  5
536
100
AcDbEntity
  8
鏡台
  6
CONTINUOUS
 62
     6
100
AcDbLine
 10
1332.501972
 20
1770.503899
 30
0.0
 11
1321.876849
 21
1767.656776
 31
0.0
  0
LINE
  5
537
100
AcDbEntity
  8
鏡台
  6
CONTINUOUS
 62
     6
100
AcDbLine
 10
1331.854862
 20
1772.918608
 30
0.0
 11
1330.328637
 21
1772.454647
 31
0.0
  0
LINE
  5
538
100
AcDbEntity
  8
鏡台
  6
CONTINUOUS
 62
     6
100
AcDbLine
 10
1336.384198
 20
1756.014947
 30
0.0
 11
1322.554394
 21
1753.280077
 31
0.0
  0
LINE
  5
539
100
AcDbEntity
  8
鏡台
  6
CONTINUOUS
 62
     6
100
AcDbLine
 10
1331.854862
 20
1772.918608
 30
0.0
 11
1336.384198
 21
1756.014947
 31
0.0
  0
LINE
  5
53A
100
AcDbEntity
  8
鏡台
  6
CONTINUOUS
 62
     6
100
AcDbLine
 10
1317.745785
 20
1767.619096
 30
0.0
 11
1321.394412
 21
1754.00221
 31
0.0
  0
LINE
  5
53B
100
AcDbEntity
  8
鏡台
  6
CONTINUOUS
 62
     6
100
AcDbLine
 10
1319.201124
 20
1793.339395
 30
0.0
 11
1314.251516
 21
1792.013172
 31
0.0
  0
ARC
  5
53C
100
AcDbEntity
  8
鏡台
  6
CONTINUOUS
 62
     6
100
AcDbCircle
 10
1461.656677
 20
1818.665039
 30
0.0
 40
150.0
100
AcDbArc
 50
184.010986
 51
190.263581
  0
ARC
  5
53D
100
AcDbEntity
  8
鏡台
  6
CONTINUOUS
 62
     6
100
AcDbCircle
 10
1467.149475
 20
1818.383301
 30
0.0
 40
150.0
100
AcDbArc
 50
184.385864
 51
189.606282
  0
ARC
  5
53E
100
AcDbEntity
  8
鏡台
  6
CONTINUOUS
 62
     6
100
AcDbCircle
 10
1329.456095
 20
1775.324941
 30
0.0
 40
3.0
100
AcDbArc
 50
198.707275
 51
286.909241
  0
ARC
  5
53F
100
AcDbEntity
  8
鏡台
  6
CONTINUOUS
 62
     6
100
AcDbCircle
 10
1314.510355
 20
1791.047239
 30
0.0
 40
1.0
100
AcDbArc
 50
105.000061
 51
191.363464
  0
ARC
  5
540
100
AcDbEntity
  8
鏡台
  6
CONTINUOUS
 62
     6
100
AcDbCircle
 10
1319.459963
 20
1792.373463
 30
0.0
 40
1.0
100
AcDbArc
 50
18.707275
 51
105.0
  0
ARC
  5
541
100
AcDbEntity
  8
鏡台
  6
CONTINUOUS
 62
     6
100
AcDbCircle
 10
1340.883657
 20
1766.538081
 30
0.0
 40
10.0
100
AcDbArc
 50
348.256348
 51
41.743622
  0
ARC
  5
542
100
AcDbEntity
  8
鏡台
  6
CONTINUOUS
 62
     6
100
AcDbCircle
 10
1322.360344
 20
1754.261049
 30
0.0
 40
1.0
100
AcDbArc
 50
195.0
 51
281.186218
  0
ARC
  5
543
100
AcDbEntity
  8
鏡台
  6
CONTINUOUS
 62
     6
100
AcDbCircle
 10
1318.711717
 20
1767.877935
 30
0.0
 40
1.0
100
AcDbArc
 50
106.909119
 51
195.0
  0
ARC
  5
544
100
AcDbEntity
  8
鏡台
  6
CONTINUOUS
 62
     6
100
AcDbCircle
 10
1191.748657
 20
1806.689941
 30
0.0
 40
120.0
100
AcDbArc
 50
4.590393
 51
27.576874
  0
ARC
  5
545
100
AcDbEntity
  8
鏡台
  6
CONTINUOUS
 62
     6
100
AcDbCircle
 10
1197.644653
 20
1807.916992
 30
0.0
 40
120.0
100
AcDbArc
 50
3.349121
 51
29.221863
  0
ARC
  5
546
100
AcDbEntity
  8
鏡台
  6
CONTINUOUS
 62
     6
100
AcDbCircle
 10
1280.0
 20
1846.5
 30
0.0
 40
30.0
100
AcDbArc
 50
41.793671
 51
90.0
  0
ARC
  5
547
100
AcDbEntity
  8
鏡台
  6
CONTINUOUS
 62
     6
100
AcDbCircle
 10
1329.456095
 20
1775.324941
 30
0.0
 40
3.0
100
AcDbArc
 50
198.707275
 51
286.909241
  0
ARC
  5
548
100
AcDbEntity
  8
鏡台
  6
CONTINUOUS
 62
     6
100
AcDbCircle
 10
1314.510355
 20
1791.047239
 30
0.0
 40
1.0
100
AcDbArc
 50
105.000061
 51
191.363464
  0
ARC
  5
549
100
AcDbEntity
  8
鏡台
  6
CONTINUOUS
 62
     6
100
AcDbCircle
 10
1319.459963
 20
1792.373463
 30
0.0
 40
1.0
100
AcDbArc
 50
18.707275
 51
105.0
  0
ARC
  5
54A
100
AcDbEntity
  8
鏡台
  6
CONTINUOUS
 62
     6
100
AcDbCircle
 10
1340.883657
 20
1766.538081
 30
0.0
 40
10.0
100
AcDbArc
 50
348.256348
 51
41.743622
  0
ARC
  5
54B
100
AcDbEntity
  8
鏡台
  6
CONTINUOUS
 62
     6
100
AcDbCircle
 10
1322.360344
 20
1754.261049
 30
0.0
 40
1.0
100
AcDbArc
 50
195.0
 51
281.186218
  0
ARC
  5
54C
100
AcDbEntity
  8
鏡台
  6
CONTINUOUS
 62
     6
100
AcDbCircle
 10
1318.711717
 20
1767.877935
 30
0.0
 40
1.0
100
AcDbArc
 50
106.909119
 51
195.0
  0
ARC
  5
54D
100
AcDbEntity
  8
鏡台
  6
CONTINUOUS
 62
     6
100
AcDbCircle
 10
1280.0
 20
1846.5
 30
0.0
 40
24.0
100
AcDbArc
 50
40.990967
 51
90.0
  0
ARC
  5
54E
100
AcDbEntity
  8
鏡台
  6
CONTINUOUS
 62
     6
100
AcDbCircle
 10
1308.627808
 20
1799.515259
 30
0.0
 40
17.00025
100
AcDbArc
 50
71.928894
 51
128.072876
  0
ARC
  5
54F
100
AcDbEntity
  8
鏡台
  6
CONTINUOUS
 62
     6
100
AcDbCircle
 10
1319.174561
 20
1831.838562
 30
0.0
 40
17.000208
100
AcDbArc
 50
251.928955
 51
280.001038
  0
ARC
  5
550
100
AcDbEntity
  8
鏡台
  6
CONTINUOUS
 62
     6
100
AcDbCircle
 10
1319.174683
 20
1831.838379
 30
0.0
 40
17.000029
100
AcDbArc
 50
280.001038
 51
308.073608
  0
ARC
  5
551
100
AcDbEntity
  8
鏡台
  6
CONTINUOUS
 62
     6
100
AcDbCircle
 10
1308.627808
 20
1791.515259
 30
0.0
 40
17.00025
100
AcDbArc
 50
71.928894
 51
128.072876
  0
ARC
  5
552
100
AcDbEntity
  8
鏡台
  6
CONTINUOUS
 62
     6
100
AcDbCircle
 10
1319.174561
 20
1823.838562
 30
0.0
 40
17.000208
100
AcDbArc
 50
251.928955
 51
280.001038
  0
ARC
  5
553
100
AcDbEntity
  8
鏡台
  6
CONTINUOUS
 62
     6
100
AcDbCircle
 10
1319.174683
 20
1823.838379
 30
0.0
 40
17.000029
100
AcDbArc
 50
280.001038
 51
308.073608
  0
ARC
  5
554
100
AcDbEntity
  8
鏡台
  6
CONTINUOUS
 62
     2
100
AcDbCircle
 10
905.0
 20
-977.7
 30
0.0
 40
3704.2
100
AcDbArc
 50
84.7544
 51
95.2456
  0
ARC
  5
555
100
AcDbEntity
  8
鏡台
  6
CONTINUOUS
 62
     2
100
AcDbCircle
 10
570.0
 20
2671.154154
 30
0.0
 40
40.0
100
AcDbArc
 50
95.2456
 51
180.0
  0
ARC
  5
556
100
AcDbEntity
  8
鏡台
  6
CONTINUOUS
 62
     2
100
AcDbCircle
 10
1240.0
 20
2671.154154
 30
0.0
 40
40.0
100
AcDbArc
 50
0.0
 51
84.7544
  0
ARC
  5
557
100
AcDbEntity
  8
鏡台
  6
CONTINUOUS
 62
     2
100
AcDbCircle
 10
610.0
 20
2663.5
 30
0.0
 40
8.5
100
AcDbArc
 50
40.009292
 51
255.038643
  0
ARC
  5
558
100
AcDbEntity
  8
鏡台
  6
CONTINUOUS
 62
     2
100
AcDbCircle
 10
1200.0
 20
2663.5
 30
0.0
 40
8.5
100
AcDbArc
 50
284.961357
 51
139.990708
  0
CIRCLE
  5
559
100
AcDbEntity
  8
鏡台
  6
CONTINUOUS
 62
     2
100
AcDbCircle
 10
1160.499783
 20
2638.746587
 30
0.0
 40
45.0
  0
CIRCLE
  5
55A
100
AcDbEntity
  8
鏡台
  6
CONTINUOUS
 62
     2
100
AcDbCircle
 10
649.499783
 20
2638.359087
 30
0.0
 40
45.0
  0
LINE
  5
55B
100
AcDbEntity
  8
鏡台
  6
CONTINUOUS
 62
     2
100
AcDbLine
 10
1075.5
 20
2278.5
 30
0.0
 11
1280.0
 21
2278.5
 31
0.0
  0
LINE
  5
55C
100
AcDbEntity
  8
鏡台
  6
CONTINUOUS
 62
     2
100
AcDbLine
 10
725.0
 20
2593.5
 30
0.0
 11
541.222266
 21
2593.5
 31
0.0
  0
LINE
  5
55D
100
AcDbEntity
  8
鏡台
  6
CONTINUOUS
 62
     2
100
AcDbLine
 10
725.0
 20
2373.359087
 30
0.0
 11
725.0
 21
2634.0
 31
0.0
  0
LINE
  5
55E
100
AcDbEntity
  8
鏡台
  6
CONTINUOUS
 62
     2
100
AcDbLine
 10
541.222266
 20
2373.359087
 30
0.0
 11
541.222266
 21
2634.0
 31
0.0
  0
LINE
  5
55F
100
AcDbEntity
  8
鏡台
  6
CONTINUOUS
 62
     2
100
AcDbLine
 10
732.249783
 20
2373.359087
 30
0.0
 11
532.249783
 21
2373.359087
 31
0.0
  0
LINE
  5
560
100
AcDbEntity
  8
鏡台
  6
CONTINUOUS
 62
     2
100
AcDbLine
 10
732.249783
 20
2373.359087
 30
0.0
 11
732.249783
 21
2323.5
 31
0.0
  0
LINE
  5
561
100
AcDbEntity
  8
鏡台
  6
CONTINUOUS
 62
     2
100
AcDbLine
 10
532.249783
 20
2373.359087
 30
0.0
 11
532.249783
 21
2323.5
 31
0.0
  0
LINE
  5
562
100
AcDbEntity
  8
鏡台
  6
CONTINUOUS
 62
     2
100
AcDbLine
 10
732.249783
 20
2323.5
 30
0.0
 11
532.249783
 21
2323.5
 31
0.0
  0
LINE
  5
563
100
AcDbEntity
  8
鏡台
  6
CONTINUOUS
 62
     2
100
AcDbLine
 10
725.0
 20
2077.859087
 30
0.0
 11
725.0
 21
2323.5
 31
0.0
  0
LINE
  5
564
100
AcDbEntity
  8
鏡台
  6
CONTINUOUS
 62
     2
100
AcDbLine
 10
541.222266
 20
2077.859087
 30
0.0
 11
541.222266
 21
2323.5
 31
0.0
  0
LINE
  5
565
100
AcDbEntity
  8
鏡台
  6
CONTINUOUS
 62
     2
100
AcDbLine
 10
732.249783
 20
2077.859087
 30
0.0
 11
532.249783
 21
2077.859087
 31
0.0
  0
LINE
  5
566
100
AcDbEntity
  8
鏡台
  6
CONTINUOUS
 62
     2
100
AcDbLine
 10
732.249783
 20
2077.859087
 30
0.0
 11
732.249783
 21
2027.859087
 31
0.0
  0
LINE
  5
567
100
AcDbEntity
  8
鏡台
  6
CONTINUOUS
 62
     2
100
AcDbLine
 10
725.0
 20
1858.5
 30
0.0
 11
725.0
 21
2027.859087
 31
0.0
  0
LINE
  5
568
100
AcDbEntity
  8
鏡台
  6
CONTINUOUS
 62
     2
100
AcDbLine
 10
532.249783
 20
2027.859087
 30
0.0
 11
732.249783
 21
2027.859087
 31
0.0
  0
LINE
  5
569
100
AcDbEntity
  8
鏡台
  6
CONTINUOUS
 62
     2
100
AcDbLine
 10
532.249783
 20
2077.859087
 30
0.0
 11
532.249783
 21
2027.859087
 31
0.0
  0
LINE
  5
56A
100
AcDbEntity
  8
鏡台
  6
CONTINUOUS
 62
     2
100
AcDbLine
 10
530.0
 20
1843.5
 30
0.0
 11
733.972235
 21
1843.5
 31
0.0
  0
LINE
  5
56B
100
AcDbEntity
  8
鏡台
  6
CONTINUOUS
 62
     2
100
AcDbLine
 10
1280.0
 20
1843.5
 30
0.0
 11
1076.8
 21
1843.5
 31
0.0
  0
LINE
  5
56C
100
AcDbEntity
  8
鏡台
  6
CONTINUOUS
 62
     2
100
AcDbLine
 10
1085.0
 20
2027.859087
 30
0.0
 11
1085.0
 21
1858.5
 31
0.0
  0
LINE
  5
56D
100
AcDbEntity
  8
鏡台
  6
CONTINUOUS
 62
     2
100
AcDbLine
 10
1077.750218
 20
2077.859087
 30
0.0
 11
1077.750218
 21
2027.859087
 31
0.0
  0
LINE
  5
56E
100
AcDbEntity
  8
鏡台
  6
CONTINUOUS
 62
     2
100
AcDbLine
 10
1077.750218
 20
2077.859087
 30
0.0
 11
1277.750218
 21
2077.859087
 31
0.0
  0
LINE
  5
56F
100
AcDbEntity
  8
鏡台
  6
CONTINUOUS
 62
     2
100
AcDbLine
 10
1277.750218
 20
2077.859087
 30
0.0
 11
1277.750218
 21
2027.859087
 31
0.0
  0
LINE
  5
570
100
AcDbEntity
  8
鏡台
  6
CONTINUOUS
 62
     2
100
AcDbLine
 10
1077.750218
 20
2027.859087
 30
0.0
 11
1277.750218
 21
2027.859087
 31
0.0
  0
LINE
  5
571
100
AcDbEntity
  8
鏡台
  6
CONTINUOUS
 62
     2
100
AcDbLine
 10
1085.0
 20
2278.5
 30
0.0
 11
1085.0
 21
2077.859087
 31
0.0
  0
LINE
  5
572
100
AcDbEntity
  8
鏡台
  6
CONTINUOUS
 62
     2
100
AcDbLine
 10
1268.777735
 20
2278.5
 30
0.0
 11
1268.777735
 21
2077.859087
 31
0.0
  0
LINE
  5
573
100
AcDbEntity
  8
鏡台
  6
CONTINUOUS
 62
     2
100
AcDbLine
 10
1277.750218
 20
2323.5
 30
0.0
 11
1077.750218
 21
2323.5
 31
0.0
  0
LINE
  5
574
100
AcDbEntity
  8
鏡台
  6
CONTINUOUS
 62
     2
100
AcDbLine
 10
1077.750218
 20
2373.359087
 30
0.0
 11
1077.750218
 21
2323.5
 31
0.0
  0
LINE
  5
575
100
AcDbEntity
  8
鏡台
  6
CONTINUOUS
 62
     2
100
AcDbLine
 10
1077.750218
 20
2373.359087
 30
0.0
 11
1277.750218
 21
2373.359087
 31
0.0
  0
LINE
  5
576
100
AcDbEntity
  8
鏡台
  6
CONTINUOUS
 62
     2
100
AcDbLine
 10
1277.750218
 20
2373.359087
 30
0.0
 11
1277.750218
 21
2323.5
 31
0.0
  0
LINE
  5
577
100
AcDbEntity
  8
鏡台
  6
CONTINUOUS
 62
     2
100
AcDbLine
 10
1085.0
 20
2634.0
 30
0.0
 11
1085.0
 21
2373.359087
 31
0.0
  0
LINE
  5
578
100
AcDbEntity
  8
鏡台
  6
CONTINUOUS
 62
     2
100
AcDbLine
 10
1268.777735
 20
2634.0
 30
0.0
 11
1268.777735
 21
2373.359087
 31
0.0
  0
LINE
  5
579
100
AcDbEntity
  8
鏡台
  6
CONTINUOUS
 62
     2
100
AcDbLine
 10
1268.777735
 20
2593.5
 30
0.0
 11
1085.0
 21
2593.5
 31
0.0
  0
LINE
  5
57A
100
AcDbEntity
  8
鏡台
  6
CONTINUOUS
 62
     2
100
AcDbLine
 10
733.972235
 20
1858.5
 30
0.0
 11
733.972235
 21
1841.770543
 31
0.0
  0
LINE
  5
57B
100
AcDbEntity
  8
鏡台
  6
CONTINUOUS
 62
     2
100
AcDbLine
 10
1076.8
 20
1858.5
 30
0.0
 11
1076.8
 21
1841.770543
 31
0.0
  0
LINE
  5
57C
100
AcDbEntity
  8
鏡台
  6
CONTINUOUS
 62
     2
100
AcDbLine
 10
725.0
 20
2634.0
 30
0.0
 11
694.288156
 21
2634.0
 31
0.0
  0
LINE
  5
57D
100
AcDbEntity
  8
鏡台
  6
CONTINUOUS
 62
     2
100
AcDbLine
 10
604.71141
 20
2634.0
 30
0.0
 11
541.222266
 21
2634.0
 31
0.0
  0
LINE
  5
57E
100
AcDbEntity
  8
鏡台
  6
CONTINUOUS
 62
     2
100
AcDbLine
 10
1268.777735
 20
2634.0
 30
0.0
 11
1205.248748
 21
2634.0
 31
0.0
  0
LINE
  5
57F
100
AcDbEntity
  8
鏡台
  6
CONTINUOUS
 62
     2
100
AcDbLine
 10
1115.750818
 20
2634.0
 30
0.0
 11
1085.0
 21
2634.0
 31
0.0
  0
LINE
  5
580
100
AcDbEntity
  8
鏡台
  6
CONTINUOUS
 62
     2
100
AcDbLine
 10
1075.5
 20
2694.0
 30
0.0
 11
734.5
 21
2694.0
 31
0.0
  0
LINE
  5
581
100
AcDbEntity
  8
鏡台
  6
CONTINUOUS
 62
     2
100
AcDbLine
 10
734.5
 20
2053.0
 30
0.0
 11
1075.5
 21
2053.0
 31
0.0
  0
LINE
  5
582
100
AcDbEntity
  8
鏡台
  6
CONTINUOUS
 62
     2
100
AcDbLine
 10
734.5
 20
2068.359087
 30
0.0
 11
754.499783
 21
2068.359087
 31
0.0
  0
LINE
  5
583
100
AcDbEntity
  8
鏡台
  6
CONTINUOUS
 62
     2
100
AcDbLine
 10
774.499783
 20
2068.359087
 30
0.0
 11
1035.499783
 21
2068.359087
 31
0.0
  0
LINE
  5
584
100
AcDbEntity
  8
鏡台
  6
CONTINUOUS
 62
     2
100
AcDbLine
 10
1055.499783
 20
2068.359087
 30
0.0
 11
1075.5
 21
2068.359087
 31
0.0
  0
LINE
  5
585
100
AcDbEntity
  8
鏡台
  6
CONTINUOUS
 62
     2
100
AcDbLine
 10
754.499783
 20
2075.359087
 30
0.0
 11
754.499783
 21
2065.359087
 31
0.0
  0
LINE
  5
586
100
AcDbEntity
  8
鏡台
  6
CONTINUOUS
 62
     2
100
AcDbLine
 10
774.499783
 20
2065.359087
 30
0.0
 11
754.499783
 21
2065.359087
 31
0.0
  0
LINE
  5
587
100
AcDbEntity
  8
鏡台
  6
CONTINUOUS
 62
     2
100
AcDbLine
 10
774.499783
 20
2075.359087
 30
0.0
 11
774.499783
 21
2065.359087
 31
0.0
  0
LINE
  5
588
100
AcDbEntity
  8
鏡台
  6
CONTINUOUS
 62
     2
100
AcDbLine
 10
774.499783
 20
2075.359087
 30
0.0
 11
754.499783
 21
2075.359087
 31
0.0
  0
LINE
  5
589
100
AcDbEntity
  8
鏡台
  6
CONTINUOUS
 62
     2
100
AcDbLine
 10
1035.499783
 20
2075.359087
 30
0.0
 11
1035.499783
 21
2065.359087
 31
0.0
  0
LINE
  5
58A
100
AcDbEntity
  8
鏡台
  6
CONTINUOUS
 62
     2
100
AcDbLine
 10
1055.499783
 20
2065.359087
 30
0.0
 11
1035.499783
 21
2065.359087
 31
0.0
  0
LINE
  5
58B
100
AcDbEntity
  8
鏡台
  6
CONTINUOUS
 62
     2
100
AcDbLine
 10
1055.499783
 20
2075.359087
 30
0.0
 11
1055.499783
 21
2065.359087
 31
0.0
  0
LINE
  5
58C
100
AcDbEntity
  8
鏡台
  6
CONTINUOUS
 62
     2
100
AcDbLine
 10
1055.499783
 20
2075.359087
 30
0.0
 11
1035.499783
 21
2075.359087
 31
0.0
  0
LINE
  5
58D
100
AcDbEntity
  8
鏡台
  6
CONTINUOUS
 62
     2
100
AcDbLine
 10
725.0
 20
2022.318897
 30
0.0
 11
1085.0
 21
2022.318897
 31
0.0
  0
LINE
  5
58E
100
AcDbEntity
  8
鏡台
  6
CONTINUOUS
 62
     2
100
AcDbLine
 10
1075.5
 20
2694.0
 30
0.0
 11
1075.5
 21
2022.318897
 31
0.0
  0
LINE
  5
58F
100
AcDbEntity
  8
鏡台
  6
CONTINUOUS
 62
     2
100
AcDbLine
 10
734.5
 20
2694.0
 30
0.0
 11
734.5
 21
2022.318897
 31
0.0
  0
ARC
  5
590
100
AcDbEntity
  8
鏡台
  6
CONTINUOUS
 62
     2
100
AcDbCircle
 10
843.770839
 20
-79871.720078
 30
0.0
 40
81904.687691
100
AcDbArc
 50
89.837895
 51
90.07644
  0
CIRCLE
  5
591
100
AcDbEntity
  8
鏡台
  6
CONTINUOUS
 62
     2
100
AcDbCircle
 10
610.0
 20
1808.5
 30
0.0
 40
8.5
  0
CIRCLE
  5
592
100
AcDbEntity
  8
鏡台
  6
CONTINUOUS
 62
     2
100
AcDbCircle
 10
1200.0
 20
1808.5
 30
0.0
 40
8.5
  0
ARC
  5
593
100
AcDbEntity
  8
鏡台
  6
CONTINUOUS
 62
     2
100
AcDbCircle
 10
535.0
 20
2738.5
 30
0.0
 40
5.0
100
AcDbArc
 50
90.0
 51
180.0
  0
LINE
  5
594
100
AcDbEntity
  8
鏡台
  6
CONTINUOUS
 62
     2
100
AcDbLine
 10
1275.0
 20
2743.5
 30
0.0
 11
535.0
 21
2743.5
 31
0.0
  0
ARC
  5
595
100
AcDbEntity
  8
鏡台
  6
CONTINUOUS
 62
     2
100
AcDbCircle
 10
1275.0
 20
2738.5
 30
0.0
 40
5.0
100
AcDbArc
 50
0.0
 51
90.0
  0
LINE
  5
596
100
AcDbEntity
  8
鏡台
  6
CONTINUOUS
 62
     2
100
AcDbLine
 10
1280.0
 20
2738.5
 30
0.0
 11
1280.0
 21
1748.5
 31
0.0
  0
ARC
  5
597
100
AcDbEntity
  8
鏡台
  6
CONTINUOUS
 62
     2
100
AcDbCircle
 10
1275.0
 20
1748.5
 30
0.0
 40
5.0
100
AcDbArc
 50
270.0
 51
0.0
  0
LINE
  5
598
100
AcDbEntity
  8
鏡台
  6
CONTINUOUS
 62
     2
100
AcDbLine
 10
530.0
 20
2738.5
 30
0.0
 11
530.0
 21
1748.5
 31
0.0
  0
ARC
  5
599
100
AcDbEntity
  8
鏡台
  6
CONTINUOUS
 62
     2
100
AcDbCircle
 10
535.0
 20
1748.5
 30
0.0
 40
5.0
100
AcDbArc
 50
180.0
 51
270.0
  0
LINE
  5
59A
100
AcDbEntity
  8
鏡台
  6
CONTINUOUS
 62
     2
100
AcDbLine
 10
541.222266
 20
1858.5
 30
0.0
 11
541.222266
 21
2027.859087
 31
0.0
  0
LINE
  5
59B
100
AcDbEntity
  8
鏡台
  6
CONTINUOUS
 62
     2
100
AcDbLine
 10
1268.777735
 20
2027.859087
 30
0.0
 11
1268.777735
 21
1858.5
 31
0.0
  0
LINE
  5
59C
100
AcDbEntity
  8
鏡台
  6
CONTINUOUS
 62
     6
100
AcDbLine
 10
2435.0
 20
1808.5
 30
0.0
 11
2497.5
 21
1808.5
 31
0.0
  0
LINE
  5
59D
100
AcDbEntity
  8
鏡台
  6
CONTINUOUS
 62
     6
100
AcDbLine
 10
2435.0
 20
2663.5
 30
0.0
 11
2497.5
 21
2663.5
 31
0.0
  0
LINE
  5
59E
100
AcDbEntity
  8
鏡台
  6
CONTINUOUS
 62
     6
100
AcDbLine
 10
2375.0
 20
2307.718172
 30
0.0
 11
2375.0
 21
2284.718172
 31
0.0
  0
LINE
  5
59F
100
AcDbEntity
  8
鏡台
  6
CONTINUOUS
 62
     6
100
AcDbLine
 10
2377.0
 20
2307.718172
 30
0.0
 11
2375.0
 21
2307.718172
 31
0.0
  0
LINE
  5
5A0
100
AcDbEntity
  8
鏡台
  6
CONTINUOUS
 62
     6
100
AcDbLine
 10
2377.0
 20
2284.718172
 30
0.0
 11
2375.0
 21
2284.718172
 31
0.0
  0
LINE
  5
5A1
100
AcDbEntity
  8
鏡台
  6
CONTINUOUS
 62
     6
100
AcDbLine
 10
2375.0
 20
2287.718172
 30
0.0
 11
2372.0
 21
2287.718172
 31
0.0
  0
LINE
  5
5A2
100
AcDbEntity
  8
鏡台
  6
CONTINUOUS
 62
     6
100
AcDbLine
 10
2372.0
 20
2304.718172
 30
0.0
 11
2372.0
 21
2287.718172
 31
0.0
  0
LINE
  5
5A3
100
AcDbEntity
  8
鏡台
  6
CONTINUOUS
 62
     6
100
AcDbLine
 10
2375.0
 20
2304.718172
 30
0.0
 11
2372.0
 21
2304.718172
 31
0.0
  0
LINE
  5
5A4
100
AcDbEntity
  8
鏡台
  6
CONTINUOUS
 62
     6
100
AcDbLine
 10
2450.0
 20
1810.5
 30
0.0
 11
2482.5
 21
1808.5
 31
0.0
  0
LINE
  5
5A5
100
AcDbEntity
  8
鏡台
  6
CONTINUOUS
 62
     6
100
AcDbLine
 10
2482.5
 20
1808.5
 30
0.0
 11
2450.0
 21
1806.5
 31
0.0
  0
LINE
  5
5A6
100
AcDbEntity
  8
鏡台
  6
CONTINUOUS
 62
     6
100
AcDbLine
 10
2450.0
 20
2665.5
 30
0.0
 11
2482.5
 21
2663.5
 31
0.0
  0
LINE
  5
5A7
100
AcDbEntity
  8
鏡台
  6
CONTINUOUS
 62
     6
100
AcDbLine
 10
2482.5
 20
2663.5
 30
0.0
 11
2450.0
 21
2661.5
 31
0.0
  0
ARC
  5
5A8
100
AcDbEntity
  8
鏡台
  6
CONTINUOUS
 62
     2
100
AcDbCircle
 10
2401.856041
 20
2013.203295
 30
0.0
 40
15.0
100
AcDbArc
 50
28.805081
 51
82.0
  0
LINE
  5
5A9
100
AcDbEntity
  8
鏡台
  6
CONTINUOUS
 62
     2
100
AcDbLine
 10
2383.982853
 20
2278.718471
 30
0.0
 11
2377.0
 21
2278.718471
 31
0.0
  0
LINE
  5
5AA
100
AcDbEntity
  8
鏡台
  6
CONTINUOUS
 62
     2
100
AcDbLine
 10
2377.0
 20
2313.718172
 30
0.0
 11
2377.0
 21
2278.718471
 31
0.0
  0
LINE
  5
5AB
100
AcDbEntity
  8
鏡台
  6
CONTINUOUS
 62
     2
100
AcDbLine
 10
2384.0
 20
2313.718172
 30
0.0
 11
2377.0
 21
2313.718172
 31
0.0
  0
LINE
  5
5AC
100
AcDbEntity
  8
鏡台
  6
CONTINUOUS
 62
     2
100
AcDbLine
 10
2450.0
 20
2743.5
 30
0.0
 11
2450.0
 21
1743.5
 31
0.0
  0
LINE
  5
5AD
100
AcDbEntity
  8
鏡台
  6
CONTINUOUS
 62
     2
100
AcDbLine
 10
2362.0
 20
1843.5
 30
0.0
 11
2362.0
 21
1858.5
 31
0.0
  0
LINE
  5
5AE
100
AcDbEntity
  8
鏡台
  6
CONTINUOUS
 62
     2
100
AcDbLine
 10
2335.0
 20
2027.859087
 30
0.0
 11
2415.0
 21
2027.859087
 31
0.0
  0
LINE
  5
5AF
100
AcDbEntity
  8
鏡台
  6
CONTINUOUS
 62
     2
100
AcDbLine
 10
2335.0
 20
2077.859087
 30
0.0
 11
2335.0
 21
2027.859087
 31
0.0
  0
LINE
  5
5B0
100
AcDbEntity
  8
鏡台
  6
CONTINUOUS
 62
     2
100
AcDbLine
 10
2335.0
 20
2077.859087
 30
0.0
 11
2415.0
 21
2077.859087
 31
0.0
  0
LINE
  5
5B1
100
AcDbEntity
  8
鏡台
  6
CONTINUOUS
 62
     2
100
AcDbLine
 10
2335.0
 20
2373.5
 30
0.0
 11
2335.0
 21
2323.5
 31
0.0
  0
LINE
  5
5B2
100
AcDbEntity
  8
鏡台
  6
CONTINUOUS
 62
     2
100
AcDbLine
 10
2335.0
 20
2373.5
 30
0.0
 11
2415.0
 21
2373.5
 31
0.0
  0
LINE
  5
5B3
100
AcDbEntity
  8
鏡台
  6
CONTINUOUS
 62
     2
100
AcDbLine
 10
2335.0
 20
2323.5
 30
0.0
 11
2415.0
 21
2323.5
 31
0.0
  0
LINE
  5
5B4
100
AcDbEntity
  8
鏡台
  6
CONTINUOUS
 62
     2
100
AcDbLine
 10
2384.0
 20
2323.5
 30
0.0
 11
2384.0
 21
2278.718471
 31
0.0
  0
LINE
  5
5B5
100
AcDbEntity
  8
鏡台
  6
CONTINUOUS
 62
     2
100
AcDbLine
 10
2396.0
 20
2664.482501
 30
0.0
 11
2415.151242
 21
2666.157886
 31
0.0
  0
LINE
  5
5B6
100
AcDbEntity
  8
鏡台
  6
CONTINUOUS
 62
     2
100
AcDbLine
 10
2396.0
 20
2664.482501
 30
0.0
 11
2396.0
 21
2612.482656
 31
0.0
  0
LINE
  5
5B7
100
AcDbEntity
  8
鏡台
  6
CONTINUOUS
 62
     2
100
AcDbLine
 10
2396.0
 20
2612.482656
 30
0.0
 11
2415.0
 21
2610.820386
 31
0.0
  0
LINE
  5
5B8
100
AcDbEntity
  8
鏡台
  6
CONTINUOUS
 62
     2
100
AcDbLine
 10
2396.0
 20
2619.23257
 30
0.0
 11
2384.0
 21
2619.23257
 31
0.0
  0
LINE
  5
5B9
100
AcDbEntity
  8
鏡台
  6
CONTINUOUS
 62
     2
100
AcDbLine
 10
2384.0
 20
2619.23257
 30
0.0
 11
2384.0
 21
2657.73257
 31
0.0
  0
LINE
  5
5BA
100
AcDbEntity
  8
鏡台
  6
CONTINUOUS
 62
     2
100
AcDbLine
 10
2384.0
 20
2657.73257
 30
0.0
 11
2396.0
 21
2657.73257
 31
0.0
  0
ARC
  5
5BB
100
AcDbEntity
  8
鏡台
  6
CONTINUOUS
 62
     2
100
AcDbCircle
 10
2392.232324
 20
2591.256002
 30
0.0
 40
31.086424
100
AcDbArc
 50
105.35629
 51
147.874266
  0
ARC
  5
5BC
100
AcDbEntity
  8
鏡台
  6
CONTINUOUS
 62
     2
100
AcDbCircle
 10
2392.232324
 20
2685.709137
 30
0.0
 40
31.086424
100
AcDbArc
 50
225.005735
 51
254.64371
  0
ARC
  5
5BD
100
AcDbEntity
  8
鏡台
  6
CONTINUOUS
 62
     2
100
AcDbCircle
 10
2333.0
 20
2638.48257
 30
0.0
 40
45.0
100
AcDbArc
 50
34.121823
 51
316.990364
  0
ARC
  5
5BE
100
AcDbEntity
  8
鏡台
  6
CONTINUOUS
 62
     2
100
AcDbCircle
 10
2344.160406
 20
2654.882061
 30
0.0
 40
71.880756
100
AcDbArc
 50
9.763737
 51
85.340154
  0
LINE
  5
5BF
100
AcDbEntity
  8
鏡台
  6
CONTINUOUS
 62
     2
100
AcDbLine
 10
2362.0
 20
1843.5
 30
0.0
 11
2415.26168
 21
1840.708674
 31
0.0
  0
ARC
  5
5C0
100
AcDbEntity
  8
鏡台
  6
CONTINUOUS
 62
     2
100
AcDbCircle
 10
2415.0
 20
1835.715526
 30
0.0
 40
5.0
100
AcDbArc
 50
0.0
 51
87.0
  0
LINE
  5
5C1
100
AcDbEntity
  8
鏡台
  6
CONTINUOUS
 62
     2
100
AcDbLine
 10
2362.0
 20
1858.5
 30
0.0
 11
2410.0
 21
1858.5
 31
0.0
  0
LINE
  5
5C2
100
AcDbEntity
  8
鏡台
  6
CONTINUOUS
 62
     2
100
AcDbLine
 10
2415.0
 20
2667.072016
 30
0.0
 11
2415.0
 21
1863.5
 31
0.0
  0
ARC
  5
5C3
100
AcDbEntity
  8
鏡台
  6
CONTINUOUS
 62
     2
100
AcDbCircle
 10
2410.0
 20
1863.5
 30
0.0
 40
5.0
100
AcDbArc
 50
270.0
 51
0.0
  0
LINE
  5
5C4
100
AcDbEntity
  8
鏡台
  6
CONTINUOUS
 62
     2
100
AcDbLine
 10
2384.0
 20
2278.718171
 30
0.0
 11
2410.087262
 21
2278.262817
 31
0.0
  0
ARC
  5
5C5
100
AcDbEntity
  8
鏡台
  6
CONTINUOUS
 62
     2
100
AcDbCircle
 10
2410.0
 20
2273.263579
 30
0.0
 40
5.0
100
AcDbArc
 50
0.0
 51
89.000001
  0
LINE
  5
5C6
100
AcDbEntity
  8
鏡台
  6
CONTINUOUS
 62
     2
100
AcDbLine
 10
2350.0
 20
2726.52522
 30
0.0
 11
2350.0
 21
2735.17928
 31
0.0
  0
LINE
  5
5C7
100
AcDbEntity
  8
鏡台
  6
CONTINUOUS
 62
     2
100
AcDbLine
 10
2450.0
 20
2743.5
 30
0.0
 11
2354.825492
 21
2740.176234
 31
0.0
  0
ARC
  5
5C8
100
AcDbEntity
  8
鏡台
  6
CONTINUOUS
 62
     2
100
AcDbCircle
 10
2355.0
 20
2735.17928
 30
0.0
 40
5.0
100
AcDbArc
 50
92.00012
 51
180.0
  0
LINE
  5
5C9
100
AcDbEntity
  8
鏡台
  6
CONTINUOUS
 62
     2
100
AcDbLine
 10
2420.0
 20
1746.5
 30
0.0
 11
2420.0
 21
1835.715526
 31
0.0
  0
ARC
  5
5CA
100
AcDbEntity
  8
鏡台
  6
CONTINUOUS
 62
     2
100
AcDbCircle
 10
2423.0
 20
1746.5
 30
0.0
 40
3.0
100
AcDbArc
 50
180.0
 51
270.0
  0
LINE
  5
5CB
100
AcDbEntity
  8
鏡台
  6
CONTINUOUS
 62
     2
100
AcDbLine
 10
733.972235
 20
1841.770543
 30
0.0
 11
1076.8
 21
1841.770543
 31
0.0
  0
LINE
  5
5CC
100
AcDbEntity
  8
鏡台
  6
CONTINUOUS
 62
     2
100
AcDbLine
 10
530.0
 20
1858.5
 30
0.0
 11
1280.0
 21
1858.5
 31
0.0
  0
DIMENSION
  5
5D8
100
AcDbEntity
  8
寸法
  6
CONTINUOUS
 62
     3
100
AcDbDimension
  2
*D14
 10
1175.0
 20
4168.0
 30
0.0
 11
905.0
 21
4203.25
 31
0.0
 70
   160
  1
540（壁固定）
  3
STANDARD
100
AcDbAlignedDimension
 13
635.0
 23
4005.5
 33
0.0
 14
1175.0
 24
4005.5
 34
0.0
100
AcDbRotatedDimension
1001
ACAD
1000
DSTYLE
1002
{
1070
     6
1000
_EX_NORM
1070
     7
1000
_EX_NORM
1070
    41
1040
45.0
1070
    42
1040
146.499996
1070
    44
1040
15.0
1070
    73
1070
     0
1070
    74
1070
     0
1070
    75
1070
     0
1070
    76
1070
     1
1070
    77
1070
     1
1070
    78
1070
     0
1070
   140
1040
60.0
1070
   147
1040
5.25
1070
   173
1070
     1
1070
   176
1070
     3
1070
   177
1070
     3
1070
   178
1070
     2
1070
   271
1070
     0
1070
   279
1070
     2
1070
   280
1070
     0
1070
   287
1070
     5
1070
   340
1005
5D7
1002
}
  0
DIMENSION
  5
5E4
100
AcDbEntity
  8
寸法
  6
CONTINUOUS
 62
     3
100
AcDbDimension
  2
*D15
 10
1280.0
 20
3388.0
 30
0.0
 11
905.0
 21
3423.25
 31
0.0
 70
   160
  3
STANDARD
100
AcDbAlignedDimension
 13
530.0
 23
3522.598405
 33
0.0
 14
1280.0
 24
3522.598405
 34
0.0
100
AcDbRotatedDimension
1001
ACAD
1000
DSTYLE
1002
{
1070
     6
1000
_EX_NORM
1070
     7
1000
_EX_NORM
1070
    41
1040
45.0
1070
    42
1040
10.5
1070
    44
1040
15.0
1070
    73
1070
     0
1070
    74
1070
     0
1070
    75
1070
     0
1070
    76
1070
     0
1070
    77
1070
     1
1070
    78
1070
     0
1070
   140
1040
60.0
1070
   147
1040
5.25
1070
   173
1070
     1
1070
   176
1070
     3
1070
   177
1070
     3
1070
   178
1070
     2
1070
   271
1070
     0
1070
   279
1070
     2
1070
   280
1070
     0
1070
   287
1070
     5
1070
   340
1005
5D7
1002
}
  0
DIMENSION
  5
5EF
100
AcDbEntity
  8
寸法
  6
CONTINUOUS
 62
     3
100
AcDbDimension
  2
*D16
 10
1385.0
 20
3973.0
 30
0.0
 11
1349.75
 21
3733.0
 31
0.0
 70
   160
  3
STANDARD
100
AcDbAlignedDimension
 13
905.0
 23
3493.0
 33
0.0
 14
1280.0
 24
3973.0
 34
0.0
 50
90.0
100
AcDbRotatedDimension
1001
ACAD
1000
DSTYLE
1002
{
1070
     6
1000
_EX_NORM
1070
     7
1000
_EX_NORM
1070
    41
1040
45.0
1070
    42
1040
10.5
1070
    44
1040
15.0
1070
    73
1070
     0
1070
    74
1070
     0
1070
    75
1070
     0
1070
    76
1070
     1
1070
    77
1070
     1
1070
    78
1070
     0
1070
   140
1040
60.0
1070
   147
1040
5.25
1070
   173
1070
     1
1070
   176
1070
     3
1070
   177
1070
     3
1070
   178
1070
     2
1070
   271
1070
     0
1070
   279
1070
     2
1070
   280
1070
     0
1070
   287
1070
     5
1070
   340
1005
5D7
1002
}
  0
DIMENSION
  5
5FB
100
AcDbEntity
  8
寸法
  6
CONTINUOUS
 62
     3
100
AcDbDimension
  2
*D17
 10
1200.0
 20
2833.5
 30
0.0
 11
905.0
 21
2868.75
 31
0.0
 70
   160
  1
590（壁固定）
  3
STANDARD
100
AcDbAlignedDimension
 13
610.0
 23
2672.0
 33
0.0
 14
1200.0
 24
2672.0
 34
0.0
100
AcDbRotatedDimension
1001
ACAD
1000
DSTYLE
1002
{
1070
     6
1000
_EX_NORM
1070
     7
1000
_EX_NORM
1070
    41
1040
45.0
1070
    42
1040
10.5
1070
    44
1040
15.0
1070
    73
1070
     0
1070
    74
1070
     0
1070
    75
1070
     0
1070
    76
1070
     0
1070
    77
1070
     1
1070
    78
1070
     0
1070
   140
1040
60.0
1070
   147
1040
5.25
1070
   173
1070
     1
1070
   176
1070
     3
1070
   177
1070
     3
1070
   178
1070
     2
1070
   271
1070
     0
1070
   279
1070
     2
1070
   280
1070
     0
1070
   287
1070
     5
1070
   340
1005
5D7
1002
}
  0
DIMENSION
  5
607
100
AcDbEntity
  8
寸法
  6
CONTINUOUS
 62
     3
100
AcDbDimension
  2
*D18
 10
1280.0
 20
2923.5
 30
0.0
 11
905.0
 21
2958.75
 31
0.0
 70
   160
  3
STANDARD
100
AcDbAlignedDimension
 13
530.0
 23
2738.5
 33
0.0
 14
1280.0
 24
2738.5
 34
0.0
100
AcDbRotatedDimension
1001
ACAD
1000
DSTYLE
1002
{
1070
     6
1000
_EX_NORM
1070
     7
1000
_EX_NORM
1070
    41
1040
45.0
1070
    42
1040
10.5
1070
    44
1040
15.0
1070
    73
1070
     0
1070
    74
1070
     0
1070
    75
1070
     0
1070
    76
1070
     0
1070
    77
1070
     1
1070
    78
1070
     0
1070
   140
1040
60.0
1070
   147
1040
5.25
1070
   173
1070
     1
1070
   176
1070
     3
1070
   177
1070
     3
1070
   178
1070
     2
1070
   271
1070
     0
1070
   279
1070
     2
1070
   280
1070
     0
1070
   287
1070
     5
1070
   340
1005
5D7
1002
}
  0
DIMENSION
  5
612
100
AcDbEntity
  8
寸法
  6
CONTINUOUS
 62
     3
100
AcDbDimension
  2
*D19
 10
1432.5
 20
1728.5
 30
0.0
 11
1397.25
 21
1338.5
 31
0.0
 70
   160
  3
STANDARD
100
AcDbAlignedDimension
 13
1263.5
 23
948.5
 33
0.0
 14
905.0
 24
1728.5
 34
0.0
 50
90.0
100
AcDbRotatedDimension
1001
ACAD
1000
DSTYLE
1002
{
1070
     6
1000
_EX_NORM
1070
     7
1000
_EX_NORM
1070
    41
1040
45.0
1070
    42
1040
10.5
1070
    44
1040
15.0
1070
    73
1070
     0
1070
    74
1070
     0
1070
    75
1070
     1
1070
    76
1070
     0
1070
    77
1070
     1
1070
    78
1070
     0
1070
   140
1040
60.0
1070
   147
1040
5.25
1070
   173
1070
     1
1070
   176
1070
     3
1070
   177
1070
     3
1070
   178
1070
     2
1070
   271
1070
     0
1070
   279
1070
     2
1070
   280
1070
     0
1070
   287
1070
     5
1070
   340
1005
5D7
1002
}
  0
DIMENSION
  5
61D
100
AcDbEntity
  8
寸法
  6
CONTINUOUS
 62
     3
100
AcDbDimension
  2
*D20
 10
1522.5
 20
1743.5
 30
0.0
 11
1487.25
 21
1346.0
 31
0.0
 70
   160
  3
STANDARD
100
AcDbAlignedDimension
 13
1263.5
 23
948.5
 33
0.0
 14
1275.0
 24
1743.5
 34
0.0
 50
90.0
100
AcDbRotatedDimension
1001
ACAD
1000
DSTYLE
1002
{
1070
     6
1000
_EX_NORM
1070
     7
1000
_EX_NORM
1070
    41
1040
45.0
1070
    42
1040
10.5
1070
    44
1040
15.0
1070
    73
1070
     0
1070
    74
1070
     0
1070
    75
1070
     1
1070
    76
1070
     0
1070
    77
1070
     1
1070
    78
1070
     0
1070
   140
1040
60.0
1070
   147
1040
5.25
1070
   173
1070
     1
1070
   176
1070
     3
1070
   177
1070
     3
1070
   178
1070
     2
1070
   271
1070
     0
1070
   279
1070
     2
1070
   280
1070
     0
1070
   287
1070
     5
1070
   340
1005
5D7
1002
}
  0
DIMENSION
  5
628
100
AcDbEntity
  8
寸法
  6
CONTINUOUS
 62
     3
100
AcDbDimension
  2
*D21
 10
1522.5
 20
2743.499996
 30
0.0
 11
1487.25
 21
2243.499998
 31
0.0
 70
   160
  3
STANDARD
100
AcDbAlignedDimension
 13
1275.0
 23
1743.5
 33
0.0
 14
1274.999805
 24
2743.499996
 34
0.0
 50
90.0
100
AcDbRotatedDimension
1001
ACAD
1000
DSTYLE
1002
{
1070
     6
1000
_EX_NORM
1070
     7
1000
_EX_NORM
1070
    41
1040
45.0
1070
    42
1040
10.5
1070
    44
1040
15.0
1070
    73
1070
     0
1070
    74
1070
     0
1070
    75
1070
     1
1070
    76
1070
     0
1070
    77
1070
     1
1070
    78
1070
     0
1070
   140
1040
60.0
1070
   147
1040
5.25
1070
   173
1070
     1
1070
   176
1070
     3
1070
   177
1070
     3
1070
   178
1070
     2
1070
   271
1070
     0
1070
   279
1070
     2
1070
   280
1070
     0
1070
   287
1070
     5
1070
   340
1005
5D7
1002
}
  0
DIMENSION
  5
633
100
AcDbEntity
  8
寸法
  6
CONTINUOUS
 62
     3
100
AcDbDimension
  2
*D22
 10
1612.5
 20
2743.499996
 30
0.0
 11
1577.25
 21
1845.999998
 31
0.0
 70
   160
  3
STANDARD
100
AcDbAlignedDimension
 13
1263.5
 23
948.5
 33
0.0
 14
1274.999805
 24
2743.499996
 34
0.0
 50
90.0
100
AcDbRotatedDimension
1001
ACAD
1000
DSTYLE
1002
{
1070
     6
1000
_EX_NORM
1070
     7
1000
_EX_NORM
1070
    41
1040
45.0
1070
    42
1040
10.5
1070
    44
1040
15.0
1070
    73
1070
     0
1070
    74
1070
     0
1070
    75
1070
     1
1070
    76
1070
     0
1070
    77
1070
     1
1070
    78
1070
     0
1070
   140
1040
60.0
1070
   147
1040
5.25
1070
   173
1070
     1
1070
   176
1070
     3
1070
   177
1070
     3
1070
   178
1070
     2
1070
   271
1070
     0
1070
   279
1070
     2
1070
   280
1070
     0
1070
   287
1070
     5
1070
   340
1005
5D7
1002
}
  0
DIMENSION
  5
63E
100
AcDbEntity
  8
寸法
  6
CONTINUOUS
 62
     3
100
AcDbDimension
  2
*D23
 10
1432.5
 20
1873.5
 30
0.0
 11
1397.25
 21
1808.5
 31
0.0
 70
   160
  3
STANDARD
100
AcDbAlignedDimension
 13
1275.0
 23
1743.5
 33
0.0
 14
1293.076697
 24
1873.5
 34
0.0
 50
90.0
100
AcDbRotatedDimension
1001
ACAD
1000
DSTYLE
1002
{
1070
     6
1000
_EX_NORM
1070
     7
1000
_EX_NORM
1070
    41
1040
45.0
1070
    42
1040
10.5
1070
    44
1040
15.0
1070
    73
1070
     0
1070
    74
1070
     0
1070
    75
1070
     1
1070
    76
1070
     0
1070
    77
1070
     1
1070
    78
1070
     0
1070
   140
1040
60.0
1070
   147
1040
5.25
1070
   173
1070
     1
1070
   176
1070
     3
1070
   177
1070
     3
1070
   178
1070
     2
1070
   271
1070
     0
1070
   279
1070
     2
1070
   280
1070
     0
1070
   287
1070
     5
1070
   340
1005
5D7
1002
}
  0
TEXT
  5
63F
100
AcDbEntity
  8
寸法
  6
CONTINUOUS
 62
     2
100
AcDbText
 10
1391.25
 20
1957.5
 30
0.0
 40
60.0
  1
コード長さ；１ｍ
 50
90.0
 41
0.693
  7
EXCADSTD
 72
     5
 11
1391.25
 21
2353.499999
 31
0.0
100
AcDbText
  0
LEADER
  5
640
100
AcDbEntity
  8
寸法
  6
CONTINUOUS
 62
     3
100
AcDbLeader
  3
STANDARD
 73
     3
 74
     1
 75
     0
 40
0.0
 76
     3
 10
1302.372956
 20
1866.500118
 30
0.0
 10
1396.5
 20
1950.0
 30
0.0
 10
1396.5
 20
2344.5
 30
0.0
 77
     3
1001
ACAD
1000
DSTYLE
1002
{
1070
    41
1040
45.0
1070
     5
1000
_EX_NORM
1070
     6
1000
_EX_NORM
1070
     7
1000
_EX_NORM
1070
   341
1005
2A
1002
}
  0
DIMENSION
  5
64C
100
AcDbEntity
  8
寸法
  6
CONTINUOUS
 62
     3
100
AcDbDimension
  2
*D24
 10
2450.0
 20
828.5
 30
0.0
 11
2660.0
 21
863.75
 31
0.0
 70
   160
  1
85（床給水）
  3
STANDARD
100
AcDbAlignedDimension
 13
2365.0
 23
940.5
 33
0.0
 14
2450.0
 24
948.5
 34
0.0
100
AcDbRotatedDimension
1001
ACAD
1000
DSTYLE
1002
{
1070
     6
1000
_EX_NORM
1070
     7
1000
_EX_NORM
1070
    41
1040
45.0
1070
    42
1040
10.5
1070
    44
1040
15.0
1070
    73
1070
     0
1070
    74
1070
     0
1070
    75
1070
     0
1070
    76
1070
     0
1070
    77
1070
     1
1070
    78
1070
     0
1070
   140
1040
60.0
1070
   147
1040
5.25
1070
   173
1070
     1
1070
   176
1070
     3
1070
   177
1070
     3
1070
   178
1070
     2
1070
   271
1070
     0
1070
   279
1070
     2
1070
   280
1070
     2
1070
   287
1070
     5
1070
   340
1005
5D7
1002
}
  0
DIMENSION
  5
658
100
AcDbEntity
  8
寸法
  6
CONTINUOUS
 62
     3
100
AcDbDimension
  2
*D25
 10
2555.0
 20
1298.5
 30
0.0
 11
2519.75
 21
1123.5
 31
0.0
 70
   160
  1
350（壁給水）
  3
STANDARD
100
AcDbAlignedDimension
 13
2450.0
 23
948.5
 33
0.0
 14
2458.0
 24
1298.5
 34
0.0
 50
90.0
100
AcDbRotatedDimension
1001
ACAD
1000
DSTYLE
1002
{
1070
     6
1000
_EX_NORM
1070
     7
1000
_EX_NORM
1070
    41
1040
45.0
1070
    42
1040
10.5
1070
    44
1040
15.0
1070
    73
1070
     0
1070
    74
1070
     0
1070
    75
1070
     0
1070
    76
1070
     0
1070
    77
1070
     1
1070
    78
1070
     0
1070
   140
1040
60.0
1070
   147
1040
5.25
1070
   173
1070
     1
1070
   176
1070
     3
1070
   177
1070
     3
1070
   178
1070
     2
1070
   271
1070
     0
1070
   279
1070
     2
1070
   280
1070
     0
1070
   287
1070
     5
1070
   340
1005
5D7
1002
}
  0
DIMENSION
  5
664
100
AcDbEntity
  8
寸法
  6
CONTINUOUS
 62
     3
100
AcDbDimension
  2
*D26
 10
2645.0
 20
1448.5
 30
0.0
 11
2609.75
 21
1198.5
 31
0.0
 70
   160
  1
500（壁排水）
  3
STANDARD
100
AcDbAlignedDimension
 13
2450.0
 23
948.5
 33
0.0
 14
2471.0
 24
1448.5
 34
0.0
 50
90.0
100
AcDbRotatedDimension
1001
ACAD
1000
DSTYLE
1002
{
1070
     6
1000
_EX_NORM
1070
     7
1000
_EX_NORM
1070
    41
1040
45.0
1070
    42
1040
10.5
1070
    44
1040
15.0
1070
    73
1070
     0
1070
    74
1070
     0
1070
    75
1070
     0
1070
    76
1070
     0
1070
    77
1070
     1
1070
    78
1070
     0
1070
   140
1040
60.0
1070
   147
1040
5.25
1070
   173
1070
     1
1070
   176
1070
     3
1070
   177
1070
     3
1070
   178
1070
     2
1070
   271
1070
     0
1070
   279
1070
     2
1070
   280
1070
     0
1070
   287
1070
     5
1070
   340
1005
5D7
1002
}
  0
DIMENSION
  5
670
100
AcDbEntity
  8
寸法
  6
CONTINUOUS
 62
     3
100
AcDbDimension
  2
*D27
 10
2735.0
 20
1503.5
 30
0.0
 11
2699.75
 21
1226.0
 31
0.0
 70
   160
  1
555（壁固定）
  3
STANDARD
100
AcDbAlignedDimension
 13
2450.0
 23
948.5
 33
0.0
 14
2482.5
 24
1503.5
 34
0.0
 50
90.0
100
AcDbRotatedDimension
1001
ACAD
1000
DSTYLE
1002
{
1070
     6
1000
_EX_NORM
1070
     7
1000
_EX_NORM
1070
    41
1040
45.0
1070
    42
1040
10.5
1070
    44
1040
15.0
1070
    73
1070
     0
1070
    74
1070
     0
1070
    75
1070
     0
1070
    76
1070
     0
1070
    77
1070
     1
1070
    78
1070
     0
1070
   140
1040
60.0
1070
   147
1040
5.25
1070
   173
1070
     1
1070
   176
1070
     3
1070
   177
1070
     3
1070
   178
1070
     2
1070
   271
1070
     0
1070
   279
1070
     2
1070
   280
1070
     0
1070
   287
1070
     5
1070
   340
1005
5D7
1002
}
  0
DIMENSION
  5
67C
100
AcDbEntity
  8
寸法
  6
CONTINUOUS
 62
     3
100
AcDbDimension
  2
*D28
 10
2825.0
 20
1808.5
 30
0.0
 11
2789.75
 21
1378.5
 31
0.0
 70
   160
  3
STANDARD
100
AcDbAlignedDimension
 13
2450.0
 23
948.5
 33
0.0
 14
2482.5
 24
1808.5
 34
0.0
 50
90.0
100
AcDbRotatedDimension
1001
ACAD
1000
DSTYLE
1002
{
1070
     6
1000
_EX_NORM
1070
     7
1000
_EX_NORM
1070
    41
1040
45.0
1070
    42
1040
10.5
1070
    44
1040
15.0
1070
    73
1070
     0
1070
    74
1070
     0
1070
    75
1070
     0
1070
    76
1070
     0
1070
    77
1070
     1
1070
    78
1070
     0
1070
   140
1040
60.0
1070
   147
1040
5.25
1070
   173
1070
     1
1070
   176
1070
     3
1070
   177
1070
     3
1070
   178
1070
     2
1070
   271
1070
     0
1070
   279
1070
     2
1070
   280
1070
     0
1070
   287
1070
     5
1070
   340
1005
5D7
1002
}
  0
DIMENSION
  5
688
100
AcDbEntity
  8
寸法
  6
CONTINUOUS
 62
     3
100
AcDbDimension
  2
*D29
 10
2825.0
 20
2663.5
 30
0.0
 11
2789.75
 21
2236.0
 31
0.0
 70
   160
  1
855（壁固定）
  3
STANDARD
100
AcDbAlignedDimension
 13
2482.5
 23
1808.5
 33
0.0
 14
2482.5
 24
2663.5
 34
0.0
 50
90.0
100
AcDbRotatedDimension
1001
ACAD
1000
DSTYLE
1002
{
1070
     6
1000
_EX_NORM
1070
     7
1000
_EX_NORM
1070
    41
1040
45.0
1070
    42
1040
10.5
1070
    44
1040
15.0
1070
    73
1070
     0
1070
    74
1070
     0
1070
    75
1070
     0
1070
    76
1070
     0
1070
    77
1070
     1
1070
    78
1070
     0
1070
   140
1040
60.0
1070
   147
1040
5.25
1070
   173
1070
     1
1070
   176
1070
     3
1070
   177
1070
     3
1070
   178
1070
     2
1070
   271
1070
     0
1070
   279
1070
     2
1070
   280
1070
     0
1070
   287
1070
     5
1070
   340
1005
5D7
1002
}
  0
DIMENSION
  5
693
100
AcDbEntity
  8
寸法
  6
CONTINUOUS
 62
     3
100
AcDbDimension
  2
*D30
 10
2450.0
 20
2833.5
 30
0.0
 11
2369.0
 21
2868.75
 31
0.0
 70
   160
  3
STANDARD
100
AcDbAlignedDimension
 13
2288.0
 23
2638.48257
 33
0.0
 14
2450.0
 24
2743.5
 34
0.0
100
AcDbRotatedDimension
1001
ACAD
1000
DSTYLE
1002
{
1070
     6
1000
_EX_NORM
1070
     7
1000
_EX_NORM
1070
    41
1040
45.0
1070
    42
1040
10.5
1070
    44
1040
15.0
1070
    73
1070
     0
1070
    74
1070
     0
1070
    75
1070
     0
1070
    76
1070
     1
1070
    77
1070
     1
1070
    78
1070
     0
1070
   140
1040
60.0
1070
   147
1040
5.25
1070
   173
1070
     1
1070
   176
1070
     3
1070
   177
1070
     3
1070
   178
1070
     2
1070
   271
1070
     0
1070
   279
1070
     2
1070
   280
1070
     0
1070
   287
1070
     5
1070
   340
1005
5D7
1002
}
  0
DIMENSION
  5
69F
100
AcDbEntity
  8
寸法
  6
CONTINUOUS
 62
     3
100
AcDbDimension
  2
*D31
 10
2450.0
 20
648.5
 30
0.0
 11
2255.0
 21
683.75
 31
0.0
 70
   160
  3
STANDARD
100
AcDbAlignedDimension
 13
2060.0
 23
952.0
 33
0.0
 14
2450.0
 24
948.5
 34
0.0
100
AcDbRotatedDimension
1001
ACAD
1000
DSTYLE
1002
{
1070
     6
1000
_EX_NORM
1070
     7
1000
_EX_NORM
1070
    41
1040
45.0
1070
    42
1040
10.5
1070
    44
1040
15.0
1070
    73
1070
     0
1070
    74
1070
     0
1070
    75
1070
     0
1070
    76
1070
     0
1070
    77
1070
     1
1070
    78
1070
     0
1070
   140
1040
60.0
1070
   147
1040
5.25
1070
   173
1070
     1
1070
   176
1070
     3
1070
   177
1070
     3
1070
   178
1070
     2
1070
   271
1070
     0
1070
   279
1070
     2
1070
   280
1070
     0
1070
   287
1070
     5
1070
   340
1005
5D7
1002
}
  0
TEXT
  5
6A0
100
AcDbEntity
  8
寸法
  6
CONTINUOUS
 62
     2
100
AcDbText
 10
603.0
 20
4055.25
 30
0.0
 40
60.0
  1
壁排水
 41
0.728
  7
EXCADSTD
 72
     5
 11
759.0
 21
4055.25
 31
0.0
100
AcDbText
  0
LEADER
  5
6A1
100
AcDbEntity
  8
寸法
  6
CONTINUOUS
 62
     3
100
AcDbLeader
  3
STANDARD
 73
     3
 74
     1
 75
     0
 40
0.0
 76
     3
 10
889.0
 20
3993.0
 30
0.0
 10
766.5
 20
4050.0
 30
0.0
 10
595.5
 20
4050.0
 30
0.0
 77
     3
1001
ACAD
1000
DSTYLE
1002
{
1070
    41
1040
45.0
1070
     5
1000
_EX_NORM
1070
     6
1000
_EX_NORM
1070
     7
1000
_EX_NORM
1070
   341
1005
2A
1002
}
  0
DIMENSION
  5
6AD
100
AcDbEntity
  8
寸法
  6
CONTINUOUS
 62
     3
100
AcDbDimension
  2
*D32
 10
1263.5
 20
648.5
 30
0.0
 11
905.0
 21
683.75
 31
0.0
 70
   160
  3
STANDARD
100
AcDbAlignedDimension
 13
546.5
 23
948.5
 33
0.0
 14
1263.5
 24
948.5
 34
0.0
100
AcDbRotatedDimension
1001
ACAD
1000
DSTYLE
1002
{
1070
     6
1000
_EX_NORM
1070
     7
1000
_EX_NORM
1070
    41
1040
45.0
1070
    42
1040
228.500004
1070
    44
1040
15.0
1070
    73
1070
     0
1070
    74
1070
     0
1070
    75
1070
     0
1070
    76
1070
     0
1070
    77
1070
     1
1070
    78
1070
     0
1070
   140
1040
60.0
1070
   147
1040
5.25
1070
   173
1070
     1
1070
   176
1070
     3
1070
   177
1070
     3
1070
   178
1070
     2
1070
   271
1070
     0
1070
   279
1070
     2
1070
   280
1070
     0
1070
   287
1070
     5
1070
   340
1005
5D7
1002
}
  0
DIMENSION
  5
6B9
100
AcDbEntity
  8
寸法
  6
CONTINUOUS
 62
     3
100
AcDbDimension
  2
*D33
 10
956.0
 20
1935.0
 30
0.0
 11
905.0
 21
1970.25
 31
0.0
 70
   160
  3
STANDARD
100
AcDbAlignedDimension
 13
854.0
 23
1730.722388
 33
0.0
 14
956.0
 24
1740.222388
 34
0.0
100
AcDbRotatedDimension
1001
ACAD
1000
DSTYLE
1002
{
1070
     6
1000
_EX_NORM
1070
     7
1000
_EX_NORM
1070
    41
1040
45.0
1070
    42
1040
10.5
1070
    44
1040
15.0
1070
    73
1070
     0
1070
    74
1070
     0
1070
    75
1070
     0
1070
    76
1070
     0
1070
    77
1070
     1
1070
    78
1070
     0
1070
   140
1040
60.0
1070
   147
1040
5.25
1070
   173
1070
     1
1070
   176
1070
     3
1070
   177
1070
     3
1070
   178
1070
     2
1070
   271
1070
     0
1070
   279
1070
     2
1070
   280
1070
     0
1070
   287
1070
     5
1070
   340
1005
5D7
1002
}
  0
DIMENSION
  5
6C4
100
AcDbEntity
  8
寸法
  6
CONTINUOUS
 62
     3
100
AcDbDimension
  2
*D34
 10
2450.0
 20
1935.0
 30
0.0
 11
2272.5
 21
1970.25
 31
0.0
 70
   160
  3
STANDARD
100
AcDbAlignedDimension
 13
2370.0
 23
1733.5
 33
0.0
 14
2450.0
 24
1743.5
 34
0.0
100
AcDbRotatedDimension
1001
ACAD
1000
DSTYLE
1002
{
1070
     6
1000
_EX_NORM
1070
     7
1000
_EX_NORM
1070
    41
1040
45.0
1070
    42
1040
10.5
1070
    44
1040
15.0
1070
    73
1070
     0
1070
    74
1070
     0
1070
    75
1070
     0
1070
    76
1070
     1
1070
    77
1070
     1
1070
    78
1070
     0
1070
   140
1040
60.0
1070
   147
1040
5.25
1070
   173
1070
     1
1070
   176
1070
     3
1070
   177
1070
     3
1070
   178
1070
     2
1070
   271
1070
     0
1070
   279
1070
     2
1070
   280
1070
     1
1070
   287
1070
     5
1070
   340
1005
5D7
1002
}
  0
TEXT
  5
6C5
100
AcDbEntity
  8
寸法
  6
CONTINUOUS
 62
     2
100
AcDbText
 10
1572.000001
 20
804.75
 30
0.0
 40
60.0
  1
ＶＰ･ＶＵ４０･５０
 41
0.62784
  7
EXCADSTD
 72
     5
 11
2004.0
 21
804.75
 31
0.0
100
AcDbText
  0
TEXT
  5
6C6
100
AcDbEntity
  8
寸法
  6
CONTINUOUS
 62
     2
100
AcDbText
 10
1572.000001
 20
744.75
 30
0.0
 40
60.0
  1
４０～５０㎜立上げ
 41
0.690667
  7
EXCADSTD
 72
     5
 11
2016.0
 21
744.75
 31
0.0
100
AcDbText
  0
LEADER
  5
6C7
100
AcDbEntity
  8
寸法
  6
CONTINUOUS
 62
     3
100
AcDbLeader
  3
STANDARD
 73
     3
 74
     1
 75
     0
 40
0.0
 76
     3
 10
2314.0
 20
948.5
 30
0.0
 10
2023.5
 20
739.5
 30
0.0
 10
1576.5
 20
739.5
 30
0.0
 77
     3
1001
ACAD
1000
DSTYLE
1002
{
1070
    41
1040
45.0
1070
     5
1000
_EX_NORM
1070
     6
1000
_EX_NORM
1070
     7
1000
_EX_NORM
1070
   341
1005
2A
1002
}
  0
TEXT
  5
6C8
100
AcDbEntity
  8
寸法
  6
CONTINUOUS
 62
     2
100
AcDbText
 10
2557.5
 20
1550.25
 30
0.0
 40
60.0
  1
Ｒ１/２
 41
0.638
  7
EXCADSTD
 72
     5
 11
2731.499999
 21
1550.25
 31
0.0
100
AcDbText
  0
LEADER
  5
6C9
100
AcDbEntity
  8
寸法
  6
CONTINUOUS
 62
     3
100
AcDbLeader
  3
STANDARD
 73
     3
 74
     1
 75
     0
 40
0.0
 76
     3
 10
2458.0
 20
1309.0
 30
0.0
 10
2550.0
 20
1545.0
 30
0.0
 10
2716.5
 20
1545.0
 30
0.0
 77
     3
1001
ACAD
1000
DSTYLE
1002
{
1070
    41
1040
45.0
1070
     5
1000
_EX_NORM
1070
     6
1000
_EX_NORM
1070
     7
1000
_EX_NORM
1070
   341
1005
2A
1002
}
  0
DIMENSION
  5
6D5
100
AcDbEntity
  8
寸法
  6
CONTINUOUS
 62
     3
100
AcDbDimension
  2
*D35
 10
2450.0
 20
738.5
 30
0.0
 11
2682.5
 21
773.75
 31
0.0
 70
   160
  1
120（床排水）
  3
STANDARD
100
AcDbAlignedDimension
 13
2330.0
 23
918.5
 33
0.0
 14
2450.0
 24
948.5
 34
0.0
100
AcDbRotatedDimension
1001
ACAD
1000
DSTYLE
1002
{
1070
     6
1000
_EX_NORM
1070
     7
1000
_EX_NORM
1070
    41
1040
45.0
1070
    42
1040
10.5
1070
    44
1040
15.0
1070
    73
1070
     0
1070
    74
1070
     0
1070
    75
1070
     0
1070
    76
1070
     0
1070
    77
1070
     1
1070
    78
1070
     0
1070
   140
1040
60.0
1070
   147
1040
5.25
1070
   173
1070
     1
1070
   176
1070
     3
1070
   177
1070
     3
1070
   178
1070
     2
1070
   271
1070
     0
1070
   279
1070
     2
1070
   280
1070
     2
1070
   287
1070
     5
1070
   340
1005
5D7
1002
}
  0
DIMENSION
  5
6E1
100
AcDbEntity
  8
寸法
  6
CONTINUOUS
 62
     3
100
AcDbDimension
  2
*D36
 10
1005.0
 20
738.5
 30
0.0
 11
1237.5
 21
773.75
 31
0.0
 70
   160
  1
200（床給水）
  3
STANDARD
100
AcDbAlignedDimension
 13
805.0
 23
940.5
 33
0.0
 14
1005.0
 24
940.5
 34
0.0
100
AcDbRotatedDimension
1001
ACAD
1000
DSTYLE
1002
{
1070
     6
1000
_EX_NORM
1070
     7
1000
_EX_NORM
1070
    41
1040
45.0
1070
    42
1040
10.5
1070
    44
1040
15.0
1070
    73
1070
     0
1070
    74
1070
     0
1070
    75
1070
     0
1070
    76
1070
     0
1070
    77
1070
     1
1070
    78
1070
     0
1070
   140
1040
60.0
1070
   147
1040
5.25
1070
   173
1070
     1
1070
   176
1070
     3
1070
   177
1070
     3
1070
   178
1070
     2
1070
   271
1070
     0
1070
   279
1070
     2
1070
   280
1070
     2
1070
   287
1070
     5
1070
   340
1005
5D7
1002
}
  0
TEXT
  5
6E2
100
AcDbEntity
  8
寸法
  6
CONTINUOUS
 62
     2
100
AcDbText
 10
603.0
 20
810.75
 30
0.0
 40
60.0
  1
床排水
 41
0.728
  7
EXCADSTD
 72
     5
 11
759.0
 21
810.75
 31
0.0
100
AcDbText
  0
LEADER
  5
6E3
100
AcDbEntity
  8
寸法
  6
CONTINUOUS
 62
     3
100
AcDbLeader
  3
STANDARD
 73
     3
 74
     1
 75
     0
 40
0.0
 76
     3
 10
889.0
 20
918.5
 30
0.0
 10
766.5
 20
805.5
 30
0.0
 10
591.0
 20
805.5
 30
0.0
 77
     3
1001
ACAD
1000
DSTYLE
1002
{
1070
    41
1040
45.0
1070
     5
1000
_EX_NORM
1070
     6
1000
_EX_NORM
1070
     7
1000
_EX_NORM
1070
   341
1005
2A
1002
}
  0
DIMENSION
  5
6EF
100
AcDbEntity
  8
寸法
  6
CONTINUOUS
 62
     3
100
AcDbDimension
  2
*D37
 10
1005.0
 20
4078.0
 30
0.0
 11
1237.5
 21
4113.25
 31
0.0
 70
   160
  1
200（壁給水）
  3
STANDARD
100
AcDbAlignedDimension
 13
805.0
 23
3981.0
 33
0.0
 14
1005.0
 24
3981.0
 34
0.0
100
AcDbRotatedDimension
1001
ACAD
1000
DSTYLE
1002
{
1070
     6
1000
_EX_NORM
1070
     7
1000
_EX_NORM
1070
    41
1040
45.0
1070
    42
1040
10.5
1070
    44
1040
15.0
1070
    73
1070
     0
1070
    74
1070
     0
1070
    75
1070
     0
1070
    76
1070
     0
1070
    77
1070
     1
1070
    78
1070
     0
1070
   140
1040
60.0
1070
   147
1040
5.25
1070
   173
1070
     1
1070
   176
1070
     3
1070
   177
1070
     3
1070
   178
1070
     2
1070
   271
1070
     0
1070
   279
1070
     2
1070
   280
1070
     2
1070
   287
1070
     5
1070
   340
1005
5D7
1002
}
  0
LINE
  5
6F0
100
AcDbEntity
  8
寸法
  6
CONTINUOUS
 62
     3
100
AcDbLine
 10
1175.0
 20
4152.0
 30
0.0
 11
1175.0
 21
4183.0
 31
0.0
  0
ENDSEC
  0
SECTION
  2
OBJECTS
  0
DICTIONARY
  5
19
100
AcDbDictionary
  3
ACAD_GROUP
350
1A
  3
ACAD_MLINESTYLE
350
1B
  0
DICTIONARY
  5
1A
102
{ACAD_REACTORS
330
19
102
}
100
AcDbDictionary
  0
DICTIONARY
  5
1B
102
{ACAD_REACTORS
330
19
102
}
100
AcDbDictionary
  3
STANDARD
350
1C
  0
MLINESTYLE
  5
1C
102
{ACAD_REACTORS
330
1B
102
}
100
AcDbMlineStyle
  2
Standard
 70
     0
  3

 62
     0
 51
90.0
 52
90.0
 71
     2
 49
0.5
 62
   256
  6
ByLayer
 49
-0.5
 62
   256
  6
ByLayer
  0
ENDSEC
  0
EOF
